  0
SECTION
  2
HEADER
  9
$ACADVER
  1
AC1024
  9
$ACADMAINTVER
 70
    10
  9
$DWGCODEPAGE
  3
ANSI_1252
  9
$INSBASE
 10
0.0
 20
0.0
 30
0.0
  9
$EXTMIN
 10
-0.0640820246935618
 20
-0.0825053143189507
 30
-0.0000000000000071
  9
$EXTMAX
 10
2100.064091803388
 20
2703.822933377555
 30
0.0000000000023393
  9
$LIMMIN
 10
0.0
 20
0.0
  9
$LIMMAX
 10
420.0
 20
297.0
  9
$ORTHOMODE
 70
     1
  9
$REGENMODE
 70
     1
  9
$FILLMODE
 70
     1
  9
$QTEXTMODE
 70
     0
  9
$MIRRTEXT
 70
     1
  9
$LTSCALE
 40
20.0
  9
$ATTMODE
 70
     1
  9
$TEXTSIZE
 40
2.5
  9
$TRACEWID
 40
1.0
  9
$TEXTSTYLE
  7
Standard
  9
$CLAYER
  8
03-01
  9
$CELTYPE
  6
ByLayer
  9
$CECOLOR
 62
   256
  9
$CELTSCALE
 40
1.0
  9
$DISPSILH
 70
     0
  9
$DIMSCALE
 40
2.5
  9
$DIMASZ
 40
2.5
  9
$DIMEXO
 40
1.0
  9
$DIMDLI
 40
10.0
  9
$DIMRND
 40
0.0
  9
$DIMDLE
 40
0.0
  9
$DIMEXE
 40
1.0
  9
$DIMTP
 40
0.0
  9
$DIMTM
 40
0.0
  9
$DIMTXT
 40
2.5
  9
$DIMCEN
 40
0.0
  9
$DIMTSZ
 40
0.0
  9
$DIMTOL
 70
     0
  9
$DIMLIM
 70
     0
  9
$DIMTIH
 70
     0
  9
$DIMTOH
 70
     0
  9
$DIMSE1
 70
     0
  9
$DIMSE2
 70
     0
  9
$DIMTAD
 70
     1
  9
$DIMZIN
 70
     8
  9
$DIMBLK
  1

  9
$DIMASO
 70
     1
  9
$DIMSHO
 70
     1
  9
$DIMPOST
  1

  9
$DIMAPOST
  1

  9
$DIMALT
 70
     0
  9
$DIMALTD
 70
     3
  9
$DIMALTF
 40
0.03937007874016
  9
$DIMLFAC
 40
1.0
  9
$DIMTOFL
 70
     1
  9
$DIMTVP
 40
0.0
  9
$DIMTIX
 70
     0
  9
$DIMSOXD
 70
     0
  9
$DIMSAH
 70
     0
  9
$DIMBLK1
  1

  9
$DIMBLK2
  1

  9
$DIMSTYLE
  2
Wagner
  9
$DIMCLRD
 70
     4
  9
$DIMCLRE
 70
     4
  9
$DIMCLRT
 70
     1
  9
$DIMTFAC
 40
1.0
  9
$DIMGAP
 40
1.0
  9
$DIMJUST
 70
     0
  9
$DIMSD1
 70
     0
  9
$DIMSD2
 70
     0
  9
$DIMTOLJ
 70
     0
  9
$DIMTZIN
 70
     8
  9
$DIMALTZ
 70
     0
  9
$DIMALTTZ
 70
     0
  9
$DIMUPT
 70
     0
  9
$DIMDEC
 70
     8
  9
$DIMTDEC
 70
     8
  9
$DIMALTU
 70
     2
  9
$DIMALTTD
 70
     3
  9
$DIMTXSTY
  7
Standard
  9
$DIMAUNIT
 70
     0
  9
$DIMADEC
 70
     2
  9
$DIMALTRND
 40
0.0
  9
$DIMAZIN
 70
     2
  9
$DIMDSEP
 70
    46
  9
$DIMATFIT
 70
     3
  9
$DIMFRAC
 70
     0
  9
$DIMLDRBLK
  1

  9
$DIMLUNIT
 70
     2
  9
$DIMLWD
 70
    -2
  9
$DIMLWE
 70
    -2
  9
$DIMTMOVE
 70
     0
  9
$DIMFXL
 40
1.0
  9
$DIMFXLON
 70
     0
  9
$DIMJOGANG
 40
0.7853981633974483
  9
$DIMTFILL
 70
     0
  9
$DIMTFILLCLR
 70
     0
  9
$DIMARCSYM
 70
     0
  9
$DIMLTYPE
  6

  9
$DIMLTEX1
  6

  9
$DIMLTEX2
  6

  9
$DIMTXTDIRECTION
 70
     0
  9
$LUNITS
 70
     2
  9
$LUPREC
 70
     2
  9
$SKETCHINC
 40
1.0
  9
$FILLETRAD
 40
0.0
  9
$AUNITS
 70
     0
  9
$AUPREC
 70
     0
  9
$MENU
  1
.
  9
$ELEVATION
 40
0.0
  9
$PELEVATION
 40
0.0
  9
$THICKNESS
 40
0.0
  9
$LIMCHECK
 70
     0
  9
$CHAMFERA
 40
10.0
  9
$CHAMFERB
 40
10.0
  9
$CHAMFERC
 40
20.0
  9
$CHAMFERD
 40
0.0
  9
$SKPOLY
 70
     0
  9
$TDCREATE
 40
2454235.615696736
  9
$TDUCREATE
 40
2454235.574030070
  9
$TDUPDATE
 40
2457487.381573611
  9
$TDUUPDATE
 40
2457487.339906945
  9
$TDINDWG
 40
0.0861869329
  9
$TDUSRTIMER
 40
0.0861829282
  9
$USRTIMER
 70
     1
  9
$ANGBASE
 50
0.0
  9
$ANGDIR
 70
     0
  9
$PDMODE
 70
     0
  9
$PDSIZE
 40
-1.0
  9
$PLINEWID
 40
0.0
  9
$SPLFRAME
 70
     0
  9
$SPLINETYPE
 70
     6
  9
$SPLINESEGS
 70
     8
  9
$HANDSEED
  5
317
  9
$SURFTAB1
 70
     6
  9
$SURFTAB2
 70
     6
  9
$SURFTYPE
 70
     6
  9
$SURFU
 70
     6
  9
$SURFV
 70
     6
  9
$UCSBASE
  2

  9
$UCSNAME
  2

  9
$UCSORG
 10
0.0
 20
0.0
 30
0.0
  9
$UCSXDIR
 10
1.0
 20
0.0
 30
0.0
  9
$UCSYDIR
 10
0.0
 20
1.0
 30
0.0
  9
$UCSORTHOREF
  2

  9
$UCSORTHOVIEW
 70
     0
  9
$UCSORGTOP
 10
0.0
 20
0.0
 30
0.0
  9
$UCSORGBOTTOM
 10
0.0
 20
0.0
 30
0.0
  9
$UCSORGLEFT
 10
0.0
 20
0.0
 30
0.0
  9
$UCSORGRIGHT
 10
0.0
 20
0.0
 30
0.0
  9
$UCSORGFRONT
 10
0.0
 20
0.0
 30
0.0
  9
$UCSORGBACK
 10
0.0
 20
0.0
 30
0.0
  9
$PUCSBASE
  2

  9
$PUCSNAME
  2

  9
$PUCSORG
 10
0.0
 20
0.0
 30
0.0
  9
$PUCSXDIR
 10
1.0
 20
0.0
 30
0.0
  9
$PUCSYDIR
 10
0.0
 20
1.0
 30
0.0
  9
$PUCSORTHOREF
  2

  9
$PUCSORTHOVIEW
 70
     0
  9
$PUCSORGTOP
 10
0.0
 20
0.0
 30
0.0
  9
$PUCSORGBOTTOM
 10
0.0
 20
0.0
 30
0.0
  9
$PUCSORGLEFT
 10
0.0
 20
0.0
 30
0.0
  9
$PUCSORGRIGHT
 10
0.0
 20
0.0
 30
0.0
  9
$PUCSORGFRONT
 10
0.0
 20
0.0
 30
0.0
  9
$PUCSORGBACK
 10
0.0
 20
0.0
 30
0.0
  9
$USERI1
 70
     0
  9
$USERI2
 70
     0
  9
$USERI3
 70
     0
  9
$USERI4
 70
     0
  9
$USERI5
 70
     0
  9
$USERR1
 40
0.0
  9
$USERR2
 40
0.0
  9
$USERR3
 40
0.0
  9
$USERR4
 40
0.0
  9
$USERR5
 40
0.0
  9
$WORLDVIEW
 70
     1
  9
$SHADEDGE
 70
     3
  9
$SHADEDIF
 70
    70
  9
$TILEMODE
 70
     1
  9
$MAXACTVP
 70
    64
  9
$PINSBASE
 10
0.0
 20
0.0
 30
0.0
  9
$PLIMCHECK
 70
     0
  9
$PEXTMIN
 10
1.000000000000000E+20
 20
1.000000000000000E+20
 30
1.000000000000000E+20
  9
$PEXTMAX
 10
-1.000000000000000E+20
 20
-1.000000000000000E+20
 30
-1.000000000000000E+20
  9
$PLIMMIN
 10
0.0
 20
0.0
  9
$PLIMMAX
 10
420.0
 20
297.0
  9
$UNITMODE
 70
     0
  9
$VISRETAIN
 70
     1
  9
$PLINEGEN
 70
     0
  9
$PSLTSCALE
 70
     1
  9
$TREEDEPTH
 70
  3020
  9
$CMLSTYLE
  2
Standard
  9
$CMLJUST
 70
     0
  9
$CMLSCALE
 40
20.0
  9
$PROXYGRAPHICS
 70
     1
  9
$MEASUREMENT
 70
     1
  9
$CELWEIGHT
370
    -1
  9
$ENDCAPS
280
     0
  9
$JOINSTYLE
280
     0
  9
$LWDISPLAY
290
     0
  9
$INSUNITS
 70
     4
  9
$HYPERLINKBASE
  1

  9
$STYLESHEET
  1

  9
$XEDIT
290
     1
  9
$CEPSNTYPE
380
     0
  9
$PSTYLEMODE
290
     1
  9
$FINGERPRINTGUID
  2
{30EBD513-3554-45D9-BA86-5707FC0F55F5}
  9
$VERSIONGUID
  2
{9064A62C-1B23-489A-8268-1A7DA4B9B723}
  9
$EXTNAMES
290
     1
  9
$PSVPSCALE
 40
0.0
  9
$OLESTARTUP
290
     0
  9
$SORTENTS
280
   127
  9
$INDEXCTL
280
     0
  9
$HIDETEXT
280
     1
  9
$XCLIPFRAME
280
     0
  9
$HALOGAP
280
     0
  9
$OBSCOLOR
 70
   257
  9
$OBSLTYPE
280
     0
  9
$INTERSECTIONDISPLAY
280
     0
  9
$INTERSECTIONCOLOR
 70
   257
  9
$DIMASSOC
280
     1
  9
$PROJECTNAME
  1

  9
$CAMERADISPLAY
290
     0
  9
$LENSLENGTH
 40
50.0
  9
$CAMERAHEIGHT
 40
0.0
  9
$STEPSPERSEC
 40
2.0
  9
$STEPSIZE
 40
6.0
  9
$3DDWFPREC
 40
2.0
  9
$PSOLWIDTH
 40
0.25
  9
$PSOLHEIGHT
 40
4.0
  9
$LOFTANG1
 40
1.570796326794896
  9
$LOFTANG2
 40
1.570796326794896
  9
$LOFTMAG1
 40
0.0
  9
$LOFTMAG2
 40
0.0
  9
$LOFTPARAM
 70
     7
  9
$LOFTNORMALS
280
     1
  9
$LATITUDE
 40
37.795
  9
$LONGITUDE
 40
-122.394
  9
$NORTHDIRECTION
 40
0.0
  9
$TIMEZONE
 70
 -8000
  9
$LIGHTGLYPHDISPLAY
280
     1
  9
$TILEMODELIGHTSYNCH
280
     1
  9
$CMATERIAL
347
3A
  9
$SOLIDHIST
280
     1
  9
$SHOWHIST
280
     1
  9
$DWFFRAME
280
     2
  9
$DGNFRAME
280
     0
  9
$REALWORLDSCALE
290
     1
  9
$INTERFERECOLOR
 62
     1
  9
$INTERFEREOBJVS
345
54
  9
$INTERFEREVPVS
346
55
  9
$CSHADOW
280
     0
  9
$SHADOWPLANELOCATION
 40
0.0
  0
ENDSEC
  0
SECTION
  2
CLASSES
  0
CLASS
  1
ACDBDICTIONARYWDFLT
  2
AcDbDictionaryWithDefault
  3
ObjectDBX Classes
 90
        0
 91
        1
280
     0
281
     0
  0
CLASS
  1
DICTIONARYVAR
  2
AcDbDictionaryVar
  3
ObjectDBX Classes
 90
        0
 91
        7
280
     0
281
     0
  0
CLASS
  1
MATERIAL
  2
AcDbMaterial
  3
ObjectDBX Classes
 90
     1153
 91
        3
280
     0
281
     0
  0
CLASS
  1
VISUALSTYLE
  2
AcDbVisualStyle
  3
ObjectDBX Classes
 90
     4095
 91
        3
280
     0
281
     0
  0
CLASS
  1
TABLESTYLE
  2
AcDbTableStyle
  3
ObjectDBX Classes
 90
     4095
 91
        1
280
     0
281
     0
  0
CLASS
  1
SCALE
  2
AcDbScale
  3
ObjectDBX Classes
 90
     1153
 91
       33
280
     0
281
     0
  0
CLASS
  1
MLEADERSTYLE
  2
AcDbMLeaderStyle
  3
ACDB_MLEADERSTYLE_CLASS
 90
     4095
 91
        0
280
     0
281
     0
  0
CLASS
  1
CELLSTYLEMAP
  2
AcDbCellStyleMap
  3
ObjectDBX Classes
 90
     1152
 91
        1
280
     0
281
     0
  0
CLASS
  1
SORTENTSTABLE
  2
AcDbSortentsTable
  3
ObjectDBX Classes
 90
        0
 91
        4
280
     0
281
     0
  0
CLASS
  1
AEC_REFEDIT_STATUS_TRACKER
  2
AecDbRefEditStatusTracker
  3
AecArchBase60|Product Desc: Autodesk Architectural Desktop 2007 |Company: Autodesk,Inc. |WEB Address: www.autodesk.com
 90
      129
 91
        0
280
     0
281
     0
  0
CLASS
  1
NPOCOLLECTION
  2
AcDbImpNonPersistentObjectsCollection
  3
ObjectDBX Classes
 90
     1153
 91
        0
280
     0
281
     0
  0
CLASS
  1
DIMASSOC
  2
AcDbDimAssoc
  3
"AcDbDimAssoc|Product Desc:     AcDim ARX App For Dimension|Company:          Autodesk, Inc.|WEB Address:      www.autodesk.com"
 90
        0
 91
        2
280
     0
281
     0
  0
ENDSEC
  0
SECTION
  2
TABLES
  0
TABLE
  2
VPORT
  5
2B
330
0
100
AcDbSymbolTable
 70
     1
  0
VPORT
  5
2C
330
2B
100
AcDbSymbolTableRecord
100
AcDbViewportTableRecord
  2
*Active
 70
     0
 10
0.0
 20
0.0
 11
1.0
 21
1.0
 12
581.8983389196983
 22
368.88650392315
 13
0.0
 23
0.0
 14
10.0
 24
10.0
 15
10.0
 25
10.0
 16
0.0
 26
0.0
 36
1.0
 17
149.1604397716
 27
104.6669368070999
 37
0.0
 40
1358.151013039477
 41
1.98076923076923
 42
50.0
 43
0.0
 44
0.0
 50
0.0
 51
0.0
 71
     0
 72
  1000
 73
     1
 74
     0
 75
     0
 76
     0
 77
     0
 78
     0
281
     0
 65
     1
110
0.0
120
0.0
130
0.0
111
1.0
121
0.0
131
0.0
112
0.0
122
1.0
132
0.0
 79
     0
146
0.0
348
2D
 60
     3
 61
     5
292
     1
282
     1
141
0.0
142
0.0
 63
   250
421
  3355443
  0
ENDTAB
  0
TABLE
  2
LTYPE
  5
26
330
0
100
AcDbSymbolTable
 70
     4
  0
LTYPE
  5
27
330
26
100
AcDbSymbolTableRecord
100
AcDbLinetypeTableRecord
  2
ByBlock
 70
     0
  3

 72
    65
 73
     0
 40
0.0
  0
LTYPE
  5
28
330
26
100
AcDbSymbolTableRecord
100
AcDbLinetypeTableRecord
  2
ByLayer
 70
     0
  3

 72
    65
 73
     0
 40
0.0
  0
LTYPE
  5
15
330
26
100
AcDbSymbolTableRecord
100
AcDbLinetypeTableRecord
  2
Continuous
 70
     0
  3
Solid line
 72
    65
 73
     0
 40
0.0
  0
LTYPE
  5
CE
330
26
100
AcDbSymbolTableRecord
100
AcDbLinetypeTableRecord
  2
AUSGEZOGEN
 70
     0
  3
Ausgezogene Linie
 72
    65
 73
     0
 40
0.0
  0
LTYPE
  5
2A7
330
26
100
AcDbSymbolTableRecord
100
AcDbLinetypeTableRecord
  2
STRICHPUNKT
 70
     0
  3
__ . __ . __ . __ . __ . __ . __ . __ . __ . __
 72
    65
 73
     4
 40
1.0
 49
0.5
 74
     0
 49
-0.25
 74
     0
 49
0.0
 74
     0
 49
-0.25
 74
     0
  0
LTYPE
  5
50
330
26
100
AcDbSymbolTableRecord
100
AcDbLinetypeTableRecord
  2
VERDECKT
 70
     0
  3
__ __ __ __ __ __ __ __ __ __ __ __ __ __ __ __
 72
    65
 73
     2
 40
0.375
 49
0.25
 74
     0
 49
-0.125
 74
     0
  0
ENDTAB
  0
TABLE
  2
LAYER
  5
20
102
{ACAD_XDICTIONARY
360
21
102
}
330
0
100
AcDbSymbolTable
 70
    10
  0
LAYER
  5
6
102
{ACAD_XDICTIONARY
360
7
102
}
330
20
100
AcDbSymbolTableRecord
100
AcDbLayerTableRecord
  2
0
 70
     0
 62
     7
  6
Continuous
370
    -3
390
9
347
C
  0
LAYER
  5
81
330
20
100
AcDbSymbolTableRecord
100
AcDbLayerTableRecord
  2
Defpoints
 70
     0
 62
     7
  6
Continuous
290
     0
370
    -3
390
9
347
C
  0
LAYER
  5
87
102
{ACAD_XDICTIONARY
360
88
102
}
330
20
100
AcDbSymbolTableRecord
100
AcDbLayerTableRecord
  2
09-01
 70
     0
 62
     7
  6
Continuous
370
    -3
390
9
347
C
  0
LAYER
  5
8F
102
{ACAD_XDICTIONARY
360
90
102
}
330
20
100
AcDbSymbolTableRecord
100
AcDbLayerTableRecord
  2
01-99
 70
     0
 62
     2
  6
Continuous
370
    -3
390
9
347
C
  0
LAYER
  5
CC
102
{ACAD_XDICTIONARY
360
CD
102
}
330
20
100
AcDbSymbolTableRecord
100
AcDbLayerTableRecord
  2
06-99
 70
     0
 62
     1
  6
AUSGEZOGEN
370
    -3
390
9
347
C
  0
LAYER
  5
B7
102
{ACAD_XDICTIONARY
360
B8
102
}
330
20
100
AcDbSymbolTableRecord
100
AcDbLayerTableRecord
  2
08-99
 70
     0
 62
     7
  6
Continuous
370
    -3
390
9
347
C
  0
LAYER
  5
93
102
{ACAD_XDICTIONARY
360
94
102
}
330
20
100
AcDbSymbolTableRecord
100
AcDbLayerTableRecord
  2
02-01
 70
     0
 62
     1
  6
Continuous
370
    -3
390
9
347
C
  0
LAYER
  5
2A5
102
{ACAD_XDICTIONARY
360
2A6
102
}
330
20
100
AcDbSymbolTableRecord
100
AcDbLayerTableRecord
  2
05-01
 70
     0
 62
     1
  6
STRICHPUNKT
370
    -3
390
9
347
C
  0
LAYER
  5
2D8
102
{ACAD_XDICTIONARY
360
2D9
102
}
330
20
100
AcDbSymbolTableRecord
100
AcDbLayerTableRecord
  2
10-98
 70
     0
 62
     4
  6
Continuous
370
    -3
390
9
347
C
  0
LAYER
  5
4E
102
{ACAD_XDICTIONARY
360
4F
102
}
330
20
100
AcDbSymbolTableRecord
100
AcDbLayerTableRecord
  2
03-01
 70
     0
 62
     3
  6
VERDECKT
370
    -3
390
9
347
C
  0
ENDTAB
  0
TABLE
  2
STYLE
  5
23
330
0
100
AcDbSymbolTable
 70
     3
  0
STYLE
  5
24
330
23
100
AcDbSymbolTableRecord
100
AcDbTextStyleTableRecord
  2
Standard
 70
     0
 40
0.0
 41
1.0
 50
0.0
 71
     0
 42
2.5
  3
txt
  4

  0
STYLE
  5
B9
330
23
100
AcDbSymbolTableRecord
100
AcDbTextStyleTableRecord
  2
ROMANS8
 70
     0
 40
0.0
 41
1.0
 50
0.0
 71
     0
 42
2.5
  3
romans.shx
  4

  0
STYLE
  5
DF
330
23
100
AcDbSymbolTableRecord
100
AcDbTextStyleTableRecord
  2
ROMAND8
 70
     0
 40
0.0
 41
1.0
 50
0.0
 71
     0
 42
3.5
  3
ROMAND8
  4

  0
ENDTAB
  0
TABLE
  2
VIEW
  5
29
330
0
100
AcDbSymbolTable
 70
     0
  0
ENDTAB
  0
TABLE
  2
UCS
  5
2A
330
0
100
AcDbSymbolTable
 70
     0
  0
ENDTAB
  0
TABLE
  2
APPID
  5
2F
330
0
100
AcDbSymbolTable
 70
     5
  0
APPID
  5
30
330
2F
100
AcDbSymbolTableRecord
100
AcDbRegAppTableRecord
  2
ACAD
 70
     0
  0
APPID
  5
33
330
2F
100
AcDbSymbolTableRecord
100
AcDbRegAppTableRecord
  2
ACAD_DSTYLE_DIMJOGGED_JOGANGLE_SYMBOL
 70
     0
  0
APPID
  5
34
330
2F
100
AcDbSymbolTableRecord
100
AcDbRegAppTableRecord
  2
ACAD_DSTYLE_DIMJAG
 70
     0
  0
APPID
  5
35
330
2F
100
AcDbSymbolTableRecord
100
AcDbRegAppTableRecord
  2
ACAD_DSTYLE_DIMTALN
 70
     0
  0
APPID
  5
1B
330
2F
100
AcDbSymbolTableRecord
100
AcDbRegAppTableRecord
  2
ACAD_PSEXT
 70
     0
  0
ENDTAB
  0
TABLE
  2
DIMSTYLE
  5
31
330
0
100
AcDbSymbolTable
 70
     2
100
AcDbDimStyleTable
 71
     1
340
32
  0
DIMSTYLE
105
32
102
{ACAD_REACTORS
330
2C1
330
2AA
102
}
330
31
100
AcDbSymbolTableRecord
100
AcDbDimStyleTableRecord
  2
Wagner
 70
     0
 41
2.5
 42
1.0
 43
10.0
 44
1.0
 73
     0
 74
     0
 77
     1
 78
     8
 79
     2
140
2.5
141
0.0
143
0.03937007874016
147
1.0
171
     3
172
     1
176
     4
177
     4
178
     1
179
     2
271
     8
272
     8
274
     3
283
     0
284
     8
340
24
1001
ACAD_DSTYLE_DIMJOGGED_JOGANGLE_SYMBOL
1070
   384
1040
0.7853981633974483
1001
ACAD_DSTYLE_DIMJAG
1070
   388
1040
1.5
1001
ACAD_DSTYLE_DIMTALN
1070
   392
1070
     0
  0
DIMSTYLE
105
85
102
{ACAD_REACTORS
330
77
330
241
330
125
330
118
330
13B
330
24E
330
1F9
330
149
330
156
102
}
330
31
100
AcDbSymbolTableRecord
100
AcDbDimStyleTableRecord
  2
Wagner$0
 70
     0
 41
2.5
 42
1.0
 43
10.0
 44
1.0
 73
     0
 74
     0
 77
     1
 78
     8
 79
     2
140
2.5
141
0.0
143
0.03937007874016
147
1.0
171
     3
172
     1
174
     1
176
     4
177
     4
178
     1
179
     2
271
     8
272
     8
274
     3
279
     2
283
     0
284
     8
340
24
1001
ACAD_DSTYLE_DIMJOGGED_JOGANGLE_SYMBOL
1070
   384
1040
0.7853981633974483
1001
ACAD_DSTYLE_DIMJAG
1070
   388
1040
1.5
1001
ACAD_DSTYLE_DIMTALN
1070
   392
1070
     0
  0
ENDTAB
  0
TABLE
  2
BLOCK_RECORD
  5
1
330
0
100
AcDbSymbolTable
 70
    12
  0
BLOCK_RECORD
  5
2
102
{ACAD_XDICTIONARY
360
3
102
}
330
1
100
AcDbSymbolTableRecord
100
AcDbBlockTableRecord
  2
*Model_Space
340
17
 70
     0
280
     1
281
     0
  0
BLOCK_RECORD
  5
1C
330
1
100
AcDbSymbolTableRecord
100
AcDbBlockTableRecord
  2
*Paper_Space
340
1F
 70
     0
280
     1
281
     0
  0
BLOCK_RECORD
  5
242
330
1
100
AcDbSymbolTableRecord
100
AcDbBlockTableRecord
  2
*D0
340
0
 70
     0
280
     1
281
     0
  0
BLOCK_RECORD
  5
78
330
1
100
AcDbSymbolTableRecord
100
AcDbBlockTableRecord
  2
*D1
340
0
 70
     0
280
     1
281
     0
  0
BLOCK_RECORD
  5
119
330
1
100
AcDbSymbolTableRecord
100
AcDbBlockTableRecord
  2
*D2
340
0
 70
     0
280
     1
281
     0
  0
BLOCK_RECORD
  5
126
330
1
100
AcDbSymbolTableRecord
100
AcDbBlockTableRecord
  2
*D3
340
0
 70
     0
280
     1
281
     0
  0
BLOCK_RECORD
  5
2C4
330
1
100
AcDbSymbolTableRecord
100
AcDbBlockTableRecord
  2
*D4
340
0
 70
     0
280
     1
281
     0
  0
BLOCK_RECORD
  5
2AD
330
1
100
AcDbSymbolTableRecord
100
AcDbBlockTableRecord
  2
*D5
340
0
 70
     0
280
     1
281
     0
  0
BLOCK_RECORD
  5
13C
330
1
100
AcDbSymbolTableRecord
100
AcDbBlockTableRecord
  2
*D6
340
0
 70
     0
280
     1
281
     0
  0
BLOCK_RECORD
  5
8A
102
{ACAD_XDICTIONARY
360
8B
102
}
330
1
100
AcDbSymbolTableRecord
100
AcDbBlockTableRecord
  2
DIN A4 Quer
340
0
102
{BLKREFS
331
86
102
}
 70
     4
280
     1
281
     0
  0
BLOCK_RECORD
  5
24F
330
1
100
AcDbSymbolTableRecord
100
AcDbBlockTableRecord
  2
*D8
340
0
 70
     0
280
     1
281
     0
  0
BLOCK_RECORD
  5
1FA
330
1
100
AcDbSymbolTableRecord
100
AcDbBlockTableRecord
  2
*D9
340
0
 70
     0
280
     1
281
     0
  0
BLOCK_RECORD
  5
14A
330
1
100
AcDbSymbolTableRecord
100
AcDbBlockTableRecord
  2
*D10
340
0
 70
     0
280
     1
281
     0
  0
BLOCK_RECORD
  5
157
330
1
100
AcDbSymbolTableRecord
100
AcDbBlockTableRecord
  2
*D11
340
0
 70
     0
280
     1
281
     0
  0
ENDTAB
  0
ENDSEC
  0
SECTION
  2
BLOCKS
  0
BLOCK
  5
5
330
2
100
AcDbEntity
  8
0
100
AcDbBlockBegin
  2
*Model_Space
 70
     0
 10
0.0
 20
0.0
 30
0.0
  3
*Model_Space
  1

  0
ENDBLK
  5
16
330
2
100
AcDbEntity
  8
0
100
AcDbBlockEnd
  0
BLOCK
  5
1D
330
1C
100
AcDbEntity
 67
     1
  8
0
100
AcDbBlockBegin
  2
*Paper_Space
 70
     0
 10
0.0
 20
0.0
 30
0.0
  3
*Paper_Space
  1

  0
ENDBLK
  5
1E
330
1C
100
AcDbEntity
 67
     1
  8
0
100
AcDbBlockEnd
  0
BLOCK
  5
243
330
242
100
AcDbEntity
  8
0
100
AcDbBlockBegin
  2
*D0
 70
     1
 10
0.0
 20
0.0
 30
0.0
  3
*D0
  1

  0
LINE
  5
244
330
242
100
AcDbEntity
  8
0
 62
     4
440
 16777216
370
    -2
100
AcDbLine
 10
896.9078186364141
 20
835.4360012528642
 30
0.0
 11
896.9078186364141
 21
909.1211919477917
 31
0.0
  0
LINE
  5
245
330
242
100
AcDbEntity
  8
0
 62
     4
440
 16777216
370
    -2
100
AcDbLine
 10
1047.739688972414
 20
799.6933012763638
 30
0.0
 11
1047.739688972414
 21
909.1211919477917
 31
0.0
  0
LINE
  5
246
330
242
100
AcDbEntity
  8
0
 62
     4
440
 16777216
370
    -2
100
AcDbLine
 10
909.4078186364141
 20
904.1211919477916
 30
0.0
 11
1035.239688972414
 21
904.1211919477916
 31
0.0
  0
SOLID
  5
247
330
242
100
AcDbEntity
  8
0
 62
     4
440
 16777216
100
AcDbTrace
 10
909.4078186364141
 20
906.204525281125
 30
0.0
 11
909.4078186364141
 21
902.0378586144582
 31
0.0
 12
896.9078186364141
 22
904.1211919477916
 32
0.0
 13
896.9078186364141
 23
904.1211919477916
 33
0.0
  0
SOLID
  5
248
330
242
100
AcDbEntity
  8
0
 62
     4
440
 16777216
100
AcDbTrace
 10
1035.239688972414
 20
906.204525281125
 30
0.0
 11
1035.239688972414
 21
902.0378586144582
 31
0.0
 12
1047.739688972414
 22
904.1211919477916
 32
0.0
 13
1047.739688972414
 23
904.1211919477916
 33
0.0
  0
MTEXT
  5
249
330
242
100
AcDbEntity
  8
0
 62
     1
440
 16777216
100
AcDbMText
 10
973.9842563154139
 20
915.3711919477917
 30
0.0
 40
12.5
 41
0.0
 46
0.0
 71
     5
 72
     1
  1
140
 73
     1
 44
1.0
  0
POINT
  5
24A
330
242
100
AcDbEntity
  8
Defpoints
 62
     0
440
 16777216
100
AcDbPoint
 10
896.9078186364141
 20
830.4360012528643
 30
0.0
  0
POINT
  5
24B
330
242
100
AcDbEntity
  8
Defpoints
 62
     0
440
 16777216
100
AcDbPoint
 10
1047.739688972414
 20
794.6933012763638
 30
0.0
  0
POINT
  5
24C
330
242
100
AcDbEntity
  8
Defpoints
 62
     0
440
 16777216
100
AcDbPoint
 10
1047.739688972414
 20
904.1211919477916
 30
0.0
  0
ENDBLK
  5
24D
330
242
100
AcDbEntity
  8
0
100
AcDbBlockEnd
  0
BLOCK
  5
79
330
78
100
AcDbEntity
  8
0
100
AcDbBlockBegin
  2
*D1
 70
     1
 10
0.0
 20
0.0
 30
0.0
  3
*D1
  1

  0
LINE
  5
7A
330
78
100
AcDbEntity
  8
0
 62
     4
440
 16777216
370
    -2
100
AcDbLine
 10
1029.429314976914
 20
826.4360020128638
 30
0.0
 11
1103.952302140414
 21
826.4360020128638
 31
0.0
  0
LINE
  5
7B
330
78
100
AcDbEntity
  8
0
 62
     4
440
 16777216
370
    -2
100
AcDbLine
 10
1029.428474943447
 20
616.436022587038
 30
0.0
 11
1103.952302140414
 21
616.436022587038
 31
0.0
  0
LINE
  5
7C
330
78
100
AcDbEntity
  8
0
 62
     4
440
 16777216
370
    -2
100
AcDbLine
 10
1098.952302140414
 20
813.9360020128638
 30
0.0
 11
1098.952302140414
 21
628.936022587038
 31
0.0
  0
SOLID
  5
7D
330
78
100
AcDbEntity
  8
0
 62
     4
440
 16777216
100
AcDbTrace
 10
1096.868968807081
 20
813.9360020128638
 30
0.0
 11
1101.035635473748
 21
813.9360020128638
 31
0.0
 12
1098.952302140414
 22
826.4360020128638
 32
0.0
 13
1098.952302140414
 23
826.4360020128638
 33
0.0
  0
SOLID
  5
7E
330
78
100
AcDbEntity
  8
0
 62
     4
440
 16777216
100
AcDbTrace
 10
1096.868968807081
 20
628.936022587038
 30
0.0
 11
1101.035635473748
 21
628.936022587038
 31
0.0
 12
1098.952302140414
 22
616.436022587038
 32
0.0
 13
1098.952302140414
 23
616.436022587038
 33
0.0
  0
MTEXT
  5
7F
330
78
100
AcDbEntity
  8
0
 62
     1
440
 16777216
100
AcDbMText
 10
1087.702302140414
 20
732.1674254558643
 30
0.0
 40
12.5
 41
0.0
 46
0.0
 71
     5
 72
     1
  1
210
 11
0.0000000000000001
 21
1.0
 31
0.0
 73
     1
 44
1.0
  0
POINT
  5
80
330
78
100
AcDbEntity
  8
Defpoints
 62
     0
440
 16777216
100
AcDbPoint
 10
1024.429314976915
 20
826.4360020128638
 30
0.0
  0
POINT
  5
82
330
78
100
AcDbEntity
  8
Defpoints
 62
     0
440
 16777216
100
AcDbPoint
 10
1024.428474943447
 20
616.436022587038
 30
0.0
  0
POINT
  5
83
330
78
100
AcDbEntity
  8
Defpoints
 62
     0
440
 16777216
100
AcDbPoint
 10
1098.952302140414
 20
616.436022587038
 30
0.0
  0
ENDBLK
  5
84
330
78
100
AcDbEntity
  8
0
100
AcDbBlockEnd
  0
BLOCK
  5
11A
330
119
100
AcDbEntity
  8
0
100
AcDbBlockBegin
  2
*D2
 70
     1
 10
0.0
 20
0.0
 30
0.0
  3
*D2
  1

  0
LINE
  5
11B
330
119
100
AcDbEntity
  8
0
 62
     4
440
 16777216
370
    -2
100
AcDbLine
 10
153.401645616158
 20
797.9360012528643
 30
0.0
 11
153.401645616158
 21
909.1211919477917
 31
0.0
  0
LINE
  5
11C
330
119
100
AcDbEntity
  8
0
 62
     4
440
 16777216
370
    -2
100
AcDbLine
 10
696.4016456161584
 20
797.9360012528643
 30
0.0
 11
696.4016456161584
 21
909.1211919477917
 31
0.0
  0
LINE
  5
11D
330
119
100
AcDbEntity
  8
0
 62
     4
440
 16777216
370
    -2
100
AcDbLine
 10
165.901645616158
 20
904.1211919477916
 30
0.0
 11
683.9016456161584
 21
904.1211919477916
 31
0.0
  0
SOLID
  5
11E
330
119
100
AcDbEntity
  8
0
 62
     4
440
 16777216
100
AcDbTrace
 10
165.901645616158
 20
906.204525281125
 30
0.0
 11
165.901645616158
 21
902.0378586144582
 31
0.0
 12
153.401645616158
 22
904.1211919477916
 32
0.0
 13
153.401645616158
 23
904.1211919477916
 33
0.0
  0
SOLID
  5
11F
330
119
100
AcDbEntity
  8
0
 62
     4
440
 16777216
100
AcDbTrace
 10
683.9016456161584
 20
906.204525281125
 30
0.0
 11
683.9016456161584
 21
902.0378586144582
 31
0.0
 12
696.4016456161584
 22
904.1211919477916
 32
0.0
 13
696.4016456161584
 23
904.1211919477916
 33
0.0
  0
MTEXT
  5
120
330
119
100
AcDbEntity
  8
0
 62
     1
440
 16777216
100
AcDbMText
 10
424.9016456161582
 20
915.3711919477917
 30
0.0
 40
12.5
 41
0.0
 46
0.0
 71
     5
 72
     1
  1
543
 73
     1
 44
1.0
  0
POINT
  5
121
330
119
100
AcDbEntity
  8
Defpoints
 62
     0
440
 16777216
100
AcDbPoint
 10
153.401645616158
 20
792.9360012528643
 30
0.0
  0
POINT
  5
122
330
119
100
AcDbEntity
  8
Defpoints
 62
     0
440
 16777216
100
AcDbPoint
 10
696.4016456161584
 20
792.9360012528643
 30
0.0
  0
POINT
  5
123
330
119
100
AcDbEntity
  8
Defpoints
 62
     0
440
 16777216
100
AcDbPoint
 10
696.4016456161584
 20
904.1211919477916
 30
0.0
  0
ENDBLK
  5
124
330
119
100
AcDbEntity
  8
0
100
AcDbBlockEnd
  0
BLOCK
  5
127
330
126
100
AcDbEntity
  8
0
100
AcDbBlockBegin
  2
*D3
 70
     1
 10
0.0
 20
0.0
 30
0.0
  3
*D3
  1

  0
LINE
  5
128
330
126
100
AcDbEntity
  8
0
 62
     4
440
 16777216
370
    -2
100
AcDbLine
 10
174.901645616158
 20
797.9360012528643
 30
0.0
 11
174.901645616158
 21
870.6152462652912
 31
0.0
  0
LINE
  5
129
330
126
100
AcDbEntity
  8
0
 62
     4
440
 16777216
370
    -2
100
AcDbLine
 10
674.9016456161585
 20
797.9360012528643
 30
0.0
 11
674.9016456161585
 21
870.6152462652912
 31
0.0
  0
LINE
  5
12A
330
126
100
AcDbEntity
  8
0
 62
     4
440
 16777216
370
    -2
100
AcDbLine
 10
187.401645616158
 20
865.6152462652912
 30
0.0
 11
662.4016456161585
 21
865.6152462652912
 31
0.0
  0
SOLID
  5
12B
330
126
100
AcDbEntity
  8
0
 62
     4
440
 16777216
100
AcDbTrace
 10
187.401645616158
 20
867.6985795986245
 30
0.0
 11
187.401645616158
 21
863.5319129319579
 31
0.0
 12
174.901645616158
 22
865.6152462652912
 32
0.0
 13
174.901645616158
 23
865.6152462652912
 33
0.0
  0
SOLID
  5
12C
330
126
100
AcDbEntity
  8
0
 62
     4
440
 16777216
100
AcDbTrace
 10
662.4016456161585
 20
867.6985795986245
 30
0.0
 11
662.4016456161585
 21
863.5319129319579
 31
0.0
 12
674.9016456161585
 22
865.6152462652912
 32
0.0
 13
674.9016456161585
 23
865.6152462652912
 33
0.0
  0
MTEXT
  5
12D
330
126
100
AcDbEntity
  8
0
 62
     1
440
 16777216
100
AcDbMText
 10
424.9016456161582
 20
876.8652462652912
 30
0.0
 40
12.5
 41
0.0
 46
0.0
 71
     5
 72
     1
  1
500
 73
     1
 44
1.0
  0
POINT
  5
12E
330
126
100
AcDbEntity
  8
Defpoints
 62
     0
440
 16777216
100
AcDbPoint
 10
174.901645616158
 20
792.9360012528643
 30
0.0
  0
POINT
  5
12F
330
126
100
AcDbEntity
  8
Defpoints
 62
     0
440
 16777216
100
AcDbPoint
 10
674.9016456161585
 20
792.9360012528643
 30
0.0
  0
POINT
  5
130
330
126
100
AcDbEntity
  8
Defpoints
 62
     0
440
 16777216
100
AcDbPoint
 10
674.9016456161585
 20
865.6152462652912
 30
0.0
  0
ENDBLK
  5
131
330
126
100
AcDbEntity
  8
0
100
AcDbBlockEnd
  0
BLOCK
  5
2C5
330
2C4
100
AcDbEntity
  8
0
100
AcDbBlockBegin
  2
*D4
 70
     1
 10
0.0
 20
0.0
 30
0.0
  3
*D4
  1

  0
LINE
  5
2C6
330
2C4
100
AcDbEntity
  8
0
 62
     4
440
 16777216
370
    -2
100
AcDbLine
 10
1216.209397026292
 20
496.3725420539089
 30
0.0
 11
1208.161449415138
 21
504.4204896650624
 31
0.0
  0
LINE
  5
2C7
330
2C4
100
AcDbEntity
  8
0
 62
     4
440
 16777216
370
    -2
100
AcDbLine
 10
1185.717864498326
 20
427.7389901049946
 30
0.0
 11
1176.398932314251
 21
427.7389901049947
 31
0.0
  0
ARC
  5
2C8
330
2C4
100
AcDbEntity
  8
0
 62
     4
440
 16777216
370
    -2
100
AcDbCircle
 10
1284.842948975206
 20
427.7389901049948
 30
0.0
 40
103.4440166609541
100
AcDbArc
 50
141.9277443748461
 51
173.0722556251538
  0
SOLID
  5
2C9
330
2C4
100
AcDbEntity
  8
0
 62
     4
440
 16777216
100
AcDbTrace
 10
1201.848877535595
 20
492.9096758132054
 30
0.0
 11
1204.967784857812
 21
490.1467917717498
 31
0.0
 12
1211.696983321071
 22
500.8849557591297
 32
0.0
 13
1211.696983321071
 23
500.8849557591297
 33
0.0
  0
SOLID
  5
2CA
330
2C4
100
AcDbEntity
  8
0
 62
     4
440
 16777216
100
AcDbTrace
 10
1184.233699021901
 20
440.0902805432842
 30
0.0
 11
1180.074644463124
 21
440.3420270193711
 31
0.0
 12
1181.398932314251
 22
427.7389901049948
 32
0.0
 13
1181.398932314251
 23
427.7389901049948
 33
0.0
  0
MTEXT
  5
2CB
330
2C4
100
AcDbEntity
  8
0
 62
     1
440
 16777216
100
AcDbMText
 10
1178.879494480642
 20
471.6304900725477
 30
0.0
 40
12.5
 41
0.0
 46
0.0
 71
     5
 72
     1
  1
45\U+00B0
 11
0.3826834323650898
 21
0.9238795325112867
 31
0.0
 73
     1
 44
1.0
  0
POINT
  5
2CC
330
2C4
100
AcDbEntity
  8
Defpoints
 62
     0
440
 16777216
100
AcDbPoint
 10
1195.257802677319
 20
479.4609984354718
 30
0.0
  0
POINT
  5
2CD
330
2C4
100
AcDbEntity
  8
Defpoints
 62
     0
440
 16777216
100
AcDbPoint
 10
1376.90544897521
 20
427.7389901049947
 30
0.0
  0
POINT
  5
2CE
330
2C4
100
AcDbEntity
  8
Defpoints
 62
     0
440
 16777216
100
AcDbPoint
 10
1349.940967018196
 20
362.6409720620041
 30
0.0
  0
POINT
  5
2CF
330
2C4
100
AcDbEntity
  8
Defpoints
 62
     0
440
 16777216
100
AcDbPoint
 10
1219.744930932224
 20
492.8370081479761
 30
0.0
  0
POINT
  5
2D0
330
2C4
100
AcDbEntity
  8
Defpoints
 62
     0
440
 16777216
100
AcDbPoint
 10
1190.717864498326
 20
427.7389901049947
 30
0.0
  0
ENDBLK
  5
2D1
330
2C4
100
AcDbEntity
  8
0
100
AcDbBlockEnd
  0
BLOCK
  5
2AE
330
2AD
100
AcDbEntity
  8
0
100
AcDbBlockBegin
  2
*D5
 70
     1
 10
0.0
 20
0.0
 30
0.0
  3
*D5
  1

  0
LINE
  5
2AF
330
2AD
100
AcDbEntity
  8
0
 62
     4
440
 16777216
370
    -2
100
AcDbLine
 10
1284.84294897521
 20
524.8014901049966
 30
0.0
 11
1284.84294897521
 21
566.448579999715
 31
0.0
  0
LINE
  5
2B0
330
2AD
100
AcDbEntity
  8
0
 62
     4
440
 16777216
370
    -2
100
AcDbLine
 10
1185.717864498327
 20
427.7389901049947
 30
0.0
 11
1146.13335908049
 21
427.7389901049948
 31
0.0
  0
ARC
  5
2B1
330
2AD
100
AcDbEntity
  8
0
 62
     4
440
 16777216
370
    -2
100
AcDbCircle
 10
1284.84294897521
 20
427.7389901049948
 30
0.0
 40
133.70958989472
100
AcDbArc
 50
95.35831653122755
 51
174.6416834687724
  0
SOLID
  5
2B2
330
2AD
100
AcDbEntity
  8
0
 62
     4
440
 16777216
100
AcDbTrace
 10
1272.259230726131
 20
562.9453474517817
 30
0.0
 11
1272.453993620006
 21
558.7832351844013
 31
0.0
 12
1284.84294897521
 22
561.4485799997149
 32
0.0
 13
1284.84294897521
 23
561.4485799997149
 33
0.0
  0
SOLID
  5
2B3
330
2AD
100
AcDbEntity
  8
0
 62
     4
440
 16777216
100
AcDbTrace
 10
1153.798703895804
 20
440.1279454601997
 30
0.0
 11
1149.636591628423
 21
440.3227083540741
 31
0.0
 12
1151.133359080491
 22
427.7389901049949
 32
0.0
 13
1151.133359080491
 23
427.7389901049949
 33
0.0
  0
MTEXT
  5
2B4
330
2AD
100
AcDbEntity
  8
0
 62
     1
440
 16777216
100
AcDbMText
 10
1185.825343401622
 20
533.6105938942953
 30
0.0
 40
12.5
 41
0.0
 46
0.0
 71
     5
 72
     1
  1
90\U+00B0
 11
0.7303525338764567
 21
0.683070403589732
 31
0.0
 73
     1
 44
1.0
  0
POINT
  5
2B5
330
2AD
100
AcDbEntity
  8
Defpoints
 62
     0
440
 16777216
100
AcDbPoint
 10
1169.047047396784
 20
494.5937850523549
 30
0.0
  0
POINT
  5
2B6
330
2AD
100
AcDbEntity
  8
Defpoints
 62
     0
440
 16777216
100
AcDbPoint
 10
1376.905448975211
 20
427.7389901049949
 30
0.0
  0
POINT
  5
2B7
330
2AD
100
AcDbEntity
  8
Defpoints
 62
     0
440
 16777216
100
AcDbPoint
 10
1284.84294897521
 20
335.6764901049932
 30
0.0
  0
POINT
  5
2B8
330
2AD
100
AcDbEntity
  8
Defpoints
 62
     0
440
 16777216
100
AcDbPoint
 10
1284.842948975211
 20
519.8014901049966
 30
0.0
  0
POINT
  5
2B9
330
2AD
100
AcDbEntity
  8
Defpoints
 62
     0
440
 16777216
100
AcDbPoint
 10
1190.717864498327
 20
427.7389901049949
 30
0.0
  0
ENDBLK
  5
2BA
330
2AD
100
AcDbEntity
  8
0
100
AcDbBlockEnd
  0
BLOCK
  5
13D
330
13C
100
AcDbEntity
  8
0
100
AcDbBlockBegin
  2
*D6
 70
     1
 10
0.0
 20
0.0
 30
0.0
  3
*D6
  1

  0
LINE
  5
13E
330
13C
100
AcDbEntity
  8
0
 62
     4
440
 16777216
370
    -2
100
AcDbLine
 10
190.9016401976582
 20
491.3143099197149
 30
0.0
 11
190.9016401976582
 21
550.1537214805477
 31
0.0
  0
LINE
  5
13F
330
13C
100
AcDbEntity
  8
0
 62
     4
440
 16777216
370
    -2
100
AcDbLine
 10
658.9016424029082
 20
491.3143099197149
 30
0.0
 11
658.9016424029082
 21
550.1537214805477
 31
0.0
  0
LINE
  5
140
330
13C
100
AcDbEntity
  8
0
 62
     4
440
 16777216
370
    -2
100
AcDbLine
 10
203.4016401976582
 20
545.1537214805476
 30
0.0
 11
646.4016424029082
 21
545.1537214805476
 31
0.0
  0
SOLID
  5
141
330
13C
100
AcDbEntity
  8
0
 62
     4
440
 16777216
100
AcDbTrace
 10
203.4016401976582
 20
547.237054813881
 30
0.0
 11
203.4016401976582
 21
543.0703881472143
 31
0.0
 12
190.9016401976582
 22
545.1537214805476
 32
0.0
 13
190.9016401976582
 23
545.1537214805476
 33
0.0
  0
SOLID
  5
142
330
13C
100
AcDbEntity
  8
0
 62
     4
440
 16777216
100
AcDbTrace
 10
646.4016424029082
 20
547.237054813881
 30
0.0
 11
646.4016424029082
 21
543.0703881472143
 31
0.0
 12
658.9016424029082
 22
545.1537214805476
 32
0.0
 13
658.9016424029082
 23
545.1537214805476
 33
0.0
  0
MTEXT
  5
143
330
13C
100
AcDbEntity
  8
0
 62
     1
440
 16777216
100
AcDbMText
 10
424.9016413002832
 20
556.4037214805477
 30
0.0
 40
12.5
 41
0.0
 46
0.0
 71
     5
 72
     1
  1
468
 73
     1
 44
1.0
  0
POINT
  5
144
330
13C
100
AcDbEntity
  8
Defpoints
 62
     0
440
 16777216
100
AcDbPoint
 10
190.9016401976582
 20
486.314309919715
 30
0.0
  0
POINT
  5
145
330
13C
100
AcDbEntity
  8
Defpoints
 62
     0
440
 16777216
100
AcDbPoint
 10
658.9016424029082
 20
486.314309919715
 30
0.0
  0
POINT
  5
146
330
13C
100
AcDbEntity
  8
Defpoints
 62
     0
440
 16777216
100
AcDbPoint
 10
658.9016424029082
 20
545.1537214805476
 30
0.0
  0
ENDBLK
  5
147
330
13C
100
AcDbEntity
  8
0
100
AcDbBlockEnd
  0
BLOCK
  5
8D
330
8A
100
AcDbEntity
  8
0
100
AcDbBlockBegin
  2
DIN A4 Quer
 70
     2
 10
0.0
 20
0.0
 30
0.0
  3
DIN A4 Quer
  1

  0
LINE
  5
8E
330
8A
100
AcDbEntity
  8
01-99
100
AcDbLine
 10
6.000001890710336
 20
6.000000518749175
 30
0.0
 11
6.000001890710223
 21
204.0000005187492
 31
0.0
  0
LINE
  5
91
330
8A
100
AcDbEntity
  8
01-99
100
AcDbLine
 10
6.000001890710223
 20
204.0000005187492
 30
0.0
 11
291.0000018907103
 21
204.0000005187492
 31
0.0
  0
LINE
  5
92
330
8A
100
AcDbEntity
  8
02-01
100
AcDbLine
 10
297.0000018907104
 20
210.0000005187492
 30
0.0
 11
0.0000018907103367
 21
210.0000005187492
 31
0.0
  0
LINE
  5
95
330
8A
100
AcDbEntity
  8
02-01
100
AcDbLine
 10
0.0000018907103367
 20
210.0000005187492
 30
0.0
 11
0.0000018907103367
 21
0.0000005187491752
 31
0.0
  0
LINE
  5
96
330
8A
100
AcDbEntity
  8
01-99
100
AcDbLine
 10
291.0000018907103
 20
6.000000518749288
 30
0.0
 11
291.0000018907103
 21
204.0000005187492
 31
0.0
  0
LINE
  5
97
330
8A
100
AcDbEntity
  8
01-99
100
AcDbLine
 10
291.0000018907103
 20
6.000000518749288
 30
0.0
 11
6.000001890710336
 21
6.000000518749175
 31
0.0
  0
LINE
  5
98
330
8A
100
AcDbEntity
  8
02-01
100
AcDbLine
 10
0.0000018907103367
 20
0.0000005187491752
 30
0.0
 11
297.0000018907104
 21
0.0000005187491752
 31
0.0
  0
LINE
  5
99
330
8A
100
AcDbEntity
  8
02-01
100
AcDbLine
 10
297.0000018907104
 20
0.0000005187491752
 30
0.0
 11
297.0000018907104
 21
210.0000005187492
 31
0.0
  0
LINE
  5
9A
330
8A
100
AcDbEntity
  8
01-99
100
AcDbLine
 10
157.0000018907103
 20
11.11111162974919
 30
0.0
 11
107.0000018907103
 21
11.11111162974919
 31
0.0
  0
LINE
  5
9B
330
8A
100
AcDbEntity
  8
01-99
100
AcDbLine
 10
157.0000018907103
 20
16.2222227407492
 30
0.0
 11
107.0000018907103
 21
16.2222227407492
 31
0.0
  0
LINE
  5
9C
330
8A
100
AcDbEntity
  8
01-99
100
AcDbLine
 10
157.0000018907103
 20
21.33333385174922
 30
0.0
 11
107.0000018907103
 21
21.33333385174916
 31
0.0
  0
LINE
  5
9D
330
8A
100
AcDbEntity
  8
01-99
100
AcDbLine
 10
202.0000018907103
 20
26.44444496274923
 30
0.0
 11
107.0000018907103
 21
26.44444496274918
 31
0.0
  0
LINE
  5
9E
330
8A
100
AcDbEntity
  8
01-99
100
AcDbLine
 10
202.0000018907103
 20
31.55555607374925
 30
0.0
 11
107.0000018907103
 21
31.55555607374919
 31
0.0
  0
LINE
  5
9F
330
8A
100
AcDbEntity
  8
01-99
100
AcDbLine
 10
132.0000018907103
 20
6.000000518749175
 30
0.0
 11
132.0000018907103
 21
11.11111162974919
 31
0.0
  0
LINE
  5
A0
330
8A
100
AcDbEntity
  8
01-99
100
AcDbLine
 10
115.0000018907103
 20
11.11111162974919
 30
0.0
 11
115.0000018907103
 21
36.66666718541586
 31
0.0
  0
LINE
  5
A1
330
8A
100
AcDbEntity
  8
01-99
100
AcDbLine
 10
157.0000018907103
 20
6.000000518749175
 30
0.0
 11
157.0000018907103
 21
52.00000051874917
 31
0.0
  0
LINE
  5
A2
330
8A
100
AcDbEntity
  8
01-99
100
AcDbLine
 10
202.0000018907103
 20
6.000000518749175
 30
0.0
 11
202.0000018907103
 21
52.00000051874917
 31
0.0
  0
LINE
  5
A3
330
8A
100
AcDbEntity
  8
01-99
100
AcDbLine
 10
231.5000018907103
 20
6.000000518749175
 30
0.0
 11
231.5000018907103
 21
16.22222274074926
 31
0.0
  0
LINE
  5
A4
330
8A
100
AcDbEntity
  8
01-99
100
AcDbLine
 10
264.0000018907104
 20
6.000000518749175
 30
0.0
 11
264.0000018907104
 21
16.22222274074931
 31
0.0
  0
LINE
  5
A5
330
8A
100
AcDbEntity
  8
01-99
100
AcDbLine
 10
235.5000018907103
 20
36.66666718541592
 30
0.0
 11
235.5000018907103
 21
52.00000051874929
 31
0.0
  0
LINE
  5
A6
330
8A
100
AcDbEntity
  8
01-99
100
AcDbLine
 10
269.0000018907103
 20
36.66666718541592
 30
0.0
 11
269.0000018907103
 21
52.00000051874929
 31
0.0
  0
LINE
  5
A7
330
8A
100
AcDbEntity
  8
01-99
100
AcDbLine
 10
165.0000018907103
 20
21.33333385208254
 30
0.0
 11
165.0000018907103
 21
36.66666718541592
 31
0.0
  0
LINE
  5
A8
330
8A
100
AcDbEntity
  8
01-99
100
AcDbLine
 10
147.0031902301398
 20
11.11111162974919
 30
0.0
 11
147.0031902301398
 21
36.66666718541586
 31
0.0
  0
LINE
  5
A9
330
8A
100
AcDbEntity
  8
01-99
100
AcDbLine
 10
135.0031902301398
 20
11.11111162974919
 30
0.0
 11
135.0031902301398
 21
36.66666718541586
 31
0.0
  0
LINE
  5
AA
330
8A
100
AcDbEntity
  8
01-99
100
AcDbLine
 10
291.0000018907103
 20
52.00000051874929
 30
0.0
 11
107.0000018907085
 21
52.00000051874917
 31
0.0
  0
LINE
  5
AB
330
8A
100
AcDbEntity
  8
01-99
100
AcDbLine
 10
202.0000018907103
 20
21.33333385208254
 30
0.0
 11
157.0000018907103
 21
21.33333385208254
 31
0.0
  0
LINE
  5
AC
330
8A
100
AcDbEntity
  8
01-99
100
AcDbLine
 10
202.0000018907103
 20
36.66666718541592
 30
0.0
 11
107.0000018907103
 21
36.66666718541581
 31
0.0
  0
LINE
  5
AD
330
8A
100
AcDbEntity
  8
01-99
100
AcDbLine
 10
179.0000018907103
 20
21.33333385208254
 30
0.0
 11
179.0000018907103
 21
52.00000051874923
 31
0.0
  0
LINE
  5
AE
330
8A
100
AcDbEntity
  8
01-99
100
AcDbLine
 10
157.0000018907103
 20
36.66666718541586
 30
0.0
 11
165.0000018907103
 21
31.5555560854159
 31
0.0
  0
LINE
  5
AF
330
8A
100
AcDbEntity
  8
01-99
100
AcDbLine
 10
157.0000018907103
 20
31.5555560854159
 30
0.0
 11
165.0000018907103
 21
36.66666718541592
 31
0.0
  0
LINE
  5
B0
330
8A
100
AcDbEntity
  8
01-99
100
AcDbLine
 10
291.0000018907103
 20
44.33333385208254
 30
0.0
 11
202.0000018907103
 21
44.33333385208249
 31
0.0
  0
LINE
  5
B1
330
8A
100
AcDbEntity
  8
01-99
100
AcDbLine
 10
202.0000018907103
 20
16.2222227407492
 30
0.0
 11
291.0000018907103
 21
16.22222274074931
 31
0.0
  0
LINE
  5
B2
330
8A
100
AcDbEntity
  8
01-99
100
AcDbLine
 10
202.0000018907103
 20
36.66666718541592
 30
0.0
 11
291.0000018907103
 21
36.66666718541597
 31
0.0
  0
LINE
  5
B3
330
8A
100
AcDbEntity
  8
01-99
100
AcDbLine
 10
179.0000018907103
 20
41.7777782967492
 30
0.0
 11
157.0000018907103
 21
41.7777782967492
 31
0.0
  0
LINE
  5
B4
330
8A
100
AcDbEntity
  8
01-99
100
AcDbLine
 10
179.0000018907103
 20
46.88888940774922
 30
0.0
 11
157.0000018907103
 21
46.88888940774916
 31
0.0
  0
LINE
  5
B5
330
8A
100
AcDbEntity
  8
01-99
100
AcDbLine
 10
107.0000018907085
 20
52.00000051874917
 30
0.0
 11
107.0000018907085
 21
6.000000518749175
 31
0.0
  0
TEXT
  5
B6
330
8A
100
AcDbEntity
  8
08-99
100
AcDbText
 10
203.4997030590166
 20
32.66987422660714
 30
0.0
 40
2.5
  1
Benennung/Teil:
 51
15.0
  7
ROMANS8
100
AcDbText
  0
TEXT
  5
BA
330
8A
100
AcDbEntity
  8
08-99
100
AcDbText
 10
265.5028293382777
 20
12.01760321297985
 30
0.0
 40
2.7
  1
Ident-Nr.
 51
15.0
  7
ROMANS8
100
AcDbText
  0
TEXT
  5
BB
330
8A
100
AcDbEntity
  8
08-99
100
AcDbText
 10
180.5000236238784
 20
33.05557748053161
 30
0.0
 40
2.5
  1
Name:
 51
15.0
  7
ROMANS8
100
AcDbText
  0
TEXT
  5
BC
330
8A
100
AcDbEntity
  8
08-99
100
AcDbText
 10
166.5077710332552
 20
33.04841847975365
 30
0.0
 40
2.5
  1
Datum:
 50
0.102528160689452
 41
0.8766785518453071
 51
15.0
  7
ROMANS8
 72
     5
 11
177.6749680403372
 21
33.06840168621363
 31
0.0
100
AcDbText
  0
TEXT
  5
BD
330
8A
100
AcDbEntity
  8
08-99
100
AcDbText
 10
116.5000099724457
 20
33.05597761772907
 30
0.0
 40
1.6
  1
Änderung:
 51
15.0
  7
ROMANS8
100
AcDbText
  0
TEXT
  5
BE
330
8A
100
AcDbEntity
  8
08-99
100
AcDbText
 10
133.4999399664632
 20
9.111119817911628
 30
0.0
 40
1.0
  1
ERSETZT.DURCH:
 51
15.0
  7
ROMANS8
100
AcDbText
  0
TEXT
  5
BF
330
8A
100
AcDbEntity
  8
08-99
100
AcDbText
 10
108.499362706382
 20
9.110854721685427
 30
0.0
 40
1.0
  1
ERSETZT.FÜR:
 51
15.0
  7
ROMANS8
100
AcDbText
  0
TEXT
  5
C0
330
8A
100
AcDbEntity
  8
08-99
100
AcDbText
 10
232.9909087328646
 20
12.61295738281296
 30
0.0
 40
2.112
  1
AUFTRAGS.NR.:
 51
15.0
  7
ROMANS8
100
AcDbText
  0
TEXT
  5
C1
330
8A
100
AcDbEntity
  8
08-99
100
AcDbText
 10
203.5034660957227
 20
12.61092917477953
 30
0.0
 40
2.112
  1
Sonder-Nr:
 51
15.0
  7
ROMANS8
100
AcDbText
  0
TEXT
  5
C2
330
8A
100
AcDbEntity
  8
08-99
100
AcDbText
 10
186.6963093857886
 20
49.92370902579148
 30
0.0
 40
1.349999999999999
  1
Format
 51
15.0
  7
ROMANS8
100
AcDbText
  0
TEXT
  5
C3
330
8A
100
AcDbEntity
  8
08-99
100
AcDbText
 10
185.3043816374782
 20
44.64161931184992
 30
0.0
 40
1.822499999999999
  1
Normen
 51
15.0
  7
ROMANS8
100
AcDbText
  0
TEXT
  5
C4
330
8A
100
AcDbEntity
  8
08-99
100
AcDbText
 10
108.5000314946119
 20
33.0555683543073
 30
0.0
 40
1.6
  1
Zust.
 51
15.0
  7
ROMANS8
100
AcDbText
  0
TEXT
  5
C5
330
8A
100
AcDbEntity
  8
08-99
100
AcDbText
 10
136.5031825918795
 20
33.05555977024574
 30
0.0
 40
1.6
  1
Datum:
 51
15.0
  7
ROMANS8
100
AcDbText
  0
TEXT
  5
C6
330
8A
100
AcDbEntity
  8
08-99
100
AcDbText
 10
148.5032155076424
 20
33.05556457669462
 30
0.0
 40
1.6
  1
Name:
 51
15.0
  7
ROMANS8
100
AcDbText
  0
TEXT
  5
C7
330
8A
100
AcDbEntity
  8
08-99
100
AcDbText
 10
158.1545563363015
 20
28.03814008669803
 30
0.0
 40
1.6
  1
Erst.
 51
15.0
  7
ROMANS8
100
AcDbText
  0
TEXT
  5
C8
330
8A
100
AcDbEntity
  8
08-99
100
AcDbText
 10
157.517182253021
 20
23.19745157817022
 30
0.0
 40
1.6
  1
Bearb.
 51
15.0
  7
ROMANS8
100
AcDbText
  0
TEXT
  5
C9
330
8A
100
AcDbEntity
  8
08-99
100
AcDbText
 10
236.4308068024784
 20
41.61949801145603
 30
0.0
 40
2.0
  1
Zuschnittsbreite:
 51
15.0
  7
ROMANS8
100
AcDbText
  0
TEXT
  5
CA
330
8A
100
AcDbEntity
  8
08-99
100
AcDbText
 10
202.9849966647425
 20
41.73762414686279
 30
0.0
 40
2.0
  1
Zuschnittslänge:
 51
15.0
  7
ROMANS8
100
AcDbText
  0
LWPOLYLINE
  5
CB
330
8A
100
AcDbEntity
  8
06-99
100
AcDbPolyline
 90
      133
 70
     1
 43
0.010692
 10
180.7675417027103
 20
18.87656536808259
 10
181.0090490347104
 20
19.08724766408261
 10
180.9228536947104
 20
19.2262579200825
 10
180.8242663267103
 20
19.35180694808264
 10
180.7136290747105
 20
19.46394108008263
 10
180.5912983387103
 20
19.56271377608249
 10
180.4576162627104
 20
19.64816424008256
 10
180.3129285547104
 20
19.72033880408253
 10
180.1575880507104
 20
19.77929092808256
 10
179.9919368947105
 20
19.82505981608255
 10
179.8163243587104
 20
19.85769180008265
 10
179.6310997147105
 20
19.87724034008261
 10
179.4366086707105
 20
19.88374464008257
 10
179.2756833787104
 20
19.87768227608256
 10
179.1199437067102
 20
19.85975892008253
 10
178.9697211067105
 20
19.83036304808269
 10
178.8253505947104
 20
19.78989026408254
 10
178.6871636227104
 20
19.73873617208267
 10
178.5554845147104
 20
19.67729281208255
 10
178.4306554147105
 20
19.60595222408256
 10
178.3130006467104
 20
19.52510644808251
 10
178.2028516627103
 20
19.43514752408259
 10
178.1005470427104
 20
19.33647462008258
 10
178.0064075467105
 20
19.2294726480826
 10
177.9207717547105
 20
19.1145443400826
 10
177.8439711187104
 20
18.99207460808259
 10
177.7763335267104
 20
18.86245905608262
 10
177.7181939947104
 20
18.72608972408255
 10
177.6698804107104
 20
18.58336578008254
 10
177.6317242267105
 20
18.43467213608255
 10
177.6040640227103
 20
18.28040796008252
 10
177.5872205587104
 20
18.12096172808259
 10
177.5815359787104
 20
17.95672904408258
 10
177.5871492787104
 20
17.78762437208263
 10
177.6038002867105
 20
17.62428981608258
 10
177.6311896267102
 20
17.46704257208256
 10
177.6690179227102
 20
17.31619627208249
 10
177.7169893627103
 20
17.17206454808257
 10
177.7748081347105
 20
17.0349610320826
 10
177.8421784267104
 20
16.90519579208256
 10
177.9188008627104
 20
16.78308602408253
 10
178.0043796307104
 20
16.66894179608255
 10
178.0986224827104
 20
16.56308030408257
 10
178.2012229147103
 20
16.46581161608259
 10
178.3118958067103
 20
16.3774529280825
 10
178.4303346547105
 20
16.29831430808264
 10
178.5562472107103
 20
16.22870938808262
 10
178.6893340987103
 20
16.16895536408253
 10
178.8293030707103
 20
16.11936230408258
 10
178.9758511867105
 20
16.08024384008263
 10
179.1286897627103
 20
16.05191360408264
 10
179.2875122947104
 20
16.03468522808259
 10
179.4520300987104
 20
16.02887234408263
 10
179.6160275587104
 20
16.03412568008258
 10
179.7733603387104
 20
16.04976451208262
 10
179.9238395467104
 20
16.07559638408259
 10
180.0672762907103
 20
16.11142884008262
 10
180.2034852427104
 20
16.15707298808257
 10
180.3322739467103
 20
16.21233993608257
 10
180.4534570747104
 20
16.27703722808258
 10
180.5668386067104
 20
16.3509795360826
 10
180.6722403427104
 20
16.43397440408256
 10
180.7694626987104
 20
16.52582581208259
 10
180.8583239107104
 20
16.62635556008257
 10
180.9386350867105
 20
16.73536050008255
 10
181.0102037707104
 20
16.85266243208258
 10
181.0728410707104
 20
16.97806177208258
 10
181.1263616587105
 20
17.11137319208251
 10
181.1705766427103
 20
17.25240423608255
 10
181.2052900027104
 20
17.40096601208256
 10
181.2303235387104
 20
17.55686962808261
 10
181.2454812307105
 20
17.71992619208254
 10
181.2505741867103
 20
17.88993968408255
 10
181.2505741867103
 20
17.88993968408255
 10
181.2505741867103
 20
17.9413218720826
 10
179.6164659307104
 20
17.9413218720826
 10
179.6164659307104
 20
17.65355025608255
 10
180.8857275067103
 20
17.65355025608255
 10
180.8749891747103
 20
17.49100690808257
 10
180.8476568587103
 20
17.33636138408258
 10
180.8044362307105
 20
17.19027658808261
 10
180.7460329627104
 20
17.05341898808257
 10
180.6731598547105
 20
16.9264443600826
 10
180.5865261427104
 20
16.8100263000826
 10
180.4868303707104
 20
16.7048170200826
 10
180.3747889027104
 20
16.61149011608256
 10
180.2511074107103
 20
16.53069780008258
 10
180.1164915667104
 20
16.4631101040826
 10
179.9716506067103
 20
16.40938636808255
 10
179.8172937667104
 20
16.37019306008267
 10
179.6541267187105
 20
16.34618952008253
 10
179.4828586987105
 20
16.33804221608261
 10
179.3181983347104
 20
16.34599350008256
 10
179.1599032747103
 20
16.36937690408251
 10
179.0085651427103
 20
16.40748319208256
 10
178.8647719987102
 20
16.45960669208256
 10
178.7291047747104
 20
16.52503816808257
 10
178.6021550947103
 20
16.60306838408263
 10
178.4845074547104
 20
16.69299523208258
 10
178.3767534787104
 20
16.79410591208267
 10
178.2794776627105
 20
16.90569475208258
 10
178.1932645027103
 20
17.02705608008256
 10
178.1187056227104
 20
17.15747709608257
 10
178.0563855187104
 20
17.29625569208258
 10
178.0068922507104
 20
17.44268263208255
 10
177.9708138787102
 20
17.59604511608262
 10
177.9487348987103
 20
17.75564460008269
 10
177.9412469347104
 20
17.9207682840825
 10
177.9476336227105
 20
18.0891423360826
 10
177.9665370787104
 20
18.25115464808255
 10
177.9975581347105
 20
18.40630626008254
 10
178.0403011867104
 20
18.55410177608257
 10
178.0943741947103
 20
18.69404580008256
 10
178.1593779907104
 20
18.8256465000826
 10
178.2349169707104
 20
18.94840135208261
 10
178.3205990947104
 20
19.06182208808258
 10
178.4160251947103
 20
19.16540618408265
 10
178.5208067947103
 20
19.25866180808253
 10
178.6345375987105
 20
19.3410900000826
 10
178.7568326947105
 20
19.4121989280826
 10
178.8872893507102
 20
19.47148963208258
 10
179.0255155267105
 20
19.51846671608257
 10
179.1711191827105
 20
19.55263478408255
 10
179.3236975867105
 20
19.57350200408257
 10
179.4828586987105
 20
19.5805658520826
 10
179.6605633027104
 20
19.57164872408259
 10
179.8303166227105
 20
19.54501138808257
 10
179.9917800787104
 20
19.50082135208259
 10
180.1446150907104
 20
19.43924612408256
 10
180.2884830787104
 20
19.36046034008256
 10
180.4230490267105
 20
19.26462794408263
 10
180.5479743547104
 20
19.15192357208258
 10
180.6629169187105
 20
19.02251116808264
  0
LWPOLYLINE
  5
CF
330
8A
100
AcDbEntity
  8
06-99
100
AcDbPolyline
 90
       12
 70
     1
 43
0.010692
 10
177.4389973627103
 20
12.25281434408265
 10
179.3222648587105
 20
12.25281434408265
 10
179.4676012147104
 20
13.00768023608259
 10
178.5648720907104
 20
13.00768023608259
 10
178.6210549867103
 20
13.29950768408252
 10
179.4187173907104
 20
13.29950768408252
 10
179.5558030867103
 20
14.01156280808254
 10
178.7581406827103
 20
14.01156280808254
 10
178.8098471947103
 20
14.28005674808253
 10
179.6892285547103
 20
14.28005674808253
 10
179.8345542187104
 20
15.0349083840826
 10
177.9746344867104
 20
15.0349083840826
  0
LWPOLYLINE
  5
D0
330
8A
100
AcDbEntity
  8
06-99
100
AcDbPolyline
 90
        4
 70
     1
 43
0.010692
 10
163.6086138067104
 20
12.88042761608255
 10
176.0658630067103
 20
12.88042761608255
 10
175.9422848707104
 20
12.25209798008257
 10
163.4850392347104
 20
12.25209798008257
  0
SOLID
  5
D1
330
8A
100
AcDbEntity
  8
06-99
100
AcDbTrace
 10
163.6086138067104
 20
12.88042761608255
 30
0.0
 11
176.0658630067103
 21
12.88042761608255
 31
0.0
 12
163.4850392347104
 22
12.25209798008257
 32
0.0
 13
175.9422848707104
 23
12.25209798008257
 33
0.0
  0
LWPOLYLINE
  5
D2
330
8A
100
AcDbEntity
  8
06-99
100
AcDbPolyline
 90
       10
 70
     1
 43
0.010692
 10
169.3458447787104
 20
16.02887234408263
 10
170.3221847587103
 20
19.10266909208258
 10
171.3396497347103
 20
16.02887234408263
 10
172.5678005707104
 20
19.80153385208257
 10
172.2235110427103
 20
19.80153385208257
 10
171.3396497347103
 20
16.89303186008254
 10
170.3221847587103
 20
19.94541253208251
 10
169.3458447787104
 20
16.86733898408261
 10
168.4260120187104
 20
19.80153385208257
 10
168.0765832027105
 20
19.80153385208257
  0
LWPOLYLINE
  5
D3
330
8A
100
AcDbEntity
  8
06-99
100
AcDbPolyline
 90
        3
 70
     1
 43
0.010692
 10
174.3244177627104
 20
17.65868598008262
 10
174.9770360587104
 20
19.25683347608253
 10
175.6039650427103
 20
17.65868598008262
  0
LWPOLYLINE
  5
D4
330
8A
100
AcDbEntity
  8
06-99
100
AcDbPolyline
 90
        7
 70
     1
 43
0.010692
 10
173.3831831827104
 20
16.12735992008254
 10
173.7231959107104
 20
16.12735992008254
 10
174.2113641187103
 20
17.37092862008256
 10
175.7118651427105
 20
17.37092862008256
 10
176.1794940187103
 20
16.12735992008254
 10
176.5443406987103
 20
16.12735992008254
 10
174.9975932107104
 20
19.94541253208251
  0
LWPOLYLINE
  5
D5
330
8A
100
AcDbEntity
  8
06-99
100
AcDbPolyline
 90
        8
 70
     1
 43
0.010692
 10
185.9298068107102
 20
12.25281434408265
 10
187.0043813227103
 20
12.25281434408265
 10
187.1574087907104
 20
12.60301298408257
 10
187.9122746827104
 20
12.60301298408257
 10
187.9343465347103
 20
12.25281434408265
 10
189.0082759627103
 20
12.25281434408265
 10
188.5711513627103
 20
15.0349083840826
 10
187.4583137467103
 20
15.0349083840826
  0
LWPOLYLINE
  5
D6
330
8A
100
AcDbEntity
  8
06-99
100
AcDbPolyline
 90
       34
 70
     1
 43
0.010692
 10
183.0434586427104
 20
13.66137842408255
 10
183.0784820707102
 20
13.66137842408255
 10
183.0642260707104
 20
13.48699903208262
 10
183.0638019547103
 20
13.33510135208257
 10
183.0679005547104
 20
13.20222830408261
 10
183.0952328707104
 20
12.25281434408265
 10
183.9668304547102
 20
12.25281434408265
 10
185.3156904067102
 20
15.0349083840826
 10
184.3118078347104
 20
15.0349083840826
 10
183.8579146147103
 20
13.80923096408253
 10
183.8078119027104
 20
13.66872739208253
 10
183.7488419587103
 20
13.48671391208251
 10
183.6900288307102
 20
13.26059949608265
 10
183.6666953227103
 20
13.26059949608265
 10
183.6884214667103
 20
13.45803440408258
 10
183.6929798227104
 20
13.61569507208253
 10
183.6919391347103
 20
13.73531360408259
 10
183.6775548307103
 20
15.0349083840826
 10
182.9732870467103
 20
15.0349083840826
 10
182.4584850667104
 20
13.73531360408259
 10
182.4113832427102
 20
13.61569507208253
 10
182.3552288587104
 20
13.45803440408258
 10
182.3009241907103
 20
13.26059949608265
 10
182.2775906827103
 20
13.26059949608265
 10
182.3058460747104
 20
13.48671391208251
 10
182.3169657547104
 20
13.66872739208253
 10
182.3209609987103
 20
13.80923096408253
 10
182.3390340427103
 20
15.0349083840826
 10
181.3345063867103
 20
15.0349083840826
 10
181.6127371747104
 20
12.25281434408265
 10
182.4843311947103
 20
12.25281434408265
 10
182.8772408107104
 20
13.20222830408261
 10
182.9325148867103
 20
13.33510135208257
 10
182.9905795747104
 20
13.48699903208262
  0
LWPOLYLINE
  5
D7
330
8A
100
AcDbEntity
  8
06-99
100
AcDbPolyline
 90
       10
 70
     1
 43
0.010692
 10
187.4520696187103
 20
13.2644842560826
 10
187.5983611267103
 20
13.57965946808258
 10
187.6731124627104
 20
13.74409530008267
 10
187.7541542587104
 20
13.9457107800826
 10
187.8288307507103
 20
14.19056470808266
 10
187.8482901907103
 20
14.19056470808266
 10
187.8286668067103
 20
13.9457107800826
 10
187.8320739907103
 20
13.74409530008267
 10
187.8435073027103
 20
13.57965946808258
 10
187.8684125347105
 20
13.2644842560826
  0
LWPOLYLINE
  5
D8
330
8A
100
AcDbEntity
  8
06-99
100
AcDbPolyline
 90
       23
 70
     1
 43
0.010692
 10
190.5867074107104
 20
12.25281434408265
 10
191.5672422187102
 20
12.25281434408265
 10
191.7440380027103
 20
13.17110389208255
 10
192.0536284267105
 20
12.25281434408265
 10
193.1742391267103
 20
12.25281434408265
 10
192.6490694707104
 20
13.38511496408256
 10
192.8084301667104
 20
13.42380931208259
 10
192.9537023707103
 20
13.49881725608259
 10
193.0813505947103
 20
13.60690268408257
 10
193.1878322227103
 20
13.74481879208258
 10
193.2696010747103
 20
13.90932234008255
 10
193.3231145347102
 20
14.09717008808257
 10
193.3446018907103
 20
14.26809240008259
 10
193.3403037067103
 20
14.42330103608265
 10
193.3102306747104
 20
14.56226139608259
 10
193.2543934867102
 20
14.6844353160825
 10
193.1728099627103
 20
14.78928819608262
 10
193.0654943587103
 20
14.87627830808259
 10
192.9324538027104
 20
14.94487461608258
 10
192.7737096787102
 20
14.99453539208264
 10
192.5892655507103
 20
15.0247260360826
 10
192.3791463667103
 20
15.0349083840826
 10
191.1223445347103
 20
15.0349083840826
  0
LWPOLYLINE
  5
D9
330
8A
100
AcDbEntity
  8
06-99
100
AcDbPolyline
 90
        9
 70
     1
 43
0.010692
 10
191.9650345147104
 20
14.31896493608258
 10
192.1206850867104
 20
14.31896493608258
 10
192.2773549627104
 20
14.28538492808252
 10
192.3582221227102
 20
14.19041145608264
 10
192.3632188507104
 20
14.04270147608258
 10
192.3008666707103
 20
13.89700159208263
 10
192.1832938747103
 20
13.8057810120826
 10
192.0158143867103
 20
13.77422179208253
 10
191.8601638147104
 20
13.77422179208253
  0
LWPOLYLINE
  5
DA
330
8A
100
AcDbEntity
  8
06-99
100
AcDbPolyline
 90
       12
 70
     1
 43
0.010692
 10
187.5798033787105
 20
16.12735992008254
 10
189.3989010547104
 20
16.12735992008254
 10
189.3989010547104
 20
16.44082441208252
 10
187.9138214587104
 20
16.44082441208252
 10
187.9138214587104
 20
18.02353266008265
 10
189.3989010547104
 20
18.02353266008265
 10
189.3989010547104
 20
18.33699715208263
 10
187.9138214587104
 20
18.33699715208263
 10
187.9138214587104
 20
19.48806936008259
 10
189.3989010547104
 20
19.48806936008259
 10
189.3989010547104
 20
19.80153385208257
 10
187.5798033787105
 20
19.80153385208257
  0
LWPOLYLINE
  5
DB
330
8A
100
AcDbEntity
  8
06-99
100
AcDbPolyline
 90
        8
 70
     1
 43
0.010692
 10
182.8530269947105
 20
16.12735992008254
 10
183.1870486387104
 20
16.12735992008254
 10
183.1870486387104
 20
19.09753336808256
 10
185.7666682747103
 20
16.01858664008256
 10
185.7666682747103
 20
19.80153385208257
 10
185.4326608867104
 20
19.80153385208257
 10
185.4326608867104
 20
16.88274615608259
 10
182.8530269947105
 20
19.95568398008254
  0
LWPOLYLINE
  5
DC
330
8A
100
AcDbEntity
  8
06-99
100
AcDbPolyline
 90
       19
 70
     1
 43
0.010692
 10
191.4484255867105
 20
19.50862651208251
 10
191.7824329747104
 20
19.50862651208251
 10
191.9866180987103
 20
19.50030813608259
 10
192.1604486347104
 20
19.47385969208255
 10
192.3048975547104
 20
19.4270572440825
 10
192.4209200107105
 20
19.35767329208255
 10
192.5094818467105
 20
19.26348033608252
 10
192.5715453427103
 20
19.14225087608264
 10
192.6080799067104
 20
18.99175028408251
 10
192.6200442547104
 20
18.80976175208258
 10
192.6074490787103
 20
18.63100933208255
 10
192.5693784307105
 20
18.48586186808256
 10
192.5054188867104
 20
18.37130421608265
 10
192.4151392027104
 20
18.28432836008261
 10
192.2981259547105
 20
18.2219227200826
 10
192.1539514627104
 20
18.18107215208255
 10
191.9821916107103
 20
18.15877220408265
 10
191.7824329747104
 20
18.15200773208261
 10
191.4484255867105
 20
18.15200773208261
  0
LWPOLYLINE
  5
DD
330
8A
100
AcDbEntity
  8
06-99
100
AcDbPolyline
 90
       29
 70
     1
 43
0.010692
 10
193.3446018907103
 20
16.12735992008254
 10
192.0239581267103
 20
17.87965398008259
 10
192.2123761147105
 20
17.89225272008264
 10
192.3829028227104
 20
17.92942167608254
 10
192.5344013347104
 20
17.99023064408266
 10
192.6657240427104
 20
18.0737565480826
 10
192.7757304667104
 20
18.17905849208256
 10
192.8632765627103
 20
18.3052169640826
 10
192.9272254147104
 20
18.45129463208263
 10
192.9664329787103
 20
18.61636129208261
 10
192.9797552107102
 20
18.79949030408261
 10
192.9699399547105
 20
18.9745539840826
 10
192.9404834947105
 20
19.13261738408261
 10
192.8913573187104
 20
19.27374822008261
 10
192.8225436067105
 20
19.39801420808248
 10
192.7340174107104
 20
19.50548662808262
 10
192.6257537827105
 20
19.5962367600826
 10
192.4977313387104
 20
19.67032875608254
 10
192.3499251307103
 20
19.72783389608258
 10
192.1823137747103
 20
19.76882702408261
 10
191.9948758867103
 20
19.79336872808261
 10
191.7875829547104
 20
19.80153385208257
 10
191.7875829547104
 20
19.80153385208257
 10
191.1144075067104
 20
19.80153385208257
 10
191.1144075067104
 20
16.12735992008254
 10
191.4484255867105
 20
16.12735992008254
 10
191.4484255867105
 20
17.87965398008259
 10
191.6488399987104
 20
17.87965398008259
 10
192.9386409067103
 20
16.12735992008254
  0
TEXT
  5
DE
330
8A
100
AcDbEntity
  8
06-99
100
AcDbText
 10
172.6083599897699
 20
9.633209504468425
 30
0.0
 40
1.4256
  1
GmbH & Co KG
 41
1.199203187251
 51
15.0
  7
ROMAND8
 72
     5
 11
193.04195998977
 21
9.633209504468425
 31
0.0
100
AcDbText
  0
TEXT
  5
E0
330
8A
100
AcDbEntity
  8
06-99
100
AcDbText
 10
172.7098167443538
 20
7.391016232044876
 30
0.0
 40
1.4256
  1
72770 Reutlingen
 50
0.5663244663116128
 41
1.087840993687879
 51
15.0
  7
ROMAND8
 72
     5
 11
192.9434167443538
 21
7.591016232044864
 31
0.0
100
AcDbText
  0
TEXT
  5
E1
330
8A
100
AcDbEntity
  8
08-99
100
AcDbText
 10
160.4141200905478
 20
48.45009214919253
 30
0.0
 40
2.25
  1
Zul. Abw.
 51
15.0
  7
ROMANS8
100
AcDbText
  0
TEXT
  5
E2
330
8A
100
AcDbEntity
  8
08-99
100
AcDbText
 10
210.2099282109939
 20
49.2861646781227
 30
0.0
 40
2.0
  1
Mat. Art.
 51
15.0
  7
ROMANS8
100
AcDbText
  0
TEXT
  5
E3
330
8A
100
AcDbEntity
  8
08-99
100
AcDbText
 10
242.4865328610831
 20
49.40431390209392
 30
0.0
 40
2.0
  1
Oberfläche:
 51
15.0
  7
ROMANS8
100
AcDbText
  0
TEXT
  5
E4
330
8A
100
AcDbEntity
  8
08-99
100
AcDbText
 10
270.2625397292909
 20
41.73764723542717
 30
0.0
 40
2.0
  1
Blech Dicke:
 51
15.0
  7
ROMANS8
100
AcDbText
  0
TEXT
  5
E5
330
8A
100
AcDbEntity
  8
08-99
100
AcDbText
 10
274.438029919268
 20
49.28616467812275
 30
0.0
 40
2.0
  1
Maßstab:
 51
15.0
  7
ROMANS8
100
AcDbText
  0
LINE
  5
E6
330
8A
100
AcDbEntity
  8
01-99
100
AcDbLine
 10
202.0000018907103
 20
46.88888940774922
 30
0.0
 11
179.0000018907103
 21
46.88888940774922
 31
0.0
  0
LINE
  5
E7
330
8A
100
AcDbEntity
  8
01-99
100
AcDbLine
 10
202.0000018907103
 20
44.33333385208249
 30
0.0
 11
179.0000018907103
 21
44.33333385208249
 31
0.0
  0
LINE
  5
E8
330
8A
100
AcDbEntity
  8
01-99
100
AcDbLine
 10
202.0000018907103
 20
40.50000051874917
 30
0.0
 11
179.0000018907103
 21
40.50000051874917
 31
0.0
  0
ATTDEF
  5
E9
330
8A
100
AcDbEntity
  8
06-99
100
AcDbText
 10
203.4954486298875
 20
26.18783921603142
 30
0.0
 40
4.5
  1

 41
0.9
  7
ROMANS8
100
AcDbAttributeDefinition
280
     0
  3
Benennung/Teil
  2
TEILE
 70
     0
280
     0
  0
ATTDEF
  5
EA
330
8A
100
AcDbEntity
  8
06-99
100
AcDbText
 10
203.4954486298875
 20
18.95060400366537
 30
0.0
 40
4.5
  1

 41
0.9
  7
ROMANS8
100
AcDbAttributeDefinition
280
     0
  3
Benennung/Teil2
  2
TEILE2
 70
     0
280
     0
  0
ATTDEF
  5
EB
330
8A
100
AcDbEntity
  8
06-99
100
AcDbText
 10
278.3473881024249
 20
45.33333385208254
 30
0.0
 40
3.375
  1

  7
ROMANS8
100
AcDbAttributeDefinition
280
     0
  3
Maßstab
  2
:
 70
     0
280
     0
  0
ATTDEF
  5
EC
330
8A
100
AcDbEntity
  8
06-99
100
AcDbText
 10
179.9970696900777
 20
27.4416859867805
 30
0.0
 40
2.5
  1

 41
0.9
  7
ROMANS8
100
AcDbAttributeDefinition
280
     0
  3
Name
  2
NAME
 70
     0
280
     0
  0
ATTDEF
  5
ED
330
8A
100
AcDbEntity
  8
06-99
100
AcDbText
 10
166.4931483426044
 20
27.46123569286044
 30
0.0
 40
2.5
  1

 50
359.9144597696142
 41
0.9542572414211148
  7
ROMANS8
 72
     5
 11
177.7397390111491
 21
27.44444498541589
 31
0.0
100
AcDbAttributeDefinition
280
     0
  3
Datum
  2
DATUM
 70
     0
280
     0
  0
ATTDEF
  5
EE
330
8A
100
AcDbEntity
  8
06-99
100
AcDbText
 10
265.5063458578686
 20
7.492900319037914
 30
0.0
 40
2.99376
  1

  7
ROMANS8
100
AcDbAttributeDefinition
280
     0
  3
Ident-Nummer
  2
ID.NR
 70
     0
280
     0
  0
ATTDEF
  5
EF
330
8A
100
AcDbEntity
  8
06-99
100
AcDbText
 10
203.7312681464209
 20
37.66666716319367
 30
0.0
 40
3.0
  1

 41
0.9
  7
ROMANS8
100
AcDbAttributeDefinition
280
     0
  3
Zuschnitts.Länge
  2
LÄNGE
 70
     0
280
     0
  0
ATTDEF
  5
F0
330
8A
100
AcDbEntity
  8
06-99
100
AcDbText
 10
237.1808068024801
 20
37.67810438919398
 30
0.0
 40
3.0
  1

 41
0.9
  7
ROMANS8
100
AcDbAttributeDefinition
280
     0
  3
Zuschnitts Breite
  2
BREITE
 70
     0
280
     0
  0
ATTDEF
  5
F1
330
8A
100
AcDbEntity
  8
06-99
100
AcDbText
 10
277.6090940174422
 20
37.66666718541598
 30
0.0
 40
3.09375
  1

  7
ROMANS8
100
AcDbAttributeDefinition
280
     0
  3
Blech.Dicke
  2
1.0
 70
     0
280
     0
  0
ATTDEF
  5
F2
330
8A
100
AcDbEntity
  8
06-99
100
AcDbText
 10
251.127787492113
 20
45.33333385208266
 30
0.0
 40
3.0
  1

  7
ROMANS8
 72
     1
 11
251.127787492113
 21
45.33333385208266
 31
0.0
100
AcDbAttributeDefinition
280
     0
  3
Oberfläche
  2
IV
 70
     0
280
     0
  0
ATTDEF
  5
F3
330
8A
100
AcDbEntity
  8
06-99
100
AcDbText
 10
210.2747424268261
 20
45.33333385208249
 30
0.0
 40
3.375
  1
1.4301
  7
ROMANS8
100
AcDbAttributeDefinition
280
     0
  3
Mat.Art
  2
1.4301
 70
     0
280
     0
  0
ATTDEF
  5
F4
330
8A
100
AcDbEntity
  8
06-99
100
AcDbText
 10
233.0006357775904
 20
7.504397123103842
 30
0.0
 40
3.168
  1

 41
0.9
  7
ROMANS8
100
AcDbAttributeDefinition
280
     0
  3
Auftrags Nr.
  2
AUFTRAGS.NR.
 70
     0
280
     0
  0
ATTDEF
  5
F5
330
8A
100
AcDbEntity
  8
06-99
100
AcDbText
 10
203.5000018907104
 20
7.500000518749232
 30
0.0
 40
3.168
  1

 41
0.9
  7
ROMANS8
100
AcDbAttributeDefinition
280
     0
  3
Sonder-NR,WPS
  2
SONDER-NR
 70
     0
280
     0
  0
ATTDEF
  5
F6
330
8A
100
AcDbEntity
  8
06-99
100
AcDbText
 10
133.4997528857186
 20
6.601810588009072
 30
0.0
 40
1.5
  1

 41
0.9
  7
ROMANS8
100
AcDbAttributeDefinition
280
     0
  3
ERSETZT.Durch
  2
ERSETZT.DURCH
 70
     0
280
     0
  0
ATTDEF
  5
F7
330
8A
100
AcDbEntity
  8
06-99
100
AcDbText
 10
108.4994696709088
 20
6.597456916621638
 30
0.0
 40
1.5
  1

 41
0.9
  7
ROMANS8
100
AcDbAttributeDefinition
280
     0
  3
ERSETZT.Für
  2
ERSETZT.FÜR
 70
     0
280
     0
  0
ATTDEF
  5
F8
330
8A
100
AcDbEntity
  8
06-99
100
AcDbText
 10
186.8198602514336
 20
47.66851165875721
 30
0.0
 40
1.287
  1
DIN A4
  7
ROMANS8
 72
     1
 11
190.2518602514336
 21
47.66851165875721
 31
0.0
100
AcDbAttributeDefinition
280
     0
  3
Format
  2
FORMAT
 70
     0
280
     0
  0
ATTDEF
  5
F9
330
8A
100
AcDbEntity
  8
06-99
100
AcDbText
 10
182.4893925408357
 20
37.31860869812611
 30
0.0
 40
2.34
  1
DIN 2768
  7
ROMANS8
 72
     1
 11
191.0136782551214
 21
37.31860869812611
 31
0.0
100
AcDbAttributeDefinition
280
     0
  3
Norm / Kanten
  2
NORM2
 70
     0
280
     0
  0
ATTDEF
  5
FA
330
8A
100
AcDbEntity
  8
06-99
100
AcDbText
 10
179.2579639694072
 20
41.15194203145941
 30
0.0
 40
2.34
  1
DIN 6930-M
  7
ROMANS8
 72
     1
 11
190.5122496836929
 21
41.15194203145941
 31
0.0
100
AcDbAttributeDefinition
280
     0
  3
Norm / Fräsen
  2
NORM1
 70
     0
280
     0
  0
ATTDEF
  5
FB
330
8A
100
AcDbEntity
  8
06-99
100
AcDbText
 10
179.9970696900777
 20
22.33057487611384
 30
0.0
 40
2.5
  1

 41
0.9
  7
ROMANS8
100
AcDbAttributeDefinition
280
     0
  3
Name
  2
NAME_BEARB.
 70
     0
280
     0
  0
ATTDEF
  5
FC
330
8A
100
AcDbEntity
  8
06-99
100
AcDbText
 10
166.4931483426044
 20
22.35012458219378
 30
0.0
 40
2.5
  1

 50
359.9144597696142
 41
0.3986137843910987
  7
ROMANS8
 72
     5
 11
177.7397390111491
 21
22.33333387474922
 31
0.0
100
AcDbAttributeDefinition
280
     0
  3
Datum
  2
DATUM_BEARB.
 70
     0
280
     0
  0
ENDBLK
  5
FD
330
8A
100
AcDbEntity
  8
0
100
AcDbBlockEnd
  0
BLOCK
  5
250
330
24F
100
AcDbEntity
  8
0
100
AcDbBlockBegin
  2
*D8
 70
     1
 10
0.0
 20
0.0
 30
0.0
  3
*D8
  1

  0
LINE
  5
251
330
24F
100
AcDbEntity
  8
0
 62
     4
440
 16777216
370
    -2
100
AcDbLine
 10
896.9078186364141
 20
840.4360012528643
 30
0.0
 11
896.9078186364141
 21
870.6152462652912
 31
0.0
  0
LINE
  5
252
330
24F
100
AcDbEntity
  8
0
 62
     4
440
 16777216
370
    -2
100
AcDbLine
 10
1004.407818636156
 20
826.2311856642545
 30
0.0
 11
1004.407818636156
 21
870.6152462652912
 31
0.0
  0
LINE
  5
253
330
24F
100
AcDbEntity
  8
0
 62
     4
440
 16777216
370
    -2
100
AcDbLine
 10
909.4078186364141
 20
865.6152462652912
 30
0.0
 11
991.9078186361561
 21
865.6152462652912
 31
0.0
  0
SOLID
  5
254
330
24F
100
AcDbEntity
  8
0
 62
     4
440
 16777216
100
AcDbTrace
 10
909.4078186364141
 20
867.6985795986245
 30
0.0
 11
909.4078186364141
 21
863.5319129319579
 31
0.0
 12
896.9078186364141
 22
865.6152462652912
 32
0.0
 13
896.9078186364141
 23
865.6152462652912
 33
0.0
  0
SOLID
  5
255
330
24F
100
AcDbEntity
  8
0
 62
     4
440
 16777216
100
AcDbTrace
 10
991.9078186361561
 20
867.6985795986245
 30
0.0
 11
991.9078186361561
 21
863.5319129319579
 31
0.0
 12
1004.407818636156
 22
865.6152462652912
 32
0.0
 13
1004.407818636156
 23
865.6152462652912
 33
0.0
  0
MTEXT
  5
256
330
24F
100
AcDbEntity
  8
0
 62
     1
440
 16777216
100
AcDbMText
 10
950.6578186362851
 20
876.8652462652912
 30
0.0
 40
12.5
 41
0.0
 46
0.0
 71
     5
 72
     1
  1
107.5
 73
     1
 44
1.0
  0
POINT
  5
257
330
24F
100
AcDbEntity
  8
Defpoints
 62
     0
440
 16777216
100
AcDbPoint
 10
896.9078186364141
 20
835.4360012528642
 30
0.0
  0
POINT
  5
258
330
24F
100
AcDbEntity
  8
Defpoints
 62
     0
440
 16777216
100
AcDbPoint
 10
1004.407818636156
 20
821.2311856642545
 30
0.0
  0
POINT
  5
259
330
24F
100
AcDbEntity
  8
Defpoints
 62
     0
440
 16777216
100
AcDbPoint
 10
1004.407818636156
 20
865.6152462652912
 30
0.0
  0
ENDBLK
  5
25A
330
24F
100
AcDbEntity
  8
0
100
AcDbBlockEnd
  0
BLOCK
  5
1FB
330
1FA
100
AcDbEntity
  8
0
100
AcDbBlockBegin
  2
*D9
 70
     1
 10
0.0
 20
0.0
 30
0.0
  3
*D9
  1

  0
LINE
  5
1FC
330
1FA
100
AcDbEntity
  8
0
 62
     4
440
 16777216
370
    -2
100
AcDbLine
 10
954.4078180031643
 20
808.9360012398637
 30
0.0
 11
957.534368242239
 21
808.9360012398637
 31
0.0
  0
LINE
  5
1FD
330
1FA
100
AcDbEntity
  8
0
 62
     4
440
 16777216
370
    -2
100
AcDbLine
 10
954.4078180031643
 20
776.936000418364
 30
0.0
 11
957.534368242239
 21
776.936000418364
 31
0.0
  0
LINE
  5
1FE
330
1FA
100
AcDbEntity
  8
0
 62
     4
440
 16777216
370
    -2
100
AcDbLine
 10
952.534368242239
 20
821.4360012398637
 30
0.0
 11
952.534368242239
 21
833.9360012398637
 31
0.0
  0
LINE
  5
1FF
330
1FA
100
AcDbEntity
  8
0
 62
     4
440
 16777216
370
    -2
100
AcDbLine
 10
952.5343682422388
 20
764.436000418364
 30
0.0
 11
952.5343682422388
 21
708.6026670850307
 31
0.0
  0
LINE
  5
200
330
1FA
100
AcDbEntity
  8
0
 62
     4
440
 16777216
370
    -2
100
AcDbLine
 10
952.534368242239
 20
808.9360012398637
 30
0.0
 11
952.534368242239
 21
776.936000418364
 31
0.0
  0
SOLID
  5
201
330
1FA
100
AcDbEntity
  8
0
 62
     4
440
 16777216
100
AcDbTrace
 10
950.4510349089056
 20
821.4360012398637
 30
0.0
 11
954.6177015755723
 21
821.4360012398637
 31
0.0
 12
952.534368242239
 22
808.9360012398637
 32
0.0
 13
952.534368242239
 23
808.9360012398637
 33
0.0
  0
SOLID
  5
202
330
1FA
100
AcDbEntity
  8
0
 62
     4
440
 16777216
100
AcDbTrace
 10
950.4510349089056
 20
764.436000418364
 30
0.0
 11
954.6177015755722
 21
764.436000418364
 31
0.0
 12
952.534368242239
 22
776.936000418364
 32
0.0
 13
952.534368242239
 23
776.936000418364
 33
0.0
  0
MTEXT
  5
203
330
1FA
100
AcDbEntity
  8
0
 62
     1
440
 16777216
100
AcDbMText
 10
941.2843682422387
 20
730.2693337516975
 30
0.0
 40
12.5
 41
0.0
 46
0.0
 71
     5
 72
     1
  1
%%c32
 11
0.0000000000000001
 21
1.0
 31
0.0
 73
     1
 44
1.0
  0
POINT
  5
204
330
1FA
100
AcDbEntity
  8
Defpoints
 62
     0
440
 16777216
100
AcDbPoint
 10
949.4078180031642
 20
808.9360012398637
 30
0.0
  0
POINT
  5
205
330
1FA
100
AcDbEntity
  8
Defpoints
 62
     0
440
 16777216
100
AcDbPoint
 10
949.4078180031642
 20
776.936000418364
 30
0.0
  0
POINT
  5
206
330
1FA
100
AcDbEntity
  8
Defpoints
 62
     0
440
 16777216
100
AcDbPoint
 10
952.534368242239
 20
776.936000418364
 30
0.0
  0
ENDBLK
  5
207
330
1FA
100
AcDbEntity
  8
0
100
AcDbBlockEnd
  0
BLOCK
  5
14B
330
14A
100
AcDbEntity
  8
0
100
AcDbBlockBegin
  2
*D10
 70
     1
 10
0.0
 20
0.0
 30
0.0
  3
*D10
  1

  0
LINE
  5
14C
330
14A
100
AcDbEntity
  8
0
 62
     4
440
 16777216
370
    -2
100
AcDbLine
 10
275.7446052041582
 20
491.3143099197149
 30
0.0
 11
275.7446052041582
 21
519.0967713556293
 31
0.0
  0
LINE
  5
14D
330
14A
100
AcDbEntity
  8
0
 62
     4
440
 16777216
370
    -2
100
AcDbLine
 10
575.7446171251581
 20
491.3143099197149
 30
0.0
 11
575.7446171251581
 21
519.0967713556293
 31
0.0
  0
LINE
  5
14E
330
14A
100
AcDbEntity
  8
0
 62
     4
440
 16777216
370
    -2
100
AcDbLine
 10
288.2446052041582
 20
514.0967713556293
 30
0.0
 11
563.2446171251581
 21
514.0967713556293
 31
0.0
  0
SOLID
  5
14F
330
14A
100
AcDbEntity
  8
0
 62
     4
440
 16777216
100
AcDbTrace
 10
288.2446052041582
 20
516.1801046889627
 30
0.0
 11
288.2446052041582
 21
512.0134380222959
 31
0.0
 12
275.7446052041582
 22
514.0967713556293
 32
0.0
 13
275.7446052041582
 23
514.0967713556293
 33
0.0
  0
SOLID
  5
150
330
14A
100
AcDbEntity
  8
0
 62
     4
440
 16777216
100
AcDbTrace
 10
563.2446171251581
 20
516.1801046889627
 30
0.0
 11
563.2446171251581
 21
512.0134380222959
 31
0.0
 12
575.7446171251581
 22
514.0967713556293
 32
0.0
 13
575.7446171251581
 23
514.0967713556293
 33
0.0
  0
MTEXT
  5
151
330
14A
100
AcDbEntity
  8
0
 62
     1
440
 16777216
100
AcDbMText
 10
425.7446111646581
 20
525.3467713556293
 30
0.0
 40
12.5
 41
0.0
 46
0.0
 71
     5
 72
     1
  1
300
 73
     1
 44
1.0
  0
POINT
  5
152
330
14A
100
AcDbEntity
  8
Defpoints
 62
     0
440
 16777216
100
AcDbPoint
 10
275.7446052041582
 20
486.314309919715
 30
0.0
  0
POINT
  5
153
330
14A
100
AcDbEntity
  8
Defpoints
 62
     0
440
 16777216
100
AcDbPoint
 10
575.7446171251581
 20
486.314309919715
 30
0.0
  0
POINT
  5
154
330
14A
100
AcDbEntity
  8
Defpoints
 62
     0
440
 16777216
100
AcDbPoint
 10
575.7446171251581
 20
514.0967713556293
 30
0.0
  0
ENDBLK
  5
155
330
14A
100
AcDbEntity
  8
0
100
AcDbBlockEnd
  0
BLOCK
  5
158
330
157
100
AcDbEntity
  8
0
100
AcDbBlockBegin
  2
*D11
 70
     1
 10
0.0
 20
0.0
 30
0.0
  3
*D11
  1

  0
LINE
  5
159
330
157
100
AcDbEntity
  8
0
 62
     4
440
 16777216
370
    -2
100
AcDbLine
 10
224.2446125951583
 20
340.3732637417154
 30
0.0
 11
224.2446125951583
 21
294.3188374444072
 31
0.0
  0
LINE
  5
15A
330
157
100
AcDbEntity
  8
0
 62
     4
440
 16777216
370
    -2
100
AcDbLine
 10
627.244609734158
 20
340.3732637417154
 30
0.0
 11
627.244609734158
 21
294.3188374444072
 31
0.0
  0
LINE
  5
15B
330
157
100
AcDbEntity
  8
0
 62
     4
440
 16777216
370
    -2
100
AcDbLine
 10
236.7446125951583
 20
299.3188374444072
 30
0.0
 11
614.744609734158
 21
299.3188374444072
 31
0.0
  0
SOLID
  5
15C
330
157
100
AcDbEntity
  8
0
 62
     4
440
 16777216
100
AcDbTrace
 10
236.7446125951583
 20
301.4021707777406
 30
0.0
 11
236.7446125951583
 21
297.2355041110739
 31
0.0
 12
224.2446125951583
 22
299.3188374444072
 32
0.0
 13
224.2446125951583
 23
299.3188374444072
 33
0.0
  0
SOLID
  5
15D
330
157
100
AcDbEntity
  8
0
 62
     4
440
 16777216
100
AcDbTrace
 10
614.744609734158
 20
301.4021707777406
 30
0.0
 11
614.744609734158
 21
297.2355041110739
 31
0.0
 12
627.244609734158
 22
299.3188374444072
 32
0.0
 13
627.244609734158
 23
299.3188374444072
 33
0.0
  0
MTEXT
  5
15E
330
157
100
AcDbEntity
  8
0
 62
     1
440
 16777216
100
AcDbMText
 10
425.7446111646581
 20
310.5688374444072
 30
0.0
 40
12.5
 41
0.0
 46
0.0
 71
     5
 72
     1
  1
403
 73
     1
 44
1.0
  0
POINT
  5
15F
330
157
100
AcDbEntity
  8
Defpoints
 62
     0
440
 16777216
100
AcDbPoint
 10
224.2446125951583
 20
345.3732637417154
 30
0.0
  0
POINT
  5
160
330
157
100
AcDbEntity
  8
Defpoints
 62
     0
440
 16777216
100
AcDbPoint
 10
627.244609734158
 20
345.3732637417154
 30
0.0
  0
POINT
  5
161
330
157
100
AcDbEntity
  8
Defpoints
 62
     0
440
 16777216
100
AcDbPoint
 10
627.244609734158
 20
299.3188374444072
 30
0.0
  0
ENDBLK
  5
162
330
157
100
AcDbEntity
  8
0
100
AcDbBlockEnd
  0
ENDSEC
  0
SECTION
  2
ENTITIES
  0
DIMENSION
  5
77
330
2
100
AcDbEntity
  8
0
100
AcDbDimension
280
     0
  2
*D1
 10
1098.952302140414
 20
616.436022587038
 30
0.0
 11
1098.952302140414
 21
732.1674254558643
 31
0.0
 70
   128
 71
     5
 42
209.9999794258258
 73
     0
 74
     0
 75
     0
  3
Wagner$0
100
AcDbAlignedDimension
 13
1024.429314976915
 23
826.4360020128638
 33
0.0
 14
1024.428474943447
 24
616.436022587038
 34
0.0
 50
90.0
100
AcDbRotatedDimension
1001
ACAD
1000
DSTYLE
1002
{
1070
    40
1040
5.0
1070
   174
1070
     0
1070
   271
1070
     0
1070
   279
1070
     0
1002
}
  0
INSERT
  5
86
330
2
100
AcDbEntity
  8
09-01
100
AcDbBlockReference
 66
     1
  2
DIN A4 Quer
 10
-0.0000094535516837
 20
-0.0000025937458759
 30
0.0
 41
5.0
 42
5.0
 43
5.0
  0
ATTRIB
  5
FE
330
86
100
AcDbEntity
  8
06-99
100
AcDbText
 10
1017.477233695887
 20
130.9391934864112
 30
0.0
 40
22.5
  1
BA 250
 41
0.9
  7
ROMANS8
100
AcDbAttribute
280
     0
  2
TEILE
 70
     0
280
     0
  0
ATTRIB
  5
FF
330
86
100
AcDbEntity
  8
06-99
100
AcDbText
 10
1017.477233695887
 20
94.753017424581
 30
0.0
 40
22.5
  1
Rückenlehne für WC Sitz
 41
0.9
  7
ROMANS8
100
AcDbAttribute
280
     0
  2
TEILE2
 70
     0
280
     0
  0
ATTRIB
  5
100
330
86
100
AcDbEntity
  8
06-99
100
AcDbText
 10
1391.736931058572
 20
226.6666666666669
 30
0.0
 40
16.875
  1
1:5
  7
ROMANS8
100
AcDbAttribute
280
     0
  2
:
 70
     0
280
     0
  0
ATTRIB
  5
101
330
86
100
AcDbEntity
  8
06-99
100
AcDbText
 10
899.9853389968357
 20
137.2084273401566
 30
0.0
 40
12.5
  1
Häberle
 41
0.9
  7
ROMANS8
100
AcDbAttribute
280
     0
  2
NAME
 70
     0
280
     0
  0
ATTRIB
  5
102
330
86
100
AcDbEntity
  8
06-99
100
AcDbText
 10
832.4657322594703
 20
137.3061758705563
 30
0.0
 40
12.5
  1
27.10.2015
 50
359.9144597696142
 41
0.5337371011338265
  7
ROMANS8
 72
     5
 11
888.6986856021922
 21
137.2222223333335
 31
0.0
100
AcDbAttribute
280
     0
  2
DATUM
 70
     0
280
     0
  0
ATTRIB
  5
103
330
86
100
AcDbEntity
  8
06-99
100
AcDbText
 10
1327.531719835793
 20
37.46449900144376
 30
0.0
 40
14.9688
  1
600250
  7
ROMANS8
100
AcDbAttribute
280
     0
  2
ID.NR
 70
     0
280
     0
  0
ATTRIB
  5
104
330
86
100
AcDbEntity
  8
06-99
100
AcDbText
 10
1018.656331278553
 20
188.3333332222224
 30
0.0
 40
15.0
  1

 41
0.9
  7
ROMANS8
100
AcDbAttribute
280
     0
  2
LÄNGE
 70
     0
280
     0
  0
ATTRIB
  5
105
330
86
100
AcDbEntity
  8
06-99
100
AcDbText
 10
1185.904024558849
 20
188.390519352224
 30
0.0
 40
15.0
  1

 41
0.9
  7
ROMANS8
100
AcDbAttribute
280
     0
  2
BREITE
 70
     0
280
     0
  0
ATTRIB
  5
106
330
86
100
AcDbEntity
  8
06-99
100
AcDbText
 10
1388.045460633659
 20
188.333333333334
 30
0.0
 40
15.46875
  1

  7
ROMANS8
100
AcDbAttribute
280
     0
  2
1.0
 70
     0
280
     0
  0
ATTRIB
  5
107
330
86
100
AcDbEntity
  8
06-99
100
AcDbText
 10
1255.638928007012
 20
226.6666666666674
 30
0.0
 40
15.0
  1

  7
ROMANS8
 72
     1
 11
1255.638928007012
 21
226.6666666666674
 31
0.0
100
AcDbAttribute
280
     0
  2
IV
 70
     0
280
     0
  0
ATTRIB
  5
108
330
86
100
AcDbEntity
  8
06-99
100
AcDbText
 10
1051.373702680581
 20
226.6666666666666
 30
0.0
 40
16.875
  1
1.4301
  7
ROMANS8
100
AcDbAttribute
280
     0
  2
1.4301
 70
     0
280
     0
  0
ATTRIB
  5
109
330
86
100
AcDbEntity
  8
06-99
100
AcDbText
 10
1165.003169434401
 20
37.52198302177339
 30
0.0
 40
15.84
  1

 41
0.9000000000000001
  7
ROMANS8
100
AcDbAttribute
280
     0
  2
AUFTRAGS.NR.
 70
     0
280
     0
  0
ATTRIB
  5
10A
330
86
100
AcDbEntity
  8
06-99
100
AcDbText
 10
1017.500000000002
 20
37.50000000000034
 30
0.0
 40
15.84
  1

 41
0.9000000000000001
  7
ROMANS8
100
AcDbAttribute
280
     0
  2
SONDER-NR
 70
     0
280
     0
  0
ATTRIB
  5
10B
330
86
100
AcDbEntity
  8
06-99
100
AcDbText
 10
667.4987549750385
 20
33.00905034629955
 30
0.0
 40
7.5
  1

 41
0.9
  7
ROMANS8
100
AcDbAttribute
280
     0
  2
ERSETZT.DURCH
 70
     0
280
     0
  0
ATTRIB
  5
10C
330
86
100
AcDbEntity
  8
06-99
100
AcDbText
 10
542.4973389009937
 20
32.98728198936237
 30
0.0
 40
7.5
  1

 41
0.9
  7
ROMANS8
100
AcDbAttribute
280
     0
  2
ERSETZT.FÜR
 70
     0
280
     0
  0
ATTRIB
  5
10D
330
86
100
AcDbEntity
  8
06-99
100
AcDbText
 10
934.0992918036189
 20
238.3425557000402
 30
0.0
 40
6.435
  1
DIN A4
  7
ROMANS8
 72
     1
 11
951.2592918036189
 21
238.3425557000402
 31
0.0
100
AcDbAttribute
280
     0
  2
FORMAT
 70
     0
280
     0
  0
ATTRIB
  5
10E
330
86
100
AcDbEntity
  8
06-99
100
AcDbText
 10
912.4469532506301
 20
186.5930408968846
 30
0.0
 40
11.7
  1
DIN 2768
  7
ROMANS8
 72
     1
 11
955.0683818220587
 21
186.5930408968846
 31
0.0
100
AcDbAttribute
280
     0
  2
NORM2
 70
     0
280
     0
  0
ATTRIB
  5
10F
330
86
100
AcDbEntity
  8
06-99
100
AcDbText
 10
896.2898103934836
 20
205.7597075635513
 30
0.0
 40
11.7
  1
DIN 6930-M
  7
ROMANS8
 72
     1
 11
952.5612389649122
 21
205.7597075635513
 31
0.0
100
AcDbAttribute
280
     0
  2
NORM1
 70
     0
280
     0
  0
ATTRIB
  5
110
330
86
100
AcDbEntity
  8
06-99
100
AcDbText
 10
899.9853389968357
 20
111.6528717868234
 30
0.0
 40
12.5
  1

 41
0.9
  7
ROMANS8
100
AcDbAttribute
280
     0
  2
NAME_BEARB.
 70
     0
280
     0
  0
ATTRIB
  5
111
330
86
100
AcDbEntity
  8
06-99
100
AcDbText
 10
832.4657322594703
 20
111.7506203172231
 30
0.0
 40
12.5
  1

 50
359.914459769614
 41
0.3986137843910986
  7
ROMANS8
 72
     5
 11
888.6986856021922
 21
111.6666667800002
 31
0.0
100
AcDbAttribute
280
     0
  2
DATUM_BEARB.
 70
     0
280
     0
  0
SEQEND
  5
112
330
86
100
AcDbEntity
  8
09-01
  0
LINE
  5
113
330
2
100
AcDbEntity
  8
0
 62
     4
100
AcDbLine
 10
1047.739688972414
 20
865.6152462652912
 30
0.0
 11
1102.343701024772
 21
865.6152462652912
 31
0.0
  0
LWPOLYLINE
  5
114
330
2
100
AcDbEntity
  8
0
  6
Continuous
 62
     7
370
    15
100
AcDbPolyline
 90
        9
 70
   128
 43
0.0
 10
255.7501287676582
 20
628.6385012503638
 10
297.6428732276581
 20
627.6866209398641
 10
339.7693614521586
 20
626.9993677443637
 10
381.9822402886584
 20
626.5819434473637
 10
424.5864531341585
 20
626.4361727428642
 10
467.1918497016581
 20
626.5669103713642
 10
510.1063466691584
 20
626.9784267068642
 10
552.9332444956581
 20
627.6688540913641
 10
595.7390935616586
 20
628.6385012503638
  0
LWPOLYLINE
  5
115
330
2
100
AcDbEntity
  8
0
  6
Continuous
 62
     7
370
    15
100
AcDbPolyline
 90
        9
 70
   128
 43
0.0
 10
595.7390935616586
 20
814.2335012558643
 10
553.7875285576583
 20
815.1865299058638
 10
511.5735439701584
 20
815.8745499593642
 10
469.272958197158
 20
816.2916157838642
 10
426.6868285436585
 20
816.4358644438644
 10
384.0997366971583
 20
816.3038406983643
 10
341.2730367106583
 20
815.8921631113642
 10
298.5336923501582
 20
815.2027163058642
 10
255.7501287676582
 20
814.2335012558643
  0
LWPOLYLINE
  5
116
330
2
100
AcDbEntity
  8
0
  6
Continuous
 62
     7
370
    15
100
AcDbPolyline
 90
       10
 70
   128
 43
0.0
 10
254.2438102861583
 20
824.2301932878637
 10
296.569000430658
 20
825.1846899838637
 10
339.1365845646583
 20
825.8735328103643
 10
381.8341526976583
 20
826.2914225883642
 10
423.4440894661584
 20
826.4356044123642
 10
465.0960164916582
 20
826.3198863848643
 10
501.5209365266582
 20
826.0054303658645
 10
537.9169953096579
 20
825.4924484983641
 10
567.6086906026585
 20
824.9267637188642
 10
597.2454120431584
 20
824.2301932878637
  0
LWPOLYLINE
  5
117
330
2
100
AcDbEntity
  8
0
  6
Continuous
 62
     7
370
    15
100
AcDbPolyline
 90
       10
 70
   128
 43
0.0
 10
597.2454120431584
 20
618.6418092178638
 10
554.9793633841582
 20
617.6884586873637
 10
512.4996124586582
 20
617.0003804258642
 10
469.8903535701584
 20
616.5821334678637
 10
426.9308894686583
 20
616.4361067733643
 10
383.9264236931585
 20
616.5671300988642
 10
340.6554951831586
 20
616.9789130288643
 10
297.4278816971582
 20
617.6707265103642
 10
275.8191718526582
 20
618.1216578893642
 10
254.2438102861583
 20
618.6418092178638
  0
DIMENSION
  5
118
330
2
100
AcDbEntity
  8
0
100
AcDbDimension
280
     0
  2
*D2
 10
696.4016456161584
 20
904.1211919477916
 30
0.0
 11
424.9016456161582
 21
915.3711919477917
 31
0.0
 71
     5
 42
543.0000000000005
 73
     0
 74
     0
 75
     0
  3
Wagner$0
100
AcDbAlignedDimension
 13
153.401645616158
 23
792.9360012528643
 33
0.0
 14
696.4016456161584
 24
792.9360012528643
 34
0.0
100
AcDbRotatedDimension
1001
ACAD
1000
DSTYLE
1002
{
1070
    40
1040
5.0
1070
   174
1070
     0
1070
   279
1070
     0
1002
}
  0
DIMENSION
  5
125
330
2
100
AcDbEntity
  8
0
100
AcDbDimension
280
     0
  2
*D3
 10
674.9016456161585
 20
865.6152462652912
 30
0.0
 11
424.9016456161582
 21
876.8652462652912
 31
0.0
 71
     5
 42
500.0000000000004
 73
     0
 74
     0
 75
     0
  3
Wagner$0
100
AcDbAlignedDimension
 13
174.901645616158
 23
792.9360012528643
 33
0.0
 14
674.9016456161585
 24
792.9360012528643
 34
0.0
100
AcDbRotatedDimension
1001
ACAD
1000
DSTYLE
1002
{
1070
    40
1040
5.0
1070
   174
1070
     0
1070
   279
1070
     0
1002
}
  0
ARC
  5
132
330
2
100
AcDbEntity
  8
0
  6
Continuous
 62
     7
370
    15
100
AcDbCircle
 10
425.7446111646581
 20
-1016.198954622284
 30
0.0
 40
1375.013263510727
100
AcDbArc
 50
82.83502938968084
 51
97.16497061031915
  0
ARC
  5
133
330
2
100
AcDbEntity
  8
0
  6
Continuous
 62
     7
370
    15
100
AcDbCircle
 10
425.7446111646581
 20
-1012.093896660283
 30
0.0
 40
1360.908205494604
100
AcDbArc
 50
82.82429541509662
 51
97.17570458490337
  0
LINE
  5
134
330
2
100
AcDbEntity
  8
0
  6
Continuous
 62
     7
370
    15
100
AcDbLine
 10
597.2454132046578
 20
375.8143081057156
 30
0.0
 11
254.2438091246581
 21
375.8143081057156
 31
0.0
  0
LINE
  5
135
330
2
100
AcDbEntity
  8
0
  6
Continuous
 62
     7
370
    15
100
AcDbLine
 10
254.3209673371584
 20
378.8143081317155
 30
0.0
 11
597.1682549921579
 21
378.8143081317155
 31
0.0
  0
LINE
  5
136
330
2
100
AcDbEntity
  8
0
  6
Continuous
 62
     7
370
    15
100
AcDbLine
 10
275.7446052041582
 20
414.3143092942154
 30
0.0
 11
575.7446171251581
 21
414.3143092942154
 31
0.0
  0
LINE
  5
137
330
2
100
AcDbEntity
  8
03-01
100
AcDbLine
 10
575.7446171251581
 20
412.8133078762154
 30
0.0
 11
275.7446052041582
 21
412.8133078762154
 31
0.0
  0
LINE
  5
138
330
2
100
AcDbEntity
  8
03-01
100
AcDbLine
 10
275.7446052041582
 20
380.3153081522154
 30
0.0
 11
575.7446171251581
 21
380.3153081522154
 31
0.0
  0
LINE
  5
139
330
2
100
AcDbEntity
  8
0
  6
Continuous
 62
     7
370
    15
100
AcDbLine
 10
275.7446052041582
 20
483.2143095982155
 30
0.0
 11
575.7446171251581
 21
483.2143095982155
 31
0.0
  0
LINE
  5
13A
330
2
100
AcDbEntity
  8
0
  6
Continuous
 62
     7
370
    15
100
AcDbLine
 10
275.7446052041582
 20
486.314309919715
 30
0.0
 11
575.7446171251581
 21
486.314309919715
 31
0.0
  0
DIMENSION
  5
13B
330
2
100
AcDbEntity
  8
0
100
AcDbDimension
280
     0
  2
*D6
 10
658.9016424029082
 20
545.1537214805476
 30
0.0
 11
424.9016413002832
 21
556.4037214805477
 31
0.0
 71
     5
 42
468.0000022052499
 73
     0
 74
     0
 75
     0
  3
Wagner$0
100
AcDbAlignedDimension
 13
190.9016401976582
 23
486.314309919715
 33
0.0
 14
658.9016424029082
 24
486.314309919715
 34
0.0
100
AcDbRotatedDimension
1001
ACAD
1000
DSTYLE
1002
{
1070
    40
1040
5.0
1070
   174
1070
     0
1070
   271
1070
     0
1070
   279
1070
     0
1002
}
  0
LINE
  5
148
330
2
100
AcDbEntity
  8
03-01
100
AcDbLine
 10
275.7446052041582
 20
412.3143089662153
 30
0.0
 11
575.7446171251581
 21
412.3143089662153
 31
0.0
  0
DIMENSION
  5
149
330
2
100
AcDbEntity
  8
0
100
AcDbDimension
280
     0
  2
*D10
 10
575.7446171251581
 20
514.0967713556293
 30
0.0
 11
425.7446111646581
 21
525.3467713556293
 31
0.0
 71
     5
 42
300.0000119209999
 73
     0
 74
     0
 75
     0
  3
Wagner$0
100
AcDbAlignedDimension
 13
275.7446052041582
 23
486.314309919715
 33
0.0
 14
575.7446171251581
 24
486.314309919715
 34
0.0
100
AcDbRotatedDimension
1001
ACAD
1000
DSTYLE
1002
{
1070
    40
1040
5.0
1070
   174
1070
     0
1070
   271
1070
     0
1070
   279
1070
     0
1002
}
  0
DIMENSION
  5
156
330
2
100
AcDbEntity
  8
0
100
AcDbDimension
280
     0
  2
*D11
 10
627.244609734158
 20
299.3188374444072
 30
0.0
 11
425.7446111646581
 21
310.5688374444072
 31
0.0
 71
     5
 42
402.9999971389997
 73
     0
 74
     0
 75
     0
  3
Wagner$0
100
AcDbAlignedDimension
 13
224.2446125951583
 23
345.3732637417154
 33
0.0
 14
627.244609734158
 24
345.3732637417154
 34
0.0
100
AcDbRotatedDimension
1001
ACAD
1000
DSTYLE
1002
{
1070
    40
1040
5.0
1070
   174
1070
     0
1070
   271
1070
     0
1070
   279
1070
     0
1002
}
  0
ARC
  5
163
330
2
100
AcDbEntity
  8
0
  6
Continuous
 62
     7
370
    15
100
AcDbCircle
 10
265.901645616158
 20
471.3143081317155
 30
0.0
 40
59.0
100
AcDbArc
 50
180.0
 51
270.0
  0
ARC
  5
164
330
2
100
AcDbEntity
  8
0
  6
Continuous
 62
     7
370
    15
100
AcDbCircle
 10
265.901645616158
 20
471.3143081317155
 30
0.0
 40
90.99999999999992
100
AcDbArc
 50
180.0
 51
270.0
  0
ARC
  5
165
330
2
100
AcDbEntity
  8
0
  6
Continuous
 62
     7
370
    15
100
AcDbCircle
 10
234.2446111646582
 20
345.3732519002155
 30
0.0
 40
10.00000000000005
100
AcDbArc
 50
179.9875196137007
 51
278.0298160589158
  0
LWPOLYLINE
  5
166
330
2
100
AcDbEntity
  8
0
  6
Continuous
 62
     7
370
    15
100
AcDbPolyline
 90
       10
 70
   128
 43
0.0
 10
225.022110483158
 20
345.4823923957154
 10
225.5344869106584
 20
345.5303368817155
 10
226.8979580611585
 20
345.6574959407155
 10
228.9949537721582
 20
345.8518555112156
 10
231.8851084916582
 20
346.1173196982154
 10
235.3404642551581
 20
346.4310450207155
 10
239.4495339601581
 20
346.7989472397155
 10
243.907901784658
 20
347.1917642007154
 10
248.8117845266584
 20
347.6162032882154
 10
254.2438091246581
 20
348.0770254232155
  0
LINE
  5
167
330
2
100
AcDbEntity
  8
0
  6
Continuous
 62
     7
370
    15
100
AcDbLine
 10
254.2438091246581
 20
375.8143081057156
 30
0.0
 11
225.022110483158
 21
375.8143081057156
 31
0.0
  0
ARC
  5
168
330
2
100
AcDbEntity
  8
0
  6
Continuous
 62
     7
370
    15
100
AcDbCircle
 10
235.0213509421583
 20
345.4818355572154
 30
0.0
 40
9.999240474723329
100
AcDbArc
 50
180.0
 51
277.9891307611027
  0
LINE
  5
169
330
2
100
AcDbEntity
  8
0
  6
Continuous
 62
     7
370
    15
100
AcDbLine
 10
228.0214460101583
 20
378.8143081317155
 30
0.0
 11
254.3209673371584
 21
378.8143081317155
 31
0.0
  0
LINE
  5
16A
330
2
100
AcDbEntity
  8
0
  6
Continuous
 62
     7
370
    15
100
AcDbLine
 10
224.2446125951583
 20
375.8143081057156
 30
0.0
 11
224.2446125951583
 21
345.3732637417154
 31
0.0
  0
LINE
  5
16B
330
2
100
AcDbEntity
  8
0
  6
Continuous
 62
     7
370
    15
100
AcDbLine
 10
225.022110483158
 20
345.4823923957154
 30
0.0
 11
225.022110483158
 21
375.8143081057156
 31
0.0
  0
LWPOLYLINE
  5
16C
330
2
100
AcDbEntity
  8
0
  6
Continuous
 62
     7
370
    15
100
AcDbPolyline
 90
        3
 70
   128
 43
0.0
 10
224.2447020021582
 20
345.3732637417154
 10
224.4389088361586
 20
345.4005812952155
 10
225.022110483158
 20
345.4823923957154
  0
ARC
  5
16D
330
2
100
AcDbEntity
  8
0
  6
Continuous
 62
     7
370
    15
100
AcDbCircle
 10
227.2446111646582
 20
375.8143081317154
 30
0.0
 40
3.000000000001624
100
AcDbArc
 50
90.0
 51
180.0
  0
ARC
  5
16E
330
2
100
AcDbEntity
  8
0
  6
Continuous
 62
     7
370
    15
100
AcDbCircle
 10
228.0217749476583
 20
375.8146436662155
 30
0.0
 40
2.999664483340844
100
AcDbArc
 50
90.006282939504
 51
180.0
  0
LINE
  5
16F
330
2
100
AcDbEntity
  8
0
  6
Continuous
 62
     7
370
    15
100
AcDbLine
 10
227.2446037736581
 20
378.8143081317155
 30
0.0
 11
228.0214460101583
 21
378.8143081317155
 31
0.0
  0
LINE
  5
170
330
2
100
AcDbEntity
  8
0
  6
Continuous
 62
     7
370
    15
100
AcDbLine
 10
225.022110483158
 20
375.8143081057156
 30
0.0
 11
224.2446125951583
 21
375.8143081057156
 31
0.0
  0
LINE
  5
171
330
2
100
AcDbEntity
  8
0
  6
Continuous
 62
     7
370
    15
100
AcDbLine
 10
153.4016312566582
 20
486.314309919715
 30
0.0
 11
190.9016401976582
 21
486.314309919715
 31
0.0
  0
LINE
  5
172
330
2
100
AcDbEntity
  8
0
  6
Continuous
 62
     7
370
    15
100
AcDbLine
 10
155.8016420811582
 20
476.3143045552154
 30
0.0
 11
190.9016401976582
 21
476.3143045552154
 31
0.0
  0
LINE
  5
173
330
2
100
AcDbEntity
  8
0
  6
Continuous
 62
     7
370
    15
100
AcDbLine
 10
172.0780612436583
 20
473.7400470027155
 30
0.0
 11
190.9016401976582
 21
473.7400470027155
 31
0.0
  0
LINE
  5
174
330
2
100
AcDbEntity
  8
0
  6
Continuous
 62
     7
370
    15
100
AcDbLine
 10
153.4016312566582
 20
478.7143079292154
 30
0.0
 11
190.9016401976582
 21
478.7143079292154
 31
0.0
  0
LINE
  5
175
330
2
100
AcDbEntity
  8
0
  6
Continuous
 62
     7
370
    15
100
AcDbLine
 10
168.8148857561582
 20
476.0249538072155
 30
0.0
 11
190.9016401976582
 21
476.0249538072155
 31
0.0
  0
LINE
  5
176
330
2
100
AcDbEntity
  8
0
  6
Continuous
 62
     7
370
    15
100
AcDbLine
 10
174.9016524761582
 20
471.3143093237154
 30
0.0
 11
190.9016401976582
 21
471.3143093237154
 31
0.0
  0
ARC
  5
177
330
2
100
AcDbEntity
  8
0
  6
Continuous
 62
     7
370
    15
100
AcDbCircle
 10
167.8971675541584
 20
474.7143081317156
 30
0.0
 40
1.599999999999972
100
AcDbArc
 50
54.99999999998824
 51
90.0
  0
LINE
  5
178
330
2
100
AcDbEntity
  8
0
  6
Continuous
 62
     7
370
    15
100
AcDbLine
 10
153.4016312566582
 20
486.314309919715
 30
0.0
 11
153.4016312566582
 21
478.7143079292154
 31
0.0
  0
ARC
  5
179
330
2
100
AcDbEntity
  8
0
  6
Continuous
 62
     7
370
    15
100
AcDbCircle
 10
155.8016456161585
 20
478.7143081317156
 30
0.0
 40
2.399999999999949
100
AcDbArc
 50
180.0
 51
270.0
  0
LINE
  5
17A
330
2
100
AcDbEntity
  8
0
  6
Continuous
 62
     7
370
    15
100
AcDbLine
 10
172.426748415658
 20
473.7400470027155
 30
0.0
 11
174.9016524761582
 21
472.0071164617154
 31
0.0
  0
LINE
  5
17B
330
2
100
AcDbEntity
  8
0
  6
Continuous
 62
     7
370
    15
100
AcDbLine
 10
168.8148857561582
 20
476.0249538072155
 30
0.0
 11
172.0780612436583
 21
473.7400470027155
 31
0.0
  0
LINE
  5
17C
330
2
100
AcDbEntity
  8
0
  6
Continuous
 62
     7
370
    15
100
AcDbLine
 10
174.9016524761582
 20
472.0071164617154
 30
0.0
 11
174.9016524761582
 21
471.3143093237154
 31
0.0
  0
LINE
  5
17D
330
2
100
AcDbEntity
  8
0
  6
Continuous
 62
     7
370
    15
100
AcDbLine
 10
206.9016428201585
 20
472.0071164617154
 30
0.0
 11
209.3765319791582
 21
473.7400470027155
 31
0.0
  0
LINE
  5
17E
330
2
100
AcDbEntity
  8
0
  6
Continuous
 62
     7
370
    15
100
AcDbLine
 10
190.9016401976582
 20
486.314309919715
 30
0.0
 11
228.4016491381581
 21
486.314309919715
 31
0.0
  0
LINE
  5
17F
330
2
100
AcDbEntity
  8
0
  6
Continuous
 62
     7
370
    15
100
AcDbLine
 10
190.9016401976582
 20
476.3143045552154
 30
0.0
 11
226.0016383141583
 21
476.3143045552154
 31
0.0
  0
LINE
  5
180
330
2
100
AcDbEntity
  8
0
  6
Continuous
 62
     7
370
    15
100
AcDbLine
 10
190.9016401976582
 20
473.7400470027155
 30
0.0
 11
209.7252191511584
 21
473.7400470027155
 31
0.0
  0
LINE
  5
181
330
2
100
AcDbEntity
  8
0
  6
Continuous
 62
     7
370
    15
100
AcDbLine
 10
190.9016401976582
 20
478.7143079292154
 30
0.0
 11
228.4016491381581
 21
478.7143079292154
 31
0.0
  0
LINE
  5
182
330
2
100
AcDbEntity
  8
0
  6
Continuous
 62
     7
370
    15
100
AcDbLine
 10
190.9016401976582
 20
476.0249538072155
 30
0.0
 11
212.9883946386581
 21
476.0249538072155
 31
0.0
  0
LINE
  5
183
330
2
100
AcDbEntity
  8
0
  6
Continuous
 62
     7
370
    15
100
AcDbLine
 10
206.9016428201585
 20
471.3143093237154
 30
0.0
 11
206.9016428201585
 21
472.0071164617154
 31
0.0
  0
LINE
  5
184
330
2
100
AcDbEntity
  8
0
  6
Continuous
 62
     7
370
    15
100
AcDbLine
 10
190.9016401976582
 20
471.3143093237154
 30
0.0
 11
206.9016428201585
 21
471.3143093237154
 31
0.0
  0
LINE
  5
185
330
2
100
AcDbEntity
  8
0
  6
Continuous
 62
     7
370
    15
100
AcDbLine
 10
228.4016491381581
 20
478.7143079292154
 30
0.0
 11
228.4016491381581
 21
486.314309919715
 31
0.0
  0
ARC
  5
186
330
2
100
AcDbEntity
  8
0
  6
Continuous
 62
     7
370
    15
100
AcDbCircle
 10
226.0016456161584
 20
478.7143081317156
 30
0.0
 40
2.40000000000009
100
AcDbArc
 50
270.0
 51
0.0
  0
ARC
  5
187
330
2
100
AcDbEntity
  8
0
  6
Continuous
 62
     7
370
    15
100
AcDbCircle
 10
213.9061236786583
 20
474.7143081317156
 30
0.0
 40
1.599999999999972
100
AcDbArc
 50
90.0
 51
125.0000000000117
  0
LINE
  5
188
330
2
100
AcDbEntity
  8
0
  6
Continuous
 62
     7
370
    15
100
AcDbLine
 10
209.7252191511584
 20
473.7400470027155
 30
0.0
 11
212.9883946386581
 21
476.0249538072155
 31
0.0
  0
LINE
  5
189
330
2
100
AcDbEntity
  8
0
  6
Continuous
 62
     7
370
    15
100
AcDbLine
 10
275.7446052041582
 20
380.3153081522154
 30
0.0
 11
275.7446052041582
 21
412.8133078762154
 31
0.0
  0
LINE
  5
18A
330
2
100
AcDbEntity
  8
0
  6
Continuous
 62
     7
370
    15
100
AcDbLine
 10
265.9016431776581
 20
380.3143081447154
 30
0.0
 11
275.7446052041582
 21
380.3143081447154
 31
0.0
  0
LINE
  5
18B
330
2
100
AcDbEntity
  8
0
  6
Continuous
 62
     7
370
    15
100
AcDbLine
 10
254.2438091246581
 20
348.0770254232155
 30
0.0
 11
254.2438091246581
 21
375.8143081057156
 31
0.0
  0
ARC
  5
18C
330
2
100
AcDbEntity
  8
0
  6
Continuous
 62
     7
370
    15
100
AcDbCircle
 10
425.7582565586581
 20
-1012.197418320784
 30
0.0
 40
1361.01262082921
100
AcDbArc
 50
97.17573015369111
 51
97.99705871148702
  0
LWPOLYLINE
  5
18D
330
2
100
AcDbEntity
  8
0
  6
Continuous
 62
     7
370
    15
100
AcDbPolyline
 90
        3
 70
   128
 43
0.0
 10
236.4110977856581
 20
335.5796431847155
 10
235.8339907136583
 20
335.4984542082154
 10
235.6414975136586
 20
335.4712968417155
  0
ARC
  5
18E
330
2
100
AcDbEntity
  8
0
  6
Continuous
 62
     7
370
    15
100
AcDbCircle
 10
342.5899474346584
 20
356.4145904987155
 30
0.0
 40
88.73869024079892
100
AcDbArc
 50
185.3912554540958
 51
191.8742374108985
  0
ARC
  5
18F
330
2
100
AcDbEntity
  8
0
  6
Continuous
 62
     7
370
    15
100
AcDbCircle
 10
283.4679724171583
 20
376.5636722882155
 30
0.0
 40
29.23376928889299
100
AcDbArc
 50
175.5845700396018
 51
181.4688529528023
  0
LINE
  5
190
330
2
100
AcDbEntity
  8
0
  6
Continuous
 62
     7
370
    15
100
AcDbLine
 10
275.7446052041582
 20
378.8143081317155
 30
0.0
 11
275.7446052041582
 21
380.3153081522154
 31
0.0
  0
LINE
  5
191
330
2
100
AcDbEntity
  8
0
  6
Continuous
 62
     7
370
    15
100
AcDbLine
 10
275.7446052041582
 20
412.3143089662153
 30
0.0
 11
265.9016431776581
 21
412.3143089662153
 31
0.0
  0
LINE
  5
192
330
2
100
AcDbEntity
  8
0
  6
Continuous
 62
     7
370
    15
100
AcDbLine
 10
275.7446052041582
 20
483.2143095982155
 30
0.0
 11
275.7446052041582
 21
414.3143092942154
 31
0.0
  0
LINE
  5
193
330
2
100
AcDbEntity
  8
0
  6
Continuous
 62
     7
370
    15
100
AcDbLine
 10
275.7446052041582
 20
412.8133078762154
 30
0.0
 11
275.7446052041582
 21
414.3143092942154
 31
0.0
  0
LINE
  5
194
330
2
100
AcDbEntity
  8
0
  6
Continuous
 62
     7
370
    15
100
AcDbLine
 10
275.7446052041582
 20
483.2143095982155
 30
0.0
 11
275.7446052041582
 21
486.314309919715
 31
0.0
  0
ARC
  5
195
330
2
100
AcDbEntity
  8
0
  6
Continuous
 62
     7
370
    15
100
AcDbCircle
 10
214.1966602486582
 20
1536.768394428364
 30
0.0
 40
888.837585409799
100
AcDbArc
 50
270.6978419830962
 51
271.4321247531956
  0
ARC
  5
196
330
2
100
AcDbEntity
  8
0
  6
Continuous
 62
     7
370
    15
100
AcDbCircle
 10
209.765931683658
 20
-332.2407810806358
 30
0.0
 40
1127.219294688489
100
AcDbArc
 50
88.64551820050516
 51
89.22451506311654
  0
ARC
  5
197
330
2
100
AcDbEntity
  8
0
  6
Continuous
 62
     7
370
    15
100
AcDbCircle
 10
255.0153902846582
 20
648.6318853148642
 30
0.0
 40
30.00000000000053
100
AcDbArc
 50
181.2131385725963
 51
268.5262282411934
  0
ARC
  5
198
330
2
100
AcDbEntity
  8
0
  6
Continuous
 62
     7
370
    15
100
AcDbCircle
 10
255.0153902846582
 20
794.2401171908638
 30
0.0
 40
30.00000000000123
100
AcDbArc
 50
91.47377175880654
 51
178.7868614272994
  0
LWPOLYLINE
  5
199
330
2
100
AcDbEntity
  8
0
  6
Continuous
 62
     7
370
    15
100
AcDbPolyline
 90
        5
 70
   128
 43
0.0
 10
225.0221146391582
 20
647.9967349033643
 10
224.439103987158
 20
684.7037793448637
 10
224.2446112056582
 20
721.4192127418641
 10
224.4388818291582
 20
758.1472392123637
 10
225.0221146391582
 20
794.8752676028643
  0
ARC
  5
19A
330
2
100
AcDbEntity
  8
0
  6
Continuous
 62
     7
370
    15
100
AcDbCircle
 10
190.901645616158
 20
792.9360012528643
 30
0.0
 40
37.50000000000002
100
AcDbArc
 50
25.25620366159559
 51
90.0
  0
ARC
  5
19B
330
2
100
AcDbEntity
  8
0
  6
Continuous
 62
     7
370
    15
100
AcDbCircle
 10
190.901645616158
 20
792.9360012528643
 30
0.0
 40
37.5
100
AcDbArc
 50
90.0
 51
334.7437963384494
  0
ARC
  5
19C
330
2
100
AcDbEntity
  8
0
  6
Continuous
 62
     7
370
    15
100
AcDbCircle
 10
190.901645616158
 20
792.9360012528643
 30
0.0
 40
35.1000000000002
100
AcDbArc
 50
27.11902368369279
 51
90.0
  0
ARC
  5
19D
330
2
100
AcDbEntity
  8
0
  6
Continuous
 62
     7
370
    15
100
AcDbCircle
 10
190.901645616158
 20
792.9360012528643
 30
0.0
 40
35.1000000000002
100
AcDbArc
 50
90.0
 51
332.8809763163072
  0
ARC
  5
19E
330
2
100
AcDbEntity
  8
0
  6
Continuous
 62
     7
370
    15
100
AcDbCircle
 10
190.901645616158
 20
792.9360012528643
 30
0.0
 40
18.70886114908089
100
AcDbArc
 50
90.0
 51
301.2170879661859
  0
ARC
  5
19F
330
2
100
AcDbEntity
  8
0
  6
Continuous
 62
     7
370
    15
100
AcDbCircle
 10
190.901645616158
 20
792.9360012528643
 30
0.0
 40
18.82357643635117
100
AcDbArc
 50
90.0
 51
301.7885615741864
  0
ARC
  5
1A0
330
2
100
AcDbEntity
  8
0
  6
Continuous
 62
     7
370
    15
100
AcDbCircle
 10
190.901645616158
 20
792.9360012528643
 30
0.0
 40
16.00000000000009
100
AcDbArc
 50
90.0
 51
270.0
  0
ARC
  5
1A1
330
2
100
AcDbEntity
  8
0
  6
Continuous
 62
     7
370
    15
100
AcDbCircle
 10
190.901645616158
 20
792.9360012528643
 30
0.0
 40
22.08675576404474
100
AcDbArc
 50
90.0
 51
313.5797096503024
  0
ARC
  5
1A2
330
2
100
AcDbEntity
  8
0
  6
Continuous
 62
     7
370
    15
100
AcDbCircle
 10
190.901645616158
 20
792.9360012528643
 30
0.0
 40
23.00447806220645
100
AcDbArc
 50
90.0
 51
315.9315895465069
  0
LINE
  5
1A3
330
2
100
AcDbEntity
  8
0
  6
Continuous
 62
     7
370
    15
100
AcDbLine
 10
228.8614041327096
 20
808.9360012528644
 30
0.0
 11
190.901645616158
 21
808.9360012528644
 31
0.0
  0
LINE
  5
1A4
330
2
100
AcDbEntity
  8
0
  6
Continuous
 62
     7
370
    15
100
AcDbLine
 10
190.901645616158
 20
776.9360012528643
 30
0.0
 11
224.7372431341755
 21
776.9360012528643
 31
0.0
  0
ARC
  5
1A5
330
2
100
AcDbEntity
  8
0
  6
Continuous
 62
     7
370
    15
100
AcDbCircle
 10
190.901645616158
 20
792.9360012528643
 30
0.0
 40
18.7088611490809
100
AcDbArc
 50
58.78291203381408
 51
90.0
  0
ARC
  5
1A6
330
2
100
AcDbEntity
  8
0
  6
Continuous
 62
     7
370
    15
100
AcDbCircle
 10
190.901645616158
 20
792.9360012528643
 30
0.0
 40
18.82357643635117
100
AcDbArc
 50
58.21143842581365
 51
90.0
  0
ARC
  5
1A7
330
2
100
AcDbEntity
  8
0
  6
Continuous
 62
     7
370
    15
100
AcDbCircle
 10
190.901645616158
 20
792.9360012528643
 30
0.0
 40
22.08675576404478
100
AcDbArc
 50
46.42029034969755
 51
90.0
  0
ARC
  5
1A8
330
2
100
AcDbEntity
  8
0
  6
Continuous
 62
     7
370
    15
100
AcDbCircle
 10
190.901645616158
 20
792.9360012528643
 30
0.0
 40
23.00447806220645
100
AcDbArc
 50
44.06841045349305
 51
90.0
  0
LWPOLYLINE
  5
1A9
330
2
100
AcDbEntity
  8
0
  6
Continuous
 62
     7
370
    15
100
AcDbPolyline
 90
        5
 70
   128
 43
0.0
 10
236.411102151158
 20
794.6635507988641
 10
235.834010819658
 20
758.0621474308641
 10
235.6414952646582
 20
721.4524998788642
 10
235.8337940901583
 20
684.8304767228637
 10
236.411102151158
 20
648.2084517073641
  0
ARC
  5
1AA
330
2
100
AcDbEntity
  8
0
  6
Continuous
 62
     7
370
    15
100
AcDbCircle
 10
256.327800454158
 20
648.5497455153643
 30
0.0
 40
19.91962230450356
100
AcDbArc
 50
180.981728034099
 51
268.3381818120992
  0
LWPOLYLINE
  5
1AB
330
2
100
AcDbEntity
  8
0
  6
Continuous
 62
     7
370
    15
100
AcDbPolyline
 90
        9
 70
   128
 43
0.0
 10
255.7501287676582
 20
628.6385012503638
 10
255.6765362171582
 20
626.6842960808636
 10
255.5575842281582
 20
624.8054964348642
 10
255.3978627151582
 20
623.0745982148637
 10
255.2035347396582
 20
621.5583903578642
 10
254.9820986956583
 20
620.3153776963643
 10
254.7420989791581
 20
619.3935234753642
 10
254.4927962876581
 20
618.8283986253642
 10
254.2438102861583
 20
618.6418092178638
  0
LWPOLYLINE
  5
1AC
330
2
100
AcDbEntity
  8
0
  6
Continuous
 62
     7
370
    15
100
AcDbPolyline
 90
        9
 70
   128
 43
0.0
 10
254.2438102861583
 20
824.2301932878637
 10
254.4927962876581
 20
824.0436038803636
 10
254.7420989791581
 20
823.4784790308637
 10
254.9820986956583
 20
822.5566248093636
 10
255.2035347396582
 20
821.3136121483644
 10
255.3978627151582
 20
819.7974042913639
 10
255.5575842281582
 20
818.0665060713643
 10
255.6765362171582
 20
816.1877064248638
 10
255.7501287676582
 20
814.2335012558643
  0
ARC
  5
1AD
330
2
100
AcDbEntity
  8
0
  6
Continuous
 62
     7
370
    15
100
AcDbCircle
 10
256.3283228591581
 20
794.3217407498641
 30
0.0
 40
19.92015348432448
100
AcDbArc
 50
91.66327707410417
 51
179.0168130799984
  0
LINE
  5
1AE
330
2
100
AcDbEntity
  8
0
  6
Continuous
 62
     7
370
    15
100
AcDbLine
 10
636.8148954121584
 20
476.0249538072155
 30
0.0
 11
640.078070899658
 21
473.7400470027155
 31
0.0
  0
ARC
  5
1AF
330
2
100
AcDbEntity
  8
0
  6
Continuous
 62
     7
370
    15
100
AcDbCircle
 10
583.901645616158
 20
471.3143081317155
 30
0.0
 40
59.00000000000005
100
AcDbArc
 50
270.0
 51
0.0
  0
ARC
  5
1B0
330
2
100
AcDbEntity
  8
0
  6
Continuous
 62
     7
370
    15
100
AcDbCircle
 10
583.901645616158
 20
471.3143081317155
 30
0.0
 40
91.0000000000001
100
AcDbArc
 50
270.0
 51
0.0
  0
LINE
  5
1B1
330
2
100
AcDbEntity
  8
0
  6
Continuous
 62
     7
370
    15
100
AcDbLine
 10
621.4016409126579
 20
486.314309919715
 30
0.0
 11
696.4016438931585
 21
486.314309919715
 31
0.0
  0
LINE
  5
1B2
330
2
100
AcDbEntity
  8
0
  6
Continuous
 62
     7
370
    15
100
AcDbLine
 10
623.8016517371583
 20
476.3143045552154
 30
0.0
 11
694.0016330686585
 21
476.3143045552154
 31
0.0
  0
LINE
  5
1B3
330
2
100
AcDbEntity
  8
0
  6
Continuous
 62
     7
370
    15
100
AcDbLine
 10
621.4016409126579
 20
478.7143079292154
 30
0.0
 11
696.4016438931585
 21
478.7143079292154
 31
0.0
  0
LINE
  5
1B4
330
2
100
AcDbEntity
  8
0
  6
Continuous
 62
     7
370
    15
100
AcDbLine
 10
636.8148954121584
 20
476.0249538072155
 30
0.0
 11
680.9883893936576
 21
476.0249538072155
 31
0.0
  0
LINE
  5
1B5
330
2
100
AcDbEntity
  8
0
  6
Continuous
 62
     7
370
    15
100
AcDbLine
 10
575.7446171251581
 20
412.8133078762154
 30
0.0
 11
575.7446171251581
 21
380.3153081522154
 31
0.0
  0
LWPOLYLINE
  5
1B6
330
2
100
AcDbEntity
  8
0
  6
Continuous
 62
     7
370
    15
100
AcDbPolyline
 90
       10
 70
   128
 43
0.0
 10
597.2454132046578
 20
348.0770254232155
 10
602.2307903971578
 20
347.6544638822154
 10
607.1931452956578
 20
347.2256531667154
 10
611.7164523806577
 20
346.8276506017155
 10
615.9274758306578
 20
346.4510014007153
 10
619.4619567601584
 20
346.1303060602154
 10
622.4297018256584
 20
345.8578159757156
 10
624.5641292541582
 20
345.6600216877155
 10
625.9495051116582
 20
345.5308286202155
 10
626.4671118466581
 20
345.4823923957154
  0
LINE
  5
1B7
330
2
100
AcDbEntity
  8
0
  6
Continuous
 62
     7
370
    15
100
AcDbLine
 10
626.4671118466581
 20
375.8143081057156
 30
0.0
 11
597.2454132046578
 21
375.8143081057156
 31
0.0
  0
ARC
  5
1B8
330
2
100
AcDbEntity
  8
0
  6
Continuous
 62
     7
370
    15
100
AcDbCircle
 10
425.7467801776583
 20
-1012.078679784284
 30
0.0
 40
1360.892836864022
100
AcDbArc
 50
82.00290514178687
 51
82.82430599299296
  0
LINE
  5
1B9
330
2
100
AcDbEntity
  8
0
  6
Continuous
 62
     7
370
    15
100
AcDbLine
 10
597.1682549921579
 20
378.8143081317155
 30
0.0
 11
623.4677763191585
 21
378.8143081317155
 31
0.0
  0
LINE
  5
1BA
330
2
100
AcDbEntity
  8
0
  6
Continuous
 62
     7
370
    15
100
AcDbLine
 10
597.2454132046578
 20
348.0770254232155
 30
0.0
 11
597.2454132046578
 21
375.8143081057156
 31
0.0
  0
ARC
  5
1BB
330
2
100
AcDbEntity
  8
0
  6
Continuous
 62
     7
370
    15
100
AcDbCircle
 10
508.8992748951581
 20
356.4145904987155
 30
0.0
 40
88.73869024065005
100
AcDbArc
 50
348.1257625891014
 51
354.6087445459026
  0
LINE
  5
1BC
330
2
100
AcDbEntity
  8
0
  6
Continuous
 62
     7
370
    15
100
AcDbLine
 10
575.7446171251581
 20
380.3143081447154
 30
0.0
 11
583.9016468731584
 21
380.3143081447154
 31
0.0
  0
LINE
  5
1BD
330
2
100
AcDbEntity
  8
0
  6
Continuous
 62
     7
370
    15
100
AcDbLine
 10
575.7446171251581
 20
380.3153081522154
 30
0.0
 11
575.7446171251581
 21
378.8143081317155
 31
0.0
  0
ARC
  5
1BE
330
2
100
AcDbEntity
  8
0
  6
Continuous
 62
     7
370
    15
100
AcDbCircle
 10
568.0212499131584
 20
376.5636722882155
 30
0.0
 40
29.23376928813569
100
AcDbArc
 50
358.5311470471001
 51
4.415429960502049
  0
LINE
  5
1BF
330
2
100
AcDbEntity
  8
0
  6
Continuous
 62
     7
370
    15
100
AcDbLine
 10
627.244609734158
 20
345.3732637417154
 30
0.0
 11
627.244609734158
 21
375.8143081057156
 31
0.0
  0
LINE
  5
1C0
330
2
100
AcDbEntity
  8
0
  6
Continuous
 62
     7
370
    15
100
AcDbLine
 10
626.4671118466581
 20
345.4823923957154
 30
0.0
 11
626.4671118466581
 21
375.8143081057156
 31
0.0
  0
ARC
  5
1C1
330
2
100
AcDbEntity
  8
0
  6
Continuous
 62
     7
370
    15
100
AcDbCircle
 10
617.2446111646581
 20
345.3732519002155
 30
0.0
 40
10.00000000000007
100
AcDbArc
 50
261.9701839410842
 51
359.9758961819012
  0
ARC
  5
1C2
330
2
100
AcDbEntity
  8
0
  6
Continuous
 62
     7
370
    15
100
AcDbCircle
 10
616.4678713876578
 20
345.4818355572154
 30
0.0
 40
9.99924047472021
100
AcDbArc
 50
262.0108692388973
 51
0.0
  0
LWPOLYLINE
  5
1C3
330
2
100
AcDbEntity
  8
0
  6
Continuous
 62
     7
370
    15
100
AcDbPolyline
 90
        3
 70
   128
 43
0.0
 10
615.8477248161585
 20
335.4712968417155
 10
615.6553955286581
 20
335.4984281312154
 10
615.0781245436578
 20
335.5796431847155
  0
LWPOLYLINE
  5
1C4
330
2
100
AcDbEntity
  8
0
  6
Continuous
 62
     7
370
    15
100
AcDbPolyline
 90
        4
 70
   128
 43
0.0
 10
626.4671118466581
 20
345.4823923957154
 10
627.0501346796577
 20
345.4006073722155
 10
627.244609734158
 20
345.3732525657153
 10
627.2445203271582
 20
345.3732637417154
  0
ARC
  5
1C5
330
2
100
AcDbEntity
  8
0
  6
Continuous
 62
     7
370
    15
100
AcDbCircle
 10
624.2446111646577
 20
375.8143081317154
 30
0.0
 40
3.000000000001605
100
AcDbArc
 50
0.0
 51
90.0
  0
ARC
  5
1C6
330
2
100
AcDbEntity
  8
0
  6
Continuous
 62
     7
370
    15
100
AcDbCircle
 10
623.4674473821582
 20
375.8146436662155
 30
0.0
 40
2.999664483329251
100
AcDbArc
 50
0.0
 51
89.99371706070443
  0
LINE
  5
1C7
330
2
100
AcDbEntity
  8
0
  6
Continuous
 62
     7
370
    15
100
AcDbLine
 10
623.4677763191585
 20
378.8143081317155
 30
0.0
 11
624.2446185556582
 21
378.8143081317155
 31
0.0
  0
LINE
  5
1C8
330
2
100
AcDbEntity
  8
0
  6
Continuous
 62
     7
370
    15
100
AcDbLine
 10
627.244609734158
 20
375.8143081057156
 30
0.0
 11
626.4671118466581
 21
375.8143081057156
 31
0.0
  0
LINE
  5
1C9
330
2
100
AcDbEntity
  8
0
  6
Continuous
 62
     7
370
    15
100
AcDbLine
 10
575.7446171251581
 20
414.3143092942154
 30
0.0
 11
575.7446171251581
 21
483.2143095982155
 31
0.0
  0
LINE
  5
1CA
330
2
100
AcDbEntity
  8
0
  6
Continuous
 62
     7
370
    15
100
AcDbLine
 10
583.9016468731584
 20
412.3143089662153
 30
0.0
 11
575.7446171251581
 21
412.3143089662153
 31
0.0
  0
LINE
  5
1CB
330
2
100
AcDbEntity
  8
0
  6
Continuous
 62
     7
370
    15
100
AcDbLine
 10
575.7446171251581
 20
414.3143092942154
 30
0.0
 11
575.7446171251581
 21
412.8133078762154
 31
0.0
  0
LINE
  5
1CC
330
2
100
AcDbEntity
  8
0
  6
Continuous
 62
     7
370
    15
100
AcDbLine
 10
575.7446171251581
 20
486.314309919715
 30
0.0
 11
575.7446171251581
 21
483.2143095982155
 31
0.0
  0
LINE
  5
1CD
330
2
100
AcDbEntity
  8
0
  6
Continuous
 62
     7
370
    15
100
AcDbLine
 10
621.4016409126579
 20
486.314309919715
 30
0.0
 11
621.4016409126579
 21
478.7143079292154
 31
0.0
  0
ARC
  5
1CE
330
2
100
AcDbEntity
  8
0
  6
Continuous
 62
     7
370
    15
100
AcDbCircle
 10
623.8016456161585
 20
478.7143081317156
 30
0.0
 40
2.400000000000019
100
AcDbArc
 50
180.0
 51
270.0
  0
ARC
  5
1CF
330
2
100
AcDbEntity
  8
0
  6
Continuous
 62
     7
370
    15
100
AcDbCircle
 10
635.8971675541579
 20
474.7143081317156
 30
0.0
 40
1.600000000000061
100
AcDbArc
 50
54.99999999998824
 51
90.0
  0
LINE
  5
1D0
330
2
100
AcDbEntity
  8
0
  6
Continuous
 62
     7
370
    15
100
AcDbLine
 10
677.7252139061584
 20
473.7400470027155
 30
0.0
 11
680.9883893936576
 21
476.0249538072155
 31
0.0
  0
LINE
  5
1D1
330
2
100
AcDbEntity
  8
0
  6
Continuous
 62
     7
370
    15
100
AcDbLine
 10
640.078070899658
 20
473.7400470027155
 30
0.0
 11
677.7252139061584
 21
473.7400470027155
 31
0.0
  0
LINE
  5
1D2
330
2
100
AcDbEntity
  8
0
  6
Continuous
 62
     7
370
    15
100
AcDbLine
 10
674.9016524761582
 20
471.3143093237154
 30
0.0
 11
658.9016498536584
 21
471.3143093237154
 31
0.0
  0
LINE
  5
1D3
330
2
100
AcDbEntity
  8
0
  6
Continuous
 62
     7
370
    15
100
AcDbLine
 10
640.4267580716582
 20
473.7400470027155
 30
0.0
 11
642.9016472306575
 21
472.0071164617154
 31
0.0
  0
LINE
  5
1D4
330
2
100
AcDbEntity
  8
0
  6
Continuous
 62
     7
370
    15
100
AcDbLine
 10
642.9016472306575
 20
472.0071164617154
 30
0.0
 11
642.9016472306575
 21
471.3143093237154
 31
0.0
  0
LINE
  5
1D5
330
2
100
AcDbEntity
  8
0
  6
Continuous
 62
     7
370
    15
100
AcDbLine
 10
658.9016498536584
 20
471.3143093237154
 30
0.0
 11
642.9016472306575
 21
471.3143093237154
 31
0.0
  0
LINE
  5
1D6
330
2
100
AcDbEntity
  8
0
  6
Continuous
 62
     7
370
    15
100
AcDbLine
 10
674.9016524761582
 20
472.0071164617154
 30
0.0
 11
677.3765267341578
 21
473.7400470027155
 31
0.0
  0
LINE
  5
1D7
330
2
100
AcDbEntity
  8
0
  6
Continuous
 62
     7
370
    15
100
AcDbLine
 10
674.9016524761582
 20
471.3143093237154
 30
0.0
 11
674.9016524761582
 21
472.0071164617154
 31
0.0
  0
LINE
  5
1D8
330
2
100
AcDbEntity
  8
0
  6
Continuous
 62
     7
370
    15
100
AcDbLine
 10
696.4016438931585
 20
478.7143079292154
 30
0.0
 11
696.4016438931585
 21
486.314309919715
 31
0.0
  0
ARC
  5
1D9
330
2
100
AcDbEntity
  8
0
  6
Continuous
 62
     7
370
    15
100
AcDbCircle
 10
694.0016456161584
 20
478.7143081317156
 30
0.0
 40
2.400000000000019
100
AcDbArc
 50
270.0
 51
0.0
  0
ARC
  5
1DA
330
2
100
AcDbEntity
  8
0
  6
Continuous
 62
     7
370
    15
100
AcDbCircle
 10
681.9061236786583
 20
474.7143081317156
 30
0.0
 40
1.600000000000036
100
AcDbArc
 50
90.0
 51
125.0000000000117
  0
LWPOLYLINE
  5
1DB
330
2
100
AcDbEntity
  8
0
  6
Continuous
 62
     7
370
    15
100
AcDbPolyline
 90
        5
 70
   128
 43
0.0
 10
615.0781201781578
 20
648.2084517073641
 10
615.6552115096583
 20
684.8098550753643
 10
615.8477270646581
 20
721.4195026273642
 10
615.655428239158
 20
758.0415257833642
 10
615.0781201781578
 20
794.6635507988641
  0
LWPOLYLINE
  5
1DC
330
2
100
AcDbEntity
  8
0
  6
Continuous
 62
     7
370
    15
100
AcDbPolyline
 90
        5
 70
   128
 43
0.0
 10
626.4671076901581
 20
794.8752676028643
 10
627.0501348931584
 20
758.1661263198643
 10
627.2446111241584
 20
721.4527897643638
 10
627.0503126136577
 20
684.7226637383641
 10
626.4671076901581
 20
647.9967349033643
  0
ARC
  5
1DD
330
2
100
AcDbEntity
  8
0
  6
Continuous
 62
     7
370
    15
100
AcDbCircle
 10
595.1432988471578
 20
648.5676546928638
 30
0.0
 40
19.93805728464493
100
AcDbArc
 50
271.7123837361048
 51
358.9677064179986
  0
ARC
  5
1DE
330
2
100
AcDbEntity
  8
0
  6
Continuous
 62
     7
370
    15
100
AcDbCircle
 10
596.4738320446586
 20
648.6318853148642
 30
0.0
 40
29.99999999999602
100
AcDbArc
 50
271.4737717587805
 51
358.7868614275014
  0
LWPOLYLINE
  5
1DF
330
2
100
AcDbEntity
  8
0
  6
Continuous
 62
     7
370
    15
100
AcDbPolyline
 90
        9
 70
   128
 43
0.0
 10
595.7390935616586
 20
628.6385012503638
 10
595.8126861121582
 20
626.6842960808636
 10
595.9316381016583
 20
624.8054964348642
 10
596.0913596141581
 20
623.0745982148637
 10
596.285687590158
 20
621.5583903578642
 10
596.507123633658
 20
620.3153776963643
 10
596.7471233506585
 20
619.3935234753642
 10
596.9964260421575
 20
618.8283986253642
 10
597.2454120431584
 20
618.6418092178638
  0
ARC
  5
1E0
330
2
100
AcDbEntity
  8
0
  6
Continuous
 62
     7
370
    15
100
AcDbCircle
 10
637.2925620806577
 20
1536.768394426865
 30
0.0
 40
888.8375854085991
100
AcDbArc
 50
268.5678752468044
 51
269.3021580169038
  0
LINE
  5
1E1
330
2
100
AcDbEntity
  8
0
  6
Continuous
 62
     7
370
    15
100
AcDbLine
 10
658.9016456161584
 20
808.9360012528644
 30
0.0
 11
622.6278181966108
 21
808.9360012528644
 31
0.0
  0
LINE
  5
1E2
330
2
100
AcDbEntity
  8
0
  6
Continuous
 62
     7
370
    15
100
AcDbLine
 10
626.7520252861132
 20
776.9360012528643
 30
0.0
 11
658.9016456161584
 21
776.9360012528643
 31
0.0
  0
ARC
  5
1E3
330
2
100
AcDbEntity
  8
0
  6
Continuous
 62
     7
370
    15
100
AcDbCircle
 10
658.9016456161584
 20
792.9360012528643
 30
0.0
 40
37.50000000000004
100
AcDbArc
 50
205.2562036615506
 51
0.0
  0
ARC
  5
1E4
330
2
100
AcDbEntity
  8
0
  6
Continuous
 62
     7
370
    15
100
AcDbCircle
 10
658.9016456161584
 20
792.9360012528643
 30
0.0
 40
37.49999999999999
100
AcDbArc
 50
0.0
 51
154.7437963384044
  0
ARC
  5
1E5
330
2
100
AcDbEntity
  8
0
  6
Continuous
 62
     7
370
    15
100
AcDbCircle
 10
658.9016456161584
 20
792.9360012528643
 30
0.0
 40
35.10000000000007
100
AcDbArc
 50
207.1190236836928
 51
0.0
  0
ARC
  5
1E6
330
2
100
AcDbEntity
  8
0
  6
Continuous
 62
     7
370
    15
100
AcDbCircle
 10
658.9016456161584
 20
792.9360012528643
 30
0.0
 40
35.10000000000007
100
AcDbArc
 50
0.0
 51
152.8809763163072
  0
LWPOLYLINE
  5
1E7
330
2
100
AcDbEntity
  8
0
  6
Continuous
 62
     7
370
    15
100
AcDbPolyline
 90
        9
 70
   128
 43
0.0
 10
597.2454120431584
 20
824.2301932878637
 10
596.9964260421575
 20
824.0436038803636
 10
596.7471233506585
 20
823.4784790308637
 10
596.507123633658
 20
822.5566248093636
 10
596.285687590158
 20
821.3136121483644
 10
596.0913596141581
 20
819.7974042913639
 10
595.9316381016583
 20
818.0665060713643
 10
595.8126861121582
 20
816.1877064248638
 10
595.7390935616586
 20
814.2335012558643
  0
ARC
  5
1E8
330
2
100
AcDbEntity
  8
0
  6
Continuous
 62
     7
370
    15
100
AcDbCircle
 10
596.4738320446586
 20
794.2401171908638
 30
0.0
 40
30.00000000000489
100
AcDbArc
 50
1.213138572596327
 51
88.52622824119347
  0
ARC
  5
1E9
330
2
100
AcDbEntity
  8
0
  6
Continuous
 62
     7
370
    15
100
AcDbCircle
 10
595.1435493541585
 20
794.3045953638643
 30
0.0
 40
19.93780236008187
100
AcDbArc
 50
1.031595274102048
 51
88.28831457230885
  0
ARC
  5
1EA
330
2
100
AcDbEntity
  8
0
  6
Continuous
 62
     7
370
    15
100
AcDbCircle
 10
641.7232906456579
 20
-332.2407810636359
 30
0.0
 40
1127.219294671465
100
AcDbArc
 50
90.77548493688345
 51
91.35448179949483
  0
ARC
  5
1EB
330
2
100
AcDbEntity
  8
0
  6
Continuous
 62
     7
370
    15
100
AcDbCircle
 10
658.9016456161584
 20
792.9360012528643
 30
0.0
 40
22.08675576404478
100
AcDbArc
 50
226.4202903496976
 51
0.0
  0
ARC
  5
1EC
330
2
100
AcDbEntity
  8
0
  6
Continuous
 62
     7
370
    15
100
AcDbCircle
 10
658.9016456161584
 20
792.9360012528643
 30
0.0
 40
22.08675576404478
100
AcDbArc
 50
0.0
 51
133.5797096503024
  0
ARC
  5
1ED
330
2
100
AcDbEntity
  8
0
  6
Continuous
 62
     7
370
    15
100
AcDbCircle
 10
658.9016456161584
 20
792.9360012528643
 30
0.0
 40
23.00447806220646
100
AcDbArc
 50
224.068410453493
 51
0.0
  0
ARC
  5
1EE
330
2
100
AcDbEntity
  8
0
  6
Continuous
 62
     7
370
    15
100
AcDbCircle
 10
658.9016456161584
 20
792.9360012528643
 30
0.0
 40
23.00447806220646
100
AcDbArc
 50
0.0
 51
135.9315895465069
  0
ARC
  5
1EF
330
2
100
AcDbEntity
  8
0
  6
Continuous
 62
     7
370
    15
100
AcDbCircle
 10
658.9016456161584
 20
792.9360012528643
 30
0.0
 40
18.70886114908094
100
AcDbArc
 50
238.7829120338141
 51
0.0
  0
ARC
  5
1F0
330
2
100
AcDbEntity
  8
0
  6
Continuous
 62
     7
370
    15
100
AcDbCircle
 10
658.9016456161584
 20
792.9360012528643
 30
0.0
 40
18.70886114908094
100
AcDbArc
 50
0.0
 51
121.2170879661859
  0
ARC
  5
1F1
330
2
100
AcDbEntity
  8
0
  6
Continuous
 62
     7
370
    15
100
AcDbCircle
 10
658.9016456161584
 20
792.9360012528643
 30
0.0
 40
18.82357643635115
100
AcDbArc
 50
238.2114384258137
 51
0.0
  0
ARC
  5
1F2
330
2
100
AcDbEntity
  8
0
  6
Continuous
 62
     7
370
    15
100
AcDbCircle
 10
658.9016456161584
 20
792.9360012528643
 30
0.0
 40
18.82357643635115
100
AcDbArc
 50
0.0
 51
121.7885615741863
  0
ARC
  5
1F3
330
2
100
AcDbEntity
  8
0
  6
Continuous
 62
     7
370
    15
100
AcDbCircle
 10
658.9016456161584
 20
792.9360012528643
 30
0.0
 40
16.00000000000009
100
AcDbArc
 50
270.0
 51
90.0
  0
LWPOLYLINE
  5
1F4
330
2
100
AcDbEntity
  8
0
  6
Continuous
 62
     7
370
    15
100
AcDbPolyline
 90
        6
 70
   128
 43
0.0
 10
1047.727528235414
 20
648.1793878793641
 10
1047.796334346914
 20
672.5584177493637
 10
1047.843209674914
 20
705.4782567738643
 10
1047.842475792914
 20
738.3977754233638
 10
1047.794214656914
 20
771.2979896188644
 10
1047.727237662414
 20
794.6926133898641
  0
LWPOLYLINE
  5
1F5
330
2
100
AcDbEntity
  8
0
  6
Continuous
 62
     7
370
    15
100
AcDbPolyline
 90
        5
 70
   128
 43
0.0
 10
1037.739734372414
 20
647.9967294453643
 10
1037.821519395914
 20
684.7058741568641
 10
1037.848874202414
 20
721.419213545364
 10
1037.821545472914
 20
758.1493390918642
 10
1037.739734372414
 20
794.8752671673641
  0
LINE
  5
1F6
330
2
100
AcDbEntity
  8
0
  6
Continuous
 62
     7
370
    15
100
AcDbLine
 10
1007.407818662414
 20
794.8752671673641
 30
0.0
 11
1007.407818662414
 21
647.9967294453643
 31
0.0
  0
LINE
  5
1F7
330
2
100
AcDbEntity
  8
0
  6
Continuous
 62
     7
370
    15
100
AcDbLine
 10
1004.407818636414
 20
648.0602530953643
 30
0.0
 11
1004.407818636414
 21
794.8117528303641
 31
0.0
  0
LINE
  5
1F8
330
2
100
AcDbEntity
  8
0
  6
Continuous
 62
     7
370
    15
100
AcDbLine
 10
1002.907818623414
 20
808.9350012323638
 30
0.0
 11
1002.907818623414
 21
636.9369982003643
 31
0.0
  0
DIMENSION
  5
1F9
330
2
100
AcDbEntity
  8
0
100
AcDbDimension
280
     0
  2
*D9
 10
952.534368242239
 20
776.936000418364
 30
0.0
 11
941.2843682422387
 21
730.2693337516975
 31
0.0
  1
%%c<>
 71
     5
 42
32.00000082149973
 73
     0
 74
     0
 75
     0
  3
Wagner$0
100
AcDbAlignedDimension
 13
949.4078180031642
 23
808.9360012398637
 33
0.0
 14
949.4078180031642
 24
776.936000418364
 34
0.0
 50
90.0
100
AcDbRotatedDimension
1001
ACAD
1000
DSTYLE
1002
{
1070
    40
1040
5.0
1070
   174
1070
     0
1070
   271
1070
     1
1070
   279
1070
     0
1002
}
  0
LINE
  5
208
330
2
100
AcDbEntity
  8
0
  6
Continuous
 62
     7
370
    15
100
AcDbLine
 10
898.4088182659139
 20
635.4360042333642
 30
0.0
 11
1002.906818615413
 21
635.4360042333642
 31
0.0
  0
LINE
  5
209
330
2
100
AcDbEntity
  8
0
  6
Continuous
 62
     7
370
    15
100
AcDbLine
 10
898.4088182659139
 20
636.9359998223638
 30
0.0
 11
1002.906818615413
 21
636.9359998223638
 31
0.0
  0
ARC
  5
20A
330
2
100
AcDbEntity
  8
0
  6
Continuous
 62
     7
370
    15
100
AcDbCircle
 10
898.4578186364142
 20
663.8860012528643
 30
0.0
 40
1.550000000000153
100
AcDbArc
 50
0.0
 51
180.0
  0
LINE
  5
20B
330
2
100
AcDbEntity
  8
0
  6
Continuous
 62
     7
370
    15
100
AcDbLine
 10
898.4088182659139
 20
636.9359998223638
 30
0.0
 11
898.4088182659139
 21
635.4360042333642
 31
0.0
  0
LINE
  5
20C
330
2
100
AcDbEntity
  8
0
  6
Continuous
 62
     7
370
    15
100
AcDbLine
 10
898.4078198879137
 20
663.8860015388636
 30
0.0
 11
896.9078168479144
 21
663.8860015388636
 31
0.0
  0
LINE
  5
20D
330
2
100
AcDbEntity
  8
0
  6
Continuous
 62
     7
370
    15
100
AcDbLine
 10
898.5078215809139
 20
663.8860015388636
 30
0.0
 11
900.0078171699138
 21
663.8860015388636
 31
0.0
  0
ARC
  5
20E
330
2
100
AcDbEntity
  8
0
  6
Continuous
 62
     7
370
    15
100
AcDbCircle
 10
898.4578186364142
 20
663.8860012528643
 30
0.0
 40
0.0500000000000965
100
AcDbArc
 50
0.0
 51
180.0
  0
ARC
  5
20F
330
2
100
AcDbEntity
  8
0
  6
Continuous
 62
     7
370
    15
100
AcDbCircle
 10
898.4088186364143
 20
636.9370012528642
 30
0.0
 40
1.50100000000009
100
AcDbArc
 50
180.0
 51
270.0
  0
LINE
  5
210
330
2
100
AcDbEntity
  8
0
  6
Continuous
 62
     7
370
    15
100
AcDbLine
 10
898.4078198879137
 20
636.9369982003643
 30
0.0
 11
896.9078168479144
 21
636.9369982003643
 31
0.0
  0
ARC
  5
211
330
2
100
AcDbEntity
  8
0
  6
Continuous
 62
     7
370
    15
100
AcDbCircle
 10
898.4088186364143
 20
636.9370012528642
 30
0.0
 40
0.001000000000033
100
AcDbArc
 50
180.0
 51
270.0
  0
LINE
  5
212
330
2
100
AcDbEntity
  8
0
  6
Continuous
 62
     7
370
    15
100
AcDbLine
 10
898.5078215809139
 20
659.4360081673642
 30
0.0
 11
900.0078171699138
 21
659.4360081673642
 31
0.0
  0
LINE
  5
213
330
2
100
AcDbEntity
  8
0
  6
Continuous
 62
     7
370
    15
100
AcDbLine
 10
898.5078215809139
 20
659.4360081673642
 30
0.0
 11
898.5078215809139
 21
663.8860015388636
 31
0.0
  0
LINE
  5
214
330
2
100
AcDbEntity
  8
0
  6
Continuous
 62
     7
370
    15
100
AcDbLine
 10
900.0078171699138
 20
659.4360081673642
 30
0.0
 11
900.0078171699138
 21
663.8860015388636
 31
0.0
  0
LINE
  5
215
330
2
100
AcDbEntity
  8
0
  6
Continuous
 62
     7
370
    15
100
AcDbLine
 10
896.9078168479144
 20
663.8860015388636
 30
0.0
 11
896.9078168479144
 21
636.9369982003643
 31
0.0
  0
LINE
  5
216
330
2
100
AcDbEntity
  8
0
  6
Continuous
 62
     7
370
    15
100
AcDbLine
 10
898.4078198879137
 20
663.8860015388636
 30
0.0
 11
898.4078198879137
 21
636.9369982003643
 31
0.0
  0
LINE
  5
217
330
2
100
AcDbEntity
  8
0
  6
Continuous
 62
     7
370
    15
100
AcDbLine
 10
1007.407818662414
 20
616.4359955308636
 30
0.0
 11
1024.429314976915
 21
616.4359955308636
 31
0.0
  0
LINE
  5
218
330
2
100
AcDbEntity
  8
0
  6
Continuous
 62
     7
370
    15
100
AcDbLine
 10
1037.739734372414
 20
647.9967294453643
 30
0.0
 11
1007.407818662414
 21
647.9967294453643
 31
0.0
  0
LINE
  5
219
330
2
100
AcDbEntity
  8
0
  6
Continuous
 62
     7
370
    15
100
AcDbLine
 10
1035.145101344414
 20
618.6418144223637
 30
0.0
 11
1007.407818662414
 21
618.6418144223637
 31
0.0
  0
ARC
  5
21A
330
2
100
AcDbEntity
  8
0
  6
Continuous
 62
     7
370
    15
100
AcDbCircle
 10
1007.407818636414
 20
619.4360012528638
 30
0.0
 40
3.000000000000114
100
AcDbArc
 50
180.0
 51
270.0
  0
ARC
  5
21B
330
2
100
AcDbEntity
  8
0
  6
Continuous
 62
     7
370
    15
100
AcDbCircle
 10
1006.658323407914
 20
683.4722085228636
 30
0.0
 40
35.48339553819609
100
AcDbArc
 50
266.363622216206
 51
271.2103156433099
  0
LINE
  5
21C
330
2
100
AcDbEntity
  8
0
  6
Continuous
 62
     7
370
    15
100
AcDbLine
 10
1007.407818662414
 20
647.9967294453643
 30
0.0
 11
1007.407818662414
 21
618.6418144223637
 31
0.0
  0
LINE
  5
21D
330
2
100
AcDbEntity
  8
0
  6
Continuous
 62
     7
370
    15
100
AcDbLine
 10
1004.407818636414
 20
621.6408221243642
 30
0.0
 11
1004.407818636414
 21
648.0602530953643
 31
0.0
  0
ARC
  5
21E
330
2
100
AcDbEntity
  8
0
  6
Continuous
 62
     7
370
    15
100
AcDbCircle
 10
1007.407305083414
 20
621.6413008638637
 30
0.0
 40
2.999486485209745
100
AcDbArc
 50
180.0091448137012
 51
270.0098103170836
  0
LINE
  5
21F
330
2
100
AcDbEntity
  8
0
  6
Continuous
 62
     7
370
    15
100
AcDbLine
 10
1004.407818636414
 20
619.4360016108642
 30
0.0
 11
1004.407818636414
 21
621.6408221243642
 31
0.0
  0
LINE
  5
220
330
2
100
AcDbEntity
  8
0
  6
Continuous
 62
     7
370
    15
100
AcDbLine
 10
1002.906818615413
 20
636.9359998223638
 30
0.0
 11
1002.906818615413
 21
635.4360042333642
 31
0.0
  0
LINE
  5
221
330
2
100
AcDbEntity
  8
0
  6
Continuous
 62
     7
370
    15
100
AcDbLine
 10
1002.907818623414
 20
636.9369982003643
 30
0.0
 11
1004.407818636414
 21
636.9369982003643
 31
0.0
  0
ARC
  5
222
330
2
100
AcDbEntity
  8
0
  6
Continuous
 62
     7
370
    15
100
AcDbCircle
 10
1002.906818636414
 20
636.9370012528642
 30
0.0
 40
0.001000000000033
100
AcDbArc
 50
270.0
 51
0.0
  0
ARC
  5
223
330
2
100
AcDbEntity
  8
0
  6
Continuous
 62
     7
370
    15
100
AcDbCircle
 10
1002.906818636414
 20
636.9370012528642
 30
0.0
 40
1.50100000000009
100
AcDbArc
 50
270.0
 51
0.0
  0
LINE
  5
224
330
2
100
AcDbEntity
  8
0
  6
Continuous
 62
     7
370
    15
100
AcDbLine
 10
1007.407818662414
 20
618.6418144223637
 30
0.0
 11
1007.407818662414
 21
616.4359955308636
 31
0.0
  0
LINE
  5
225
330
2
100
AcDbEntity
  8
0
  6
Continuous
 62
     7
370
    15
100
AcDbLine
 10
1001.001974541914
 20
669.1860018488642
 30
0.0
 11
1002.907818623414
 21
669.1860018488642
 31
0.0
  0
LINE
  5
226
330
2
100
AcDbEntity
  8
0
  6
Continuous
 62
     7
370
    15
100
AcDbLine
 10
1002.907818623414
 20
678.6859987493642
 30
0.0
 11
1001.001974541914
 21
678.6859987493642
 31
0.0
  0
ARC
  5
227
330
2
100
AcDbEntity
  8
0
  6
Continuous
 62
     7
370
    15
100
AcDbCircle
 10
1001.001974616414
 20
669.6360012528637
 30
0.0
 40
0.4500000000000331
100
AcDbArc
 50
214.7179055026089
 51
270.0
  0
ARC
  5
228
330
2
100
AcDbEntity
  8
0
  6
Continuous
 62
     7
370
    15
100
AcDbCircle
 10
1001.001974616414
 20
678.2360012528638
 30
0.0
 40
0.4500000000000331
100
AcDbArc
 50
90.0
 51
145.2820944973911
  0
ARC
  5
229
330
2
100
AcDbEntity
  8
0
  6
Continuous
 62
     7
370
    15
100
AcDbCircle
 10
1007.207818636414
 20
673.9360012528642
 30
0.0
 40
7.99999999999992
100
AcDbArc
 50
195.937333180196
 51
214.7179055026089
  0
ARC
  5
22A
330
2
100
AcDbEntity
  8
0
  6
Continuous
 62
     7
370
    15
100
AcDbCircle
 10
1007.207818636414
 20
673.9360012528642
 30
0.0
 40
8.0
100
AcDbArc
 50
145.2820944973911
 51
164.0626668198039
  0
ARC
  5
22B
330
2
100
AcDbEntity
  8
0
  6
Continuous
 62
     7
370
    15
100
AcDbCircle
 10
1007.207818636414
 20
673.9360012528642
 30
0.0
 40
7.98340622792052
100
AcDbArc
 50
186.4807646758969
 51
195.9151253801943
  0
LINE
  5
22C
330
2
100
AcDbEntity
  8
0
  6
Continuous
 62
     7
370
    15
100
AcDbLine
 10
999.2754279844143
 20
673.0349121808642
 30
0.0
 11
999.2754279844143
 21
673.4210012673642
 31
0.0
  0
LINE
  5
22D
330
2
100
AcDbEntity
  8
0
  6
Continuous
 62
     7
370
    15
100
AcDbLine
 10
999.2754279844143
 20
673.4210012673642
 30
0.0
 11
999.5304245709139
 21
673.4210012673642
 31
0.0
  0
ARC
  5
22E
330
2
100
AcDbEntity
  8
0
  6
Continuous
 62
     7
370
    15
100
AcDbCircle
 10
1008.301333899914
 20
673.9360002993637
 30
0.0
 40
8.786015846803444
100
AcDbArc
 50
176.6396379693971
 51
183.3603620306029
  0
LINE
  5
22F
330
2
100
AcDbEntity
  8
0
  6
Continuous
 62
     7
370
    15
100
AcDbLine
 10
999.5304245709139
 20
674.4509993313637
 30
0.0
 11
999.2754279844143
 21
674.4509993313637
 31
0.0
  0
LINE
  5
230
330
2
100
AcDbEntity
  8
0
  6
Continuous
 62
     7
370
    15
100
AcDbLine
 10
999.2754279844143
 20
674.4509993313637
 30
0.0
 11
999.2754279844143
 21
674.8370884178638
 31
0.0
  0
ARC
  5
231
330
2
100
AcDbEntity
  8
0
  6
Continuous
 62
     7
370
    15
100
AcDbCircle
 10
1007.207818636414
 20
673.9360012528642
 30
0.0
 40
7.983406227920565
100
AcDbArc
 50
164.0848746198057
 51
173.519235324103
  0
LINE
  5
232
330
2
100
AcDbEntity
  8
0
  6
Continuous
 62
     7
370
    15
100
AcDbLine
 10
999.3962261104142
 20
673.4210012673642
 30
0.0
 11
999.3962261104142
 21
674.4509993313637
 31
0.0
  0
LINE
  5
233
330
2
100
AcDbEntity
  8
0
  6
Continuous
 62
     7
370
    15
100
AcDbLine
 10
1001.001974541914
 20
673.9360002993637
 30
0.0
 11
1001.001974541914
 21
678.6859987493642
 31
0.0
  0
LINE
  5
234
330
2
100
AcDbEntity
  8
0
  6
Continuous
 62
     7
370
    15
100
AcDbLine
 10
1001.001974541914
 20
669.1860018488642
 30
0.0
 11
1001.001974541914
 21
673.9360002993637
 31
0.0
  0
LINE
  5
235
330
2
100
AcDbEntity
  8
0
  6
Continuous
 62
     7
370
    15
100
AcDbLine
 10
1000.632089769914
 20
673.9360002993637
 30
0.0
 11
1000.632089769914
 21
678.4922985553642
 31
0.0
  0
LINE
  5
236
330
2
100
AcDbEntity
  8
0
  6
Continuous
 62
     7
370
    15
100
AcDbLine
 10
1000.632089769914
 20
669.3797169443642
 30
0.0
 11
1000.632089769914
 21
673.9360002993637
 31
0.0
  0
LWPOLYLINE
  5
237
330
2
100
AcDbEntity
  8
0
  6
Continuous
 62
     7
370
    15
100
AcDbPolyline
 90
       10
 70
   128
 43
0.0
 10
1026.447500309414
 20
616.6462211128642
 10
1026.487925296914
 20
616.6546402693637
 10
1026.800542345414
 20
616.7196093318643
 10
1027.421877926414
 20
616.8484447718638
 10
1028.353139033914
 20
617.0411018848636
 10
1029.594878873414
 20
617.2973720548642
 10
1031.147272532914
 20
617.6170019623643
 10
1033.010092770914
 20
617.9996339798642
 10
1035.182711875414
 20
618.4448061703642
 10
1037.216636559414
 20
618.8605485678638
  0
LWPOLYLINE
  5
238
330
2
100
AcDbEntity
  8
0
  6
Continuous
 62
     7
370
    15
100
AcDbPolyline
 90
        5
 70
   128
 43
0.0
 10
1024.429322427414
 20
616.4404509783642
 10
1025.048581158914
 20
616.5684072493643
 10
1027.054338922914
 20
616.9817654608642
 10
1030.421334525914
 20
617.6737306833638
 10
1035.145101344414
 20
618.6418144223637
  0
ARC
  5
239
330
2
100
AcDbEntity
  8
0
  6
Continuous
 62
     7
370
    15
100
AcDbCircle
 10
1024.407818636414
 20
626.4360012528642
 30
0.0
 40
9.999999999999955
100
AcDbArc
 50
270.1183520054981
 51
281.6345364258966
  0
LWPOLYLINE
  5
23A
330
2
100
AcDbEntity
  8
0
  6
Continuous
 62
     7
370
    15
100
AcDbPolyline
 90
       19
 70
   128
 43
0.0
 10
1037.173307707914
 20
618.8480017898641
 10
1038.769985756414
 20
619.3135140658642
 10
1040.205295404914
 20
619.9915019988642
 10
1041.462048163914
 20
620.8314506528643
 10
1042.531970163914
 20
621.7838881728637
 10
1043.418205550414
 20
622.8019653078643
 10
1044.139753302914
 20
623.8532422303642
 10
1044.726702591914
 20
624.9281672953642
 10
1045.224181583414
 20
626.0725466728636
 10
1045.681233724914
 20
627.4102835178641
 10
1046.147159507914
 20
629.1977076053642
 10
1046.549744179914
 20
631.2460361238642
 10
1046.868502369414
 20
633.3632378098636
 10
1047.123450061414
 20
635.5298219443637
 10
1047.346315553914
 20
637.9802433968641
 10
1047.514598092414
 20
640.4746679783637
 10
1047.637894025414
 20
643.0880634308636
 10
1047.712895294914
 20
645.7450894833642
 10
1047.737724354914
 20
648.1774656293637
  0
LWPOLYLINE
  5
23B
330
2
100
AcDbEntity
  8
0
  6
Continuous
 62
     7
370
    15
100
AcDbPolyline
 90
       10
 70
   128
 43
0.0
 10
1035.145101344414
 20
618.6418144223637
 10
1035.567662885914
 20
619.1894469973637
 10
1035.996473601414
 20
620.6123141763637
 10
1036.394476166414
 20
622.7927116868637
 10
1036.771125367414
 20
625.7942823883642
 10
1037.091820707914
 20
629.3563602683637
 10
1037.364310791914
 20
633.5888562918642
 10
1037.562105080414
 20
638.0993185758643
 10
1037.691298147913
 20
643.0475769758642
 10
1037.739734372414
 20
647.9967294453643
  0
ARC
  5
23C
330
2
100
AcDbEntity
  8
0
  6
Continuous
 62
     7
370
    15
100
AcDbCircle
 10
1035.176298767914
 20
628.4841441748642
 30
0.0
 40
9.842528016091794
100
AcDbArc
 50
281.9554182746868
 51
295.6053475497903
  0
ARC
  5
23D
330
2
100
AcDbEntity
  8
0
  6
Continuous
 62
     7
370
    15
100
AcDbCircle
 10
1040.805771561914
 20
753.9804962903637
 30
0.0
 40
106.0281067390717
100
AcDbArc
 50
268.3429348290014
 51
273.7496216516841
  0
LWPOLYLINE
  5
23E
330
2
100
AcDbEntity
  8
0
  6
Continuous
 62
     7
370
    15
100
AcDbPolyline
 90
        3
 70
   128
 43
0.0
 10
1037.169500461414
 20
618.8455579993638
 10
1036.559979638414
 20
618.7394021273641
 10
1035.145101344414
 20
618.6418144223637
  0
LINE
  5
23F
330
2
100
AcDbEntity
  8
0
  6
Continuous
 62
     7
370
    15
100
AcDbLine
 10
986.9078185619146
 20
808.9360012398637
 30
0.0
 11
911.9078174444139
 21
808.9360012398637
 31
0.0
  0
LINE
  5
240
330
2
100
AcDbEntity
  8
0
  6
Continuous
 62
     7
370
    15
100
AcDbLine
 10
911.9078174444139
 20
776.936000418364
 30
0.0
 11
986.9078185619146
 21
776.936000418364
 31
0.0
  0
DIMENSION
  5
241
330
2
100
AcDbEntity
  8
0
100
AcDbDimension
280
     0
  2
*D0
 10
1047.739688972414
 20
904.1211919477916
 30
0.0
 11
973.9842563154139
 21
904.1211919477916
 31
0.0
 70
   128
  1
140
 71
     5
 42
150.831870336
 73
     0
 74
     0
 75
     0
  3
Wagner$0
100
AcDbAlignedDimension
 13
896.9078186364141
 23
830.4360012528643
 33
0.0
 14
1047.739688972414
 24
794.6933012763638
 34
0.0
100
AcDbRotatedDimension
1001
ACAD
1000
DSTYLE
1002
{
1070
    40
1040
5.0
1070
   174
1070
     0
1070
   279
1070
     0
1002
}
  0
DIMENSION
  5
24E
330
2
100
AcDbEntity
  8
0
100
AcDbDimension
280
     0
  2
*D8
 10
1004.407818636156
 20
865.6152462652912
 30
0.0
 11
950.6578186362851
 21
876.8652462652912
 31
0.0
 71
     5
 42
107.4999999997421
 73
     0
 74
     0
 75
     0
  3
Wagner$0
100
AcDbAlignedDimension
 13
896.9078186364141
 23
835.4360012528642
 33
0.0
 14
1004.407818636156
 24
821.2311856642545
 34
0.0
100
AcDbRotatedDimension
1001
ACAD
1000
DSTYLE
1002
{
1070
    40
1040
5.0
1070
   174
1070
     0
1070
   279
1070
     0
1002
}
  0
LINE
  5
25B
330
2
100
AcDbEntity
  8
0
  6
Continuous
 62
     7
370
    15
100
AcDbLine
 10
896.9078168479144
 20
755.4360015508641
 30
0.0
 11
896.9078168479144
 21
830.4360008058639
 31
0.0
  0
LINE
  5
25C
330
2
100
AcDbEntity
  8
0
  6
Continuous
 62
     7
370
    15
100
AcDbLine
 10
906.9078222124144
 20
757.836001199364
 30
0.0
 11
906.9078222124144
 21
828.0360011578636
 31
0.0
  0
LINE
  5
25D
330
2
100
AcDbEntity
  8
0
  6
Continuous
 62
     7
370
    15
100
AcDbLine
 10
904.5078188389142
 20
755.4360015508641
 30
0.0
 11
904.5078188389142
 21
830.4360008058639
 31
0.0
  0
LINE
  5
25E
330
2
100
AcDbEntity
  8
0
  6
Continuous
 62
     7
370
    15
100
AcDbLine
 10
907.1971729604138
 20
770.8492448743636
 30
0.0
 11
909.4820797654138
 21
774.1124240873642
 31
0.0
  0
LINE
  5
25F
330
2
100
AcDbEntity
  8
0
  6
Continuous
 62
     7
370
    15
100
AcDbLine
 10
907.1971729604138
 20
770.8492448743636
 30
0.0
 11
907.1971729604138
 21
772.5926919103637
 31
0.0
  0
LINE
  5
260
330
2
100
AcDbEntity
  8
0
  6
Continuous
 62
     7
370
    15
100
AcDbLine
 10
907.1971729604138
 20
770.8492448743636
 30
0.0
 11
907.1971729604138
 21
815.0227570168642
 31
0.0
  0
ARC
  5
261
330
2
100
AcDbEntity
  8
0
  6
Continuous
 62
     7
370
    15
100
AcDbCircle
 10
904.507818636414
 20
757.8360012528642
 30
0.0
 40
2.40000000000009
100
AcDbArc
 50
270.0
 51
0.0
  0
LINE
  5
262
330
2
100
AcDbEntity
  8
0
  6
Continuous
 62
     7
370
    15
100
AcDbLine
 10
896.9078168479144
 20
755.4360015508641
 30
0.0
 11
904.5078188389142
 21
755.4360015508641
 31
0.0
  0
ARC
  5
263
330
2
100
AcDbEntity
  8
0
  6
Continuous
 62
     7
370
    15
100
AcDbCircle
 10
908.5078186364139
 20
769.931523190864
 30
0.0
 40
1.599999999999886
100
AcDbArc
 50
144.9999999999898
 51
180.0
  0
LINE
  5
264
330
2
100
AcDbEntity
  8
0
  6
Continuous
 62
     7
370
    15
100
AcDbLine
 10
909.4820797654138
 20
774.4611149848642
 30
0.0
 11
911.2150103064141
 21
776.936000418364
 31
0.0
  0
LINE
  5
265
330
2
100
AcDbEntity
  8
0
  6
Continuous
 62
     7
370
    15
100
AcDbLine
 10
911.2150103064141
 20
808.9360012398637
 30
0.0
 11
909.4820797654138
 21
811.4108883038642
 31
0.0
  0
ARC
  5
266
330
2
100
AcDbEntity
  8
0
  6
Continuous
 62
     7
370
    15
100
AcDbCircle
 10
908.5078186364139
 20
815.9404793153644
 30
0.0
 40
1.599999999999965
100
AcDbArc
 50
180.0
 51
215.0000000000102
  0
LINE
  5
267
330
2
100
AcDbEntity
  8
0
  6
Continuous
 62
     7
370
    15
100
AcDbLine
 10
909.4820797654138
 20
811.7595776873637
 30
0.0
 11
907.1971729604138
 21
815.0227570168642
 31
0.0
  0
LINE
  5
268
330
2
100
AcDbEntity
  8
0
  6
Continuous
 62
     7
370
    15
100
AcDbLine
 10
911.2150103064141
 20
776.936000418364
 30
0.0
 11
911.9078174444139
 21
776.936000418364
 31
0.0
  0
LINE
  5
269
330
2
100
AcDbEntity
  8
0
  6
Continuous
 62
     7
370
    15
100
AcDbLine
 10
911.9078174444139
 20
808.9360012398637
 30
0.0
 11
911.2150103064141
 21
808.9360012398637
 31
0.0
  0
LINE
  5
26A
330
2
100
AcDbEntity
  8
0
  6
Continuous
 62
     7
370
    15
100
AcDbLine
 10
909.4820797654138
 20
774.1124240873642
 30
0.0
 11
909.4820797654138
 21
811.7595776873637
 31
0.0
  0
LINE
  5
26B
330
2
100
AcDbEntity
  8
0
  6
Continuous
 62
     7
370
    15
100
AcDbLine
 10
907.1971729604138
 20
813.2793102138636
 30
0.0
 11
907.1971729604138
 21
815.0227570168642
 31
0.0
  0
LINE
  5
26C
330
2
100
AcDbEntity
  8
0
  6
Continuous
 62
     7
370
    15
100
AcDbLine
 10
911.9078174444139
 20
776.936000418364
 30
0.0
 11
911.9078174444139
 21
808.9360012398637
 31
0.0
  0
ARC
  5
26D
330
2
100
AcDbEntity
  8
0
  6
Continuous
 62
     7
370
    15
100
AcDbCircle
 10
904.507818636414
 20
828.0360012528644
 30
0.0
 40
2.40000000000009
100
AcDbArc
 50
0.0
 51
90.0
  0
LINE
  5
26E
330
2
100
AcDbEntity
  8
0
  6
Continuous
 62
     7
370
    15
100
AcDbLine
 10
904.5078188389142
 20
830.4360008058639
 30
0.0
 11
896.9078168479144
 21
830.4360008058639
 31
0.0
  0
LWPOLYLINE
  5
26F
330
2
100
AcDbEntity
  8
0
  6
Continuous
 62
     7
370
    15
100
AcDbPolyline
 90
       19
 70
   128
 43
0.0
 10
1047.738853117914
 20
794.6928648468642
 10
1047.739367207914
 20
794.7902886388642
 10
1047.706275453914
 20
797.4420955598644
 10
1047.627332827413
 20
800.0580782263641
 10
1047.501764467414
 20
802.6226034578641
 10
1047.331544777914
 20
805.0737154863641
 10
1047.116107514414
 20
807.4148127068642
 10
1046.849048903414
 20
809.6543831363637
 10
1046.526658555914
 20
811.7584470618638
 10
1046.112894287914
 20
813.8263050658638
 10
1045.464868864414
 20
816.1349871388638
 10
1044.930449893914
 20
817.5066511338643
 10
1044.337707778913
 20
818.6845250618636
 10
1043.575278690414
 20
819.8629861888642
 10
1042.624826749914
 20
820.9938679083638
 10
1041.466142257914
 20
822.0381096198636
 10
1040.109916797414
 20
822.9344302978638
 10
1038.592002561414
 20
823.6247042388637
 10
1037.216331085414
 20
823.9981999813645
  0
ARC
  5
270
330
2
100
AcDbEntity
  8
0
  6
Continuous
 62
     7
370
    15
100
AcDbCircle
 10
1007.407818636414
 20
823.4360012528641
 30
0.0
 40
2.999999999999971
100
AcDbArc
 50
90.0
 51
180.0
  0
LWPOLYLINE
  5
271
330
2
100
AcDbEntity
  8
0
  6
Continuous
 62
     7
370
    15
100
AcDbPolyline
 90
       10
 70
   128
 43
0.0
 10
1037.739734372414
 20
794.8752671673641
 10
1037.691789886414
 20
799.7967481803644
 10
1037.564630827414
 20
804.7000483803643
 10
1037.370271256414
 20
809.1711975593639
 10
1037.104807069914
 20
813.3448275928643
 10
1036.791081747414
 20
816.8873560808638
 10
1036.423179527914
 20
819.8858613338643
 10
1036.030362567414
 20
822.108089197864
 10
1035.605923479914
 20
823.5916972353644
 10
1035.145101344414
 20
824.2301933658639
  0
LINE
  5
272
330
2
100
AcDbEntity
  8
0
  6
Continuous
 62
     7
370
    15
100
AcDbLine
 10
1007.407818662414
 20
824.2301933658639
 30
0.0
 11
1007.407818662414
 21
794.8752671673641
 31
0.0
  0
ARC
  5
273
330
2
100
AcDbEntity
  8
0
  6
Continuous
 62
     7
370
    15
100
AcDbCircle
 10
1007.407322569914
 20
821.2306894323637
 30
0.0
 40
2.999503974805894
100
AcDbArc
 50
89.99052376779532
 51
179.9905211017002
  0
LWPOLYLINE
  5
274
330
2
100
AcDbEntity
  8
0
  6
Continuous
 62
     7
370
    15
100
AcDbPolyline
 90
        3
 70
   128
 43
0.0
 10
1037.228602191914
 20
824.0140380528641
 10
1037.945936640914
 20
823.8326760203642
 10
1038.638900241414
 20
823.6012032448636
  0
LINE
  5
275
330
2
100
AcDbEntity
  8
0
  6
Continuous
 62
     7
370
    15
100
AcDbLine
 10
1037.739734372414
 20
794.8752671673641
 30
0.0
 11
1007.407818662414
 21
794.8752671673641
 31
0.0
  0
ARC
  5
276
330
2
100
AcDbEntity
  8
0
  6
Continuous
 62
     7
370
    15
100
AcDbCircle
 10
1007.207818636414
 20
768.9360012528643
 30
0.0
 40
7.98340622792049
100
AcDbArc
 50
164.0848746198057
 51
173.519235324103
  0
LINE
  5
277
330
2
100
AcDbEntity
  8
0
  6
Continuous
 62
     7
370
    15
100
AcDbLine
 10
1000.632089769914
 20
768.9360028323638
 30
0.0
 11
1000.632089769914
 21
773.4922936378641
 31
0.0
  0
LINE
  5
278
330
2
100
AcDbEntity
  8
0
  6
Continuous
 62
     7
370
    15
100
AcDbLine
 10
1001.001974541914
 20
768.9360028323638
 30
0.0
 11
1001.001974541914
 21
773.6860012828643
 31
0.0
  0
ARC
  5
279
330
2
100
AcDbEntity
  8
0
  6
Continuous
 62
     7
370
    15
100
AcDbCircle
 10
1001.001974616414
 20
764.6360012528637
 30
0.0
 40
0.4500000000000331
100
AcDbArc
 50
214.7179055026089
 51
270.0
  0
LINE
  5
27A
330
2
100
AcDbEntity
  8
0
  6
Continuous
 62
     7
370
    15
100
AcDbLine
 10
1001.001974541914
 20
764.1860006568635
 30
0.0
 11
1002.907818623414
 21
764.1860006568635
 31
0.0
  0
ARC
  5
27B
330
2
100
AcDbEntity
  8
0
  6
Continuous
 62
     7
370
    15
100
AcDbCircle
 10
1007.207818636414
 20
768.9360012528643
 30
0.0
 40
8.0
100
AcDbArc
 50
195.937333180196
 51
214.7179055026089
  0
LWPOLYLINE
  5
27C
330
2
100
AcDbEntity
  8
0
  6
Continuous
 62
     7
370
    15
100
AcDbPolyline
 90
        5
 70
   128
 43
0.0
 10
999.5304245709139
 20
766.7468471643637
 10
999.5238168374143
 20
766.7435502823641
 10
999.5190954974141
 20
766.7411996243636
 10
999.5162624144141
 20
766.7397840138638
 10
999.5153180534138
 20
766.7393146273637
  0
ARC
  5
27D
330
2
100
AcDbEntity
  8
0
  6
Continuous
 62
     7
370
    15
100
AcDbCircle
 10
1007.207818636414
 20
768.9360012528643
 30
0.0
 40
7.983406227920565
100
AcDbArc
 50
186.4807646758969
 51
195.9151253801943
  0
LINE
  5
27E
330
2
100
AcDbEntity
  8
0
  6
Continuous
 62
     7
370
    15
100
AcDbLine
 10
999.2754279844143
 20
768.0349184393642
 30
0.0
 11
999.2754279844143
 21
768.4210000753637
 31
0.0
  0
LINE
  5
27F
330
2
100
AcDbEntity
  8
0
  6
Continuous
 62
     7
370
    15
100
AcDbLine
 10
999.2754279844143
 20
768.4210000753637
 30
0.0
 11
999.5304245709139
 21
768.4210000753637
 31
0.0
  0
ARC
  5
280
330
2
100
AcDbEntity
  8
0
  6
Continuous
 62
     7
370
    15
100
AcDbCircle
 10
1008.301397398915
 20
768.9360009698637
 30
0.0
 40
8.786079345641494
100
AcDbArc
 50
176.6396501157007
 51
183.3603498842992
  0
LINE
  5
281
330
2
100
AcDbEntity
  8
0
  6
Continuous
 62
     7
370
    15
100
AcDbLine
 10
999.5304245709139
 20
769.4510018643643
 30
0.0
 11
999.2754279844143
 21
769.4510018643643
 31
0.0
  0
LINE
  5
282
330
2
100
AcDbEntity
  8
0
  6
Continuous
 62
     7
370
    15
100
AcDbLine
 10
999.2754279844143
 20
769.4510018643643
 30
0.0
 11
999.2754279844143
 21
769.8370872258642
 31
0.0
  0
LINE
  5
283
330
2
100
AcDbEntity
  8
0
  6
Continuous
 62
     7
370
    15
100
AcDbLine
 10
1000.632089769914
 20
764.3797083018637
 30
0.0
 11
1000.632089769914
 21
768.9360028323638
 31
0.0
  0
LINE
  5
284
330
2
100
AcDbEntity
  8
0
  6
Continuous
 62
     7
370
    15
100
AcDbLine
 10
1001.001974541914
 20
764.1860006568635
 30
0.0
 11
1001.001974541914
 21
768.9360028323638
 31
0.0
  0
ARC
  5
285
330
2
100
AcDbEntity
  8
0
  6
Continuous
 62
     7
370
    15
100
AcDbCircle
 10
986.907818636414
 20
792.9360012528643
 30
0.0
 40
16.00000000000009
100
AcDbArc
 50
270.0
 51
90.0
  0
LINE
  5
286
330
2
100
AcDbEntity
  8
0
  6
Continuous
 62
     7
370
    15
100
AcDbLine
 10
1002.906818615413
 20
810.4360012528642
 30
0.0
 11
970.4088188914143
 21
810.4360012528642
 31
0.0
  0
LINE
  5
287
330
2
100
AcDbEntity
  8
0
  6
Continuous
 62
     7
370
    15
100
AcDbLine
 10
1002.906818615413
 20
808.9360012398637
 30
0.0
 11
986.9078185619146
 21
808.9360012398637
 31
0.0
  0
ARC
  5
288
330
2
100
AcDbEntity
  8
0
  6
Continuous
 62
     7
370
    15
100
AcDbCircle
 10
970.4578186364138
 20
776.9860012528643
 30
0.0
 40
1.549999999999988
100
AcDbArc
 50
181.8485716453966
 51
358.1514283547995
  0
LINE
  5
289
330
2
100
AcDbEntity
  8
0
  6
Continuous
 62
     7
370
    15
100
AcDbLine
 10
970.4088188914143
 20
808.9360012398637
 30
0.0
 11
970.4088188914143
 21
810.4360012528642
 31
0.0
  0
ARC
  5
28A
330
2
100
AcDbEntity
  8
0
  6
Continuous
 62
     7
370
    15
100
AcDbCircle
 10
970.4088186364138
 20
808.9350012528644
 30
0.0
 40
1.500999999999947
100
AcDbArc
 50
90.0
 51
180.0
  0
ARC
  5
28B
330
2
100
AcDbEntity
  8
0
  6
Continuous
 62
     7
370
    15
100
AcDbCircle
 10
1001.001974616414
 20
773.2360012528642
 30
0.0
 40
0.4500000000000331
100
AcDbArc
 50
90.0
 51
145.2820944973911
  0
LINE
  5
28C
330
2
100
AcDbEntity
  8
0
  6
Continuous
 62
     7
370
    15
100
AcDbLine
 10
1002.907818623414
 20
773.6860012828643
 30
0.0
 11
1001.001974541914
 21
773.6860012828643
 31
0.0
  0
ARC
  5
28D
330
2
100
AcDbEntity
  8
0
  6
Continuous
 62
     7
370
    15
100
AcDbCircle
 10
1007.207818636414
 20
768.9360012528643
 30
0.0
 40
7.99999999999992
100
AcDbArc
 50
145.2820944973911
 51
164.0626668198039
  0
ARC
  5
28E
330
2
100
AcDbEntity
  8
0
  6
Continuous
 62
     7
370
    15
100
AcDbCircle
 10
993.6524076434139
 20
759.3556945418636
 30
0.0
 40
13.15565571096172
100
AcDbArc
 50
63.4610995661855
 51
63.53461718649917
  0
ARC
  5
28F
330
2
100
AcDbEntity
  8
0
  6
Continuous
 62
     7
370
    15
100
AcDbCircle
 10
1006.658135405914
 20
759.4034755563638
 30
0.0
 40
35.47971286639298
100
AcDbArc
 50
88.78925504110332
 51
93.63645151978698
  0
LINE
  5
290
330
2
100
AcDbEntity
  8
0
  6
Continuous
 62
     7
370
    15
100
AcDbLine
 10
1004.407818636414
 20
794.8117528303641
 30
0.0
 11
1004.407818636414
 21
821.2311856643641
 31
0.0
  0
LINE
  5
291
330
2
100
AcDbEntity
  8
0
  6
Continuous
 62
     7
370
    15
100
AcDbLine
 10
1004.407818636414
 20
821.2311856643641
 30
0.0
 11
1004.407818636414
 21
823.4360015213642
 31
0.0
  0
ARC
  5
292
330
2
100
AcDbEntity
  8
0
  6
Continuous
 62
     7
370
    15
100
AcDbCircle
 10
1002.906818636414
 20
808.9350012528644
 30
0.0
 40
1.500999999999947
100
AcDbArc
 50
0.0
 51
90.0
  0
LINE
  5
293
330
2
100
AcDbEntity
  8
0
  6
Continuous
 62
     7
370
    15
100
AcDbLine
 10
1002.907818623414
 20
808.9350012323638
 30
0.0
 11
1004.407818636414
 21
808.9350012323638
 31
0.0
  0
ARC
  5
294
330
2
100
AcDbEntity
  8
0
  6
Continuous
 62
     7
370
    15
100
AcDbCircle
 10
1002.906818636414
 20
808.9350012528644
 30
0.0
 40
0.000999999999891
100
AcDbArc
 50
0.0
 51
90.0
  0
LINE
  5
295
330
2
100
AcDbEntity
  8
0
  6
Continuous
 62
     7
370
    15
100
AcDbLine
 10
1002.906818615413
 20
808.9360012398637
 30
0.0
 11
1002.906818615413
 21
810.4360012528642
 31
0.0
  0
ARC
  5
296
330
2
100
AcDbEntity
  8
0
  6
Continuous
 62
     7
370
    15
100
AcDbCircle
 10
1040.805942912413
 20
688.8917105723635
 30
0.0
 40
106.0279015321121
100
AcDbArc
 50
86.25046387449513
 51
91.65716101280617
  0
LINE
  5
297
330
2
100
AcDbEntity
  8
0
  6
Continuous
 62
     7
370
    15
100
AcDbLine
 10
1024.429314976915
 20
826.4360020128638
 30
0.0
 11
1007.407818662414
 21
826.4360020128638
 31
0.0
  0
LINE
  5
298
330
2
100
AcDbEntity
  8
0
  6
Continuous
 62
     7
370
    15
100
AcDbLine
 10
1035.145101344414
 20
824.2301933658639
 30
0.0
 11
1007.407818662414
 21
824.2301933658639
 31
0.0
  0
SOLID
  5
299
330
2
100
AcDbEntity
  8
0
 62
     4
100
AcDbTrace
 10
1016.907818636156
 20
867.6985795986245
 30
0.0
 11
1016.907818636156
 21
863.5319129319579
 31
0.0
 12
1004.407818636156
 22
865.6152462652912
 32
0.0
 13
1004.407818636156
 23
865.6152462652912
 33
0.0
  0
LINE
  5
29A
330
2
100
AcDbEntity
  8
0
  6
Continuous
 62
     7
370
    15
100
AcDbLine
 10
1007.407818662414
 20
826.4360020128638
 30
0.0
 11
1007.407818662414
 21
824.2301933658639
 31
0.0
  0
LINE
  5
29B
330
2
100
AcDbEntity
  8
0
 62
     4
100
AcDbLine
 10
1004.407818636156
 20
826.2311856642545
 30
0.0
 11
1004.407818636156
 21
870.6152462652912
 31
0.0
  0
LWPOLYLINE
  5
29C
330
2
100
AcDbEntity
  8
0
  6
Continuous
 62
     7
370
    15
100
AcDbPolyline
 90
       10
 70
   128
 43
0.0
 10
1037.229622921414
 20
824.0088598993638
 10
1035.620379468913
 20
824.3376437768642
 10
1033.387278413914
 20
824.7950079113643
 10
1031.463544091414
 20
825.1899697078643
 10
1029.850545546414
 20
825.5219349828642
 10
1028.549188023913
 20
825.7904036163635
 10
1027.559968849914
 20
825.9949621003638
 10
1026.882977431914
 20
826.1352835413635
 10
1026.517900845414
 20
826.2111248638639
 10
1026.447500309414
 20
826.2257764308637
  0
LWPOLYLINE
  5
29D
330
2
100
AcDbEntity
  8
0
  6
Continuous
 62
     7
370
    15
100
AcDbPolyline
 90
        6
 70
   128
 43
0.0
 10
1035.145101344414
 20
824.2301933658639
 10
1030.487035608414
 20
825.1848017988637
 10
1027.142034119414
 20
825.8722258923636
 10
1025.114425664914
 20
826.2900488643643
 10
1024.408537170414
 20
826.4358530013637
 10
1024.429322427414
 20
826.4315577418642
  0
LINE
  5
29E
330
2
100
AcDbEntity
  8
0
 62
     4
100
AcDbLine
 10
1016.907818636156
 20
865.6152462652912
 30
0.0
 11
1035.239688972414
 21
865.6152462652912
 31
0.0
  0
ARC
  5
29F
330
2
100
AcDbEntity
  8
0
  6
Continuous
 62
     7
370
    15
100
AcDbCircle
 10
1024.407818636414
 20
816.4360012528643
 30
0.0
 40
10.00000000000011
100
AcDbArc
 50
78.3654635741034
 51
89.85703629981509
  0
LWPOLYLINE
  5
2A0
330
2
100
AcDbEntity
  8
0
  6
Continuous
 62
     7
370
    15
100
AcDbPolyline
 90
        3
 70
   128
 43
0.0
 10
1035.145101344414
 20
824.2301933658639
 10
1036.559979638414
 20
824.1326056613642
 10
1037.217031439914
 20
824.0164976758642
  0
LINE
  5
2A1
330
2
100
AcDbEntity
  8
0
 62
     4
100
AcDbLine
 10
1047.739688972414
 20
831.4360020128638
 30
0.0
 11
1047.739688972414
 21
870.6152462652912
 31
0.0
  0
SOLID
  5
2A2
330
2
100
AcDbEntity
  8
0
 62
     4
100
AcDbTrace
 10
1035.239688972414
 20
867.6985795986245
 30
0.0
 11
1035.239688972414
 21
863.5319129319579
 31
0.0
 12
1047.739688972414
 22
865.6152462652912
 32
0.0
 13
1047.739688972414
 23
865.6152462652912
 33
0.0
  0
ARC
  5
2A3
330
2
100
AcDbEntity
  8
0
100
AcDbCircle
 10
1284.84294897521
 20
427.7389901049948
 30
0.0
 40
85.95
100
AcDbArc
 50
63.33497062111955
 51
146.66502937893
  0
LINE
  5
2A4
102
{ACAD_REACTORS
330
2AC
102
}
330
2
100
AcDbEntity
  8
05-01
100
AcDbLine
 10
1284.84294897521
 20
335.6764901049932
 30
0.0
 11
1284.84294897521
 21
519.8014901049966
 31
0.0
  0
ARC
  5
2A8
330
2
100
AcDbEntity
  8
0
100
AcDbCircle
 10
1284.84294897521
 20
427.7389901049948
 30
0.0
 40
89.5625
100
AcDbArc
 50
64.764769050181
 51
175.3982503443769
  0
ARC
  5
2A9
330
2
100
AcDbEntity
  8
0
100
AcDbCircle
 10
1324.308218232753
 20
496.3199716296688
 30
0.0
 40
12.5
100
AcDbArc
 50
24.27831033887824
 51
95.88470905557224
  0
DIMENSION
  5
2AA
102
{ACAD_XDICTIONARY
360
2AB
102
}
102
{ACAD_REACTORS
330
2AC
102
}
330
2
100
AcDbEntity
  8
0
100
AcDbDimension
280
     0
  2
*D5
 10
1190.717864498327
 20
427.7389901049948
 30
0.0
 11
1193.509885442006
 21
525.3941278881853
 31
0.0
 70
   130
 71
     5
 42
1.570796326794896
 73
     0
 74
     0
 75
     0
  3
Wagner
100
AcDb2LineAngularDimension
 13
1284.84294897521
 23
335.6764901049932
 33
0.0
 14
1284.84294897521
 24
519.8014901049966
 34
0.0
 15
1376.905448975211
 25
427.7389901049948
 35
0.0
 16
1169.047047396784
 26
494.5937850523549
 36
0.0
1001
ACAD
1000
DSTYLE
1002
{
1070
    40
1040
5.0
1002
}
  0
LINE
  5
2BB
330
2
100
AcDbEntity
  8
0
 62
     4
100
AcDbLine
 10
1352.342948975211
 20
438.4889901049948
 30
0.0
 11
1406.482441410942
 21
438.4889901049948
 31
0.0
  0
LINE
  5
2BC
330
2
100
AcDbEntity
  8
0
 62
     4
100
AcDbLine
 10
1352.342948975211
 20
416.9889901049985
 30
0.0
 11
1406.482441410942
 21
416.9889901049985
 31
0.0
  0
ARC
  5
2BD
330
2
100
AcDbEntity
  8
0
100
AcDbCircle
 10
1284.84294897521
 20
427.7389901049948
 30
0.0
 40
85.95
100
AcDbArc
 50
183.3349706211187
 51
266.6650293789331
  0
CIRCLE
  5
2BE
330
2
100
AcDbEntity
  8
0
100
AcDbCircle
 10
1222.34294897521
 20
427.7389901049948
 30
0.0
 40
10.75000000000014
  0
LINE
  5
2BF
102
{ACAD_REACTORS
330
2C3
330
2AC
102
}
330
2
100
AcDbEntity
  8
05-01
100
AcDbLine
 10
1376.905448975211
 20
427.7389901049948
 30
0.0
 11
1190.717864498327
 21
427.7389901049948
 31
0.0
  0
ARC
  5
2C0
330
2
100
AcDbEntity
  8
0
100
AcDbCircle
 10
1284.84294897521
 20
427.7389901049948
 30
0.0
 40
89.5625
100
AcDbArc
 50
184.7647690501434
 51
295.3982503443299
  0
DIMENSION
  5
2C1
102
{ACAD_XDICTIONARY
360
2C2
102
}
102
{ACAD_REACTORS
330
2C3
102
}
330
2
100
AcDbEntity
  8
0
100
AcDbDimension
280
     0
  2
*D4
 10
1190.717864498327
 20
427.7389901049948
 30
0.0
 11
1178.879494480642
 21
471.6304900725477
 31
0.0
 70
     2
 71
     5
 42
0.7853981633974483
 73
     0
 74
     0
 75
     0
  3
Wagner
100
AcDb2LineAngularDimension
 13
1349.940967018196
 23
362.6409720620042
 33
0.0
 14
1219.744930932225
 24
492.8370081479763
 34
0.0
 15
1376.905448975211
 25
427.7389901049948
 35
0.0
 16
1195.257802677319
 26
479.4609984354718
 36
0.0
1001
ACAD
1000
DSTYLE
1002
{
1070
    40
1040
5.0
1002
}
  0
ARC
  5
2D2
330
2
100
AcDbEntity
  8
0
100
AcDbCircle
 10
1284.84294897521
 20
427.7389901049948
 30
0.0
 40
85.95
100
AcDbArc
 50
153.3349706211079
 51
176.6650293788813
  0
ARC
  5
2D3
330
2
100
AcDbEntity
  8
0
100
AcDbCircle
 10
1205.717442129603
 20
427.6264250868782
 30
0.0
 40
12.5
100
AcDbArc
 50
144.2783103388782
 51
215.8847090555731
  0
ARC
  5
2D4
330
2
100
AcDbEntity
  8
0
100
AcDbCircle
 10
1209.377453127244
 20
427.7389901049948
 30
0.0
 40
11.48450415203335
100
AcDbArc
 50
154.1912076201441
 51
205.8087923798558
  0
ARC
  5
2D5
330
2
100
AcDbEntity
  8
0
100
AcDbCircle
 10
1219.487912461685
 20
465.4717380289778
 30
0.0
 40
11.48450415203796
100
AcDbArc
 50
124.1912076201229
 51
175.8087923798164
  0
ARC
  5
2D6
330
2
100
AcDbEntity
  8
0
100
AcDbCircle
 10
1284.84294897521
 20
427.7389901049948
 30
0.0
 40
85.95
100
AcDbArc
 50
273.3349706210669
 51
296.6650293788805
  0
HATCH
  5
2D7
330
2
100
AcDbEntity
  8
10-98
100
AcDbHatch
 10
0.0
 20
0.0
 30
0.0
210
0.0
220
0.0
230
1.0
  2
ANSI31
 70
     0
 71
     0
 91
        4
 92
        7
 72
     1
 73
     1
 93
        4
 10
1284.84294897521
 20
467.7389901049948
 42
0.0
 10
1284.84294897521
 20
462.7389901049948
 42
-0.4142135623730951
 10
1319.842948975211
 20
427.7389901049948
 42
0.0
 10
1324.84294897521
 20
427.7389901049948
 42
0.4142135623730951
 97
        0
 92
        7
 72
     1
 73
     1
 93
        4
 10
1324.84294897521
 20
427.7389901049948
 42
0.0
 10
1319.842948975211
 20
427.7389901049948
 42
-0.4142135623730951
 10
1284.84294897521
 20
392.7389901049949
 42
0.0
 10
1284.84294897521
 20
387.7389901049949
 42
0.4142135623730951
 97
        0
 92
        7
 72
     1
 73
     1
 93
        4
 10
1249.84294897521
 20
427.7389901049948
 42
0.0
 10
1244.84294897521
 20
427.7389901049948
 42
0.4142135623730951
 10
1284.84294897521
 20
387.7389901049949
 42
0.0
 10
1284.84294897521
 20
392.7389901049949
 42
-0.4142135623730951
 97
        0
 92
        7
 72
     1
 73
     1
 93
        4
 10
1284.84294897521
 20
462.7389901049948
 42
0.0
 10
1284.84294897521
 20
467.7389901049948
 42
0.4142135623730951
 10
1244.84294897521
 20
427.7389901049948
 42
0.0
 10
1249.84294897521
 20
427.7389901049948
 42
-0.4142135623730951
 97
        0
 75
     0
 76
     1
 52
0.0
 41
1.25
 77
     0
 78
     1
 53
45.0
 43
-7577.021293513381
 44
-30923.29327217312
 45
-2.80633003783411
 46
2.80633003783411
 79
     0
 47
0.1857602487094524
 98
        4
 10
1312.968609112149
 20
454.3018016861335
 10
1321.333406112453
 20
422.2581244620689
 10
1270.214831135699
 20
394.3940683898293
 10
1259.991116140345
 20
455.2305568382055
1001
ACAD
1010
0.0
1020
0.0
1030
0.0
  0
LINE
  5
2DA
330
2
100
AcDbEntity
  8
05-01
100
AcDbLine
 10
1300.09294897521
 20
490.2389901049948
 30
0.0
 11
1269.59294897521
 21
490.2389901049948
 31
0.0
  0
LINE
  5
2DB
330
2
100
AcDbEntity
  8
05-01
100
AcDbLine
 10
1300.09294897521
 20
365.2389901049949
 30
0.0
 11
1269.59294897521
 21
365.2389901049949
 31
0.0
  0
CIRCLE
  5
2DC
330
2
100
AcDbEntity
  8
0
100
AcDbCircle
 10
1284.84294897521
 20
427.7389901049948
 30
0.0
 40
40.0
  0
CIRCLE
  5
2DD
330
2
100
AcDbEntity
  8
0
100
AcDbCircle
 10
1284.84294897521
 20
427.7389901049948
 30
0.0
 40
35.0
  0
LINE
  5
2DE
330
2
100
AcDbEntity
  8
0
 62
     4
100
AcDbLine
 10
1234.842948975211
 20
310.8191695822474
 30
0.0
 11
1334.84294897521
 21
310.8191695822474
 31
0.0
  0
LINE
  5
2DF
330
2
100
AcDbEntity
  8
05-01
100
AcDbLine
 10
1349.940967018196
 20
492.8370081479763
 30
0.0
 11
1218.286463461848
 21
361.1825045916296
 31
0.0
  0
LINE
  5
2E0
102
{ACAD_REACTORS
330
2C3
102
}
330
2
100
AcDbEntity
  8
05-01
100
AcDbLine
 10
1349.940967018196
 20
362.6409720620042
 30
0.0
 11
1219.744930932225
 21
492.8370081479763
 31
0.0
  0
LINE
  5
2E1
330
2
100
AcDbEntity
  8
0
 62
     4
100
AcDbLine
 10
1222.34294897521
 20
407.4889901049939
 30
0.0
 11
1222.34294897521
 21
305.8191695822474
 31
0.0
  0
LINE
  5
2E2
330
2
100
AcDbEntity
  8
05-01
100
AcDbLine
 10
1255.898775151052
 20
383.5448162808327
 30
0.0
 11
1225.398775151052
 21
383.5448162808327
 31
0.0
  0
SOLID
  5
2E3
330
2
100
AcDbEntity
  8
0
 62
     4
100
AcDbTrace
 10
1234.842948975211
 20
312.9025029155807
 30
0.0
 11
1234.842948975211
 21
308.735836248914
 31
0.0
 12
1222.34294897521
 22
310.8191695822474
 32
0.0
 13
1222.34294897521
 23
310.8191695822474
 33
0.0
  0
CIRCLE
  5
2E4
330
2
100
AcDbEntity
  8
0
100
AcDbCircle
 10
1240.648775151052
 20
383.5448162808327
 30
0.0
 40
10.75000000000014
  0
LINE
  5
2E5
330
2
100
AcDbEntity
  8
05-01
100
AcDbLine
 10
1240.648775151052
 20
368.2948162808318
 30
0.0
 11
1240.648775151052
 21
398.7948162808336
 31
0.0
  0
MTEXT
  5
2E6
330
2
100
AcDbEntity
  8
0
 62
     1
100
AcDbMText
 10
1284.84294897521
 20
322.0691695822474
 30
0.0
 40
12.5
 41
0.0
 46
0.0
 71
     5
 72
     1
  1
50
 73
     1
 44
1.0
  0
ARC
  5
2E7
330
2
100
AcDbEntity
  8
0
100
AcDbCircle
 10
1284.84294897521
 20
352.2734942570289
 30
0.0
 40
11.48450415203335
100
AcDbArc
 50
244.1912076200429
 51
295.8087923799002
  0
CIRCLE
  5
2E8
330
2
100
AcDbEntity
  8
0
100
AcDbCircle
 10
1284.84294897521
 20
365.2389901049949
 30
0.0
 40
10.75
  0
LINE
  5
2E9
330
2
100
AcDbEntity
  8
05-01
100
AcDbLine
 10
1255.898775151052
 20
471.9331639291524
 30
0.0
 11
1225.398775151051
 21
471.9331639291524
 31
0.0
  0
LINE
  5
2EA
330
2
100
AcDbEntity
  8
05-01
100
AcDbLine
 10
1222.34294897521
 20
412.4889901049939
 30
0.0
 11
1222.34294897521
 21
442.9889901049957
 31
0.0
  0
CIRCLE
  5
2EB
330
2
100
AcDbEntity
  8
0
100
AcDbCircle
 10
1240.648775151052
 20
471.9331639291524
 30
0.0
 40
10.75
  0
LINE
  5
2EC
330
2
100
AcDbEntity
  8
05-01
100
AcDbLine
 10
1240.648775151052
 20
456.6831639291515
 30
0.0
 11
1240.648775151052
 21
487.1831639291533
 31
0.0
  0
CIRCLE
  5
2ED
330
2
100
AcDbEntity
  8
0
100
AcDbCircle
 10
1284.84294897521
 20
490.2389901049948
 30
0.0
 40
10.75
  0
ARC
  5
2EE
330
2
100
AcDbEntity
  8
0
100
AcDbCircle
 10
1284.84294897521
 20
427.7389901049948
 30
0.0
 40
85.95
100
AcDbArc
 50
303.3349706210682
 51
26.6650293788921
  0
ARC
  5
2EF
330
2
100
AcDbEntity
  8
0
100
AcDbCircle
 10
1284.84294897521
 20
427.7389901049948
 30
0.0
 40
89.5625
100
AcDbArc
 50
304.7647690500803
 51
55.39825034438941
  0
LINE
  5
2F0
330
2
100
AcDbEntity
  8
0
 62
     4
100
AcDbLine
 10
1347.34294897521
 20
407.4889901049939
 30
0.0
 11
1347.34294897521
 21
305.8191695822474
 31
0.0
  0
CIRCLE
  5
2F1
330
2
100
AcDbEntity
  8
0
100
AcDbCircle
 10
1329.037122799369
 20
383.5448162808327
 30
0.0
 40
10.75
  0
LINE
  5
2F2
330
2
100
AcDbEntity
  8
05-01
100
AcDbLine
 10
1344.287122799369
 20
383.5448162808327
 30
0.0
 11
1313.78712279937
 21
383.5448162808327
 31
0.0
  0
SOLID
  5
2F3
330
2
100
AcDbEntity
  8
0
 62
     4
100
AcDbTrace
 10
1334.84294897521
 20
312.9025029155807
 30
0.0
 11
1334.84294897521
 21
308.735836248914
 31
0.0
 12
1347.34294897521
 22
310.8191695822474
 32
0.0
 13
1347.34294897521
 23
310.8191695822474
 33
0.0
  0
ARC
  5
2F4
330
2
100
AcDbEntity
  8
0
100
AcDbCircle
 10
1324.503186563277
 20
359.2705735984375
 30
0.0
 40
12.5
100
AcDbArc
 50
264.2783103389025
 51
335.8847090555211
  0
ARC
  5
2F5
330
2
100
AcDbEntity
  8
0
100
AcDbCircle
 10
1322.575696899193
 20
362.3839535914706
 30
0.0
 40
11.48450415203796
100
AcDbArc
 50
274.1912076201327
 51
325.8087923798739
  0
LINE
  5
2F6
330
2
100
AcDbEntity
  8
05-01
100
AcDbLine
 10
1329.037122799369
 20
368.2948162808364
 30
0.0
 11
1329.037122799369
 21
398.7948162808336
 31
0.0
  0
ARC
  5
2F7
330
2
100
AcDbEntity
  8
0
100
AcDbCircle
 10
1284.84294897521
 20
427.7389901049948
 30
0.0
 40
85.95
100
AcDbArc
 50
33.33497062107004
 51
56.66502937887479
  0
CIRCLE
  5
2F8
330
2
100
AcDbEntity
  8
0
100
AcDbCircle
 10
1347.34294897521
 20
427.7389901049948
 30
0.0
 40
10.75
  0
CIRCLE
  5
2F9
330
2
100
AcDbEntity
  8
0
100
AcDbCircle
 10
1329.037122799369
 20
471.9331639291524
 30
0.0
 40
10.75
  0
LINE
  5
2FA
330
2
100
AcDbEntity
  8
05-01
100
AcDbLine
 10
1344.287122799369
 20
471.9331639291524
 30
0.0
 11
1313.78712279937
 21
471.9331639291524
 31
0.0
  0
LINE
  5
2FB
330
2
100
AcDbEntity
  8
05-01
100
AcDbLine
 10
1316.662754128605
 20
453.5587952583866
 30
0.0
 11
1316.662754128605
 21
465.5587952583894
 31
0.0
  0
CIRCLE
  5
2FC
330
2
100
AcDbEntity
  8
0
100
AcDbCircle
 10
1316.662754128605
 20
459.5587952583903
 30
0.0
 40
3.5
  0
LINE
  5
2FD
330
2
100
AcDbEntity
  8
05-01
100
AcDbLine
 10
1322.662754128605
 20
459.5587952583903
 30
0.0
 11
1310.662754128605
 21
459.5587952583903
 31
0.0
  0
ARC
  5
2FE
330
2
100
AcDbEntity
  8
0
100
AcDbCircle
 10
1322.575696899192
 20
493.0940266185191
 30
0.0
 40
11.48450415203802
100
AcDbArc
 50
34.19120762012607
 51
85.80879237986724
  0
LINE
  5
2FF
330
2
100
AcDbEntity
  8
05-01
100
AcDbLine
 10
1329.037122799369
 20
456.6831639291515
 30
0.0
 11
1329.037122799369
 21
487.1831639291533
 31
0.0
  0
LINE
  5
300
330
2
100
AcDbEntity
  8
05-01
100
AcDbLine
 10
1347.34294897521
 20
412.4889901049939
 30
0.0
 11
1347.34294897521
 21
442.9889901049957
 31
0.0
  0
ARC
  5
301
330
2
100
AcDbEntity
  8
0
100
AcDbCircle
 10
1350.197985488735
 20
465.4717380289732
 30
0.0
 40
11.48450415203802
100
AcDbArc
 50
4.191207620079633
 51
55.80879237987705
  0
LINE
  5
302
330
2
100
AcDbEntity
  8
0
 62
     4
100
AcDbLine
 10
1401.482441410943
 20
404.4889901049985
 30
0.0
 11
1401.482441410943
 21
391.9889901049985
 31
0.0
  0
LINE
  5
303
330
2
100
AcDbEntity
  8
0
 62
     4
100
AcDbLine
 10
1401.482441410943
 20
450.9889901049948
 30
0.0
 11
1401.482441410943
 21
506.8223234383282
 31
0.0
  0
LINE
  5
304
330
2
100
AcDbEntity
  8
0
 62
     4
100
AcDbLine
 10
1401.482441410943
 20
416.9889901049985
 30
0.0
 11
1401.482441410943
 21
438.4889901049948
 31
0.0
  0
SOLID
  5
305
330
2
100
AcDbEntity
  8
0
 62
     4
100
AcDbTrace
 10
1399.39910807761
 20
404.4889901049985
 30
0.0
 11
1403.565774744275
 21
404.4889901049985
 31
0.0
 12
1401.482441410943
 22
416.9889901049985
 32
0.0
 13
1401.482441410943
 23
416.9889901049985
 33
0.0
  0
SOLID
  5
306
330
2
100
AcDbEntity
  8
0
 62
     4
100
AcDbTrace
 10
1399.39910807761
 20
450.9889901049948
 30
0.0
 11
1403.565774744275
 21
450.9889901049948
 31
0.0
 12
1401.482441410943
 22
438.4889901049948
 32
0.0
 13
1401.482441410943
 23
438.4889901049948
 33
0.0
  0
MTEXT
  5
307
330
2
100
AcDbEntity
  8
0
 62
     1
100
AcDbMText
 10
1390.232441410942
 20
485.1556567716622
 30
0.0
 40
12.5
 41
0.0
 46
0.0
 71
     5
 72
     1
  1
8,6
 11
0.0000000000000001
 21
1.0
 31
0.0
 73
     1
 44
1.0
  0
TEXT
  5
308
330
2
100
AcDbEntity
  8
02-01
100
AcDbText
 10
1241.536745643841
 20
604.3267215019189
 30
0.0
 40
10.0
  1
%%UBefestigungsbohrungen
 41
0.8
100
AcDbText
  0
MTEXT
  5
309
330
2
100
AcDbEntity
  8
0
 62
     1
100
AcDbMText
 10
1079.156765320593
 20
876.8652462652912
 30
0.0
 40
12.5
 41
0.0
 46
0.0
 71
     5
 72
     1
  1
32,5
 73
     1
 44
1.0
  0
ENDSEC
  0
SECTION
  2
OBJECTS
  0
DICTIONARY
  5
B
330
0
100
AcDbDictionary
281
     1
  3
ACAD_COLOR
350
4A
  3
ACAD_GROUP
350
37
  3
ACAD_LAYOUT
350
18
  3
ACAD_MATERIAL
350
D
  3
ACAD_MLEADERSTYLE
350
4D
  3
ACAD_MLINESTYLE
350
38
  3
ACAD_PLOTSETTINGS
350
39
  3
ACAD_PLOTSTYLENAME
350
A
  3
ACAD_SCALELIST
350
4B
  3
ACAD_TABLESTYLE
350
4C
  3
ACAD_VISUALSTYLE
350
2E
  3
ACDB_RECOMPOSE_DATA
350
316
  3
AcDbVariableDictionary
350
30C
  0
DICTIONARY
  5
21
330
20
100
AcDbDictionary
280
     1
281
     1
  3
ACAD_LAYERSTATES
360
22
  0
DICTIONARY
  5
7
330
6
100
AcDbDictionary
280
     1
281
     1
  3
ADSK_XREC_LAYER_RECONCILED
360
8
  0
DICTIONARY
  5
88
330
87
100
AcDbDictionary
280
     1
281
     1
  3
ADSK_XREC_LAYER_RECONCILED
360
89
  0
DICTIONARY
  5
90
330
8F
100
AcDbDictionary
280
     1
281
     1
  0
DICTIONARY
  5
CD
330
CC
100
AcDbDictionary
280
     1
281
     1
  0
DICTIONARY
  5
B8
330
B7
100
AcDbDictionary
280
     1
281
     1
  0
DICTIONARY
  5
94
330
93
100
AcDbDictionary
280
     1
281
     1
  0
DICTIONARY
  5
2A6
330
2A5
100
AcDbDictionary
280
     1
281
     1
  0
DICTIONARY
  5
2D9
330
2D8
100
AcDbDictionary
280
     1
281
     1
  0
DICTIONARY
  5
4F
330
4E
100
AcDbDictionary
280
     1
281
     1
  0
DICTIONARY
  5
3
330
2
100
AcDbDictionary
280
     1
281
     1
  3
ACAD_SORTENTS
360
30B
  0
DICTIONARY
  5
8B
330
8A
100
AcDbDictionary
280
     1
281
     1
  3
ACAD_SORTENTS
360
30A
  0
DICTIONARY
  5
2AB
330
2AA
100
AcDbDictionary
280
     1
281
     1
  3
ACAD_DIMASSOC
360
2AC
  0
DICTIONARY
  5
2C2
330
2C1
100
AcDbDictionary
280
     1
281
     1
  3
ACAD_DIMASSOC
360
2C3
  0
DICTIONARY
  5
4A
102
{ACAD_REACTORS
330
B
102
}
330
B
100
AcDbDictionary
281
     1
  0
DICTIONARY
  5
37
102
{ACAD_REACTORS
330
B
102
}
330
B
100
AcDbDictionary
281
     1
  0
DICTIONARY
  5
18
102
{ACAD_REACTORS
330
B
102
}
330
B
100
AcDbDictionary
281
     1
  3
Layout1
350
1F
  3
Model
350
17
  0
DICTIONARY
  5
D
102
{ACAD_REACTORS
330
B
102
}
330
B
100
AcDbDictionary
281
     1
  3
ByBlock
350
42
  3
ByLayer
350
3A
  3
Global
350
C
  0
DICTIONARY
  5
4D
102
{ACAD_REACTORS
330
B
102
}
330
B
100
AcDbDictionary
281
     1
  0
DICTIONARY
  5
38
102
{ACAD_REACTORS
330
B
102
}
330
B
100
AcDbDictionary
281
     1
  3
Standard
350
51
  0
DICTIONARY
  5
39
102
{ACAD_REACTORS
330
B
102
}
330
B
100
AcDbDictionary
281
     1
  0
ACDBDICTIONARYWDFLT
  5
A
102
{ACAD_REACTORS
330
B
102
}
330
B
100
AcDbDictionary
281
     1
  3
Normal
350
9
100
AcDbDictionaryWithDefault
340
9
  0
DICTIONARY
  5
4B
102
{ACAD_REACTORS
330
B
102
}
330
B
100
AcDbDictionary
281
     1
  3
A0
350
56
  3
A1
350
57
  3
A2
350
58
  3
A3
350
59
  3
A4
350
5A
  3
A5
350
5B
  3
A6
350
5C
  3
A7
350
5D
  3
A8
350
5E
  3
A9
350
5F
  3
B0
350
60
  3
B1
350
61
  3
B2
350
62
  3
B3
350
63
  3
B4
350
64
  3
B5
350
65
  3
B6
350
66
  3
B7
350
67
  3
B8
350
68
  3
B9
350
69
  3
C0
350
6A
  3
C1
350
6B
  3
C2
350
6C
  3
C3
350
6D
  3
C4
350
6E
  3
C5
350
6F
  3
C6
350
70
  3
C7
350
71
  3
C8
350
72
  3
C9
350
73
  3
D0
350
74
  3
D1
350
75
  3
D2
350
76
  0
DICTIONARY
  5
4C
102
{ACAD_REACTORS
330
B
102
}
330
B
100
AcDbDictionary
281
     1
  3
Standard
350
52
  0
DICTIONARY
  5
2E
102
{ACAD_REACTORS
330
B
102
}
330
B
100
AcDbDictionary
281
     1
  3
2dWireframe
350
2D
  3
3dWireframe
350
55
  3
Realistic
350
54
  0
XRECORD
  5
316
102
{ACAD_REACTORS
330
B
102
}
330
B
100
AcDbXrecord
280
     1
 90
        1
330
52
  0
DICTIONARY
  5
30C
102
{ACAD_REACTORS
330
B
102
}
330
B
100
AcDbDictionary
281
     1
  3
CANNOSCALE
350
310
  3
CMLEADERSTYLE
350
30E
  3
CTABLESTYLE
350
30D
  3
LAYEREVAL
350
312
  3
LAYERNOTIFY
350
313
  3
LIGHTINGUNITS
350
311
  3
MSLTSCALE
350
30F
  0
DICTIONARY
  5
22
102
{ACAD_REACTORS
330
21
102
}
330
21
100
AcDbDictionary
281
     1
  0
XRECORD
  5
8
102
{ACAD_REACTORS
330
7
102
}
330
7
100
AcDbXrecord
280
     1
290
     1
  0
XRECORD
  5
89
102
{ACAD_REACTORS
330
88
102
}
330
88
100
AcDbXrecord
280
     1
290
     1
  0
SORTENTSTABLE
  5
30B
102
{ACAD_REACTORS
330
3
102
}
330
3
100
AcDbSortentsTable
330
2
331
28F
  5
18C
331
305
  5
2EE
331
28B
  5
138
331
301
  5
2BB
331
167
  5
269
331
1A6
  5
1DC
331
163
  5
230
331
21C
  5
193
331
1A2
  5
211
331
19E
  5
1D5
331
1DD
  5
1E9
331
218
  5
188
331
19A
  5
1DE
331
1D9
  5
21D
331
214
  5
1B2
331
210
  5
1AE
331
287
  5
1B7
331
283
  5
1BF
331
2FD
  5
2DF
331
27F
  5
179
331
2BE
  5
29F
331
2F9
  5
2A2
331
2F5
  5
2A9
331
27B
  5
13B
331
2F1
  5
2A1
331
118
  5
214
331
114
  5
1E2
331
196
  5
1F5
331
1D5
  5
28E
331
1D1
  5
23E
331
20C
  5
1A9
331
192
  5
286
331
18E
  5
260
331
1CD
  5
21A
331
208
  5
19D
331
18A
  5
22C
331
1C9
  5
287
331
277
  5
1BE
331
273
  5
197
331
2ED
  5
29D
331
26F
  5
168
331
2E9
  5
2D2
331
2E5
  5
2DE
331
26B
  5
1BA
331
2AA
  5
2FB
331
2E1
  5
2F1
331
23F
  5
133
331
186
  5
225
331
1C5
  5
23A
331
1C1
  5
237
331
23B
  5
191
331
182
  5
28C
331
17E
  5
23F
331
1BD
  5
280
331
1F8
  5
1A5
331
237
  5
16F
331
17A
  5
218
331
1B9
  5
273
331
1F4
  5
167
331
233
  5
1C2
331
1F0
  5
1D7
331
267
  5
132
331
263
  5
117
331
2A2
  5
308
331
2DD
  5
2E2
331
25F
  5
1B9
331
29E
  5
305
331
2D5
  5
2BC
331
25B
  5
172
331
29A
  5
1CB
331
86
  5
2FD
331
13B
  5
2FC
331
137
  5
27B
331
133
  5
25F
331
22F
  5
183
331
176
  5
291
331
1B5
  5
27F
331
1B1
  5
23C
331
1EC
  5
209
331
22B
  5
17F
331
172
  5
24E
331
1AD
  5
1E5
331
1E8
  5
1F6
331
227
  5
163
331
16E
  5
272
331
16A
  5
238
331
1A9
  5
1E4
331
1E4
  5
1DB
331
223
  5
1A7
331
1E0
  5
1F2
331
296
  5
1C7
331
292
  5
1A0
331
308
  5
2F9
331
28E
  5
17E
331
304
  5
2ED
331
28A
  5
1B8
331
300
  5
2D7
331
166
  5
267
331
21F
  5
19A
331
1A5
  5
1D4
331
21B
  5
18D
331
1A1
  5
20F
331
19D
  5
213
331
1DC
  5
1F1
331
217
  5
171
331
199
  5
1F4
331
1D8
  5
21B
331
213
  5
1B1
331
286
  5
1B6
331
282
  5
17C
331
2C1
  5
2FA
331
2FC
  5
2BD
331
27E
  5
178
331
2BD
  5
298
331
2F8
  5
29E
331
2F4
  5
2E8
331
27A
  5
139
331
2F0
  5
2F2
331
117
  5
1EE
331
156
  5
302
331
113
  5
306
331
20F
  5
1AD
331
24E
  5
2FE
331
195
  5
1F3
331
1D4
  5
232
331
1D0
  5
221
331
20B
  5
19E
331
191
  5
22F
331
18D
  5
275
331
1CC
  5
282
331
189
  5
27E
331
1C8
  5
295
331
276
  5
17D
331
272
  5
18F
331
2EC
  5
2D3
331
26E
  5
114
331
2E8
  5
29C
331
2A9
  5
2E6
331
2E4
  5
2A3
331
26A
  5
174
331
2E0
  5
2F8
331
23E
  5
1C9
331
185
  5
223
331
1C4
  5
293
331
1C0
  5
26E
331
23A
  5
169
331
181
  5
28A
331
17D
  5
219
331
1BC
  5
22D
331
1F7
  5
18B
331
236
  5
1C5
331
232
  5
186
331
179
  5
224
331
1B8
  5
270
331
1F3
  5
1E0
331
266
  5
118
331
262
  5
113
331
2A1
  5
303
331
2DC
  5
2E1
331
25E
  5
125
331
29D
  5
1CA
331
2D4
  5
2A4
331
299
  5
307
331
13A
  5
284
331
136
  5
27A
331
132
  5
25D
331
22E
  5
182
331
175
  5
28D
331
1B4
  5
289
331
1EF
  5
1D6
331
1B0
  5
22B
331
1EB
  5
208
331
22A
  5
166
331
171
  5
240
331
16D
  5
239
331
1AC
  5
1EC
331
1E7
  5
1EB
331
226
  5
156
331
169
  5
271
331
1A8
  5
210
331
1E3
  5
1DA
331
222
  5
1A6
331
295
  5
1A3
331
291
  5
199
331
307
  5
2F0
331
28D
  5
148
331
303
  5
2EC
331
289
  5
1B5
331
165
  5
236
331
21E
  5
195
331
1A4
  5
1D3
331
1A0
  5
1E1
331
1DF
  5
1ED
331
21A
  5
16E
331
19C
  5
212
331
1DB
  5
1E8
331
216
  5
1B4
331
198
  5
1F9
331
212
  5
1B0
331
285
  5
175
331
2FF
  5
2D6
331
281
  5
17B
331
2C0
  5
2E4
331
2FB
  5
2E0
331
2F7
  5
29B
331
27D
  5
177
331
2BC
  5
2EA
331
2F3
  5
2F5
331
279
  5
137
331
116
  5
1EA
331
1D7
  5
233
331
1D3
  5
216
331
20E
  5
1AC
331
194
  5
285
331
1CF
  5
21E
331
20A
  5
1AA
331
190
  5
281
331
18C
  5
26B
331
1CB
  5
27C
331
241
  5
1CE
331
188
  5
229
331
275
  5
18A
331
2EF
  5
2E5
331
271
  5
18E
331
2EB
  5
2A0
331
26D
  5
116
331
2E7
  5
2AA
331
2A8
  5
2E3
331
2E3
  5
2F4
331
269
  5
136
331
149
  5
301
331
1C7
  5
278
331
23D
  5
1C6
331
184
  5
290
331
1C3
  5
276
331
1BF
  5
23B
331
239
  5
170
331
180
  5
25B
331
17C
  5
234
331
1BB
  5
25E
331
1F6
  5
189
331
235
  5
1C4
331
231
  5
185
331
178
  5
222
331
1F2
  5
1D9
331
265
  5
86
331
2A4
  5
2C1
331
2DF
  5
2F7
331
261
  5
115
331
2A0
  5
1C8
331
2DB
  5
2DC
331
25D
  5
1BB
331
29C
  5
16B
331
2D7
  5
2BF
331
298
  5
190
331
2D3
  5
2E7
331
139
  5
283
331
135
  5
264
331
1B7
  5
26D
331
1EE
  5
20B
331
22D
  5
181
331
174
  5
28B
331
1B3
  5
288
331
1AF
  5
22A
331
1EA
  5
1F0
331
229
  5
165
331
170
  5
294
331
16C
  5
292
331
1AB
  5
1EF
331
1E6
  5
20D
331
225
  5
149
331
221
  5
1A4
331
168
  5
26A
331
1E2
  5
1D1
331
294
  5
1A2
331
290
  5
196
331
306
  5
2EF
331
28C
  5
13A
331
302
  5
2EB
331
288
  5
1A8
331
125
  5
215
331
1A7
  5
20E
331
164
  5
231
331
21D
  5
194
331
1A3
  5
1D2
331
19F
  5
1DD
331
1DE
  5
1F8
331
219
  5
192
331
19B
  5
1DF
331
1DA
  5
21F
331
215
  5
1B3
331
211
  5
1AF
331
77
  5
1CF
331
284
  5
1C1
331
2FE
  5
2A8
331
280
  5
17A
331
2BF
  5
2C0
331
2FA
  5
2D5
331
2F6
  5
2DB
331
27C
  5
176
331
2BB
  5
2E9
331
2F2
  5
2DA
331
278
  5
1C0
331
115
  5
1E6
331
197
  5
1F7
331
1D6
  5
217
331
1D2
  5
28F
331
20D
  5
1AB
331
193
  5
279
331
18F
  5
266
331
1CE
  5
21C
331
209
  5
19F
331
18B
  5
261
331
1CA
  5
22E
331
240
  5
134
331
274
  5
198
331
2EE
  5
29A
331
270
  5
16D
331
2EA
  5
2BE
331
2E6
  5
2F6
331
26C
  5
1BD
331
2E2
  5
2DD
331
268
  5
135
331
148
  5
2FF
331
187
  5
227
331
1C6
  5
274
331
1C2
  5
26F
331
23C
  5
19B
331
183
  5
235
331
1BE
  5
265
331
1F9
  5
300
331
238
  5
1CD
331
17F
  5
241
331
17B
  5
228
331
1BA
  5
263
331
1F5
  5
187
331
234
  5
1C3
331
230
  5
184
331
1F1
  5
1D8
331
264
  5
77
331
2A3
  5
296
331
2DE
  5
2F3
331
260
  5
1BC
331
29F
  5
16A
331
2DA
  5
2D4
331
25C
  5
173
331
29B
  5
304
331
2D6
  5
299
331
2D2
  5
297
331
138
  5
27D
331
134
  5
262
331
177
  5
226
331
1B6
  5
26C
331
1ED
  5
20A
331
22C
  5
180
331
173
  5
25C
331
1B2
  5
23D
331
1AE
  5
220
331
1E9
  5
1E7
331
228
  5
164
331
16F
  5
277
331
16B
  5
268
331
1AA
  5
1E3
331
1E5
  5
20C
331
224
  5
1CC
331
220
  5
19C
331
1E1
  5
1D0
331
297
  5
16C
331
293
  5
1A1
  0
SORTENTSTABLE
  5
30A
102
{ACAD_REACTORS
330
8B
102
}
330
8B
100
AcDbSortentsTable
330
8A
  0
DIMASSOC
  5
2AC
102
{ACAD_REACTORS
330
2AB
102
}
330
2AB
100
AcDbDimAssoc
330
2AA
 90
       15
 70
     0
 71
     0
  1
AcDbOsnapPointRef
 72
    13
331
2A4
 73
     2
 91
        0
 40
0.0
 10
0.0
 20
0.0
 30
2.000000000000000E+50
 75
     0
  1
AcDbOsnapPointRef
 72
     1
331
2A4
 73
     2
 91
        0
 40
0.9999999999999998
 10
0.0
 20
0.0
 30
2.000000000000000E+50
 75
     0
  1
AcDbOsnapPointRef
 72
    13
331
2BF
 73
     2
 91
        0
 40
0.0
 10
0.0
 20
0.0
 30
2.000000000000000E+50
 75
     0
  1
AcDbOsnapPointRef
 72
     1
331
2BF
 73
     2
 91
        0
 40
1.0
 10
0.0
 20
0.0
 30
2.000000000000000E+50
 75
     0
  0
DIMASSOC
  5
2C3
102
{ACAD_REACTORS
330
2C2
102
}
330
2C2
100
AcDbDimAssoc
330
2C1
 90
       15
 70
     0
 71
     0
  1
AcDbOsnapPointRef
 72
    13
331
2E0
 73
     2
 91
        0
 40
0.0
 10
0.0
 20
0.0
 30
2.000000000000000E+50
 75
     0
  1
AcDbOsnapPointRef
 72
     1
331
2E0
 73
     2
 91
        0
 40
1.0
 10
0.0
 20
0.0
 30
2.000000000000000E+50
 75
     0
  1
AcDbOsnapPointRef
 72
    13
331
2BF
 73
     2
 91
        0
 40
0.0
 10
0.0
 20
0.0
 30
2.000000000000000E+50
 75
     0
  1
AcDbOsnapPointRef
 72
     1
331
2BF
 73
     2
 91
        0
 40
1.0
 10
0.0
 20
0.0
 30
2.000000000000000E+50
 75
     0
  0
LAYOUT
  5
1F
102
{ACAD_REACTORS
330
18
102
}
330
18
100
AcDbPlotSettings
  1

  2

  4

  6

 40
0.0
 41
0.0
 42
0.0
 43
0.0
 44
0.0
 45
0.0
 46
0.0
 47
0.0
 48
0.0
 49
0.0
140
0.0
141
0.0
142
1.0
143
1.0
 70
   688
 72
     0
 73
     0
 74
     5
  7

 75
    16
147
1.0
 76
     0
 77
     2
 78
   300
148
0.0
149
0.0
100
AcDbLayout
  1
Layout1
 70
     1
 71
     1
 10
0.0
 20
0.0
 11
420.0
 21
297.0
 12
0.0
 22
0.0
 32
0.0
 14
1.000000000000000E+20
 24
1.000000000000000E+20
 34
1.000000000000000E+20
 15
-1.000000000000000E+20
 25
-1.000000000000000E+20
 35
-1.000000000000000E+20
146
0.0
 13
0.0
 23
0.0
 33
0.0
 16
1.0
 26
0.0
 36
0.0
 17
0.0
 27
1.0
 37
0.0
 76
     0
330
1C
  0
LAYOUT
  5
17
102
{ACAD_XDICTIONARY
360
19
102
}
102
{ACAD_REACTORS
330
18
102
}
330
18
100
AcDbPlotSettings
  1

  2
\\SBS01\KMC364e s/w
  4
A4
  6

 40
5.027082920074462
 41
5.027099609375
 42
5.027069091796875
 43
5.027069091796875
 44
209.9733276367187
 45
296.9259948730469
 46
0.0
 47
0.0
 48
-149.1604397716
 49
-104.6669368070999
140
1335.8395602284
141
945.3330631929
142
1.0
143
5.252122497595465
 70
  3760
 72
     1
 73
     1
 74
     4
  7
monochrome.ctb
 75
     0
147
0.190399214880807
 76
     1
 77
     2
 78
   300
148
149.1604397716
149
104.6669368070999
100
AcDbLayout
  1
Model
 70
     1
 71
     0
 10
0.0
 20
0.0
 11
0.0
 21
0.0
 12
0.0
 22
0.0
 32
0.0
 14
0.0
 24
0.0
 34
0.0
 15
297.0
 25
210.0
 35
0.0
146
0.0
 13
0.0
 23
0.0
 33
0.0
 16
1.0
 26
0.0
 36
0.0
 17
0.0
 27
1.0
 37
0.0
 76
     0
330
2
331
2C
1001
ACAD_PSEXT
1000
\\SBS01\KMC364e s/w
1000
KONICA MINOLTA C364SeriesPCL
1000
2.Stock
1000
schwarzweiss
1070
     0
  0
MATERIAL
  5
42
102
{ACAD_XDICTIONARY
360
43
102
}
102
{ACAD_REACTORS
330
D
102
}
330
D
100
AcDbMaterial
  1
ByBlock
 72
     0
 43
0.0008202099737533
 43
0.0
 43
0.0
 43
0.0
 43
0.0
 43
0.0008202099737533
 43
0.0
 43
0.0
 43
0.0
 43
0.0
 43
1.0
 43
0.0
 43
0.0
 43
0.0
 43
0.0
 43
1.0
 77
     0
 47
0.0008202099737533
 47
0.0
 47
0.0
 47
0.0
 47
0.0
 47
0.0008202099737533
 47
0.0
 47
0.0
 47
0.0
 47
0.0
 47
1.0
 47
0.0
 47
0.0
 47
0.0
 47
0.0
 47
1.0
171
     0
 49
0.0008202099737533
 49
0.0
 49
0.0
 49
0.0
 49
0.0
 49
0.0008202099737533
 49
0.0
 49
0.0
 49
0.0
 49
0.0
 49
1.0
 49
0.0
 49
0.0
 49
0.0
 49
0.0
 49
1.0
175
     0
142
0.0008202099737533
142
0.0
142
0.0
142
0.0
142
0.0
142
0.0008202099737533
142
0.0
142
0.0
142
0.0
142
0.0
142
1.0
142
0.0
142
0.0
142
0.0
142
0.0
142
1.0
179
     0
144
0.0008202099737533
144
0.0
144
0.0
144
0.0
144
0.0
144
0.0008202099737533
144
0.0
144
0.0
144
0.0
144
0.0
144
1.0
144
0.0
144
0.0
144
0.0
144
0.0
144
1.0
147
0.0008202099737533
147
0.0
147
0.0
147
0.0
147
0.0
147
0.0008202099737533
147
0.0
147
0.0
147
0.0
147
0.0
147
1.0
147
0.0
147
0.0
147
0.0
147
0.0
147
1.0
  0
MATERIAL
  5
3A
102
{ACAD_XDICTIONARY
360
3B
102
}
102
{ACAD_REACTORS
330
D
102
}
330
D
100
AcDbMaterial
  1
ByLayer
 72
     0
 43
0.0008202099737533
 43
0.0
 43
0.0
 43
0.0
 43
0.0
 43
0.0008202099737533
 43
0.0
 43
0.0
 43
0.0
 43
0.0
 43
1.0
 43
0.0
 43
0.0
 43
0.0
 43
0.0
 43
1.0
 77
     0
 47
0.0008202099737533
 47
0.0
 47
0.0
 47
0.0
 47
0.0
 47
0.0008202099737533
 47
0.0
 47
0.0
 47
0.0
 47
0.0
 47
1.0
 47
0.0
 47
0.0
 47
0.0
 47
0.0
 47
1.0
171
     0
 49
0.0008202099737533
 49
0.0
 49
0.0
 49
0.0
 49
0.0
 49
0.0008202099737533
 49
0.0
 49
0.0
 49
0.0
 49
0.0
 49
1.0
 49
0.0
 49
0.0
 49
0.0
 49
0.0
 49
1.0
175
     0
142
0.0008202099737533
142
0.0
142
0.0
142
0.0
142
0.0
142
0.0008202099737533
142
0.0
142
0.0
142
0.0
142
0.0
142
1.0
142
0.0
142
0.0
142
0.0
142
0.0
142
1.0
179
     0
144
0.0008202099737533
144
0.0
144
0.0
144
0.0
144
0.0
144
0.0008202099737533
144
0.0
144
0.0
144
0.0
144
0.0
144
1.0
144
0.0
144
0.0
144
0.0
144
0.0
144
1.0
147
0.0008202099737533
147
0.0
147
0.0
147
0.0
147
0.0
147
0.0008202099737533
147
0.0
147
0.0
147
0.0
147
0.0
147
1.0
147
0.0
147
0.0
147
0.0
147
0.0
147
1.0
  0
MATERIAL
  5
C
102
{ACAD_XDICTIONARY
360
E
102
}
102
{ACAD_REACTORS
330
D
102
}
330
D
100
AcDbMaterial
  1
Global
 72
     0
 43
0.0008202099737533
 43
0.0
 43
0.0
 43
0.0
 43
0.0
 43
0.0008202099737533
 43
0.0
 43
0.0
 43
0.0
 43
0.0
 43
1.0
 43
0.0
 43
0.0
 43
0.0
 43
0.0
 43
1.0
 77
     0
 47
0.0008202099737533
 47
0.0
 47
0.0
 47
0.0
 47
0.0
 47
0.0008202099737533
 47
0.0
 47
0.0
 47
0.0
 47
0.0
 47
1.0
 47
0.0
 47
0.0
 47
0.0
 47
0.0
 47
1.0
171
     0
 49
0.0008202099737533
 49
0.0
 49
0.0
 49
0.0
 49
0.0
 49
0.0008202099737533
 49
0.0
 49
0.0
 49
0.0
 49
0.0
 49
1.0
 49
0.0
 49
0.0
 49
0.0
 49
0.0
 49
1.0
175
     0
142
0.0008202099737533
142
0.0
142
0.0
142
0.0
142
0.0
142
0.0008202099737533
142
0.0
142
0.0
142
0.0
142
0.0
142
1.0
142
0.0
142
0.0
142
0.0
142
0.0
142
1.0
179
     0
144
0.0008202099737533
144
0.0
144
0.0
144
0.0
144
0.0
144
0.0008202099737533
144
0.0
144
0.0
144
0.0
144
0.0
144
1.0
144
0.0
144
0.0
144
0.0
144
0.0
144
1.0
147
0.0008202099737533
147
0.0
147
0.0
147
0.0
147
0.0
147
0.0008202099737533
147
0.0
147
0.0
147
0.0
147
0.0
147
1.0
147
0.0
147
0.0
147
0.0
147
0.0
147
1.0
  0
MLINESTYLE
  5
51
102
{ACAD_REACTORS
330
38
102
}
330
38
100
AcDbMlineStyle
  2
STANDARD
 70
     0
  3

 62
   256
 51
90.0
 52
90.0
 71
     2
 49
0.5
 62
   256
  6
BYLAYER
 49
-0.5
 62
   256
  6
BYLAYER
  0
ACDBPLACEHOLDER
  5
9
102
{ACAD_REACTORS
330
A
102
}
330
A
  0
SCALE
  5
56
102
{ACAD_REACTORS
330
4B
102
}
330
4B
100
AcDbScale
 70
     0
300
1:1
140
1.0
141
1.0
290
     1
  0
SCALE
  5
57
102
{ACAD_REACTORS
330
4B
102
}
330
4B
100
AcDbScale
 70
     0
300
1:2
140
1.0
141
2.0
290
     0
  0
SCALE
  5
58
102
{ACAD_REACTORS
330
4B
102
}
330
4B
100
AcDbScale
 70
     0
300
1:4
140
1.0
141
4.0
290
     0
  0
SCALE
  5
59
102
{ACAD_REACTORS
330
4B
102
}
330
4B
100
AcDbScale
 70
     0
300
1:5
140
1.0
141
5.0
290
     0
  0
SCALE
  5
5A
102
{ACAD_REACTORS
330
4B
102
}
330
4B
100
AcDbScale
 70
     0
300
1:8
140
1.0
141
8.0
290
     0
  0
SCALE
  5
5B
102
{ACAD_REACTORS
330
4B
102
}
330
4B
100
AcDbScale
 70
     0
300
1:10
140
1.0
141
10.0
290
     0
  0
SCALE
  5
5C
102
{ACAD_REACTORS
330
4B
102
}
330
4B
100
AcDbScale
 70
     0
300
1:16
140
1.0
141
16.0
290
     0
  0
SCALE
  5
5D
102
{ACAD_REACTORS
330
4B
102
}
330
4B
100
AcDbScale
 70
     0
300
1:20
140
1.0
141
20.0
290
     0
  0
SCALE
  5
5E
102
{ACAD_REACTORS
330
4B
102
}
330
4B
100
AcDbScale
 70
     0
300
1:30
140
1.0
141
30.0
290
     0
  0
SCALE
  5
5F
102
{ACAD_REACTORS
330
4B
102
}
330
4B
100
AcDbScale
 70
     0
300
1:40
140
1.0
141
40.0
290
     0
  0
SCALE
  5
60
102
{ACAD_REACTORS
330
4B
102
}
330
4B
100
AcDbScale
 70
     0
300
1:50
140
1.0
141
50.0
290
     0
  0
SCALE
  5
61
102
{ACAD_REACTORS
330
4B
102
}
330
4B
100
AcDbScale
 70
     0
300
1:100
140
1.0
141
100.0
290
     0
  0
SCALE
  5
62
102
{ACAD_REACTORS
330
4B
102
}
330
4B
100
AcDbScale
 70
     0
300
2:1
140
2.0
141
1.0
290
     0
  0
SCALE
  5
63
102
{ACAD_REACTORS
330
4B
102
}
330
4B
100
AcDbScale
 70
     0
300
4:1
140
4.0
141
1.0
290
     0
  0
SCALE
  5
64
102
{ACAD_REACTORS
330
4B
102
}
330
4B
100
AcDbScale
 70
     0
300
8:1
140
8.0
141
1.0
290
     0
  0
SCALE
  5
65
102
{ACAD_REACTORS
330
4B
102
}
330
4B
100
AcDbScale
 70
     0
300
10:1
140
10.0
141
1.0
290
     0
  0
SCALE
  5
66
102
{ACAD_REACTORS
330
4B
102
}
330
4B
100
AcDbScale
 70
     0
300
100:1
140
100.0
141
1.0
290
     0
  0
SCALE
  5
67
102
{ACAD_REACTORS
330
4B
102
}
330
4B
100
AcDbScale
 70
     0
300
1/128" = 1'-0"
140
0.0078125
141
12.0
290
     0
  0
SCALE
  5
68
102
{ACAD_REACTORS
330
4B
102
}
330
4B
100
AcDbScale
 70
     0
300
1/64" = 1'-0"
140
0.015625
141
12.0
290
     0
  0
SCALE
  5
69
102
{ACAD_REACTORS
330
4B
102
}
330
4B
100
AcDbScale
 70
     0
300
1/32" = 1'-0"
140
0.03125
141
12.0
290
     0
  0
SCALE
  5
6A
102
{ACAD_REACTORS
330
4B
102
}
330
4B
100
AcDbScale
 70
     0
300
1/16" = 1'-0"
140
0.0625
141
12.0
290
     0
  0
SCALE
  5
6B
102
{ACAD_REACTORS
330
4B
102
}
330
4B
100
AcDbScale
 70
     0
300
3/32" = 1'-0"
140
0.09375
141
12.0
290
     0
  0
SCALE
  5
6C
102
{ACAD_REACTORS
330
4B
102
}
330
4B
100
AcDbScale
 70
     0
300
1/8" = 1'-0"
140
0.125
141
12.0
290
     0
  0
SCALE
  5
6D
102
{ACAD_REACTORS
330
4B
102
}
330
4B
100
AcDbScale
 70
     0
300
3/16" = 1'-0"
140
0.1875
141
12.0
290
     0
  0
SCALE
  5
6E
102
{ACAD_REACTORS
330
4B
102
}
330
4B
100
AcDbScale
 70
     0
300
1/4" = 1'-0"
140
0.25
141
12.0
290
     0
  0
SCALE
  5
6F
102
{ACAD_REACTORS
330
4B
102
}
330
4B
100
AcDbScale
 70
     0
300
3/8" = 1'-0"
140
0.375
141
12.0
290
     0
  0
SCALE
  5
70
102
{ACAD_REACTORS
330
4B
102
}
330
4B
100
AcDbScale
 70
     0
300
1/2" = 1'-0"
140
0.5
141
12.0
290
     0
  0
SCALE
  5
71
102
{ACAD_REACTORS
330
4B
102
}
330
4B
100
AcDbScale
 70
     0
300
3/4" = 1'-0"
140
0.75
141
12.0
290
     0
  0
SCALE
  5
72
102
{ACAD_REACTORS
330
4B
102
}
330
4B
100
AcDbScale
 70
     0
300
1" = 1'-0"
140
1.0
141
12.0
290
     0
  0
SCALE
  5
73
102
{ACAD_REACTORS
330
4B
102
}
330
4B
100
AcDbScale
 70
     0
300
1-1/2" = 1'-0"
140
1.5
141
12.0
290
     0
  0
SCALE
  5
74
102
{ACAD_REACTORS
330
4B
102
}
330
4B
100
AcDbScale
 70
     0
300
3" = 1'-0"
140
3.0
141
12.0
290
     0
  0
SCALE
  5
75
102
{ACAD_REACTORS
330
4B
102
}
330
4B
100
AcDbScale
 70
     0
300
6" = 1'-0"
140
6.0
141
12.0
290
     0
  0
SCALE
  5
76
102
{ACAD_REACTORS
330
4B
102
}
330
4B
100
AcDbScale
 70
     0
300
1'-0" = 1'-0"
140
12.0
141
12.0
290
     0
  0
TABLESTYLE
  5
52
102
{ACAD_XDICTIONARY
360
53
102
}
102
{ACAD_REACTORS
330
4C
102
}
330
4C
100
AcDbTableStyle
280
     0
  3
Standard
 70
     0
 71
     0
 40
1.5
 41
1.5
280
     0
281
     0
  7
Standard
140
4.5
170
     2
 62
     0
 63
     7
283
     0
 90
      512
 91
        0
  1

274
    -2
284
     1
 64
     0
275
    -2
285
     1
 65
     0
276
    -2
286
     1
 66
     0
277
    -2
287
     1
 67
     0
278
    -2
288
     1
 68
     0
279
    -2
289
     1
 69
     0
  7
Standard
140
6.0
170
     5
 62
     0
 63
     7
283
     0
 90
      512
 91
        0
  1

274
    -2
284
     1
 64
     0
275
    -2
285
     1
 65
     0
276
    -2
286
     1
 66
     0
277
    -2
287
     1
 67
     0
278
    -2
288
     1
 68
     0
279
    -2
289
     1
 69
     0
  7
Standard
140
4.5
170
     5
 62
     0
 63
     7
283
     0
 90
      512
 91
        0
  1

274
    -2
284
     1
 64
     0
275
    -2
285
     1
 65
     0
276
    -2
286
     1
 66
     0
277
    -2
287
     1
 67
     0
278
    -2
288
     1
 68
     0
279
    -2
289
     1
 69
     0
  0
VISUALSTYLE
  5
2D
102
{ACAD_REACTORS
330
2E
102
}
330
2E
100
AcDbVisualStyle
  2
2dWireframe
 70
     4
177
     2
291
     0
 71
     0
176
     1
 72
     2
176
     1
 73
     0
176
     1
 90
        0
176
     1
 40
0.6
176
     1
 41
30.0
176
     1
 63
     7
421
 16777215
176
     1
 74
     1
176
     1
 91
        4
176
     1
 64
     7
176
     1
 65
   257
176
     1
 75
     1
176
     1
175
     1
176
     1
 42
1.0
176
     1
 92
        0
176
     1
 66
   257
176
     1
 43
1.0
176
     1
 76
     1
176
     1
 77
     6
176
     1
 78
     2
176
     1
 67
     7
176
     1
 79
     5
176
     1
170
     0
176
     1
171
     0
176
     1
290
     0
176
     1
 93
        1
176
     1
 44
0.0
176
     1
173
     0
176
     1
  0
VISUALSTYLE
  5
55
102
{ACAD_REACTORS
330
2E
102
}
330
2E
100
AcDbVisualStyle
  2
3dWireframe
 70
     5
177
     2
291
     0
 71
     0
176
     1
 72
     2
176
     1
 73
     0
176
     1
 90
        0
176
     1
 40
0.6
176
     1
 41
30.0
176
     1
 63
     7
421
 16777215
176
     1
 74
     1
176
     1
 91
        4
176
     1
 64
     7
176
     1
 65
   257
176
     1
 75
     1
176
     1
175
     1
176
     1
 42
1.0
176
     1
 92
        0
176
     1
 66
   257
176
     1
 43
1.0
176
     1
 76
     1
176
     1
 77
     6
176
     1
 78
     2
176
     1
 67
     7
176
     1
 79
     5
176
     1
170
     0
176
     1
171
     0
176
     1
290
     0
176
     1
 93
        1
176
     1
 44
0.0
176
     1
173
     0
176
     1
  0
VISUALSTYLE
  5
54
102
{ACAD_REACTORS
330
2E
102
}
330
2E
100
AcDbVisualStyle
  2
Realistic
 70
     8
177
     2
291
     0
 71
     2
176
     1
 72
     2
176
     1
 73
     0
176
     1
 90
        0
176
     1
 40
0.6
176
     1
 41
30.0
176
     1
 63
     7
421
 16777215
176
     1
 74
     1
176
     1
 91
        0
176
     1
 64
     7
176
     1
 65
   257
176
     1
 75
     1
176
     1
175
     1
176
     1
 42
1.0
176
     1
 92
        8
176
     1
 66
     8
424
  7895160
176
     1
 43
1.0
176
     1
 76
     1
176
     1
 77
     6
176
     1
 78
     2
176
     1
 67
     7
176
     1
 79
     5
176
     1
170
     0
176
     1
171
     0
176
     1
290
     0
176
     1
 93
       13
176
     1
 44
0.0
176
     1
173
     0
176
     1
  0
DICTIONARYVAR
  5
310
102
{ACAD_REACTORS
330
30C
102
}
330
30C
100
DictionaryVariables
280
     0
  1
1:1
  0
DICTIONARYVAR
  5
30E
102
{ACAD_REACTORS
330
30C
102
}
330
30C
100
DictionaryVariables
280
     0
  1
STANDARD
  0
DICTIONARYVAR
  5
30D
102
{ACAD_REACTORS
330
30C
102
}
330
30C
100
DictionaryVariables
280
     0
  1
STANDARD
  0
DICTIONARYVAR
  5
312
102
{ACAD_REACTORS
330
30C
102
}
330
30C
100
DictionaryVariables
280
     0
  1
1
  0
DICTIONARYVAR
  5
313
102
{ACAD_REACTORS
330
30C
102
}
330
30C
100
DictionaryVariables
280
     0
  1
15
  0
DICTIONARYVAR
  5
311
102
{ACAD_REACTORS
330
30C
102
}
330
30C
100
DictionaryVariables
280
     0
  1
0
  0
DICTIONARYVAR
  5
30F
102
{ACAD_REACTORS
330
30C
102
}
330
30C
100
DictionaryVariables
280
     0
  1
0
  0
DICTIONARY
  5
19
330
17
100
AcDbDictionary
280
     1
281
     1
  3
ADSK_XREC_LAYOUTTHUMBNAIL
360
1A
  0
DICTIONARY
  5
43
330
42
100
AcDbDictionary
280
     1
281
     1
  3
BUMPTILE
360
44
  3
DIFFUSETILE
360
45
  3
OPACITYTILE
360
46
  3
REFLECTIONTILE
360
47
  3
REFRACTIONTILE
360
48
  3
SPECULARTILE
360
49
  0
DICTIONARY
  5
3B
330
3A
100
AcDbDictionary
280
     1
281
     1
  3
BUMPTILE
360
3C
  3
DIFFUSETILE
360
3D
  3
OPACITYTILE
360
3E
  3
REFLECTIONTILE
360
3F
  3
REFRACTIONTILE
360
40
  3
SPECULARTILE
360
41
  0
DICTIONARY
  5
E
330
C
100
AcDbDictionary
280
     1
281
     1
  3
BUMPTILE
360
F
  3
DIFFUSETILE
360
10
  3
OPACITYTILE
360
11
  3
REFLECTIONTILE
360
12
  3
REFRACTIONTILE
360
13
  3
SPECULARTILE
360
14
  0
DICTIONARY
  5
53
330
52
100
AcDbDictionary
280
     1
281
     1
  3
ACAD_ROUNDTRIP_2008_TABLESTYLE_CELLSTYLEMAP
360
314
  0
XRECORD
  5
1A
102
{ACAD_REACTORS
330
19
102
}
330
19
100
AcDbXrecord
280
     1
310
28000000000100008F0000000100080000000000008F0000000000000000000000010000000000003028210000000000FFFFFF000000000000000000000000000000000000000000000000000000000000000000330000006600000099000000CC000000FF00000000330000333300006633000099330000CC330000FF3300
310
0000660000336600006666000099660000CC660000FF66000000990000339900006699000099990000CC990000FF99000000CC000033CC000066CC000099CC0000CCCC0000FFCC000000FF000033FF000066FF000099FF0000CCFF0000FFFF000000003300330033006600330099003300CC003300FF003300003333003333
310
33006633330099333300CC333300FF33330000663300336633006666330099663300CC663300FF66330000993300339933006699330099993300CC993300FF99330000CC330033CC330066CC330099CC3300CCCC3300FFCC330000FF330033FF330066FF330099FF3300CCFF3300FFFF330000006600330066006600660099
310
006600CC006600FF00660000336600333366006633660099336600CC336600FF33660000666600336666006666660099666600CC666600FF66660000996600339966006699660099996600CC996600FF99660000CC660033CC660066CC660099CC6600CCCC6600FFCC660000FF660033FF660066FF660099FF6600CCFF6600
310
FFFF660000009900330099006600990099009900CC009900FF00990000339900333399006633990099339900CC339900FF33990000669900336699006666990099669900CC669900FF66990000999900339999006699990099999900CC999900FF99990000CC990033CC990066CC990099CC9900CCCC9900FFCC990000FF99
310
0033FF990066FF990099FF9900CCFF9900FFFF99000000CC003300CC006600CC009900CC00CC00CC00FF00CC000033CC003333CC006633CC009933CC00CC33CC00FF33CC000066CC003366CC006666CC009966CC00CC66CC00FF66CC000099CC003399CC006699CC009999CC00CC99CC00FF99CC0000CCCC0033CCCC0066CC
310
CC0099CCCC00CCCCCC00FFCCCC0000FFCC0033FFCC0066FFCC0099FFCC00CCFFCC00FFFFCC000000FF003300FF006600FF009900FF00CC00FF00FF00FF000033FF003333FF006633FF009933FF00CC33FF00FF33FF000066FF003366FF006666FF009966FF00CC66FF00FF66FF000099FF003399FF006699FF009999FF00CC
310
99FF00FF99FF0000CCFF0033CCFF0066CCFF0099CCFF00CCCCFF00FFCCFF0000FFFF0033FFFF0066FFFF0099FFFF00CCFFFF00FFFFFF00000000000D0D0D001A1A1A00282828003535350043434300505050005D5D5D006B6B6B00787878008686860093939300A1A1A100AEAEAE00BBBBBB00C9C9C900D6D6D600E4E4E400
310
F1F1F100FFFFFF000000000000000000000000000000000000000000000000000000000000000000000000000000000000000000000000000000000000000000000000000000000000000000000000000000000000000000000000000000000000000000000000000000000000000000000000000000000000000000000000
310
00000000000000000000000000000000000000000000000000000000000000000000000000000000000000000000000000000000000000000000000000000000000000000000000000000000000000000000000000000000000000000000000000000000000000000000000000000000000000000000000000000000000000
310
00000000000000000000000000000000000000000000000000000000000000000000000000000000000000000000000000000000000000000000000000000000000000000000000000000000000000000000000000000000000000000000000000000000000000000000000000000000000000000000000000000000000000
310
00000000000000000000000000000000000000000000000000000000000000000000000000000000000000000000000000000000000000000000000000000000000000000000000000000000000000000000000000000000000000000000000000000000000000000000000000000000000000000000000000000000000000
310
00000000000000000000000000000000000000000000000000000000000000000000000000000000000000000000000000000000000000000000000000000000000000000000000000000000000000000000000000000000000000000000000000000000000000000000000000000000000000000000000000000000000000
310
00000000000000000000000000000000000000000000000000000000000000000000000000000000000000000000000000000000000000000000000000000000000000000000000000000000000000000000000000000000000000000000000000000000000000000000000000000000000000000000000000000000000000
310
00000000000000000000000000000000000000000000000000000000000000000000000000000000000000000000000000000000000000000000000000000000000000000000000000000000000000000000000000000000000000000000000000000000000000000000000000000000000000000000000000000000000000
310
00000000000000000000000000000000000000000000000000000000000000000000000000000000000000000000000000000000000000000000000000000000000000000000000000000000000000000000000000000000000000000000000000000000000000000000000000000000000000000000000000000000000000
310
00000000000000000000000000000000000000000000000000000000000000000000000000000000000000000000000000000000000000000000000000000000000000000000000000000000000000000000000000000000000000000000000000000000000000000000000000000000000000000000000000000000000000
310
00000000000000000000000000000000000000000000000000000000000000000000000000000000000000000000000000000000000000000000000000000000000000000000000000000000000000000000000000000000000000000000000000000000000000000000000000000000000000000000000000000000000000
310
000000000000000000000000000000000000000000000000000000000000000000000000000000000000000000000000000000000000000000000000000000000000000000000000000000000000000000000000000000000000000000000000000000000000000000000000BEBEBEBEBEBEBEBEBEBEBEBEBEBEBEBEBEBEBE
310
BEBEBEBEBEBEBEBEBEBEBEBEBEBEBEBEBEBEBEBEBEBEBEBEBEBEBEBEBEBEBEBEBEBEBEBEBEBEBEBEBEBEBEBEBEBEBEBEBEBEBEBEBEBEBEBEBEBEBEBEBEBEBEBEBEBEBEBEBEBEBEBEBEBEBEBEBEBEBEBEBEBEBEBEBEBEBEBEBEBEBEBEBEBEBEBEBEBEBEBEBEBEBEBEBEBEBEBEBEBEBEBEBEBEBEBEBEBEBEBEBEBEBEBEBEBEBE
310
BEBEBEBEBEBEBEBEBEBEBEBEBEBEBEBEBEBEBEBEBEBEBEBEBEBE000000000000000000000000000000000000000000000000000000000000000000000000000000000000000000000000000000000000000000000000000000000000000000000000000000000000000000000000BE00000000000000000000000000000000
310
00000000000000000000000000000000000000000000000000000000000000000000000000000000000000000000000000000000000000000000000000000000000000000000000000000000000000000000000000000000000000000000000000000000000000000000000000000000000000000000000000000000000000
310
000000000000000000000000000000000000000000000000000000BE000000000000000000000000000000000000000000000000000000000000000000000000000000000000000000000000000000000000000000000000000000000000000000000000000000000000000000000000BE0000000000000000000000000000
310
00000000000000000000000000000000000000000000000000000000000000000000000000000000000000000000000000000000000000000000000000000000000000000000000000000000000000000000000000000000000000000000000000000000000000000000000000000000000000000000000000000000000000
310
0000000000000000000000000000000000000000000000000000000000BE000000000000000000000000000000000000000000000000000000000000000000000000000000000000000000000000000000000000000000000000000000000000000000000000000000000000000000000000BE000000000000000000000000
310
00000000000000000000000000000000000000000000000000000000000000000000000000000000000000000000000000000000000000000000000000000000000000000000000000000000000000000000000000000000000000000000000000000000000000000000000000000000000000000000000000000000000000
310
00000000000000000000000000000000000000000000000000000000000000BE000000000000000000000000000000000000000000000000000000000000000000000000000000000000000000000000000000000000000000000000000000000000000000000000000000000000000000000000BE0000DCDCDCDCDCDCDCDC
310
DCDCDCDCDCDCDCDCDCDCDCDCDCDCDCDCDCDCDCDCDCDCDCDCDCDCDCDCDCDCDCDCDCDCDCDCDCDCDCDCDCDCDCDCDCDCDCDCDCDCDCDCDCDCDCDCDCDCDCDCDCDCDCDCDCDCDCDCDCDCDCDCDCDCDCDCDCDCDCDCDCDCDCDCDCDCDCDCDCBEBEBEDCDCDCDCDCDCBEBEDCDCDCDCDCDCDCDCDCDCDCDCDCDCDCDCDCDCDCDCDCDCDCDCDCDCDC
310
DCDCDCDCDCDCDCDCDCDCDCDCDCDCDCDCDCDCDCDCDCDCDCDCDCDCDCDCDCDCDC0000BE000000000000000000000000000000000000000000000000000000000000000000000000000000000000000000000000000000000000000000000000000000000000000000000000000000000000000000000000BE0000DC0000000000
310
0000000000000000000000000000000000000000000000000000000000000000000000000000000000000000000000000000000000DCF5F5F5F5F5F500000000000000DCF5F5F5F5F5F5F5F5000000000000DC0000000000000000BEBEBEBEBEBEBEBEBEBEBEBE00000000DC0000000000000000000000000000000000DC00
310
00000000000000000000000000000000DCBEBEBEBEBEBEBEBEBEBEBE00000000DC0000BE000000000000000000000000000000000000000000000000000000000000000000000000000000000000000000000000000000000000000000000000000000000000000000000000000000000000000000000000BE0000DC000000
310
00000000000000000000000000000000000000000000000000000000000000000000000000000000000000000000000000000000000000DCF5F5F5F5F5F500000000000000DCF5F5F5F5F5F5F5F5000000000000DC0000000000000000BEBEBEBEBEBEBEBEBEBEBEBE00000000DC0000000000000000000000000000000000
310
DC0000000000000000000000000000000000DCBEBEBEBEBEBEBEBEBEBEBE00000000DC0000BE000000000000000000000000000000000000000000000000000000000000000000000000000000000000000000000000000000000000000000000000000000000000000000000000000000000000000000000000BE0000DC00
310
000000000000000000000000000000000000000000000000000000000000000000000000000000000000000000000000000000000000000000DCDCDCDCDCDCDCDCDCDCDCDCDCDCDCDCDCDCDCDCDCDCDCDCDCDCDCDCDCDC0000BEBEBEBEBEBEBEBEBEBEBEBEBEBEBEBEBEBE00000000DC00F5F5F5F5F5F500F5F5F500000000
310
0000F5F5F5F5F5F5F5F5F5F5F5F5F5F500000000DCF5F5F5F5F5F5F500F5F5F5F5000000DC0000BE000000000000000000000000000000000000000000000000000000000000000000000000000000000000000000000000000000000000000000000000000000000000000000000000000000000000000000000000BE0000
310
DC00000000000000000000000000000000000000000000000000000000000000000000000000000000000000000000000000000000000000000000DC000000DC0000000000000000000000DC000000000000DC0000000000DC0000BEBEBEBEBEBEBEBEBEBEBEBEBEBEBEBEBEBEBE000000DC00F5F5F5F5F5F5F5F5F5F5F500
310
00000000DCF5F5F5F5F5F5F5F5F5F5F5F5F5F5000000DC00F5F5F5F5F5F5F5F5F5F5F5000000DC0000BE000000000000000000000000000000000000000000000000000000000000000000000000000000000000000000000000000000000000000000000000000000000000000000000000000000000000000000000000BE
310
0000DC00000000000000000000000000000000000000000000000000000000000000000000000000000000000000000000000000000000000000000000DC000000DC0000000000000000000000DC000000000000DC0000000000DC000000000000BEBEBE00BEBEBEBEBEBEBEBEBEBEBE000000DC00F5F50000F5000000F5F5
310
000000000000DCF5F5F5F5F5F5F5F5F5F5F5F50000000000DC00F5F5000000F500F5F50000000000DC0000BE0000000000000000000000000000000000000000000000000000000000000000000000000000000000000000000000000000000000000000000000000000000000000000000000000000000000000000000000
310
00BE0000DC00000000000000000000000000000000000000000000000000000000000000000000000000000000000000000000000000000000000000000000DCDCDCDCDCDCDCDCDCDCDCDCDCDCDCDCDCDCDCDCDCDCDCDCDCDCDCDCDCDC000000000000BEBEBEBEBEBEBEBEBEBEBEBEBEBE00000000DCDCDCDCDCDCDCDCDCDC
310
DCDCDCDCDCDCDCDCDCDCDCDCDCDCDCDCDCDCDCDCDCDCDCDCDCDCDCDCDCDCDCDCDCDCDCDCDCDCDCDCDCDCDC0000BE000000000000000000000000000000000000000000000000000000000000000000000000000000000000000000000000000000000000000000000000000000000000000000000000000000000000000000
310
000000BE0000DC00000000000000000000000000000000000000000000000000000000000000000000000000000000000000000000000000000000000000000000DC000000DC0000000000000000000000DC000000000000DC0000000000DC0000000000BEBEBEBEBEBEBEBEBEBEBEBEBEBEBE00000000DC00BEBEBEBEBEBE
310
BEBEBEBEBEBEBEBEBEBEBEBEBEBEBEBE0000BEBEBEBE000000BEBE00BEBE0000BEBEBEBEBEBEBE0000000000DC0000BE00000000000000000000000000000000000000000000000000000000000000000000000000000000000000000000000000000000000000000000000000000000000000000000000000000000000000
310
0000000000BE0000DC00000000000000000000000000000000000000000000000000000000000000000000000000000000000000000000000000000000000000000000DCDCDCDCDCDCDCDCDCDCDCDCDCDCDCDCDCDCDCDCDCDCDCDCDCDCDCDCDCDCDCDCDCDCDCBEBEBEBEBEDCBEBEBEDCBEBEBEBEBEDCDCDCDCDC00BEBEBEBE
310
BEBEBEBEBEBEBEBEBEBEBEBEBEBEBEBEBEBE0000BEBEBEBE000000BEBE00BEBE000000BEBEBEBE00BE0000000000DC0000BE0000000000000000000000000000000000000000000000000000000000000000000000000000000000000000000000000000000000000000000000000000000000000000000000000000000000
310
00000000000000BE0000DC00000000000000000000000000000000000000000000000000000000000000000000000000000000000000000000000000000000000000000000DC000000DC0000000000000000000000DC000000000000DC0000000000DC000000DC00000000000000DC000000000000000000000000DC00BEBE
310
BEBEBEBEBEBEBEBEBEBEBEBEBEBEBEBEBE00BEBE0000BEBEBEBEBE0000BEBEBEBEBE0000BEBEBEBEBEBEBE0000000000DC0000BE000000000000000000000000000000000000000000000000000000000000000000000000000000000000000000000000000000000000000000000000000000000000000000000000000000
310
000000000000000000BE0000DC00000000000000000000000000000000000000000000000000000000000000000000000000000000000000000000000000000000000000000000DC000000DC0000000000000000000000DC000000000000DC0000000000F5F5F5F5F500000000000000DC000000000000000000000000DC00
310
BEBEBEBE0000BE0000000000BE0000BE0000000000000000BEBEBE00000000BEBEBEBEBE0000BEBEBEBEBE00000000000000DC0000BE00000000000000000000000000000000000000000000000000000000000000000000000000000000000000000000000000000000000000000000000000000000000000000000000000
310
0000000000000000000000BE0000DC00000000000000000000000000000000000000000000000000000000000000000000000000000000000000000000000000000000000000000000DCDCDCDCDCDCDCDCDCDCDCDCDCDCDCDCDCDCDCDCDCDCDCDCDCDCDCDCDCDCDCDCDCDCDCDCDCDCDCDCDCDCDCDCDCDCDCDCDCDCDCDCDCDC
310
DC00BEBEBE00BE00BEBEBEBEBEBEBE00000000000000000000000000000000000000000000000000000000000000000000000000DC0000BE0000000000000000000000000000000000000000000000000000000000000000000000000000000000000000000000000000000000000000000000000000000000000000000000
310
00000000000000000000000000BE0000DC00000000000000000000000000000000000000000000000000000000000000000000000000000000000000000000000000000000000000000000DC000000DC0000000000000000000000DC000000000000DC0000000000F5F5F5F5DCBEBEBEBEBEBEBEBEBEBEBEBEBEBEBEBE0000
310
0000DC00BEBEBEBEBE0000BE00BEBEBEBE00000000000000000000000000000000000000000000000000000000000000000000000000DC0000BE000000000000000000000000000000000000000000000000000000000000000000000000000000000000000000000000000000000000000000000000000000000000000000
310
000000000000000000000000000000BE0000DC00000000000000000000000000000000000000000000000000000000000000000000000000000000000000000000000000000000000000000000DC000000DC0000000000000000000000DC000000000000DC0000000000DCF5F5F5DCBEBEBEBEBEBEBEBEBEBEBEBEBEBEBEBE
310
00000000DC00BEBE00BE0000BE00BEBEBEBEBE00000000000000000000000000000000000000000000000000000000000000000000000000DC0000BE00000000000000000000000000000000000000000000000000000000000000000000000000000000000000000000000000000000000000000000000000000000000000
310
0000000000000000000000000000000000BE0000DC00000000000000000000000000000000000000000000000000000000000000000000000000000000000000000000000000000000000000000000DCDCDCDCDCDCDCDCDCDCDCDCDCDCDCDCDCDCDCDCDCDCDCDCDCDCDCDCDCDCDCDCDCDCDCDCDCDCDCDCDCDCDCDCDCDCDCDC
310
DCDCDCDCDCDCDC00BEBE00BE000000BEBEBEBEBEBE00000000000000000000000000000000000000000000000000000000000000000000000000DC0000BE0000000000000000000000000000000000000000000000000000000000000000000000000000000000000000000000000000000000000000000000000000000000
310
00000000000000000000000000000000000000BE0000DC00000000000000000000000000000000000000000000000000000000000000000000000000000000000000000000000000000000000000000000DCF5F5F5F5F5F5F5F5F5F5F5F5000000DCF5F5F5F5F500DCF5F5F5F5F5DCDCDCDCDCF5F5F5F5F5F5F5DCF5F5F5F5
310
F5F5F5F500000000DC00F5F5F5F5F5F5F5F5F5F5F5F5F5F5F5F5F5000000000000000000000000000000000000000000000000000000000000000000DC0000BE000000000000000000000000000000000000000000000000000000000000000000000000000000000000000000000000000000000000000000000000000000
310
000000000000000000000000000000000000000000BE0000DC00000000000000000000000000000000000000000000000000000000000000000000000000000000000000000000000000000000000000000000DCF5F5F5F500F5F5F5F5F5F5F5000000DCF5F5F5F5F5F5DCF5F5F5F5F5DCDCDCDCDC00F5F5F5F5F5F5F500F5
310
F5F5F5F5F5F500000000DC00F5F5F5F5F5F5F5F5F5F5F5F5F5F5F5F5F5F50000000000000000000000000000000000000000000000000000000000000000DC0000BE00000000000000000000000000000000000000000000000000000000000000000000000000000000000000000000000000000000000000000000000000
310
0000000000000000000000000000000000000000000000BE0000DC00000000000000000000000000000000000000000000000000000000000000000000000000000000000000000000000000000000000000000000DCDCDCDCDCDCDCDCDCDCDCDCDCDCDCDCDCDCDCDCDCDCDCDCDCDCDCDCDCDCDCDCDCDCDCF5DCF5DCDCDCDC
310
DCF5F5DCDCDCDCDCDCDCDCDCDCDCDCDCDCDCDCDCDCDCDCDCDCDCDCF5DCDCDCDCDCDCDCDCDCDCDCDCDCDCDCDCDCDCDCDCDCDCDCDCDCDCDCDCDCDCDCDCDCDCDCDCDC0000BE0000000000000000000000000000000000000000000000000000000000000000000000000000000000000000000000000000000000000000000000
310
00000000000000000000000000000000000000000000000000BE0000DC00000000000000000000000000000000000000000000000000000000000000000000000000000000000000000000000000000000000000000000DC00000000000000000000000000000000000000000000000000000000DC00000000000000000000
310
00DC00BEBEBEBE00BEBEBEBEBEBEDC00000000000000000000000000000000000000DC000000000000000000000000000000000000DC000000000000000000000000DC0000BE000000000000000000000000000000000000000000000000000000000000000000000000000000000000000000000000000000000000000000
310
000000000000000000000000000000000000000000000000000000BE0000DC00000000000000000000000000000000000000000000000000000000000000000000000000000000000000000000000000000000000000000000DC00000000000000000000000000000000000000000000000000000000DC0000000000000000
310
000000DCDCBEBEBEBEDCBEBEBEBEBEBEDC00000000000000000000000000000000000000DC000000000000000000000000000000000000DC000000000000000000000000DC0000BE00000000000000000000000000000000000000000000000000000000000000000000000000000000000000000000000000000000000000
310
0000000000000000000000000000000000000000000000000000000000BE0000DC00000000000000000000000000000000000000000000000000000000000000000000000000000000000000000000000000000000000000000000DC00000000000000000000000000000000000000000000000000000000DCDCDCDCDCDCDC
310
DCDCDCDCDCDCBEBEBE00BEBEBEBEBEBEBEBEBEF5F5F5F5F5F5F5F5F5F5F5F5F5F5F500000000DCF5F5F5F5F5F5F5F5F5F5F5F5F5F500000000DCF5F5F5F5F500F5F5F5F5F5F5DC0000BE0000000000000000000000000000000000000000000000000000000000000000000000000000000000000000000000000000000000
310
00000000000000000000000000000000000000000000000000000000000000BE0000DC00000000000000000000000000000000000000000000000000000000000000000000000000000000000000000000000000000000000000000000DC00000000000000000000000000000000000000000000000000000000DC00000000
310
00000000000000DCBEBEBE00BEBEBEBEBEBE00BEBE00F5F5F5F5F5F5F5F5F5F5F5F5F5F500000000DCF5F5F5F5F5F5F5F5F5F5F5F5F5F5F5000000DCF5F5F5F5F500F5F5F5F5F5F5DC0000BE000000000000000000000000000000000000000000000000000000000000000000000000000000000000000000000000000000
310
000000000000000000000000000000000000000000000000000000000000000000BE0000DC00000000000000000000000000000000000000000000000000000000000000000000000000000000000000000000000000000000000000000000DC00000000000000000000000000000000000000000000000000000000DC0000
310
000000000000000000DCDCDCDCDCDCDCDCDCDCDCDCDCDCDCDCDCDCDCBEBEBEBEBEBEBEBEDCBEDCDCDCDCDCDCDCDCDCDCDCDCDCDCDCDCDCDCDCDCDCDCDCDCDCDCDCDCDCDCBEBEBEBEDCDCDC0000BE00000000000000000000000000000000000000000000000000000000000000000000000000000000000000000000000000
310
0000000000000000000000000000000000000000000000000000000000000000000000BE0000DC00000000000000000000000000000000000000000000000000000000000000000000000000000000000000000000000000000000000000000000DC00000000000000000000000000000000000000000000000000000000DC
310
DCDCDCDCDCDCDCDCDCDCDCDCDCDCDCDCDCDCDCDCDCDCDCDCDC0000000000BE00BEBEBEBEBEBE00BE00000000DC000000000000000000000000000000000000DC000000000000BEBEBEBE0000DC0000BE0000000000000000000000000000000000000000000000000000000000000000000000000000000000000000000000
310
00000000000000000000000000000000000000000000000000000000000000000000000000BE0000DC00000000000000000000000000000000000000000000000000000000000000000000000000000000000000000000000000000000000000000000DC000000000000000000000000000000000000000000000000000000
310
00DC00F5F5F5F5F5F5F5F5F500DC00000000BEBEBEBEBE000000DC00000000F5BEF5F5BEBEBEBEBEBEBE00000000DC000000000000000000000000000000000000DC000000F5F5BEBEBEBEBEF500DC0000BE000000000000000000000000000000000000000000000000000000000000000000000000000000000000000000
310
000000000000000000000000000000000000000000000000000000000000000000000000000000BE0000DC00000000000000000000000000000000000000000000000000000000000000000000000000000000000000000000000000000000000000000000DC00000000000000000000000000000000000000000000000000
310
000000DC00F5F5F5F500F5F5F5F500DC00000000F5F5F5F5F5000000DC0000000000F5F5F5F5F5F5F5F5000000000000DC000000F5F5F5F5F5F5F5F5F5F50000000000DC000000F5F5F5F5F5F5F5F500DC0000BE00000000000000000000000000000000000000000000000000000000000000000000000000000000000000
310
0000000000000000000000000000000000000000000000000000000000000000000000000000000000BE0000DC00000000000000000000000000000000000000000000000000000000000000000000000000000000000000000000000000000000000000000000DCDCDCDCDCDCDCDCDCDCDCDCDCDCDCDCDCDCDCDCDCDCDCDC
310
DCDCDCDCDCDCDCDCDCDCDCDCDCDCDCDCDCDCDCDCDCDCF5F5DCDCF5DCDCDCDCDCDCDCDCDCF5F5F5DCDCF5F5DCDCDCDCDCDCDCDCDCDCDCF5F5F5DCF5F5F5F5DCDCDCDCDCDCDCDCDCDCDCF5F5F5F5F5DCF5DCDCDC0000BE0000000000000000000000000000000000000000000000000000000000000000000000000000000000
310
00000000000000000000000000000000000000000000000000000000000000000000000000000000000000BE0000DC0000000000000000000000000000000000000000000000000000000000000000000000000000000000000000000000000000000000000000000000000000000000000000000000000000000000000000
310
000000000000000000000000000000000000000000000000000000000000000000000000000000000000000000000000000000000000000000000000000000000000000000000000000000000000000000000000DC0000BE000000000000000000000000000000000000000000000000000000000000000000000000000000
310
000000000000000000000000000000000000000000000000000000000000000000000000000000000000000000BE0000DC000000000000000000000000000000000000000000000000000000000000000000000000000000000000000000000000000000000000000000000000000000000000000000000000000000000000
310
0000000000000000000000000000000000000000000000000000000000000000000000000000000000000000000000000000000000000000000000000000000000000000000000000000000000000000000000000000DC0000BE00000000000000000000000000000000000000000000000000000000000000000000000000
310
0000000000000000000000000000000000000000000000000000000000000000000000000000000000000000000000BE0000DC00000000000000000000000000000000000000000000000000000000000000000000000000000000000000000000000000000000000000000000000000000000000000000000000000000000
310
00000000000000000000000000000000000000000000000000000000000000000000000000000000000000000000000000000000000000000000000000000000000000000000000000000000000000000000000000000000DC0000BE0000000000000000000000000000000000000000000000000000000000000000000000
310
00000000000000000000000000000000000000000000000000000000000000000000000000000000000000000000000000BE0000DC000000000000000000000000000000000000000000002D2D000000000000000000000000000000000000000000000000000000000000000000000000000000000000002D2D0000000000
310
000000000000000000000000000000000000000000000000000000000000000000000000000000000000000000000000000000000000000000000000000000000000000000000000000000000000000000000000000000000000DC0000BE000000000000000000000000000000000000000000000000000000000000000000
310
000000000000000000000000000000000000000000000000000000000000000000000000000000000000000000000000000000BE0000DC000000000000000000000000000000000000000000002D2D2D2D2D2D2D2D2D2D2D2D2D2D2D2D2D2D2D2D2D2DBEBEBEBE2D2D2D2D2D2D2D2D2D2D2D2D2D2D2D2D2D2D2D2DF5000000
310
00000000000000000000000000000000000000000000000000000000000000000000000000000000000000000000000000000000000000000000000000000000002D000000000000000000000000002D000000000000000000000000DC0000BE00000000000000000000000000000000000000000000000000000000000000
310
0000000000000000000000000000000000000000000000000000000000000000000000000000000000000000000000000000000000BE0000DC000000000000000000000000000000000000000000002D0000000000000000000000000000000000000000BEBEBEBEBE00000000000000000000000000000000000000002D00
310
000000000000000000000000000000000000000000000000000000000000000000000000000000000000000000000000000000000000000000000000000000000000002D2D2D2D2D2DBEBEBE2D2D2D2D2D2D000000000000000000000000DC0000BE0000000000000000000000000000000000000000000000000000000000
310
00000000000000000000000000000000000000000000000000000000000000000000000000000000000000000000000000000000000000BE0000DC000000000000000000000000000000000000000000002D000000000000000000000000000000000000000000BEBEBEBE0000000000000000000000000000000000000000
310
2D00000000000000000000000000000000000000000000000000000000000000000000000000000000000000000000000000000000000000000000000000000000000000002D0000000000BEBEBE00000000002D000000000000000000000000DC0000BE000000000000000000000000000000000000000000000000000000
310
000000000000000000000000000000000000000000000000000000000000000000000000000000000000000000000000000000000000000000BE0000DC000000000000000000000000000000000000000000002D00000000000000000000000000000000000000000000000000000000000000000000000000000000000000
310
00002D00000000000000000000000000000000000000000000000000000000000000000000000000000000000000000000000000000000000000000000000000000000000000002D0000000000BEBEBE00000000002D000000000000000000000000DC0000BE00000000000000000000000000000000000000000000000000
310
0000000000000000000000000000000000000000000000000000000000000000000000000000000000000000000000000000000000000000000000BE0000DC000000000000000000000000000000000000000000002DF5F5F5F5F5F5F5F50000000000000000000000000000000000000000000000000000000000F5F5F5F5
310
F5F5F5F52D00000000000000000000000000000000000000000000000000000000000000000000000000000000000000000000000000000000000000000000000000000000000000002D00000000F5F5F5F5F5F50000002D000000000000000000000000DC0000BE0000000000000000000000000000000000000000000000
310
00000000000000000000000000000000000000000000000000000000000000000000000000000000000000000000000000000000000000000000000000BE0000DC00000000000000000000000000000000000000000000F5F5F5F5F500000000F5F5F5F5F5F5F5F5F5F5F5F5F5F5F5F5F5F5F5F5F5F5F5F5F5F5F5F5F50000
310
0000F5F5F5F5F500000000000000000000000000000000000000000000000000000000000000000000000000000000000000000000000000000000000000000000000000000000000000002D00F5F5F5F5F5BE00F5F5F5F5F52D000000000000000000000000DC0000BE000000000000000000000000000000000000000000
310
000000000000000000000000000000000000000000000000000000000000000000000000000000000000000000000000000000000000000000000000000000BE0000DC00000000000000000000000000000000000000000000F50000F500F5F5F5F5F5F5F5F5F5F5F5F5F5F5F5F5F5F5F5F5F5F5F5F5F5F5F5F5F5F5F5F5F5
310
F5F5F5F500F50000F500000000000000000000000000000000000000000000000000000000000000000000000000000000000000000000000000000000000000000000000000000000000000002DF5F5F50000F5BEF5000000F5F52D000000000000000000000000DC0000BE00000000000000000000000000000000000000
310
0000000000000000000000000000000000000000000000000000000000000000000000000000000000000000000000000000000000000000000000000000000000BE0000DC00000000000000000000000000000000000000000000F50000F50000000000000000000000000000000000000000000000000000000000000000
310
00000000000000F50000F50000000000000000000000000000000000000000000000000000000000000000000000000000000000000000000000000000000000000000000000000000000000000000BEF5BE0000BEBEBEBEBE0000BEF5BEF50000000000000000000000DC0000BE0000000000000000000000000000000000
310
00000000000000000000000000000000000000000000000000000000000000000000000000000000000000000000000000000000000000000000000000000000000000BE0000DC00000000000000000000000000000000000000000000F5F5F5F5F5F5F5F5F5F5F5F5F5F5F5F5F5F5F5F5F5F5F5F5F5F5F5F5F5F5F5F5F5F5
310
F5F5F5F5F5F5F5F5F5F5F5F5F500000000000000000000000000000000000000000000000000000000000000000000000000000000000000000000000000000000000000000000000000000000000000F52DBEBEF50000F5BEF50000F5BEBEBEF5F500000000000000000000DC0000BE000000000000000000000000000000
310
000000000000000000000000000000000000000000000000000000000000000000000000000000000000000000000000000000000000000000000000000000000000000000BE0000DC00000000000000000000000000000000000000000000F5F5F5F5F5F5F528282828282828282828282828282828282828282828282828
310
2828282828282828F5F5F5F5F5F5F5000000000000000000000000000000000000000000000000000000000000000000000000000000000000000000000000000000000000000000000000000000000000F5F52DBEBEBEBE0000BE000000BEBEBE2D00F500000000000000000000DC0000BE00000000000000000000000000
310
0000000000000000000000000000000000000000000000000000000000000000000000000000000000000000000000000000000000000000000000000000000000000000000000BE0000DC000000000000000000000000000000000000000000F5F5F500000000F50000000000000000000000000000000000000000000000
310
00000000000000000000F500000000F5F5F50000000000000000000000000000000000000000000000000000000000000000000000000000000000000000000000000000000000000000000000000000000000F5002DF5BEBE00F5F5F5F5F52DF5BEF52D00F5000000002D0000000000DC0000BE0000000000000000000000
310
00000000000000000000000000000000000000000000000000000000000000000000000000000000000000000000000000000000000000000000000000000000000000000000000000BE0000DC0000000000000000000000000000000000000000F5F5000000000000F5000000000000000000000000000000000000000000
310
000000000000000000000000F5000000000000F5F5000000000000000000000000000000000000000000000000000000000000000000000000000000000000000000000000000000000000000000000000000000F5F5002D00BEBEBEF5F5BE00F5BEBEBE002D00F5F50000002D0000000000DC0000BE000000000000000000
310
000000000000000000000000000000000000000000000000000000000000000000000000000000000000000000000000000000000000000000000000000000000000000000000000000000BE0000DC00000000000000000000000000000000000000F50000000000000000F500000000000000000000000000000000000000
310
0000000000000000000000000000F50000000000000000F50000000000000000000000000000000000000000000000000000000000000000000000000000000000000000000000000000000000000000000000000000F5F5002D0000F5F5BE00BE00BEF5F500002D0000F500002D2D0000000000DC0000BE00000000000000
310
0000000000000000000000000000000000000000000000000000000000000000000000000000000000000000000000000000000000000000000000000000000000000000000000000000000000BE0000DC000000000000000000000000000000000000F500000000F5F5F5F5F5F52828282828282828282828282828282828
310
28282828282828282828282828282828F5F5F5F5F5F500000000F500000000000000000000000000000000000000000000000000000000000000000000000000000000000000000000000000000000000000000000000000F500F5BEF500F52DBEBEBEBEBE00F5F500BE2D2D2D2D2D2D2D0000000000DC0000BE0000000000
310
00000000000000000000000000000000000000000000000000000000000000000000000000000000000000000000000000000000000000000000000000000000000000000000000000000000000000BE0000DC000000000000000000000000000000000000F5000000F5F500000000F5000000000000000000000000000000
310
000000000000000000000000000000000000F500000000F5F5000000F5000000000000000000000000000000000000000000000000000000000000000000000000000000000000000000000000000000000000002D2D2D2D2DF5F5BEBEBEBEBEF5BEBEBEBEBEBEBEF5F5BEBEBEBEBEF500002D0000000000DC0000BE000000
310
000000000000000000000000000000000000000000000000000000000000000000000000000000000000000000000000000000000000000000000000000000000000000000000000000000000000000000BE0000DC0000000000000000000000000000000000F5000000F5F50000000000F500000000000000000000000000
310
0000000000000000000000000000000000000000F50000000000F5F5000000F5000000000000000000000000000000000000000000000000000000000000000000000000000000000000000000000000000000000000002D00002D2DF500F5BEF500F50000BEBEBE0000F5F5F5BEF5F5F5F500002D0000000000DC0000BE00
310
0000000000000000000000000000000000000000000000000000000000000000000000000000000000000000000000000000000000000000000000000000000000000000000000000000000000000000000000BE0000DC0000000000000000000000000000000000F5000000F5000000000000F50000000000000000000000
310
00000000000000000000000000000000000000000000F5000000000000F5000000F5000000000000000000000000000000000000000000000000000000000000000000000000000000000000000000000000000000000000002D00002D2DF5F500BE0000F5F5BEBEBE00BE00F5F500BE2D2D2D2D2D2D2D0000000000DC0000
310
BE000000000000000000000000000000000000000000000000000000000000000000000000000000000000000000000000000000000000000000000000000000000000000000000000000000000000000000000000BE0000DC00000000000000000000000000000000F5000000F500000000000000F5000000000000000000
310
000000000000000000000000000000000000000000000000F500000000000000F50000F5F50000000000000000000000000000000000000000000000000000000000000000000000000000000000000000000000000000000000002D0000002DF5F500000000F5BEF500BE0000BEF50000000000F500002D2D0000000000DC
310
0000BE000000000000000000000000000000000000000000000000000000000000000000000000000000000000000000000000000000000000000000000000000000000000000000000000000000000000000000000000BE0000DC00000000000000000000000000000000F5000000F500000000000000F500000000000000
310
0000000000000000000000000000000000000000000000000000F500000000000000F5000000F50000000000000000000000000000000000000000000000000000000000000000000000000000000000000000000000000000000000002D0000BE2DF5F50000F5BEF5BEF5F5F5F5F5F5BEBEF50000F5F50000002D00000000
310
00DC0000BE000000000000000000000000000000000000000000000000000000000000000000000000000000000000000000000000000000000000000000000000000000000000000000000000000000000000000000000000BE0000DC00000000000000000000000000000000F5F5F5F5F500000000000000F50000000000
310
00000000000000000000000000000000000000000000000000000000F500000000000000F5F5F5F5F50000000000000000000000000000000000000000000000000000000000000000000000000000000000000000000000000000000000002D00BEBEBE00F5F5BEBEBEBEBE00F5F5F5F500BEBEBEBE00F50000BEBE2D0000
310
000000DC0000BE000000000000000000000000000000000000000000000000000000000000000000000000000000000000000000000000000000000000000000000000000000000000000000000000000000000000000000000000BE0000DC0000000000000000000000000000F5F5F5F5F5F5F5F5F50000000000F5000000
310
000000000000000000000000000000000000000000000000000000000000F50000000000F5F5F5F5F5F5F5F5F500000000000000000000000000000000000000000000000000000000000000000000000000000000000000000000000000000000002D00BEBEF500F500BEBEF50000F5BEF50000F5BEBEF5F5F50000BEBE2D
310
0000000000DC0000BE000000000000000000000000000000000000000000000000000000000000000000000000000000000000000000000000000000000000000000000000000000000000000000000000000000000000000000000000BE0000DC0000000000000000000000000000F5F5F5F5F5F5F5F5F50000000000F5F5
310
F5F5F5F5F5F5F5F5F5F5F5F5F5F5F5F5F5F5F5F5F5F5F5F5F5F5F5F5F5F5F5F5F50000000000F5F5F5F5F5F5F5F5F500000000000000000000000000000000000000000000000000000000000000000000000000000000000000000000000000000000002D00BE002D2DF5BEBEBE0000BEBEBEBEBE0000BEF5BEF5000000BE
310
BE2D0000000000DC0000BE000000000000000000000000000000000000000000000000000000000000000000000000000000000000000000000000000000000000000000000000000000000000000000000000000000000000000000000000BE0000DC0000000000000000000000000000000000002D000000000000000000
310
2D0000000000000000000000000000000000000000000000000000000000000000002D0000000000000000002D00000000000000000000000000000000000000000000000000000000000000000000000000000000000000000000000000000000000000000000F50000002D2DF5F500000000F5BEF500000000F5F5BE0000
310
00BEBE2D0000000000DC0000BE000000000000000000000000000000000000000000000000000000000000000000000000000000000000000000000000000000000000000000000000000000000000000000000000000000000000000000000000BE0000DC0000000000000000000000000000000000002D00000000000000
310
00002D0000000000000000000000000000000000000000000000000000000000000000002D0000000000000000002D000000000000000000000000000000000000000000000000000000000000000000000000000000000000000000000000000000000000000000002D0000002D2D0000F5F5000000BEF50000F5F5F50000
310
00000000002D0000000000DC0000BE000000000000000000000000000000000000000000000000000000000000000000000000000000000000000000000000000000000000000000000000000000000000000000000000000000000000000000000000BE0000DC0000000000000000000000000000000000002D0000000000
310
000000002D2D2D2D2D2D2D2D2D2D2D2D2D2D2D2D2D2D2D2D2D2D2D2D2D2D2D2D2D2D2D2D2D2DF50000000000000000002D00000000000000000000000000000000000000000000000000000000000000000000000000000000000000000000000000000000000000000000002D2D000000000000F5F5F5F5BEF5F5F5F5F500
310
00000000000000000000000000DC0000BE000000000000000000000000000000000000000000000000000000000000000000000000000000000000000000000000000000000000000000000000000000000000000000000000000000000000000000000000BE0000DC0000000000000000000000000000000000002D000000
310
0000000000002D0000000000000000000000000000BEBEBEBEBE00000000000000000000000000002D0000000000000000002D0000000000000000000000000000000000000000000000000000000000000000000000000000000000000000000000000000000000000000000000BE2D00000000000000000000F500000000
310
000000000000000000000000000000DC0000BE000000000000000000000000000000000000000000000000000000000000000000000000000000000000000000000000000000000000000000000000000000000000000000000000000000000000000000000000BE0000DC0000000000000000000000000000000000002D00
310
0000000000000000000000000000000000000000000000BEBEBEBEBE0000000000000000000000000000000000000000000000002D00000000000000000000000000000000000000000000000000000000000000000000000000000000000000000000000000000000000000000000BEBEBEBE0000000000000000002D0000
310
0000000000000000000000000000000000DC0000BE000000000000000000000000000000000000000000000000000000000000000000000000000000000000000000000000000000000000000000000000000000000000000000000000000000000000000000000000BE0000DC000000000000000000000000000000000000
310
2D00000000000000000000000000000000000000000000000000000000000000000000000000000000000000000000000000000000002D0000000000000000000000000000000000000000000000000000000000000000000000000000000000000000000000000000000000000000000000BEBEBE2D2D000000000000002D
310
00000000000000000000000000000000000000DC0000BE000000000000000000000000000000000000000000000000000000000000000000000000000000000000000000000000000000000000000000000000000000000000000000000000000000000000000000000000BE0000DC00000000000000000000000000000000
310
00002D2D2D2D2D2D2D2D2D2D2D2D2D2D2D2D2D2D2D2D2D2D2D2D2D2DBEBEBEBE2D2D2D2D2D2D2D2D2D2D2D2D2D2D2D2D2D2D2D2D2D2D2D2DF5000000000000000000000000000000000000000000000000000000000000000000000000000000000000000000000000000000000000000000000000BEBE00002D2D00000000
310
002D00000000000000000000000000000000000000DC0000BE000000000000000000000000000000000000000000000000000000000000000000000000000000000000000000000000000000000000000000000000000000000000000000000000000000000000000000000000BE0000DC0000000000000000000000000000
310
0000000000000000000000000000000000000000000000000000000000BEBEBEBEBE000000000000000000000000000000000000000000000000000000000000000000000000000000000000000000000000000000000000000000000000000000000000000000000000000000000000000000000000000000000000002D2D
310
2D2D2D2D00000000000000000000000000000000000000DC0000BE000000000000000000000000000000000000000000000000000000000000000000000000000000000000000000000000000000000000000000000000000000000000000000000000000000000000000000000000BE0000DC000000000000000000000000
310
0000000000000000000000000000000000000000000000000000000000000000BEBEBEBE00000000000000000000000000000000000000000000000000000000000000000000000000000000000000000000000000000000000000000000000000000000000000000000000000000000000000000000000000000000000000
310
000000002D2D00000000000000000000000000000000000000DC0000BE000000000000000000000000000000000000000000000000000000000000000000000000000000000000000000000000000000000000000000000000000000000000000000000000000000000000000000000000BE0000DC00000000000000000000
310
00000000000000000000000000000000000000000000000000000000000000000000000000000000000000000000000000000000000000000000000000000000000000000000000000000000000000000000000000000000000000000000000000000000000000000000000000000000000000000000000000000000000000
310
000000000000000000000000000000000000000000000000000000DC0000BE000000000000000000000000000000000000000000000000000000000000000000000000000000000000000000000000000000000000000000000000000000000000000000000000000000000000000000000000BE0000DC0000000000000000
310
00000000000000000000000000000000000000000000000000000000000000000000000000000000000000000000000000000000000000000000000000000000000000000000000000000000000000000000000000000000000000000000000000000000000000000000000000000000000000000000000000000000000000
310
0000000000000000000000000000000000000000000000000000000000DC0000BE000000000000000000000000000000000000000000000000000000000000000000000000000000000000000000000000000000000000000000000000000000000000000000000000000000000000000000000000BE0000DC000000000000
310
00000000000000000000000000000000000000000000000000000000000000000000000000000000000000000000000000000000000000000000000000000000000000000000000000000000000000000000000000000000000000000000000000000000000000000000000000000000000000000000000000000000000000
310
00000000000000000000000000000000000000000000000000000000000000DC0000BE000000000000000000000000000000000000000000000000000000000000000000000000000000000000000000000000000000000000000000000000000000000000000000000000000000000000000000000000BE0000DC00000000
310
00000000000000000000000000000000000000000000000000000000000000000000000000000000000000000000000000000000000000000000000000000000000000000000000000000000000000000000000000000000000000000000000000000000000000000000000000000000000000000000000000000000000000
310
0000000000000000BEBEBEBEBEBEBEBEBEBEBEBEBEBEBEBEBEBEBEBE0000000000DC0000BE000000000000000000000000000000000000000000000000000000000000000000000000000000000000000000000000000000000000000000000000000000000000000000000000000000000000000000000000BE0000DC0000
310
00000000000000000000000000000000000000000000000000000000000000000000000000000000000000000000000000000000000000000000000000000000000000000000000000000000000000000000000000000000000000000000000000000000000000000000000000000000000000000000000000000000000000
310
00000000000000000000BEBEBEBEBEBEBEBEBEBEBEBEBEBEBEBEBEBEBEBE0000000000DC0000BE000000000000000000000000000000000000000000000000000000000000000000000000000000000000000000000000000000000000000000000000000000000000000000000000000000000000000000000000BE0000DC
310
000000000000000000000000000000000000000000000000F5F5F5F5F5F5F5F5F5F5F5F5F5F5F5F5F5F5F5F5F5F5F5F5F5F5F5F5F5F5F5F5F5F5F5F5F5F5F5F5F5F5F5000000000000000000000000000000000000000000000000000000000000000000000000000000000000000000F5F5F52D2D2D2D2D2D2D2DF5000000
310
000000000000000000000000BEBEBEBE00BEBE00000000BE00BE0000000000000000000000DC0000BE000000000000000000000000000000000000000000000000000000000000000000000000000000000000000000000000000000000000000000000000000000000000000000000000000000000000000000000000BE00
310
00DC0000000000000000000000000000000000000000000000F5F5F5F5F5F5F5F5F5F5F5F5F5F5F5F5F5F5F5F5F5F5F5F5F5F5F5F5F5F5F5F5F5F5F5F5F5F5F5F5F5F5F5F5F50000000000000000000000000000000000000000000000000000000000000000000000000000000000000000F5000000F5F500000000002D00
310
000000000000000000000000000000000000000000000000000000000000000000000000000000DC0000BE000000000000000000000000000000000000000000000000000000000000000000000000000000000000000000000000000000000000000000000000000000000000000000000000000000000000000000000000
310
BE0000DC00000000000000000000000000000000000000000000F500F50000000000000000000000000000000000000000000000000000000000000000000000000000000000F5F5F5000000000000000000000000000000000000000000000000000000000000F5F5F5F5F5F5F5F5F5F5F5F5F5F5000000F5F50000000000
310
2D00000000000000000000000000000000000000000000000000000000000000000000000000000000DC0000BE00000000000000000000000000000000000000000000000000000000000000000000000000000000000000000000000000000000000000000000000000000000000000000000000000000000000000000000
310
0000BE0000DC00000000000000000000000000000000000000000000F5F500000000000000000000000000000000000000000000000000000000000000000000000000000000000000F5F5000000000000000000000000000000000000000000000000000000000000F5F50000000000000000000000F5000000F5F5000000
310
00002D00000000000000000000000000000000000000000000000000000000000000000000000000000000DC0000BE0000000000000000000000000000000000000000000000000000000000000000000000000000000000000000000000000000000000000000000000000000000000000000000000000000000000000000
310
00000000BE0000DC00000000000000000000000000000000000000000000F5F500000000000000000000000000000000000000000000000000000000000000000000000000000000000000F5F5000000000000000000000000000000000000000000000000000000000000F5F50000000000000000000000F5F5F5F5F5F500
310
000000002D00000000000000000000000000000000000000000000000000000000000000000000000000000000DC0000BE000000000000000000000000000000000000000000000000000000000000000000000000000000000000000000000000000000000000000000000000000000000000000000000000000000000000
310
000000000000BE0000DC00000000000000000000000000000000000000000000F5F500000000000000000000000000000000000000000000000000000000000000000000000000000000000000F5F5000000000000000000000000000000000000000000000000000000000000F5F50000000000000000000000F5000000F5
310
F500000000002D00000000000000000000000000000000000000000000000000000000000000000000000000000000DC0000BE00000000000000000000000000000000000000000000000000000000000000000000000000000000000000000000000000000000000000000000000000000000000000000000000000000000
310
0000000000000000BE0000DC00000000000000000000000000000000000000000000F5F500000000000000000000000000000000000000000000000000000000000000000000000000000000000000F5F500000000000000000000000000000000000000000000000000000000000000F500000000000000000000F5F50000
310
00F5F500000000002D00000000000000000000000000000000000000000000000000000000000000000000000000000000DC0000BE0000000000000000000000000000000000000000000000000000000000000000000000000000000000000000000000000000000000000000000000000000000000000000000000000000
310
00000000000000000000BE0000DC00000000000000000000000000000000000000000000F5F500000000000000000000000000000000000000000000000000000000000000000000000000000000000000F5F5000000000000000000000000000000000000000000000000000000000000000000000000000000000000F5F5
310
000000F5F500000000002D00000000000000000000000000000000000000000000000000000000000000000000000000000000DC0000BE000000000000000000000000000000000000000000000000000000000000000000000000000000000000000000000000000000000000000000000000000000000000000000000000
310
000000000000000000000000BE0000DC00000000000000000000000000000000000000000000F5F500000000000000000000000000000000000000000000000000000000000000000000000000000000000000F5F5000000000000000000000000000000000000000000000000000000000000000000000000000000000000
310
00F5000000F5F500000000002D00000000000000000000000000000000000000000000000000000000000000000000000000000000DC0000BE00000000000000000000000000000000000000000000000000000000000000000000000000000000000000000000000000000000000000000000000000000000000000000000
310
0000000000000000000000000000BE0000DC00000000000000000000000000000000000000000000F5F500000000000000000000000000000000000000000000000000000000000000000000000000000000000000F5F500000000000000000000000000000000000000000000000000000000000000000000000000000000
310
000000F5000000F5F500000000002D00000000000000000000000000000000000000000000000000000000000000000000000000000000DC0000BE0000000000000000000000000000000000000000000000000000000000000000000000000000000000000000000000000000000000000000000000000000000000000000
310
00000000000000000000000000000000BE0000DC00000000000000000000000000000000000000000000F5F500000000000000000000000000000000000000000000000000000000000000000000000000000000000000F5F5000000000000000000000000000000000000000000000000000000000000000000000000002D
310
0000000000F5000000F5F500000000002D00000000000000000000000000000000000000000000000000000000000000000000000000000000DC0000BE000000000000000000000000000000000000000000000000000000000000000000000000000000000000000000000000000000000000000000000000000000000000
310
000000000000000000000000000000000000BE0000DC00000000000000000000000000000000000000000000F5F500000000000000000000000000000000000000000000000000000000000000000000000000000000000000F5F50000000000000000000000000000000000000000000000000000000000000000000000BE
310
BE2D0000000000F5000000F5F500000000002D00000000000000000000000000000000000000000000000000000000000000000000000000000000DC0000BE00000000000000000000000000000000000000000000000000000000000000000000000000000000000000000000000000000000000000000000000000000000
310
0000000000000000000000000000000000000000BE0000DC00000000000000000000000000000000000000000000F5F500000000000000000000000000000000000000000000000000000000000000000000000000000000000000F5F500000000000000000000000000000000000000000000000000000000000000000000
310
00BEBE2D0000000000F5000000F5F5000000BEBE2D00000000000000000000000000000000000000000000000000000000000000000000000000000000DC0000BE0000000000000000000000000000000000000000000000000000000000000000000000000000000000000000000000000000000000000000000000000000
310
00000000000000000000000000000000000000000000BE0000DC00000000000000000000000000000000000000000000F5F500000000000000000000000000000000000000000000000000000000000000000000000000000000000000F5F50000000000000000000000000000000000000000000000000000000000000000
310
000000BEBE2D0000000000F5000000F5F5000000BEBE2D00000000000000000000000000000000000000000000000000000000000000000000000000000000DC0000BE000000000000000000000000000000000000000000000000000000000000000000000000000000000000000000000000000000000000000000000000
310
000000000000000000000000000000000000000000000000BE0000DC00000000000000000000000000000000000000000000F5F500000000000000000000000000000000000000000000000000000000000000000000000000000000000000F5F5000000000000000000000000000000000000000000000000000000000000
310
0000000000BEBE2D0000000000F5000000F5F5000000BEBE2D00000000000000000000000000000000000000000000000000000000000000000000000000000000DC0000BE00000000000000000000000000000000000000000000000000000000000000000000000000000000000000000000000000000000000000000000
310
0000000000000000000000000000000000000000000000000000BE0000DC00000000000000000000000000000000000000000000F5F500000000000000000000000000000000000000000000000000000000000000000000000000000000000000F5F500000000000000000000000000000000000000000000000000000000
310
00000000000000BEBE2D0000000000F5000000F5F5000000BEBE2D00000000000000000000000000000000000000000000000000000000000000000000000000000000DC0000BE0000000000000000000000000000000000000000000000000000000000000000000000000000000000000000000000000000000000000000
310
00000000000000000000000000000000000000000000000000000000BE0000DC00000000000000000000000000000000F5F5F5F5F500F5F500000000000000000000000000000000000000000000000000000000000000000000000000000000000000F5F500F5F5F5F5F50000000000000000000000000000000000000000
310
00000000F5F5F5000000002D0000000000F5000000F5F500000000002D00000000000000000000000000000000000000000000000000000000000000000000000000000000DC0000BE000000000000000000000000000000000000000000000000000000000000000000000000000000000000000000000000000000000000
310
000000000000000000000000000000000000000000000000000000000000BE0000DC000000000000000000000000000000F5F5000000F5F5F5F500000000000000000000000000000000000000000000000000000000000000000000000000000000000000F5F5F5F5000000F5F50000000000000000000000000000000000
310
000000000000F5F5F5000000002D00000000F5F5000000F5F500000000002D00000000000000000000000000000000000000000000000000000000000000000000000000000000DC0000BE00000000000000000000000000000000000000000000000000000000000000000000000000000000000000000000000000000000
310
0000000000000000000000000000000000000000000000000000000000000000BE0000DC0000000000000000000000000000F5F5F5F5F5F5F5F5F5F500000000000000000000000000000000000000000000000000000000000000000000000000000000000000F5F5F5F5F5F5F5F5F5F50000000000000000000000000000
310
0000000000000000F5F5F5F5F5F5F5F5F5F5F5F5F5F5000000F5F500000000002D00000000000000000000000000000000000000000000000000000000000000000000000000000000DC0000BE0000000000000000000000000000000000000000000000000000000000000000000000000000000000000000000000000000
310
00000000000000000000000000000000000000000000000000000000000000000000BE0000DC0000000000000000000000000000F5F5F5F500000000F5F500000000000000000000000000000000000000000000000000000000000000000000000000000000000000F5F500000000F5F5F5F5000000000000000000000000
310
00000000000000000000F5F5F5000000002D00000000F5F5000000F5F500000000002D00000000000000000000000000000000000000000000000000000000000000000000000000000000DC0000BE000000000000000000000000000000000000000000000000000000000000000000000000000000000000000000000000
310
000000000000000000000000000000000000000000000000000000000000000000000000BE0000DC0000000000000000000000000000F5F5F50000000000F5F500000000000000000000000000000000000000000000000000000000000000000000000000000000000000F5F50000000000F5F5F500000000000000000000
310
000000000000000000000000F5F5F5000000002D0000000000F5F5F5F5F5F500000000002D00000000000000000000000000000000000000000000000000000000000000000000000000000000DC0000BE00000000000000000000000000000000000000000000000000000000000000000000000000000000000000000000
310
0000000000000000000000000000000000000000000000000000000000000000000000000000BE0000DC00000000000000000000000000002DF52DF500000000F5F5F5000000000000000000000000000000000000000000000000000000000000000000000000000000000000F5F500000000F52DF5F50000000000000000
310
0000000000000000000000000000F5F5F5000000002D00000000F5F5000000F52D00000000002D00000000000000000000000000000000000000000000000000000000000000000000000000000000DC0000BE0000000000000000000000000000000000000000000000000000000000000000000000000000000000000000
310
00000000000000000000000000000000000000000000000000000000000000000000000000000000BE0000DC00000000000000000000000000002DF52DF5F5F5F5F5F500F5F5000000000000000000000000000000000000000000000000000000000000000000000000000000F5F500F5F5F5F5F5F52DF5F5000000000000
310
00000000000000000000000000000000F5F5F5F5F5F5F5F5F5F5F5F5F5F5000000F52D00000000002D00000000000000000000000000000000000000000000000000000000000000000000000000000000DC0000BE000000000000000000000000000000000000000000000000000000000000000000000000000000000000
310
000000000000000000000000000000000000000000000000000000000000000000000000000000000000BE0000DC00000000000000000000000000002DF52DF5F5F5F5F500F5F5F5F5F5F5F5F5F5F5F5F5F5F5F5F5F5F5F5F5F5F5F5F5F5F5F5F5F5F5F5F5F5F5F5F5F5F5F5F5F5F5F5F5F500F5F5F5F5F52DF52D00000000
310
000000000000000000000000000000000000F5F5F5000000002D0000000000F5000000F52D00000000002D00000000000000000000000000000000000000000000000000000000000000000000000000000000DC0000BE00000000000000000000000000000000000000000000000000000000000000000000000000000000
310
0000000000000000000000000000000000000000000000000000000000000000000000000000000000000000BE0000DC00000000000000000000000000002DF52DF5F5F5F5F50000F5F5F5F5F5F5F5F5F5F5F5F5F5F5F5F5F5F5F5F5F5F5F5F5F5F5F5F5F5F5F5F5F5F5F5F5F5F5F5F5F5F5F50000F5F5F5F5F52DF52D0000
310
0000000000000000000000000000000000000000F5F5F5000000002D00000000002DF5F52D2D2D2D2D2D2D2D2D00000000000000000000000000000000000000000000000000000000000000000000000000000000DC0000BE0000000000000000000000000000000000000000000000000000000000000000000000000000
310
00000000000000000000000000000000000000000000000000000000000000000000000000000000000000000000BE0000DC00000000000000000000000000002D002D0000000000000000000000000000000000000000000000000000000000000000000000000000000000000000000000000000000000000000002D002D
310
00000000000000000000000000000000000000000000F50000000000002D00000000002D000000002D00000000000000000000000000000000000000000000000000000000000000000000000000000000000000000000DC0000BE000000000000000000000000000000000000000000000000000000000000000000000000
310
000000000000000000000000000000000000000000000000000000000000000000000000000000000000000000000000BE0000DC00000000000000000000000000002D002D0000000000000000000000000000000000000000000000000000000000000000000000000000000000000000000000000000000000000000002D
310
002D000000000000000000000000000000000000000000002D0000000000000000000000002D000000002D00000000000000000000000000000000000000000000000000000000000000000000000000000000000000000000DC0000BE00000000000000000000000000000000000000000000000000000000000000000000
310
0000000000000000000000000000000000000000000000000000000000000000000000000000000000000000000000000000BE0000DC00000000000000000000000000002D002D0000000000000000000000000000000000000000000000000000000000000000000000000000000000000000000000000000000000000000
310
002D002D000000000000000000000000000000000000000000002D0000000000000000000000002D000000002D00000000000000000000000000000000000000000000000000000000000000000000000000000000000000000000DC0000BE0000000000000000000000000000000000000000000000000000000000000000
310
00000000000000000000000000000000000000000000000000000000000000000000000000000000000000000000000000000000BE0000DC00000000000000000000000000002D002D2D2D2D2D2D2D2D2D2D2D2D2D2D2D2D2D2D2D2D2D2D2D2D2D2D2D2D2D2D2D2D2D2D2D2D2D2D2D2D2D2D2D2D2D2D2D2D2D2D2D2D2D2D2D
310
2D2D2DF5002D000000000000000000000000000000000000000000002D2D2D2D2D2D2D2D2D2D2D2D2DF5000000002D00000000000000000000000000000000000000000000000000000000000000000000000000000000000000000000DC0000BE000000000000000000000000000000000000000000000000000000000000
310
000000000000000000000000000000000000000000000000000000000000000000000000000000000000000000000000000000000000BE0000DC00000000000000000000000000002D002D2D2D000000000000000000000000000000000000000000000000BEBEBEBEBE000000000000000000000000000000000000000000
310
0000002D2D2D002D000000000000000000000000000000000000000000002D2D2D00BEBEBEBEBEBE002D2D2D000000002D00000000000000000000000000000000000000000000000000000000000000000000000000000000000000000000DC0000BE00000000000000000000000000000000000000000000000000000000
310
0000000000000000000000000000000000000000000000000000000000000000000000000000000000000000000000000000000000000000BE0000DC00000000000000000000000000002D00000000000000000000000000000000000000000000000000000000BEBEBEBEBE00000000000000000000000000000000000000
310
0000000000000000002D000000000000000000000000000000000000000000002D000000BEBEBEBEBEBE00000000000000002D00000000000000000000000000000000000000000000000000000000000000000000000000000000000000000000DC0000BE0000000000000000000000000000000000000000000000000000
310
00000000000000000000000000000000000000000000000000000000000000000000000000000000000000000000000000000000000000000000BE0000DC00000000000000000000000000002D00000000000000000000000000000000000000000000000000000000BEBEBEBE000000000000000000000000000000000000
310
00000000000000000000002D000000000000000000000000000000000000000000002D000000BEBEBEBEBEBE00000000000000002D00000000000000000000000000000000000000000000000000000000000000000000000000000000000000000000DC0000BE000000000000000000000000000000000000000000000000
310
000000000000000000000000000000000000000000000000000000000000000000000000000000000000000000000000000000000000000000000000BE0000DC00000000000000000000000000002D000000000000000000000000000000000000000000000000000000000000000000000000000000000000000000000000
310
000000000000000000000000002D000000000000000000000000000000000000000000002D00000000000000000000000000000000002D00000000000000000000000000000000000000000000000000000000000000000000000000000000000000000000DC0000BE00000000000000000000000000000000000000000000
310
0000000000000000000000000000000000000000000000000000000000000000000000000000000000000000000000000000000000000000000000000000BE0000DC00000000000000000000000000002D2D2D2D2D2D2D2D2D2D2D2D2D2D2D2D2D2D2D2D2D2D2D2D2D2D2D2D2DBEBEBEBEBE2D2D2D2D2D2D2D2D2D2D2D2D2D
310
2D2D2D2D2D2D2D2D2D2D2D2D2D2D2DF5000000000000000000000000000000000000000000002D2D2D2D2D2D2D2DBEBEBEBE2D2D2D2D2D2DF500000000000000000000000000000000000000000000000000000000000000000000000000000000000000000000DC0000BE0000000000000000000000000000000000000000
310
00000000000000000000000000000000000000000000000000000000000000000000000000000000000000000000000000000000000000000000000000000000BE0000DC00000000000000000000000000000000000000000000000000000000000000000000000000000000000000BEBEBEBEBE0000000000000000000000
310
000000000000000000000000000000000000000000000000000000000000000000000000000000000000000000000000BEBEBEBE0000000000000000000000000000000000000000000000000000000000000000000000000000000000000000000000000000000000DC0000BE000000000000000000000000000000000000
310
000000000000000000000000000000000000000000000000000000000000000000000000000000000000000000000000000000000000000000000000000000000000BE0000DC00000000000000000000000000000000000000000000000000000000000000000000000000000000000000BEBEBEBEBE000000000000000000
310
0000000000000000000000000000000000000000000000000000000000000000000000000000000000000000000000000000BEBEBEBE0000000000000000000000000000000000000000000000000000000000000000000000000000000000000000000000000000000000DC0000BE00000000000000000000000000000000
310
0000000000000000000000000000000000000000000000000000000000000000000000000000000000000000000000000000000000000000000000000000000000000000BE0000DC00000000000000000000000000000000000000000000000000000000000000000000000000000000000000000000000000000000000000
310
00000000000000000000000000000000000000000000000000000000000000000000000000000000000000000000000000000000000000000000000000000000000000000000000000000000000000000000000000000000000000000000000000000000000000000000000000DC0000BE0000000000000000000000000000
310
00000000000000000000000000000000000000000000000000000000000000000000000000000000000000000000000000000000000000000000000000000000000000000000BE0000DC0000000000000000000000000000000000000000000000000000000000000000000000000000000000000000000000000000000000
310
000000000000000000000000000000000000000000000000000000000000000000000000000000000000000000000000000000000000000000000000000000000000000000000000000000000000000000000000000000000000000000000000000000000000000000000000000000DC0000BE000000000000000000000000
310
000000000000000000000000000000000000000000000000000000000000000000000000000000000000000000000000000000000000000000000000000000000000000000000000BE0000DC000000000000000000000000000000000000000000000000000000000000000000000000000000000000000000000000000000
310
0000000000000000000000000000000000000000000000000000000000000000000000000000000000000000000000000000000000000000000000000000000000000000000000000000000000000000000000000000000000000000000000000000000000000000000000000000000000DC0000BE00000000000000000000
310
0000000000000000000000000000000000000000000000000000000000000000000000000000000000000000000000000000000000000000000000000000000000000000000000000000BE0000DC00000000000000000000000000000000000000000000000000000000000000000000000000000000000000000000000000
310
00000000000000000000000000000000000000000000000000000000000000000000000000000000000000000000000000000000000000000000000000000000000000000000000000000000000000000000000000000000000000000000000000000000000000000000000000000000000000DC0000BE0000000000000000
310
00000000000000000000000000000000000000000000000000000000000000000000000000000000000000000000000000000000000000000000000000000000000000000000000000000000BE0000DC0000000000000000000000000000000000000000000000000000000000000000000000000000000000000000000000
310
000000000000000000000000000000000000000000000000000000000000000000000000000000000000000000000000000000000000000000000000000000000000000000000000000000000000000000000000000000000000000000000000000000000000000000000000000000000000000000DC0000BE000000000000
310
000000000000000000000000000000000000000000000000000000000000000000000000000000000000000000000000000000000000000000000000000000000000000000000000000000000000BE0000DC000000000000000000000000000000000000000000000000000000000000000000000000000000000000000000
310
0000000000000000000000000000000000000000000000000000000000000000000000000000000000000000000000000000000000000000000000000000000000000000000000000000000000000000000000000000000000000000000000000000000000000000000000000000000000000000000000DC0000BE00000000
310
0000000000000000000000000000000000000000000000000000000000000000000000000000000000000000000000000000000000000000000000000000000000000000000000000000000000000000BE0000DC00000000000000000000000000000000000000000000000000000000000000000000000000000000000000
310
00000000000000000000000000000000000000000000000000000000000000000000000000000000000000000000000000000000000000000000000000000000000000000000000000000000000000000000000000000000000000000000000000000000000000000000000000000000000000000000000000DC0000BE0000
310
00000000000000000000000000000000000000000000000000000000000000000000000000000000000000000000000000000000000000000000000000000000000000000000000000000000000000000000BE0000DC0000000000000000000000000000000000000000000000000000000000000000000000000000000000
310
000000000000000000000000000000000000000000000000000000000000000000000000000000000000000000000000000000000000000000000000000000000000000000000000000000000000000000000000000000000000000000000000000000000000000000000000000000000000000000000000000000DC0000BE
310
000000000000000000000000000000000000000000000000000000000000000000000000000000000000000000000000000000000000000000000000000000000000000000000000000000000000000000000000BE0000DC000000000000000000000000000000000000000000000000000000000000000000000000000000
310
0000000000000000000000000000000000000000000000000000000000000000000000000000000000000000000000000000000000000000000000000000000000000000000000000000000000000000000000000000000000000000000000000000000000000000000000000000000000000000000000000000000000DC00
310
00BE000000000000000000000000000000000000000000000000000000000000000000000000000000000000000000000000000000000000000000000000000000000000000000000000000000000000000000000000BE0000DC00000000000000000000000000000000000000000000000000000000000000000000000000
310
00000000000000000000000000000000000000000000000000000000000000000000000000000000000000000000000000000000000000000000000000000000000000000000000000000000000000000000000000000000000000000000000000000000000000000000000000000000000000000000000000000000000000
310
DC0000BE000000000000000000000000000000000000000000000000000000000000000000000000000000000000000000000000000000000000000000000000000000000000000000000000000000000000000000000000BE0000DCDCDCDCDCDCDCDCDCDCDCDCDCDCDCDCDCDCDCDCDCDCDCDCDCDCDCDCDCDCDCDCDCDCDCDC
310
DCDCDCDCDCDCDCDCDCDCDCDCDCDCDCDCDCDCDCDCDCDCDCDCDCDCDCDCDCDCDCDCDCDCDCDCDCDCDCDCDCDCDCDCDCDCDCDCDCDCDCDCDCDCDCDCDCDCDCDCDCDCDCDCDCDCDCDCDCDCDCDCDCDCDCDCDCDCDCDCDCDCDCDCDCDCDCDCDCDCDCDCDCDCDCDCDCDCDCDCDCDCDCDCDCDCDCDCDCDCDCDCDCDCDCDCDCDCDCDCDCDCDCDCDCDCDC
310
DCDCDC0000BE000000000000000000000000000000000000000000000000000000000000000000000000000000000000000000000000000000000000000000000000000000000000000000000000000000000000000000000000BE000000000000000000000000000000000000000000000000000000000000000000000000
310
00000000000000000000000000000000000000000000000000000000000000000000000000000000000000000000000000000000000000000000000000000000000000000000000000000000000000000000000000000000000000000000000000000000000000000000000000000000000000000000000000000000000000
310
00000000000000BE000000000000000000000000000000000000000000000000000000000000000000000000000000000000000000000000000000000000000000000000000000000000000000000000000000000000000000000000BE00000000000000000000000000000000000000000000000000000000000000000000
310
00000000000000000000000000000000000000000000000000000000000000000000000000000000000000000000000000000000000000000000000000000000000000000000000000000000000000000000000000000000000000000000000000000000000000000000000000000000000000000000000000000000000000
310
000000000000000000BE000000000000000000000000000000000000000000000000000000000000000000000000000000000000000000000000000000000000000000000000000000000000000000000000000000000000000000000000BE0000000000000000000000000000000000000000000000000000000000000000
310
00000000000000000000000000000000000000000000000000000000000000000000000000000000000000000000000000000000000000000000000000000000000000000000000000000000000000000000000000000000000000000000000000000000000000000000000000000000000000000000000000000000000000
310
0000000000000000000000BE000000000000000000000000000000000000000000000000000000000000000000000000000000000000000000000000000000000000000000000000000000000000000000000000000000000000000000000000BEBEBEBEBEBEBEBEBEBEBEBEBEBEBEBEBEBEBEBEBEBEBEBEBEBEBEBEBEBEBE
310
BEBEBEBEBEBEBEBEBEBEBEBEBEBEBEBEBEBEBEBEBEBEBEBEBEBEBEBEBEBEBEBEBEBEBEBEBEBEBEBEBEBEBEBEBEBEBEBEBEBEBEBEBEBEBEBEBEBEBEBEBEBEBEBEBEBEBEBEBEBEBEBEBEBEBEBEBEBEBEBEBEBEBEBEBEBEBEBEBEBEBEBEBEBEBEBEBEBEBEBEBEBEBEBEBEBEBEBEBEBEBEBEBEBEBEBEBEBEBEBEBEBEBEBEBEBEBE
310
BEBEBEBEBEBEBEBEBEBEBEBEBEBE0000000000000000000000000000000000000000000000000000000000000000000000000000000000000000000000000000000000000000000000000000000000000000000000000000000000000000000000000000000000000000000000000000000000000000000000000000000000
310
00000000000000000000000000000000000000000000000000000000000000000000000000000000000000000000000000000000000000000000000000000000000000000000000000000000000000000000000000000000000000000000000000000000000000000000000000000000000000000000000000000000000000
310
00000000000000000000000000000000000000000000000000000000000000000000000000000000000000000000000000000000000000000000000000000000000000000000000000000000000000000000000000000000000000000000000000000000000000000000000000000000000000000000000000000000000000
310
00000000000000000000000000000000000000000000000000000000000000000000000000000000000000000000000000000000000000000000000000000000000000000000000000000000000000000000000000000000000000000000000000000000000000000000000000000000000000000000000000000000000000
310
00000000000000000000000000000000000000000000000000000000000000000000000000000000000000000000000000000000000000000000000000000000000000000000000000000000000000000000000000000000000000000000000000000000000000000000000000000000000000000000000000000000000000
310
00000000000000000000000000000000000000000000000000000000000000000000000000000000000000000000000000000000000000000000000000000000000000000000000000000000000000000000000000000000000000000000000000000000000000000000000000000000000000000000000000000000000000
310
00000000000000000000000000000000000000000000000000000000000000000000000000000000000000000000000000000000000000000000000000000000000000000000000000000000000000000000000000000000000000000000000000000000000000000000000000000000000000000000000000000000000000
310
00000000000000000000000000000000000000000000000000000000000000000000000000000000000000000000000000000000000000000000000000000000000000000000000000000000000000000000000000000000000000000000000000000000000000000000000000000000000000000000000000000000000000
310
00000000000000000000000000000000000000000000000000000000000000000000000000000000000000000000000000000000000000000000000000000000000000000000000000000000000000000000000000000000000000000000000000000000000000000000000000000000000000000000000000000000000000
310
00000000000000000000000000000000000000000000000000000000000000000000000000000000000000000000000000000000000000000000000000000000000000000000000000000000000000000000000000000000000000000000000000000000000000000000000000000000000000000000000000000000000000
310
00000000000000000000000000000000000000000000000000000000000000000000000000000000000000000000000000000000000000000000000000000000000000000000000000000000000000000000000000000000000000000000000000000000000000000000000000000000000000000000000000000000000000
310
00000000000000000000000000000000000000000000000000000000000000000000000000000000000000000000000000000000000000000000000000000000000000000000000000000000000000000000000000000000000000000000000000000000000000000000000000000000000000000000000000000000000000
310
00000000000000000000000000000000000000000000000000000000000000000000000000000000000000000000000000000000000000000000000000000000000000000000000000000000000000000000000000000000000000000000000000000000000000000000000000000000000000000000000000000000000000
310
00000000000000000000000000000000000000000000000000000000000000000000000000000000000000000000000000000000000000000000000000000000000000000000000000000000000000000000000000000000000000000000000000000000000000000000000000000000000000000000000000000000000000
310
00000000000000000000000000000000000000000000000000000000000000000000000000000000000000000000000000000000000000000000000000000000000000000000000000000000000000000000000000000000000000000000000000000000000000000000000000000000000000000000000000000000000000
310
00000000000000000000000000000000000000000000000000000000000000000000000000000000000000000000000000000000000000000000000000000000000000000000000000000000000000000000000000000000000000000000000000000000000000000000000000000000000000000000000000000000000000
310
00000000000000000000000000000000000000000000000000000000000000000000000000000000000000000000000000000000000000000000000000000000000000000000000000000000000000000000000000000000000000000000000000000000000000000000000000000000000000000000000000000000000000
310
00000000000000000000000000000000000000000000000000000000000000000000000000000000000000000000000000000000000000000000000000000000000000000000000000000000000000000000000000000000000000000000000000000000000000000000000000000000000000000000000000000000000000
310
00000000000000000000000000000000000000000000000000000000000000000000000000000000000000000000000000000000000000000000000000000000000000000000000000000000000000000000000000000000000000000000000000000000000000000000000000000000000000000000000000000000000000
310
00000000000000000000000000000000000000000000000000000000000000000000000000000000000000000000000000000000000000000000000000000000000000000000000000000000000000000000000000000000000000000000000000000000000000000000000000000000000000000000000000000000000000
310
00000000000000000000000000000000000000000000000000000000000000000000000000000000000000000000000000000000000000000000000000000000000000000000000000000000000000000000000000000000000000000000000000000000000000000000000000000000000000000000000000000000000000
310
00000000000000000000000000000000000000000000000000000000000000000000000000000000000000000000000000000000000000000000000000000000000000000000000000000000000000000000000000000000000000000000000000000000000000000000000000000000000000000000000000000000000000
310
00000000000000000000000000000000000000000000000000000000000000000000000000000000000000000000000000000000000000000000000000000000000000000000000000000000000000000000000000000000000000000000000000000000000000000000000000000000000000000000000000000000000000
310
00000000000000000000000000000000000000000000000000000000000000000000000000000000000000000000000000000000000000000000000000000000000000000000000000000000000000000000000000000000000000000000000000000000000000000000000000000000000000000000000000000000000000
310
00000000000000000000000000000000000000000000000000000000000000000000000000000000000000000000000000000000000000000000000000000000000000000000000000000000000000000000000000000000000000000000000000000000000000000000000000000000000000000000000000000000000000
310
00000000000000000000000000000000000000000000000000000000000000000000000000000000000000000000000000000000000000000000000000000000000000000000000000000000000000000000000000000000000000000000000000000000000000000000000000000000000000000000000000000000000000
310
00000000000000000000000000000000000000000000000000000000000000000000000000000000000000000000000000000000000000000000000000000000000000000000000000000000000000000000000000000000000000000000000000000000000000000000000000000000000000000000000000000000000000
310
00000000000000000000000000000000000000000000000000000000000000000000000000000000000000000000000000000000000000000000000000000000000000000000000000000000000000000000000000000000000000000000000000000000000000000000000000000000000000000000000000000000000000
310
00000000000000000000000000000000000000000000000000000000000000000000000000000000000000000000000000000000000000000000000000000000000000000000000000000000000000000000000000000000000000000000000000000000000000000000000000000000000000000000000000000000000000
310
00000000000000000000000000000000000000000000000000000000000000000000000000000000000000000000000000000000000000000000000000000000000000000000000000000000000000000000000000000000000000000000000000000000000000000000000000000000000000000000000000000000000000
310
00000000000000000000000000000000000000000000000000000000000000000000000000000000000000000000000000000000000000000000000000000000000000000000000000000000000000000000000000000000000000000000000000000000000000000000000000000000000000000000000000000000000000
310
00000000000000000000000000000000000000000000000000000000000000000000000000000000000000000000000000000000000000000000000000000000000000000000000000000000000000000000000000000000000000000000000000000000000000000000000000000000000000000000000000000000000000
310
0000000000000000000000000000000000000000000000000000000000000000000000000000000000000000000000000000000000000000000000000000000000000000000000000000000000000000
  0
XRECORD
  5
44
102
{ACAD_REACTORS
330
43
102
}
330
43
100
AcDbXrecord
280
     1
270
     1
271
     1
  0
XRECORD
  5
45
102
{ACAD_REACTORS
330
43
102
}
330
43
100
AcDbXrecord
280
     1
270
     1
271
     1
  0
XRECORD
  5
46
102
{ACAD_REACTORS
330
43
102
}
330
43
100
AcDbXrecord
280
     1
270
     1
271
     1
  0
XRECORD
  5
47
102
{ACAD_REACTORS
330
43
102
}
330
43
100
AcDbXrecord
280
     1
270
     1
271
     1
  0
XRECORD
  5
48
102
{ACAD_REACTORS
330
43
102
}
330
43
100
AcDbXrecord
280
     1
270
     1
271
     1
  0
XRECORD
  5
49
102
{ACAD_REACTORS
330
43
102
}
330
43
100
AcDbXrecord
280
     1
270
     1
271
     1
  0
XRECORD
  5
3C
102
{ACAD_REACTORS
330
3B
102
}
330
3B
100
AcDbXrecord
280
     1
270
     1
271
     1
  0
XRECORD
  5
3D
102
{ACAD_REACTORS
330
3B
102
}
330
3B
100
AcDbXrecord
280
     1
270
     1
271
     1
  0
XRECORD
  5
3E
102
{ACAD_REACTORS
330
3B
102
}
330
3B
100
AcDbXrecord
280
     1
270
     1
271
     1
  0
XRECORD
  5
3F
102
{ACAD_REACTORS
330
3B
102
}
330
3B
100
AcDbXrecord
280
     1
270
     1
271
     1
  0
XRECORD
  5
40
102
{ACAD_REACTORS
330
3B
102
}
330
3B
100
AcDbXrecord
280
     1
270
     1
271
     1
  0
XRECORD
  5
41
102
{ACAD_REACTORS
330
3B
102
}
330
3B
100
AcDbXrecord
280
     1
270
     1
271
     1
  0
XRECORD
  5
F
102
{ACAD_REACTORS
330
E
102
}
330
E
100
AcDbXrecord
280
     1
270
     1
271
     1
  0
XRECORD
  5
10
102
{ACAD_REACTORS
330
E
102
}
330
E
100
AcDbXrecord
280
     1
270
     1
271
     1
  0
XRECORD
  5
11
102
{ACAD_REACTORS
330
E
102
}
330
E
100
AcDbXrecord
280
     1
270
     1
271
     1
  0
XRECORD
  5
12
102
{ACAD_REACTORS
330
E
102
}
330
E
100
AcDbXrecord
280
     1
270
     1
271
     1
  0
XRECORD
  5
13
102
{ACAD_REACTORS
330
E
102
}
330
E
100
AcDbXrecord
280
     1
270
     1
271
     1
  0
XRECORD
  5
14
102
{ACAD_REACTORS
330
E
102
}
330
E
100
AcDbXrecord
280
     1
270
     1
271
     1
  0
CELLSTYLEMAP
  5
314
102
{ACAD_REACTORS
330
53
102
}
330
53
100
AcDbCellStyleMap
 90
        3
300
CELLSTYLE
  1
TABLEFORMAT_BEGIN
 90
        5
170
     1
 91
        0
 92
    32768
 62
   257
 93
        1
300
CONTENTFORMAT
  1
CONTENTFORMAT_BEGIN
 90
        0
 91
        0
 92
      512
 93
        0
300

 40
0.0
140
1.0
 94
        5
 62
     0
340
24
144
6.0
309
CONTENTFORMAT_END
171
     1
301
MARGIN
  1
CELLMARGIN_BEGIN
 40
1.5
 40
1.5
 40
1.5
 40
1.5
 40
4.5
 40
4.5
309
CELLMARGIN_END
 94
        6
 95
        1
302
GRIDFORMAT
  1
GRIDFORMAT_BEGIN
 90
        0
 91
        1
 62
     0
 92
       -2
340
0
 93
        0
 40
1.125
309
GRIDFORMAT_END
 95
        2
302
GRIDFORMAT
  1
GRIDFORMAT_BEGIN
 90
        0
 91
        1
 62
     0
 92
       -2
340
0
 93
        0
 40
1.125
309
GRIDFORMAT_END
 95
        4
302
GRIDFORMAT
  1
GRIDFORMAT_BEGIN
 90
        0
 91
        1
 62
     0
 92
       -2
340
0
 93
        0
 40
1.125
309
GRIDFORMAT_END
 95
        8
302
GRIDFORMAT
  1
GRIDFORMAT_BEGIN
 90
        0
 91
        1
 62
     0
 92
       -2
340
0
 93
        0
 40
1.125
309
GRIDFORMAT_END
 95
       16
302
GRIDFORMAT
  1
GRIDFORMAT_BEGIN
 90
        0
 91
        1
 62
     0
 92
       -2
340
0
 93
        0
 40
1.125
309
GRIDFORMAT_END
 95
       32
302
GRIDFORMAT
  1
GRIDFORMAT_BEGIN
 90
        0
 91
        1
 62
     0
 92
       -2
340
0
 93
        0
 40
1.125
309
GRIDFORMAT_END
309
TABLEFORMAT_END
  1
CELLSTYLE_BEGIN
 90
        1
 91
        1
300
_TITLE
309
CELLSTYLE_END
300
CELLSTYLE
  1
TABLEFORMAT_BEGIN
 90
        5
170
     1
 91
        0
 92
        0
 62
   257
 93
        1
300
CONTENTFORMAT
  1
CONTENTFORMAT_BEGIN
 90
        0
 91
        0
 92
      512
 93
        0
300

 40
0.0
140
1.0
 94
        5
 62
     0
340
24
144
4.5
309
CONTENTFORMAT_END
171
     1
301
MARGIN
  1
CELLMARGIN_BEGIN
 40
1.5
 40
1.5
 40
1.5
 40
1.5
 40
4.5
 40
4.5
309
CELLMARGIN_END
 94
        6
 95
        1
302
GRIDFORMAT
  1
GRIDFORMAT_BEGIN
 90
        0
 91
        1
 62
     0
 92
       -2
340
0
 93
        0
 40
1.125
309
GRIDFORMAT_END
 95
        2
302
GRIDFORMAT
  1
GRIDFORMAT_BEGIN
 90
        0
 91
        1
 62
     0
 92
       -2
340
0
 93
        0
 40
1.125
309
GRIDFORMAT_END
 95
        4
302
GRIDFORMAT
  1
GRIDFORMAT_BEGIN
 90
        0
 91
        1
 62
     0
 92
       -2
340
0
 93
        0
 40
1.125
309
GRIDFORMAT_END
 95
        8
302
GRIDFORMAT
  1
GRIDFORMAT_BEGIN
 90
        0
 91
        1
 62
     0
 92
       -2
340
0
 93
        0
 40
1.125
309
GRIDFORMAT_END
 95
       16
302
GRIDFORMAT
  1
GRIDFORMAT_BEGIN
 90
        0
 91
        1
 62
     0
 92
       -2
340
0
 93
        0
 40
1.125
309
GRIDFORMAT_END
 95
       32
302
GRIDFORMAT
  1
GRIDFORMAT_BEGIN
 90
        0
 91
        1
 62
     0
 92
       -2
340
0
 93
        0
 40
1.125
309
GRIDFORMAT_END
309
TABLEFORMAT_END
  1
CELLSTYLE_BEGIN
 90
        2
 91
        1
300
_HEADER
309
CELLSTYLE_END
300
CELLSTYLE
  1
TABLEFORMAT_BEGIN
 90
        5
170
     1
 91
        0
 92
        0
 62
   257
 93
        1
300
CONTENTFORMAT
  1
CONTENTFORMAT_BEGIN
 90
        0
 91
        0
 92
      512
 93
        0
300

 40
0.0
140
1.0
 94
        2
 62
     0
340
24
144
4.5
309
CONTENTFORMAT_END
171
     1
301
MARGIN
  1
CELLMARGIN_BEGIN
 40
1.5
 40
1.5
 40
1.5
 40
1.5
 40
4.5
 40
4.5
309
CELLMARGIN_END
 94
        6
 95
        1
302
GRIDFORMAT
  1
GRIDFORMAT_BEGIN
 90
        0
 91
        1
 62
     0
 92
       -2
340
0
 93
        0
 40
1.125
309
GRIDFORMAT_END
 95
        2
302
GRIDFORMAT
  1
GRIDFORMAT_BEGIN
 90
        0
 91
        1
 62
     0
 92
       -2
340
0
 93
        0
 40
1.125
309
GRIDFORMAT_END
 95
        4
302
GRIDFORMAT
  1
GRIDFORMAT_BEGIN
 90
        0
 91
        1
 62
     0
 92
       -2
340
0
 93
        0
 40
1.125
309
GRIDFORMAT_END
 95
        8
302
GRIDFORMAT
  1
GRIDFORMAT_BEGIN
 90
        0
 91
        1
 62
     0
 92
       -2
340
0
 93
        0
 40
1.125
309
GRIDFORMAT_END
 95
       16
302
GRIDFORMAT
  1
GRIDFORMAT_BEGIN
 90
        0
 91
        1
 62
     0
 92
       -2
340
0
 93
        0
 40
1.125
309
GRIDFORMAT_END
 95
       32
302
GRIDFORMAT
  1
GRIDFORMAT_BEGIN
 90
        0
 91
        1
 62
     0
 92
       -2
340
0
 93
        0
 40
1.125
309
GRIDFORMAT_END
309
TABLEFORMAT_END
  1
CELLSTYLE_BEGIN
 90
        3
 91
        2
300
_DATA
309
CELLSTYLE_END
  0
ENDSEC
  0
EOF
