  0
SECTION
  2
HEADER
  9
$ACADVER
  1
AC1024
  9
$ACADMAINTVER
 70
    37
  9
$DWGCODEPAGE
  3
ANSI_1252
  9
$INSBASE
 10
0.0
 20
0.0
 30
0.0
  9
$EXTMIN
 10
0.0000751223549855
 20
-0.0000020128974256
 30
0.0
  9
$EXTMAX
 10
2100.000075122355
 20
2969.999997987103
 30
0.0
  9
$LIMMIN
 10
0.0000751223549855
 20
-0.0000020128974256
  9
$LIMMAX
 10
2100.000075122355
 20
2969.999997987103
  9
$ORTHOMODE
 70
     0
  9
$REGENMODE
 70
     1
  9
$FILLMODE
 70
     1
  9
$QTEXTMODE
 70
     0
  9
$MIRRTEXT
 70
     0
  9
$LTSCALE
 40
25.0
  9
$ATTMODE
 70
     1
  9
$TEXTSIZE
 40
12.0
  9
$TRACEWID
 40
1.0
  9
$TEXTSTYLE
  7
Standard
  9
$CLAYER
  8
0
  9
$CELTYPE
  6
ByLayer
  9
$CECOLOR
 62
   256
  9
$CELTSCALE
 40
1.0
  9
$DISPSILH
 70
     0
  9
$DIMSCALE
 40
5.0
  9
$DIMASZ
 40
4.0
  9
$DIMEXO
 40
1.0
  9
$DIMDLI
 40
10.0
  9
$DIMRND
 40
0.0
  9
$DIMDLE
 40
0.0
  9
$DIMEXE
 40
1.0
  9
$DIMTP
 40
0.0
  9
$DIMTM
 40
0.0
  9
$DIMTXT
 40
5.0
  9
$DIMCEN
 40
0.0
  9
$DIMTSZ
 40
0.0
  9
$DIMTOL
 70
     0
  9
$DIMLIM
 70
     0
  9
$DIMTIH
 70
     0
  9
$DIMTOH
 70
     0
  9
$DIMSE1
 70
     0
  9
$DIMSE2
 70
     0
  9
$DIMTAD
 70
     1
  9
$DIMZIN
 70
     8
  9
$DIMBLK
  1

  9
$DIMASO
 70
     1
  9
$DIMSHO
 70
     1
  9
$DIMPOST
  1

  9
$DIMAPOST
  1

  9
$DIMALT
 70
     0
  9
$DIMALTD
 70
     3
  9
$DIMALTF
 40
0.03937007874016
  9
$DIMLFAC
 40
1.0
  9
$DIMTOFL
 70
     1
  9
$DIMTVP
 40
0.0
  9
$DIMTIX
 70
     0
  9
$DIMSOXD
 70
     0
  9
$DIMSAH
 70
     0
  9
$DIMBLK1
  1

  9
$DIMBLK2
  1

  9
$DIMSTYLE
  2
Wagner
  9
$DIMCLRD
 70
     4
  9
$DIMCLRE
 70
     4
  9
$DIMCLRT
 70
     1
  9
$DIMTFAC
 40
1.0
  9
$DIMGAP
 40
1.0
  9
$DIMJUST
 70
     0
  9
$DIMSD1
 70
     0
  9
$DIMSD2
 70
     0
  9
$DIMTOLJ
 70
     0
  9
$DIMTZIN
 70
     8
  9
$DIMALTZ
 70
     0
  9
$DIMALTTZ
 70
     0
  9
$DIMUPT
 70
     0
  9
$DIMDEC
 70
     8
  9
$DIMTDEC
 70
     8
  9
$DIMALTU
 70
     2
  9
$DIMALTTD
 70
     3
  9
$DIMTXSTY
  7
Standard
  9
$DIMAUNIT
 70
     0
  9
$DIMADEC
 70
     2
  9
$DIMALTRND
 40
0.0
  9
$DIMAZIN
 70
     2
  9
$DIMDSEP
 70
    46
  9
$DIMATFIT
 70
     3
  9
$DIMFRAC
 70
     0
  9
$DIMLDRBLK
  1

  9
$DIMLUNIT
 70
     2
  9
$DIMLWD
 70
    -2
  9
$DIMLWE
 70
    -2
  9
$DIMTMOVE
 70
     0
  9
$DIMFXL
 40
1.0
  9
$DIMFXLON
 70
     0
  9
$DIMJOGANG
 40
0.7853981633974483
  9
$DIMTFILL
 70
     0
  9
$DIMTFILLCLR
 70
     0
  9
$DIMARCSYM
 70
     0
  9
$DIMLTYPE
  6

  9
$DIMLTEX1
  6

  9
$DIMLTEX2
  6

  9
$DIMTXTDIRECTION
 70
     0
  9
$LUNITS
 70
     2
  9
$LUPREC
 70
     4
  9
$SKETCHINC
 40
1.0
  9
$FILLETRAD
 40
0.0
  9
$AUNITS
 70
     0
  9
$AUPREC
 70
     0
  9
$MENU
  1
.
  9
$ELEVATION
 40
0.0
  9
$PELEVATION
 40
0.0
  9
$THICKNESS
 40
0.0
  9
$LIMCHECK
 70
     0
  9
$CHAMFERA
 40
0.0
  9
$CHAMFERB
 40
0.0
  9
$CHAMFERC
 40
0.0
  9
$CHAMFERD
 40
0.0
  9
$SKPOLY
 70
     0
  9
$TDCREATE
 40
2455650.486231134
  9
$TDUCREATE
 40
2455650.402897801
  9
$TDUPDATE
 40
2457221.676726227
  9
$TDUUPDATE
 40
2457221.593392894
  9
$TDINDWG
 40
3.7644711690
  9
$TDUSRTIMER
 40
3.7644711690
  9
$USRTIMER
 70
     1
  9
$ANGBASE
 50
0.0
  9
$ANGDIR
 70
     0
  9
$PDMODE
 70
     0
  9
$PDSIZE
 40
0.0
  9
$PLINEWID
 40
0.0
  9
$SPLFRAME
 70
     0
  9
$SPLINETYPE
 70
     6
  9
$SPLINESEGS
 70
     8
  9
$HANDSEED
  5
383
  9
$SURFTAB1
 70
     6
  9
$SURFTAB2
 70
     6
  9
$SURFTYPE
 70
     6
  9
$SURFU
 70
     6
  9
$SURFV
 70
     6
  9
$UCSBASE
  2

  9
$UCSNAME
  2

  9
$UCSORG
 10
0.0
 20
0.0
 30
0.0
  9
$UCSXDIR
 10
1.0
 20
0.0
 30
0.0
  9
$UCSYDIR
 10
0.0
 20
1.0
 30
0.0
  9
$UCSORTHOREF
  2

  9
$UCSORTHOVIEW
 70
     0
  9
$UCSORGTOP
 10
0.0
 20
0.0
 30
0.0
  9
$UCSORGBOTTOM
 10
0.0
 20
0.0
 30
0.0
  9
$UCSORGLEFT
 10
0.0
 20
0.0
 30
0.0
  9
$UCSORGRIGHT
 10
0.0
 20
0.0
 30
0.0
  9
$UCSORGFRONT
 10
0.0
 20
0.0
 30
0.0
  9
$UCSORGBACK
 10
0.0
 20
0.0
 30
0.0
  9
$PUCSBASE
  2

  9
$PUCSNAME
  2

  9
$PUCSORG
 10
0.0
 20
0.0
 30
0.0
  9
$PUCSXDIR
 10
1.0
 20
0.0
 30
0.0
  9
$PUCSYDIR
 10
0.0
 20
1.0
 30
0.0
  9
$PUCSORTHOREF
  2

  9
$PUCSORTHOVIEW
 70
     0
  9
$PUCSORGTOP
 10
0.0
 20
0.0
 30
0.0
  9
$PUCSORGBOTTOM
 10
0.0
 20
0.0
 30
0.0
  9
$PUCSORGLEFT
 10
0.0
 20
0.0
 30
0.0
  9
$PUCSORGRIGHT
 10
0.0
 20
0.0
 30
0.0
  9
$PUCSORGFRONT
 10
0.0
 20
0.0
 30
0.0
  9
$PUCSORGBACK
 10
0.0
 20
0.0
 30
0.0
  9
$USERI1
 70
     0
  9
$USERI2
 70
     0
  9
$USERI3
 70
     0
  9
$USERI4
 70
     0
  9
$USERI5
 70
     0
  9
$USERR1
 40
0.0
  9
$USERR2
 40
0.0
  9
$USERR3
 40
0.0
  9
$USERR4
 40
0.0
  9
$USERR5
 40
0.0
  9
$WORLDVIEW
 70
     1
  9
$SHADEDGE
 70
     3
  9
$SHADEDIF
 70
    70
  9
$TILEMODE
 70
     1
  9
$MAXACTVP
 70
    64
  9
$PINSBASE
 10
0.0
 20
0.0
 30
0.0
  9
$PLIMCHECK
 70
     0
  9
$PEXTMIN
 10
0.0
 20
0.0
 30
0.0
  9
$PEXTMAX
 10
0.0
 20
0.0
 30
0.0
  9
$PLIMMIN
 10
0.0
 20
0.0
  9
$PLIMMAX
 10
12.0
 20
9.0
  9
$UNITMODE
 70
     0
  9
$VISRETAIN
 70
     1
  9
$PLINEGEN
 70
     0
  9
$PSLTSCALE
 70
     1
  9
$TREEDEPTH
 70
  3020
  9
$CMLSTYLE
  2
Standard
  9
$CMLJUST
 70
     0
  9
$CMLSCALE
 40
20.0
  9
$PROXYGRAPHICS
 70
     1
  9
$MEASUREMENT
 70
     1
  9
$CELWEIGHT
370
    -1
  9
$ENDCAPS
280
     0
  9
$JOINSTYLE
280
     0
  9
$LWDISPLAY
290
     0
  9
$INSUNITS
 70
     4
  9
$HYPERLINKBASE
  1

  9
$STYLESHEET
  1

  9
$XEDIT
290
     1
  9
$CEPSNTYPE
380
     0
  9
$PSTYLEMODE
290
     1
  9
$FINGERPRINTGUID
  2
{6CD4A0BE-13EC-4918-B67D-C806972F1AED}
  9
$VERSIONGUID
  2
{54D65FA9-CE89-403A-8784-8A8BABAC9DA8}
  9
$EXTNAMES
290
     1
  9
$PSVPSCALE
 40
0.0
  9
$OLESTARTUP
290
     0
  9
$SORTENTS
280
   127
  9
$INDEXCTL
280
     0
  9
$HIDETEXT
280
     1
  9
$XCLIPFRAME
280
     0
  9
$HALOGAP
280
     0
  9
$OBSCOLOR
 70
   257
  9
$OBSLTYPE
280
     0
  9
$INTERSECTIONDISPLAY
280
     0
  9
$INTERSECTIONCOLOR
 70
   257
  9
$DIMASSOC
280
     2
  9
$PROJECTNAME
  1

  9
$CAMERADISPLAY
290
     0
  9
$LENSLENGTH
 40
50.0
  9
$CAMERAHEIGHT
 40
0.0
  9
$STEPSPERSEC
 40
2.0
  9
$STEPSIZE
 40
6.0
  9
$3DDWFPREC
 40
2.0
  9
$PSOLWIDTH
 40
5.0
  9
$PSOLHEIGHT
 40
80.0
  9
$LOFTANG1
 40
1.570796326794896
  9
$LOFTANG2
 40
1.570796326794896
  9
$LOFTMAG1
 40
0.0
  9
$LOFTMAG2
 40
0.0
  9
$LOFTPARAM
 70
     7
  9
$LOFTNORMALS
280
     1
  9
$LATITUDE
 40
37.795
  9
$LONGITUDE
 40
-122.394
  9
$NORTHDIRECTION
 40
0.0
  9
$TIMEZONE
 70
 -8000
  9
$LIGHTGLYPHDISPLAY
280
     1
  9
$TILEMODELIGHTSYNCH
280
     1
  9
$CMATERIAL
347
3A
  9
$SOLIDHIST
280
     1
  9
$SHOWHIST
280
     1
  9
$DWFFRAME
280
     2
  9
$DGNFRAME
280
     0
  9
$REALWORLDSCALE
290
     1
  9
$INTERFERECOLOR
 62
     1
  9
$INTERFEREOBJVS
345
43
  9
$INTERFEREVPVS
346
44
  9
$CSHADOW
280
     0
  9
$SHADOWPLANELOCATION
 40
0.0
  0
ENDSEC
  0
SECTION
  2
CLASSES
  0
CLASS
  1
ACDBDICTIONARYWDFLT
  2
AcDbDictionaryWithDefault
  3
ObjectDBX Classes
 90
        0
 91
        1
280
     0
281
     0
  0
CLASS
  1
DICTIONARYVAR
  2
AcDbDictionaryVar
  3
ObjectDBX Classes
 90
        0
 91
        5
280
     0
281
     0
  0
CLASS
  1
TABLESTYLE
  2
AcDbTableStyle
  3
ObjectDBX Classes
 90
     4095
 91
        1
280
     0
281
     0
  0
CLASS
  1
MATERIAL
  2
AcDbMaterial
  3
ObjectDBX Classes
 90
     1153
 91
        3
280
     0
281
     0
  0
CLASS
  1
VISUALSTYLE
  2
AcDbVisualStyle
  3
ObjectDBX Classes
 90
     4095
 91
        3
280
     0
281
     0
  0
CLASS
  1
SCALE
  2
AcDbScale
  3
ObjectDBX Classes
 90
     1153
 91
       33
280
     0
281
     0
  0
CLASS
  1
MLEADERSTYLE
  2
AcDbMLeaderStyle
  3
ACDB_MLEADERSTYLE_CLASS
 90
     4095
 91
        0
280
     0
281
     0
  0
CLASS
  1
CELLSTYLEMAP
  2
AcDbCellStyleMap
  3
ObjectDBX Classes
 90
     1152
 91
        1
280
     0
281
     0
  0
CLASS
  1
SORTENTSTABLE
  2
AcDbSortentsTable
  3
ObjectDBX Classes
 90
        0
 91
        4
280
     0
281
     0
  0
CLASS
  1
ACAD_EVALUATION_GRAPH
  2
AcDbEvalGraph
  3
ObjectDBX Classes
 90
     1153
 91
        0
280
     0
281
     0
  0
CLASS
  1
BLOCKBASEPOINTPARAMETER
  2
AcDbBlockBasepointParameter
  3
ObjectDBX Classes
 90
     1153
 91
        0
280
     0
281
     0
  0
CLASS
  1
ACDB_DYNAMICBLOCKPURGEPREVENTER_VERSION
  2
AcDbDynamicBlockPurgePreventer
  3
ObjectDBX Classes
 90
     1153
 91
        0
280
     0
281
     0
  0
CLASS
  1
ACDB_BLOCKREPRESENTATION_DATA
  2
AcDbBlockRepresentationData
  3
ObjectDBX Classes
 90
     1153
 91
        0
280
     0
281
     0
  0
CLASS
  1
AEC_REFEDIT_STATUS_TRACKER
  2
AecDbRefEditStatusTracker
  3
AecArchBase60|Product Desc: Autodesk Architectural Desktop 2007 |Company: Autodesk,Inc. |WEB Address: www.autodesk.com
 90
      129
 91
        0
280
     0
281
     0
  0
CLASS
  1
NPOCOLLECTION
  2
AcDbImpNonPersistentObjectsCollection
  3
ObjectDBX Classes
 90
     1153
 91
        0
280
     0
281
     0
  0
CLASS
  1
DIMASSOC
  2
AcDbDimAssoc
  3
"AcDbDimAssoc|Product Desc:     AcDim ARX App For Dimension|Company:          Autodesk, Inc.|WEB Address:      www.autodesk.com"
 90
        0
 91
       15
280
     0
281
     0
  0
CLASS
  1
ACAECUSTOBJ
  2
AcAeEditorObj
  3
AcAeEditorObj
 90
     1024
 91
        0
280
     1
281
     0
  0
CLASS
  1
ARC_DIMENSION
  2
AcDbArcDimension
  3
ObjectDBX Classes
 90
     1025
 91
        0
280
     0
281
     1
  0
CLASS
  1
BASEPOINTPARAMETERENTITY
  2
AcDbBlockBasepointParameterEntity
  3
ObjectDBX Classes
 90
     1025
 91
        0
280
     0
281
     1
  0
CLASS
  1
ACAEEEMGROBJ
  2
AcAeEEMgrObj
  3
AcAeEEMgrObj
 90
     1024
 91
        0
280
     0
281
     0
  0
ENDSEC
  0
SECTION
  2
TABLES
  0
TABLE
  2
VPORT
  5
2C
330
0
100
AcDbSymbolTable
 70
     1
  0
VPORT
  5
2D
330
2C
100
AcDbSymbolTableRecord
100
AcDbViewportTableRecord
  2
*Active
 70
     0
 10
0.0
 20
0.0
 11
1.0
 21
1.0
 12
1283.689792510054
 22
1614.474733715803
 13
0.0
 23
0.0
 14
10.0
 24
10.0
 15
10.0
 25
10.0
 16
0.0
 26
0.0
 36
1.0
 17
0.0
 27
0.0
 37
0.0
 40
3253.574733897735
 41
1.804901960784313
 42
50.0
 43
0.0
 44
0.0
 50
0.0
 51
0.0
 71
     0
 72
  1000
 73
     1
 74
     2
 75
     0
 76
     0
 77
     0
 78
     0
281
     0
 65
     1
110
0.0
120
0.0
130
0.0
111
1.0
121
0.0
131
0.0
112
0.0
122
1.0
132
0.0
 79
     0
146
0.0
348
2E
 60
     2
 61
     5
292
     1
282
     1
141
0.0
142
0.0
 63
   250
421
  3355443
  0
ENDTAB
  0
TABLE
  2
LTYPE
  5
27
330
0
100
AcDbSymbolTable
 70
     3
  0
LTYPE
  5
28
330
27
100
AcDbSymbolTableRecord
100
AcDbLinetypeTableRecord
  2
ByBlock
 70
     0
  3

 72
    65
 73
     0
 40
0.0
  0
LTYPE
  5
29
330
27
100
AcDbSymbolTableRecord
100
AcDbLinetypeTableRecord
  2
ByLayer
 70
     0
  3

 72
    65
 73
     0
 40
0.0
  0
LTYPE
  5
14
330
27
100
AcDbSymbolTableRecord
100
AcDbLinetypeTableRecord
  2
Continuous
 70
     0
  3
Solid line
 72
    65
 73
     0
 40
0.0
  0
LTYPE
  5
70
330
27
100
AcDbSymbolTableRecord
100
AcDbLinetypeTableRecord
  2
STRICHPUNKT
 70
     0
  3
__ . __ . __ . __ . __ . __ . __ . __ . __ . __
 72
    65
 73
     4
 40
1.0
 49
0.5
 74
     0
 49
-0.25
 74
     0
 49
0.0
 74
     0
 49
-0.25
 74
     0
  0
LTYPE
  5
289
330
27
100
AcDbSymbolTableRecord
100
AcDbLinetypeTableRecord
  2
AUSGEZOGEN
 70
     0
  3
Ausgezogene Linie
 72
    65
 73
     0
 40
0.0
  0
ENDTAB
  0
TABLE
  2
LAYER
  5
1F
102
{ACAD_XDICTIONARY
360
20
102
}
330
0
100
AcDbSymbolTable
 70
    10
  0
LAYER
  5
6
102
{ACAD_XDICTIONARY
360
7
102
}
330
1F
100
AcDbSymbolTableRecord
100
AcDbLayerTableRecord
  2
0
 70
     0
 62
     7
  6
Continuous
370
    -3
390
9
347
C
  0
LAYER
  5
82
330
1F
100
AcDbSymbolTableRecord
100
AcDbLayerTableRecord
  2
DEFPOINTS
 70
     0
 62
     7
  6
Continuous
290
     0
370
    -3
390
9
347
C
  0
LAYER
  5
35F
102
{ACAD_XDICTIONARY
360
360
102
}
330
1F
100
AcDbSymbolTableRecord
100
AcDbLayerTableRecord
  2
10-98
 70
     0
 62
     4
  6
Continuous
370
    -3
390
9
347
C
  0
LAYER
  5
6D
102
{ACAD_XDICTIONARY
360
6E
102
}
330
1F
100
AcDbSymbolTableRecord
100
AcDbLayerTableRecord
  2
05-01
 70
     0
 62
     1
  6
STRICHPUNKT
370
    -3
390
9
347
C
  0
LAYER
  5
282
102
{ACAD_XDICTIONARY
360
283
102
}
330
1F
100
AcDbSymbolTableRecord
100
AcDbLayerTableRecord
  2
01-99
 70
     0
 62
     2
  6
Continuous
370
    -3
390
9
347
C
  0
LAYER
  5
2BD
102
{ACAD_XDICTIONARY
360
2BE
102
}
330
1F
100
AcDbSymbolTableRecord
100
AcDbLayerTableRecord
  2
06-99
 70
     0
 62
     1
  6
AUSGEZOGEN
370
    -3
390
9
347
C
  0
LAYER
  5
2A8
102
{ACAD_XDICTIONARY
360
2A9
102
}
330
1F
100
AcDbSymbolTableRecord
100
AcDbLayerTableRecord
  2
08-99
 70
     0
 62
     7
  6
Continuous
370
    -3
390
9
347
C
  0
LAYER
  5
67
102
{ACAD_XDICTIONARY
360
68
102
}
330
1F
100
AcDbSymbolTableRecord
100
AcDbLayerTableRecord
  2
02-01
 70
     0
 62
     1
  6
Continuous
370
    -3
390
9
347
C
  0
LAYER
  5
302
102
{ACAD_XDICTIONARY
360
303
102
}
330
1F
100
AcDbSymbolTableRecord
100
AcDbLayerTableRecord
  2
09-01
 70
     0
 62
     7
  6
Continuous
370
    -3
390
9
347
C
  0
LAYER
  5
287
102
{ACAD_XDICTIONARY
360
288
102
}
330
1F
100
AcDbSymbolTableRecord
100
AcDbLayerTableRecord
  2
02-99
 70
     0
 62
     1
  6
AUSGEZOGEN
370
    -3
390
9
347
C
  0
ENDTAB
  0
TABLE
  2
STYLE
  5
24
330
0
100
AcDbSymbolTable
 70
     4
  0
STYLE
  5
25
330
24
100
AcDbSymbolTableRecord
100
AcDbTextStyleTableRecord
  2
Standard
 70
     0
 40
0.0
 41
1.0
 50
0.0
 71
     0
 42
12.0
  3
txt.shx
  4

  0
STYLE
  5
2AA
330
24
100
AcDbSymbolTableRecord
100
AcDbTextStyleTableRecord
  2
ROMANS8
 70
     0
 40
0.0
 41
1.0
 50
0.0
 71
     0
 42
2.5
  3
ROMANS8
  4

  0
STYLE
  5
2CF
330
24
100
AcDbSymbolTableRecord
100
AcDbTextStyleTableRecord
  2
ROMAND8
 70
     0
 40
0.0
 41
1.0
 50
0.0
 71
     0
 42
3.5
  3
ROMAND8
  4

  0
STYLE
  5
27A
330
24
100
AcDbSymbolTableRecord
100
AcDbTextStyleTableRecord
  2
ISO
 70
     0
 40
0.0
 41
0.9
 50
0.0
 71
     0
 42
7.0
  3
isocp.shx
  4

  0
ENDTAB
  0
TABLE
  2
VIEW
  5
2A
330
0
100
AcDbSymbolTable
 70
     0
  0
ENDTAB
  0
TABLE
  2
UCS
  5
2B
330
0
100
AcDbSymbolTable
 70
     0
  0
ENDTAB
  0
TABLE
  2
APPID
  5
30
330
0
100
AcDbSymbolTable
 70
     5
  0
APPID
  5
13
330
30
100
AcDbSymbolTableRecord
100
AcDbRegAppTableRecord
  2
ACAD
 70
     0
  0
APPID
  5
1A
330
30
100
AcDbSymbolTableRecord
100
AcDbRegAppTableRecord
  2
ACAD_PSEXT
 70
     0
  0
APPID
  5
34
330
30
100
AcDbSymbolTableRecord
100
AcDbRegAppTableRecord
  2
ACAD_DSTYLE_DIMJAG
 70
     0
  0
APPID
  5
35
330
30
100
AcDbSymbolTableRecord
100
AcDbRegAppTableRecord
  2
ACAD_DSTYLE_DIMTALN
 70
     0
  0
APPID
  5
33
330
30
100
AcDbSymbolTableRecord
100
AcDbRegAppTableRecord
  2
ACAD_DSTYLE_DIMJOGGED_JOGANGLE_SYMBOL
 70
     0
  0
ENDTAB
  0
TABLE
  2
DIMSTYLE
  5
31
330
0
100
AcDbSymbolTable
 70
     2
100
AcDbDimStyleTable
 71
     1
340
32
  0
DIMSTYLE
105
32
102
{ACAD_REACTORS
330
2FF
330
314
330
FF
330
F0
102
}
330
31
100
AcDbSymbolTableRecord
100
AcDbDimStyleTableRecord
  2
Wagner
 70
     0
 41
2.5
 42
1.0
 43
10.0
 44
1.0
 73
     0
 74
     0
 77
     1
 78
     8
 79
     2
140
2.5
141
0.0
143
0.03937007874016
147
1.0
171
     3
172
     1
176
     4
177
     4
178
     1
179
     2
271
     8
272
     8
274
     3
283
     0
284
     8
340
25
1001
ACAD_DSTYLE_DIMJOGGED_JOGANGLE_SYMBOL
1070
   384
1040
0.7853981633974483
1001
ACAD_DSTYLE_DIMJAG
1070
   388
1040
1.5
1001
ACAD_DSTYLE_DIMTALN
1070
   392
1070
     0
  0
DIMSTYLE
105
86
102
{ACAD_REACTORS
330
327
330
336
330
11E
330
10F
330
E1
330
D2
330
C3
330
B4
330
A5
330
96
330
87
330
74
102
}
330
31
100
AcDbSymbolTableRecord
100
AcDbDimStyleTableRecord
  2
Wagner$0
 70
     0
 41
2.5
 42
1.0
 43
10.0
 44
1.0
 73
     0
 74
     0
 77
     1
 78
     8
 79
     2
140
2.5
141
0.0
143
0.03937007874016
147
1.0
171
     3
172
     1
174
     1
176
     4
177
     4
178
     1
179
     2
271
     8
272
     8
274
     3
279
     2
283
     0
284
     8
340
25
1001
ACAD_DSTYLE_DIMJOGGED_JOGANGLE_SYMBOL
1070
   384
1040
0.7853981633974483
1001
ACAD_DSTYLE_DIMJAG
1070
   388
1040
1.5
1001
ACAD_DSTYLE_DIMTALN
1070
   392
1070
     0
  0
ENDTAB
  0
TABLE
  2
BLOCK_RECORD
  5
1
330
0
100
AcDbSymbolTable
 70
    17
  0
BLOCK_RECORD
  5
2
102
{ACAD_XDICTIONARY
360
3
102
}
330
1
100
AcDbSymbolTableRecord
100
AcDbBlockTableRecord
  2
*Model_Space
340
16
 70
     0
280
     1
281
     0
  0
BLOCK_RECORD
  5
1B
330
1
100
AcDbSymbolTableRecord
100
AcDbBlockTableRecord
  2
*Paper_Space
340
1E
 70
     0
280
     1
281
     0
  0
BLOCK_RECORD
  5
339
330
1
100
AcDbSymbolTableRecord
100
AcDbBlockTableRecord
  2
*D0
340
0
 70
     0
280
     1
281
     0
  0
BLOCK_RECORD
  5
32A
330
1
100
AcDbSymbolTableRecord
100
AcDbBlockTableRecord
  2
*D1
340
0
 70
     0
280
     1
281
     0
  0
BLOCK_RECORD
  5
317
330
1
100
AcDbSymbolTableRecord
100
AcDbBlockTableRecord
  2
*D2
340
0
 70
     0
280
     1
281
     0
  0
BLOCK_RECORD
  5
304
330
1
100
AcDbSymbolTableRecord
100
AcDbBlockTableRecord
  2
*D3
340
0
 70
     0
280
     1
281
     0
  0
BLOCK_RECORD
  5
27D
102
{ACAD_XDICTIONARY
360
27E
102
}
330
1
100
AcDbSymbolTableRecord
100
AcDbBlockTableRecord
  2
DIN A4
340
0
102
{BLKREFS
331
27C
102
}
 70
     4
280
     1
281
     0
  0
BLOCK_RECORD
  5
88
330
1
100
AcDbSymbolTableRecord
100
AcDbBlockTableRecord
  2
*D5
340
0
 70
     0
280
     1
281
     0
  0
BLOCK_RECORD
  5
121
330
1
100
AcDbSymbolTableRecord
100
AcDbBlockTableRecord
  2
*D6
340
0
 70
     0
280
     1
281
     0
  0
BLOCK_RECORD
  5
112
330
1
100
AcDbSymbolTableRecord
100
AcDbBlockTableRecord
  2
*D7
340
0
 70
     0
280
     1
281
     0
  0
BLOCK_RECORD
  5
102
330
1
100
AcDbSymbolTableRecord
100
AcDbBlockTableRecord
  2
*D8
340
0
 70
     0
280
     1
281
     0
  0
BLOCK_RECORD
  5
F3
330
1
100
AcDbSymbolTableRecord
100
AcDbBlockTableRecord
  2
*D9
340
0
 70
     0
280
     1
281
     0
  0
BLOCK_RECORD
  5
E4
330
1
100
AcDbSymbolTableRecord
100
AcDbBlockTableRecord
  2
*D10
340
0
 70
     0
280
     1
281
     0
  0
BLOCK_RECORD
  5
D5
330
1
100
AcDbSymbolTableRecord
100
AcDbBlockTableRecord
  2
*D11
340
0
 70
     0
280
     1
281
     0
  0
BLOCK_RECORD
  5
C6
330
1
100
AcDbSymbolTableRecord
100
AcDbBlockTableRecord
  2
*D12
340
0
 70
     0
280
     1
281
     0
  0
BLOCK_RECORD
  5
B7
330
1
100
AcDbSymbolTableRecord
100
AcDbBlockTableRecord
  2
*D13
340
0
 70
     0
280
     1
281
     0
  0
BLOCK_RECORD
  5
A8
330
1
100
AcDbSymbolTableRecord
100
AcDbBlockTableRecord
  2
*D14
340
0
 70
     0
280
     1
281
     0
  0
BLOCK_RECORD
  5
99
330
1
100
AcDbSymbolTableRecord
100
AcDbBlockTableRecord
  2
*D15
340
0
 70
     0
280
     1
281
     0
  0
BLOCK_RECORD
  5
77
330
1
100
AcDbSymbolTableRecord
100
AcDbBlockTableRecord
  2
*D16
340
0
 70
     0
280
     1
281
     0
  0
ENDTAB
  0
ENDSEC
  0
SECTION
  2
BLOCKS
  0
BLOCK
  5
5
330
2
100
AcDbEntity
  8
0
100
AcDbBlockBegin
  2
*Model_Space
 70
     0
 10
0.0
 20
0.0
 30
0.0
  3
*Model_Space
  1

  0
ENDBLK
  5
15
330
2
100
AcDbEntity
  8
0
100
AcDbBlockEnd
  0
BLOCK
  5
1C
330
1B
100
AcDbEntity
 67
     1
  8
0
100
AcDbBlockBegin
  2
*Paper_Space
 70
     0
 10
0.0
 20
0.0
 30
0.0
  3
*Paper_Space
  1

  0
ENDBLK
  5
1D
330
1B
100
AcDbEntity
 67
     1
  8
0
100
AcDbBlockEnd
  0
BLOCK
  5
33A
330
339
100
AcDbEntity
  8
0
100
AcDbBlockBegin
  2
*D0
 70
     1
 10
0.0
 20
0.0
 30
0.0
  3
*D0
  1

  0
LINE
  5
33B
330
339
100
AcDbEntity
  8
09-01
 62
     4
440
 16777216
370
    -2
100
AcDbLine
 10
1739.578072942523
 20
942.0034403748905
 30
0.0
 11
1863.152991493799
 21
942.0034403748903
 31
0.0
  0
LINE
  5
33C
330
339
100
AcDbEntity
  8
09-01
 62
     4
440
 16777216
370
    -2
100
AcDbLine
 10
1739.578072942523
 20
899.0034403748976
 30
0.0
 11
1863.152991493799
 21
899.0034403748976
 31
0.0
  0
LINE
  5
33D
330
339
100
AcDbEntity
  8
09-01
 62
     4
440
 16777216
370
    -2
100
AcDbLine
 10
1858.152991493799
 20
962.0034403748903
 30
0.0
 11
1858.152991493799
 21
982.0034403748904
 31
0.0
  0
LINE
  5
33E
330
339
100
AcDbEntity
  8
09-01
 62
     4
440
 16777216
370
    -2
100
AcDbLine
 10
1858.152991493799
 20
879.0034403748975
 30
0.0
 11
1858.152991493799
 21
859.0034403748976
 31
0.0
  0
MTEXT
  5
33F
330
339
100
AcDbEntity
  8
09-01
 62
     1
440
 16777216
100
AcDbMText
 10
1836.512833868199
 20
995.7788369317613
 30
0.0
 40
25.0
 41
0.0
 46
0.0
 71
     5
 72
     1
  1
8.6
 11
0.0000000000000001
 21
1.0
 31
0.0
 73
     1
 44
1.0
  0
LINE
  5
340
330
339
100
AcDbEntity
  8
09-01
 62
     4
440
 16777216
370
    -2
100
AcDbLine
 10
1858.152991493799
 20
942.0034403748903
 30
0.0
 11
1858.152991493799
 21
899.0034403748976
 31
0.0
  0
SOLID
  5
341
330
339
100
AcDbEntity
  8
09-01
 62
     4
440
 16777216
100
AcDbTrace
 10
1854.819658160465
 20
962.0034403748903
 30
0.0
 11
1861.486324827132
 21
962.0034403748903
 31
0.0
 12
1858.152991493799
 22
942.0034403748903
 32
0.0
 13
1858.152991493799
 23
942.0034403748903
 33
0.0
  0
SOLID
  5
342
330
339
100
AcDbEntity
  8
09-01
 62
     4
440
 16777216
100
AcDbTrace
 10
1854.819658160465
 20
879.0034403748975
 30
0.0
 11
1861.486324827132
 21
879.0034403748975
 31
0.0
 12
1858.152991493799
 22
899.0034403748976
 32
0.0
 13
1858.152991493799
 23
899.0034403748976
 33
0.0
  0
POINT
  5
343
330
339
100
AcDbEntity
  8
DEFPOINTS
 62
     0
440
 16777216
100
AcDbPoint
 10
1734.578072942523
 20
942.0034403748905
 30
0.0
  0
POINT
  5
344
330
339
100
AcDbEntity
  8
DEFPOINTS
 62
     0
440
 16777216
100
AcDbPoint
 10
1734.578072942523
 20
899.0034403748976
 30
0.0
  0
POINT
  5
345
330
339
100
AcDbEntity
  8
DEFPOINTS
 62
     0
440
 16777216
100
AcDbPoint
 10
1858.152991493799
 20
899.0034403748976
 30
0.0
  0
ENDBLK
  5
346
330
339
100
AcDbEntity
  8
0
100
AcDbBlockEnd
  0
BLOCK
  5
32B
330
32A
100
AcDbEntity
  8
0
100
AcDbBlockBegin
  2
*D1
 70
     1
 10
0.0
 20
0.0
 30
0.0
  3
*D1
  1

  0
LINE
  5
32C
330
32A
100
AcDbEntity
  8
09-01
 62
     4
440
 16777216
370
    -2
100
AcDbLine
 10
1484.578072942523
 20
885.0034403748887
 30
0.0
 11
1484.578072942523
 21
669.2661057410386
 31
0.0
  0
LINE
  5
32D
330
32A
100
AcDbEntity
  8
09-01
 62
     4
440
 16777216
370
    -2
100
AcDbLine
 10
1734.578072942523
 20
885.0034403748887
 30
0.0
 11
1734.578072942523
 21
669.2661057410386
 31
0.0
  0
LINE
  5
32E
330
32A
100
AcDbEntity
  8
09-01
 62
     4
440
 16777216
370
    -2
100
AcDbLine
 10
1504.578072942523
 20
674.2661057410387
 30
0.0
 11
1714.578072942523
 21
674.2661057410387
 31
0.0
  0
SOLID
  5
32F
330
32A
100
AcDbEntity
  8
09-01
 62
     4
440
 16777216
100
AcDbTrace
 10
1504.578072942523
 20
677.599439074372
 30
0.0
 11
1504.578072942523
 21
670.9327724077053
 31
0.0
 12
1484.578072942523
 22
674.2661057410387
 32
0.0
 13
1484.578072942523
 23
674.2661057410387
 33
0.0
  0
SOLID
  5
330
330
32A
100
AcDbEntity
  8
09-01
 62
     4
440
 16777216
100
AcDbTrace
 10
1714.578072942523
 20
677.599439074372
 30
0.0
 11
1714.578072942523
 21
670.9327724077053
 31
0.0
 12
1734.578072942523
 22
674.2661057410387
 32
0.0
 13
1734.578072942523
 23
674.2661057410387
 33
0.0
  0
MTEXT
  5
331
330
32A
100
AcDbEntity
  8
09-01
 62
     1
440
 16777216
100
AcDbMText
 10
1609.578072942523
 20
691.7661057410387
 30
0.0
 40
25.0
 41
0.0
 46
0.0
 71
     5
 72
     1
  1
50
 73
     1
 44
1.0
  0
POINT
  5
332
330
32A
100
AcDbEntity
  8
DEFPOINTS
 62
     0
440
 16777216
100
AcDbPoint
 10
1484.578072942523
 20
890.0034403748886
 30
0.0
  0
POINT
  5
333
330
32A
100
AcDbEntity
  8
DEFPOINTS
 62
     0
440
 16777216
100
AcDbPoint
 10
1734.578072942523
 20
890.0034403748886
 30
0.0
  0
POINT
  5
334
330
32A
100
AcDbEntity
  8
DEFPOINTS
 62
     0
440
 16777216
100
AcDbPoint
 10
1734.578072942523
 20
674.2661057410387
 30
0.0
  0
ENDBLK
  5
335
330
32A
100
AcDbEntity
  8
0
100
AcDbBlockEnd
  0
BLOCK
  5
318
330
317
100
AcDbEntity
  8
0
100
AcDbBlockBegin
  2
*D2
 70
     1
 10
0.0
 20
0.0
 30
0.0
  3
*D2
  1

  0
LINE
  5
319
330
317
100
AcDbEntity
  8
09-01
 62
     4
440
 16777216
370
    -2
100
AcDbLine
 10
1475.846502950617
 20
1054.235010366786
 30
0.0
 11
1430.249495503059
 21
1099.832017814343
 31
0.0
  0
LINE
  5
31A
330
317
100
AcDbEntity
  8
09-01
 62
     4
440
 16777216
370
    -2
100
AcDbLine
 10
1416.327903988754
 20
920.50344037489
 30
0.0
 11
1355.969166606564
 21
920.50344037489
 31
0.0
  0
ARC
  5
31B
330
317
100
AcDbEntity
  8
09-01
 62
     4
440
 16777216
370
    -2
100
AcDbCircle
 10
1609.578072942514
 20
920.50344037489
 30
0.0
 40
248.608906335949
100
AcDbArc
 50
139.6105541395751
 51
175.3894458604249
  0
SOLID
  5
31C
330
317
100
AcDbEntity
  8
09-01
 62
     4
440
 16777216
100
AcDbTrace
 10
1417.773266307939
 20
1083.857249466257
 30
0.0
 11
1422.673113321668
 21
1079.336636268194
 31
0.0
 12
1433.785029408993
 22
1096.296483908411
 32
0.0
 13
1433.785029408993
 23
1096.296483908411
 33
0.0
  0
SOLID
  5
31D
330
317
100
AcDbEntity
  8
09-01
 62
     4
440
 16777216
100
AcDbTrace
 10
1365.104278663529
 20
940.3531748665013
 30
0.0
 11
1358.443007365873
 21
940.6213336692136
 31
0.0
 12
1360.969166606564
 22
920.5034403748902
 32
0.0
 13
1360.969166606564
 23
920.5034403748902
 33
0.0
  0
MTEXT
  5
31E
330
317
100
AcDbEntity
  8
09-01
 62
     1
440
 16777216
100
AcDbMText
 10
1363.725500959767
 20
1022.338910034451
 30
0.0
 40
25.0
 41
0.0
 46
0.0
 71
     5
 72
     1
  1
45\U+00B0
 11
0.3826834323650898
 21
0.9238795325112867
 31
0.0
 73
     1
 44
1.0
  0
POINT
  5
31F
330
317
100
AcDbEntity
  8
DEFPOINTS
 62
     0
440
 16777216
100
AcDbPoint
 10
1394.276444448516
 20
1044.807893542864
 30
0.0
  0
POINT
  5
320
330
317
100
AcDbEntity
  8
DEFPOINTS
 62
     0
440
 16777216
100
AcDbPoint
 10
1793.703072942522
 20
920.50344037489
 30
0.0
  0
POINT
  5
321
330
317
100
AcDbEntity
  8
DEFPOINTS
 62
     0
440
 16777216
100
AcDbPoint
 10
1739.774109028494
 20
790.307404288909
 30
0.0
  0
POINT
  5
322
330
317
100
AcDbEntity
  8
DEFPOINTS
 62
     0
440
 16777216
100
AcDbPoint
 10
1479.38203685655
 20
1050.699476460853
 30
0.0
  0
POINT
  5
323
330
317
100
AcDbEntity
  8
DEFPOINTS
 62
     0
440
 16777216
100
AcDbPoint
 10
1421.327903988754
 20
920.5034403748902
 30
0.0
  0
ENDBLK
  5
324
330
317
100
AcDbEntity
  8
0
100
AcDbBlockEnd
  0
BLOCK
  5
305
330
304
100
AcDbEntity
  8
0
100
AcDbBlockBegin
  2
*D3
 70
     1
 10
0.0
 20
0.0
 30
0.0
  3
*D3
  1

  0
LINE
  5
306
330
304
100
AcDbEntity
  8
09-01
 62
     4
440
 16777216
370
    -2
100
AcDbLine
 10
1609.578072942522
 20
1109.628440374894
 30
0.0
 11
1609.578072942522
 21
1230.770194203826
 31
0.0
  0
LINE
  5
307
330
304
100
AcDbEntity
  8
09-01
 62
     4
440
 16777216
370
    -2
100
AcDbLine
 10
1416.327903988754
 20
920.5034403748904
 30
0.0
 11
1299.311319113587
 21
920.5034403748902
 31
0.0
  0
ARC
  5
308
330
304
100
AcDbEntity
  8
09-01
 62
     4
440
 16777216
370
    -2
100
AcDbCircle
 10
1609.578072942522
 20
920.5034403748905
 30
0.0
 40
305.2667538289352
100
AcDbArc
 50
93.75448889305083
 51
176.2455111069492
  0
SOLID
  5
309
330
304
100
AcDbEntity
  8
09-01
 62
     4
440
 16777216
100
AcDbTrace
 10
1589.479612726397
 20
1228.446573857749
 30
0.0
 11
1589.698000958429
 21
1221.783485157713
 31
0.0
 12
1609.578072942523
 22
1225.770194203826
 32
0.0
 13
1609.578072942523
 23
1225.770194203826
 33
0.0
  0
SOLID
  5
30A
330
304
100
AcDbEntity
  8
09-01
 62
     4
440
 16777216
100
AcDbTrace
 10
1308.2980281597
 20
940.3835123589841
 30
0.0
 11
1301.634939459663
 21
940.6019005910156
 31
0.0
 12
1304.311319113587
 22
920.50344037489
 32
0.0
 13
1304.311319113587
 23
920.50344037489
 33
0.0
  0
MTEXT
  5
30B
330
304
100
AcDbEntity
  8
09-01
 62
     1
440
 16777216
100
AcDbMText
 10
1381.347512568513
 20
1148.734000748899
 30
0.0
 40
25.0
 41
0.0
 46
0.0
 71
     5
 72
     1
  1
90\U+00B0
 11
0.7071067811865476
 21
0.7071067811865475
 31
0.0
 73
     1
 44
1.0
  0
POINT
  5
30C
330
304
100
AcDbEntity
  8
DEFPOINTS
 62
     0
440
 16777216
100
AcDbPoint
 10
1456.944696028055
 20
1184.872204121559
 30
0.0
  0
POINT
  5
30D
330
304
100
AcDbEntity
  8
DEFPOINTS
 62
     0
440
 16777216
100
AcDbPoint
 10
1793.703072942522
 20
920.5034403748907
 30
0.0
  0
POINT
  5
30E
330
304
100
AcDbEntity
  8
DEFPOINTS
 62
     0
440
 16777216
100
AcDbPoint
 10
1609.578072942523
 20
736.3784403748868
 30
0.0
  0
POINT
  5
30F
330
304
100
AcDbEntity
  8
DEFPOINTS
 62
     0
440
 16777216
100
AcDbPoint
 10
1609.578072942523
 20
1104.628440374894
 30
0.0
  0
POINT
  5
310
330
304
100
AcDbEntity
  8
DEFPOINTS
 62
     0
440
 16777216
100
AcDbPoint
 10
1421.327903988754
 20
920.5034403748904
 30
0.0
  0
ENDBLK
  5
311
330
304
100
AcDbEntity
  8
0
100
AcDbBlockEnd
  0
BLOCK
  5
280
330
27D
100
AcDbEntity
  8
0
100
AcDbBlockBegin
  2
DIN A4
 70
     2
 10
0.0
 20
0.0
 30
0.0
  3
DIN A4
  1

  0
LINE
  5
281
330
27D
100
AcDbEntity
  8
01-99
100
AcDbLine
 10
204.0000075739527
 20
290.9999979434973
 30
0.0
 11
20.0000075739529
 21
290.9999979434973
 31
0.0
  0
LINE
  5
284
330
27D
100
AcDbEntity
  8
01-99
100
AcDbLine
 10
204.0000075122353
 20
290.9999979871026
 30
0.0
 11
204.0000075122355
 21
5.999997987102574
 31
0.0
  0
LINE
  5
285
330
27D
100
AcDbEntity
  8
01-99
100
AcDbLine
 10
20.0000075122355
 20
5.99999798710246
 30
0.0
 11
20.0000075122355
 21
290.9999979871026
 31
0.0
  0
LWPOLYLINE
  5
286
330
27D
100
AcDbEntity
  8
02-99
100
AcDbPolyline
 90
        4
 70
     1
 43
0.0
 10
0.0000075122354986
 20
-0.0000020128974256
 10
210.0000075122355
 20
-0.0000020128974256
 10
210.0000075122355
 20
296.9999979871026
 10
0.0000075122354986
 20
296.9999979871026
  0
LINE
  5
28A
330
27D
100
AcDbEntity
  8
01-99
100
AcDbLine
 10
20.0000075122355
 20
5.99999798710246
 30
0.0
 11
204.0000075122355
 21
5.999997987102631
 31
0.0
  0
LINE
  5
28B
330
27D
100
AcDbEntity
  8
01-99
100
AcDbLine
 10
70.0000075122355
 20
11.11110909810247
 30
0.0
 11
20.0000075122355
 21
11.11110909810247
 31
0.0
  0
LINE
  5
28C
330
27D
100
AcDbEntity
  8
01-99
100
AcDbLine
 10
70.0000075122355
 20
16.22222020910249
 30
0.0
 11
20.0000075122355
 21
16.22222020910249
 31
0.0
  0
LINE
  5
28D
330
27D
100
AcDbEntity
  8
01-99
100
AcDbLine
 10
70.0000075122355
 20
21.3333313201025
 30
0.0
 11
20.0000075122355
 21
21.33333132010244
 31
0.0
  0
LINE
  5
28E
330
27D
100
AcDbEntity
  8
01-99
100
AcDbLine
 10
115.0000075122355
 20
26.44444243110252
 30
0.0
 11
20.0000075122355
 21
26.44444243110246
 31
0.0
  0
LINE
  5
28F
330
27D
100
AcDbEntity
  8
01-99
100
AcDbLine
 10
115.0000075122355
 20
31.55555354210253
 30
0.0
 11
20.0000075122355
 21
31.55555354210247
 31
0.0
  0
LINE
  5
290
330
27D
100
AcDbEntity
  8
01-99
100
AcDbLine
 10
45.0000075122355
 20
5.99999798710246
 30
0.0
 11
45.0000075122355
 21
11.11110909810247
 31
0.0
  0
LINE
  5
291
330
27D
100
AcDbEntity
  8
01-99
100
AcDbLine
 10
28.0000075122355
 20
11.11110909810247
 30
0.0
 11
28.0000075122355
 21
36.66666465376915
 31
0.0
  0
LINE
  5
292
330
27D
100
AcDbEntity
  8
01-99
100
AcDbLine
 10
70.0000075122355
 20
5.99999798710246
 30
0.0
 11
70.0000075122355
 21
51.99999798710246
 31
0.0
  0
LINE
  5
293
330
27D
100
AcDbEntity
  8
01-99
100
AcDbLine
 10
115.0000075122355
 20
5.99999798710246
 30
0.0
 11
115.0000075122355
 21
51.99999798710246
 31
0.0
  0
LINE
  5
294
330
27D
100
AcDbEntity
  8
01-99
100
AcDbLine
 10
144.5000075122355
 20
5.99999798710246
 30
0.0
 11
144.5000075122355
 21
16.22222020910254
 31
0.0
  0
LINE
  5
295
330
27D
100
AcDbEntity
  8
01-99
100
AcDbLine
 10
177.0000075122355
 20
5.99999798710246
 30
0.0
 11
177.0000075122355
 21
16.2222202091026
 31
0.0
  0
LINE
  5
296
330
27D
100
AcDbEntity
  8
01-99
100
AcDbLine
 10
148.5000075122355
 20
36.6666646537692
 30
0.0
 11
148.5000075122355
 21
51.99999798710257
 31
0.0
  0
LINE
  5
297
330
27D
100
AcDbEntity
  8
01-99
100
AcDbLine
 10
182.0000075122355
 20
36.6666646537692
 30
0.0
 11
182.0000075122355
 21
51.99999798710257
 31
0.0
  0
LINE
  5
298
330
27D
100
AcDbEntity
  8
01-99
100
AcDbLine
 10
78.00000751223549
 20
21.33333132043583
 30
0.0
 11
78.00000751223549
 21
36.6666646537692
 31
0.0
  0
LINE
  5
299
330
27D
100
AcDbEntity
  8
01-99
100
AcDbLine
 10
60.00319585166497
 20
11.11110909810247
 30
0.0
 11
60.00319585166497
 21
36.66666465376915
 31
0.0
  0
LINE
  5
29A
330
27D
100
AcDbEntity
  8
01-99
100
AcDbLine
 10
48.00319585166497
 20
11.11110909810247
 30
0.0
 11
48.00319585166497
 21
36.66666465376915
 31
0.0
  0
LINE
  5
29B
330
27D
100
AcDbEntity
  8
01-99
100
AcDbLine
 10
204.0000075122355
 20
51.99999798710257
 30
0.0
 11
20.00000751223368
 21
51.99999798710246
 31
0.0
  0
LINE
  5
29C
330
27D
100
AcDbEntity
  8
01-99
100
AcDbLine
 10
115.0000075122355
 20
21.33333132043583
 30
0.0
 11
70.0000075122355
 21
21.33333132043583
 31
0.0
  0
LINE
  5
29D
330
27D
100
AcDbEntity
  8
01-99
100
AcDbLine
 10
115.0000075122355
 20
36.6666646537692
 30
0.0
 11
20.0000075122355
 21
36.66666465376909
 31
0.0
  0
LINE
  5
29E
330
27D
100
AcDbEntity
  8
01-99
100
AcDbLine
 10
92.0000075122355
 20
21.33333132043583
 30
0.0
 11
92.0000075122355
 21
51.99999798710251
 31
0.0
  0
LINE
  5
29F
330
27D
100
AcDbEntity
  8
01-99
100
AcDbLine
 10
70.0000075122355
 20
36.66666465376915
 30
0.0
 11
78.00000751223549
 21
31.55555355376919
 31
0.0
  0
LINE
  5
2A0
330
27D
100
AcDbEntity
  8
01-99
100
AcDbLine
 10
70.0000075122355
 20
31.55555355376919
 30
0.0
 11
78.00000751223549
 21
36.6666646537692
 31
0.0
  0
LINE
  5
2A1
330
27D
100
AcDbEntity
  8
01-99
100
AcDbLine
 10
204.0000075122355
 20
44.33333132043583
 30
0.0
 11
115.0000075122355
 21
44.33333132043578
 31
0.0
  0
LINE
  5
2A2
330
27D
100
AcDbEntity
  8
01-99
100
AcDbLine
 10
115.0000075122355
 20
16.22222020910249
 30
0.0
 11
204.0000075122355
 21
16.2222202091026
 31
0.0
  0
LINE
  5
2A3
330
27D
100
AcDbEntity
  8
01-99
100
AcDbLine
 10
115.0000075122355
 20
36.6666646537692
 30
0.0
 11
204.0000075122355
 21
36.66666465376926
 31
0.0
  0
LINE
  5
2A4
330
27D
100
AcDbEntity
  8
01-99
100
AcDbLine
 10
92.0000075122355
 20
41.77777576510249
 30
0.0
 11
70.0000075122355
 21
41.77777576510249
 31
0.0
  0
LINE
  5
2A5
330
27D
100
AcDbEntity
  8
01-99
100
AcDbLine
 10
92.0000075122355
 20
46.8888868761025
 30
0.0
 11
70.0000075122355
 21
46.88888687610244
 31
0.0
  0
LINE
  5
2A6
330
27D
100
AcDbEntity
  8
01-99
100
AcDbLine
 10
20.00000751223368
 20
51.99999798710246
 30
0.0
 11
20.00000751223368
 21
5.99999798710246
 31
0.0
  0
TEXT
  5
2A7
330
27D
100
AcDbEntity
  8
08-99
100
AcDbText
 10
116.4997086805418
 20
32.66987169496042
 30
0.0
 40
2.5
  1
Benennung/Teil:
 51
15.0
  7
ROMANS8
100
AcDbText
  0
TEXT
  5
2AB
330
27D
100
AcDbEntity
  8
08-99
100
AcDbText
 10
178.5028349598029
 20
12.01760068133313
 30
0.0
 40
2.7
  1
Ident-Nr.
 51
15.0
  7
ROMANS8
100
AcDbText
  0
TEXT
  5
2AC
330
27D
100
AcDbEntity
  8
08-99
100
AcDbText
 10
93.50002924540357
 20
33.0555749488849
 30
0.0
 40
2.5
  1
Name:
 51
15.0
  7
ROMANS8
100
AcDbText
  0
TEXT
  5
2AD
330
27D
100
AcDbEntity
  8
08-99
100
AcDbText
 10
79.50777665478042
 20
33.04841594810694
 30
0.0
 40
2.5
  1
Datum:
 50
0.102528160689452
 41
0.8933771909280748
 51
15.0
  7
ROMANS8
 72
     5
 11
90.67497366186243
 21
33.06839915456692
 31
0.0
100
AcDbText
  0
TEXT
  5
2AE
330
27D
100
AcDbEntity
  8
08-99
100
AcDbText
 10
29.50001559397086
 20
33.05597508608236
 30
0.0
 40
1.6
  1
Änderung:
 51
15.0
  7
ROMANS8
100
AcDbText
  0
TEXT
  5
2AF
330
27D
100
AcDbEntity
  8
08-99
100
AcDbText
 10
46.49994558798837
 20
9.111117286264914
 30
0.0
 40
1.0
  1
ERSETZT.DURCH:
 51
15.0
  7
ROMANS8
100
AcDbText
  0
TEXT
  5
2B0
330
27D
100
AcDbEntity
  8
08-99
100
AcDbText
 10
21.49936832790721
 20
9.110852190038713
 30
0.0
 40
1.0
  1
ERSETZT.FÜR:
 51
15.0
  7
ROMANS8
100
AcDbText
  0
TEXT
  5
2B1
330
27D
100
AcDbEntity
  8
08-99
100
AcDbText
 10
145.9909143543897
 20
12.61295485116625
 30
0.0
 40
2.112
  1
AUFTRAGS.NR.:
 51
15.0
  7
ROMANS8
100
AcDbText
  0
TEXT
  5
2B2
330
27D
100
AcDbEntity
  8
08-99
100
AcDbText
 10
116.5034717172479
 20
12.61092664313281
 30
0.0
 40
2.112
  1
Sonder-Nr:
 51
15.0
  7
ROMANS8
100
AcDbText
  0
TEXT
  5
2B3
330
27D
100
AcDbEntity
  8
08-99
100
AcDbText
 10
99.69631500731376
 20
49.92370649414477
 30
0.0
 40
1.349999999999999
  1
Format
 51
15.0
  7
ROMANS8
100
AcDbText
  0
TEXT
  5
2B4
330
27D
100
AcDbEntity
  8
08-99
100
AcDbText
 10
98.30438725900334
 20
44.6416167802032
 30
0.0
 40
1.822499999999999
  1
Normen
 51
15.0
  7
ROMANS8
100
AcDbText
  0
TEXT
  5
2B5
330
27D
100
AcDbEntity
  8
08-99
100
AcDbText
 10
21.50003711613706
 20
33.05556582266059
 30
0.0
 40
1.6
  1
Zust.
 51
15.0
  7
ROMANS8
100
AcDbText
  0
TEXT
  5
2B6
330
27D
100
AcDbEntity
  8
08-99
100
AcDbText
 10
49.50318821340468
 20
33.05555723859902
 30
0.0
 40
1.6
  1
Datum:
 51
15.0
  7
ROMANS8
100
AcDbText
  0
TEXT
  5
2B7
330
27D
100
AcDbEntity
  8
08-99
100
AcDbText
 10
61.50322112916754
 20
33.05556204504791
 30
0.0
 40
1.6
  1
Name:
 51
15.0
  7
ROMANS8
100
AcDbText
  0
TEXT
  5
2B8
330
27D
100
AcDbEntity
  8
08-99
100
AcDbText
 10
71.1545619578267
 20
28.03813755505132
 30
0.0
 40
1.6
  1
Erst.
 51
15.0
  7
ROMANS8
100
AcDbText
  0
TEXT
  5
2B9
330
27D
100
AcDbEntity
  8
08-99
100
AcDbText
 10
70.51718787454618
 20
23.1974490465235
 30
0.0
 40
1.6
  1
Bearb.
 51
15.0
  7
ROMANS8
100
AcDbText
  0
TEXT
  5
2BA
330
27D
100
AcDbEntity
  8
08-99
100
AcDbText
 10
149.4308124240035
 20
41.61949547980938
 30
0.0
 40
2.0
  1
Zuschnittsbreite:
 51
15.0
  7
ROMANS8
100
AcDbText
  0
TEXT
  5
2BB
330
27D
100
AcDbEntity
  8
08-99
100
AcDbText
 10
115.9850022862677
 20
41.73762161521608
 30
0.0
 40
2.0
  1
Zuschnittslänge:
 51
15.0
  7
ROMANS8
100
AcDbText
  0
LWPOLYLINE
  5
2BC
330
27D
100
AcDbEntity
  8
06-99
100
AcDbPolyline
 90
      133
 70
     1
 43
0.010692
 10
93.76754732423549
 20
18.87656283643588
 10
94.00905465623557
 20
19.08724513243589
 10
93.92285931623556
 20
19.22625538843579
 10
93.82427194823552
 20
19.35180441643592
 10
93.71363469623569
 20
19.46393854843592
 10
93.59130396023548
 20
19.56271124443577
 10
93.45762188423558
 20
19.64816170843585
 10
93.31293417623559
 20
19.72033627243581
 10
93.15759367223554
 20
19.77928839643584
 10
92.99194251623569
 20
19.82505728443584
 10
92.81632998023557
 20
19.85768926843593
 10
92.63110533623573
 20
19.87723780843589
 10
92.43661429223564
 20
19.88374210843585
 10
92.27568900023554
 20
19.87767974443585
 10
92.11994932823543
 20
19.85975638843581
 10
91.96972672823566
 20
19.83036051643597
 10
91.82535621623562
 20
19.78988773243583
 10
91.68716924423554
 20
19.73873364043595
 10
91.55549013623559
 20
19.67729028043584
 10
91.43066103623565
 20
19.60594969243584
 10
91.31300626823557
 20
19.52510391643579
 10
91.20285728423553
 20
19.43514499243588
 10
91.10055266423561
 20
19.33647208843587
 10
91.00641316823569
 20
19.22947011643589
 10
90.92077737623563
 20
19.11454180843589
 10
90.84397674023561
 20
18.99207207643587
 10
90.77633914823563
 20
18.86245652443591
 10
90.71819961623559
 20
18.72608719243584
 10
90.66988603223562
 20
18.58336324843583
 10
90.63172984823566
 20
18.43466960443584
 10
90.60406964423547
 20
18.28040542843581
 10
90.5872261802356
 20
18.12095919643588
 10
90.58154160023562
 20
17.95672651243586
 10
90.58715490023557
 20
17.78762184043592
 10
90.60380590823573
 20
17.62428728443586
 10
90.63119524823539
 20
17.46704004043585
 10
90.66902354423545
 20
17.31619374043578
 10
90.71699498423553
 20
17.17206201643586
 10
90.77481375623566
 20
17.03495850043589
 10
90.84218404823563
 20
16.90519326043585
 10
90.91880648423559
 20
16.78308349243582
 10
91.00438525223561
 20
16.66893926443583
 10
91.09862810423559
 20
16.56307777243586
 10
91.2012285362355
 20
16.46580908443587
 10
91.31190142823554
 20
16.37745039643579
 10
91.43034027623562
 20
16.29831177643592
 10
91.55625283223551
 20
16.2287068564359
 10
91.6893397202355
 20
16.16895283243582
 10
91.82930869223552
 20
16.11935977243587
 10
91.9758568082357
 20
16.08024130843591
 10
92.1286953842355
 20
16.05191107243593
 10
92.28751791623555
 20
16.03468269643588
 10
92.45203572023561
 20
16.02886981243591
 10
92.61603318023563
 20
16.03412314843587
 10
92.77336596023557
 20
16.0497619804359
 10
92.92384516823554
 20
16.07559385243587
 10
93.06728191223546
 20
16.11142630843591
 10
93.20349086423565
 20
16.15707045643586
 10
93.33227956823547
 20
16.21233740443585
 10
93.45346269623556
 20
16.27703469643586
 10
93.56684422823562
 20
16.35097700443589
 10
93.67224596423559
 20
16.43397187243585
 10
93.76946832023557
 20
16.52582328043587
 10
93.85832953223555
 20
16.62635302843586
 10
93.93864070823568
 20
16.73535796843583
 10
94.01020939223556
 20
16.85265990043587
 10
94.07284669223557
 20
16.97805924043587
 10
94.12636728023565
 20
17.11137066043579
 10
94.17058226423549
 20
17.25240170443584
 10
94.20529562423556
 20
17.40096348043585
 10
94.23032916023558
 20
17.55686709643589
 10
94.2454868522357
 20
17.71992366043582
 10
94.25057980823547
 20
17.88993715243583
 10
94.25057980823547
 20
17.88993715243583
 10
94.25057980823547
 20
17.94131934043588
 10
92.6164715522356
 20
17.94131934043588
 10
92.6164715522356
 20
17.65354772443584
 10
93.88573312823544
 20
17.65354772443584
 10
93.87499479623548
 20
17.49100437643585
 10
93.84766248023552
 20
17.33635885243586
 10
93.80444185223566
 20
17.19027405643589
 10
93.74603858423554
 20
17.05341645643585
 10
93.67316547623572
 20
16.92644182843588
 10
93.58653176423562
 20
16.81002376843588
 10
93.4868359922356
 20
16.70481448843588
 10
93.37479452423556
 20
16.61148758443585
 10
93.2511130322355
 20
16.53069526843586
 10
93.11649718823563
 20
16.46310757243589
 10
92.9716562282355
 20
16.40938383643583
 10
92.81729938823563
 20
16.37019052843595
 10
92.65413234023563
 20
16.34618698843581
 10
92.48286432023567
 20
16.3380396844359
 10
92.31820395623563
 20
16.34599096843584
 10
92.15990889623553
 20
16.3693743724358
 10
92.00857076423554
 20
16.40748066043585
 10
91.86477762023541
 20
16.45960416043584
 10
91.7291103962356
 20
16.52503563643586
 10
91.60216071623555
 20
16.60306585243592
 10
91.48451307623558
 20
16.69299270043586
 10
91.37675910023554
 20
16.79410338043595
 10
91.27948328423569
 20
16.90569222043587
 10
91.19327012423552
 20
17.02705354843584
 10
91.11871124423558
 20
17.15747456443586
 10
91.05639114023555
 20
17.29625316043587
 10
91.00689787223556
 20
17.44268010043583
 10
90.97081950023541
 20
17.5960425844359
 10
90.94874052023547
 20
17.75564206843597
 10
90.94125255623557
 20
17.92076575243578
 10
90.94763924423572
 20
18.08913980443589
 10
90.96654270023558
 20
18.25115211643583
 10
90.99756375623568
 20
18.40630372843583
 10
91.04030680823555
 20
18.55409924443586
 10
91.09437981623548
 20
18.69404326843585
 10
91.15938361223554
 20
18.82564396843588
 10
91.23492259223556
 20
18.9483988204359
 10
91.32060471623564
 20
19.06181955643586
 10
91.41603081623546
 20
19.16540365243594
 10
91.52081241623548
 20
19.25865927643582
 10
91.63454322023566
 20
19.34108746843589
 10
91.75683831623567
 20
19.41219639643589
 10
91.88729497223542
 20
19.47148710043586
 10
92.02552114823564
 20
19.51846418443586
 10
92.17112480423569
 20
19.55263225243584
 10
92.32370320823568
 20
19.57349947243585
 10
92.48286432023567
 20
19.58056332043588
 10
92.66056892423561
 20
19.57164619243588
 10
92.83032224423564
 20
19.54500885643586
 10
92.99178570023562
 20
19.50081882043588
 10
93.14462071223559
 20
19.43924359243584
 10
93.28848870023561
 20
19.36045780843585
 10
93.42305464823565
 20
19.26462541243592
 10
93.54797997623554
 20
19.15192104043586
 10
93.66292254023566
 20
19.02250863643593
  0
LWPOLYLINE
  5
2BF
330
27D
100
AcDbEntity
  8
06-99
100
AcDbPolyline
 90
       12
 70
     1
 43
0.010692
 10
90.43900298423549
 20
12.25281181243593
 10
92.32227048023563
 20
12.25281181243593
 10
92.46760683623554
 20
13.00767770443588
 10
91.56487771223558
 20
13.00767770443588
 10
91.62106060823546
 20
13.29950515243581
 10
92.41872301223557
 20
13.29950515243581
 10
92.55580870823544
 20
14.01156027643583
 10
91.75814630423545
 20
14.01156027643583
 10
91.80985281623547
 20
14.28005421643581
 10
92.68923417623549
 20
14.28005421643581
 10
92.83455984023559
 20
15.03490585243588
 10
90.97464010823561
 20
15.03490585243588
  0
LWPOLYLINE
  5
2C0
330
27D
100
AcDbEntity
  8
06-99
100
AcDbPolyline
 90
        4
 70
     1
 43
0.010692
 10
76.60861942823558
 20
12.88042508443584
 10
89.06586862823544
 20
12.88042508443584
 10
88.94229049223557
 20
12.25209544843585
 10
76.48504485623553
 20
12.25209544843585
  0
SOLID
  5
2C1
330
27D
100
AcDbEntity
  8
06-99
100
AcDbTrace
 10
76.60861942823558
 20
12.88042508443584
 30
0.0
 11
89.06586862823544
 21
12.88042508443584
 31
0.0
 12
76.48504485623553
 22
12.25209544843585
 32
0.0
 13
88.94229049223557
 23
12.25209544843585
 33
0.0
  0
LWPOLYLINE
  5
2C2
330
27D
100
AcDbEntity
  8
06-99
100
AcDbPolyline
 90
       10
 70
     1
 43
0.010692
 10
82.3458504002356
 20
16.02886981243591
 10
83.32219038023552
 20
19.10266656043586
 10
84.33965535623546
 20
16.02886981243591
 10
85.56780619223562
 20
19.80153132043585
 10
85.22351666423551
 20
19.80153132043585
 10
84.33965535623546
 20
16.89302932843583
 10
83.32219038023552
 20
19.9454100004358
 10
82.3458504002356
 20
16.86733645243589
 10
81.42601764023565
 20
19.80153132043585
 10
81.07658882423564
 20
19.80153132043585
  0
LWPOLYLINE
  5
2C3
330
27D
100
AcDbEntity
  8
06-99
100
AcDbPolyline
 90
        3
 70
     1
 43
0.010692
 10
87.32442338423565
 20
17.65868344843591
 10
87.97704168023555
 20
19.25683094443582
 10
88.6039706642355
 20
17.65868344843591
  0
LWPOLYLINE
  5
2C4
330
27D
100
AcDbEntity
  8
06-99
100
AcDbPolyline
 90
        7
 70
     1
 43
0.010692
 10
86.38318880423563
 20
16.12735738843582
 10
86.72320153223555
 20
16.12735738843582
 10
87.21136974023549
 20
17.37092608843585
 10
88.71187076423566
 20
17.37092608843585
 10
89.17949964023549
 20
16.12735738843582
 10
89.54434632023552
 20
16.12735738843582
 10
87.99759883223558
 20
19.9454100004358
  0
LWPOLYLINE
  5
2C5
330
27D
100
AcDbEntity
  8
06-99
100
AcDbPolyline
 90
        8
 70
     1
 43
0.010692
 10
98.92981243223543
 20
12.25281181243593
 10
100.0043869442354
 20
12.25281181243593
 10
100.1574144122356
 20
12.60301045243585
 10
100.9122803042355
 20
12.60301045243585
 10
100.9343521562355
 20
12.25281181243593
 10
102.0082815842354
 20
12.25281181243593
 10
101.5711569842355
 20
15.03490585243588
 10
100.4583193682355
 20
15.03490585243588
  0
LWPOLYLINE
  5
2C6
330
27D
100
AcDbEntity
  8
06-99
100
AcDbPolyline
 90
       34
 70
     1
 43
0.010692
 10
96.0434642642356
 20
13.66137589243584
 10
96.07848769223544
 20
13.66137589243584
 10
96.0642316922356
 20
13.48699650043591
 10
96.06380757623552
 20
13.33509882043586
 10
96.06790617623554
 20
13.20222577243589
 10
96.09523849223561
 20
12.25281181243593
 10
96.9668360762354
 20
12.25281181243593
 10
98.31569602823542
 20
15.03490585243588
 10
97.31181345623557
 20
15.03490585243588
 10
96.85792023623552
 20
13.80922843243581
 10
96.80781752423563
 20
13.66872486043581
 10
96.74884758023544
 20
13.48671138043579
 10
96.69003445223545
 20
13.26059696443593
 10
96.66670094423549
 20
13.26059696443593
 10
96.6884270882355
 20
13.45803187243587
 10
96.69298544423558
 20
13.61569254043581
 10
96.69194475623548
 20
13.73531107243588
 10
96.67756045223544
 20
15.03490585243588
 10
95.97329266823548
 20
15.03490585243588
 10
95.45849068823557
 20
13.73531107243588
 10
95.41138886423542
 20
13.61569254043581
 10
95.35523448023562
 20
13.45803187243587
 10
95.30092981223551
 20
13.26059696443593
 10
95.27759630423545
 20
13.26059696443593
 10
95.30585169623558
 20
13.48671138043579
 10
95.31697137623556
 20
13.66872486043581
 10
95.32096662023551
 20
13.80922843243581
 10
95.33903966423546
 20
15.03490585243588
 10
94.33451200823553
 20
15.03490585243588
 10
94.61274279623561
 20
12.25281181243593
 10
95.48433681623547
 20
12.25281181243593
 10
95.87724643223557
 20
13.20222577243589
 10
95.93252050823551
 20
13.33509882043586
 10
95.99058519623557
 20
13.48699650043591
  0
LWPOLYLINE
  5
2C7
330
27D
100
AcDbEntity
  8
06-99
100
AcDbPolyline
 90
       10
 70
     1
 43
0.010692
 10
100.4520752402354
 20
13.26448172443588
 10
100.5983667482354
 20
13.57965693643587
 10
100.6731180842355
 20
13.74409276843596
 10
100.7541598802355
 20
13.94570824843589
 10
100.8288363722355
 20
14.19056217643595
 10
100.8482958122355
 20
14.19056217643595
 10
100.8286724282354
 20
13.94570824843589
 10
100.8320796122355
 20
13.74409276843596
 10
100.8435129242355
 20
13.57965693643587
 10
100.8684181562356
 20
13.26448172443588
  0
LWPOLYLINE
  5
2C8
330
27D
100
AcDbEntity
  8
06-99
100
AcDbPolyline
 90
       23
 70
     1
 43
0.010692
 10
103.5867130322356
 20
12.25281181243593
 10
104.5672478402354
 20
12.25281181243593
 10
104.7440436242355
 20
13.17110136043584
 10
105.0536340482356
 20
12.25281181243593
 10
106.1742447482354
 20
12.25281181243593
 10
105.6490750922355
 20
13.38511243243585
 10
105.8084357882355
 20
13.42380678043588
 10
105.9537079922354
 20
13.49881472443587
 10
106.0813562162355
 20
13.60690015243585
 10
106.1878378442354
 20
13.74481626043587
 10
106.2696066962354
 20
13.90931980843584
 10
106.3231201562354
 20
14.09716755643586
 10
106.3446075122355
 20
14.26808986843588
 10
106.3403093282354
 20
14.42329850443593
 10
106.3102362962355
 20
14.56225886443587
 10
106.2543991082354
 20
14.68443278443578
 10
106.1728155842354
 20
14.78928566443591
 10
106.0654999802355
 20
14.87627577643587
 10
105.9324594242355
 20
14.94487208443587
 10
105.7737153002354
 20
14.99453286043592
 10
105.5892711722355
 20
15.02472350443588
 10
105.3791519882354
 20
15.03490585243588
 10
104.1223501562355
 20
15.03490585243588
  0
LWPOLYLINE
  5
2C9
330
27D
100
AcDbEntity
  8
06-99
100
AcDbPolyline
 90
        9
 70
     1
 43
0.010692
 10
104.9650401362355
 20
14.31896240443586
 10
105.1206907082355
 20
14.31896240443586
 10
105.2773605842356
 20
14.28538239643581
 10
105.3582277442354
 20
14.19040892443593
 10
105.3632244722355
 20
14.04269894443587
 10
105.3008722922355
 20
13.89699906043591
 10
105.1832994962355
 20
13.80577848043589
 10
105.0158200082354
 20
13.77421926043581
 10
104.8601694362355
 20
13.77421926043581
  0
LWPOLYLINE
  5
2CA
330
27D
100
AcDbEntity
  8
06-99
100
AcDbPolyline
 90
       12
 70
     1
 43
0.010692
 10
100.5798090002356
 20
16.12735738843582
 10
102.3989066762356
 20
16.12735738843582
 10
102.3989066762356
 20
16.4408218804358
 10
100.9138270802356
 20
16.4408218804358
 10
100.9138270802356
 20
18.02353012843594
 10
102.3989066762356
 20
18.02353012843594
 10
102.3989066762356
 20
18.33699462043592
 10
100.9138270802356
 20
18.33699462043592
 10
100.9138270802356
 20
19.48806682843587
 10
102.3989066762356
 20
19.48806682843587
 10
102.3989066762356
 20
19.80153132043585
 10
100.5798090002356
 20
19.80153132043585
  0
LWPOLYLINE
  5
2CB
330
27D
100
AcDbEntity
  8
06-99
100
AcDbPolyline
 90
        8
 70
     1
 43
0.010692
 10
95.85303261623565
 20
16.12735738843582
 10
96.18705426023556
 20
16.12735738843582
 10
96.18705426023556
 20
19.09753083643585
 10
98.76667389623552
 20
16.01858410843584
 10
98.76667389623552
 20
19.80153132043585
 10
98.4326665082356
 20
19.80153132043585
 10
98.4326665082356
 20
16.88274362443587
 10
95.85303261623565
 20
19.95568144843582
  0
LWPOLYLINE
  5
2CC
330
27D
100
AcDbEntity
  8
06-99
100
AcDbPolyline
 90
       19
 70
     1
 43
0.010692
 10
104.4484312082357
 20
19.5086239804358
 10
104.7824385962356
 20
19.5086239804358
 10
104.9866237202355
 20
19.50030560443588
 10
105.1604542562355
 20
19.47385716043584
 10
105.3049031762356
 20
19.42705471243579
 10
105.4209256322356
 20
19.35767076043584
 10
105.5094874682356
 20
19.26347780443581
 10
105.5715509642355
 20
19.14224834443593
 10
105.6080855282355
 20
18.9917477524358
 10
105.6200498762355
 20
18.80975922043586
 10
105.6074547002355
 20
18.63100680043584
 10
105.5693840522356
 20
18.48585933643585
 10
105.5054245082356
 20
18.37130168443593
 10
105.4151448242355
 20
18.28432582843589
 10
105.2981315762356
 20
18.22192018843589
 10
105.1539570842356
 20
18.18106962043583
 10
104.9821972322354
 20
18.15876967243594
 10
104.7824385962356
 20
18.15200520043589
 10
104.4484312082357
 20
18.15200520043589
  0
LWPOLYLINE
  5
2CD
330
27D
100
AcDbEntity
  8
06-99
100
AcDbPolyline
 90
       29
 70
     1
 43
0.010692
 10
106.3446075122355
 20
16.12735738843582
 10
105.0239637482355
 20
17.87965144843588
 10
105.2123817362357
 20
17.89225018843592
 10
105.3829084442356
 20
17.92941914443582
 10
105.5344069562356
 20
17.99022811243594
 10
105.6657296642355
 20
18.07375401643588
 10
105.7757360882356
 20
18.17905596043584
 10
105.8632821842355
 20
18.30521443243589
 10
105.9272310362355
 20
18.45129210043592
 10
105.9664386002355
 20
18.6163587604359
 10
105.9797608322353
 20
18.79948777243589
 10
105.9699455762357
 20
18.97455145243589
 10
105.9404891162357
 20
19.13261485243589
 10
105.8913629402356
 20
19.27374568843589
 10
105.8225492282356
 20
19.39801167643577
 10
105.7340230322356
 20
19.50548409643591
 10
105.6257594042356
 20
19.59623422843589
 10
105.4977369602356
 20
19.67032622443582
 10
105.3499307522354
 20
19.72783136443587
 10
105.1823193962355
 20
19.76882449243589
 10
104.9948815082355
 20
19.79336619643589
 10
104.7875885762355
 20
19.80153132043585
 10
104.7875885762355
 20
19.80153132043585
 10
104.1144131282356
 20
19.80153132043585
 10
104.1144131282356
 20
16.12735738843582
 10
104.4484312082357
 20
16.12735738843582
 10
104.4484312082357
 20
17.87965144843588
 10
104.6488456202355
 20
17.87965144843588
 10
105.9386465282355
 20
16.12735738843582
  0
TEXT
  5
2CE
330
27D
100
AcDbEntity
  8
06-99
100
AcDbText
 10
85.6083656112951
 20
9.63320697282171
 30
0.0
 40
1.4256
  1
GmbH & Co KG
 41
1.199203187251
 51
15.0
  7
ROMAND8
 72
     5
 11
106.0419656112951
 21
9.63320697282171
 31
0.0
100
AcDbText
  0
TEXT
  5
2D0
330
27D
100
AcDbEntity
  8
06-99
100
AcDbText
 10
85.70982236587898
 20
7.391013700398161
 30
0.0
 40
1.4256
  1
72770 Reutlingen
 50
0.5663244663116128
 41
1.087840993687879
 51
15.0
  7
ROMAND8
 72
     5
 11
105.943422365879
 21
7.59101370039815
 31
0.0
100
AcDbText
  0
TEXT
  5
2D1
330
27D
100
AcDbEntity
  8
08-99
100
AcDbText
 10
73.414125712073
 20
48.45008961754581
 30
0.0
 40
2.25
  1
Zul. Abw.
 51
15.0
  7
ROMANS8
100
AcDbText
  0
TEXT
  5
2D2
330
27D
100
AcDbEntity
  8
08-99
100
AcDbText
 10
123.2099338325191
 20
49.28616214647601
 30
0.0
 40
2.0
  1
Mat. Art.
 51
15.0
  7
ROMANS8
100
AcDbText
  0
TEXT
  5
2D3
330
27D
100
AcDbEntity
  8
08-99
100
AcDbText
 10
155.4865384826082
 20
49.4043113704472
 30
0.0
 40
2.0
  1
Oberfläche:
 51
15.0
  7
ROMANS8
100
AcDbText
  0
TEXT
  5
2D4
330
27D
100
AcDbEntity
  8
08-99
100
AcDbText
 10
184.762545350816
 20
41.73764470378046
 30
0.0
 40
2.0
  1
Blech Dicke:
 51
15.0
  7
ROMANS8
100
AcDbText
  0
TEXT
  5
2D5
330
27D
100
AcDbEntity
  8
08-99
100
AcDbText
 10
187.4380355407932
 20
49.28616214647604
 30
0.0
 40
2.0
  1
Maßstab:
 51
15.0
  7
ROMANS8
100
AcDbText
  0
LINE
  5
2D6
330
27D
100
AcDbEntity
  8
01-99
100
AcDbLine
 10
115.0000075122355
 20
46.8888868761025
 30
0.0
 11
92.0000075122355
 21
46.8888868761025
 31
0.0
  0
LINE
  5
2D7
330
27D
100
AcDbEntity
  8
01-99
100
AcDbLine
 10
115.0000075122355
 20
44.33333132043578
 30
0.0
 11
92.0000075122355
 21
44.33333132043578
 31
0.0
  0
LINE
  5
2D8
330
27D
100
AcDbEntity
  8
01-99
100
AcDbLine
 10
115.0000075122355
 20
40.49999798710246
 30
0.0
 11
92.00000751223544
 21
40.49999798710246
 31
0.0
  0
ATTDEF
  5
2D9
330
27D
100
AcDbEntity
  8
06-99
100
AcDbText
 10
116.4954542514127
 20
26.18783668438471
 30
0.0
 40
4.0
  1

 41
0.9
  7
ROMANS8
100
AcDbAttributeDefinition
280
     0
  3
Benennung/Teil
  2
TEILE
 70
     0
280
     0
  0
ATTDEF
  5
2DA
330
27D
100
AcDbEntity
  8
06-99
100
AcDbText
 10
116.4954542514127
 20
19.29547648609889
 30
0.0
 40
4.0
  1

 41
0.9
  7
ROMANS8
100
AcDbAttributeDefinition
280
     0
  3
Benennung/Teil2
  2
TEILE2
 70
     0
280
     0
  0
ATTDEF
  5
2DB
330
27D
100
AcDbEntity
  8
06-99
100
AcDbText
 10
191.3473937239501
 20
45.33333132043583
 30
0.0
 40
3.375
  1

  7
ROMANS8
100
AcDbAttributeDefinition
280
     0
  3
Maßstab
  2
:
 70
     0
280
     0
  0
ATTDEF
  5
2DC
330
27D
100
AcDbEntity
  8
06-99
100
AcDbText
 10
92.99707531160292
 20
27.44168345513378
 30
0.0
 40
2.5
  1

 41
0.9
  7
ROMANS8
100
AcDbAttributeDefinition
280
     0
  3
Name
  2
NAME
 70
     0
280
     0
  0
ATTDEF
  5
2DD
330
27D
100
AcDbEntity
  8
06-99
100
AcDbText
 10
79.49315396412956
 20
27.46123316121373
 30
0.0
 40
2.5
  1

 50
359.9144597696142
 41
0.9542572414211148
  7
ROMANS8
 72
     5
 11
90.73974463267431
 21
27.44444245376917
 31
0.0
100
AcDbAttributeDefinition
280
     0
  3
Datum
  2
DATUM
 70
     0
280
     0
  0
ATTDEF
  5
2DE
330
27D
100
AcDbEntity
  8
06-99
100
AcDbText
 10
178.5063514793938
 20
7.4928977873912
 30
0.0
 40
2.99376
  1

  7
ROMANS8
100
AcDbAttributeDefinition
280
     0
  3
Ident-Nummer
  2
ID.NR
 70
     0
280
     0
  0
ATTDEF
  5
2DF
330
27D
100
AcDbEntity
  8
06-99
100
AcDbText
 10
116.731273767946
 20
37.66666463154695
 30
0.0
 40
3.0
  1

 41
0.9
  7
ROMANS8
100
AcDbAttributeDefinition
280
     0
  3
Zuschnitts.Länge
  2
LÄNGE
 70
     0
280
     0
  0
ATTDEF
  5
2E0
330
27D
100
AcDbEntity
  8
06-99
100
AcDbText
 10
150.1808124240052
 20
37.67810185754732
 30
0.0
 40
3.0
  1

 41
0.9
  7
ROMANS8
100
AcDbAttributeDefinition
280
     0
  3
Zuschnitts Breite
  2
BREITE
 70
     0
280
     0
  0
ATTDEF
  5
2E1
330
27D
100
AcDbEntity
  8
06-99
100
AcDbText
 10
190.6090996389673
 20
37.66666465376926
 30
0.0
 40
3.09375
  1

  7
ROMANS8
100
AcDbAttributeDefinition
280
     0
  3
Blech.Dicke
  2
1.0
 70
     0
280
     0
  0
ATTDEF
  5
2E2
330
27D
100
AcDbEntity
  8
06-99
100
AcDbText
 10
164.1277931136382
 20
45.33333132043594
 30
0.0
 40
3.0
  1

  7
ROMANS8
 72
     1
 11
164.1277931136382
 21
45.33333132043594
 31
0.0
100
AcDbAttributeDefinition
280
     0
  3
Oberfläche
  2
IV
 70
     0
280
     0
  0
ATTDEF
  5
2E3
330
27D
100
AcDbEntity
  8
06-99
100
AcDbText
 10
123.2747480483513
 20
45.3333313204358
 30
0.0
 40
3.375
  1
1.4301
  7
ROMANS8
100
AcDbAttributeDefinition
280
     0
  3
Mat.Art
  2
1.4301
 70
     0
280
     0
  0
ATTDEF
  5
2E4
330
27D
100
AcDbEntity
  8
06-99
100
AcDbText
 10
146.0006413991156
 20
7.504394591457128
 30
0.0
 40
3.168
  1

 41
0.9
  7
ROMANS8
100
AcDbAttributeDefinition
280
     0
  3
Auftrags Nr.
  2
AUFTRAGS.NR.
 70
     0
280
     0
  0
ATTDEF
  5
2E5
330
27D
100
AcDbEntity
  8
06-99
100
AcDbText
 10
116.5000075122355
 20
7.499997987102517
 30
0.0
 40
3.168
  1

 41
0.9
  7
ROMANS8
100
AcDbAttributeDefinition
280
     0
  3
Sonder-NR,WPS
  2
SONDER-NR
 70
     0
280
     0
  0
ATTDEF
  5
2E6
330
27D
100
AcDbEntity
  8
06-99
100
AcDbText
 10
46.4997585072438
 20
6.601808056362358
 30
0.0
 40
1.5
  1

 41
0.9
  7
ROMANS8
100
AcDbAttributeDefinition
280
     0
  3
ERSETZT.Durch
  2
ERSETZT.DURCH
 70
     0
280
     0
  0
ATTDEF
  5
2E7
330
27D
100
AcDbEntity
  8
06-99
100
AcDbText
 10
21.49947529243403
 20
6.597454384974923
 30
0.0
 40
1.5
  1

 41
0.9
  7
ROMANS8
100
AcDbAttributeDefinition
280
     0
  3
ERSETZT.Für
  2
ERSETZT.FÜR
 70
     0
280
     0
  0
ATTDEF
  5
2E8
330
27D
100
AcDbEntity
  8
06-99
100
AcDbText
 10
99.97308015867309
 20
47.66850912711049
 30
0.0
 40
1.287
  1
DIN A4
  7
ROMANS8
 72
     1
 11
103.2518658729588
 21
47.66850912711049
 31
0.0
100
AcDbAttributeDefinition
280
     0
  3
Format
  2
FORMAT
 70
     0
280
     0
  0
ATTDEF
  5
2E9
330
27D
100
AcDbEntity
  8
06-99
100
AcDbText
 10
95.9874465096418
 20
37.19696532096725
 30
0.0
 40
2.34
  1
DIN 2768
  7
ROMANS8
 72
     1
 11
104.0103036524989
 21
37.19696532096725
 31
0.0
100
AcDbAttributeDefinition
280
     0
  3
Norm / Kanten
  2
NORM2
 70
     0
280
     0
  0
ATTDEF
  5
2EA
330
27D
100
AcDbEntity
  8
06-99
100
AcDbText
 10
92.81173222392748
 20
41.03029865430056
 30
0.0
 40
2.34
  1
DIN 6930-M
  7
ROMANS8
 72
     1
 11
103.5088750810703
 21
41.03029865430056
 31
0.0
100
AcDbAttributeDefinition
280
     0
  3
Norm / Fräsen
  2
NORM1
 70
     0
280
     0
  0
ENDBLK
  5
2EB
330
27D
100
AcDbEntity
  8
0
100
AcDbBlockEnd
  0
BLOCK
  5
89
330
88
100
AcDbEntity
  8
0
100
AcDbBlockBegin
  2
*D5
 70
     1
 10
0.0
 20
0.0
 30
0.0
  3
*D5
  1

  0
LINE
  5
8A
330
88
100
AcDbEntity
  8
0
 62
     4
440
 16777216
370
    -2
100
AcDbLine
 10
1273.933569856854
 20
1963.058626689517
 30
0.0
 11
1351.547843467182
 21
1963.058626689517
 31
0.0
  0
LINE
  5
8B
330
88
100
AcDbEntity
  8
0
 62
     4
440
 16777216
370
    -2
100
AcDbLine
 10
1289.933569856852
 20
1931.058626689514
 30
0.0
 11
1351.547843467182
 21
1931.058626689514
 31
0.0
  0
LINE
  5
8C
330
88
100
AcDbEntity
  8
0
 62
     4
440
 16777216
370
    -2
100
AcDbLine
 10
1346.547843467182
 20
1983.058626689517
 30
0.0
 11
1346.547843467182
 21
2003.058626689517
 31
0.0
  0
LINE
  5
8D
330
88
100
AcDbEntity
  8
0
 62
     4
440
 16777216
370
    -2
100
AcDbLine
 10
1346.547843467182
 20
1911.058626689515
 30
0.0
 11
1346.547843467182
 21
1891.058626689515
 31
0.0
  0
MTEXT
  5
8E
330
88
100
AcDbEntity
  8
0
 62
     1
440
 16777216
100
AcDbMText
 10
1325.493784767276
 20
2003.257906425825
 30
0.0
 40
25.0
 41
0.0
 46
0.0
 71
     5
 72
     1
  1
%%C32
 11
0.0000000000000001
 21
1.0
 31
0.0
 73
     1
 44
1.0
  0
LINE
  5
8F
330
88
100
AcDbEntity
  8
0
 62
     4
440
 16777216
370
    -2
100
AcDbLine
 10
1346.547843467182
 20
1963.058626689517
 30
0.0
 11
1346.547843467182
 21
1931.058626689514
 31
0.0
  0
SOLID
  5
90
330
88
100
AcDbEntity
  8
0
 62
     4
440
 16777216
100
AcDbTrace
 10
1343.214510133848
 20
1983.058626689517
 30
0.0
 11
1349.881176800515
 21
1983.058626689517
 31
0.0
 12
1346.547843467182
 22
1963.058626689517
 32
0.0
 13
1346.547843467182
 23
1963.058626689517
 33
0.0
  0
SOLID
  5
91
330
88
100
AcDbEntity
  8
0
 62
     4
440
 16777216
100
AcDbTrace
 10
1343.214510133848
 20
1911.058626689515
 30
0.0
 11
1349.881176800515
 21
1911.058626689515
 31
0.0
 12
1346.547843467182
 22
1931.058626689514
 32
0.0
 13
1346.547843467182
 23
1931.058626689514
 33
0.0
  0
POINT
  5
92
330
88
100
AcDbEntity
  8
DEFPOINTS
 62
     0
440
 16777216
100
AcDbPoint
 10
1268.933569856854
 20
1963.058626689517
 30
0.0
  0
POINT
  5
93
330
88
100
AcDbEntity
  8
DEFPOINTS
 62
     0
440
 16777216
100
AcDbPoint
 10
1284.933569856852
 20
1931.058626689514
 30
0.0
  0
POINT
  5
94
330
88
100
AcDbEntity
  8
DEFPOINTS
 62
     0
440
 16777216
100
AcDbPoint
 10
1346.547843467182
 20
1931.058626689514
 30
0.0
  0
ENDBLK
  5
95
330
88
100
AcDbEntity
  8
0
100
AcDbBlockEnd
  0
BLOCK
  5
122
330
121
100
AcDbEntity
  8
0
100
AcDbBlockBegin
  2
*D6
 70
     1
 10
0.0
 20
0.0
 30
0.0
  3
*D6
  1

  0
LINE
  5
123
330
121
100
AcDbEntity
  8
0
 62
     4
440
 16777216
370
    -2
100
AcDbLine
 10
326.1132863331022
 20
2681.676939700503
 30
0.0
 11
326.1132863331022
 21
2772.298956564673
 31
0.0
  0
LINE
  5
124
330
121
100
AcDbEntity
  8
0
 62
     4
440
 16777216
370
    -2
100
AcDbLine
 10
826.11726915512
 20
2606.676939700502
 30
0.0
 11
826.11726915512
 21
2772.298956564673
 31
0.0
  0
LINE
  5
125
330
121
100
AcDbEntity
  8
0
 62
     4
440
 16777216
370
    -2
100
AcDbLine
 10
346.1132863331022
 20
2767.298956564673
 30
0.0
 11
806.1172691551201
 21
2767.298956564673
 31
0.0
  0
SOLID
  5
126
330
121
100
AcDbEntity
  8
0
 62
     4
440
 16777216
100
AcDbTrace
 10
346.1132863331022
 20
2770.632289898007
 30
0.0
 11
346.1132863331022
 21
2763.96562323134
 31
0.0
 12
326.1132863331022
 22
2767.298956564673
 32
0.0
 13
326.1132863331022
 23
2767.298956564673
 33
0.0
  0
SOLID
  5
127
330
121
100
AcDbEntity
  8
0
 62
     4
440
 16777216
100
AcDbTrace
 10
806.1172691551201
 20
2770.632289898007
 30
0.0
 11
806.1172691551201
 21
2763.96562323134
 31
0.0
 12
826.11726915512
 22
2767.298956564673
 32
0.0
 13
826.11726915512
 23
2767.298956564673
 33
0.0
  0
MTEXT
  5
128
330
121
100
AcDbEntity
  8
0
 62
     1
440
 16777216
100
AcDbMText
 10
576.1152777441111
 20
2784.798956564673
 30
0.0
 40
25.0
 41
0.0
 46
0.0
 71
     5
 72
     1
  1
500
 73
     1
 44
1.0
  0
POINT
  5
129
330
121
100
AcDbEntity
  8
DEFPOINTS
 62
     0
440
 16777216
100
AcDbPoint
 10
326.1132863331022
 20
2676.676939700503
 30
0.0
  0
POINT
  5
12A
330
121
100
AcDbEntity
  8
DEFPOINTS
 62
     0
440
 16777216
100
AcDbPoint
 10
826.11726915512
 20
2601.676939700502
 30
0.0
  0
POINT
  5
12B
330
121
100
AcDbEntity
  8
DEFPOINTS
 62
     0
440
 16777216
100
AcDbPoint
 10
826.11726915512
 20
2767.298956564673
 30
0.0
  0
ENDBLK
  5
12C
330
121
100
AcDbEntity
  8
0
100
AcDbBlockEnd
  0
BLOCK
  5
113
330
112
100
AcDbEntity
  8
0
100
AcDbBlockBegin
  2
*D7
 70
     1
 10
0.0
 20
0.0
 30
0.0
  3
*D7
  1

  0
LINE
  5
114
330
112
100
AcDbEntity
  8
0
 62
     4
440
 16777216
370
    -2
100
AcDbLine
 10
337.1132863331022
 20
2692.676939700503
 30
0.0
 11
268.0149424273446
 21
2692.676939700503
 31
0.0
  0
LINE
  5
115
330
112
100
AcDbEntity
  8
0
 62
     4
440
 16777216
370
    -2
100
AcDbLine
 10
431.5472691551226
 20
2586.676939700504
 30
0.0
 11
268.0149424273445
 21
2586.676939700504
 31
0.0
  0
LINE
  5
116
330
112
100
AcDbEntity
  8
0
 62
     4
440
 16777216
370
    -2
100
AcDbLine
 10
273.0149424273445
 20
2672.676939700503
 30
0.0
 11
273.0149424273445
 21
2606.676939700504
 31
0.0
  0
SOLID
  5
117
330
112
100
AcDbEntity
  8
0
 62
     4
440
 16777216
100
AcDbTrace
 10
269.6816090940112
 20
2672.676939700503
 30
0.0
 11
276.3482757606778
 21
2672.676939700503
 31
0.0
 12
273.0149424273446
 22
2692.676939700503
 32
0.0
 13
273.0149424273446
 23
2692.676939700503
 33
0.0
  0
SOLID
  5
118
330
112
100
AcDbEntity
  8
0
 62
     4
440
 16777216
100
AcDbTrace
 10
269.6816090940112
 20
2606.676939700504
 30
0.0
 11
276.3482757606778
 21
2606.676939700504
 31
0.0
 12
273.0149424273445
 22
2586.676939700504
 32
0.0
 13
273.0149424273445
 23
2586.676939700504
 33
0.0
  0
MTEXT
  5
119
330
112
100
AcDbEntity
  8
0
 62
     1
440
 16777216
100
AcDbMText
 10
255.5149424273441
 20
2639.676939700504
 30
0.0
 40
25.0
 41
0.0
 46
0.0
 71
     5
 72
     1
  1
106
 11
0.0000000000000001
 21
1.0
 31
0.0
 73
     1
 44
1.0
  0
POINT
  5
11A
330
112
100
AcDbEntity
  8
DEFPOINTS
 62
     0
440
 16777216
100
AcDbPoint
 10
342.1132863331022
 20
2692.676939700503
 30
0.0
  0
POINT
  5
11B
330
112
100
AcDbEntity
  8
DEFPOINTS
 62
     0
440
 16777216
100
AcDbPoint
 10
436.5472691551226
 20
2586.676939700504
 30
0.0
  0
POINT
  5
11C
330
112
100
AcDbEntity
  8
DEFPOINTS
 62
     0
440
 16777216
100
AcDbPoint
 10
273.0149424273445
 20
2586.676939700504
 30
0.0
  0
ENDBLK
  5
11D
330
112
100
AcDbEntity
  8
0
100
AcDbBlockEnd
  0
BLOCK
  5
103
330
102
100
AcDbEntity
  8
0
100
AcDbBlockBegin
  2
*D8
 70
     1
 10
0.0
 20
0.0
 30
0.0
  3
*D8
  1

  0
LINE
  5
104
330
102
100
AcDbEntity
  8
0
 62
     4
440
 16777216
370
    -2
100
AcDbLine
 10
435.8635029710472
 20
2409.877542556876
 30
0.0
 11
439.9828002309138
 21
2413.996839816741
 31
0.0
  0
ARC
  5
105
330
102
100
AcDbEntity
  8
0
 62
     4
440
 16777216
370
    -2
100
AcDbCircle
 10
274.6746861530878
 20
2248.688725738919
 30
0.0
 40
228.7809768991778
100
AcDbArc
 50
5.010385083279238
 51
39.98961491672015
  0
SOLID
  5
106
330
102
100
AcDbEntity
  8
0
 62
     4
440
 16777216
100
AcDbTrace
 10
505.9116120426735
 20
2268.815310786254
 30
0.0
 11
499.2513169467588
 21
2268.523911267071
 31
0.0
 12
503.4556630522656
 22
2248.688725738919
 32
0.0
 13
503.4556630522656
 23
2248.688725738919
 33
0.0
  0
SOLID
  5
107
330
102
100
AcDbEntity
  8
0
 62
     4
440
 16777216
100
AcDbTrace
 10
447.4999388763714
 20
2393.4627900761
 30
0.0
 11
452.4155292794451
 21
2397.966279327075
 31
0.0
 12
436.4472663249808
 22
2410.461305910809
 32
0.0
 13
436.4472663249808
 23
2410.461305910809
 33
0.0
  0
MTEXT
  5
108
330
102
100
AcDbEntity
  8
0
 62
     1
440
 16777216
100
AcDbMText
 10
502.2086399571239
 20
2342.936375304923
 30
0.0
 40
25.0
 41
0.0
 46
0.0
 71
     5
 72
     1
  1
45\U+00B0
 11
0.3826834323650861
 21
-0.9238795325112882
 31
0.0
 73
     1
 44
1.0
  0
POINT
  5
109
330
102
100
AcDbEntity
  8
DEFPOINTS
 62
     0
440
 16777216
100
AcDbPoint
 10
495.6601403036464
 20
2307.901599717585
 30
0.0
  0
POINT
  5
10A
330
102
100
AcDbEntity
  8
DEFPOINTS
 62
     0
440
 16777216
100
AcDbPoint
 10
375.3939862430963
 20
2349.408025828926
 30
0.0
  0
POINT
  5
10B
330
102
100
AcDbEntity
  8
DEFPOINTS
 62
     0
440
 16777216
100
AcDbPoint
 10
735.1172691551202
 20
2248.688725738919
 30
0.0
  0
POINT
  5
10C
330
102
100
AcDbEntity
  8
DEFPOINTS
 62
     0
440
 16777216
100
AcDbPoint
 10
417.1132863331022
 20
2248.688725738919
 30
0.0
  0
POINT
  5
10D
330
102
100
AcDbEntity
  8
DEFPOINTS
 62
     0
440
 16777216
100
AcDbPoint
 10
432.3279690651144
 20
2406.342008650943
 30
0.0
  0
ENDBLK
  5
10E
330
102
100
AcDbEntity
  8
0
100
AcDbBlockEnd
  0
BLOCK
  5
F4
330
F3
100
AcDbEntity
  8
0
100
AcDbBlockBegin
  2
*D9
 70
     1
 10
0.0
 20
0.0
 30
0.0
  3
*D9
  1

  0
ARC
  5
F5
330
F3
100
AcDbEntity
  8
0
 62
     4
440
 16777216
370
    -2
100
AcDbCircle
 10
908.7505434665651
 20
1519.07041272793
 30
0.0
 40
218.7112634876761
100
AcDbArc
 50
140.2412263139321
 51
174.7587736860682
  0
SOLID
  5
F6
330
F3
100
AcDbEntity
  8
0
 62
     4
440
 16777216
100
AcDbTrace
 10
738.1552662145928
 20
1661.195461470044
 30
0.0
 11
743.0799187805036
 21
1656.701883658376
 31
0.0
 12
754.098325932551
 22
1673.722630261943
 32
0.0
 13
754.098325932551
 23
1673.722630261943
 33
0.0
  0
SOLID
  5
F7
330
F3
100
AcDbEntity
  8
0
 62
     4
440
 16777216
100
AcDbTrace
 10
694.2835749080418
 20
1538.897088487257
 30
0.0
 11
687.6238803412789
 21
1539.20190436918
 31
0.0
 12
690.039279978889
 22
1519.07041272793
 32
0.0
 13
690.039279978889
 23
1519.07041272793
 33
0.0
  0
MTEXT
  5
F8
330
F3
100
AcDbEntity
  8
0
 62
     1
440
 16777216
100
AcDbMText
 10
690.5197917816702
 20
1609.464549802688
 30
0.0
 40
25.0
 41
0.0
 46
0.0
 71
     5
 72
     1
  1
45\U+00B0
 11
0.3826834323650885
 21
0.9238795325112873
 31
0.0
 73
     1
 44
1.0
  0
POINT
  5
F9
330
F3
100
AcDbEntity
  8
DEFPOINTS
 62
     0
440
 16777216
100
AcDbPoint
 10
719.3410331924454
 20
1628.426044471768
 30
0.0
  0
POINT
  5
FA
330
F3
100
AcDbEntity
  8
DEFPOINTS
 62
     0
440
 16777216
100
AcDbPoint
 10
808.0312433765573
 20
1619.789712817937
 30
0.0
  0
POINT
  5
FB
330
F3
100
AcDbEntity
  8
DEFPOINTS
 62
     0
440
 16777216
100
AcDbPoint
 10
448.3079604645334
 20
1519.07041272793
 30
0.0
  0
POINT
  5
FC
330
F3
100
AcDbEntity
  8
DEFPOINTS
 62
     0
440
 16777216
100
AcDbPoint
 10
766.3119432865514
 20
1519.07041272793
 30
0.0
  0
POINT
  5
FD
330
F3
100
AcDbEntity
  8
DEFPOINTS
 62
     0
440
 16777216
100
AcDbPoint
 10
751.0972605545394
 20
1676.723695639954
 30
0.0
  0
ENDBLK
  5
FE
330
F3
100
AcDbEntity
  8
0
100
AcDbBlockEnd
  0
BLOCK
  5
E5
330
E4
100
AcDbEntity
  8
0
100
AcDbBlockBegin
  2
*D10
 70
     1
 10
0.0
 20
0.0
 30
0.0
  3
*D10
  1

  0
LINE
  5
E6
330
E4
100
AcDbEntity
  8
0
 62
     4
440
 16777216
370
    -2
100
AcDbLine
 10
357.3079604645354
 20
1876.365820770125
 30
0.0
 11
357.3079604645354
 21
2013.019718040521
 31
0.0
  0
LINE
  5
E7
330
E4
100
AcDbEntity
  8
0
 62
     4
440
 16777216
370
    -2
100
AcDbLine
 10
857.3119432865514
 20
1952.058626689514
 30
0.0
 11
857.3119432865514
 21
2013.019718040521
 31
0.0
  0
LINE
  5
E8
330
E4
100
AcDbEntity
  8
0
 62
     4
440
 16777216
370
    -2
100
AcDbLine
 10
377.3079604645354
 20
2008.019718040521
 30
0.0
 11
837.3119432865514
 21
2008.019718040521
 31
0.0
  0
SOLID
  5
E9
330
E4
100
AcDbEntity
  8
0
 62
     4
440
 16777216
100
AcDbTrace
 10
377.3079604645354
 20
2011.353051373855
 30
0.0
 11
377.3079604645354
 21
2004.686384707188
 31
0.0
 12
357.3079604645354
 22
2008.019718040521
 32
0.0
 13
357.3079604645354
 23
2008.019718040521
 33
0.0
  0
SOLID
  5
EA
330
E4
100
AcDbEntity
  8
0
 62
     4
440
 16777216
100
AcDbTrace
 10
837.3119432865514
 20
2011.353051373855
 30
0.0
 11
837.3119432865514
 21
2004.686384707188
 31
0.0
 12
857.3119432865514
 22
2008.019718040521
 32
0.0
 13
857.3119432865514
 23
2008.019718040521
 33
0.0
  0
MTEXT
  5
EB
330
E4
100
AcDbEntity
  8
0
 62
     1
440
 16777216
100
AcDbMText
 10
607.3099518755434
 20
2025.519718040521
 30
0.0
 40
25.0
 41
0.0
 46
0.0
 71
     5
 72
     1
  1
500
 73
     1
 44
1.0
  0
POINT
  5
EC
330
E4
100
AcDbEntity
  8
DEFPOINTS
 62
     0
440
 16777216
100
AcDbPoint
 10
357.3079604645354
 20
1871.365820770124
 30
0.0
  0
POINT
  5
ED
330
E4
100
AcDbEntity
  8
DEFPOINTS
 62
     0
440
 16777216
100
AcDbPoint
 10
857.3119432865514
 20
1947.058626689514
 30
0.0
  0
POINT
  5
EE
330
E4
100
AcDbEntity
  8
DEFPOINTS
 62
     0
440
 16777216
100
AcDbPoint
 10
857.3119432865514
 20
2008.019718040521
 30
0.0
  0
ENDBLK
  5
EF
330
E4
100
AcDbEntity
  8
0
100
AcDbBlockEnd
  0
BLOCK
  5
D6
330
D5
100
AcDbEntity
  8
0
100
AcDbBlockBegin
  2
*D11
 70
     1
 10
0.0
 20
0.0
 30
0.0
  3
*D11
  1

  0
LINE
  5
D7
330
D5
100
AcDbEntity
  8
0
 62
     4
440
 16777216
370
    -2
100
AcDbLine
 10
846.3119432865514
 20
1963.058626689514
 30
0.0
 11
903.1645670565122
 21
1963.058626689514
 31
0.0
  0
LINE
  5
D8
330
D5
100
AcDbEntity
  8
0
 62
     4
440
 16777216
370
    -2
100
AcDbLine
 10
751.8779604645315
 20
1857.058626689515
 30
0.0
 11
903.1645670565122
 21
1857.058626689515
 31
0.0
  0
LINE
  5
D9
330
D5
100
AcDbEntity
  8
0
 62
     4
440
 16777216
370
    -2
100
AcDbLine
 10
898.1645670565121
 20
1943.058626689514
 30
0.0
 11
898.1645670565121
 21
1877.058626689515
 31
0.0
  0
SOLID
  5
DA
330
D5
100
AcDbEntity
  8
0
 62
     4
440
 16777216
100
AcDbTrace
 10
894.8312337231788
 20
1943.058626689514
 30
0.0
 11
901.4979003898455
 21
1943.058626689514
 31
0.0
 12
898.1645670565121
 22
1963.058626689514
 32
0.0
 13
898.1645670565121
 23
1963.058626689514
 33
0.0
  0
SOLID
  5
DB
330
D5
100
AcDbEntity
  8
0
 62
     4
440
 16777216
100
AcDbTrace
 10
894.8312337231788
 20
1877.058626689515
 30
0.0
 11
901.4979003898455
 21
1877.058626689515
 31
0.0
 12
898.1645670565121
 22
1857.058626689515
 32
0.0
 13
898.1645670565121
 23
1857.058626689515
 33
0.0
  0
MTEXT
  5
DC
330
D5
100
AcDbEntity
  8
0
 62
     1
440
 16777216
100
AcDbMText
 10
880.6645670565117
 20
1910.058626689515
 30
0.0
 40
25.0
 41
0.0
 46
0.0
 71
     5
 72
     1
  1
106
 11
0.0000000000000001
 21
1.0
 31
0.0
 73
     1
 44
1.0
  0
POINT
  5
DD
330
D5
100
AcDbEntity
  8
DEFPOINTS
 62
     0
440
 16777216
100
AcDbPoint
 10
841.3119432865514
 20
1963.058626689514
 30
0.0
  0
POINT
  5
DE
330
D5
100
AcDbEntity
  8
DEFPOINTS
 62
     0
440
 16777216
100
AcDbPoint
 10
746.8779604645314
 20
1857.058626689515
 30
0.0
  0
POINT
  5
DF
330
D5
100
AcDbEntity
  8
DEFPOINTS
 62
     0
440
 16777216
100
AcDbPoint
 10
898.1645670565121
 20
1857.058626689515
 30
0.0
  0
ENDBLK
  5
E0
330
D5
100
AcDbEntity
  8
0
100
AcDbBlockEnd
  0
BLOCK
  5
C7
330
C6
100
AcDbEntity
  8
0
100
AcDbBlockBegin
  2
*D12
 70
     1
 10
0.0
 20
0.0
 30
0.0
  3
*D12
  1

  0
LINE
  5
C8
330
C6
100
AcDbEntity
  8
0
 62
     4
440
 16777216
370
    -2
100
AcDbLine
 10
936.8252245134
 20
2605.984133781114
 30
0.0
 11
936.8252245134
 21
2772.298956564673
 31
0.0
  0
LINE
  5
C9
330
C6
100
AcDbEntity
  8
0
 62
     4
440
 16777216
370
    -2
100
AcDbLine
 10
1206.8252245134
 20
2681.676939700502
 30
0.0
 11
1206.8252245134
 21
2772.298956564673
 31
0.0
  0
LINE
  5
CA
330
C6
100
AcDbEntity
  8
0
 62
     4
440
 16777216
370
    -2
100
AcDbLine
 10
956.8252245133999
 20
2767.298956564673
 30
0.0
 11
1186.8252245134
 21
2767.298956564673
 31
0.0
  0
SOLID
  5
CB
330
C6
100
AcDbEntity
  8
0
 62
     4
440
 16777216
100
AcDbTrace
 10
956.8252245133999
 20
2770.632289898007
 30
0.0
 11
956.8252245133999
 21
2763.96562323134
 31
0.0
 12
936.8252245134
 22
2767.298956564673
 32
0.0
 13
936.8252245134
 23
2767.298956564673
 33
0.0
  0
SOLID
  5
CC
330
C6
100
AcDbEntity
  8
0
 62
     4
440
 16777216
100
AcDbTrace
 10
1186.8252245134
 20
2770.632289898007
 30
0.0
 11
1186.8252245134
 21
2763.96562323134
 31
0.0
 12
1206.8252245134
 22
2767.298956564673
 32
0.0
 13
1206.8252245134
 23
2767.298956564673
 33
0.0
  0
MTEXT
  5
CD
330
C6
100
AcDbEntity
  8
0
 62
     1
440
 16777216
100
AcDbMText
 10
1071.8252245134
 20
2784.798956564673
 30
0.0
 40
25.0
 41
0.0
 46
0.0
 71
     5
 72
     1
  1
270
 73
     1
 44
1.0
  0
POINT
  5
CE
330
C6
100
AcDbEntity
  8
DEFPOINTS
 62
     0
440
 16777216
100
AcDbPoint
 10
936.8252245134
 20
2600.984133781113
 30
0.0
  0
POINT
  5
CF
330
C6
100
AcDbEntity
  8
DEFPOINTS
 62
     0
440
 16777216
100
AcDbPoint
 10
1206.8252245134
 20
2676.676939700502
 30
0.0
  0
POINT
  5
D0
330
C6
100
AcDbEntity
  8
DEFPOINTS
 62
     0
440
 16777216
100
AcDbPoint
 10
1206.8252245134
 20
2767.298956564673
 30
0.0
  0
ENDBLK
  5
D1
330
C6
100
AcDbEntity
  8
0
100
AcDbBlockEnd
  0
BLOCK
  5
B8
330
B7
100
AcDbEntity
  8
0
100
AcDbBlockBegin
  2
*D13
 70
     1
 10
0.0
 20
0.0
 30
0.0
  3
*D13
  1

  0
LINE
  5
B9
330
B7
100
AcDbEntity
  8
0
 62
     4
440
 16777216
370
    -2
100
AcDbLine
 10
1014.933569856852
 20
1876.365820770126
 30
0.0
 11
1014.933569856852
 21
2013.019718040521
 31
0.0
  0
LINE
  5
BA
330
B7
100
AcDbEntity
  8
0
 62
     4
440
 16777216
370
    -2
100
AcDbLine
 10
1284.933569856852
 20
1952.058626689515
 30
0.0
 11
1284.933569856852
 21
2013.019718040521
 31
0.0
  0
LINE
  5
BB
330
B7
100
AcDbEntity
  8
0
 62
     4
440
 16777216
370
    -2
100
AcDbLine
 10
1034.933569856852
 20
2008.019718040521
 30
0.0
 11
1264.933569856852
 21
2008.019718040521
 31
0.0
  0
SOLID
  5
BC
330
B7
100
AcDbEntity
  8
0
 62
     4
440
 16777216
100
AcDbTrace
 10
1034.933569856852
 20
2011.353051373855
 30
0.0
 11
1034.933569856852
 21
2004.686384707188
 31
0.0
 12
1014.933569856852
 22
2008.019718040521
 32
0.0
 13
1014.933569856852
 23
2008.019718040521
 33
0.0
  0
SOLID
  5
BD
330
B7
100
AcDbEntity
  8
0
 62
     4
440
 16777216
100
AcDbTrace
 10
1264.933569856852
 20
2011.353051373855
 30
0.0
 11
1264.933569856852
 21
2004.686384707188
 31
0.0
 12
1284.933569856852
 22
2008.019718040521
 32
0.0
 13
1284.933569856852
 23
2008.019718040521
 33
0.0
  0
MTEXT
  5
BE
330
B7
100
AcDbEntity
  8
0
 62
     1
440
 16777216
100
AcDbMText
 10
1149.933569856852
 20
2025.519718040521
 30
0.0
 40
25.0
 41
0.0
 46
0.0
 71
     5
 72
     1
  1
270
 73
     1
 44
1.0
  0
POINT
  5
BF
330
B7
100
AcDbEntity
  8
DEFPOINTS
 62
     0
440
 16777216
100
AcDbPoint
 10
1014.933569856852
 20
1871.365820770126
 30
0.0
  0
POINT
  5
C0
330
B7
100
AcDbEntity
  8
DEFPOINTS
 62
     0
440
 16777216
100
AcDbPoint
 10
1284.933569856852
 20
1947.058626689514
 30
0.0
  0
POINT
  5
C1
330
B7
100
AcDbEntity
  8
DEFPOINTS
 62
     0
440
 16777216
100
AcDbPoint
 10
1284.933569856852
 20
2008.019718040521
 30
0.0
  0
ENDBLK
  5
C2
330
B7
100
AcDbEntity
  8
0
100
AcDbBlockEnd
  0
BLOCK
  5
A9
330
A8
100
AcDbEntity
  8
0
100
AcDbBlockBegin
  2
*D14
 70
     1
 10
0.0
 20
0.0
 30
0.0
  3
*D14
  1

  0
LINE
  5
AA
330
A8
100
AcDbEntity
  8
0
 62
     4
440
 16777216
370
    -2
100
AcDbLine
 10
815.1172691551201
 20
2270.188725738919
 30
0.0
 11
914.1796326004987
 21
2270.188725738919
 31
0.0
  0
LINE
  5
AB
330
A8
100
AcDbEntity
  8
0
 62
     4
440
 16777216
370
    -2
100
AcDbLine
 10
815.1172691551201
 20
2195.188725738919
 30
0.0
 11
914.1796326004987
 21
2195.188725738919
 31
0.0
  0
LINE
  5
AC
330
A8
100
AcDbEntity
  8
0
 62
     4
440
 16777216
370
    -2
100
AcDbLine
 10
909.1796326004986
 20
2250.188725738919
 30
0.0
 11
909.1796326004986
 21
2215.188725738919
 31
0.0
  0
SOLID
  5
AD
330
A8
100
AcDbEntity
  8
0
 62
     4
440
 16777216
100
AcDbTrace
 10
905.8462992671653
 20
2250.188725738919
 30
0.0
 11
912.5129659338321
 21
2250.188725738919
 31
0.0
 12
909.1796326004986
 22
2270.188725738919
 32
0.0
 13
909.1796326004986
 23
2270.188725738919
 33
0.0
  0
SOLID
  5
AE
330
A8
100
AcDbEntity
  8
0
 62
     4
440
 16777216
100
AcDbTrace
 10
905.8462992671653
 20
2215.188725738919
 30
0.0
 11
912.5129659338321
 21
2215.188725738919
 31
0.0
 12
909.1796326004986
 22
2195.188725738919
 32
0.0
 13
909.1796326004986
 23
2195.188725738919
 33
0.0
  0
MTEXT
  5
AF
330
A8
100
AcDbEntity
  8
0
 62
     1
440
 16777216
100
AcDbMText
 10
891.6796326004984
 20
2232.688725738919
 30
0.0
 40
25.0
 41
0.0
 46
0.0
 71
     5
 72
     1
  1
75
 11
0.0000000000000001
 21
1.0
 31
0.0
 73
     1
 44
1.0
  0
POINT
  5
B0
330
A8
100
AcDbEntity
  8
DEFPOINTS
 62
     0
440
 16777216
100
AcDbPoint
 10
810.11726915512
 20
2270.188725738919
 30
0.0
  0
POINT
  5
B1
330
A8
100
AcDbEntity
  8
DEFPOINTS
 62
     0
440
 16777216
100
AcDbPoint
 10
810.11726915512
 20
2195.188725738919
 30
0.0
  0
POINT
  5
B2
330
A8
100
AcDbEntity
  8
DEFPOINTS
 62
     0
440
 16777216
100
AcDbPoint
 10
909.1796326004986
 20
2195.188725738919
 30
0.0
  0
ENDBLK
  5
B3
330
A8
100
AcDbEntity
  8
0
100
AcDbBlockEnd
  0
BLOCK
  5
9A
330
99
100
AcDbEntity
  8
0
100
AcDbBlockBegin
  2
*D15
 70
     1
 10
0.0
 20
0.0
 30
0.0
  3
*D15
  1

  0
LINE
  5
9B
330
99
100
AcDbEntity
  8
0
 62
     4
440
 16777216
370
    -2
100
AcDbLine
 10
368.3079604645336
 20
1540.57041272793
 30
0.0
 11
304.4901895760649
 21
1540.57041272793
 31
0.0
  0
LINE
  5
9C
330
99
100
AcDbEntity
  8
0
 62
     4
440
 16777216
370
    -2
100
AcDbLine
 10
368.3079604645336
 20
1465.57041272793
 30
0.0
 11
304.4901895760649
 21
1465.57041272793
 31
0.0
  0
LINE
  5
9D
330
99
100
AcDbEntity
  8
0
 62
     4
440
 16777216
370
    -2
100
AcDbLine
 10
309.490189576065
 20
1520.57041272793
 30
0.0
 11
309.490189576065
 21
1485.57041272793
 31
0.0
  0
SOLID
  5
9E
330
99
100
AcDbEntity
  8
0
 62
     4
440
 16777216
100
AcDbTrace
 10
306.1568562427317
 20
1520.57041272793
 30
0.0
 11
312.8235229093982
 21
1520.57041272793
 31
0.0
 12
309.490189576065
 22
1540.57041272793
 32
0.0
 13
309.490189576065
 23
1540.57041272793
 33
0.0
  0
SOLID
  5
9F
330
99
100
AcDbEntity
  8
0
 62
     4
440
 16777216
100
AcDbTrace
 10
306.1568562427317
 20
1485.57041272793
 30
0.0
 11
312.8235229093982
 21
1485.57041272793
 31
0.0
 12
309.490189576065
 22
1465.57041272793
 32
0.0
 13
309.490189576065
 23
1465.57041272793
 33
0.0
  0
MTEXT
  5
A0
330
99
100
AcDbEntity
  8
0
 62
     1
440
 16777216
100
AcDbMText
 10
291.9901895760647
 20
1503.07041272793
 30
0.0
 40
25.0
 41
0.0
 46
0.0
 71
     5
 72
     1
  1
75
 11
0.0000000000000001
 21
1.0
 31
0.0
 73
     1
 44
1.0
  0
POINT
  5
A1
330
99
100
AcDbEntity
  8
DEFPOINTS
 62
     0
440
 16777216
100
AcDbPoint
 10
373.3079604645336
 20
1540.57041272793
 30
0.0
  0
POINT
  5
A2
330
99
100
AcDbEntity
  8
DEFPOINTS
 62
     0
440
 16777216
100
AcDbPoint
 10
373.3079604645336
 20
1465.57041272793
 30
0.0
  0
POINT
  5
A3
330
99
100
AcDbEntity
  8
DEFPOINTS
 62
     0
440
 16777216
100
AcDbPoint
 10
309.490189576065
 20
1465.57041272793
 30
0.0
  0
ENDBLK
  5
A4
330
99
100
AcDbEntity
  8
0
100
AcDbBlockEnd
  0
BLOCK
  5
78
330
77
100
AcDbEntity
  8
0
100
AcDbBlockBegin
  2
*D16
 70
     1
 10
0.0
 20
0.0
 30
0.0
  3
*D16
  1

  0
LINE
  5
79
330
77
100
AcDbEntity
  8
0
 62
     4
440
 16777216
370
    -2
100
AcDbLine
 10
1195.8252245134
 20
2692.676939700502
 30
0.0
 11
1268.250117289495
 21
2692.676939700502
 31
0.0
  0
LINE
  5
7A
330
77
100
AcDbEntity
  8
0
 62
     4
440
 16777216
370
    -2
100
AcDbLine
 10
1195.825224513401
 20
2660.676939700502
 30
0.0
 11
1268.250117289495
 21
2660.676939700502
 31
0.0
  0
LINE
  5
7B
330
77
100
AcDbEntity
  8
0
 62
     4
440
 16777216
370
    -2
100
AcDbLine
 10
1263.250117289495
 20
2712.676939700502
 30
0.0
 11
1263.250117289495
 21
2732.676939700502
 31
0.0
  0
LINE
  5
7C
330
77
100
AcDbEntity
  8
0
 62
     4
440
 16777216
370
    -2
100
AcDbLine
 10
1263.250117289495
 20
2640.676939700502
 30
0.0
 11
1263.250117289495
 21
2620.676939700502
 31
0.0
  0
MTEXT
  5
7D
330
77
100
AcDbEntity
  8
0
 62
     1
440
 16777216
100
AcDbMText
 10
1240.758382548836
 20
2739.792546012009
 30
0.0
 40
25.0
 41
0.0
 46
0.0
 71
     5
 72
     1
  1
%%C32
 11
0.0000000000000001
 21
1.0
 31
0.0
 73
     1
 44
1.0
  0
LINE
  5
7E
330
77
100
AcDbEntity
  8
0
 62
     4
440
 16777216
370
    -2
100
AcDbLine
 10
1263.250117289495
 20
2692.676939700502
 30
0.0
 11
1263.250117289495
 21
2660.676939700502
 31
0.0
  0
SOLID
  5
7F
330
77
100
AcDbEntity
  8
0
 62
     4
440
 16777216
100
AcDbTrace
 10
1259.916783956162
 20
2712.676939700502
 30
0.0
 11
1266.583450622828
 21
2712.676939700502
 31
0.0
 12
1263.250117289495
 22
2692.676939700502
 32
0.0
 13
1263.250117289495
 23
2692.676939700502
 33
0.0
  0
SOLID
  5
80
330
77
100
AcDbEntity
  8
0
 62
     4
440
 16777216
100
AcDbTrace
 10
1259.916783956162
 20
2640.676939700502
 30
0.0
 11
1266.583450622828
 21
2640.676939700502
 31
0.0
 12
1263.250117289495
 22
2660.676939700502
 32
0.0
 13
1263.250117289495
 23
2660.676939700502
 33
0.0
  0
POINT
  5
81
330
77
100
AcDbEntity
  8
DEFPOINTS
 62
     0
440
 16777216
100
AcDbPoint
 10
1190.8252245134
 20
2692.676939700502
 30
0.0
  0
POINT
  5
83
330
77
100
AcDbEntity
  8
DEFPOINTS
 62
     0
440
 16777216
100
AcDbPoint
 10
1190.825224513401
 20
2660.676939700502
 30
0.0
  0
POINT
  5
84
330
77
100
AcDbEntity
  8
DEFPOINTS
 62
     0
440
 16777216
100
AcDbPoint
 10
1263.250117289495
 20
2660.676939700502
 30
0.0
  0
ENDBLK
  5
85
330
77
100
AcDbEntity
  8
0
100
AcDbBlockEnd
  0
ENDSEC
  0
SECTION
  2
ENTITIES
  0
TEXT
  5
66
330
2
100
AcDbEntity
  8
02-01
100
AcDbText
 10
1196.431183556366
 20
2025.162988981104
 30
0.0
 40
25.0
  1
%%P5
100
AcDbText
  0
TEXT
  5
69
330
2
100
AcDbEntity
  8
02-01
100
AcDbText
 10
1124.825491436473
 20
2782.65884688886
 30
0.0
 40
25.0
  1
%%P5
100
AcDbText
  0
TEXT
  5
6A
330
2
100
AcDbEntity
  8
02-01
100
AcDbText
 10
651.6719337181002
 20
2025.5577304503
 30
0.0
 40
25.0
  1
%%P5
100
AcDbText
  0
TEXT
  5
6B
330
2
100
AcDbEntity
  8
02-01
100
AcDbText
 10
617.6185359278824
 20
2782.65884688886
 30
0.0
 40
25.0
  1
%%P5
100
AcDbText
  0
LINE
  5
6C
330
2
100
AcDbEntity
  8
05-01
100
AcDbLine
 10
504.6987516841313
 20
2440.03724320991
 30
0.0
 11
441.3857842769175
 21
2503.350210617124
 31
0.0
  0
LINE
  5
71
330
2
100
AcDbEntity
  8
05-01
100
AcDbLine
 10
810.11726915512
 20
2189.340983439552
 30
0.0
 11
810.11726915512
 21
2278.87904062092
 31
0.0
  0
LINE
  5
72
330
2
100
AcDbEntity
  8
05-01
100
AcDbLine
 10
373.3079604645336
 20
1459.722670428564
 30
0.0
 11
373.3079604645336
 21
1549.260727609931
 31
0.0
  0
LINE
  5
73
330
2
100
AcDbEntity
  8
05-01
100
AcDbLine
 10
678.7264779355218
 20
1710.418930198922
 30
0.0
 11
742.0394453427361
 21
1773.731897606135
 31
0.0
  0
DIMENSION
  5
74
102
{ACAD_XDICTIONARY
360
75
102
}
102
{ACAD_REACTORS
330
76
102
}
330
2
100
AcDbEntity
  8
0
100
AcDbDimension
280
     0
  2
*D16
 10
1263.250117289495
 20
2660.676939700502
 30
0.0
 11
1240.758382548836
 21
2739.792546012009
 31
0.0
 70
   128
  1
%%C<>
 71
     5
 42
32.0
 73
     0
 74
     0
 75
     0
  3
Wagner$0
100
AcDbAlignedDimension
 13
1190.8252245134
 23
2692.676939700502
 33
0.0
 14
1190.825224513401
 24
2660.676939700502
 34
0.0
 50
90.0
100
AcDbRotatedDimension
1001
ACAD
1000
DSTYLE
1002
{
1070
    40
1040
5.0
1070
    41
1040
4.0
1070
   140
1040
5.0
1002
}
  0
DIMENSION
  5
87
330
2
100
AcDbEntity
  8
0
100
AcDbDimension
280
     0
  2
*D5
 10
1346.547843467182
 20
1931.058626689514
 30
0.0
 11
1325.493784767276
 21
2003.257906425825
 31
0.0
 70
   128
  1
%%C<>
 71
     5
 42
32.00000000000227
 73
     0
 74
     0
 75
     0
  3
Wagner$0
100
AcDbAlignedDimension
 13
1268.933569856854
 23
1963.058626689517
 33
0.0
 14
1284.933569856852
 24
1931.058626689514
 34
0.0
 50
90.0
100
AcDbRotatedDimension
1001
ACAD
1000
DSTYLE
1002
{
1070
    40
1040
5.0
1070
    41
1040
4.0
1070
   140
1040
5.0
1002
}
  0
DIMENSION
  5
96
102
{ACAD_XDICTIONARY
360
97
102
}
102
{ACAD_REACTORS
330
98
102
}
330
2
100
AcDbEntity
  8
0
100
AcDbDimension
280
     0
  2
*D15
 10
309.490189576065
 20
1465.57041272793
 30
0.0
 11
291.9901895760647
 21
1503.07041272793
 31
0.0
 71
     5
 42
75.0
 73
     0
 74
     0
 75
     0
  3
Wagner$0
100
AcDbAlignedDimension
 13
373.3079604645336
 23
1540.57041272793
 33
0.0
 14
373.3079604645336
 24
1465.57041272793
 34
0.0
 50
90.0
100
AcDbRotatedDimension
1001
ACAD
1000
DSTYLE
1002
{
1070
    40
1040
5.0
1070
    41
1040
4.0
1070
   140
1040
5.0
1002
}
  0
DIMENSION
  5
A5
102
{ACAD_XDICTIONARY
360
A6
102
}
102
{ACAD_REACTORS
330
A7
102
}
330
2
100
AcDbEntity
  8
0
100
AcDbDimension
280
     0
  2
*D14
 10
909.1796326004986
 20
2195.188725738919
 30
0.0
 11
891.6796326004984
 21
2232.688725738919
 31
0.0
 71
     5
 42
75.0
 73
     0
 74
     0
 75
     0
  3
Wagner$0
100
AcDbAlignedDimension
 13
810.11726915512
 23
2270.188725738919
 33
0.0
 14
810.11726915512
 24
2195.188725738919
 34
0.0
 50
90.0
100
AcDbRotatedDimension
1001
ACAD
1000
DSTYLE
1002
{
1070
    40
1040
5.0
1070
    41
1040
4.0
1070
   140
1040
5.0
1002
}
  0
DIMENSION
  5
B4
102
{ACAD_XDICTIONARY
360
B5
102
}
102
{ACAD_REACTORS
330
B6
102
}
330
2
100
AcDbEntity
  8
0
100
AcDbDimension
280
     0
  2
*D13
 10
1284.933569856852
 20
2008.019718040521
 30
0.0
 11
1149.933569856852
 21
2025.519718040521
 31
0.0
 71
     5
 42
270.0
 73
     0
 74
     0
 75
     0
  3
Wagner$0
100
AcDbAlignedDimension
 13
1014.933569856852
 23
1871.365820770126
 33
0.0
 14
1284.933569856852
 24
1947.058626689514
 34
0.0
100
AcDbRotatedDimension
1001
ACAD
1000
DSTYLE
1002
{
1070
    40
1040
5.0
1070
    41
1040
4.0
1070
   140
1040
5.0
1002
}
  0
DIMENSION
  5
C3
102
{ACAD_XDICTIONARY
360
C4
102
}
102
{ACAD_REACTORS
330
C5
102
}
330
2
100
AcDbEntity
  8
0
100
AcDbDimension
280
     0
  2
*D12
 10
1206.8252245134
 20
2767.298956564673
 30
0.0
 11
1071.8252245134
 21
2784.798956564673
 31
0.0
 71
     5
 42
270.0
 73
     0
 74
     0
 75
     0
  3
Wagner$0
100
AcDbAlignedDimension
 13
936.8252245134
 23
2600.984133781113
 33
0.0
 14
1206.8252245134
 24
2676.676939700502
 34
0.0
100
AcDbRotatedDimension
1001
ACAD
1000
DSTYLE
1002
{
1070
    40
1040
5.0
1070
    41
1040
4.0
1070
   140
1040
5.0
1002
}
  0
DIMENSION
  5
D2
102
{ACAD_XDICTIONARY
360
D3
102
}
102
{ACAD_REACTORS
330
D4
102
}
330
2
100
AcDbEntity
  8
0
100
AcDbDimension
280
     0
  2
*D11
 10
898.1645670565121
 20
1857.058626689515
 30
0.0
 11
880.6645670565117
 21
1910.058626689515
 31
0.0
 71
     5
 42
105.9999999999995
 73
     0
 74
     0
 75
     0
  3
Wagner$0
100
AcDbAlignedDimension
 13
841.3119432865514
 23
1963.058626689514
 33
0.0
 14
746.8779604645314
 24
1857.058626689515
 34
0.0
 50
90.0
100
AcDbRotatedDimension
1001
ACAD
1000
DSTYLE
1002
{
1070
    40
1040
5.0
1070
    41
1040
4.0
1070
   140
1040
5.0
1002
}
  0
DIMENSION
  5
E1
102
{ACAD_XDICTIONARY
360
E2
102
}
102
{ACAD_REACTORS
330
E3
102
}
330
2
100
AcDbEntity
  8
0
100
AcDbDimension
280
     0
  2
*D10
 10
857.3119432865514
 20
2008.019718040521
 30
0.0
 11
607.3099518755434
 21
2025.519718040521
 31
0.0
 71
     5
 42
500.003982822016
 73
     0
 74
     0
 75
     0
  3
Wagner$0
100
AcDbAlignedDimension
 13
357.3079604645354
 23
1871.365820770124
 33
0.0
 14
857.3119432865514
 24
1947.058626689514
 34
0.0
100
AcDbRotatedDimension
1001
ACAD
1000
DSTYLE
1002
{
1070
   271
1070
     1
1070
    40
1040
5.0
1070
    41
1040
4.0
1070
   140
1040
5.0
1002
}
  0
DIMENSION
  5
F0
102
{ACAD_XDICTIONARY
360
F1
102
}
102
{ACAD_REACTORS
330
F2
102
}
330
2
100
AcDbEntity
  8
0
100
AcDbDimension
280
     0
  2
*D9
 10
751.0972605545394
 20
1676.723695639954
 30
0.0
 11
690.5197917816702
 21
1609.464549802688
 31
0.0
 70
     2
 71
     5
 42
0.7853981633974441
 73
     0
 74
     0
 75
     0
  3
Wagner
100
AcDb2LineAngularDimension
 13
448.3079604645336
 23
1519.07041272793
 33
0.0
 14
766.3119432865515
 24
1519.07041272793
 34
0.0
 15
808.0312433765575
 25
1619.789712817937
 35
0.0
 16
719.3410331924454
 26
1628.426044471768
 36
0.0
1001
ACAD
1000
DSTYLE
1002
{
1070
    40
1040
5.0
1070
    41
1040
4.0
1070
   140
1040
5.0
1002
}
  0
DIMENSION
  5
FF
102
{ACAD_XDICTIONARY
360
100
102
}
102
{ACAD_REACTORS
330
101
102
}
330
2
100
AcDbEntity
  8
0
100
AcDbDimension
280
     0
  2
*D8
 10
432.3279690651142
 20
2406.342008650943
 30
0.0
 11
502.2086399571239
 21
2342.936375304923
 31
0.0
 70
     2
 71
     5
 42
0.7853981633974399
 73
     0
 74
     0
 75
     0
  3
Wagner
100
AcDb2LineAngularDimension
 13
735.1172691551201
 23
2248.688725738919
 33
0.0
 14
417.1132863331022
 24
2248.688725738919
 34
0.0
 15
375.3939862430962
 25
2349.408025828926
 35
0.0
 16
495.6601403036464
 26
2307.901599717585
 36
0.0
1001
ACAD
1000
DSTYLE
1002
{
1070
    40
1040
5.0
1070
    41
1040
4.0
1070
   140
1040
5.0
1002
}
  0
DIMENSION
  5
10F
102
{ACAD_XDICTIONARY
360
110
102
}
102
{ACAD_REACTORS
330
111
102
}
330
2
100
AcDbEntity
  8
0
100
AcDbDimension
280
     0
  2
*D7
 10
273.0149424273445
 20
2586.676939700504
 30
0.0
 11
255.5149424273441
 21
2639.676939700504
 31
0.0
 71
     5
 42
105.9999999999991
 73
     0
 74
     0
 75
     0
  3
Wagner$0
100
AcDbAlignedDimension
 13
342.1132863331022
 23
2692.676939700503
 33
0.0
 14
436.5472691551226
 24
2586.676939700504
 34
0.0
 50
90.0
100
AcDbRotatedDimension
1001
ACAD
1000
DSTYLE
1002
{
1070
    40
1040
5.0
1070
    41
1040
4.0
1070
   140
1040
5.0
1002
}
  0
DIMENSION
  5
11E
102
{ACAD_XDICTIONARY
360
11F
102
}
102
{ACAD_REACTORS
330
120
102
}
330
2
100
AcDbEntity
  8
0
100
AcDbDimension
280
     0
  2
*D6
 10
826.11726915512
 20
2767.298956564673
 30
0.0
 11
576.1152777441111
 21
2784.798956564673
 31
0.0
 71
     5
 42
500.0039828220178
 73
     0
 74
     0
 75
     0
  3
Wagner$0
100
AcDbAlignedDimension
 13
326.1132863331022
 23
2676.676939700503
 33
0.0
 14
826.11726915512
 24
2601.676939700502
 34
0.0
100
AcDbRotatedDimension
1001
ACAD
1000
DSTYLE
1002
{
1070
   271
1070
     1
1070
    40
1040
5.0
1070
    41
1040
4.0
1070
   140
1040
5.0
1002
}
  0
TEXT
  5
12D
330
2
100
AcDbEntity
  8
02-01
100
AcDbText
 10
1432.585555694686
 20
2432.005493851506
 30
0.0
 40
21.58894329309117
  1
Ausführung rechts
 41
0.8
100
AcDbText
  0
LINE
  5
12E
330
2
100
AcDbEntity
  8
02-01
100
AcDbLine
 10
1429.130652440407
 20
2328.778655925851
 30
0.0
 11
1678.564291161094
 21
2328.778655925851
 31
0.0
  0
LINE
  5
12F
330
2
100
AcDbEntity
  8
02-01
100
AcDbLine
 10
1893.448303728694
 20
2328.778655925851
 30
0.0
 11
1709.480990954054
 21
2328.778655925851
 31
0.0
  0
TEXT
  5
130
330
2
100
AcDbEntity
  8
02-01
100
AcDbText
 10
1296.20539611516
 20
2313.264555567529
 30
0.0
 40
21.58894329309117
  1
Ident.Nr.
 41
0.8
100
AcDbText
  0
TEXT
  5
131
330
2
100
AcDbEntity
  8
02-01
100
AcDbText
 10
1432.585555694686
 20
2342.765779333482
 30
0.0
 40
21.58894329309117
  1
matt geschliffen
 41
0.8
100
AcDbText
  0
TEXT
  5
132
330
2
100
AcDbEntity
  8
02-01
100
AcDbText
 10
1737.333226780852
 20
2342.771506098448
 30
0.0
 40
21.58894329309117
  1
630 400
100
AcDbText
  0
TEXT
  5
133
330
2
100
AcDbEntity
  8
02-01
100
AcDbText
 10
1432.585555694686
 20
2292.030378876227
 30
0.0
 40
21.58894329309117
  1
strukturiert
 41
0.8
100
AcDbText
  0
LINE
  5
134
330
2
100
AcDbEntity
  8
02-01
100
AcDbLine
 10
1694.022641057574
 20
2274.806297693123
 30
0.0
 11
1694.022641057573
 21
2382.751014158579
 31
0.0
  0
LINE
  5
135
330
2
100
AcDbEntity
  8
02-01
100
AcDbLine
 10
1909.912073988486
 20
2274.806297693123
 30
0.0
 11
1909.912073988486
 21
2382.751014158579
 31
0.0
  0
LINE
  5
136
330
2
100
AcDbEntity
  8
02-01
100
AcDbLine
 10
1283.393899241227
 20
2274.806297693123
 30
0.0
 11
1909.912073988486
 21
2274.806297693123
 31
0.0
  0
LINE
  5
137
330
2
100
AcDbEntity
  8
02-01
100
AcDbLine
 10
1283.393899241227
 20
2382.751014158579
 30
0.0
 11
1909.912073988486
 21
2382.751014158579
 31
0.0
  0
LINE
  5
138
330
2
100
AcDbEntity
  8
02-01
100
AcDbLine
 10
1283.393899241227
 20
2274.806297693123
 30
0.0
 11
1283.393899241227
 21
2382.751014158579
 31
0.0
  0
TEXT
  5
139
330
2
100
AcDbEntity
  8
02-01
100
AcDbText
 10
1737.333226780852
 20
2288.799147865721
 30
0.0
 40
21.58894329309117
  1
630 410
100
AcDbText
  0
TEXT
  5
13A
330
2
100
AcDbEntity
  8
02-01
100
AcDbText
 10
1421.706234543821
 20
1707.485010668142
 30
0.0
 40
21.58894329309117
  1
Ausführung links
 41
0.8
100
AcDbText
  0
LINE
  5
13B
330
2
100
AcDbEntity
  8
02-01
100
AcDbLine
 10
1418.251331289541
 20
1604.258172742488
 30
0.0
 11
1667.684970010228
 21
1604.258172742488
 31
0.0
  0
LINE
  5
13C
330
2
100
AcDbEntity
  8
02-01
100
AcDbLine
 10
1882.568982577829
 20
1604.258172742488
 30
0.0
 11
1698.601669803188
 21
1604.258172742488
 31
0.0
  0
TEXT
  5
13D
330
2
100
AcDbEntity
  8
02-01
100
AcDbText
 10
1285.326074964295
 20
1588.744072384165
 30
0.0
 40
21.58894329309117
  1
Ident.Nr.
 41
0.8
100
AcDbText
  0
TEXT
  5
13E
330
2
100
AcDbEntity
  8
02-01
100
AcDbText
 10
1421.706234543821
 20
1618.245296150118
 30
0.0
 40
21.58894329309117
  1
matt geschliffen
 41
0.8
100
AcDbText
  0
TEXT
  5
13F
330
2
100
AcDbEntity
  8
02-01
100
AcDbText
 10
1726.453905629986
 20
1618.251022915085
 30
0.0
 40
21.58894329309117
  1
630 300
100
AcDbText
  0
TEXT
  5
140
330
2
100
AcDbEntity
  8
02-01
100
AcDbText
 10
1421.706234543821
 20
1567.509895692863
 30
0.0
 40
21.58894329309117
  1
strukturiert
 41
0.8
100
AcDbText
  0
LINE
  5
141
330
2
100
AcDbEntity
  8
02-01
100
AcDbLine
 10
1683.143319906709
 20
1550.285814509759
 30
0.0
 11
1683.143319906708
 21
1658.230530975215
 31
0.0
  0
LINE
  5
142
330
2
100
AcDbEntity
  8
02-01
100
AcDbLine
 10
1899.03275283762
 20
1550.285814509759
 30
0.0
 11
1899.032752837621
 21
1658.230530975215
 31
0.0
  0
LINE
  5
143
330
2
100
AcDbEntity
  8
02-01
100
AcDbLine
 10
1272.514578090361
 20
1550.285814509759
 30
0.0
 11
1899.03275283762
 21
1550.285814509759
 31
0.0
  0
LINE
  5
144
330
2
100
AcDbEntity
  8
02-01
100
AcDbLine
 10
1272.514578090361
 20
1658.230530975215
 30
0.0
 11
1899.032752837621
 21
1658.230530975216
 31
0.0
  0
LINE
  5
145
330
2
100
AcDbEntity
  8
02-01
100
AcDbLine
 10
1272.514578090361
 20
1550.285814509759
 30
0.0
 11
1272.514578090361
 21
1658.230530975215
 31
0.0
  0
TEXT
  5
146
330
2
100
AcDbEntity
  8
02-01
100
AcDbText
 10
1726.453905629986
 20
1564.278664682357
 30
0.0
 40
21.58894329309117
  1
630 310
100
AcDbText
  0
LINE
  5
147
330
2
100
AcDbEntity
  8
05-01
100
AcDbLine
 10
1030.934735201089
 20
1872.2517319912
 30
0.0
 11
1030.934735201089
 21
1854.022906396061
 31
0.0
  0
LINE
  5
148
330
2
100
AcDbEntity
  8
05-01
100
AcDbLine
 10
373.3079604645336
 20
1872.058626689513
 30
0.0
 11
373.3079604645336
 21
1854.696936781439
 31
0.0
  0
LINE
  5
149
330
2
100
AcDbEntity
  8
05-01
100
AcDbLine
 10
709.3749345012898
 20
1871.747464887004
 30
0.0
 11
709.3749345012898
 21
1853.820243125676
 31
0.0
  0
LINE
  5
14A
330
2
100
AcDbEntity
  8
0
  6
Continuous
 62
     7
370
    15
100
AcDbLine
 10
357.3079604645354
 20
1872.058626689513
 30
0.0
 11
389.3079604645336
 21
1872.058626689513
 31
0.0
  0
LINE
  5
14B
330
2
100
AcDbEntity
  8
0
  6
Continuous
 62
     7
370
    15
100
AcDbLine
 10
725.3779604645333
 20
1872.058626689515
 30
0.0
 11
698.0642519655466
 21
1872.058626689515
 31
0.0
  0
LINE
  5
14C
330
2
100
AcDbEntity
  8
0
  6
Continuous
 62
     7
370
    15
100
AcDbLine
 10
698.0642519655466
 20
1872.058626689515
 30
0.0
 11
693.3779604645333
 21
1872.058626689515
 31
0.0
  0
LINE
  5
14D
330
2
100
AcDbEntity
  8
0
  6
Continuous
 62
     7
370
    15
100
AcDbLine
 10
731.4647162285746
 20
1867.347983418652
 30
0.0
 11
709.3779604645314
 21
1867.347983418652
 31
0.0
  0
LINE
  5
14E
330
2
100
AcDbEntity
  8
0
  6
Continuous
 62
     7
370
    15
100
AcDbLine
 10
709.3779604645314
 20
1867.347983418652
 30
0.0
 11
687.2912047004883
 21
1867.347983418652
 31
0.0
  0
LINE
  5
14F
330
2
100
AcDbEntity
  8
0
  6
Continuous
 62
     7
370
    15
100
AcDbLine
 10
746.8779604645314
 20
1864.658626689515
 30
0.0
 11
709.3779604645314
 21
1864.658626689515
 31
0.0
  0
LINE
  5
150
330
2
100
AcDbEntity
  8
0
  6
Continuous
 62
     7
370
    15
100
AcDbLine
 10
709.3779604645314
 20
1864.658626689515
 30
0.0
 11
671.8779604645314
 21
1864.658626689515
 31
0.0
  0
LINE
  5
151
330
2
100
AcDbEntity
  8
0
  6
Continuous
 62
     7
370
    15
100
AcDbLine
 10
395.3947162285786
 20
1867.347983418651
 30
0.0
 11
373.3079604645336
 21
1867.347983418651
 31
0.0
  0
LINE
  5
152
330
2
100
AcDbEntity
  8
0
  6
Continuous
 62
     7
370
    15
100
AcDbLine
 10
373.3079604645336
 20
1867.347983418651
 30
0.0
 11
351.2212047004905
 21
1867.347983418651
 31
0.0
  0
LINE
  5
153
330
2
100
AcDbEntity
  8
0
  6
Continuous
 62
     7
370
    15
100
AcDbLine
 10
410.8079604645336
 20
1864.658626689514
 30
0.0
 11
373.3079604645336
 21
1864.658626689514
 31
0.0
  0
LINE
  5
154
330
2
100
AcDbEntity
  8
0
  6
Continuous
 62
     7
370
    15
100
AcDbLine
 10
373.3079604645336
 20
1864.658626689514
 30
0.0
 11
335.8079604645336
 21
1864.658626689514
 31
0.0
  0
LINE
  5
155
330
2
100
AcDbEntity
  8
0
  6
Continuous
 62
     7
370
    15
100
AcDbLine
 10
728.201536900884
 20
1869.632886182433
 30
0.0
 11
709.3779604645314
 21
1869.632886182433
 31
0.0
  0
LINE
  5
156
330
2
100
AcDbEntity
  8
0
  6
Continuous
 62
     7
370
    15
100
AcDbLine
 10
709.3779604645314
 20
1869.632886182433
 30
0.0
 11
690.5543840281807
 21
1869.632886182433
 31
0.0
  0
LINE
  5
157
330
2
100
AcDbEntity
  8
0
  6
Continuous
 62
     7
370
    15
100
AcDbLine
 10
744.4779604645319
 20
1867.058626689515
 30
0.0
 11
709.3779604645314
 21
1867.058626689515
 31
0.0
  0
LINE
  5
158
330
2
100
AcDbEntity
  8
0
  6
Continuous
 62
     7
370
    15
100
AcDbLine
 10
709.3779604645314
 20
1867.058626689515
 30
0.0
 11
674.2779604645311
 21
1867.058626689515
 31
0.0
  0
LINE
  5
159
102
{ACAD_REACTORS
330
D4
102
}
330
2
100
AcDbEntity
  8
0
  6
Continuous
 62
     7
370
    15
100
AcDbLine
 10
746.8779604645314
 20
1857.058626689515
 30
0.0
 11
709.3779604645314
 21
1857.058626689515
 31
0.0
  0
LINE
  5
15A
330
2
100
AcDbEntity
  8
0
  6
Continuous
 62
     7
370
    15
100
AcDbLine
 10
709.3779604645314
 20
1857.058626689515
 30
0.0
 11
671.8779604645314
 21
1857.058626689515
 31
0.0
  0
LINE
  5
15B
330
2
100
AcDbEntity
  8
0
  6
Continuous
 62
     7
370
    15
100
AcDbLine
 10
392.1315369008844
 20
1869.632886182433
 30
0.0
 11
373.3079604645336
 21
1869.632886182433
 31
0.0
  0
LINE
  5
15C
330
2
100
AcDbEntity
  8
0
  6
Continuous
 62
     7
370
    15
100
AcDbLine
 10
373.3079604645336
 20
1869.632886182433
 30
0.0
 11
354.4843840281846
 21
1869.632886182433
 31
0.0
  0
LINE
  5
15D
330
2
100
AcDbEntity
  8
0
  6
Continuous
 62
     7
370
    15
100
AcDbLine
 10
408.407960464534
 20
1867.058626689513
 30
0.0
 11
373.3079604645336
 21
1867.058626689514
 31
0.0
  0
LINE
  5
15E
330
2
100
AcDbEntity
  8
0
  6
Continuous
 62
     7
370
    15
100
AcDbLine
 10
373.3079604645336
 20
1867.058626689514
 30
0.0
 11
338.2079604645351
 21
1867.058626689513
 31
0.0
  0
LINE
  5
15F
330
2
100
AcDbEntity
  8
0
  6
Continuous
 62
     7
370
    15
100
AcDbLine
 10
410.8079604645336
 20
1857.058626689513
 30
0.0
 11
373.3079604645336
 21
1857.058626689514
 31
0.0
  0
LINE
  5
160
330
2
100
AcDbEntity
  8
0
  6
Continuous
 62
     7
370
    15
100
AcDbLine
 10
373.3079604645336
 20
1857.058626689514
 30
0.0
 11
335.8079604645336
 21
1857.058626689513
 31
0.0
  0
LINE
  5
161
102
{ACAD_REACTORS
330
E3
102
}
330
2
100
AcDbEntity
  8
05-01
100
AcDbLine
 10
448.3079604645336
 20
1947.058626689514
 30
0.0
 11
859.245509351882
 21
1947.058626689514
 31
0.0
  0
LINE
  5
162
330
2
100
AcDbEntity
  8
0
  6
Continuous
 62
     7
370
    15
100
AcDbLine
 10
448.3079604645336
 20
1931.058626689514
 30
0.0
 11
841.3119432865514
 21
1931.058626689514
 31
0.0
  0
LINE
  5
163
330
2
100
AcDbEntity
  8
0
  6
Continuous
 62
     7
370
    15
100
AcDbLine
 10
762.4109690534969
 20
1963.058626689514
 30
0.0
 11
448.3079604645336
 21
1963.058626689514
 31
0.0
  0
ARC
  5
164
330
2
100
AcDbEntity
  8
0
  6
Continuous
 62
     7
370
    15
100
AcDbCircle
 10
448.3079604645336
 20
1872.058626689513
 30
0.0
 40
91.00000000000001
100
AcDbArc
 50
90.0
 51
180.0
  0
ARC
  5
165
330
2
100
AcDbEntity
  8
0
  6
Continuous
 62
     7
370
    15
100
AcDbCircle
 10
448.3079604645336
 20
1872.058626689513
 30
0.0
 40
59.00000000000012
100
AcDbArc
 50
90.0
 51
180.0
  0
LINE
  5
166
102
{ACAD_REACTORS
330
E3
102
}
330
2
100
AcDbEntity
  8
0
  6
Continuous
 62
     7
370
    15
100
AcDbLine
 10
357.3079604645354
 20
1872.058626689513
 30
0.0
 11
357.3079604645354
 21
1871.365820770124
 31
0.0
  0
LINE
  5
167
330
2
100
AcDbEntity
  8
0
  6
Continuous
 62
     7
370
    15
100
AcDbLine
 10
389.3079604645336
 20
1871.365820770124
 30
0.0
 11
389.3079604645336
 21
1872.058626689513
 31
0.0
  0
LINE
  5
168
330
2
100
AcDbEntity
  8
0
  6
Continuous
 62
     7
370
    15
100
AcDbLine
 10
841.3119432865514
 20
1963.058626689514
 30
0.0
 11
819.3449518755423
 21
1963.058626689514
 31
0.0
  0
ARC
  5
169
102
{ACAD_REACTORS
330
E3
330
D4
102
}
330
2
100
AcDbEntity
  8
0
  6
Continuous
 62
     7
370
    15
100
AcDbCircle
 10
841.3119432865514
 20
1947.058626689514
 30
0.0
 40
16.00000000000001
100
AcDbArc
 50
270.0
 51
90.0
  0
LINE
  5
16A
330
2
100
AcDbEntity
  8
0
  6
Continuous
 62
     7
370
    15
100
AcDbLine
 10
819.3449518755423
 20
1963.058626689514
 30
0.0
 11
762.4109690535224
 21
1963.058626689514
 31
0.0
  0
LWPOLYLINE
  5
16B
330
2
100
AcDbEntity
  8
0
  6
Continuous
 62
     7
370
    15
100
AcDbPolyline
 90
       24
 70
   128
 43
0.0
 10
725.3779604645333
 20
1872.058626689515
 10
725.404194487075
 20
1874.232123664158
 10
725.6096669538874
 20
1878.510046611269
 10
726.0176383606831
 20
1882.751371939007
 10
726.6246932448029
 20
1886.930987891778
 10
727.4257691696566
 20
1891.025003697632
 10
728.4141640505895
 20
1895.010210191575
 10
729.5815779916028
 20
1898.864297392942
 10
730.9181771224849
 20
1902.566082301984
 10
732.4126869923293
 20
1906.095746957117
 10
734.0525256295095
 20
1909.435085277432
 10
735.8239893909594
 20
1912.567754435306
 10
737.7125082922447
 20
1915.479522388412
 10
739.7022912327138
 20
1918.157616868086
 10
741.7776844893396
 20
1920.59246597976
 10
743.923542625931
 20
1922.777330781526
 10
746.1259527284873
 20
1924.708224303503
 10
748.3732359017612
 20
1926.383722817388
 10
750.6571822135647
 20
1927.804446197903
 10
752.9744769720892
 20
1928.972029449297
 10
755.32809745566
 20
1929.887349801629
 10
757.7279725796834
 20
1930.547794765621
 10
760.1890605048811
 20
1930.943775818407
 10
762.4109690535224
 20
1931.058626689514
  0
LWPOLYLINE
  5
16C
330
2
100
AcDbEntity
  8
05-01
100
AcDbPolyline
 90
       28
 70
   128
 43
0.0
 10
762.7970717050525
 20
1947.063285969715
 10
760.7147849193052
 20
1947.013022804753
 10
757.7247633020906
 20
1946.753511864264
 10
754.8590237565454
 20
1946.282655198916
 10
752.0051694866388
 20
1945.589149405379
 10
749.1656246355351
 20
1944.670298235424
 10
746.3440215448022
 20
1943.522451762341
 10
743.545496020582
 20
1942.141455146497
 10
740.7769149609617
 20
1940.52319717862
 10
738.0469826854441
 20
1938.66421796412
 10
735.3662022845192
 20
1936.562323488986
 10
732.7466813465385
 20
1934.217142782934
 10
730.2017929401827
 20
1931.630562280058
 10
727.7457276773198
 20
1928.806986456496
 10
725.3929927481772
 20
1925.75340266674
 10
723.1579212087449
 20
1922.479263258943
 10
721.0542465504809
 20
1918.996228024759
 10
719.0947773249604
 20
1915.317825741884
 10
717.2911823207932
 20
1911.459092614388
 10
715.6538725129061
 20
1907.436222511512
 10
714.1920525403143
 20
1903.266533347267
 10
712.9135799851642
 20
1898.96788570834
 10
711.8249980021032
 20
1894.558303708369
 10
710.9317223590615
 20
1890.056154538639
 10
710.2380937925022
 20
1885.480041463052
 10
709.7474282643193
 20
1880.848731527037
 10
709.4607620956117
 20
1876.159901718659
 10
709.3749345012898
 20
1871.747464887004
  0
LWPOLYLINE
  5
16D
330
2
100
AcDbEntity
  8
0
  6
Continuous
 62
     7
370
    15
100
AcDbPolyline
 90
       13
 70
   128
 43
0.0
 10
709.6477954293746
 20
1931.058626689514
 10
707.1355582279302
 20
1926.899138122742
 10
704.7769137045961
 20
1922.471386318261
 10
702.6245538486346
 20
1917.866482080168
 10
700.6854802075613
 20
1913.102178256682
 10
698.9656991127012
 20
1908.196681868233
 10
697.4701535175954
 20
1903.168162862946
 10
696.2028121458643
 20
1898.034469868239
 10
695.1669002720009
 20
1892.813427719429
 10
694.3649727681458
 20
1887.522828235807
 10
693.7989706761308
 20
1882.180429061645
 10
693.4702632219577
 20
1876.803954689694
 10
693.3779604645333
 20
1872.058626689515
  0
LINE
  5
16E
330
2
100
AcDbEntity
  8
0
  6
Continuous
 62
     7
370
    15
100
AcDbLine
 10
693.3779604645333
 20
1872.058626689515
 30
0.0
 11
693.3779604645333
 21
1871.365820770125
 31
0.0
  0
LINE
  5
16F
330
2
100
AcDbEntity
  8
0
  6
Continuous
 62
     7
370
    15
100
AcDbLine
 10
725.3779604645333
 20
1871.365820770125
 30
0.0
 11
725.3779604645333
 21
1872.058626689515
 31
0.0
  0
LINE
  5
170
330
2
100
AcDbEntity
  8
0
  6
Continuous
 62
     7
370
    15
100
AcDbLine
 10
690.5543840281807
 20
1869.632886182433
 30
0.0
 11
687.2912047004883
 21
1867.347983418652
 31
0.0
  0
LINE
  5
171
330
2
100
AcDbEntity
  8
0
  6
Continuous
 62
     7
370
    15
100
AcDbLine
 10
731.4647162285746
 20
1867.347983418652
 30
0.0
 11
728.201536900884
 21
1869.632886182433
 31
0.0
  0
ARC
  5
172
330
2
100
AcDbEntity
  8
0
  6
Continuous
 62
     7
370
    15
100
AcDbCircle
 10
686.3734824023268
 20
1868.658626689514
 30
0.0
 40
1.599999999999965
100
AcDbArc
 50
270.0
 51
304.9999999999812
  0
ARC
  5
173
330
2
100
AcDbEntity
  8
0
  6
Continuous
 62
     7
370
    15
100
AcDbCircle
 10
732.382438526738
 20
1868.658626689514
 30
0.0
 40
1.600000000000002
100
AcDbArc
 50
235.0000000000188
 51
270.0
  0
ARC
  5
174
330
2
100
AcDbEntity
  8
0
  6
Continuous
 62
     7
370
    15
100
AcDbCircle
 10
674.2779604645311
 20
1864.658626689515
 30
0.0
 40
2.400000000000019
100
AcDbArc
 50
90.0
 51
180.0
  0
ARC
  5
175
330
2
100
AcDbEntity
  8
0
  6
Continuous
 62
     7
370
    15
100
AcDbCircle
 10
744.4779604645319
 20
1864.658626689515
 30
0.0
 40
2.400000000000019
100
AcDbArc
 50
0.0
 51
90.0
  0
LINE
  5
176
330
2
100
AcDbEntity
  8
0
  6
Continuous
 62
     7
370
    15
100
AcDbLine
 10
671.8779604645314
 20
1864.658626689515
 30
0.0
 11
671.8779604645314
 21
1857.058626689515
 31
0.0
  0
LINE
  5
177
330
2
100
AcDbEntity
  8
0
  6
Continuous
 62
     7
370
    15
100
AcDbLine
 10
746.8779604645314
 20
1857.058626689515
 30
0.0
 11
746.8779604645314
 21
1864.658626689515
 31
0.0
  0
LINE
  5
178
330
2
100
AcDbEntity
  8
0
  6
Continuous
 62
     7
370
    15
100
AcDbLine
 10
354.4843840281846
 20
1869.632886182433
 30
0.0
 11
351.2212047004905
 21
1867.347983418651
 31
0.0
  0
LINE
  5
179
330
2
100
AcDbEntity
  8
0
  6
Continuous
 62
     7
370
    15
100
AcDbLine
 10
395.3947162285786
 20
1867.347983418651
 30
0.0
 11
392.1315369008844
 21
1869.632886182433
 31
0.0
  0
ARC
  5
17A
330
2
100
AcDbEntity
  8
0
  6
Continuous
 62
     7
370
    15
100
AcDbCircle
 10
350.3034824023289
 20
1868.658626689514
 30
0.0
 40
1.600000000000002
100
AcDbArc
 50
270.0
 51
304.9999999999812
  0
ARC
  5
17B
330
2
100
AcDbEntity
  8
0
  6
Continuous
 62
     7
370
    15
100
AcDbCircle
 10
396.312438526742
 20
1868.658626689514
 30
0.0
 40
1.599999999999965
100
AcDbArc
 50
235.0000000000189
 51
270.0
  0
ARC
  5
17C
330
2
100
AcDbEntity
  8
0
  6
Continuous
 62
     7
370
    15
100
AcDbCircle
 10
338.2079604645351
 20
1864.658626689514
 30
0.0
 40
2.399999999999948
100
AcDbArc
 50
90.0
 51
180.0
  0
ARC
  5
17D
330
2
100
AcDbEntity
  8
0
  6
Continuous
 62
     7
370
    15
100
AcDbCircle
 10
408.407960464534
 20
1864.658626689514
 30
0.0
 40
2.40000000000009
100
AcDbArc
 50
0.0
 51
90.0
  0
LINE
  5
17E
330
2
100
AcDbEntity
  8
0
  6
Continuous
 62
     7
370
    15
100
AcDbLine
 10
335.8079604645336
 20
1864.658626689514
 30
0.0
 11
335.8079604645336
 21
1857.058626689513
 31
0.0
  0
LINE
  5
17F
330
2
100
AcDbEntity
  8
0
  6
Continuous
 62
     7
370
    15
100
AcDbLine
 10
410.8079604645336
 20
1857.058626689513
 30
0.0
 11
410.8079604645336
 21
1864.658626689514
 31
0.0
  0
LINE
  5
180
330
2
100
AcDbEntity
  8
0
  6
Continuous
 62
     7
370
    15
100
AcDbLine
 10
693.3779604645333
 20
1871.365820770125
 30
0.0
 11
690.9030733873041
 21
1869.632886182433
 31
0.0
  0
LINE
  5
181
330
2
100
AcDbEntity
  8
0
  6
Continuous
 62
     7
370
    15
100
AcDbLine
 10
727.8528475417588
 20
1869.632886182433
 30
0.0
 11
725.3779604645333
 21
1871.365820770125
 31
0.0
  0
LINE
  5
182
330
2
100
AcDbEntity
  8
0
  6
Continuous
 62
     7
370
    15
100
AcDbLine
 10
357.3079604645354
 20
1871.365820770124
 30
0.0
 11
354.8330733873063
 21
1869.632886182433
 31
0.0
  0
LINE
  5
183
330
2
100
AcDbEntity
  8
0
  6
Continuous
 62
     7
370
    15
100
AcDbLine
 10
391.7828475417609
 20
1869.632886182433
 30
0.0
 11
389.3079604645336
 21
1871.365820770124
 31
0.0
  0
ARC
  5
184
330
2
100
AcDbEntity
  8
05-01
100
AcDbCircle
 10
448.3079604645336
 20
1872.058626689513
 30
0.0
 40
75.0
100
AcDbArc
 50
90.0
 51
180.0
  0
LINE
  5
185
330
2
100
AcDbEntity
  8
0
  6
Continuous
 62
     7
370
    15
100
AcDbLine
 10
1252.933569856852
 20
1872.058626689515
 30
0.0
 11
1284.933569856852
 21
1872.058626689515
 31
0.0
  0
LINE
  5
186
330
2
100
AcDbEntity
  8
0
  6
Continuous
 62
     7
370
    15
100
AcDbLine
 10
1046.933569350925
 20
1872.058626689515
 30
0.0
 11
1014.933569895796
 21
1872.058626689515
 31
0.0
  0
LINE
  5
187
330
2
100
AcDbEntity
  8
0
  6
Continuous
 62
     7
370
    15
100
AcDbLine
 10
1053.020325620897
 20
1867.347983418654
 30
0.0
 11
1008.846814092807
 21
1867.347983418654
 31
0.0
  0
LINE
  5
188
330
2
100
AcDbEntity
  8
0
  6
Continuous
 62
     7
370
    15
100
AcDbLine
 10
1068.433569856852
 20
1864.658626689515
 30
0.0
 11
993.4335698568521
 21
1864.658626689515
 31
0.0
  0
LINE
  5
189
330
2
100
AcDbEntity
  8
0
  6
Continuous
 62
     7
370
    15
100
AcDbLine
 10
1291.020325620897
 20
1867.347983418654
 30
0.0
 11
1246.846814092808
 21
1867.347983418654
 31
0.0
  0
LINE
  5
18A
330
2
100
AcDbEntity
  8
0
  6
Continuous
 62
     7
370
    15
100
AcDbLine
 10
1306.433569856852
 20
1864.658626689515
 30
0.0
 11
1231.433569856852
 21
1864.658626689515
 31
0.0
  0
ARC
  5
18B
330
2
100
AcDbEntity
  8
0
  6
Continuous
 62
     7
370
    15
100
AcDbCircle
 10
1268.933569856854
 20
1947.058626689517
 30
0.0
 40
15.99999999999994
100
AcDbArc
 50
0.0
 51
180.0
  0
LINE
  5
18C
330
2
100
AcDbEntity
  8
0
  6
Continuous
 62
     7
370
    15
100
AcDbLine
 10
1049.757146293203
 20
1869.632886182434
 30
0.0
 11
1012.109993420501
 21
1869.632886182434
 31
0.0
  0
LINE
  5
18D
330
2
100
AcDbEntity
  8
0
  6
Continuous
 62
     7
370
    15
100
AcDbLine
 10
1068.433569856852
 20
1857.058626689515
 30
0.0
 11
993.4335698568521
 21
1857.058626689515
 31
0.0
  0
LINE
  5
18E
330
2
100
AcDbEntity
  8
0
  6
Continuous
 62
     7
370
    15
100
AcDbLine
 10
1066.03356979463
 20
1867.058626689515
 30
0.0
 11
995.8335698568525
 21
1867.058626689515
 31
0.0
  0
LINE
  5
18F
330
2
100
AcDbEntity
  8
0
  6
Continuous
 62
     7
370
    15
100
AcDbLine
 10
1287.757146293203
 20
1869.632886182434
 30
0.0
 11
1250.109993420501
 21
1869.632886182434
 31
0.0
  0
LINE
  5
190
330
2
100
AcDbEntity
  8
0
  6
Continuous
 62
     7
370
    15
100
AcDbLine
 10
1304.03356979463
 20
1867.058626689515
 30
0.0
 11
1233.833569856852
 21
1867.058626689515
 31
0.0
  0
LINE
  5
191
330
2
100
AcDbEntity
  8
0
  6
Continuous
 62
     7
370
    15
100
AcDbLine
 10
1306.433569856852
 20
1857.058626689515
 30
0.0
 11
1231.433569856852
 21
1857.058626689515
 31
0.0
  0
LINE
  5
192
330
2
100
AcDbEntity
  8
0
  6
Continuous
 62
     7
370
    15
100
AcDbLine
 10
1252.933569856852
 20
1872.058626689515
 30
0.0
 11
1252.933569856852
 21
1871.365820770126
 31
0.0
  0
LINE
  5
193
330
2
100
AcDbEntity
  8
0
  6
Continuous
 62
     7
370
    15
100
AcDbLine
 10
1284.933569856852
 20
1871.365820770126
 30
0.0
 11
1284.933569856852
 21
1872.058626689515
 31
0.0
  0
LINE
  5
194
102
{ACAD_REACTORS
330
B6
102
}
330
2
100
AcDbEntity
  8
0
  6
Continuous
 62
     7
370
    15
100
AcDbLine
 10
1284.933569856852
 20
1872.058626689515
 30
0.0
 11
1284.933569856852
 21
1947.058626689514
 31
0.0
  0
LINE
  5
195
330
2
100
AcDbEntity
  8
05-01
100
AcDbLine
 10
1268.933569856852
 20
1965.748914006004
 30
0.0
 11
1268.933569856852
 21
1852.877182680764
 31
0.0
  0
LINE
  5
196
330
2
100
AcDbEntity
  8
0
  6
Continuous
 62
     7
370
    15
100
AcDbLine
 10
1252.933569856852
 20
1947.058626689517
 30
0.0
 11
1252.933569856852
 21
1872.058626689515
 31
0.0
  0
LINE
  5
197
102
{ACAD_REACTORS
330
B6
102
}
330
2
100
AcDbEntity
  8
0
  6
Continuous
 62
     7
370
    15
100
AcDbLine
 10
1014.933569856852
 20
1872.058626689515
 30
0.0
 11
1014.933569856852
 21
1871.365820770126
 31
0.0
  0
LINE
  5
198
330
2
100
AcDbEntity
  8
0
  6
Continuous
 62
     7
370
    15
100
AcDbLine
 10
1046.933569856852
 20
1871.365820770126
 30
0.0
 11
1046.933569856852
 21
1872.058626689515
 31
0.0
  0
LWPOLYLINE
  5
199
330
2
100
AcDbEntity
  8
05-01
100
AcDbPolyline
 90
       24
 70
   128
 43
0.0
 10
1030.934735201089
 20
1872.2517319912
 10
1030.964438215577
 20
1874.712636033842
 10
1031.202088188656
 20
1879.660492498397
 10
1031.683791268467
 20
1884.66834216342
 10
1032.402789669043
 20
1889.618697170303
 10
1033.355794496153
 20
1894.489167876262
 10
1034.538521238217
 20
1899.257920106733
 10
1035.945769391233
 20
1903.903793267173
 10
1037.571536158005
 20
1908.406443870342
 10
1039.40916702474
 20
1912.746475910526
 10
1041.451550954377
 20
1916.905550325777
 10
1043.691369801219
 20
1920.866461959097
 10
1046.121364869799
 20
1924.613092062759
 10
1048.733958168519
 20
1928.129441282883
 10
1051.522654015228
 20
1931.401136217522
 10
1054.482395553705
 20
1934.414678911454
 10
1057.610128272925
 20
1937.156819822913
 10
1060.905526383005
 20
1939.613757471785
 10
1064.371721924622
 20
1941.769896178709
 10
1068.01577620536
 20
1943.60597539552
 10
1071.848212728991
 20
1945.096405638458
 10
1075.879964578118
 20
1946.205942621512
 10
1080.055961022597
 20
1946.877846884495
 10
1083.14063810303
 20
1947.037294423408
  0
LWPOLYLINE
  5
19A
330
2
100
AcDbEntity
  8
0
  6
Continuous
 62
     7
370
    15
100
AcDbPolyline
 90
       24
 70
   128
 43
0.0
 10
1046.933569856852
 20
1872.058626689515
 10
1046.959803879394
 20
1874.23212366416
 10
1047.165276346209
 20
1878.510046611272
 10
1047.573247753003
 20
1882.751371939009
 10
1048.180302637124
 20
1886.930987891781
 10
1048.981378561977
 20
1891.025003697635
 10
1049.96977344291
 20
1895.010210191579
 10
1051.137187383924
 20
1898.864297392945
 10
1052.473786514805
 20
1902.566082301986
 10
1053.96829638465
 20
1906.095746957118
 10
1055.60813502183
 20
1909.435085277435
 10
1057.379598783279
 20
1912.567754435309
 10
1059.268117684564
 20
1915.479522388413
 10
1061.257900625035
 20
1918.157616868089
 10
1063.33329388166
 20
1920.592465979762
 10
1065.479152018253
 20
1922.777330781527
 10
1067.681562120807
 20
1924.708224303507
 10
1069.928845294081
 20
1926.38372281739
 10
1072.212791605883
 20
1927.804446197906
 10
1074.530086364408
 20
1928.972029449298
 10
1076.883706847979
 20
1929.887349801632
 10
1079.283581972003
 20
1930.547794765623
 10
1081.744669897203
 20
1930.94377581841
 10
1083.966578445843
 20
1931.058626689517
  0
LWPOLYLINE
  5
19B
330
2
100
AcDbEntity
  8
0
  6
Continuous
 62
     7
370
    15
100
AcDbPolyline
 90
       28
 70
   128
 43
0.0
 10
1083.966578445843
 20
1963.058626689516
 10
1081.384741864684
 20
1962.996305169315
 10
1077.288686624505
 20
1962.640798994525
 10
1073.223954909515
 20
1961.972941364607
 10
1069.202659636325
 20
1960.995739550595
 10
1065.236306760247
 20
1959.712263440251
 10
1061.336361271659
 20
1958.125740272271
 10
1057.514452578365
 20
1956.23973175606
 10
1053.782538317979
 20
1954.058397759603
 10
1050.15299523341
 20
1951.586818075062
 10
1046.638610795301
 20
1948.831327460682
 10
1043.252463174546
 20
1945.79980824169
 10
1040.007698629846
 20
1942.501885752524
 10
1036.917238502853
 20
1938.948988103502
 10
1033.99346452167
 20
1935.154260221816
 10
1031.247934306199
 20
1931.132353756993
 10
1028.69116762025
 20
1926.899138122746
 10
1026.332523096916
 20
1922.471386318266
 10
1024.180163240957
 20
1917.866482080171
 10
1022.24108959988
 20
1913.102178256685
 10
1020.521308505021
 20
1908.196681868237
 10
1019.025762909915
 20
1903.168162862952
 10
1017.758421538186
 20
1898.034469868243
 10
1016.722509664322
 20
1892.813427719434
 10
1015.920582160465
 20
1887.522828235812
 10
1015.35458006845
 20
1882.18042906165
 10
1015.025872614278
 20
1876.803954689699
 10
1014.933569856852
 20
1872.058626689515
  0
LINE
  5
19C
330
2
100
AcDbEntity
  8
0
  6
Continuous
 62
     7
370
    15
100
AcDbLine
 10
1140.900561267861
 20
1963.058626689516
 30
0.0
 11
1083.966578445843
 21
1963.058626689516
 31
0.0
  0
LINE
  5
19D
330
2
100
AcDbEntity
  8
05-01
100
AcDbLine
 10
1083.966578445843
 20
1947.058626689516
 30
0.0
 11
1287.5260157871
 21
1947.058626689516
 31
0.0
  0
LINE
  5
19E
330
2
100
AcDbEntity
  8
0
  6
Continuous
 62
     7
370
    15
100
AcDbLine
 10
1083.966578445843
 20
1931.058626689517
 30
0.0
 11
1140.900561267861
 21
1931.058626689517
 31
0.0
  0
LINE
  5
19F
330
2
100
AcDbEntity
  8
0
  6
Continuous
 62
     7
370
    15
100
AcDbLine
 10
1140.900561267861
 20
1931.058626689517
 30
0.0
 11
1252.933569856852
 21
1931.058626689517
 31
0.0
  0
LINE
  5
1A0
330
2
100
AcDbEntity
  8
0
  6
Continuous
 62
     7
370
    15
100
AcDbLine
 10
1268.933569856852
 20
1963.058626689516
 30
0.0
 11
1140.900561267861
 21
1963.058626689516
 31
0.0
  0
LINE
  5
1A1
330
2
100
AcDbEntity
  8
0
  6
Continuous
 62
     7
370
    15
100
AcDbLine
 10
1012.109993420501
 20
1869.632886182434
 30
0.0
 11
1008.846814092807
 21
1867.347983418654
 31
0.0
  0
LINE
  5
1A2
330
2
100
AcDbEntity
  8
0
  6
Continuous
 62
     7
370
    15
100
AcDbLine
 10
1053.020325620897
 20
1867.347983418654
 30
0.0
 11
1049.757146293203
 21
1869.632886182434
 31
0.0
  0
ARC
  5
1A3
330
2
100
AcDbEntity
  8
0
  6
Continuous
 62
     7
370
    15
100
AcDbCircle
 10
1007.929091794646
 20
1868.658626689517
 30
0.0
 40
1.600000000000002
100
AcDbArc
 50
270.0
 51
305.0000000000129
  0
ARC
  5
1A4
330
2
100
AcDbEntity
  8
0
  6
Continuous
 62
     7
370
    15
100
AcDbCircle
 10
1053.938047919058
 20
1868.658626689517
 30
0.0
 40
1.600000000000002
100
AcDbArc
 50
234.999999999987
 51
270.0
  0
LINE
  5
1A5
330
2
100
AcDbEntity
  8
0
  6
Continuous
 62
     7
370
    15
100
AcDbLine
 10
993.4335698568521
 20
1864.658626689515
 30
0.0
 11
993.4335698568521
 21
1857.058626689515
 31
0.0
  0
LINE
  5
1A6
330
2
100
AcDbEntity
  8
0
  6
Continuous
 62
     7
370
    15
100
AcDbLine
 10
1068.433569856852
 20
1857.058626689515
 30
0.0
 11
1068.433569856852
 21
1864.658626689515
 31
0.0
  0
ARC
  5
1A7
330
2
100
AcDbEntity
  8
0
  6
Continuous
 62
     7
370
    15
100
AcDbCircle
 10
995.8335698568525
 20
1864.658626689515
 30
0.0
 40
2.40000000000009
100
AcDbArc
 50
90.0
 51
180.0
  0
ARC
  5
1A8
330
2
100
AcDbEntity
  8
0
  6
Continuous
 62
     7
370
    15
100
AcDbCircle
 10
1066.033569856852
 20
1864.658626689515
 30
0.0
 40
2.40000000000009
100
AcDbArc
 50
0.0
 51
90.0
  0
LINE
  5
1A9
330
2
100
AcDbEntity
  8
0
  6
Continuous
 62
     7
370
    15
100
AcDbLine
 10
1250.109993420501
 20
1869.632886182434
 30
0.0
 11
1246.846814092808
 21
1867.347983418654
 31
0.0
  0
LINE
  5
1AA
330
2
100
AcDbEntity
  8
0
  6
Continuous
 62
     7
370
    15
100
AcDbLine
 10
1291.020325620897
 20
1867.347983418654
 30
0.0
 11
1287.757146293203
 21
1869.632886182434
 31
0.0
  0
ARC
  5
1AB
330
2
100
AcDbEntity
  8
0
  6
Continuous
 62
     7
370
    15
100
AcDbCircle
 10
1245.929091794645
 20
1868.658626689517
 30
0.0
 40
1.600000000000119
100
AcDbArc
 50
270.0
 51
305.0000000000129
  0
ARC
  5
1AC
330
2
100
AcDbEntity
  8
0
  6
Continuous
 62
     7
370
    15
100
AcDbCircle
 10
1291.938047919058
 20
1868.658626689517
 30
0.0
 40
1.600000000000119
100
AcDbArc
 50
234.999999999987
 51
270.0
  0
ARC
  5
1AD
330
2
100
AcDbEntity
  8
0
  6
Continuous
 62
     7
370
    15
100
AcDbCircle
 10
1233.833569856852
 20
1864.658626689515
 30
0.0
 40
2.40000000000009
100
AcDbArc
 50
90.0
 51
180.0
  0
ARC
  5
1AE
330
2
100
AcDbEntity
  8
0
  6
Continuous
 62
     7
370
    15
100
AcDbCircle
 10
1304.033569856852
 20
1864.658626689515
 30
0.0
 40
2.40000000000009
100
AcDbArc
 50
0.0
 51
90.0
  0
LINE
  5
1AF
330
2
100
AcDbEntity
  8
0
  6
Continuous
 62
     7
370
    15
100
AcDbLine
 10
1231.433569856852
 20
1864.658626689515
 30
0.0
 11
1231.433569856852
 21
1857.058626689515
 31
0.0
  0
LINE
  5
1B0
330
2
100
AcDbEntity
  8
0
  6
Continuous
 62
     7
370
    15
100
AcDbLine
 10
1306.433569856852
 20
1857.058626689515
 30
0.0
 11
1306.433569856852
 21
1864.658626689515
 31
0.0
  0
LINE
  5
1B1
330
2
100
AcDbEntity
  8
0
  6
Continuous
 62
     7
370
    15
100
AcDbLine
 10
1014.933569856852
 20
1871.365820770126
 30
0.0
 11
1012.458682779626
 21
1869.632886182434
 31
0.0
  0
LINE
  5
1B2
330
2
100
AcDbEntity
  8
0
  6
Continuous
 62
     7
370
    15
100
AcDbLine
 10
1049.408456934079
 20
1869.632886182434
 30
0.0
 11
1046.933569856852
 21
1871.365820770126
 31
0.0
  0
LINE
  5
1B3
330
2
100
AcDbEntity
  8
0
  6
Continuous
 62
     7
370
    15
100
AcDbLine
 10
1252.933569856852
 20
1871.365820770126
 30
0.0
 11
1250.458682779626
 21
1869.632886182434
 31
0.0
  0
LINE
  5
1B4
330
2
100
AcDbEntity
  8
0
  6
Continuous
 62
     7
370
    15
100
AcDbLine
 10
1287.408456934079
 20
1869.632886182434
 30
0.0
 11
1284.933569856852
 21
1871.365820770126
 31
0.0
  0
ARC
  5
1B5
330
2
100
AcDbEntity
  8
0
  6
Continuous
 62
     7
370
    15
100
AcDbCircle
 10
709.3779604645314
 20
1741.07041272793
 30
0.0
 40
35.10000000000019
100
AcDbArc
 50
342.1190236837201
 51
90.0
  0
ARC
  5
1B6
330
2
100
AcDbEntity
  8
0
  6
Continuous
 62
     7
370
    15
100
AcDbCircle
 10
709.3779604645314
 20
1741.07041272793
 30
0.0
 40
35.10000000000019
100
AcDbArc
 50
90.0
 51
287.8809763162811
  0
ARC
  5
1B7
330
2
100
AcDbEntity
  8
0
  6
Continuous
 62
     7
370
    15
100
AcDbCircle
 10
709.3779604645314
 20
1741.07041272793
 30
0.0
 40
23.00447806220646
100
AcDbArc
 50
359.0684104535386
 51
90.0
  0
ARC
  5
1B8
330
2
100
AcDbEntity
  8
0
  6
Continuous
 62
     7
370
    15
100
AcDbCircle
 10
709.3779604645314
 20
1741.07041272793
 30
0.0
 40
23.00447806220646
100
AcDbArc
 50
90.0
 51
270.9315895464484
  0
ARC
  5
1B9
330
2
100
AcDbEntity
  8
0
  6
Continuous
 62
     7
370
    15
100
AcDbCircle
 10
709.3779604645314
 20
1741.07041272793
 30
0.0
 40
22.08675576404474
100
AcDbArc
 50
1.420290349717961
 51
90.0
  0
ARC
  5
1BA
330
2
100
AcDbEntity
  8
0
  6
Continuous
 62
     7
370
    15
100
AcDbCircle
 10
709.3779604645314
 20
1741.07041272793
 30
0.0
 40
22.08675576404474
100
AcDbArc
 50
90.0
 51
268.5797096502819
  0
ARC
  5
1BB
330
2
100
AcDbEntity
  8
0
  6
Continuous
 62
     7
370
    15
100
AcDbCircle
 10
373.3079604645336
 20
1503.07041272793
 30
0.0
 40
35.09999999999991
100
AcDbArc
 50
27.11902368368708
 51
90.0
  0
ARC
  5
1BC
330
2
100
AcDbEntity
  8
0
  6
Continuous
 62
     7
370
    15
100
AcDbCircle
 10
373.3079604645336
 20
1503.07041272793
 30
0.0
 40
35.09999999999994
100
AcDbArc
 50
90.0
 51
332.8809763163129
  0
ARC
  5
1BD
330
2
100
AcDbEntity
  8
0
  6
Continuous
 62
     7
370
    15
100
AcDbCircle
 10
373.3079604645336
 20
1503.07041272793
 30
0.0
 40
23.00447806220632
100
AcDbArc
 50
44.06841045349137
 51
90.0
  0
ARC
  5
1BE
330
2
100
AcDbEntity
  8
0
  6
Continuous
 62
     7
370
    15
100
AcDbCircle
 10
373.3079604645336
 20
1503.07041272793
 30
0.0
 40
23.00447806220632
100
AcDbArc
 50
90.0
 51
315.931589546434
  0
ARC
  5
1BF
330
2
100
AcDbEntity
  8
0
  6
Continuous
 62
     7
370
    15
100
AcDbCircle
 10
373.3079604645336
 20
1503.07041272793
 30
0.0
 40
22.0867557640446
100
AcDbArc
 50
46.42029034969725
 51
90.0
  0
ARC
  5
1C0
330
2
100
AcDbEntity
  8
0
  6
Continuous
 62
     7
370
    15
100
AcDbCircle
 10
373.3079604645336
 20
1503.07041272793
 30
0.0
 40
22.08675576404472
100
AcDbArc
 50
90.0
 51
313.5797096503027
  0
ARC
  5
1C1
330
2
100
AcDbEntity
  8
0
  6
Continuous
 62
     7
370
    15
100
AcDbCircle
 10
373.3079604645336
 20
1503.07041272793
 30
0.0
 40
16.00000000000008
100
AcDbArc
 50
180.0
 51
270.0
  0
ARC
  5
1C2
330
2
100
AcDbEntity
  8
0
  6
Continuous
 62
     7
370
    15
100
AcDbCircle
 10
373.3079604645336
 20
1503.07041272793
 30
0.0
 40
16.00000000000008
100
AcDbArc
 50
90.0
 51
180.0
  0
ARC
  5
1C3
330
2
100
AcDbEntity
  8
0
  6
Continuous
 62
     7
370
    15
100
AcDbCircle
 10
709.3779604645314
 20
1741.07041272793
 30
0.0
 40
15.99999999999997
100
AcDbArc
 50
44.99999999999036
 51
135.0000000000096
  0
ARC
  5
1C4
330
2
100
AcDbEntity
  8
0
  6
Continuous
 62
     7
370
    15
100
AcDbCircle
 10
709.3779604645314
 20
1741.07041272793
 30
0.0
 40
16.00000000000006
100
AcDbArc
 50
135.0000000000096
 51
224.9999999999904
  0
ARC
  5
1C5
330
2
100
AcDbEntity
  8
0
  6
Continuous
 62
     7
370
    15
100
AcDbCircle
 10
709.3779604645314
 20
1741.07041272793
 30
0.0
 40
37.50000000000001
100
AcDbArc
 50
340.2562036615601
 51
90.0
  0
ARC
  5
1C6
330
2
100
AcDbEntity
  8
0
  6
Continuous
 62
     7
370
    15
100
AcDbCircle
 10
709.3779604645314
 20
1741.07041272793
 30
0.0
 40
37.5
100
AcDbArc
 50
90.0
 51
289.7437963384218
  0
ARC
  5
1C7
330
2
100
AcDbEntity
  8
0
  6
Continuous
 62
     7
370
    15
100
AcDbCircle
 10
709.3779604645314
 20
1741.07041272793
 30
0.0
 40
18.82357643635117
100
AcDbArc
 50
13.21143842575767
 51
90.0
  0
ARC
  5
1C8
330
2
100
AcDbEntity
  8
0
  6
Continuous
 62
     7
370
    15
100
AcDbCircle
 10
709.3779604645314
 20
1741.07041272793
 30
0.0
 40
18.82357643635117
100
AcDbArc
 50
90.0
 51
256.788561574279
  0
ARC
  5
1C9
330
2
100
AcDbEntity
  8
0
  6
Continuous
 62
     7
370
    15
100
AcDbCircle
 10
373.3079604645336
 20
1503.07041272793
 30
0.0
 40
37.49999999999987
100
AcDbArc
 50
25.25620366153925
 51
90.0
  0
ARC
  5
1CA
102
{ACAD_REACTORS
330
98
102
}
330
2
100
AcDbEntity
  8
0
  6
Continuous
 62
     7
370
    15
100
AcDbCircle
 10
373.3079604645336
 20
1503.07041272793
 30
0.0
 40
37.49999999999999
100
AcDbArc
 50
90.0
 51
334.7437963384148
  0
ARC
  5
1CB
330
2
100
AcDbEntity
  8
0
  6
Continuous
 62
     7
370
    15
100
AcDbCircle
 10
373.3079604645336
 20
1503.07041272793
 30
0.0
 40
18.82357643635089
100
AcDbArc
 50
58.21143842575366
 51
90.0
  0
ARC
  5
1CC
330
2
100
AcDbEntity
  8
0
  6
Continuous
 62
     7
370
    15
100
AcDbCircle
 10
373.3079604645336
 20
1503.07041272793
 30
0.0
 40
18.82357643635108
100
AcDbArc
 50
90.0
 51
301.7885615742463
  0
ARC
  5
1CD
330
2
100
AcDbEntity
  8
0
  6
Continuous
 62
     7
370
    15
100
AcDbCircle
 10
709.3779604645314
 20
1741.07041272793
 30
0.0
 40
18.70886114908103
100
AcDbArc
 50
13.78291203385165
 51
90.0
  0
ARC
  5
1CE
330
2
100
AcDbEntity
  8
0
  6
Continuous
 62
     7
370
    15
100
AcDbCircle
 10
709.3779604645314
 20
1741.07041272793
 30
0.0
 40
18.70886114908103
100
AcDbArc
 50
90.0
 51
256.21708796616
  0
ARC
  5
1CF
330
2
100
AcDbEntity
  8
0
  6
Continuous
 62
     7
370
    15
100
AcDbCircle
 10
373.3079604645336
 20
1503.07041272793
 30
0.0
 40
18.70886114908074
100
AcDbArc
 50
58.78291203381481
 51
90.0
  0
ARC
  5
1D0
330
2
100
AcDbEntity
  8
0
  6
Continuous
 62
     7
370
    15
100
AcDbCircle
 10
373.3079604645336
 20
1503.07041272793
 30
0.0
 40
18.70886114908094
100
AcDbArc
 50
90.0
 51
301.2170879661852
  0
LINE
  5
1D1
330
2
100
AcDbEntity
  8
0
  6
Continuous
 62
     7
370
    15
100
AcDbLine
 10
448.3079604645336
 20
1487.07041272793
 30
0.0
 11
373.3079604645336
 21
1487.07041272793
 31
0.0
  0
LINE
  5
1D2
330
2
100
AcDbEntity
  8
05-01
100
AcDbLine
 10
332.2790219786657
 20
1503.07041272793
 30
0.0
 11
448.3079604645336
 21
1503.07041272793
 31
0.0
  0
LINE
  5
1D3
330
2
100
AcDbEntity
  8
0
  6
Continuous
 62
     7
370
    15
100
AcDbLine
 10
373.3079604645336
 20
1519.07041272793
 30
0.0
 11
448.3079604645336
 21
1519.07041272793
 31
0.0
  0
LINE
  5
1D4
330
2
100
AcDbEntity
  8
05-01
100
AcDbLine
 10
448.3079604645336
 20
1503.07041272793
 30
0.0
 11
766.3119432865515
 21
1503.07041272793
 31
0.0
  0
LINE
  5
1D5
102
{ACAD_REACTORS
330
F2
102
}
330
2
100
AcDbEntity
  8
0
  6
Continuous
 62
     7
370
    15
100
AcDbLine
 10
448.3079604645336
 20
1519.07041272793
 30
0.0
 11
766.3119432865515
 21
1519.07041272793
 31
0.0
  0
LINE
  5
1D6
330
2
100
AcDbEntity
  8
0
  6
Continuous
 62
     7
370
    15
100
AcDbLine
 10
766.3119432865515
 20
1487.07041272793
 30
0.0
 11
448.3079604645336
 21
1487.07041272793
 31
0.0
  0
LINE
  5
1D7
102
{ACAD_REACTORS
330
F2
102
}
330
2
100
AcDbEntity
  8
0
  6
Continuous
 62
     7
370
    15
100
AcDbLine
 10
808.0312433765575
 20
1619.789712817937
 30
0.0
 11
751.0972605545394
 21
1676.723695639954
 31
0.0
  0
LINE
  5
1D8
330
2
100
AcDbEntity
  8
05-01
100
AcDbLine
 10
681.5653225678443
 20
1768.883050624618
 30
0.0
 11
819.3449518755405
 21
1631.103421316921
 31
0.0
  0
LINE
  5
1D9
330
2
100
AcDbEntity
  8
0
  6
Continuous
 62
     7
370
    15
100
AcDbLine
 10
773.7246775525073
 20
1699.351112637924
 30
0.0
 11
830.6586603745254
 21
1642.417129815906
 31
0.0
  0
ARC
  5
1DA
330
2
100
AcDbEntity
  8
0
  6
Continuous
 62
     7
370
    15
100
AcDbCircle
 10
766.3119432865515
 20
1578.07041272793
 30
0.0
 40
90.99999999999997
100
AcDbArc
 50
270.0
 51
44.99999999999036
  0
ARC
  5
1DB
330
2
100
AcDbEntity
  8
0
  6
Continuous
 62
     7
370
    15
100
AcDbCircle
 10
766.3119432865515
 20
1578.07041272793
 30
0.0
 40
59.00000000000002
100
AcDbArc
 50
0.0
 51
44.99999999999036
  0
ARC
  5
1DC
330
2
100
AcDbEntity
  8
0
  6
Continuous
 62
     7
370
    15
100
AcDbCircle
 10
766.3119432865515
 20
1578.07041272793
 30
0.0
 40
59.00000000000005
100
AcDbArc
 50
270.0
 51
0.0
  0
LINE
  5
1DD
330
2
100
AcDbEntity
  8
0
  6
Continuous
 62
     7
370
    15
100
AcDbLine
 10
720.6916689635163
 20
1752.384121226915
 30
0.0
 11
773.7246775525073
 21
1699.351112637924
 31
0.0
  0
LINE
  5
1DE
330
2
100
AcDbEntity
  8
0
  6
Continuous
 62
     7
370
    15
100
AcDbLine
 10
751.0972605545394
 20
1676.723695639954
 30
0.0
 11
698.0642519655466
 21
1729.756704228946
 31
0.0
  0
ARC
  5
1DF
330
2
100
AcDbEntity
  8
05-01
100
AcDbCircle
 10
766.3119432865515
 20
1578.07041272793
 30
0.0
 40
74.99999999999997
100
AcDbArc
 50
270.0
 51
44.99999999999036
  0
LINE
  5
1E0
330
2
100
AcDbEntity
  8
05-01
100
AcDbLine
 10
952.8263898576369
 20
2601.870045002187
 30
0.0
 11
952.8263898576369
 21
2583.641219407048
 31
0.0
  0
LINE
  5
1E1
330
2
100
AcDbEntity
  8
05-01
100
AcDbLine
 10
810.11726915512
 20
2601.676939700502
 30
0.0
 11
810.11726915512
 21
2584.315249792428
 31
0.0
  0
LINE
  5
1E2
330
2
100
AcDbEntity
  8
05-01
100
AcDbLine
 10
474.0502951183639
 20
2601.365777897993
 30
0.0
 11
474.0502951183639
 21
2583.438556136665
 31
0.0
  0
LINE
  5
1E3
330
2
100
AcDbEntity
  8
0
  6
Continuous
 62
     7
370
    15
100
AcDbLine
 10
826.1172691551182
 20
2601.676939700502
 30
0.0
 11
794.1172691551201
 21
2601.676939700502
 31
0.0
  0
LINE
  5
1E4
330
2
100
AcDbEntity
  8
0
  6
Continuous
 62
     7
370
    15
100
AcDbLine
 10
458.0472691551204
 20
2601.676939700504
 30
0.0
 11
485.360977654107
 21
2601.676939700504
 31
0.0
  0
LINE
  5
1E5
330
2
100
AcDbEntity
  8
0
  6
Continuous
 62
     7
370
    15
100
AcDbLine
 10
485.360977654107
 20
2601.676939700504
 30
0.0
 11
490.0472691551203
 21
2601.676939700504
 31
0.0
  0
LINE
  5
1E6
330
2
100
AcDbEntity
  8
0
  6
Continuous
 62
     7
370
    15
100
AcDbLine
 10
451.9605133910791
 20
2596.96629642964
 30
0.0
 11
474.0472691551222
 21
2596.96629642964
 31
0.0
  0
LINE
  5
1E7
330
2
100
AcDbEntity
  8
0
  6
Continuous
 62
     7
370
    15
100
AcDbLine
 10
474.0472691551222
 20
2596.96629642964
 30
0.0
 11
496.1340249191652
 21
2596.96629642964
 31
0.0
  0
LINE
  5
1E8
330
2
100
AcDbEntity
  8
0
  6
Continuous
 62
     7
370
    15
100
AcDbLine
 10
436.5472691551222
 20
2594.276939700503
 30
0.0
 11
474.0472691551222
 21
2594.276939700503
 31
0.0
  0
LINE
  5
1E9
330
2
100
AcDbEntity
  8
0
  6
Continuous
 62
     7
370
    15
100
AcDbLine
 10
474.0472691551222
 20
2594.276939700503
 30
0.0
 11
511.5472691551222
 21
2594.276939700503
 31
0.0
  0
LINE
  5
1EA
330
2
100
AcDbEntity
  8
0
  6
Continuous
 62
     7
370
    15
100
AcDbLine
 10
788.0305133910751
 20
2596.96629642964
 30
0.0
 11
810.11726915512
 21
2596.96629642964
 31
0.0
  0
LINE
  5
1EB
330
2
100
AcDbEntity
  8
0
  6
Continuous
 62
     7
370
    15
100
AcDbLine
 10
810.11726915512
 20
2596.96629642964
 30
0.0
 11
832.2040249191632
 21
2596.96629642964
 31
0.0
  0
LINE
  5
1EC
330
2
100
AcDbEntity
  8
0
  6
Continuous
 62
     7
370
    15
100
AcDbLine
 10
772.6172691551201
 20
2594.276939700502
 30
0.0
 11
810.11726915512
 21
2594.276939700502
 31
0.0
  0
LINE
  5
1ED
330
2
100
AcDbEntity
  8
0
  6
Continuous
 62
     7
370
    15
100
AcDbLine
 10
810.11726915512
 20
2594.276939700502
 30
0.0
 11
847.61726915512
 21
2594.276939700502
 31
0.0
  0
LINE
  5
1EE
330
2
100
AcDbEntity
  8
0
  6
Continuous
 62
     7
370
    15
100
AcDbLine
 10
455.2236927187696
 20
2599.251199193421
 30
0.0
 11
474.0472691551222
 21
2599.251199193421
 31
0.0
  0
LINE
  5
1EF
330
2
100
AcDbEntity
  8
0
  6
Continuous
 62
     7
370
    15
100
AcDbLine
 10
474.0472691551222
 20
2599.251199193421
 30
0.0
 11
492.8708455914729
 21
2599.251199193421
 31
0.0
  0
LINE
  5
1F0
330
2
100
AcDbEntity
  8
0
  6
Continuous
 62
     7
370
    15
100
AcDbLine
 10
438.9472691551218
 20
2596.676939700504
 30
0.0
 11
474.0472691551222
 21
2596.676939700504
 31
0.0
  0
LINE
  5
1F1
330
2
100
AcDbEntity
  8
0
  6
Continuous
 62
     7
370
    15
100
AcDbLine
 10
474.0472691551222
 20
2596.676939700504
 30
0.0
 11
509.1472691551225
 21
2596.676939700504
 31
0.0
  0
LINE
  5
1F2
102
{ACAD_REACTORS
330
111
102
}
330
2
100
AcDbEntity
  8
0
  6
Continuous
 62
     7
370
    15
100
AcDbLine
 10
436.5472691551222
 20
2586.676939700504
 30
0.0
 11
474.0472691551222
 21
2586.676939700504
 31
0.0
  0
LINE
  5
1F3
330
2
100
AcDbEntity
  8
0
  6
Continuous
 62
     7
370
    15
100
AcDbLine
 10
474.0472691551222
 20
2586.676939700504
 30
0.0
 11
511.5472691551222
 21
2586.676939700504
 31
0.0
  0
LINE
  5
1F4
330
2
100
AcDbEntity
  8
0
  6
Continuous
 62
     7
370
    15
100
AcDbLine
 10
791.2936927187693
 20
2599.251199193421
 30
0.0
 11
810.11726915512
 21
2599.251199193421
 31
0.0
  0
LINE
  5
1F5
330
2
100
AcDbEntity
  8
0
  6
Continuous
 62
     7
370
    15
100
AcDbLine
 10
810.11726915512
 20
2599.251199193421
 30
0.0
 11
828.940845591469
 21
2599.251199193421
 31
0.0
  0
LINE
  5
1F6
330
2
100
AcDbEntity
  8
0
  6
Continuous
 62
     7
370
    15
100
AcDbLine
 10
775.0172691551197
 20
2596.676939700502
 30
0.0
 11
810.11726915512
 21
2596.676939700503
 31
0.0
  0
LINE
  5
1F7
330
2
100
AcDbEntity
  8
0
  6
Continuous
 62
     7
370
    15
100
AcDbLine
 10
810.11726915512
 20
2596.676939700503
 30
0.0
 11
845.2172691551187
 21
2596.676939700502
 31
0.0
  0
LINE
  5
1F8
330
2
100
AcDbEntity
  8
0
  6
Continuous
 62
     7
370
    15
100
AcDbLine
 10
772.6172691551201
 20
2586.676939700502
 30
0.0
 11
810.11726915512
 21
2586.676939700503
 31
0.0
  0
LINE
  5
1F9
330
2
100
AcDbEntity
  8
0
  6
Continuous
 62
     7
370
    15
100
AcDbLine
 10
810.11726915512
 20
2586.676939700503
 30
0.0
 11
847.61726915512
 21
2586.676939700502
 31
0.0
  0
LINE
  5
1FA
102
{ACAD_REACTORS
330
120
102
}
330
2
100
AcDbEntity
  8
05-01
100
AcDbLine
 10
735.1172691551201
 20
2676.676939700503
 30
0.0
 11
324.1797202677717
 21
2676.676939700503
 31
0.0
  0
LINE
  5
1FB
330
2
100
AcDbEntity
  8
0
  6
Continuous
 62
     7
370
    15
100
AcDbLine
 10
735.1172691551201
 20
2660.676939700503
 30
0.0
 11
342.1132863331022
 21
2660.676939700503
 31
0.0
  0
LINE
  5
1FC
330
2
100
AcDbEntity
  8
0
  6
Continuous
 62
     7
370
    15
100
AcDbLine
 10
421.0142605661567
 20
2692.676939700503
 30
0.0
 11
735.1172691551201
 21
2692.676939700503
 31
0.0
  0
ARC
  5
1FD
102
{ACAD_REACTORS
330
120
102
}
330
2
100
AcDbEntity
  8
0
  6
Continuous
 62
     7
370
    15
100
AcDbCircle
 10
735.1172691551201
 20
2601.676939700502
 30
0.0
 40
91.00000000000001
100
AcDbArc
 50
0.0
 51
90.0
  0
ARC
  5
1FE
330
2
100
AcDbEntity
  8
0
  6
Continuous
 62
     7
370
    15
100
AcDbCircle
 10
735.1172691551201
 20
2601.676939700502
 30
0.0
 40
59.00000000000012
100
AcDbArc
 50
0.0
 51
90.0
  0
LINE
  5
1FF
330
2
100
AcDbEntity
  8
0
  6
Continuous
 62
     7
370
    15
100
AcDbLine
 10
826.1172691551182
 20
2601.676939700502
 30
0.0
 11
826.1172691551182
 21
2600.984133781113
 31
0.0
  0
LINE
  5
200
330
2
100
AcDbEntity
  8
0
  6
Continuous
 62
     7
370
    15
100
AcDbLine
 10
794.1172691551201
 20
2600.984133781113
 30
0.0
 11
794.1172691551201
 21
2601.676939700502
 31
0.0
  0
LINE
  5
201
102
{ACAD_REACTORS
330
111
102
}
330
2
100
AcDbEntity
  8
0
  6
Continuous
 62
     7
370
    15
100
AcDbLine
 10
342.1132863331022
 20
2692.676939700503
 30
0.0
 11
364.0802777441113
 21
2692.676939700503
 31
0.0
  0
ARC
  5
202
102
{ACAD_REACTORS
330
120
330
111
102
}
330
2
100
AcDbEntity
  8
0
  6
Continuous
 62
     7
370
    15
100
AcDbCircle
 10
342.1132863331022
 20
2676.676939700503
 30
0.0
 40
16.00000000000001
100
AcDbArc
 50
90.0
 51
270.0
  0
LINE
  5
203
330
2
100
AcDbEntity
  8
0
  6
Continuous
 62
     7
370
    15
100
AcDbLine
 10
364.0802777441113
 20
2692.676939700503
 30
0.0
 11
421.0142605661312
 21
2692.676939700503
 31
0.0
  0
LWPOLYLINE
  5
204
330
2
100
AcDbEntity
  8
0
  6
Continuous
 62
     7
370
    15
100
AcDbPolyline
 90
       24
 70
   128
 43
0.0
 10
458.0472691551204
 20
2601.676939700504
 10
458.0210351325786
 20
2603.850436675147
 10
457.8155626657662
 20
2608.128359622258
 10
457.4075912589705
 20
2612.369684949996
 10
456.8005363748507
 20
2616.549300902767
 10
455.999460449997
 20
2620.643316708621
 10
455.0110655690641
 20
2624.628523202564
 10
453.8436516280508
 20
2628.48261040393
 10
452.5070524971688
 20
2632.184395312973
 10
451.0125426273243
 20
2635.714059968105
 10
449.3727039901441
 20
2639.053398288421
 10
447.6012402286942
 20
2642.186067446294
 10
445.7127213274088
 20
2645.097835399401
 10
443.7229383869398
 20
2647.775929879075
 10
441.647545130314
 20
2650.210778990749
 10
439.5016869937226
 20
2652.395643792515
 10
437.2992768911663
 20
2654.326537314492
 10
435.0519937178924
 20
2656.002035828377
 10
432.768047406089
 20
2657.422759208892
 10
430.4507526475645
 20
2658.590342460286
 10
428.0971321639936
 20
2659.505662812618
 10
425.6972570399702
 20
2660.16610777661
 10
423.2361691147725
 20
2660.562088829396
 10
421.0142605661312
 20
2660.676939700503
  0
LWPOLYLINE
  5
205
330
2
100
AcDbEntity
  8
05-01
100
AcDbPolyline
 90
       28
 70
   128
 43
0.0
 10
420.6281579146011
 20
2676.681598980704
 10
422.7104447003484
 20
2676.631335815742
 10
425.700466317563
 20
2676.371824875253
 10
428.5662058631082
 20
2675.900968209905
 10
431.4200601330148
 20
2675.207462416368
 10
434.2596049841185
 20
2674.288611246413
 10
437.0812080748514
 20
2673.14076477333
 10
439.8797335990716
 20
2671.759768157486
 10
442.648314658692
 20
2670.141510189609
 10
445.3782469342095
 20
2668.282530975109
 10
448.0590273351345
 20
2666.180636499975
 10
450.6785482731152
 20
2663.835455793923
 10
453.223436679471
 20
2661.248875291047
 10
455.6795019423339
 20
2658.425299467485
 10
458.0322368714765
 20
2655.371715677729
 10
460.2673084109087
 20
2652.097576269932
 10
462.3709830691727
 20
2648.614541035749
 10
464.3304522946932
 20
2644.936138752873
 10
466.1340472988604
 20
2641.077405625377
 10
467.7713571067474
 20
2637.054535522501
 10
469.2331770793393
 20
2632.884846358255
 10
470.5116496344894
 20
2628.586198719329
 10
471.6002316175504
 20
2624.176616719358
 10
472.4935072605922
 20
2619.674467549629
 10
473.1871358271514
 20
2615.09835447404
 10
473.6778013553344
 20
2610.467044538026
 10
473.964467524042
 20
2605.778214729649
 10
474.0502951183639
 20
2601.365777897993
  0
LWPOLYLINE
  5
206
330
2
100
AcDbEntity
  8
0
  6
Continuous
 62
     7
370
    15
100
AcDbPolyline
 90
       13
 70
   128
 43
0.0
 10
473.7774341902791
 20
2660.676939700503
 10
476.2896713917235
 20
2656.517451133731
 10
478.6483159150575
 20
2652.08969932925
 10
480.8006757710191
 20
2647.484795091157
 10
482.7397494120923
 20
2642.720491267671
 10
484.4595305069524
 20
2637.814994879222
 10
485.9550761020582
 20
2632.786475873935
 10
487.2224174737893
 20
2627.652782879228
 10
488.2583293476527
 20
2622.431740730418
 10
489.0602568515078
 20
2617.141141246796
 10
489.6262589435227
 20
2611.798742072634
 10
489.9549663976959
 20
2606.422267700683
 10
490.0472691551203
 20
2601.676939700504
  0
LINE
  5
207
330
2
100
AcDbEntity
  8
0
  6
Continuous
 62
     7
370
    15
100
AcDbLine
 10
490.0472691551203
 20
2601.676939700504
 30
0.0
 11
490.0472691551203
 21
2600.984133781114
 31
0.0
  0
LINE
  5
208
330
2
100
AcDbEntity
  8
0
  6
Continuous
 62
     7
370
    15
100
AcDbLine
 10
458.0472691551204
 20
2600.984133781114
 30
0.0
 11
458.0472691551204
 21
2601.676939700504
 31
0.0
  0
LINE
  5
209
330
2
100
AcDbEntity
  8
0
  6
Continuous
 62
     7
370
    15
100
AcDbLine
 10
492.8708455914729
 20
2599.251199193421
 30
0.0
 11
496.1340249191652
 21
2596.96629642964
 31
0.0
  0
LINE
  5
20A
330
2
100
AcDbEntity
  8
0
  6
Continuous
 62
     7
370
    15
100
AcDbLine
 10
451.9605133910791
 20
2596.96629642964
 30
0.0
 11
455.2236927187696
 21
2599.251199193421
 31
0.0
  0
ARC
  5
20B
330
2
100
AcDbEntity
  8
0
  6
Continuous
 62
     7
370
    15
100
AcDbCircle
 10
497.0517472173269
 20
2598.276939700503
 30
0.0
 40
1.599999999999965
100
AcDbArc
 50
234.9999999999871
 51
270.0
  0
ARC
  5
20C
330
2
100
AcDbEntity
  8
0
  6
Continuous
 62
     7
370
    15
100
AcDbCircle
 10
451.0427910929156
 20
2598.276939700503
 30
0.0
 40
1.600000000000002
100
AcDbArc
 50
270.0
 51
305.0000000000129
  0
ARC
  5
20D
330
2
100
AcDbEntity
  8
0
  6
Continuous
 62
     7
370
    15
100
AcDbCircle
 10
509.1472691551225
 20
2594.276939700503
 30
0.0
 40
2.400000000000019
100
AcDbArc
 50
0.0
 51
90.0
  0
ARC
  5
20E
330
2
100
AcDbEntity
  8
0
  6
Continuous
 62
     7
370
    15
100
AcDbCircle
 10
438.9472691551218
 20
2594.276939700503
 30
0.0
 40
2.400000000000019
100
AcDbArc
 50
90.0
 51
180.0
  0
LINE
  5
20F
330
2
100
AcDbEntity
  8
0
  6
Continuous
 62
     7
370
    15
100
AcDbLine
 10
511.5472691551222
 20
2594.276939700503
 30
0.0
 11
511.5472691551222
 21
2586.676939700504
 31
0.0
  0
LINE
  5
210
330
2
100
AcDbEntity
  8
0
  6
Continuous
 62
     7
370
    15
100
AcDbLine
 10
436.5472691551222
 20
2586.676939700504
 30
0.0
 11
436.5472691551222
 21
2594.276939700503
 31
0.0
  0
LINE
  5
211
330
2
100
AcDbEntity
  8
0
  6
Continuous
 62
     7
370
    15
100
AcDbLine
 10
828.940845591469
 20
2599.251199193421
 30
0.0
 11
832.2040249191632
 21
2596.96629642964
 31
0.0
  0
LINE
  5
212
330
2
100
AcDbEntity
  8
0
  6
Continuous
 62
     7
370
    15
100
AcDbLine
 10
788.0305133910751
 20
2596.96629642964
 30
0.0
 11
791.2936927187693
 21
2599.251199193421
 31
0.0
  0
ARC
  5
213
330
2
100
AcDbEntity
  8
0
  6
Continuous
 62
     7
370
    15
100
AcDbCircle
 10
833.1217472173248
 20
2598.276939700502
 30
0.0
 40
1.600000000000002
100
AcDbArc
 50
234.9999999999871
 51
270.0
  0
ARC
  5
214
330
2
100
AcDbEntity
  8
0
  6
Continuous
 62
     7
370
    15
100
AcDbCircle
 10
787.1127910929117
 20
2598.276939700502
 30
0.0
 40
1.599999999999965
100
AcDbArc
 50
270.0
 51
304.9999999999811
  0
ARC
  5
215
330
2
100
AcDbEntity
  8
0
  6
Continuous
 62
     7
370
    15
100
AcDbCircle
 10
845.2172691551187
 20
2594.276939700502
 30
0.0
 40
2.399999999999948
100
AcDbArc
 50
0.0
 51
90.0
  0
ARC
  5
216
330
2
100
AcDbEntity
  8
0
  6
Continuous
 62
     7
370
    15
100
AcDbCircle
 10
775.0172691551197
 20
2594.276939700502
 30
0.0
 40
2.40000000000009
100
AcDbArc
 50
90.0
 51
180.0
  0
LINE
  5
217
330
2
100
AcDbEntity
  8
0
  6
Continuous
 62
     7
370
    15
100
AcDbLine
 10
847.61726915512
 20
2594.276939700502
 30
0.0
 11
847.61726915512
 21
2586.676939700502
 31
0.0
  0
LINE
  5
218
330
2
100
AcDbEntity
  8
0
  6
Continuous
 62
     7
370
    15
100
AcDbLine
 10
772.6172691551201
 20
2586.676939700502
 30
0.0
 11
772.6172691551201
 21
2594.276939700502
 31
0.0
  0
LINE
  5
219
330
2
100
AcDbEntity
  8
0
  6
Continuous
 62
     7
370
    15
100
AcDbLine
 10
490.0472691551203
 20
2600.984133781114
 30
0.0
 11
492.5221562323494
 21
2599.251199193421
 31
0.0
  0
LINE
  5
21A
330
2
100
AcDbEntity
  8
0
  6
Continuous
 62
     7
370
    15
100
AcDbLine
 10
455.5723820778949
 20
2599.251199193421
 30
0.0
 11
458.0472691551204
 21
2600.984133781114
 31
0.0
  0
LINE
  5
21B
330
2
100
AcDbEntity
  8
0
  6
Continuous
 62
     7
370
    15
100
AcDbLine
 10
826.1172691551182
 20
2600.984133781113
 30
0.0
 11
828.5921562323474
 21
2599.251199193421
 31
0.0
  0
LINE
  5
21C
330
2
100
AcDbEntity
  8
0
  6
Continuous
 62
     7
370
    15
100
AcDbLine
 10
791.6423820778927
 20
2599.251199193421
 30
0.0
 11
794.1172691551201
 21
2600.984133781113
 31
0.0
  0
ARC
  5
21D
330
2
100
AcDbEntity
  8
05-01
100
AcDbCircle
 10
735.1172691551201
 20
2601.676939700502
 30
0.0
 40
75.0
100
AcDbArc
 50
0.0
 51
90.0
  0
LINE
  5
21E
330
2
100
AcDbEntity
  8
0
  6
Continuous
 62
     7
370
    15
100
AcDbLine
 10
1174.8252245134
 20
2601.676939700502
 30
0.0
 11
1206.8252245134
 21
2601.676939700502
 31
0.0
  0
LINE
  5
21F
330
2
100
AcDbEntity
  8
0
  6
Continuous
 62
     7
370
    15
100
AcDbLine
 10
968.8252240074735
 20
2601.676939700502
 30
0.0
 11
936.8252245523445
 21
2601.676939700502
 31
0.0
  0
LINE
  5
220
330
2
100
AcDbEntity
  8
0
  6
Continuous
 62
     7
370
    15
100
AcDbLine
 10
974.9119802774448
 20
2596.966296429642
 30
0.0
 11
930.7384687493559
 21
2596.966296429642
 31
0.0
  0
LINE
  5
221
330
2
100
AcDbEntity
  8
0
  6
Continuous
 62
     7
370
    15
100
AcDbLine
 10
990.3252245133998
 20
2594.276939700502
 30
0.0
 11
915.3252245133998
 21
2594.276939700502
 31
0.0
  0
LINE
  5
222
330
2
100
AcDbEntity
  8
0
  6
Continuous
 62
     7
370
    15
100
AcDbLine
 10
1212.911980277445
 20
2596.966296429642
 30
0.0
 11
1168.738468749356
 21
2596.966296429642
 31
0.0
  0
LINE
  5
223
330
2
100
AcDbEntity
  8
0
  6
Continuous
 62
     7
370
    15
100
AcDbLine
 10
1228.325224513401
 20
2594.276939700502
 30
0.0
 11
1153.325224513401
 21
2594.276939700502
 31
0.0
  0
ARC
  5
224
102
{ACAD_REACTORS
330
76
102
}
330
2
100
AcDbEntity
  8
0
  6
Continuous
 62
     7
370
    15
100
AcDbCircle
 10
1190.825224513401
 20
2676.676939700502
 30
0.0
 40
15.99999999999994
100
AcDbArc
 50
270.0
 51
90.0
  0
LINE
  5
225
330
2
100
AcDbEntity
  8
0
  6
Continuous
 62
     7
370
    15
100
AcDbLine
 10
971.6488009497515
 20
2599.251199193421
 30
0.0
 11
934.0016480770492
 21
2599.251199193421
 31
0.0
  0
LINE
  5
226
330
2
100
AcDbEntity
  8
0
  6
Continuous
 62
     7
370
    15
100
AcDbLine
 10
990.3252245133998
 20
2586.676939700502
 30
0.0
 11
915.3252245133998
 21
2586.676939700502
 31
0.0
  0
LINE
  5
227
330
2
100
AcDbEntity
  8
0
  6
Continuous
 62
     7
370
    15
100
AcDbLine
 10
987.925224451178
 20
2596.676939700502
 30
0.0
 11
917.7252245134004
 21
2596.676939700502
 31
0.0
  0
LINE
  5
228
330
2
100
AcDbEntity
  8
0
  6
Continuous
 62
     7
370
    15
100
AcDbLine
 10
1209.648800949751
 20
2599.251199193421
 30
0.0
 11
1172.001648077049
 21
2599.251199193421
 31
0.0
  0
LINE
  5
229
330
2
100
AcDbEntity
  8
0
  6
Continuous
 62
     7
370
    15
100
AcDbLine
 10
1225.925224451178
 20
2596.676939700502
 30
0.0
 11
1155.725224513399
 21
2596.676939700502
 31
0.0
  0
LINE
  5
22A
330
2
100
AcDbEntity
  8
0
  6
Continuous
 62
     7
370
    15
100
AcDbLine
 10
1228.325224513401
 20
2586.676939700502
 30
0.0
 11
1153.325224513401
 21
2586.676939700502
 31
0.0
  0
LINE
  5
22B
330
2
100
AcDbEntity
  8
0
  6
Continuous
 62
     7
370
    15
100
AcDbLine
 10
1174.8252245134
 20
2601.676939700502
 30
0.0
 11
1174.8252245134
 21
2600.984133781113
 31
0.0
  0
LINE
  5
22C
330
2
100
AcDbEntity
  8
0
  6
Continuous
 62
     7
370
    15
100
AcDbLine
 10
1206.8252245134
 20
2600.984133781113
 30
0.0
 11
1206.8252245134
 21
2601.676939700502
 31
0.0
  0
LINE
  5
22D
102
{ACAD_REACTORS
330
C5
102
}
330
2
100
AcDbEntity
  8
0
  6
Continuous
 62
     7
370
    15
100
AcDbLine
 10
1206.8252245134
 20
2601.676939700502
 30
0.0
 11
1206.8252245134
 21
2676.676939700502
 31
0.0
  0
LINE
  5
22E
102
{ACAD_REACTORS
330
76
102
}
330
2
100
AcDbEntity
  8
05-01
100
AcDbLine
 10
1190.8252245134
 20
2695.367227016991
 30
0.0
 11
1190.8252245134
 21
2582.495495691751
 31
0.0
  0
LINE
  5
22F
330
2
100
AcDbEntity
  8
0
  6
Continuous
 62
     7
370
    15
100
AcDbLine
 10
1174.8252245134
 20
2660.676939700504
 30
0.0
 11
1174.8252245134
 21
2601.676939700502
 31
0.0
  0
LINE
  5
230
102
{ACAD_REACTORS
330
C5
102
}
330
2
100
AcDbEntity
  8
0
  6
Continuous
 62
     7
370
    15
100
AcDbLine
 10
936.8252245134
 20
2601.676939700502
 30
0.0
 11
936.8252245134
 21
2600.984133781113
 31
0.0
  0
LINE
  5
231
330
2
100
AcDbEntity
  8
0
  6
Continuous
 62
     7
370
    15
100
AcDbLine
 10
968.8252245134007
 20
2600.984133781113
 30
0.0
 11
968.8252245134007
 21
2601.676939700502
 31
0.0
  0
LWPOLYLINE
  5
232
330
2
100
AcDbEntity
  8
05-01
100
AcDbPolyline
 90
       24
 70
   128
 43
0.0
 10
952.8263898576369
 20
2601.870045002187
 10
952.8560928721253
 20
2604.330949044828
 10
953.0937428452043
 20
2609.278805509385
 10
953.5754459250156
 20
2614.286655174407
 10
954.2944443255915
 20
2619.23701018129
 10
955.2474491527009
 20
2624.107480887249
 10
956.4301758947653
 20
2628.87623311772
 10
957.837424047781
 20
2633.522106278161
 10
959.463190814553
 20
2638.024756881329
 10
961.3008216812886
 20
2642.364788921513
 10
963.3432056109258
 20
2646.523863336764
 10
965.5830244577673
 20
2650.484774970084
 10
968.0130195263473
 20
2654.231405073747
 10
970.625612825067
 20
2657.74775429387
 10
973.4143086717763
 20
2661.019449228509
 10
976.3740502102537
 20
2664.032991922442
 10
979.501782929473
 20
2666.7751328339
 10
982.7971810395533
 20
2669.232070482772
 10
986.2633765811706
 20
2671.388209189697
 10
989.9074308619082
 20
2673.224288406507
 10
993.7398673855396
 20
2674.714718649445
 10
997.7716192346671
 20
2675.824255632499
 10
1001.947615679145
 20
2676.496159895482
 10
1005.032292759578
 20
2676.655607434395
  0
LWPOLYLINE
  5
233
330
2
100
AcDbEntity
  8
0
  6
Continuous
 62
     7
370
    15
100
AcDbPolyline
 90
       24
 70
   128
 43
0.0
 10
968.8252245134007
 20
2601.676939700502
 10
968.8514585359426
 20
2603.850436675147
 10
969.0569310027568
 20
2608.12835962226
 10
969.4649024095506
 20
2612.369684949996
 10
970.0719572936723
 20
2616.549300902768
 10
970.873033218525
 20
2620.643316708623
 10
971.8614280994579
 20
2624.628523202567
 10
973.0288420404722
 20
2628.482610403932
 10
974.3654411713533
 20
2632.184395312973
 10
975.8599510411986
 20
2635.714059968105
 10
977.499789678378
 20
2639.053398288422
 10
979.2712534398269
 20
2642.186067446296
 10
981.1597723411123
 20
2645.097835399401
 10
983.1495552815832
 20
2647.775929879076
 10
985.2249485382081
 20
2650.210778990749
 10
987.3708066748013
 20
2652.395643792515
 10
989.5732167773557
 20
2654.326537314494
 10
991.8204999506297
 20
2656.002035828378
 10
994.1044462624313
 20
2657.422759208893
 10
996.4217410209567
 20
2658.590342460285
 10
998.7753615045267
 20
2659.50566281262
 10
1001.175236628551
 20
2660.16610777661
 10
1003.636324553751
 20
2660.562088829397
 10
1005.858233102391
 20
2660.676939700504
  0
LWPOLYLINE
  5
234
330
2
100
AcDbEntity
  8
0
  6
Continuous
 62
     7
370
    15
100
AcDbPolyline
 90
       28
 70
   128
 43
0.0
 10
1005.858233102391
 20
2692.676939700504
 10
1003.276396521231
 20
2692.614618180302
 10
999.1803412810531
 20
2692.259112005512
 10
995.1156095660635
 20
2691.591254375594
 10
991.0943142928736
 20
2690.614052561582
 10
987.1279614167951
 20
2689.330576451238
 10
983.2280159282072
 20
2687.744053283258
 10
979.4061072349132
 20
2685.858044767048
 10
975.6741929745276
 20
2683.67671077059
 10
972.0446498899582
 20
2681.205131086049
 10
968.5302654518491
 20
2678.449640471669
 10
965.1441178310943
 20
2675.418121252678
 10
961.8993532863942
 20
2672.120198763511
 10
958.8088931594011
 20
2668.567301114489
 10
955.8851191782178
 20
2664.772573232803
 10
953.1395889627464
 20
2660.75066676798
 10
950.5828222767977
 20
2656.517451133733
 10
948.2241777534646
 20
2652.089699329253
 10
946.0718178975048
 20
2647.484795091158
 10
944.1327442564288
 20
2642.720491267672
 10
942.4129631615697
 20
2637.814994879224
 10
940.9174175664638
 20
2632.786475873939
 10
939.6500761947336
 20
2627.652782879231
 10
938.6141643208702
 20
2622.431740730422
 10
937.8122368170133
 20
2617.1411412468
 10
937.2462347249983
 20
2611.798742072638
 10
936.9175272708261
 20
2606.422267700687
 10
936.8252245134
 20
2601.676939700502
  0
LINE
  5
235
330
2
100
AcDbEntity
  8
0
  6
Continuous
 62
     7
370
    15
100
AcDbLine
 10
1062.792215924409
 20
2692.676939700504
 30
0.0
 11
1005.858233102391
 21
2692.676939700504
 31
0.0
  0
LINE
  5
236
330
2
100
AcDbEntity
  8
05-01
100
AcDbLine
 10
1005.858233102391
 20
2676.676939700504
 30
0.0
 11
1209.417670443648
 21
2676.676939700504
 31
0.0
  0
LINE
  5
237
330
2
100
AcDbEntity
  8
0
  6
Continuous
 62
     7
370
    15
100
AcDbLine
 10
1005.858233102391
 20
2660.676939700504
 30
0.0
 11
1062.792215924409
 21
2660.676939700504
 31
0.0
  0
LINE
  5
238
330
2
100
AcDbEntity
  8
0
  6
Continuous
 62
     7
370
    15
100
AcDbLine
 10
1062.792215924409
 20
2660.676939700504
 30
0.0
 11
1190.825224513401
 21
2660.676939700504
 31
0.0
  0
LINE
  5
239
330
2
100
AcDbEntity
  8
0
  6
Continuous
 62
     7
370
    15
100
AcDbLine
 10
1190.825224513401
 20
2692.676939700504
 30
0.0
 11
1062.792215924409
 21
2692.676939700504
 31
0.0
  0
LINE
  5
23A
330
2
100
AcDbEntity
  8
0
  6
Continuous
 62
     7
370
    15
100
AcDbLine
 10
934.0016480770492
 20
2599.251199193421
 30
0.0
 11
930.7384687493559
 21
2596.966296429642
 31
0.0
  0
LINE
  5
23B
330
2
100
AcDbEntity
  8
0
  6
Continuous
 62
     7
370
    15
100
AcDbLine
 10
974.9119802774448
 20
2596.966296429642
 30
0.0
 11
971.6488009497515
 21
2599.251199193421
 31
0.0
  0
ARC
  5
23C
330
2
100
AcDbEntity
  8
0
  6
Continuous
 62
     7
370
    15
100
AcDbCircle
 10
929.8207464511943
 20
2598.276939700504
 30
0.0
 40
1.600000000000002
100
AcDbArc
 50
270.0
 51
305.0000000000447
  0
ARC
  5
23D
330
2
100
AcDbEntity
  8
0
  6
Continuous
 62
     7
370
    15
100
AcDbCircle
 10
975.8297025756064
 20
2598.276939700504
 30
0.0
 40
1.600000000000002
100
AcDbArc
 50
234.9999999999553
 51
270.0
  0
LINE
  5
23E
330
2
100
AcDbEntity
  8
0
  6
Continuous
 62
     7
370
    15
100
AcDbLine
 10
915.3252245133998
 20
2594.276939700502
 30
0.0
 11
915.3252245133998
 21
2586.676939700502
 31
0.0
  0
LINE
  5
23F
330
2
100
AcDbEntity
  8
0
  6
Continuous
 62
     7
370
    15
100
AcDbLine
 10
990.3252245133998
 20
2586.676939700502
 30
0.0
 11
990.3252245133998
 21
2594.276939700502
 31
0.0
  0
ARC
  5
240
330
2
100
AcDbEntity
  8
0
  6
Continuous
 62
     7
370
    15
100
AcDbCircle
 10
917.7252245134004
 20
2594.276939700502
 30
0.0
 40
2.40000000000009
100
AcDbArc
 50
90.0
 51
180.0
  0
ARC
  5
241
330
2
100
AcDbEntity
  8
0
  6
Continuous
 62
     7
370
    15
100
AcDbCircle
 10
987.9252245134003
 20
2594.276939700502
 30
0.0
 40
2.40000000000009
100
AcDbArc
 50
0.0
 51
90.0
  0
LINE
  5
242
330
2
100
AcDbEntity
  8
0
  6
Continuous
 62
     7
370
    15
100
AcDbLine
 10
1172.001648077049
 20
2599.251199193421
 30
0.0
 11
1168.738468749356
 21
2596.966296429642
 31
0.0
  0
LINE
  5
243
330
2
100
AcDbEntity
  8
0
  6
Continuous
 62
     7
370
    15
100
AcDbLine
 10
1212.911980277445
 20
2596.966296429642
 30
0.0
 11
1209.648800949751
 21
2599.251199193421
 31
0.0
  0
ARC
  5
244
330
2
100
AcDbEntity
  8
0
  6
Continuous
 62
     7
370
    15
100
AcDbCircle
 10
1167.820746451193
 20
2598.276939700504
 30
0.0
 40
1.600000000000119
100
AcDbArc
 50
270.0
 51
304.9999999999812
  0
ARC
  5
245
330
2
100
AcDbEntity
  8
0
  6
Continuous
 62
     7
370
    15
100
AcDbCircle
 10
1213.829702575606
 20
2598.276939700504
 30
0.0
 40
1.600000000000119
100
AcDbArc
 50
235.0000000000188
 51
270.0
  0
ARC
  5
246
330
2
100
AcDbEntity
  8
0
  6
Continuous
 62
     7
370
    15
100
AcDbCircle
 10
1155.725224513399
 20
2594.276939700502
 30
0.0
 40
2.40000000000009
100
AcDbArc
 50
90.0
 51
180.0
  0
ARC
  5
247
330
2
100
AcDbEntity
  8
0
  6
Continuous
 62
     7
370
    15
100
AcDbCircle
 10
1225.9252245134
 20
2594.276939700502
 30
0.0
 40
2.40000000000009
100
AcDbArc
 50
0.0
 51
90.0
  0
LINE
  5
248
330
2
100
AcDbEntity
  8
0
  6
Continuous
 62
     7
370
    15
100
AcDbLine
 10
1153.325224513401
 20
2594.276939700502
 30
0.0
 11
1153.325224513401
 21
2586.676939700502
 31
0.0
  0
LINE
  5
249
330
2
100
AcDbEntity
  8
0
  6
Continuous
 62
     7
370
    15
100
AcDbLine
 10
1228.325224513401
 20
2586.676939700502
 30
0.0
 11
1228.325224513401
 21
2594.276939700502
 31
0.0
  0
LINE
  5
24A
330
2
100
AcDbEntity
  8
0
  6
Continuous
 62
     7
370
    15
100
AcDbLine
 10
936.8252245134
 20
2600.984133781113
 30
0.0
 11
934.3503374361734
 21
2599.251199193421
 31
0.0
  0
LINE
  5
24B
330
2
100
AcDbEntity
  8
0
  6
Continuous
 62
     7
370
    15
100
AcDbLine
 10
971.3001115906273
 20
2599.251199193421
 30
0.0
 11
968.8252245134007
 21
2600.984133781113
 31
0.0
  0
LINE
  5
24C
330
2
100
AcDbEntity
  8
0
  6
Continuous
 62
     7
370
    15
100
AcDbLine
 10
1174.8252245134
 20
2600.984133781113
 30
0.0
 11
1172.350337436173
 21
2599.251199193421
 31
0.0
  0
LINE
  5
24D
330
2
100
AcDbEntity
  8
0
  6
Continuous
 62
     7
370
    15
100
AcDbLine
 10
1209.300111590627
 20
2599.251199193421
 30
0.0
 11
1206.8252245134
 21
2600.984133781113
 31
0.0
  0
ARC
  5
24E
330
2
100
AcDbEntity
  8
0
  6
Continuous
 62
     7
370
    15
100
AcDbCircle
 10
474.0472691551222
 20
2470.688725738919
 30
0.0
 40
35.10000000000019
100
AcDbArc
 50
90.0
 51
197.8809763162777
  0
ARC
  5
24F
330
2
100
AcDbEntity
  8
0
  6
Continuous
 62
     7
370
    15
100
AcDbCircle
 10
474.0472691551222
 20
2470.688725738919
 30
0.0
 40
35.10000000000019
100
AcDbArc
 50
252.1190236836916
 51
90.0
  0
ARC
  5
250
330
2
100
AcDbEntity
  8
0
  6
Continuous
 62
     7
370
    15
100
AcDbCircle
 10
474.0472691551222
 20
2470.688725738919
 30
0.0
 40
23.00447806220646
100
AcDbArc
 50
90.0
 51
180.9315895464614
  0
ARC
  5
251
330
2
100
AcDbEntity
  8
0
  6
Continuous
 62
     7
370
    15
100
AcDbCircle
 10
474.0472691551222
 20
2470.688725738919
 30
0.0
 40
23.00447806220646
100
AcDbArc
 50
269.0684104535516
 51
90.0
  0
ARC
  5
252
330
2
100
AcDbEntity
  8
0
  6
Continuous
 62
     7
370
    15
100
AcDbCircle
 10
474.0472691551222
 20
2470.688725738919
 30
0.0
 40
22.08675576404474
100
AcDbArc
 50
90.0
 51
178.579709650282
  0
ARC
  5
253
330
2
100
AcDbEntity
  8
0
  6
Continuous
 62
     7
370
    15
100
AcDbCircle
 10
474.0472691551222
 20
2470.688725738919
 30
0.0
 40
22.08675576404474
100
AcDbArc
 50
271.4202903497181
 51
90.0
  0
ARC
  5
254
330
2
100
AcDbEntity
  8
0
  6
Continuous
 62
     7
370
    15
100
AcDbCircle
 10
810.11726915512
 20
2232.688725738919
 30
0.0
 40
35.09999999999991
100
AcDbArc
 50
90.0
 51
152.8809763163122
  0
ARC
  5
255
330
2
100
AcDbEntity
  8
0
  6
Continuous
 62
     7
370
    15
100
AcDbCircle
 10
810.11726915512
 20
2232.688725738919
 30
0.0
 40
35.09999999999994
100
AcDbArc
 50
207.1190236836878
 51
90.0
  0
ARC
  5
256
330
2
100
AcDbEntity
  8
0
  6
Continuous
 62
     7
370
    15
100
AcDbCircle
 10
810.11726915512
 20
2232.688725738919
 30
0.0
 40
23.00447806220632
100
AcDbArc
 50
90.0
 51
135.9315895464714
  0
ARC
  5
257
330
2
100
AcDbEntity
  8
0
  6
Continuous
 62
     7
370
    15
100
AcDbCircle
 10
810.11726915512
 20
2232.688725738919
 30
0.0
 40
23.00447806220632
100
AcDbArc
 50
224.068410453566
 51
90.0
  0
ARC
  5
258
330
2
100
AcDbEntity
  8
0
  6
Continuous
 62
     7
370
    15
100
AcDbCircle
 10
810.11726915512
 20
2232.688725738919
 30
0.0
 40
22.0867557640446
100
AcDbArc
 50
90.0
 51
133.5797096503026
  0
ARC
  5
259
330
2
100
AcDbEntity
  8
0
  6
Continuous
 62
     7
370
    15
100
AcDbCircle
 10
810.11726915512
 20
2232.688725738919
 30
0.0
 40
22.08675576404472
100
AcDbArc
 50
226.4202903496974
 51
90.0
  0
ARC
  5
25A
330
2
100
AcDbEntity
  8
0
  6
Continuous
 62
     7
370
    15
100
AcDbCircle
 10
810.11726915512
 20
2232.688725738919
 30
0.0
 40
16.00000000000008
100
AcDbArc
 50
270.0
 51
0.0
  0
ARC
  5
25B
330
2
100
AcDbEntity
  8
0
  6
Continuous
 62
     7
370
    15
100
AcDbCircle
 10
810.11726915512
 20
2232.688725738919
 30
0.0
 40
16.00000000000008
100
AcDbArc
 50
0.0
 51
90.0
  0
ARC
  5
25C
330
2
100
AcDbEntity
  8
0
  6
Continuous
 62
     7
370
    15
100
AcDbCircle
 10
474.0472691551222
 20
2470.688725738919
 30
0.0
 40
15.99999999999997
100
AcDbArc
 50
44.99999999999037
 51
135.0000000000096
  0
ARC
  5
25D
330
2
100
AcDbEntity
  8
0
  6
Continuous
 62
     7
370
    15
100
AcDbCircle
 10
474.0472691551222
 20
2470.688725738919
 30
0.0
 40
16.00000000000006
100
AcDbArc
 50
315.0000000000096
 51
44.99999999999037
  0
ARC
  5
25E
330
2
100
AcDbEntity
  8
0
  6
Continuous
 62
     7
370
    15
100
AcDbCircle
 10
474.0472691551222
 20
2470.688725738919
 30
0.0
 40
37.50000000000001
100
AcDbArc
 50
90.0
 51
199.7437963384398
  0
ARC
  5
25F
330
2
100
AcDbEntity
  8
0
  6
Continuous
 62
     7
370
    15
100
AcDbCircle
 10
474.0472691551222
 20
2470.688725738919
 30
0.0
 40
37.5
100
AcDbArc
 50
250.2562036615505
 51
90.0
  0
ARC
  5
260
330
2
100
AcDbEntity
  8
0
  6
Continuous
 62
     7
370
    15
100
AcDbCircle
 10
474.0472691551222
 20
2470.688725738919
 30
0.0
 40
18.82357643635117
100
AcDbArc
 50
90.0
 51
166.7885615742315
  0
ARC
  5
261
330
2
100
AcDbEntity
  8
0
  6
Continuous
 62
     7
370
    15
100
AcDbCircle
 10
474.0472691551222
 20
2470.688725738919
 30
0.0
 40
18.82357643635117
100
AcDbArc
 50
283.2114384257478
 51
90.0
  0
ARC
  5
262
102
{ACAD_REACTORS
330
A7
102
}
330
2
100
AcDbEntity
  8
0
  6
Continuous
 62
     7
370
    15
100
AcDbCircle
 10
810.11726915512
 20
2232.688725738919
 30
0.0
 40
37.49999999999987
100
AcDbArc
 50
90.0
 51
154.7437963384607
  0
ARC
  5
263
102
{ACAD_REACTORS
330
A7
102
}
330
2
100
AcDbEntity
  8
0
  6
Continuous
 62
     7
370
    15
100
AcDbCircle
 10
810.11726915512
 20
2232.688725738919
 30
0.0
 40
37.49999999999999
100
AcDbArc
 50
205.2562036615899
 51
90.0
  0
ARC
  5
264
330
2
100
AcDbEntity
  8
0
  6
Continuous
 62
     7
370
    15
100
AcDbCircle
 10
810.11726915512
 20
2232.688725738919
 30
0.0
 40
18.82357643635089
100
AcDbArc
 50
90.0
 51
121.7885615742463
  0
ARC
  5
265
330
2
100
AcDbEntity
  8
0
  6
Continuous
 62
     7
370
    15
100
AcDbCircle
 10
810.11726915512
 20
2232.688725738919
 30
0.0
 40
18.82357643635108
100
AcDbArc
 50
238.2114384257537
 51
90.0
  0
ARC
  5
266
330
2
100
AcDbEntity
  8
0
  6
Continuous
 62
     7
370
    15
100
AcDbCircle
 10
474.0472691551222
 20
2470.688725738919
 30
0.0
 40
18.70886114908103
100
AcDbArc
 50
90.0
 51
166.2170879661483
  0
ARC
  5
267
330
2
100
AcDbEntity
  8
0
  6
Continuous
 62
     7
370
    15
100
AcDbCircle
 10
474.0472691551222
 20
2470.688725738919
 30
0.0
 40
18.70886114908103
100
AcDbArc
 50
283.78291203384
 51
90.0
  0
ARC
  5
268
330
2
100
AcDbEntity
  8
0
  6
Continuous
 62
     7
370
    15
100
AcDbCircle
 10
810.11726915512
 20
2232.688725738919
 30
0.0
 40
18.70886114908074
100
AcDbArc
 50
90.0
 51
121.2170879661547
  0
ARC
  5
269
330
2
100
AcDbEntity
  8
0
  6
Continuous
 62
     7
370
    15
100
AcDbCircle
 10
810.11726915512
 20
2232.688725738919
 30
0.0
 40
18.70886114908094
100
AcDbArc
 50
238.7829120338453
 51
90.0
  0
LINE
  5
26A
330
2
100
AcDbEntity
  8
0
  6
Continuous
 62
     7
370
    15
100
AcDbLine
 10
735.1172691551201
 20
2216.688725738919
 30
0.0
 11
810.11726915512
 21
2216.688725738919
 31
0.0
  0
LINE
  5
26B
330
2
100
AcDbEntity
  8
05-01
100
AcDbLine
 10
851.146207640988
 20
2232.688725738919
 30
0.0
 11
735.1172691551201
 21
2232.688725738919
 31
0.0
  0
LINE
  5
26C
330
2
100
AcDbEntity
  8
0
  6
Continuous
 62
     7
370
    15
100
AcDbLine
 10
810.11726915512
 20
2248.688725738919
 30
0.0
 11
735.1172691551201
 21
2248.688725738919
 31
0.0
  0
LINE
  5
26D
330
2
100
AcDbEntity
  8
05-01
100
AcDbLine
 10
735.1172691551201
 20
2232.688725738919
 30
0.0
 11
417.1132863331022
 21
2232.688725738919
 31
0.0
  0
LINE
  5
26E
102
{ACAD_REACTORS
330
101
102
}
330
2
100
AcDbEntity
  8
0
  6
Continuous
 62
     7
370
    15
100
AcDbLine
 10
735.1172691551201
 20
2248.688725738919
 30
0.0
 11
417.1132863331022
 21
2248.688725738919
 31
0.0
  0
LINE
  5
26F
330
2
100
AcDbEntity
  8
0
  6
Continuous
 62
     7
370
    15
100
AcDbLine
 10
417.1132863331022
 20
2216.688725738919
 30
0.0
 11
735.1172691551201
 21
2216.688725738919
 31
0.0
  0
LINE
  5
270
102
{ACAD_REACTORS
330
101
102
}
330
2
100
AcDbEntity
  8
0
  6
Continuous
 62
     7
370
    15
100
AcDbLine
 10
375.3939862430962
 20
2349.408025828926
 30
0.0
 11
432.3279690651142
 21
2406.342008650943
 31
0.0
  0
LINE
  5
271
330
2
100
AcDbEntity
  8
05-01
100
AcDbLine
 10
501.8599070518093
 20
2498.501363635606
 30
0.0
 11
364.0802777441131
 21
2360.72173432791
 31
0.0
  0
LINE
  5
272
330
2
100
AcDbEntity
  8
0
  6
Continuous
 62
     7
370
    15
100
AcDbLine
 10
409.7005520671464
 20
2428.969425648913
 30
0.0
 11
352.7665692451283
 21
2372.035442826895
 31
0.0
  0
ARC
  5
273
330
2
100
AcDbEntity
  8
0
  6
Continuous
 62
     7
370
    15
100
AcDbCircle
 10
417.1132863331022
 20
2307.688725738919
 30
0.0
 40
90.99999999999997
100
AcDbArc
 50
135.0000000000096
 51
270.0
  0
ARC
  5
274
330
2
100
AcDbEntity
  8
0
  6
Continuous
 62
     7
370
    15
100
AcDbCircle
 10
417.1132863331022
 20
2307.688725738919
 30
0.0
 40
59.00000000000002
100
AcDbArc
 50
135.0000000000096
 51
180.0
  0
ARC
  5
275
330
2
100
AcDbEntity
  8
0
  6
Continuous
 62
     7
370
    15
100
AcDbCircle
 10
417.1132863331022
 20
2307.688725738919
 30
0.0
 40
59.00000000000005
100
AcDbArc
 50
180.0
 51
270.0
  0
LINE
  5
276
330
2
100
AcDbEntity
  8
0
  6
Continuous
 62
     7
370
    15
100
AcDbLine
 10
462.7335606561373
 20
2482.002434237904
 30
0.0
 11
409.7005520671464
 21
2428.969425648913
 31
0.0
  0
LINE
  5
277
330
2
100
AcDbEntity
  8
0
  6
Continuous
 62
     7
370
    15
100
AcDbLine
 10
432.3279690651142
 20
2406.342008650943
 30
0.0
 11
485.360977654107
 21
2459.375017239934
 31
0.0
  0
ARC
  5
278
330
2
100
AcDbEntity
  8
05-01
100
AcDbCircle
 10
417.1132863331022
 20
2307.688725738919
 30
0.0
 40
74.99999999999997
100
AcDbArc
 50
135.0000000000096
 51
270.0
  0
TEXT
  5
279
330
2
100
AcDbEntity
  8
02-01
100
AcDbText
 10
927.8631696761584
 20
224.0966971242236
 30
0.0
 40
25.0
  1
Pfrepper
  7
ISO
100
AcDbText
  0
TEXT
  5
27B
330
2
100
AcDbEntity
  8
02-01
100
AcDbText
 10
792.5628064172331
 20
224.0966971242236
 30
0.0
 40
25.0
  1
17.07.2015
 41
0.8
  7
ISO
100
AcDbText
  0
INSERT
  5
27C
330
2
100
AcDbEntity
  8
0
100
AcDbBlockReference
 66
     1
  2
DIN A4
 10
0.0
 20
0.0000181160768307
 30
0.0
 41
10.0
 42
10.0
 43
10.0
  0
ATTRIB
  5
2EC
330
27C
100
AcDbEntity
  8
06-99
100
AcDbText
 10
1164.954542514126
 20
261.8783849599239
 30
0.0
 40
40.0
  1
Winkelhaltegriff 45%%d
 41
0.9
  7
ROMANS8
100
AcDbAttribute
280
     0
  2
TEILE
 70
     0
280
     0
  0
ATTRIB
  5
2ED
330
27C
100
AcDbEntity
  8
06-99
100
AcDbText
 10
1164.954542514126
 20
192.9547829770657
 30
0.0
 40
40.0
  1
BF 630
 41
0.9
  7
ROMANS8
100
AcDbAttribute
280
     0
  2
TEILE2
 70
     0
280
     0
  0
ATTRIB
  5
2EE
330
27C
100
AcDbEntity
  8
06-99
100
AcDbText
 10
1913.473937239501
 20
453.3333313204351
 30
0.0
 40
33.75
  1
1:10
  7
ROMANS8
100
AcDbAttribute
280
     0
  2
:
 70
     0
280
     0
  0
ATTRIB
  5
2EF
330
27C
100
AcDbEntity
  8
06-99
100
AcDbText
 10
929.970753116029
 20
274.4168526674147
 30
0.0
 40
25.0
  1
Häberle
 41
0.9
  7
ROMANS8
100
AcDbAttribute
280
     0
  2
NAME
 70
     0
280
     0
  0
ATTRIB
  5
2F0
330
27C
100
AcDbEntity
  8
06-99
100
AcDbText
 10
794.9315396412956
 20
274.6123497282141
 30
0.0
 40
25.0
  1
25.09.2014
 50
359.9144597696142
 41
0.5524647187174877
  7
ROMANS8
 72
     5
 11
907.3974463267429
 21
274.4444426537685
 31
0.0
100
AcDbAttribute
280
     0
  2
DATUM
 70
     0
280
     0
  0
ATTRIB
  5
2F1
330
27C
100
AcDbEntity
  8
06-99
100
AcDbText
 10
1785.063514793938
 20
74.92899598998883
 30
0.0
 40
29.9376
  1
630 XXX
  7
ROMANS8
100
AcDbAttribute
280
     0
  2
ID.NR
 70
     0
280
     0
  0
ATTRIB
  5
2F2
330
27C
100
AcDbEntity
  8
06-99
100
AcDbText
 10
1167.31273767946
 20
376.6666644315463
 30
0.0
 40
30.0
  1

 41
0.9
  7
ROMANS8
100
AcDbAttribute
280
     0
  2
LÄNGE
 70
     0
280
     0
  0
ATTRIB
  5
2F3
330
27C
100
AcDbEntity
  8
06-99
100
AcDbText
 10
1501.808124240052
 20
376.78103669155
 30
0.0
 40
30.0
  1

 41
0.9
  7
ROMANS8
100
AcDbAttribute
280
     0
  2
BREITE
 70
     0
280
     0
  0
ATTRIB
  5
2F4
330
27C
100
AcDbEntity
  8
06-99
100
AcDbText
 10
1906.090996389673
 20
376.6666646537694
 30
0.0
 40
30.93750000000001
  1

  7
ROMANS8
100
AcDbAttribute
280
     0
  2
1.0
 70
     0
280
     0
  0
ATTRIB
  5
2F5
330
27C
100
AcDbEntity
  8
06-99
100
AcDbText
 10
1641.277931136382
 20
453.3333313204362
 30
0.0
 40
30.0
  1

  7
ROMANS8
 72
     1
 11
1641.277931136382
 21
453.3333313204362
 31
0.0
100
AcDbAttribute
280
     0
  2
IV
 70
     0
280
     0
  0
ATTRIB
  5
2F6
330
27C
100
AcDbEntity
  8
06-99
100
AcDbText
 10
1232.747480483514
 20
453.3333313204348
 30
0.0
 40
33.75
  1
1.4301
  7
ROMANS8
100
AcDbAttribute
280
     0
  2
1.4301
 70
     0
280
     0
  0
ATTRIB
  5
2F7
330
27C
100
AcDbEntity
  8
06-99
100
AcDbText
 10
1460.006413991156
 20
75.04396403064811
 30
0.0
 40
31.68
  1

 41
0.9000000000000001
  7
ROMANS8
100
AcDbAttribute
280
     0
  2
AUFTRAGS.NR.
 70
     0
280
     0
  0
ATTRIB
  5
2F8
330
27C
100
AcDbEntity
  8
06-99
100
AcDbText
 10
1165.000075122355
 20
74.999997987102
 30
0.0
 40
31.68
  1

 41
0.9000000000000001
  7
ROMANS8
100
AcDbAttribute
280
     0
  2
SONDER-NR
 70
     0
280
     0
  0
ATTRIB
  5
2F9
330
27C
100
AcDbEntity
  8
06-99
100
AcDbText
 10
464.997585072438
 20
66.01809867970041
 30
0.0
 40
15.0
  1

 41
0.9
  7
ROMANS8
100
AcDbAttribute
280
     0
  2
ERSETZT.DURCH
 70
     0
280
     0
  0
ATTRIB
  5
2FA
330
27C
100
AcDbEntity
  8
06-99
100
AcDbText
 10
214.9947529243403
 20
65.97456196582607
 30
0.0
 40
15.0
  1

 41
0.9
  7
ROMANS8
100
AcDbAttribute
280
     0
  2
ERSETZT.FÜR
 70
     0
280
     0
  0
ATTRIB
  5
2FB
330
27C
100
AcDbEntity
  8
06-99
100
AcDbText
 10
999.7308015867309
 20
476.6851093871817
 30
0.0
 40
12.87
  1
DIN A4
  7
ROMANS8
 72
     1
 11
1032.518658729588
 21
476.6851093871817
 31
0.0
100
AcDbAttribute
280
     0
  2
FORMAT
 70
     0
280
     0
  0
ATTRIB
  5
2FC
330
27C
100
AcDbEntity
  8
06-99
100
AcDbText
 10
959.874465096418
 20
371.9696713257493
 30
0.0
 40
23.4
  1
DIN 2768
  7
ROMANS8
 72
     1
 11
1040.103036524989
 21
371.9696713257493
 31
0.0
100
AcDbAttribute
280
     0
  2
NORM2
 70
     0
280
     0
  0
ATTRIB
  5
2FD
330
27C
100
AcDbEntity
  8
06-99
100
AcDbText
 10
928.1173222392746
 20
410.3030046590824
 30
0.0
 40
23.4
  1
DIN 6930-M
  7
ROMANS8
 72
     1
 11
1035.088750810703
 21
410.3030046590824
 31
0.0
100
AcDbAttribute
280
     0
  2
NORM1
 70
     0
280
     0
  0
SEQEND
  5
2FE
330
27C
100
AcDbEntity
  8
0
  0
DIMENSION
  5
2FF
102
{ACAD_XDICTIONARY
360
300
102
}
102
{ACAD_REACTORS
330
301
102
}
330
2
100
AcDbEntity
  8
09-01
100
AcDbDimension
280
     0
  2
*D3
 10
1421.327903988754
 20
920.5034403748905
 30
0.0
 11
1381.347512568513
 21
1148.734000748899
 31
0.0
 70
     2
 71
     5
 42
1.570796326794897
 73
     0
 74
     0
 75
     0
  3
Wagner
100
AcDb2LineAngularDimension
 13
1609.578072942523
 23
736.3784403748868
 33
0.0
 14
1609.578072942523
 24
1104.628440374894
 34
0.0
 15
1793.703072942522
 25
920.5034403748905
 35
0.0
 16
1456.944696028055
 26
1184.872204121559
 36
0.0
1001
ACAD
1000
DSTYLE
1002
{
1070
    40
1040
5.0
1070
    41
1040
4.0
1070
   140
1040
5.0
1002
}
  0
TEXT
  5
312
330
2
100
AcDbEntity
  8
02-01
100
AcDbText
 10
1314.710358372522
 20
611.5035760129603
 30
0.0
 40
25.0
  1
für Durchsteckmontage geeignet
 41
0.8
100
AcDbText
  0
TEXT
  5
313
330
2
100
AcDbEntity
  8
02-01
100
AcDbText
 10
1415.319616453112
 20
1261.561515772466
 30
0.0
 40
25.0
  1
%%UBefestigungsbohrungen
 41
0.8
100
AcDbText
  0
DIMENSION
  5
314
102
{ACAD_XDICTIONARY
360
315
102
}
102
{ACAD_REACTORS
330
316
102
}
330
2
100
AcDbEntity
  8
09-01
100
AcDbDimension
280
     0
  2
*D2
 10
1421.327903988754
 20
920.5034403748905
 30
0.0
 11
1363.725500959767
 21
1022.338910034451
 31
0.0
 70
     2
 71
     5
 42
0.7853981633974476
 73
     0
 74
     0
 75
     0
  3
Wagner
100
AcDb2LineAngularDimension
 13
1739.774109028495
 23
790.3074042889093
 33
0.0
 14
1479.382036856551
 24
1050.699476460853
 34
0.0
 15
1793.703072942522
 25
920.5034403748905
 35
0.0
 16
1394.276444448516
 26
1044.807893542864
 36
0.0
1001
ACAD
1000
DSTYLE
1002
{
1070
    40
1040
5.0
1070
    41
1040
4.0
1070
   140
1040
5.0
1002
}
  0
LINE
  5
325
102
{ACAD_REACTORS
330
316
102
}
330
2
100
AcDbEntity
  8
05-01
100
AcDbLine
 10
1739.774109028495
 20
790.3074042889093
 30
0.0
 11
1479.382036856551
 21
1050.699476460853
 31
0.0
  0
LINE
  5
326
330
2
100
AcDbEntity
  8
05-01
100
AcDbLine
 10
1739.774109028495
 20
1050.699476460853
 30
0.0
 11
1476.465101915797
 21
787.3904693481599
 31
0.0
  0
DIMENSION
  5
327
102
{ACAD_XDICTIONARY
360
328
102
}
102
{ACAD_REACTORS
330
329
102
}
330
2
100
AcDbEntity
  8
09-01
100
AcDbDimension
280
     0
  2
*D1
 10
1734.578072942523
 20
674.2661057410387
 30
0.0
 11
1609.578072942523
 21
691.7661057410387
 31
0.0
 71
     5
 42
50.0
 73
     0
 74
     0
 75
     0
  3
Wagner$0
100
AcDbAlignedDimension
 13
1484.578072942523
 23
890.0034403748886
 33
0.0
 14
1734.578072942523
 24
890.0034403748886
 34
0.0
100
AcDbRotatedDimension
1001
ACAD
1000
DSTYLE
1002
{
1070
   144
1040
0.2
1070
    40
1040
5.0
1070
    41
1040
4.0
1070
   140
1040
5.0
1002
}
  0
DIMENSION
  5
336
102
{ACAD_XDICTIONARY
360
337
102
}
102
{ACAD_REACTORS
330
338
102
}
330
2
100
AcDbEntity
  8
09-01
100
AcDbDimension
280
     0
  2
*D0
 10
1858.152991493799
 20
899.0034403748976
 30
0.0
 11
1836.512833868199
 21
995.7788369317613
 31
0.0
 70
   128
 71
     5
 42
8.599999999998544
 73
     0
 74
     0
 75
     0
  3
Wagner$0
100
AcDbAlignedDimension
 13
1734.578072942523
 23
942.0034403748905
 33
0.0
 14
1734.578072942523
 24
899.0034403748976
 34
0.0
 50
90.0
100
AcDbRotatedDimension
1001
ACAD
1000
DSTYLE
1002
{
1070
   144
1040
0.2
1070
    40
1040
5.0
1070
    41
1040
4.0
1070
   140
1040
5.0
1002
}
  0
ARC
  5
347
330
2
100
AcDbEntity
  8
0
100
AcDbCircle
 10
1688.898548118655
 20
783.5666073617758
 30
0.0
 40
25.0
100
AcDbArc
 50
264.2783103389025
 51
335.8847090555166
  0
ARC
  5
348
330
2
100
AcDbEntity
  8
0
100
AcDbCircle
 10
1451.327059251308
 20
920.2783103386574
 30
0.0
 40
25.0
100
AcDbArc
 50
144.2783103388605
 51
215.8847090555648
  0
ARC
  5
349
330
2
100
AcDbEntity
  8
0
100
AcDbCircle
 10
1688.508611457606
 20
1057.665403424238
 30
0.0
 40
25.0
100
AcDbArc
 50
24.27831033888313
 51
95.88470905557882
  0
ARC
  5
34A
330
2
100
AcDbEntity
  8
0
100
AcDbCircle
 10
1609.578072942523
 20
920.5034403748905
 30
0.0
 40
179.125
100
AcDbArc
 50
304.7647690500964
 51
55.39825034437393
  0
ARC
  5
34B
330
2
100
AcDbEntity
  8
0
100
AcDbCircle
 10
1609.578072942523
 20
920.5034403748905
 30
0.0
 40
179.125
100
AcDbArc
 50
184.7647690501444
 51
295.3982503443297
  0
ARC
  5
34C
330
2
100
AcDbEntity
  8
0
100
AcDbCircle
 10
1609.578072942523
 20
920.5034403748905
 30
0.0
 40
179.125
100
AcDbArc
 50
64.76476905016649
 51
175.398250344377
  0
CIRCLE
  5
34D
330
2
100
AcDbEntity
  8
0
100
AcDbCircle
 10
1609.578072942523
 20
920.5034403748905
 30
0.0
 40
70.0
  0
CIRCLE
  5
34E
330
2
100
AcDbEntity
  8
0
100
AcDbCircle
 10
1609.578072942523
 20
920.5034403748905
 30
0.0
 40
80.0
  0
LINE
  5
34F
330
2
100
AcDbEntity
  8
05-01
100
AcDbLine
 10
1673.217683249311
 20
972.1430506816741
 30
0.0
 11
1673.217683249311
 21
996.1430506816796
 31
0.0
  0
LINE
  5
350
330
2
100
AcDbEntity
  8
05-01
100
AcDbLine
 10
1685.217683249312
 20
984.1430506816815
 30
0.0
 11
1661.217683249311
 21
984.1430506816815
 31
0.0
  0
LINE
  5
351
330
2
100
AcDbEntity
  8
05-01
100
AcDbLine
 10
1521.189725294205
 20
801.6150927265643
 30
0.0
 11
1521.189725294205
 21
862.615092726568
 31
0.0
  0
LINE
  5
352
330
2
100
AcDbEntity
  8
05-01
100
AcDbLine
 10
1551.689725294205
 20
832.1150927265662
 30
0.0
 11
1490.689725294206
 21
832.1150927265662
 31
0.0
  0
LINE
  5
353
330
2
100
AcDbEntity
  8
05-01
100
AcDbLine
 10
1640.078072942522
 20
795.5034403748904
 30
0.0
 11
1579.078072942523
 21
795.5034403748904
 31
0.0
  0
LINE
  5
354
330
2
100
AcDbEntity
  8
05-01
100
AcDbLine
 10
1697.96642059084
 20
801.6150927265735
 30
0.0
 11
1697.96642059084
 21
862.615092726568
 31
0.0
  0
LINE
  5
355
330
2
100
AcDbEntity
  8
05-01
100
AcDbLine
 10
1728.46642059084
 20
832.1150927265662
 30
0.0
 11
1667.46642059084
 21
832.1150927265662
 31
0.0
  0
LINE
  5
356
102
{ACAD_REACTORS
330
338
330
329
102
}
330
2
100
AcDbEntity
  8
05-01
100
AcDbLine
 10
1734.578072942523
 20
890.0034403748886
 30
0.0
 11
1734.578072942523
 21
951.0034403748923
 31
0.0
  0
LINE
  5
357
330
2
100
AcDbEntity
  8
05-01
100
AcDbLine
 10
1697.96642059084
 20
978.3917880232039
 30
0.0
 11
1697.96642059084
 21
1039.391788023207
 31
0.0
  0
LINE
  5
358
330
2
100
AcDbEntity
  8
05-01
100
AcDbLine
 10
1728.46642059084
 20
1008.891788023206
 30
0.0
 11
1667.46642059084
 21
1008.891788023206
 31
0.0
  0
LINE
  5
359
330
2
100
AcDbEntity
  8
05-01
100
AcDbLine
 10
1640.078072942522
 20
1045.50344037489
 30
0.0
 11
1579.078072942523
 21
1045.50344037489
 31
0.0
  0
LINE
  5
35A
330
2
100
AcDbEntity
  8
05-01
100
AcDbLine
 10
1521.189725294205
 20
978.3917880232039
 30
0.0
 11
1521.189725294205
 21
1039.391788023207
 31
0.0
  0
LINE
  5
35B
330
2
100
AcDbEntity
  8
05-01
100
AcDbLine
 10
1551.689725294205
 20
1008.891788023206
 30
0.0
 11
1490.689725294203
 21
1008.891788023206
 31
0.0
  0
LINE
  5
35C
102
{ACAD_REACTORS
330
301
102
}
330
2
100
AcDbEntity
  8
05-01
100
AcDbLine
 10
1609.578072942523
 20
736.3784403748868
 30
0.0
 11
1609.578072942523
 21
1104.628440374894
 31
0.0
  0
LINE
  5
35D
102
{ACAD_REACTORS
330
316
330
301
102
}
330
2
100
AcDbEntity
  8
05-01
100
AcDbLine
 10
1793.703072942522
 20
920.5034403748905
 30
0.0
 11
1421.327903988754
 21
920.5034403748905
 31
0.0
  0
HATCH
  5
35E
330
2
100
AcDbEntity
  8
10-98
100
AcDbHatch
 10
0.0
 20
0.0
 30
0.0
210
0.0
220
0.0
230
1.0
  2
ANSI31
 70
     0
 71
     0
 91
        4
 92
        7
 72
     1
 73
     1
 93
        4
 10
1609.578072942523
 20
1000.50344037489
 42
0.0
 10
1609.578072942523
 20
990.5034403748905
 42
-0.4142135623730951
 10
1679.578072942523
 20
920.5034403748905
 42
0.0
 10
1689.578072942523
 20
920.5034403748905
 42
0.4142135623730951
 97
        0
 92
        7
 72
     1
 73
     1
 93
        4
 10
1689.578072942523
 20
920.5034403748905
 42
0.0
 10
1679.578072942523
 20
920.5034403748905
 42
-0.4142135623730951
 10
1609.578072942523
 20
850.5034403748904
 42
0.0
 10
1609.578072942523
 20
840.5034403748905
 42
0.4142135623730951
 97
        0
 92
        7
 72
     1
 73
     1
 93
        4
 10
1539.578072942522
 20
920.5034403748905
 42
0.0
 10
1529.578072942523
 20
920.5034403748905
 42
0.4142135623730951
 10
1609.578072942523
 20
840.5034403748905
 42
0.0
 10
1609.578072942523
 20
850.5034403748904
 42
-0.4142135623730951
 97
        0
 92
        7
 72
     1
 73
     1
 93
        4
 10
1609.578072942523
 20
990.5034403748905
 42
0.0
 10
1609.578072942523
 20
1000.50344037489
 42
0.4142135623730951
 10
1529.578072942523
 20
920.5034403748905
 42
0.0
 10
1539.578072942522
 20
920.5034403748905
 42
-0.4142135623730951
 97
        0
 75
     0
 76
     1
 52
0.0
 41
2.5
 77
     0
 78
     1
 53
45.0
 43
-16114.15041203466
 44
-61781.56108418135
 45
-5.61266007566822
 46
5.612660075668221
 79
     0
 47
0.1857602487094524
 98
        4
 10
1665.8293932164
 20
973.6290635371679
 10
1682.558987217008
 20
909.5417090890387
 10
1580.321837263501
 20
853.8135969445592
 10
1559.874407272792
 20
975.4865738413117
1001
ACAD
1010
0.0
1020
0.0
1030
0.0
  0
LINE
  5
362
102
{ACAD_REACTORS
330
329
102
}
330
2
100
AcDbEntity
  8
05-01
100
AcDbLine
 10
1484.578072942523
 20
890.0034403748886
 30
0.0
 11
1484.578072942523
 21
951.0034403748923
 31
0.0
  0
CIRCLE
  5
363
330
2
100
AcDbEntity
  8
0
100
AcDbCircle
 10
1673.217683249311
 20
984.1430506816815
 30
0.0
 40
7.0
  0
ARC
  5
364
330
2
100
AcDbEntity
  8
0
100
AcDbCircle
 10
1478.867999915472
 20
995.9689362228564
 30
0.0
 40
22.96900830407592
100
AcDbArc
 50
124.1912076201438
 51
175.808792379815
  0
ARC
  5
365
330
2
100
AcDbEntity
  8
0
100
AcDbCircle
 10
1740.288145969571
 20
995.9689362228473
 30
0.0
 40
22.96900830407604
100
AcDbArc
 50
4.191207620080534
 51
55.8087923798562
  0
ARC
  5
366
330
2
100
AcDbEntity
  8
0
100
AcDbCircle
 10
1609.578072942523
 20
769.5724486789586
 30
0.0
 40
22.9690083040667
100
AcDbArc
 50
244.1912076200852
 51
295.8087923799149
  0
ARC
  5
367
330
2
100
AcDbEntity
  8
0
100
AcDbCircle
 10
1685.043568790487
 20
789.7933673478419
 30
0.0
 40
22.96900830407592
100
AcDbArc
 50
274.1912076201327
 51
325.808792379874
  0
ARC
  5
368
330
2
100
AcDbEntity
  8
0
100
AcDbCircle
 10
1685.043568790484
 20
1051.213513401939
 30
0.0
 40
22.96900830407604
100
AcDbArc
 50
34.19120762012603
 51
85.80879237986726
  0
ARC
  5
369
330
2
100
AcDbEntity
  8
0
100
AcDbCircle
 10
1458.647081246589
 20
920.5034403748905
 30
0.0
 40
22.9690083040667
100
AcDbArc
 50
154.1912076201515
 51
205.8087923798484
  0
CIRCLE
  5
36A
330
2
100
AcDbEntity
  8
0
100
AcDbCircle
 10
1521.189725294205
 20
832.1150927265662
 30
0.0
 40
21.50000000000028
  0
CIRCLE
  5
36B
330
2
100
AcDbEntity
  8
0
100
AcDbCircle
 10
1697.96642059084
 20
1008.891788023206
 30
0.0
 40
21.5
  0
CIRCLE
  5
36C
330
2
100
AcDbEntity
  8
0
100
AcDbCircle
 10
1697.96642059084
 20
832.1150927265662
 30
0.0
 40
21.5
  0
CIRCLE
  5
36D
330
2
100
AcDbEntity
  8
0
100
AcDbCircle
 10
1521.189725294205
 20
1008.891788023206
 30
0.0
 40
21.5
  0
CIRCLE
  5
36E
330
2
100
AcDbEntity
  8
0
100
AcDbCircle
 10
1484.578072942523
 20
920.5034403748905
 30
0.0
 40
21.50000000000028
  0
CIRCLE
  5
36F
102
{ACAD_REACTORS
330
338
102
}
330
2
100
AcDbEntity
  8
0
100
AcDbCircle
 10
1734.578072942523
 20
920.5034403748905
 30
0.0
 40
21.5
  0
CIRCLE
  5
370
330
2
100
AcDbEntity
  8
0
100
AcDbCircle
 10
1609.578072942523
 20
1045.50344037489
 30
0.0
 40
21.5
  0
CIRCLE
  5
371
330
2
100
AcDbEntity
  8
0
100
AcDbCircle
 10
1609.578072942523
 20
795.5034403748904
 30
0.0
 40
21.5
  0
ARC
  5
372
330
2
100
AcDbEntity
  8
0
100
AcDbCircle
 10
1609.578072942523
 20
920.5034403748905
 30
0.0
 40
171.9
100
AcDbArc
 50
33.33497062106983
 51
56.66502937889564
  0
ARC
  5
373
330
2
100
AcDbEntity
  8
0
100
AcDbCircle
 10
1609.578072942523
 20
920.5034403748905
 30
0.0
 40
171.9
100
AcDbArc
 50
303.3349706211043
 51
26.66502937887895
  0
ARC
  5
374
330
2
100
AcDbEntity
  8
0
100
AcDbCircle
 10
1609.578072942523
 20
920.5034403748905
 30
0.0
 40
171.9
100
AcDbArc
 50
273.3349706210995
 51
296.6650293789011
  0
ARC
  5
375
330
2
100
AcDbEntity
  8
0
100
AcDbCircle
 10
1609.578072942523
 20
920.5034403748905
 30
0.0
 40
171.9
100
AcDbArc
 50
183.3349706211191
 51
266.6650293789005
  0
ARC
  5
376
330
2
100
AcDbEntity
  8
0
100
AcDbCircle
 10
1609.578072942523
 20
920.5034403748905
 30
0.0
 40
171.9
100
AcDbArc
 50
153.334970621121
 51
176.6650293788809
  0
ARC
  5
377
330
2
100
AcDbEntity
  8
0
100
AcDbCircle
 10
1609.578072942523
 20
920.5034403748905
 30
0.0
 40
171.9
100
AcDbArc
 50
63.33497062109154
 51
146.6650293789301
  0
ENDSEC
  0
SECTION
  2
OBJECTS
  0
DICTIONARY
  5
B
330
0
100
AcDbDictionary
281
     1
  3
ACAD_COLOR
350
3C
  3
ACAD_GROUP
350
37
  3
ACAD_LAYOUT
350
17
  3
ACAD_MATERIAL
350
D
  3
ACAD_MLEADERSTYLE
350
3F
  3
ACAD_MLINESTYLE
350
38
  3
ACAD_PLOTSETTINGS
350
39
  3
ACAD_PLOTSTYLENAME
350
A
  3
ACAD_SCALELIST
350
3D
  3
ACAD_TABLESTYLE
350
3E
  3
ACAD_VISUALSTYLE
350
2F
  3
ACDB_RECOMPOSE_DATA
350
382
  3
AcDbVariableDictionary
350
37A
  0
DICTIONARY
  5
20
330
1F
100
AcDbDictionary
280
     1
281
     1
  3
ACAD_LAYERFILTERS
360
21
  3
ACAD_LAYERSTATES
360
22
  3
ACLYDICTIONARY
360
23
  0
DICTIONARY
  5
7
330
6
100
AcDbDictionary
280
     1
281
     1
  3
ADSK_XREC_LAYER_RECONCILED
360
8
  0
DICTIONARY
  5
360
330
35F
100
AcDbDictionary
280
     1
281
     1
  3
ADSK_XREC_LAYER_RECONCILED
360
361
  0
DICTIONARY
  5
6E
330
6D
100
AcDbDictionary
280
     1
281
     1
  3
ADSK_XREC_LAYER_RECONCILED
360
6F
  0
DICTIONARY
  5
283
330
282
100
AcDbDictionary
280
     1
281
     1
  0
DICTIONARY
  5
2BE
330
2BD
100
AcDbDictionary
280
     1
281
     1
  0
DICTIONARY
  5
2A9
330
2A8
100
AcDbDictionary
280
     1
281
     1
  0
DICTIONARY
  5
68
330
67
100
AcDbDictionary
280
     1
281
     1
  0
DICTIONARY
  5
303
330
302
100
AcDbDictionary
280
     1
281
     1
  0
DICTIONARY
  5
288
330
287
100
AcDbDictionary
280
     1
281
     1
  0
DICTIONARY
  5
3
330
2
100
AcDbDictionary
280
     1
281
     1
  3
ACAD_SORTENTS
360
379
  0
DICTIONARY
  5
27E
330
27D
100
AcDbDictionary
280
     1
281
     1
  3
ACAD_SORTENTS
360
378
  0
DICTIONARY
  5
75
330
74
100
AcDbDictionary
280
     1
281
     1
  3
ACAD_DIMASSOC
360
76
  0
DICTIONARY
  5
97
330
96
100
AcDbDictionary
280
     1
281
     1
  3
ACAD_DIMASSOC
360
98
  0
DICTIONARY
  5
A6
330
A5
100
AcDbDictionary
280
     1
281
     1
  3
ACAD_DIMASSOC
360
A7
  0
DICTIONARY
  5
B5
330
B4
100
AcDbDictionary
280
     1
281
     1
  3
ACAD_DIMASSOC
360
B6
  0
DICTIONARY
  5
C4
330
C3
100
AcDbDictionary
280
     1
281
     1
  3
ACAD_DIMASSOC
360
C5
  0
DICTIONARY
  5
D3
330
D2
100
AcDbDictionary
280
     1
281
     1
  3
ACAD_DIMASSOC
360
D4
  0
DICTIONARY
  5
E2
330
E1
100
AcDbDictionary
280
     1
281
     1
  3
ACAD_DIMASSOC
360
E3
  0
DICTIONARY
  5
F1
330
F0
100
AcDbDictionary
280
     1
281
     1
  3
ACAD_DIMASSOC
360
F2
  0
DICTIONARY
  5
100
330
FF
100
AcDbDictionary
280
     1
281
     1
  3
ACAD_DIMASSOC
360
101
  0
DICTIONARY
  5
110
330
10F
100
AcDbDictionary
280
     1
281
     1
  3
ACAD_DIMASSOC
360
111
  0
DICTIONARY
  5
11F
330
11E
100
AcDbDictionary
280
     1
281
     1
  3
ACAD_DIMASSOC
360
120
  0
DICTIONARY
  5
300
330
2FF
100
AcDbDictionary
280
     1
281
     1
  3
ACAD_DIMASSOC
360
301
  0
DICTIONARY
  5
315
330
314
100
AcDbDictionary
280
     1
281
     1
  3
ACAD_DIMASSOC
360
316
  0
DICTIONARY
  5
328
330
327
100
AcDbDictionary
280
     1
281
     1
  3
ACAD_DIMASSOC
360
329
  0
DICTIONARY
  5
337
330
336
100
AcDbDictionary
280
     1
281
     1
  3
ACAD_DIMASSOC
360
338
  0
DICTIONARY
  5
3C
102
{ACAD_REACTORS
330
B
102
}
330
B
100
AcDbDictionary
281
     1
  0
DICTIONARY
  5
37
102
{ACAD_REACTORS
330
B
102
}
330
B
100
AcDbDictionary
281
     1
  0
DICTIONARY
  5
17
102
{ACAD_REACTORS
330
B
102
}
330
B
100
AcDbDictionary
281
     1
  3
Layout1
350
1E
  3
Model
350
16
  0
DICTIONARY
  5
D
102
{ACAD_REACTORS
330
B
102
}
330
B
100
AcDbDictionary
281
     1
  3
ByBlock
350
3B
  3
ByLayer
350
3A
  3
Global
350
C
  0
DICTIONARY
  5
3F
102
{ACAD_REACTORS
330
B
102
}
330
B
100
AcDbDictionary
281
     1
  0
DICTIONARY
  5
38
102
{ACAD_REACTORS
330
B
102
}
330
B
100
AcDbDictionary
281
     1
  3
Standard
350
40
  0
DICTIONARY
  5
39
102
{ACAD_REACTORS
330
B
102
}
330
B
100
AcDbDictionary
281
     1
  0
ACDBDICTIONARYWDFLT
  5
A
102
{ACAD_REACTORS
330
B
102
}
330
B
100
AcDbDictionary
281
     1
  3
Normal
350
9
100
AcDbDictionaryWithDefault
340
9
  0
DICTIONARY
  5
3D
102
{ACAD_REACTORS
330
B
102
}
330
B
100
AcDbDictionary
281
     1
  3
A0
350
45
  3
A1
350
46
  3
A2
350
47
  3
A3
350
48
  3
A4
350
49
  3
A5
350
4A
  3
A6
350
4B
  3
A7
350
4C
  3
A8
350
4D
  3
A9
350
4E
  3
B0
350
4F
  3
B1
350
50
  3
B2
350
51
  3
B3
350
52
  3
B4
350
53
  3
B5
350
54
  3
B6
350
55
  3
B7
350
56
  3
B8
350
57
  3
B9
350
58
  3
C0
350
59
  3
C1
350
5A
  3
C2
350
5B
  3
C3
350
5C
  3
C4
350
5D
  3
C5
350
5E
  3
C6
350
5F
  3
C7
350
60
  3
C8
350
61
  3
C9
350
62
  3
D0
350
63
  3
D1
350
64
  3
D2
350
65
  0
DICTIONARY
  5
3E
102
{ACAD_REACTORS
330
B
102
}
330
B
100
AcDbDictionary
281
     1
  3
Standard
350
41
  0
DICTIONARY
  5
2F
102
{ACAD_REACTORS
330
B
102
}
330
B
100
AcDbDictionary
281
     1
  3
2dWireframe
350
2E
  3
3dWireframe
350
44
  3
Realistic
350
43
  0
XRECORD
  5
382
102
{ACAD_REACTORS
330
B
102
}
330
B
100
AcDbXrecord
280
     1
 90
        1
330
41
  0
DICTIONARY
  5
37A
102
{ACAD_REACTORS
330
B
102
}
330
B
100
AcDbDictionary
281
     1
  3
CANNOSCALE
350
37D
  3
CMLEADERSTYLE
350
37C
  3
CTABLESTYLE
350
37B
  3
LAYEREVAL
350
37E
  3
LAYERNOTIFY
350
37F
  0
DICTIONARY
  5
21
102
{ACAD_REACTORS
330
20
102
}
330
20
100
AcDbDictionary
281
     1
  0
DICTIONARY
  5
22
102
{ACAD_REACTORS
330
20
102
}
330
20
100
AcDbDictionary
281
     1
  0
DICTIONARY
  5
23
102
{ACAD_REACTORS
330
20
102
}
330
20
100
AcDbDictionary
281
     1
1001
ACAD
1000
<All
  0
XRECORD
  5
8
102
{ACAD_REACTORS
330
7
102
}
330
7
100
AcDbXrecord
280
     1
290
     1
  0
XRECORD
  5
361
102
{ACAD_REACTORS
330
360
102
}
330
360
100
AcDbXrecord
280
     1
290
     1
  0
XRECORD
  5
6F
102
{ACAD_REACTORS
330
6E
102
}
330
6E
100
AcDbXrecord
280
     1
290
     1
  0
SORTENTSTABLE
  5
379
102
{ACAD_REACTORS
330
3
102
}
330
3
100
AcDbSortentsTable
330
2
331
B4
  5
36B
331
12E
  5
362
331
165
  5
265
331
161
  5
269
331
21E
  5
1AC
331
1A4
  5
226
331
1A0
  5
22A
331
1DF
  5
1EB
331
21A
  5
1B0
331
19C
  5
22E
331
1DB
  5
1EF
331
216
  5
1B4
331
255
  5
175
331
251
  5
179
331
198
  5
232
331
212
  5
1B8
331
73
  5
370
331
375
  5
6A
331
371
  5
72
331
36D
  5
96
331
15D
  5
26D
331
369
  5
D2
331
11E
  5
364
331
159
  5
271
331
155
  5
275
331
151
  5
279
331
1D7
  5
1F3
331
1D3
  5
1F7
331
20E
  5
1BC
331
24D
  5
17D
331
194
  5
236
331
1CF
  5
1FB
331
20A
  5
1C0
331
249
  5
181
331
190
  5
23A
331
18C
  5
23E
331
1CB
  5
1FF
331
206
  5
1C4
331
245
  5
185
331
241
  5
189
331
188
  5
242
331
202
  5
1C8
331
6B
  5
374
331
27C
  5
14F
331
278
  5
152
331
365
  5
10F
331
35D
  5
130
331
14D
  5
312
331
359
  5
134
331
149
  5
326
331
145
  5
348
331
141
  5
34C
331
1C7
  5
203
331
1FE
  5
1CC
331
23D
  5
18D
331
184
  5
246
331
1C3
  5
207
331
1BF
  5
20B
331
1FA
  5
1D0
331
239
  5
191
331
180
  5
24A
331
17C
  5
24E
331
1BB
  5
20F
331
1F6
  5
1D4
331
235
  5
195
331
231
  5
199
331
178
  5
252
331
1F2
  5
1D8
331
274
  5
156
331
270
  5
15A
331
325
  5
14A
331
26C
  5
15E
331
268
  5
162
331
355
  5
138
331
351
  5
13C
331
34D
  5
140
331
13D
  5
350
331
C3
  5
36A
331
349
  5
144
331
139
  5
354
331
135
  5
358
331
131
  5
35C
331
1B7
  5
213
331
1EE
  5
1DC
331
22D
  5
19D
331
174
  5
256
331
1B3
  5
217
331
1AF
  5
21B
331
1EA
  5
1E0
331
229
  5
1A1
331
170
  5
25A
331
16C
  5
25E
331
1AB
  5
21F
331
1E6
  5
1E4
331
225
  5
1A5
331
221
  5
1A9
331
168
  5
262
331
1E2
  5
1E8
331
264
  5
166
331
260
  5
16A
331
25C
  5
16E
331
258
  5
172
331
12D
  5
363
331
164
  5
266
331
160
  5
26A
331
1A7
  5
223
331
21D
  5
1AD
331
1A3
  5
227
331
19F
  5
22B
331
1DE
  5
1EC
331
219
  5
1B1
331
254
  5
176
331
19B
  5
22F
331
1DA
  5
1F0
331
215
  5
1B5
331
250
  5
17A
331
211
  5
1B9
331
72
  5
371
331
374
  5
6B
331
370
  5
73
331
36C
  5
A5
331
15C
  5
26E
331
368
  5
E1
331
158
  5
272
331
154
  5
276
331
150
  5
27B
331
197
  5
233
331
1D6
  5
1F4
331
1D2
  5
1F8
331
20D
  5
1BD
331
24C
  5
17E
331
193
  5
237
331
18F
  5
23B
331
1CE
  5
1FC
331
209
  5
1C1
331
248
  5
182
331
18B
  5
23F
331
1CA
  5
200
331
205
  5
1C5
331
244
  5
186
331
240
  5
18A
331
201
  5
1C9
331
6A
  5
375
331
66
  5
377
331
27B
  5
150
331
364
  5
11E
331
35C
  5
131
331
14C
  5
313
331
D2
  5
369
331
358
  5
135
331
148
  5
327
331
144
  5
349
331
140
  5
34D
331
187
  5
243
331
1C6
  5
204
331
1C2
  5
208
331
1FD
  5
1CD
331
23C
  5
18E
331
183
  5
247
331
1BE
  5
20C
331
1F9
  5
1D1
331
238
  5
192
331
17F
  5
24B
331
17B
  5
24F
331
1BA
  5
210
331
1F5
  5
1D5
331
234
  5
196
331
230
  5
19A
331
1F1
  5
1D9
331
277
  5
153
331
273
  5
157
331
26F
  5
15B
331
26B
  5
15F
331
354
  5
139
331
350
  5
13D
331
87
  5
36E
331
34C
  5
141
331
13C
  5
351
331
348
  5
145
331
138
  5
355
331
134
  5
359
331
130
  5
35D
331
177
  5
253
331
1B6
  5
214
331
1ED
  5
1DD
331
22C
  5
19E
331
173
  5
257
331
1B2
  5
218
331
1AE
  5
21C
331
1E9
  5
1E1
331
228
  5
1A2
331
16F
  5
25B
331
16B
  5
25F
331
1AA
  5
220
331
224
  5
1A6
331
220
  5
1AA
331
1E1
  5
1E9
331
267
  5
163
331
263
  5
167
331
25F
  5
16B
331
314
  5
14B
331
25B
  5
16F
331
167
  5
263
331
163
  5
267
331
1A6
  5
224
331
21C
  5
1AE
331
1A2
  5
228
331
19E
  5
22C
331
1DD
  5
1ED
331
218
  5
1B2
331
257
  5
173
331
253
  5
177
331
19A
  5
230
331
1D9
  5
1F1
331
214
  5
1B6
331
210
  5
1BA
331
347
  5
146
331
71
  5
372
331
377
  5
66
331
373
  5
6C
331
36F
  5
74
331
15F
  5
26B
331
36B
  5
B4
331
15B
  5
26F
331
E1
  5
368
331
157
  5
273
331
153
  5
277
331
24F
  5
17B
331
196
  5
234
331
1D5
  5
1F5
331
1D1
  5
1F9
331
20C
  5
1BE
331
24B
  5
17F
331
192
  5
238
331
18E
  5
23C
331
1CD
  5
1FD
331
208
  5
1C2
331
247
  5
183
331
243
  5
187
331
18A
  5
240
331
1C9
  5
201
331
204
  5
1C6
331
200
  5
1CA
331
69
  5
376
331
367
  5
F0
331
363
  5
12D
331
96
  5
36D
331
35B
  5
132
331
14F
  5
27C
331
14B
  5
314
331
147
  5
336
331
143
  5
34A
331
23F
  5
18B
331
186
  5
244
331
1C5
  5
205
331
1C1
  5
209
331
1FC
  5
1CE
331
23B
  5
18F
331
182
  5
248
331
17E
  5
24C
331
1BD
  5
20D
331
1F8
  5
1D2
331
237
  5
193
331
17A
  5
250
331
1B9
  5
211
331
1F4
  5
1D6
331
233
  5
197
331
1F0
  5
1DA
331
276
  5
154
331
272
  5
158
331
327
  5
148
331
26E
  5
15C
331
26A
  5
160
331
357
  5
136
331
353
  5
13A
331
34F
  5
13E
331
34B
  5
142
331
13F
  5
34E
331
13B
  5
352
331
137
  5
356
331
133
  5
35A
331
F0
  5
367
331
22F
  5
19B
331
176
  5
254
331
1B5
  5
215
331
1B1
  5
219
331
1EC
  5
1DE
331
22B
  5
19F
331
172
  5
258
331
1AD
  5
21D
331
1E8
  5
1E2
331
227
  5
1A3
331
16E
  5
25C
331
16A
  5
260
331
1A9
  5
221
331
1E4
  5
1E6
331
223
  5
1A7
331
1E0
  5
1EA
331
266
  5
164
331
262
  5
168
331
25E
  5
16C
331
313
  5
14C
331
25A
  5
170
331
12F
  5
35E
331
166
  5
264
331
162
  5
268
331
21F
  5
1AB
331
1A5
  5
225
331
21B
  5
1AF
331
1A1
  5
229
331
19D
  5
22D
331
1DC
  5
1EE
331
217
  5
1B3
331
256
  5
174
331
252
  5
178
331
199
  5
231
331
1D8
  5
1F2
331
213
  5
1B7
331
74
  5
36F
331
376
  5
69
331
372
  5
71
331
36E
  5
87
331
15E
  5
26C
331
A5
  5
36C
331
36A
  5
C3
331
15A
  5
270
331
156
  5
274
331
152
  5
278
331
20F
  5
1BB
331
24E
  5
17C
331
195
  5
235
331
1D4
  5
1F6
331
1D0
  5
1FA
331
20B
  5
1BF
331
24A
  5
180
331
191
  5
239
331
18D
  5
23D
331
1CC
  5
1FE
331
207
  5
1C3
331
246
  5
184
331
242
  5
188
331
189
  5
241
331
1C8
  5
202
331
203
  5
1C7
331
6C
  5
373
331
2FF
  5
14E
331
336
  5
147
331
279
  5
151
331
366
  5
FF
331
362
  5
12E
331
35E
  5
12F
331
14E
  5
2FF
331
10F
  5
365
331
35A
  5
133
331
14A
  5
325
331
146
  5
347
331
142
  5
34B
331
1FF
  5
1CB
331
23E
  5
18C
331
185
  5
245
331
1C4
  5
206
331
1C0
  5
20A
331
1FB
  5
1CF
331
23A
  5
190
331
181
  5
249
331
17D
  5
24D
331
1BC
  5
20E
331
1F7
  5
1D3
331
236
  5
194
331
232
  5
198
331
179
  5
251
331
1B8
  5
212
331
1F3
  5
1D7
331
275
  5
155
331
271
  5
159
331
326
  5
149
331
26D
  5
15D
331
269
  5
161
331
356
  5
137
331
352
  5
13B
331
34E
  5
13F
331
34A
  5
143
331
FF
  5
366
331
13E
  5
34F
331
13A
  5
353
331
136
  5
357
331
132
  5
35B
331
22E
  5
19C
331
175
  5
255
331
1B4
  5
216
331
1EF
  5
1DB
331
1B0
  5
21A
331
1EB
  5
1DF
331
22A
  5
1A0
331
171
  5
259
331
16D
  5
25D
331
1AC
  5
21E
331
1E7
  5
1E3
331
226
  5
1A4
331
169
  5
261
331
1A8
  5
222
331
1E3
  5
1E7
331
222
  5
1A8
331
265
  5
165
331
261
  5
169
331
25D
  5
16D
331
312
  5
14D
331
259
  5
171
  0
SORTENTSTABLE
  5
378
102
{ACAD_REACTORS
330
27E
102
}
330
27E
100
AcDbSortentsTable
330
27D
  0
DIMASSOC
  5
76
102
{ACAD_REACTORS
330
75
102
}
330
75
100
AcDbDimAssoc
330
74
 90
        3
 70
     0
 71
     0
  1
AcDbOsnapPointRef
 72
     6
331
22E
 73
     2
 91
        0
 40
0.0238349078631299
 10
0.0
 20
0.0
 30
0.0
332
224
 74
     2
 92
        0
 75
     0
  1
AcDbOsnapPointRef
 72
    13
331
224
 73
     2
 91
        0
 40
4.712388980384689
 10
0.0
 20
0.0
 30
2.000000000000000E+50
 75
     0
  0
DIMASSOC
  5
98
102
{ACAD_REACTORS
330
97
102
}
330
97
100
AcDbDimAssoc
330
96
 90
        3
 70
     0
 71
     0
  1
AcDbOsnapPointRef
 72
     5
331
1CA
 73
     2
 91
        0
 40
1.570796326794896
 10
0.0
 20
0.0
 30
0.0
 75
     0
  1
AcDbOsnapPointRef
 72
     5
331
1CA
 73
     2
 91
        0
 40
4.712388980384689
 10
0.0
 20
0.0
 30
0.0
 75
     0
  0
DIMASSOC
  5
A7
102
{ACAD_REACTORS
330
A6
102
}
330
A6
100
AcDbDimAssoc
330
A5
 90
        3
 70
     0
 71
     0
  1
AcDbOsnapPointRef
 72
     5
331
262
 73
     2
 91
        0
 40
1.570796326794896
 10
0.0
 20
0.0
 30
0.0
 75
     0
  1
AcDbOsnapPointRef
 72
     5
331
263
 73
     2
 91
        0
 40
4.712388980384689
 10
0.0
 20
0.0
 30
0.0
 75
     0
  0
DIMASSOC
  5
B6
102
{ACAD_REACTORS
330
B5
102
}
330
B5
100
AcDbDimAssoc
330
B4
 90
        3
 70
     0
 71
     0
  1
AcDbOsnapPointRef
 72
     1
331
197
 73
     2
 91
        0
 40
1.0
 10
0.0
 20
0.0
 30
2.000000000000000E+50
 75
     0
  1
AcDbOsnapPointRef
 72
     1
331
194
 73
     2
 91
        0
 40
1.0
 10
0.0
 20
0.0
 30
2.000000000000000E+50
 75
     0
  0
DIMASSOC
  5
C5
102
{ACAD_REACTORS
330
C4
102
}
330
C4
100
AcDbDimAssoc
330
C3
 90
        3
 70
     0
 71
     0
  1
AcDbOsnapPointRef
 72
     1
331
230
 73
     2
 91
        0
 40
1.0
 10
0.0
 20
0.0
 30
2.000000000000000E+50
 75
     0
  1
AcDbOsnapPointRef
 72
     1
331
22D
 73
     2
 91
        0
 40
1.0
 10
0.0
 20
0.0
 30
2.000000000000000E+50
 75
     0
  0
DIMASSOC
  5
D4
102
{ACAD_REACTORS
330
D3
102
}
330
D3
100
AcDbDimAssoc
330
D2
 90
        3
 70
     0
 71
     0
  1
AcDbOsnapPointRef
 72
     1
331
169
 73
     2
 91
        0
 40
7.853981633974482
 10
0.0
 20
0.0
 30
2.000000000000000E+50
 75
     0
  1
AcDbOsnapPointRef
 72
    13
331
159
 73
     2
 91
        0
 40
0.0
 10
0.0
 20
0.0
 30
2.000000000000000E+50
 75
     0
  0
DIMASSOC
  5
E3
102
{ACAD_REACTORS
330
E2
102
}
330
E2
100
AcDbDimAssoc
330
E1
 90
        3
 70
     0
 71
     0
  1
AcDbOsnapPointRef
 72
     1
331
166
 73
     2
 91
        0
 40
1.0
 10
0.0
 20
0.0
 30
2.000000000000000E+50
 75
     0
  1
AcDbOsnapPointRef
 72
     6
331
161
 73
     2
 91
        0
 40
0.9952947447353841
 10
0.0
 20
0.0
 30
0.0
332
169
 74
     2
 92
        0
 75
     0
  0
DIMASSOC
  5
F2
102
{ACAD_REACTORS
330
F1
102
}
330
F1
100
AcDbDimAssoc
330
F0
 90
       15
 70
     0
 71
     0
  1
AcDbOsnapPointRef
 72
    13
331
1D5
 73
     2
 91
        0
 40
0.0
 10
0.0
 20
0.0
 30
2.000000000000000E+50
 75
     0
  1
AcDbOsnapPointRef
 72
     1
331
1D5
 73
     2
 91
        0
 40
1.0
 10
0.0
 20
0.0
 30
2.000000000000000E+50
 75
     0
  1
AcDbOsnapPointRef
 72
    13
331
1D7
 73
     2
 91
        0
 40
0.0
 10
0.0
 20
0.0
 30
2.000000000000000E+50
 75
     0
  1
AcDbOsnapPointRef
 72
     1
331
1D7
 73
     2
 91
        0
 40
1.0
 10
0.0
 20
0.0
 30
2.000000000000000E+50
 75
     0
  0
DIMASSOC
  5
101
102
{ACAD_REACTORS
330
100
102
}
330
100
100
AcDbDimAssoc
330
FF
 90
       15
 70
     0
 71
     0
  1
AcDbOsnapPointRef
 72
    13
331
26E
 73
     2
 91
        0
 40
0.0
 10
0.0
 20
0.0
 30
2.000000000000000E+50
 75
     0
  1
AcDbOsnapPointRef
 72
     1
331
26E
 73
     2
 91
        0
 40
1.0
 10
0.0
 20
0.0
 30
2.000000000000000E+50
 75
     0
  1
AcDbOsnapPointRef
 72
    13
331
270
 73
     2
 91
        0
 40
0.0
 10
0.0
 20
0.0
 30
2.000000000000000E+50
 75
     0
  1
AcDbOsnapPointRef
 72
     1
331
270
 73
     2
 91
        0
 40
1.0
 10
0.0
 20
0.0
 30
2.000000000000000E+50
 75
     0
  0
DIMASSOC
  5
111
102
{ACAD_REACTORS
330
110
102
}
330
110
100
AcDbDimAssoc
330
10F
 90
        3
 70
     0
 71
     0
  1
AcDbOsnapPointRef
 72
     6
331
201
 73
     2
 91
        0
 40
0.0
 10
0.0
 20
0.0
 30
0.0
332
202
 74
     2
 92
        0
 75
     0
  1
AcDbOsnapPointRef
 72
    13
331
1F2
 73
     2
 91
        0
 40
0.0
 10
0.0
 20
0.0
 30
2.000000000000000E+50
 75
     0
  0
DIMASSOC
  5
120
102
{ACAD_REACTORS
330
11F
102
}
330
11F
100
AcDbDimAssoc
330
11E
 90
        3
 70
     0
 71
     0
  1
AcDbOsnapPointRef
 72
     6
331
1FA
 73
     2
 91
        0
 40
0.9952947447353841
 10
0.0
 20
0.0
 30
0.0
332
202
 74
     2
 92
        0
 75
     0
  1
AcDbOsnapPointRef
 72
    13
331
1FD
 73
     2
 91
        0
 40
0.0
 10
0.0
 20
0.0
 30
2.000000000000000E+50
 75
     0
  0
DIMASSOC
  5
301
102
{ACAD_REACTORS
330
300
102
}
330
300
100
AcDbDimAssoc
330
2FF
 90
       15
 70
     0
 71
     0
  1
AcDbOsnapPointRef
 72
    13
331
35C
 73
     2
 91
        0
 40
0.0
 10
0.0
 20
0.0
 30
2.000000000000000E+50
 75
     0
  1
AcDbOsnapPointRef
 72
     1
331
35C
 73
     2
 91
        0
 40
1.0
 10
0.0
 20
0.0
 30
2.000000000000000E+50
 75
     0
  1
AcDbOsnapPointRef
 72
    13
331
35D
 73
     2
 91
        0
 40
0.0
 10
0.0
 20
0.0
 30
2.000000000000000E+50
 75
     0
  1
AcDbOsnapPointRef
 72
     1
331
35D
 73
     2
 91
        0
 40
1.0
 10
0.0
 20
0.0
 30
2.000000000000000E+50
 75
     0
  0
DIMASSOC
  5
316
102
{ACAD_REACTORS
330
315
102
}
330
315
100
AcDbDimAssoc
330
314
 90
       15
 70
     0
 71
     0
  1
AcDbOsnapPointRef
 72
    13
331
325
 73
     2
 91
        0
 40
0.0
 10
0.0
 20
0.0
 30
2.000000000000000E+50
 75
     0
  1
AcDbOsnapPointRef
 72
     1
331
325
 73
     2
 91
        0
 40
0.9999999999999998
 10
0.0
 20
0.0
 30
2.000000000000000E+50
 75
     0
  1
AcDbOsnapPointRef
 72
    13
331
35D
 73
     2
 91
        0
 40
0.0
 10
0.0
 20
0.0
 30
2.000000000000000E+50
 75
     0
  1
AcDbOsnapPointRef
 72
     1
331
35D
 73
     2
 91
        0
 40
1.0
 10
0.0
 20
0.0
 30
2.000000000000000E+50
 75
     0
  0
DIMASSOC
  5
329
102
{ACAD_REACTORS
330
328
102
}
330
328
100
AcDbDimAssoc
330
327
 90
        3
 70
     0
 71
     0
  1
AcDbOsnapPointRef
 72
    13
331
362
 73
     2
 91
        0
 40
0.0
 10
0.0
 20
0.0
 30
2.000000000000000E+50
 75
     0
  1
AcDbOsnapPointRef
 72
    13
331
356
 73
     2
 91
        0
 40
0.0
 10
0.0
 20
0.0
 30
2.000000000000000E+50
 75
     0
  0
DIMASSOC
  5
338
102
{ACAD_REACTORS
330
337
102
}
330
337
100
AcDbDimAssoc
330
336
 90
        3
 70
     0
 71
     0
  1
AcDbOsnapPointRef
 72
     6
331
356
 73
     2
 91
        0
 40
0.852459016393362
 10
0.0
 20
0.0
 30
0.0
332
36F
 74
     2
 92
        0
 75
     0
  1
AcDbOsnapPointRef
 72
     6
331
356
 73
     2
 91
        0
 40
0.147540983606638
 10
0.0
 20
0.0
 30
0.0
332
36F
 74
     2
 92
        0
 75
     0
  0
LAYOUT
  5
1E
102
{ACAD_REACTORS
330
17
102
}
330
17
100
AcDbPlotSettings
  1

  2
C:\Documents and Settings\basas\Application Data\Autodesk\AutoCAD 2005\R16.1\enu\plotters\Default Windows System Printer.pc3
  4

  6

 40
0.0
 41
0.0
 42
0.0
 43
0.0
 44
0.0
 45
0.0
 46
0.0
 47
0.0
 48
0.0
 49
0.0
140
0.0
141
0.0
142
1.0
143
1.0
 70
   688
 72
     0
 73
     0
 74
     5
  7

 75
    16
147
1.0
 76
     0
 77
     2
 78
   300
148
0.0
149
0.0
100
AcDbLayout
  1
Layout1
 70
     1
 71
     1
 10
0.0
 20
0.0
 11
12.0
 21
9.0
 12
0.0
 22
0.0
 32
0.0
 14
0.0
 24
0.0
 34
0.0
 15
0.0
 25
0.0
 35
0.0
146
0.0
 13
0.0
 23
0.0
 33
0.0
 16
1.0
 26
0.0
 36
0.0
 17
0.0
 27
1.0
 37
0.0
 76
     0
330
1B
  0
LAYOUT
  5
16
102
{ACAD_XDICTIONARY
360
18
102
}
102
{ACAD_REACTORS
330
17
102
}
330
17
100
AcDbPlotSettings
  1

  2
DWG To PDF.pc3
  4
ISO_expand_A4_(210.00_x_297.00_MM)
  6

 40
5.793749809265136
 41
10.79374980926513
 42
5.793746948242187
 43
10.79376220703125
 44
210.0
 45
297.0
 46
0.0
 47
0.0
 48
3923.481517340711
 49
13309.84621669953
140
4038.84737283493
141
13505.69306049094
142
1.0
143
0.7111037165569402
 70
  3760
 72
     1
 73
     0
 74
     4
  7
monochrome.ctb
 75
     0
147
1.406264623171783
 76
     1
 77
     2
 78
   300
148
-3923.481517340711
149
-13309.84621669953
100
AcDbLayout
  1
Model
 70
     1
 71
     0
 10
0.0
 20
0.0
 11
12.0
 21
9.0
 12
0.0
 22
0.0
 32
0.0
 14
0.0
 24
0.0
 34
0.0
 15
0.0
 25
0.0
 35
0.0
146
0.0
 13
0.0
 23
0.0
 33
0.0
 16
1.0
 26
0.0
 36
0.0
 17
0.0
 27
1.0
 37
0.0
 76
     0
330
2
331
2D
1001
ACAD_PSEXT
1000
DWG To PDF.pc3
1000
DWG To PDF
1000
Datei
1000

1070
     0
  0
MATERIAL
  5
3B
102
{ACAD_REACTORS
330
D
102
}
330
D
100
AcDbMaterial
  1
ByBlock
 94
       63
  0
MATERIAL
  5
3A
102
{ACAD_REACTORS
330
D
102
}
330
D
100
AcDbMaterial
  1
ByLayer
 94
       63
  0
MATERIAL
  5
C
102
{ACAD_XDICTIONARY
360
E
102
}
102
{ACAD_REACTORS
330
D
102
}
330
D
100
AcDbMaterial
  1
Global
 43
0.0007999999797903
 43
0.0
 43
0.0
 43
0.0
 43
0.0
 43
0.0007999999797903
 43
0.0
 43
0.0
 43
0.0
 43
0.0
 43
1.0
 43
0.0
 43
0.0
 43
0.0
 43
0.0
 43
1.0
 49
0.0007999999797903
 49
0.0
 49
0.0
 49
0.0
 49
0.0
 49
0.0007999999797903
 49
0.0
 49
0.0
 49
0.0
 49
0.0
 49
1.0
 49
0.0
 49
0.0
 49
0.0
 49
0.0
 49
1.0
142
0.0007999999797903
142
0.0
142
0.0
142
0.0
142
0.0
142
0.0007999999797903
142
0.0
142
0.0
142
0.0
142
0.0
142
1.0
142
0.0
142
0.0
142
0.0
142
0.0
142
1.0
144
0.0007999999797903
144
0.0
144
0.0
144
0.0
144
0.0
144
0.0007999999797903
144
0.0
144
0.0
144
0.0
144
0.0
144
1.0
144
0.0
144
0.0
144
0.0
144
0.0
144
1.0
 94
       63
1001
ACAD
1070
    -1
1070
     3
1070
     0
1000

1071
        0
1070
     0
  0
MLINESTYLE
  5
40
102
{ACAD_REACTORS
330
38
102
}
330
38
100
AcDbMlineStyle
  2
STANDARD
 70
     0
  3

 62
   256
 51
90.0
 52
90.0
 71
     2
 49
0.5
 62
   256
  6
BYLAYER
 49
-0.5
 62
   256
  6
BYLAYER
  0
ACDBPLACEHOLDER
  5
9
102
{ACAD_REACTORS
330
A
102
}
330
A
  0
SCALE
  5
45
102
{ACAD_REACTORS
330
3D
102
}
330
3D
100
AcDbScale
 70
     0
300
1:1
140
1.0
141
1.0
290
     1
  0
SCALE
  5
46
102
{ACAD_REACTORS
330
3D
102
}
330
3D
100
AcDbScale
 70
     0
300
1:2
140
1.0
141
2.0
290
     0
  0
SCALE
  5
47
102
{ACAD_REACTORS
330
3D
102
}
330
3D
100
AcDbScale
 70
     0
300
1:4
140
1.0
141
4.0
290
     0
  0
SCALE
  5
48
102
{ACAD_REACTORS
330
3D
102
}
330
3D
100
AcDbScale
 70
     0
300
1:5
140
1.0
141
5.0
290
     0
  0
SCALE
  5
49
102
{ACAD_REACTORS
330
3D
102
}
330
3D
100
AcDbScale
 70
     0
300
1:8
140
1.0
141
8.0
290
     0
  0
SCALE
  5
4A
102
{ACAD_REACTORS
330
3D
102
}
330
3D
100
AcDbScale
 70
     0
300
1:10
140
1.0
141
10.0
290
     0
  0
SCALE
  5
4B
102
{ACAD_REACTORS
330
3D
102
}
330
3D
100
AcDbScale
 70
     0
300
1:16
140
1.0
141
16.0
290
     0
  0
SCALE
  5
4C
102
{ACAD_REACTORS
330
3D
102
}
330
3D
100
AcDbScale
 70
     0
300
1:20
140
1.0
141
20.0
290
     0
  0
SCALE
  5
4D
102
{ACAD_REACTORS
330
3D
102
}
330
3D
100
AcDbScale
 70
     0
300
1:30
140
1.0
141
30.0
290
     0
  0
SCALE
  5
4E
102
{ACAD_REACTORS
330
3D
102
}
330
3D
100
AcDbScale
 70
     0
300
1:40
140
1.0
141
40.0
290
     0
  0
SCALE
  5
4F
102
{ACAD_REACTORS
330
3D
102
}
330
3D
100
AcDbScale
 70
     0
300
1:50
140
1.0
141
50.0
290
     0
  0
SCALE
  5
50
102
{ACAD_REACTORS
330
3D
102
}
330
3D
100
AcDbScale
 70
     0
300
1:100
140
1.0
141
100.0
290
     0
  0
SCALE
  5
51
102
{ACAD_REACTORS
330
3D
102
}
330
3D
100
AcDbScale
 70
     0
300
2:1
140
2.0
141
1.0
290
     0
  0
SCALE
  5
52
102
{ACAD_REACTORS
330
3D
102
}
330
3D
100
AcDbScale
 70
     0
300
4:1
140
4.0
141
1.0
290
     0
  0
SCALE
  5
53
102
{ACAD_REACTORS
330
3D
102
}
330
3D
100
AcDbScale
 70
     0
300
8:1
140
8.0
141
1.0
290
     0
  0
SCALE
  5
54
102
{ACAD_REACTORS
330
3D
102
}
330
3D
100
AcDbScale
 70
     0
300
10:1
140
10.0
141
1.0
290
     0
  0
SCALE
  5
55
102
{ACAD_REACTORS
330
3D
102
}
330
3D
100
AcDbScale
 70
     0
300
100:1
140
100.0
141
1.0
290
     0
  0
SCALE
  5
56
102
{ACAD_REACTORS
330
3D
102
}
330
3D
100
AcDbScale
 70
     0
300
1/128" = 1'-0"
140
0.0078125
141
12.0
290
     0
  0
SCALE
  5
57
102
{ACAD_REACTORS
330
3D
102
}
330
3D
100
AcDbScale
 70
     0
300
1/64" = 1'-0"
140
0.015625
141
12.0
290
     0
  0
SCALE
  5
58
102
{ACAD_REACTORS
330
3D
102
}
330
3D
100
AcDbScale
 70
     0
300
1/32" = 1'-0"
140
0.03125
141
12.0
290
     0
  0
SCALE
  5
59
102
{ACAD_REACTORS
330
3D
102
}
330
3D
100
AcDbScale
 70
     0
300
1/16" = 1'-0"
140
0.0625
141
12.0
290
     0
  0
SCALE
  5
5A
102
{ACAD_REACTORS
330
3D
102
}
330
3D
100
AcDbScale
 70
     0
300
3/32" = 1'-0"
140
0.09375
141
12.0
290
     0
  0
SCALE
  5
5B
102
{ACAD_REACTORS
330
3D
102
}
330
3D
100
AcDbScale
 70
     0
300
1/8" = 1'-0"
140
0.125
141
12.0
290
     0
  0
SCALE
  5
5C
102
{ACAD_REACTORS
330
3D
102
}
330
3D
100
AcDbScale
 70
     0
300
3/16" = 1'-0"
140
0.1875
141
12.0
290
     0
  0
SCALE
  5
5D
102
{ACAD_REACTORS
330
3D
102
}
330
3D
100
AcDbScale
 70
     0
300
1/4" = 1'-0"
140
0.25
141
12.0
290
     0
  0
SCALE
  5
5E
102
{ACAD_REACTORS
330
3D
102
}
330
3D
100
AcDbScale
 70
     0
300
3/8" = 1'-0"
140
0.375
141
12.0
290
     0
  0
SCALE
  5
5F
102
{ACAD_REACTORS
330
3D
102
}
330
3D
100
AcDbScale
 70
     0
300
1/2" = 1'-0"
140
0.5
141
12.0
290
     0
  0
SCALE
  5
60
102
{ACAD_REACTORS
330
3D
102
}
330
3D
100
AcDbScale
 70
     0
300
3/4" = 1'-0"
140
0.75
141
12.0
290
     0
  0
SCALE
  5
61
102
{ACAD_REACTORS
330
3D
102
}
330
3D
100
AcDbScale
 70
     0
300
1" = 1'-0"
140
1.0
141
12.0
290
     0
  0
SCALE
  5
62
102
{ACAD_REACTORS
330
3D
102
}
330
3D
100
AcDbScale
 70
     0
300
1-1/2" = 1'-0"
140
1.5
141
12.0
290
     0
  0
SCALE
  5
63
102
{ACAD_REACTORS
330
3D
102
}
330
3D
100
AcDbScale
 70
     0
300
3" = 1'-0"
140
3.0
141
12.0
290
     0
  0
SCALE
  5
64
102
{ACAD_REACTORS
330
3D
102
}
330
3D
100
AcDbScale
 70
     0
300
6" = 1'-0"
140
6.0
141
12.0
290
     0
  0
SCALE
  5
65
102
{ACAD_REACTORS
330
3D
102
}
330
3D
100
AcDbScale
 70
     0
300
1'-0" = 1'-0"
140
12.0
141
12.0
290
     0
  0
TABLESTYLE
  5
41
102
{ACAD_XDICTIONARY
360
42
102
}
102
{ACAD_REACTORS
330
3E
102
}
330
3E
100
AcDbTableStyle
280
     0
  3
Standard
 70
     0
 71
     0
 40
1.5
 41
1.5
280
     0
281
     0
  7
Standard
140
4.5
170
     2
 62
     0
 63
     7
283
     0
 90
      512
 91
        0
  1

274
    -2
284
     1
 64
     0
275
    -2
285
     1
 65
     0
276
    -2
286
     1
 66
     0
277
    -2
287
     1
 67
     0
278
    -2
288
     1
 68
     0
279
    -2
289
     1
 69
     0
  7
Standard
140
6.0
170
     5
 62
     0
 63
     7
283
     0
 90
      512
 91
        0
  1

274
    -2
284
     1
 64
     0
275
    -2
285
     1
 65
     0
276
    -2
286
     1
 66
     0
277
    -2
287
     1
 67
     0
278
    -2
288
     1
 68
     0
279
    -2
289
     1
 69
     0
  7
Standard
140
4.5
170
     5
 62
     0
 63
     7
283
     0
 90
      512
 91
        0
  1

274
    -2
284
     1
 64
     0
275
    -2
285
     1
 65
     0
276
    -2
286
     1
 66
     0
277
    -2
287
     1
 67
     0
278
    -2
288
     1
 68
     0
279
    -2
289
     1
 69
     0
  0
VISUALSTYLE
  5
2E
102
{ACAD_REACTORS
330
2F
102
}
330
2F
100
AcDbVisualStyle
  2
2dWireframe
 70
     4
177
     2
291
     0
 71
     0
176
     1
 72
     2
176
     1
 73
     1
176
     1
 90
        0
176
     1
 40
0.6
176
     1
 41
30.0
176
     1
 63
     7
421
 16777215
176
     1
 74
     1
176
     1
 91
        4
176
     1
 64
     7
176
     1
 65
   257
176
     1
 75
     1
176
     1
175
     1
176
     1
 42
1.0
176
     1
 92
        0
176
     1
 66
   257
176
     1
 43
1.0
176
     1
 76
     1
176
     1
 77
     6
176
     1
 78
     2
176
     1
 67
     7
176
     1
 79
     5
176
     1
170
     0
176
     1
171
     0
176
     1
290
     0
176
     1
 93
        1
176
     1
 44
0.0
176
     1
173
     0
176
     1
  0
VISUALSTYLE
  5
44
102
{ACAD_REACTORS
330
2F
102
}
330
2F
100
AcDbVisualStyle
  2
3dWireframe
 70
     5
177
     2
291
     0
 71
     0
176
     1
 72
     2
176
     1
 73
     1
176
     1
 90
        0
176
     1
 40
0.6
176
     1
 41
30.0
176
     1
 63
     7
421
 16777215
176
     1
 74
     1
176
     1
 91
        4
176
     1
 64
     7
176
     1
 65
   257
176
     1
 75
     1
176
     1
175
     1
176
     1
 42
1.0
176
     1
 92
        0
176
     1
 66
   257
176
     1
 43
1.0
176
     1
 76
     1
176
     1
 77
     6
176
     1
 78
     2
176
     1
 67
     7
176
     1
 79
     5
176
     1
170
     0
176
     1
171
     0
176
     1
290
     0
176
     1
 93
        1
176
     1
 44
0.0
176
     1
173
     0
176
     1
  0
VISUALSTYLE
  5
43
102
{ACAD_REACTORS
330
2F
102
}
330
2F
100
AcDbVisualStyle
  2
Realistic
 70
     8
177
     2
291
     0
 71
     2
176
     1
 72
     2
176
     1
 73
     1
176
     1
 90
        0
176
     1
 40
0.6
176
     1
 41
30.0
176
     1
 63
     7
421
 16777215
176
     1
 74
     1
176
     1
 91
        0
176
     1
 64
     7
176
     1
 65
   257
176
     1
 75
     1
176
     1
175
     1
176
     1
 42
1.0
176
     1
 92
        8
176
     1
 66
     8
424
  7895160
176
     1
 43
1.0
176
     1
 76
     1
176
     1
 77
     6
176
     1
 78
     2
176
     1
 67
     7
176
     1
 79
     5
176
     1
170
     0
176
     1
171
     0
176
     1
290
     0
176
     1
 93
       13
176
     1
 44
0.0
176
     1
173
     0
176
     1
  0
DICTIONARYVAR
  5
37D
102
{ACAD_REACTORS
330
37A
102
}
330
37A
100
DictionaryVariables
280
     0
  1
1:1
  0
DICTIONARYVAR
  5
37C
102
{ACAD_REACTORS
330
37A
102
}
330
37A
100
DictionaryVariables
280
     0
  1
STANDARD
  0
DICTIONARYVAR
  5
37B
102
{ACAD_REACTORS
330
37A
102
}
330
37A
100
DictionaryVariables
280
     0
  1
STANDARD
  0
DICTIONARYVAR
  5
37E
102
{ACAD_REACTORS
330
37A
102
}
330
37A
100
DictionaryVariables
280
     0
  1
1
  0
DICTIONARYVAR
  5
37F
102
{ACAD_REACTORS
330
37A
102
}
330
37A
100
DictionaryVariables
280
     0
  1
15
  0
DICTIONARY
  5
18
330
16
100
AcDbDictionary
280
     1
281
     1
  3
ADSK_XREC_LAYOUTTHUMBNAIL
360
19
  0
DICTIONARY
  5
E
330
C
100
AcDbDictionary
280
     1
281
     1
  3
BUMPTILE
360
F
  3
DIFFUSETILE
360
10
  3
OPACITYTILE
360
11
  3
REFLECTIONTILE
360
12
  0
DICTIONARY
  5
42
330
41
100
AcDbDictionary
280
     1
281
     1
  3
ACAD_ROUNDTRIP_2008_TABLESTYLE_CELLSTYLEMAP
360
380
  0
XRECORD
  5
19
102
{ACAD_REACTORS
330
18
102
}
330
18
100
AcDbXrecord
280
     1
310
28000000000100008D0000000100080000000000008D0000000000000000000000010000000000003028210000000000FFFFFF000000000000000000000000000000000000000000000000000000000000000000330000006600000099000000CC000000FF00000000330000333300006633000099330000CC330000FF3300
310
0000660000336600006666000099660000CC660000FF66000000990000339900006699000099990000CC990000FF99000000CC000033CC000066CC000099CC0000CCCC0000FFCC000000FF000033FF000066FF000099FF0000CCFF0000FFFF000000003300330033006600330099003300CC003300FF003300003333003333
310
33006633330099333300CC333300FF33330000663300336633006666330099663300CC663300FF66330000993300339933006699330099993300CC993300FF99330000CC330033CC330066CC330099CC3300CCCC3300FFCC330000FF330033FF330066FF330099FF3300CCFF3300FFFF330000006600330066006600660099
310
006600CC006600FF00660000336600333366006633660099336600CC336600FF33660000666600336666006666660099666600CC666600FF66660000996600339966006699660099996600CC996600FF99660000CC660033CC660066CC660099CC6600CCCC6600FFCC660000FF660033FF660066FF660099FF6600CCFF6600
310
FFFF660000009900330099006600990099009900CC009900FF00990000339900333399006633990099339900CC339900FF33990000669900336699006666990099669900CC669900FF66990000999900339999006699990099999900CC999900FF99990000CC990033CC990066CC990099CC9900CCCC9900FFCC990000FF99
310
0033FF990066FF990099FF9900CCFF9900FFFF99000000CC003300CC006600CC009900CC00CC00CC00FF00CC000033CC003333CC006633CC009933CC00CC33CC00FF33CC000066CC003366CC006666CC009966CC00CC66CC00FF66CC000099CC003399CC006699CC009999CC00CC99CC00FF99CC0000CCCC0033CCCC0066CC
310
CC0099CCCC00CCCCCC00FFCCCC0000FFCC0033FFCC0066FFCC0099FFCC00CCFFCC00FFFFCC000000FF003300FF006600FF009900FF00CC00FF00FF00FF000033FF003333FF006633FF009933FF00CC33FF00FF33FF000066FF003366FF006666FF009966FF00CC66FF00FF66FF000099FF003399FF006699FF009999FF00CC
310
99FF00FF99FF0000CCFF0033CCFF0066CCFF0099CCFF00CCCCFF00FFCCFF0000FFFF0033FFFF0066FFFF0099FFFF00CCFFFF00FFFFFF00000000000D0D0D001A1A1A00282828003535350043434300505050005D5D5D006B6B6B00787878008686860093939300A1A1A100AEAEAE00BBBBBB00C9C9C900D6D6D600E4E4E400
310
F1F1F100FFFFFF000000000000000000000000000000000000000000000000000000000000000000000000000000000000000000000000000000000000000000000000000000000000000000000000000000000000000000000000000000000000000000000000000000000000000000000000000000000000000000000000
310
00000000000000000000000000000000000000000000000000000000000000000000000000000000000000000000000000000000000000000000000000000000000000000000000000000000000000000000000000000000000000000000000000000000000000000000000000000000000000000000000000000000000000
310
0000000000000000000000000000000000000000000000000000000000000000000000000000000000000000000000000000000000000000000000000000000000000000000000000000000000000000000000000000000000000000000000000000000000000000000000000000000000000000000000000000BEBEBEBEBE
310
BEBEBEBEBEBEBEBEBEBEBEBEBEBEBEBEBEBEBEBEBEBEBEBEBEBEBEBEBEBEBEBEBEBEBEBEBEBEBEBEBEBEBEBEBEBEBEBEBEBEBEBEBEBEBEBEBEBEBEBEBEBEBEBEBEBEBEBEBEBEBEBEBEBEBEBEBEBEBEBEBEBEBEBEBEBEBE00000000000000000000000000000000000000000000000000000000000000000000000000000000
310
00000000000000000000000000000000000000000000000000000000000000000000000000000000000000000000000000000000000000000000000000000000000000000000000000000000000000000000000000000000000000000000000000000000000000000000000000000000000000000000000000000000BE0000
310
00000000000000000000000000000000000000000000000000000000000000000000000000000000000000000000000000000000000000000000000000000000000000000000000000000000000000000000000000000000BE0000000000000000000000000000000000000000000000000000000000000000000000000000
310
000000000000000000000000000000000000000000000000000000000000000000000000000000000000000000000000000000000000000000000000000000000000000000000000000000000000000000000000000000000000000000000000000000000000000000000000000000000000000000000000000000000000BE
310
00000000000000DCDCDCDCDCDCDCDCDCDCDCDCDCDCDCDCDCDCDCDCDCDCDCDCDCDCDCDCDCDCDCDCDCDCDCDCDCDCDCDCDCDCDCDCDCDCDCDCDCDCDCDCDCDCDCDCDCDCDCDCDCDCDCDCDCDCDCDCDCDCDCDCDCDCDCDCDCDCDCDCDC0000BE000000000000000000000000000000000000000000000000000000000000000000000000
310
00000000000000000000000000000000000000000000000000000000000000000000000000000000000000000000000000000000000000000000000000000000000000000000000000000000000000000000000000000000000000000000000000000000000000000000000000000000000000000000000000000000000000
310
00BE00000000000000DCF5F5F5F5F50000000000DCF5F5F5F5F5F500000000DC000000000000BEBEBEBEBEBEBEBEBEBE000000DC000000000000000000000000DC00000000000000000000000000BEBEBEBEBEBEBEBEBEBE00DC0000BE00000000000000000000000000000000000000000000000000000000000000000000
310
00000000000000000000000000000000000000000000000000000000000000000000000000000000000000000000000000000000000000000000000000000000000000000000000000000000000000000000000000000000000000000000000000000000000000000000000000000000000000000000000000000000000000
310
000000BE00000000000000DCF5F5F5F5F5DCDCDCDCDCDCF5F5F5F5F5F5DCDCDCDCDC000000000000BEBEBEBEBEBEBEBEBEBE000000DC000000000000000000000000DC00000000000000000000000000BEBEBEBEBEBEBEBEBEBE00DC0000BE0000000000000000000000000000000000000000000000000000000000000000
310
00000000000000000000000000000000000000000000000000000000000000000000000000000000000000000000000000000000000000000000000000000000000000000000000000000000000000000000000000000000000000000000000000000000000000000000000000000000000000000000000000000000000000
310
0000000000BE00000000000000DC000000DC0000000000000000DC00000000DC000000DC0000BEBEBEBEBEBEBEBEBEBEBEBEBEBE000000F5F5F5F5F5F5F5F5F500000000F5F5F5F5F5F5F5F5F5F5F5000000F5F5F5F5F5F5F5F5F50000DC0000BE000000000000000000000000000000000000000000000000000000000000
310
00000000000000000000000000000000000000000000000000000000000000000000000000000000000000000000000000000000000000000000000000000000000000000000000000000000000000000000000000000000000000000000000000000000000000000000000000000000000000000000000000000000000000
310
00000000000000BE00000000000000DC000000DC0000000000000000DC00000000DC000000DC0000000000BEBEBEBEBEBEBEBEBEBEBE000000DCF5F5F5F5F5F5F5F500000000DCF5F5F5F5F5F5F5F5F5F5000000DCF5F500F500F5F5000000DC0000BE00000000000000000000000000000000000000000000000000000000
310
00000000000000000000000000000000000000000000000000000000000000000000000000000000000000000000000000000000000000000000000000000000000000000000000000000000000000000000000000000000000000000000000000000000000000000000000000000000000000000000000000000000000000
310
000000000000000000BE00000000000000DCDCDCDCDCDCDCDCDCDCDCDCDCDCDCDCDCDCDCDCDCDCDC0000000000BEBEBEBEBEBEBEBEBEBEBE000000DCDCDCDCDCDCDCDCDCDCDCDCDCDCDCDCDCDCDCDCDCDCDCDCDCDCDCDCDCDCDCDCDCDCDCDCDCDCDC0000BE0000000000000000000000000000000000000000000000000000
310
00000000000000000000000000000000000000000000000000000000000000000000000000000000000000000000000000000000000000000000000000000000000000000000000000000000000000000000000000000000000000000000000000000000000000000000000000000000000000000000000000000000000000
310
0000000000000000000000BE00000000000000DC000000DC0000000000000000DC00000000DC000000DC00000000BEBEBEBEBEBEBEBEBEBEBEBE000000BEBEBE0000BEBEBEBEBE00000000000000000000000000000000000000000000000000000000DC0000BE000000000000000000000000000000000000000000000000
310
00000000000000000000000000000000000000000000000000000000000000000000000000000000000000000000000000000000000000000000000000000000000000000000000000000000000000000000000000000000000000000000000000000000000000000000000000000000000000000000000000000000000000
310
00000000000000000000000000BE00000000000000DCDCDCDCDCDCDCDCDCDCDCDCDCDCDCDCDCDCDCDCDCDCDCDCDCDCBEBEBEBEBEBEBEBEBEBEBEBEDCDCDCDCBEBEBEBE00BEBEBEBEBE00000000000000000000000000000000000000000000000000000000DC0000BE00000000000000000000000000000000000000000000
310
00000000000000000000000000000000000000000000000000000000000000000000000000000000000000000000000000000000000000000000000000000000000000000000000000000000000000000000000000000000000000000000000000000000000000000000000000000000000000000000000000000000000000
310
000000000000000000000000000000BE00000000000000DC000000DC0000000000000000DC00000000DC000000F5F5F5F5BEBEBEBEBEBEBEBEBEBEBEBEBE000000BEBEBEBE00BEBEBEBE00000000BEBE0000000000000000000000000000000000000000000000DC0000BE0000000000000000000000000000000000000000
310
00000000000000000000000000000000000000000000000000000000000000000000000000000000000000000000000000000000000000000000000000000000000000000000000000000000000000000000000000000000000000000000000000000000000000000000000000000000000000000000000000000000000000
310
0000000000000000000000000000000000BE00000000000000DCDCDCDCDCDCDCDCDCDCDCDCDCDCDCDCDCDCDCDCDCDCDCDCDCDCBEBEBEBEBEBEBEBEBEBEBEBEDCDCDCDCDCBEBEBEBEBEBEBEBEBEBEBEBEBEBEBEBEBE00BEBEBEBE000000000000000000000000000000DC0000BE000000000000000000000000000000000000
310
00000000000000000000000000000000000000000000000000000000000000000000000000000000000000000000000000000000000000000000000000000000000000000000000000000000000000000000000000000000000000000000000000000000000000000000000000000000000000000000000000000000000000
310
00000000000000000000000000000000000000BE00000000000000DC000000DC0000000000000000DC00000000DC000000DCF5F5F5BEBEBEBEBEBEBEBEBEBEBEBE00000000DCBEBEBEBEBEBEBEBEBEBEBEBEBEBEBEBEBEBE00BEBEBEBE0000000000000000000000000000DC0000BE00000000000000000000000000000000
310
00000000000000000000000000000000000000000000000000000000000000000000000000000000000000000000000000000000000000000000000000000000000000000000000000000000000000000000000000000000000000000000000000000000000000000000000000000000000000000000000000000000000000
310
000000000000000000000000000000000000000000BE00000000000000DCDCDCDCDCDCDCDCDCDCDCDCDCDCDCDCDCDCDCDCDCDCDCDCDCDCDCDCDCDCDCDCDCDCDCDCDCDCDCDCDCDCBEBEBE00BE0000BEF5F5BEBE00000000BEBEBE00BEBEBE000000000000000000000000000000DC0000BE0000000000000000000000000000
310
00000000000000000000000000000000000000000000000000000000000000000000000000000000000000000000000000000000000000000000000000000000000000000000000000000000000000000000000000000000000000000000000000000000000000000000000000000000000000000000000000000000000000
310
0000000000000000000000000000000000000000000000BE00000000000000DCF5F5F5DCF5F5F5F5F5F50000F5F5F5F5F5F5F5F5F5F5DCDCDCF5F5F5F5F5F5F5F5F5F5F5F500000000F5F5F5F5F5F5F5F5F5F5F5F5F5F5000000000000000000000000000000000000000000000000DC0000BE000000000000000000000000
310
00000000000000000000000000000000000000000000000000000000000000000000000000000000000000000000000000000000000000000000000000000000000000000000000000000000000000000000000000000000000000000000000000000000000000000000000000000000000000000000000000000000000000
310
00000000000000000000000000000000000000000000000000BE00000000000000DCDCDCDCDCF5DCDCDCDCDCDCDCDCDCDCDCDCDCDCDCDCDCDCDCDCDCF5DCF5DCDCDCF5DCDCDCDCDCDCDCDCDCF5DCDCDCDCDCDCDCDCF5F5F5F5DCDCDCDCDCDCDCDCDCDCDCDCDCDCDCDCDCDCDCDCDCDCDCDCDC0000BE00000000000000000000
310
00000000000000000000000000000000000000000000000000000000000000000000000000000000000000000000000000000000000000000000000000000000000000000000000000000000000000000000000000000000000000000000000000000000000000000000000000000000000000000000000000000000000000
310
000000000000000000000000000000000000000000000000000000BE00000000000000DC000000000000000000000000000000000000000000DC000000000000000000DCBEBEBEBEBEBEBEBE00DC00000000000000000000000000DC0000000000000000000000000000DC0000000000000000DC0000BE0000000000000000
310
00000000000000000000000000000000000000000000000000000000000000000000000000000000000000000000000000000000000000000000000000000000000000000000000000000000000000000000000000000000000000000000000000000000000000000000000000000000000000000000000000000000000000
310
0000000000000000000000000000000000000000000000000000000000BE00000000000000DC000000000000000000000000000000000000000000DC000000000000000000BEBEBEBEBEBEBEBEBEBEDCF5F5F5F5F5F5F5F5F5F5000000DCF5F5F5F5F5F5F5F5F5F5F5000000DCF5F5F5F5F5F5F5F5F50000BE000000000000
310
00000000000000000000000000000000000000000000000000000000000000000000000000000000000000000000000000000000000000000000000000000000000000000000000000000000000000000000000000000000000000000000000000000000000000000000000000000000000000000000000000000000000000
310
00000000000000000000000000000000000000000000000000000000000000BE00000000000000DC000000000000000000000000000000000000000000DCDCDCDCDCDCDCDCDCDCBEBEBEBEBEBEBEBEBEBEF5F5F5F5F5F5F5F5F5F5F5F50000DCF5F5F5F5F5F5F5F5F5F5F5000000DCF5F5F5F5F5F5F5F5F50000BE00000000
310
00000000000000000000000000000000000000000000000000000000000000000000000000000000000000000000000000000000000000000000000000000000000000000000000000000000000000000000000000000000000000000000000000000000000000000000000000000000000000000000000000000000000000
310
000000000000000000000000000000000000000000000000000000000000000000BE00000000000000DC000000000000000000000000000000000000000000DC000000000000000000DCDCDCDCDCDCDCDCDCDCDCDCDCDCBEBEBEBEBEBEBEDCDCDCDCDCDCDCDCDCDCDCDCDCDCDCDCDCDCDCDCDCDCBEBEBEBEBEDC0000BE0000
310
00000000000000000000000000000000000000000000000000000000000000000000000000000000000000000000000000000000000000000000000000000000000000000000000000000000000000000000000000000000000000000000000000000000000000000000000000000000000000000000000000000000000000
310
0000000000000000000000000000000000000000000000000000000000000000000000BE00000000000000DC000000000000000000000000000000000000000000DCDCF5F5F5F5F5F5F5DCDCDCDCBEBEBEBEDCDCDCDC0000BEBEBEBEBEBEBEBE000000DC0000000000000000000000000000DC000000BEBEBEBEBEDC0000BE
310
00000000000000000000000000000000000000000000000000000000000000000000000000000000000000000000000000000000000000000000000000000000000000000000000000000000000000000000000000000000000000000000000000000000000000000000000000000000000000000000000000000000000000
310
00000000000000000000000000000000000000000000000000000000000000000000000000BE00000000000000DC000000000000000000000000000000000000000000DC00F5F5F5F5F5F5F500DC0000BEBEBEBE000000DC0000F5F5F5F5F5F5F500000000DC0000F5F5F5F5F5F5F5F500000000DC00F5F5F5F5F5F5F5DC00
310
00BE0000000000000000000000000000000000000000000000000000000000000000000000000000000000000000000000000000000000000000000000000000000000000000000000000000000000000000000000000000000000000000000000000000000000000000000000000000000000000000000000000000000000
310
000000000000000000000000000000000000000000000000000000000000000000000000000000BE00000000000000DCDCDCDCDCDCDCDCDCDCDCDCDCDCDCDCDCDCDCDCDCDCDCDCDCDCDCDCDCDCDCDCDCDCDCF5F5DCF5DCDCDCDCDCDCF5F5F5DCF5DCF5DCDCDCDCDCDCDCDCF5DCDCF5F5F5DCDCDCDCDCDCDCF5F5F5F5F5F5DC
310
DC0000BE000000000000000000000000000000000000000000000000000000000000000000000000000000000000000000000000000000000000000000000000000000000000000000000000000000000000000000000000000000000000000000000000000000000000000000000000000000000000000000000000000000
310
0000000000000000000000000000000000000000000000000000000000000000000000000000000000BE00000000000000DC0000000000000000000000000000000000000000000000000000000000000000000000000000000000000000000000000000000000000000000000000000000000000000000000000000000000
310
0000DC0000BE00000000000000000000000000000000000000000000000000000000000000000000000000000000000000000000000000000000000000000000000000000000000000000000000000000000000000000000000000000000000000000000000000000000000000000000000000000000000000000000000000
310
00000000000000000000000000000000000000000000000000000000000000000000000000000000000000BE00000000000000DC000000000000000000000000000000000000000000000000000000000000000000000000000000000000000000000000000000000000000000000000000000000000000000000000000000
310
00000000DC0000BE0000000000000000000000000000000000000000000000000000000000000000000000000000000000000000000000000000000000000000000000000000000000000000000000000000000000000000000000000000000000000000000000000000000000000000000000000000000000000000000000
310
000000000000000000000000000000000000000000000000000000000000000000000000000000000000000000BE00000000000000DC00000000000000000000000000000000000000000000000000000000000000000000000000000000000000000000000000000000000000000000000000000000BEBE00BE0000BE0000
310
000000000000DC0000BE000000000000000000000000000000000000000000000000000000000000000000000000000000000000000000000000000000000000000000000000000000000000000000000000000000000000000000000000000000000000000000000000000000000000000000000000000000000000000000
310
0000000000000000000000000000000000000000000000000000000000000000000000000000000000000000000000BE00000000000000DC000000000000000000000000000000000000000000000000000000000000000000000000000000000000000000000000BEBEBEBEBEBEBEBEBEBEBEBEBEBEBEBEBEBEBEBEBEBEBE
310
BEBEBE0000000000DC0000BE00000000000000000000000000000000000000000000000000000000000000000000000000000000000000000000000000000000000000000000000000000000000000000000000000000000000000000000000000000000000000000000000000000000000000000000000000000000000000
310
00000000000000000000000000000000000000000000000000000000000000000000000000000000000000000000000000BE00000000000000DC000000000000000000000000000000000000000000000000000000000000000000000000000000000000000000000000BEBEBEBEBEBEBEBEBEBEBEBEBEBEBEBEBEBEBEBEBE
310
BEBEBEBEBE0000000000DC0000BE0000000000000000000000000000000000000000000000000000000000000000000000000000000000000000000000000000000000000000000000000000000000000000000000000000000000000000000000000000000000000000000000000000000000000000000000000000000000
310
000000000000000000000000000000000000000000000000000000000000000000000000000000000000000000000000000000BE00000000000000DC000000000000000000000000000000000000000000000000000000000000000000000000000000000000000000000000000000000000002D2D00000000000000002D2D
310
000000000000000000000000DC0000BE000000000000000000000000000000000000000000000000000000000000000000000000000000000000000000000000000000000000000000000000000000000000000000000000000000000000000000000000000000000000000000000000000000000000000000000000000000
310
0000000000000000000000000000000000000000000000000000000000000000000000000000000000000000000000000000000000BE00000000000000DC000000000000000000000000000000000000000000000000000000000000000000000000000000000000000000000000000000000000002D2D2D2D2DBEBE2D2D2D
310
2DF5000000000000000000000000DC0000BE00000000000000000000000000000000000000000000000000000000000000000000000000000000000000000000000000000000000000000000000000000000000000000000000000000000000000000000000000000000000000000000000000000000000000000000000000
310
00000000000000000000000000000000000000000000000000000000000000000000000000000000000000000000000000000000000000BE00000000000000DC000000000000000000000000000000000000000000000000000000000000000000000000000000000000000000000000000000000000002D00000000BEBE00
310
0000002D000000000000000000000000DC0000BE0000000000000000000000000000000000000000000000000000000000000000000000000000000000000000000000000000000000000000000000000000000000000000000000000000000000000000000000000000000000000000000000000000000000000000000000
310
000000000000000000000000000000000000000000000000000000000000000000000000000000000000000000000000000000000000000000BE00000000000000DC000000000000000000000000000000000000000000000000000000000000000000000000000000000000000000000000000000000000002D00000000F5
310
F5000000002D000000000000000000000000DC0000BE000000000000000000000000000000000000000000000000000000000000000000000000000000000000000000000000000000000000000000000000000000000000000000000000000000000000000000000000000000000000000000000000000000000000000000
310
0000000000000000000000000000000000000000000000000000000000000000000000000000000000000000000000000000000000000000000000BE00000000000000DC000000000000000000000000000000000000000000000000000000000000000000000000000000000000000000000000000000000000002D00F5F5
310
F5F5BEF5F5F5F52D000000000000000000000000DC0000BE00000000000000000000000000000000000000000000000000000000000000000000000000000000000000000000000000000000000000000000000000000000000000000000000000000000000000000000000000000000000000000000000000000000000000
310
00000000000000000000000000000000000000000000000000000000000000000000000000000000000000000000000000000000000000000000000000BE00000000000000DC00000000000000000000000000000000000000000000000000000000000000000000000000000000000000000000000000000000000000BEF5
310
F50000F5BE0000F5F52D000000000000000000000000DC0000BE0000000000000000000000000000000000000000000000000000000000000000000000000000000000000000000000000000000000000000000000000000000000000000000000000000000000000000000000000000000000000000000000000000000000
310
000000000000000000000000000000000000000000000000000000000000000000000000000000000000000000000000000000000000000000000000000000BE00000000000000DC00000000000000000000000000000000000000000000000000000000000000000000000000000000000000000000000000000000000000
310
BEBEBE00BEBEBEBE00BEBEF5F50000000000000000000000DC0000BE000000000000000000000000000000000000000000000000000000000000000000000000000000000000000000000000000000000000000000000000000000000000000000000000000000000000000000000000000000000000000000000000000000
310
0000000000000000000000000000000000000000000000000000000000000000000000000000000000000000000000000000000000000000000000000000000000BE00000000000000DC0000000000000000000000000000000000000000000000000000000000000000000000000000000000000000000000000000000000
310
00F52DBEBEBE00F5BE00BEBEBE2DF50000000000000000000000DC0000BE00000000000000000000000000000000000000000000000000000000000000000000000000000000000000000000000000000000000000000000000000000000000000000000000000000000000000000000000000000000000000000000000000
310
00000000000000000000000000000000000000000000000000000000000000000000000000000000000000000000000000000000000000000000000000000000000000BE00000000000000DC000000000000000000000000000000000000000000000000000000000000000000000000000000000000000000000000000000
310
0000F5F52DF5BEBEF5F5F5F5BEBEF52DF5F500002D00000000000000DC0000BE0000000000000000000000000000000000000000000000000000000000000000000000000000000000000000000000000000000000000000000000000000000000000000000000000000000000000000000000000000000000000000000000
310
000000000000000000000000000000000000000000000000000000000000000000000000000000000000000000000000000000000000000000000000000000000000000000BE00000000000000DC00000000000000000000000000000000000000000000000000000000000000000000000000000000000000000000000000
310
00000000F5F52D00BEBEBE00BEBEBEF5002D00F500002D2D000000000000DC0000BE000000000000000000000000000000000000000000000000000000000000000000000000000000000000000000000000000000000000000000000000000000000000000000000000000000000000000000000000000000000000000000
310
0000000000000000000000000000000000000000000000000000000000000000000000000000000000000000000000000000000000000000000000000000000000000000000000BE00000000000000DC0000000000000000000000000000000000000000000000000000000000000000000000000000000000000000000000
310
000000000000F500F5F5F5F5BEBEBEBEF5F5F5F52D2D2D2DF52D000000000000DC0000BE00000000000000000000000000000000000000000000000000000000000000000000000000000000000000000000000000000000000000000000000000000000000000000000000000000000000000000000000000000000000000
310
00000000000000000000000000000000000000000000000000000000000000000000000000000000000000000000000000000000000000000000000000000000000000000000000000BE00000000000000DC000000000000000000000000000000000000000000000000000000000000000000000000000000000000000000
310
00002D2D2D2D2DF5F5BEBEBEF5F5BEBEBEBEBEF5BEBEBEF5F5002D00000000000000DC0000BE0000000000000000000000000000000000000000000000000000000000000000000000000000000000000000000000000000000000000000000000000000000000000000000000000000000000000000000000000000000000
310
000000000000000000000000000000000000000000000000000000000000000000000000000000000000000000000000000000000000000000000000000000000000000000000000000000BE00000000000000DC00000000000000000000000000000000000000000000000000000000000000000000000000000000000000
310
000000002D2D002D0000F5F5BEF5F5F5BEBEBEBEF5F5F5F52D2D2D2D2D2D000000000000DC0000BE000000000000000000000000000000000000000000000000000000000000000000000000000000000000000000000000000000000000000000000000000000000000000000000000000000000000000000000000000000
310
0000000000000000000000000000000000000000000000000000000000000000000000000000000000000000000000000000000000000000000000000000000000000000000000000000000000BE00000000000000DC0000000000000000000000000000000000000000000000000000000000000000000000000000000000
310
0000000000002D00002D0000F5F5000000F5BE00BEBEBEF5000000F500BE2D2D000000000000DC0000BE00000000000000000000000000000000000000000000000000000000000000000000000000000000000000000000000000000000000000000000000000000000000000000000000000000000000000000000000000
310
00000000000000000000000000000000000000000000000000000000000000000000000000000000000000000000000000000000000000000000000000000000000000000000000000000000000000BE00000000000000DC000000000000000000000000000000000000000000000000000000000000000000000000000000
310
0000000000000000002D00BE0000F5F500F5BEBEF5F5F5F5BEBEF500F5F500BEBE00000000000000DC0000BE0000000000000000000000000000000000000000000000000000000000000000000000000000000000000000000000000000000000000000000000000000000000000000000000000000000000000000000000
310
000000000000000000000000000000000000000000000000000000000000000000000000000000000000000000000000000000000000000000000000000000000000000000000000000000000000000000BE00000000000000DC00000000000000000000000000000000000000000000000000000000000000000000000000
310
00000000000000000000002DBEBE2D0000F5BEBEBEBE00F5F500BEBEBEBEF50000BEBE00000000000000DC0000BE000000000000000000000000000000000000000000000000000000000000000000000000000000000000000000000000000000000000000000000000000000000000000000000000000000000000000000
310
0000000000000000000000000000000000000000000000000000000000000000000000000000000000000000000000000000000000000000000000000000000000000000000000000000000000000000000000BE00000000000000DC0000000000000000000000000000000000000000000000000000000000000000000000
310
000000000000000000000000002DBEBEF50000F5BEBEBEF500F5BEF500BEBEBEF50000000000000000000000DC0000BE00000000000000000000000000000000000000000000000000000000000000000000000000000000000000000000000000000000000000000000000000000000000000000000000000000000000000
310
00000000000000000000000000000000000000000000000000000000000000000000000000000000000000000000000000000000000000000000000000000000000000000000000000000000000000000000000000BE00000000000000DC000000000000000000000000000000000000000000000000000000000000000000
310
000000000000000000000000000000002DBE002D0000F5F5F500BEBEBEBE0000F5BE000000000000000000000000DC0000BE0000000000000000000000000000000000000000000000000000000000000000000000000000000000000000000000000000000000000000000000000000000000000000000000000000000000
310
000000000000000000000000000000000000000000000000000000000000000000000000000000000000000000000000000000000000000000000000000000000000000000000000000000000000000000000000000000BE00000000000000DC00000000000000000000000000000000000000000000000000000000000000
310
0000000000000000000000000000000000002D00002D2D2D00F5F5F5F5F5BEF5F5F5F500000000000000000000000000DC0000BE000000000000000000000000000000000000000000000000000000000000000000000000000000000000000000000000000000000000000000000000000000000000000000000000000000
310
0000000000000000000000000000000000000000000000000000000000000000000000000000000000000000000000000000000000000000000000000000000000000000000000000000000000000000000000000000000000BE00000000000000DC0000000000000000000000000000000000000000000000000000000000
310
0000000000000000000000000000000000000000002D00002D0000000000F5F5F5F5F5000000000000000000000000000000DC0000BE00000000000000000000000000000000000000000000000000000000000000000000000000000000000000000000000000000000000000000000000000000000000000000000000000
310
00000000000000000000000000000000000000000000000000000000000000000000000000000000000000000000000000000000000000000000000000000000000000000000000000000000000000000000000000000000000000BE00000000000000DC000000000000000000000000000000000000000000000000000000
310
0000000000000000000000000000000000000000000000BEBE0000000000000000002D0000000000000000000000000000000000DC0000BE0000000000000000000000000000000000000000000000000000000000000000000000000000000000000000000000000000000000000000000000000000000000000000000000
310
000000000000000000000000000000000000000000000000000000000000000000000000000000000000000000000000000000000000000000000000000000000000000000000000000000000000000000000000000000000000000000BE00000000000000DC00000000000000000000000000000000000000000000000000
310
00000000000000000000000000000000000000000000000000BEBE2D00000000000000002D0000000000000000000000000000000000DC0000BE000000000000000000000000000000000000000000000000000000000000000000000000000000000000000000000000000000000000000000000000000000000000000000
310
0000000000000000000000000000000000000000000000000000000000000000000000000000000000000000000000000000000000000000000000000000000000000000000000000000000000000000000000000000000000000000000000BE00000000000000DC0000000000000000000000000000000000000000000000
310
00000000000000000000000000000000000000000000000000000000BE002D2D0000000000002D0000000000000000000000000000000000DC0000BE00000000000000000000000000000000000000000000000000000000000000000000000000000000000000000000000000000000000000000000000000000000000000
310
00000000000000000000000000000000000000000000000000000000000000000000000000000000000000000000000000000000000000000000000000000000000000000000000000000000000000000000000000000000000000000000000000BE00000000000000DC000000000000000000000000000000000000000000
310
000000000000000000000000000000000000000000000000000000000000000000F52D2D000000002D0000000000000000000000000000000000DC0000BE0000000000000000000000000000000000000000000000000000000000000000000000000000000000000000000000000000000000000000000000000000000000
310
000000000000000000000000000000000000000000000000000000000000000000000000000000000000000000000000000000000000000000000000000000000000000000000000000000000000000000000000000000000000000000000000000000BE00000000000000DC00000000000000000000000000000000000000
310
00000000000000000000000000000000000000000000000000000000000000000000000000002D2D2D2D2D0000000000000000000000000000000000DC0000BE000000000000000000000000000000000000000000000000000000000000000000000000000000000000000000000000000000000000000000000000000000
310
0000000000000000000000000000000000000000000000000000000000000000000000000000000000000000000000000000000000000000000000000000000000000000000000000000000000000000000000000000000000000000000000000000000000BE00000000000000DC0000000000000000000000000000000000
310
0000000000000000000000000000000000000000000000000000000000000000000000000000000000BE00BEBE0000000000BEBE00000000000000000000DC0000BE00000000000000000000000000000000000000000000000000000000000000000000000000000000000000000000000000000000000000000000000000
310
00000000000000000000000000000000000000000000000000000000000000000000000000000000000000000000000000000000000000000000000000000000000000000000000000000000000000000000000000000000000000000000000000000000000000BE00000000000000DC000000000000000000000000000000
310
00000000000000000000000000000000000000000000000000000000000000000000000000BEBEBEBEBEBEBEBEBEBEBEBEBEBEBEBEBEBEBE0000000000000000DC0000BE0000000000000000000000000000000000000000000000000000000000000000000000000000000000000000000000000000000000000000000000
310
000000000000000000000000000000000000000000000000000000000000000000000000000000000000000000000000000000000000000000000000000000000000000000000000000000000000000000000000000000000000000000000000000000000000000000BE00000000000000DC00000000000000000000000000
310
000000000000000000000000000000000000000000000000000000000000000000000000000000BEBEBEBEBEBEBEBEBEBEBEBEBEBEBEBEBEBE000000000000000000DC0000BE000000000000000000000000000000000000000000000000000000000000000000000000000000000000000000000000000000000000000000
310
0000000000000000000000000000000000000000000000000000000000000000000000000000000000000000000000000000000000000000000000000000000000000000000000000000000000000000000000000000000000000000000000000000000000000000000000BE00000000000000DC0000000000000000000000
310
0000000000000000000000000000000000000000000000000000000000000000000000000000000000000000000000000000000000000000000000000000000000000000DC0000BE00000000000000000000000000000000000000000000000000000000000000000000000000000000000000000000000000000000000000
310
00000000000000000000000000000000000000000000000000000000000000000000000000000000000000000000000000000000000000000000000000000000000000000000000000000000000000000000000000000000000000000000000000000000000000000000000000BE00000000000000DC000000000000000000
310
00000000000000000000000000000000000000000000000000000000000000000000000000000000000000000000000000000000000000000000000000000000000000000000DC0000BE0000000000000000000000000000000000000000000000000000000000000000000000000000000000000000000000000000000000
310
000000000000000000000000000000000000000000000000000000000000000000000000000000000000000000000000000000000000000000000000000000000000000000000000000000000000000000000000000000000000000000000000000000000000000000000000000000BE00000000000000DC00000000000000
310
000000000000000000000000000000000000000000000000000000000000000000000000000000000000000000000000000000000000000000000000000000000000000000000000DC0000BE000000000000000000000000000000000000000000000000000000000000000000000000000000000000000000000000000000
310
0000000000000000000000000000000000000000000000000000000000000000000000000000000000000000000000000000000000000000000000000000000000000000000000000000000000000000000000000000000000000000000000000000000000000000000000000000000000BE00000000000000DC0000000000
310
0000000000000000000000000000000000000000000000000000000000000000000000000000000000000000000000000000000000000000000000000000000000000000000000000000DC0000BE00000000000000000000000000000000000000000000000000000000000000000000000000000000000000000000000000
310
00000000000000000000000000000000000000000000000000000000000000000000000000000000000000000000000000000000000000000000000000000000000000000000000000000000000000000000000000000000000000000000000000000000000000000000000000000000000000BE00000000000000DC000000
310
00000000000000000000000000000000000000000000000000000000000000000000000000000000000000000000000000000000000000000000000000000000000000000000000000000000DC0000BE0000000000000000000000000000000000000000000000000000000000000000000000000000000000000000000000
310
000000000000000000000000000000000000000000000000000000000000000000000000000000000000000000000000000000000000000000000000000000000000000000000000000000000000000000000000000000000000000000000000000000000000000000000000000000000000000000BE00000000000000DC00
310
000000000000000000000000000000000000000000000000000000000000000000000000000000000000000000000000000000000000000000000000000000000000000000000000000000000000DC0000BE000000000000000000000000000000000000000000000000000000000000000000000000000000000000000000
310
0000000000000000000000000000000000000000000000000000000000000000000000000000000000000000000000000000000000000000000000000000000000000000000000000000000000000000000000000000000000000000000000000000000000000000000000000000000000000000000000BE00000000000000
310
DC00000000000000BE0000000000000000000000000000000000000000000000000000000000000000000000000000000000000000000000000000000000000000000000000000000000000000000000DC0000BE00000000000000000000000000000000000000000000000000000000000000000000000000000000000000
310
00000000000000000000000000000000000000000000000000000000000000000000000000000000000000000000000000000000000000000000000000000000000000000000000000000000000000000000000000000000000000000000000000000000000000000000000000000000000000000000000000BE0000000000
310
0000DC000000BEF52D2DBEF500000000000000000000000000000000000000000000000000000000000000000000000000000000000000000000000000000000000000000000000000000000000000000000DC0000BE0000000000000000000000000000000000000000000000000000000000000000000000000000000000
310
000000000000000000000000000000000000000000000000000000000000000000000000000000000000000000000000000000000000000000000000000000000000000000000000000000000000000000000000000000000000000000000000000000000000000000000000000000000000000000000000000000BE000000
310
00000000DC000000BEBEF5F5BEF5F5F5BEBEBEBEBEBEBEBEBEBEBEBEBEBEF5F500000000000000000000000000000000000000000000000000000000000000000000000000000000000000000000000000000000DC0000BE000000000000000000000000000000000000000000000000000000000000000000000000000000
310
0000000000000000000000000000000000000000000000000000000000000000000000000000000000000000000000000000000000000000000000000000000000000000000000000000000000000000000000000000000000000000000000000000000000000000000000000000000000000000000000000000000000BE00
310
000000000000DC000000BEBEF5F5BEF5F5F5F5F5F5F5F5F5F5F5F5F52DF5F5F5F5BEF5000000000000000000000000000000000000000000000000000000000000000000000000000000000000000000000000000000DC0000BE00000000000000000000000000000000000000000000000000000000000000000000000000
310
00000000000000000000000000000000000000000000000000000000000000000000000000000000000000000000000000000000000000000000000000000000000000000000000000000000000000000000000000000000000000000000000000000000000000000000000000000000000000000000000000000000000000
310
BE00000000000000DC000000002D2D2DBEF50000000000000000000000002D00000000F5BEF50000000000000000000000000000000000BEBEBEBEBEBEBEBEBEBEBEBEBEBEBEBEBEBEBEBEBEBEBEBEBEBEBEBE0000000000DC0000BE0000000000000000000000000000000000000000000000000000000000000000000000
310
00000000000000000000000000000000000000000000000000000000000000000000000000000000000000000000000000000000000000000000000000000000000000000000000000000000000000000000000000000000000000000000000000000000000000000000000000000000000000000000000000000000000000
310
0000BE00000000000000DC0000000000000000000000000000000000000000002D00000000F5F5F50000000000000000000000000000000000BE0000000000BEBEBEBEBEBEBEBEBEBE0000BE00BEBEBEBEBEBE00BE0000000000DC0000BE000000000000000000000000000000000000000000000000000000000000000000
310
00000000000000000000000000000000000000000000000000000000000000000000000000000000000000000000000000000000000000000000000000000000000000000000000000000000000000000000000000000000000000000000000000000000000000000000000000000000000000000000000000000000000000
310
00000000BE00000000000000DC0000000000000000000000000000000000000000BEBE00000000F5F5F50000000000000000000000000000000000BEBEBEBEBEBEBEBEBEBEBEBEBEBEBEBE0000BE00BEBEBEBEBEBE00BE0000000000DC0000BE00000000000000000000000000000000000000000000000000000000000000
310
00000000000000000000000000000000000000000000000000000000000000000000000000000000000000000000000000000000000000000000000000000000000000000000000000000000000000000000000000000000000000000000000000000000000000000000000000000000000000000000000000000000000000
310
000000000000BE00000000000000DC0000000000000000000000000000000000000000BEBE2D000000F5BEF50000000000000000000000000000000000BEBEBEBEBEBEBEBEBEBEBEBEBEBEBEBEBEBEBEBEBEBEBEBEBEBEBEBE0000000000DC0000BE0000000000000000000000000000000000000000000000000000000000
310
00000000000000000000000000000000000000000000000000000000000000000000000000000000000000000000000000000000000000000000000000000000000000000000000000000000000000000000000000000000000000000000000000000000000000000000000000000000000000000000000000000000000000
310
0000000000000000BE00000000000000DC000000000000000000000000000000000000000000BEF50000F5BEF5000000000000000000000000000000000000BE0000000000BEBEBEBEBEBEBEBEBEBEBEBEBE00BEBEBEBEBEBEBEBE0000000000DC0000BE000000000000000000000000000000000000000000000000000000
310
00000000000000000000000000000000000000000000000000000000000000000000000000000000000000000000000000000000000000000000000000000000000000000000000000000000000000000000000000000000000000000000000000000000000000000000000000000000000000000000000000000000000000
310
00000000000000000000BE00000000000000DC00000000000000000000000000000000000000000000002DF5BEF500000000000000000000000000000000000000BEBEBEBEBEBEBEBEBEBEBEBEBEBEBEBEBEBEBEBEBEBEBEBEBEBEBEBE0000000000DC0000BE00000000000000000000000000000000000000000000000000
310
00000000000000000000000000000000000000000000000000000000000000000000000000000000000000000000000000000000000000000000000000000000000000000000000000000000000000000000000000000000000000000000000000000000000000000000000000000000000000000000000000000000000000
310
000000000000000000000000BE00000000000000DC0000000000000000000000000000000000000000000000F52DF50000000000000000000000000000000000000000000000000000000000000000000000000000000000000000000000000000000000DC0000BE0000000000000000000000000000000000000000000000
310
00000000000000000000000000000000000000000000000000000000000000000000000000000000000000000000000000000000000000000000000000000000000000000000000000000000000000000000000000000000000000000000000000000000000000000000000000000000000000000000000000000000000000
310
0000000000000000000000000000BE00000000000000DC0000000000000000000000000000000000000000BEF5F5BEF5000000000000000000000000000000000000000000000000000000BEBEBEBEBEBEBEBEBEBEBEBE000000000000000000000000000000DC0000BE000000000000000000000000000000000000000000
310
00000000000000000000000000000000000000000000000000000000000000000000000000000000000000000000000000000000000000000000000000000000000000000000000000000000000000000000000000000000000000000000000000000000000000000000000000000000000000000000000000000000000000
310
00000000000000000000000000000000BE00000000000000DC0000000000000000000000000000000000000000F5BEBEF50000000000000000000000000000000000000000000000000000000000BEBEBEBEBEBEBEBEBEBEBE000000000000000000000000000000DC0000BE00000000000000000000000000000000000000
310
00000000000000000000000000000000000000000000000000000000000000000000000000000000000000000000000000000000000000000000000000000000000000000000000000000000000000000000000000000000000000000000000000000000000000000000000000000000000000000000000000000000000000
310
000000000000000000000000000000000000BE00000000000000DC0000000000000000000000000000000000000000F5F5BEBE00000000000000000000000000000000000000000000000000000000000000000000000000000000000000000000000000000000000000DC0000BE0000000000000000000000000000000000
310
00000000000000000000000000000000000000000000000000000000000000000000000000000000000000000000000000000000000000000000000000000000000000000000000000000000000000000000000000000000000000000000000000000000000000000000000000000000000000000000000000000000000000
310
0000000000000000000000000000000000000000BE00000000000000DC0000000000000000000000000000000000000000BEF5F5BE00000000000000000000000000000000000000000000000000000000000000000000000000000000000000000000000000000000000000DC0000BE000000000000000000000000000000
310
00000000000000000000000000000000000000000000000000000000000000000000000000000000000000000000000000000000000000000000000000000000000000000000000000000000000000000000000000000000000000000000000000000000000000000000000000000000000000000000000000000000000000
310
00000000000000000000000000000000000000000000BE00000000000000DC00000000000000000000000000000000000000000000000000000000000000000000000000000000000000000000000000000000000000000000000000000000000000000000000000000000000000DC0000BE00000000000000000000000000
310
00000000000000000000000000000000000000000000000000000000000000000000000000000000000000000000000000000000000000000000000000000000000000000000000000000000000000000000000000000000000000000000000000000000000000000000000000000000000000000000000000000000000000
310
000000000000000000000000000000000000000000000000BE00000000000000DC00000000000000000000000000000000000000000000000000000000000000000000000000000000000000000000000000000000000000000000000000000000000000000000000000000000000000DC0000BE0000000000000000000000
310
00000000000000000000000000000000000000000000000000000000000000000000000000000000000000000000000000000000000000000000000000000000000000000000000000000000000000000000000000000000000000000000000000000000000000000000000000000000000000000000000000000000000000
310
0000000000000000000000000000000000000000000000000000BE00000000000000DC0000000000F5F5BEF5F500000000000000000000F5F5BEF52D2D2D2D2D2DF5000000F5F5BEF5000000000000F5F5F5F500000000000000000000000000000000000000000000000000000000000000DC0000BE000000000000000000
310
00000000000000000000000000000000000000000000000000000000000000000000000000000000000000000000000000000000000000000000000000000000000000000000000000000000000000000000000000000000000000000000000000000000000000000000000000000000000000000000000000000000000000
310
00000000000000000000000000000000000000000000000000000000BE00000000000000DC0000000000F5F5BEF5F500000000000000000000F5F5BEF50000000000002D000000F5F5BEF5000000000000F5F5F5F500000000000000000000000000000000000000000000000000000000000000DC0000BE00000000000000
310
00000000000000000000000000000000000000000000000000000000000000000000000000000000000000000000000000000000000000000000000000000000000000000000000000000000000000000000000000000000000000000000000000000000000000000000000000000000000000000000000000000000000000
310
000000000000000000000000000000000000000000000000000000000000BE00000000000000DC0000000000002DBEF5000000000000000000000000F5F50000000000BEBEBE000000002DBE0000000000000000F5BEF5002D0000000000000000000000000000000000000000000000000000000000DC0000BE0000000000
310
00000000000000000000000000000000000000000000000000000000000000000000000000000000000000000000000000000000000000000000000000000000000000000000000000000000000000000000000000000000000000000000000000000000000000000000000000000000000000000000000000000000000000
310
0000000000000000000000000000000000000000000000000000000000000000BE00000000000000DC0000000000002DF5F5F50000000000000000000000F5BEF500000000BEBEBE000000002DBEF500000000000000F5BEF5002D0000000000000000000000000000000000000000000000000000000000DC0000BE000000
310
00000000000000000000000000000000000000000000000000000000000000000000000000000000000000000000000000000000000000000000000000000000000000000000000000000000000000000000000000000000000000000000000000000000000000000000000000000000000000000000000000000000000000
310
00000000000000000000000000000000000000000000000000000000000000000000BE00000000000000DC0000000000002DF5F5BEBEBEBEBEBEBEBEBEBEBEBEBEBEBEBEBEBEBEBEBEBE000000002DBEBEBEBEBEBEBEBEBEF5BEF52DF50000000000000000000000000000000000000000000000000000000000DC0000BE00
310
00000000000000000000000000000000000000000000000000000000000000000000000000000000000000000000000000000000000000000000000000000000000000000000000000000000000000000000000000000000000000000000000000000000000000000000000000000000000000000000000000000000000000
310
000000000000000000000000000000000000000000000000000000000000000000000000BE00000000000000DC0000000000002D0000F5F5F5F5F5F5F5F5F5F5F5F5F5F5F5F5F5F5F52D2D2D000000002DF5F5F5F5F5F5F5F5F5F5F52DBE2D0000000000000000000000000000000000000000000000000000000000DC0000
310
BE000000000000000000000000000000000000000000000000000000000000000000000000000000000000000000000000000000000000000000000000000000000000000000000000000000000000000000000000000000000000000000000000000000000000000000000000000000000000000000000000000000000000
310
0000000000000000000000000000000000000000000000000000000000000000000000000000BE00000000000000DC0000000000002D0000000000000000000000000000000000000000002D0000000000002D00000000000000000000002DBE2D0000000000000000000000000000000000000000000000000000000000DC
310
0000BE00000000000000000000000000000000000000000000000000000000000000000000000000000000000000000000000000000000000000000000000000000000000000000000000000000000000000000000000000000000000000000000000000000000000000000000000000000000000000000000000000000000
310
00000000000000000000000000000000000000000000000000000000000000000000000000000000BE00000000000000DC0000000000002D2D2D2D2D2D2D2D2D2DBEBEBE2D2D2D2D2D2D2D2D2DF50000000000002D2D2D2DBEBEBEBE2D2D2D2DF5BEBE00000000000000000000000000000000000000000000000000000000
310
00DC0000BE0000000000000000000000000000000000000000000000000000000000000000000000000000000000000000000000000000000000000000000000000000000000000000000000000000000000000000000000000000000000000000000000000000000000000000000000000000000000000000000000000000
310
000000000000000000000000000000000000000000000000000000000000000000000000000000000000BE00000000000000DC00000000000000000000000000000000BEBEBEBEBEBE0000000000000000000000000000000000BEBEBEBEBEBEBE0000BEBE0000000000000000000000000000000000000000000000000000
310
000000DC0000BE000000000000000000000000000000000000000000000000000000000000000000000000000000000000000000000000000000000000000000000000000000000000000000000000000000000000000000000000000000000000000000000000000000000000000000000000000000000000000000000000
310
0000000000000000000000000000000000000000000000000000000000000000000000000000000000000000BE00000000000000DC00000000000000000000000000000000000000BEBEBE000000000000000000000000000000000000000000BEBEBE00000000000000000000000000000000000000000000000000000000
310
0000000000DC0000BE00000000000000000000000000000000000000000000000000000000000000000000000000000000000000000000000000000000000000000000000000000000000000000000000000000000000000000000000000000000000000000000000000000000000000000000000000000000000000000000
310
00000000000000000000000000000000000000000000000000000000000000000000000000000000000000000000BE00000000000000DC000000000000000000000000000000000000000000000000000000000000000000000000000000000000000000000000000000000000000000000000000000000000000000000000
310
00000000000000DC0000BE0000000000000000000000000000000000000000000000000000000000000000000000000000000000000000000000000000000000000000000000000000000000000000000000000000000000000000000000000000000000000000000000000000000000000000000000000000000000000000
310
000000000000000000000000000000000000000000000000000000000000000000000000000000000000000000000000BE00000000000000DC00000000000000000000000000000000000000000000000000000000000000000000000000000000000000000000000000000000000000000000000000000000000000000000
310
000000000000000000DC0000BE000000000000000000000000000000000000000000000000000000000000000000000000000000000000000000000000000000000000000000000000000000000000000000000000000000000000000000000000000000000000000000000000000000000000000000000000000000000000
310
0000000000000000000000000000000000000000000000000000000000000000000000000000000000000000000000000000BE00000000000000DC0000000000000000000000000000000000000000000000000000000000000000000000000000000000000000000000000000000000000000000000000000000000000000
310
0000000000000000000000DC0000BE00000000000000000000000000000000000000000000000000000000000000000000000000000000000000000000000000000000000000000000000000000000000000000000000000000000000000000000000000000000000000000000000000000000000000000000000000000000
310
00000000000000000000000000000000000000000000000000000000000000000000000000000000000000000000000000000000BE00000000000000DC000000000000000000000000000000000000000000000000000000000000000000000000000000000000000000000000000000000000000000000000000000000000
310
00000000000000000000000000DC0000BE0000000000000000000000000000000000000000000000000000000000000000000000000000000000000000000000000000000000000000000000000000000000000000000000000000000000000000000000000000000000000000000000000000000000000000000000000000
310
000000000000000000000000000000000000000000000000000000000000000000000000000000000000000000000000000000000000BE00000000000000DC00000000000000000000000000000000000000000000000000000000000000000000000000000000000000000000000000000000000000000000000000000000
310
000000000000000000000000000000DC0000BE000000000000000000000000000000000000000000000000000000000000000000000000000000000000000000000000000000000000000000000000000000000000000000000000000000000000000000000000000000000000000000000000000000000000000000000000
310
0000000000000000000000000000000000000000000000000000000000000000000000000000000000000000000000000000000000000000BE00000000000000DC00000000000000000000000000000000000000000000000000F5BE2D2D2DF500000000000000000000000000000000000000000000000000000000000000
310
0000000000000000000000000000000000DC0000BE00000000000000000000000000000000000000000000000000000000000000000000000000000000000000000000000000000000000000000000000000000000000000000000000000000000000000000000000000000000000000000000000000000000000000000000
310
00000000000000000000000000000000000000000000000000000000000000000000000000000000000000000000000000000000000000000000BE00000000000000DC00000000000000F5F5F5F5F5F5F5F5F5F5F5F5F5F5F5F5F5F5F5BEF5F5BEBE0000000000000000000000000000000000000000000000000000000000
310
00000000000000000000000000000000000000DC0000BE0000000000000000000000000000000000000000000000000000000000000000000000000000000000000000000000000000000000000000000000000000000000000000000000000000000000000000000000000000000000000000000000000000000000000000
310
000000000000000000000000000000000000000000000000000000000000000000000000000000000000000000000000000000000000000000000000BE00000000000000DC000000000000F5F5F5F5BEBEBE2DBEBEBEBEBEBEBEBEBEF5F5F5BEF5F5BEBE000000000000000000000000000000000000000000000000000000
310
000000000000000000000000000000000000000000DC0000BE000000000000000000000000000000000000000000000000000000000000000000000000000000000000000000000000000000000000000000000000000000000000000000000000000000000000000000000000000000000000000000000000000000000000
310
0000000000000000000000000000000000000000000000000000000000000000000000000000000000000000000000000000000000000000000000000000BE00000000000000DC0000000000F5F5F5F50000002D2D0000000000000000000000F5BE2D2D2D2D000000000000000000000000000000BEBEBEBEBEBEBEBEBEBE
310
BEBEBEBEBEBEBEBEBEBEBEBEBEBEBEBEBEBEBE00000000DC0000BE00000000000000000000000000000000000000000000000000000000000000000000000000000000000000000000000000000000000000000000000000000000000000000000000000000000000000000000000000000000000000000000000000000000
310
00000000000000000000000000000000000000000000000000000000000000000000000000000000000000000000000000000000000000000000000000000000BE00000000000000DC0000000000F5F5F5000000002D00000000000000000000000000BE00000000000000000000000000000000000000BE000000000000BE
310
BEBEBEBEBEBEBEBE0000BE00BEBEBEBEBEBEBE00BE00000000DC0000BE0000000000000000000000000000000000000000000000000000000000000000000000000000000000000000000000000000000000000000000000000000000000000000000000000000000000000000000000000000000000000000000000000000
310
000000000000000000000000000000000000000000000000000000000000000000000000000000000000000000000000000000000000000000000000000000000000BE00000000000000DC0000000000F5F50000000000F5BE0000000000000000000000000000000000000000000000000000000000000000BEBEBEBEBEBE
310
BEBEBEBEBEBEBEBEBEBE0000BE00BEBEBEBEBEBEBE00BE00000000DC0000BE000000000000000000000000000000000000000000000000000000000000000000000000000000000000000000000000000000000000000000000000000000000000000000000000000000000000000000000000000000000000000000000000
310
0000000000000000000000000000000000000000000000000000000000000000000000000000000000000000000000000000000000000000000000000000000000000000BE00000000000000DC0000000000F5F5F500000000BEBE0000000000000000000000000000000000000000000000000000000000000000BEBEBEBE
310
BEBEBEBEBEBEBEBEBEBEBEBEBEBEBEBEBEBEBEBEBEBEBEBEBE00000000DC0000BE00000000000000000000000000000000000000000000000000000000000000000000000000000000000000000000000000000000000000000000000000000000000000000000000000000000000000000000000000000000000000000000
310
00000000000000000000000000000000000000000000000000000000000000000000000000000000000000000000000000000000000000000000000000000000000000000000BE00000000000000DC0000000000F5F5F50000002DBEBE0000000000000000000000000000000000000000000000000000000000000000BE00
310
0000000000BEBEBEBEBEBEBEBEBEBEBEBE00BEBEBEBEBEBEBE00BE00000000DC0000BE0000000000000000000000000000000000000000000000000000000000000000000000000000000000000000000000000000000000000000000000000000000000000000000000000000000000000000000000000000000000000000
310
000000000000000000000000000000000000000000000000000000000000000000000000000000000000000000000000000000000000000000000000000000000000000000000000BE00000000000000DC000000000000F5BEF5F5002D00000000000000000000000000000000000000000000000000000000000000000000
310
BEBEBEBEBEBEBEBEBEBEBEBEBEBEBEBEBEBEBEBEBEBEBEBEBEBEBEBEBE00000000DC0000BE000000000000000000000000000000000000000000000000000000000000000000000000000000000000000000000000000000000000000000000000000000000000000000000000000000000000000000000000000000000000
310
0000000000000000000000000000000000000000000000000000000000000000000000000000000000000000000000000000000000000000000000000000000000000000000000000000BE00000000000000DC00000000000000F5BEBEF5000000000000000000000000000000000000000000000000000000000000000000
310
0000000000000000000000000000000000000000000000000000000000000000000000DC0000BE00000000000000000000000000000000000000000000000000000000000000000000000000000000000000000000000000000000000000000000000000000000000000000000000000000000000000000000000000000000
310
00000000000000000000000000000000000000000000000000000000000000000000000000000000000000000000000000000000000000000000000000000000000000000000000000000000BE00000000000000DC000000000000000000BEBEF5F50000000000000000000000000000000000000000000000000000000000
310
0000000000000000000000BEBEBEBEBEBEBEBEBEBEBEBEBE00000000000000000000000000DC0000BE0000000000000000000000000000000000000000000000000000000000000000000000000000000000000000000000000000000000000000000000000000000000000000000000000000000000000000000000000000
310
000000000000000000000000000000000000000000000000000000000000000000000000000000000000000000000000000000000000000000000000000000000000000000000000000000000000BE00000000000000DC00000000000000000000F5F5BEBE0000000000000000000000000000000000000000000000000000
310
00000000000000000000000000BEBEBEBEBEBEBEBEBEBEBEBEBE00000000000000000000000000DC0000BE000000000000000000000000000000000000000000000000000000000000000000000000000000000000000000000000000000000000000000000000000000000000000000000000000000000000000000000000
310
0000000000000000000000000000000000000000000000000000000000000000000000000000000000000000000000000000000000000000000000000000000000000000000000000000000000000000BE00000000000000DC00000000000000000000F5BEF5F5000000000000000000000000000000000000000000000000
310
0000000000000000000000000000000000000000000000000000000000000000000000000000000000DC0000BE00000000000000000000000000000000000000000000000000000000000000000000000000000000000000000000000000000000000000000000000000000000000000000000000000000000000000000000
310
00000000000000000000000000000000000000000000000000000000000000000000000000000000000000000000000000000000000000000000000000000000000000000000000000000000000000000000BE00000000000000DC00000000000000000000BEBEF5F500000000000000000000000000000000000000000000
310
00000000000000000000000000000000000000000000000000000000000000000000000000000000000000DC0000BE0000000000000000000000000000000000000000000000000000000000000000000000000000000000000000000000000000000000000000000000000000000000000000000000000000000000000000
310
000000000000000000000000000000000000000000000000000000000000000000000000000000000000000000000000000000000000000000000000000000000000000000000000000000000000000000000000BE00000000000000DC00000000000000000000000000000000000000000000000000000000000000000000
310
000000000000000000000000000000000000000000000000000000000000000000000000000000000000000000DC0000BE000000000000000000000000000000000000000000000000000000000000000000000000000000000000000000000000000000000000000000000000000000000000000000000000000000000000
310
0000000000000000000000000000000000000000000000000000000000000000000000000000000000000000000000000000000000000000000000000000000000000000000000000000000000000000000000000000BE00000000000000DC0000000000000000000000000000000000000000000000000000000000000000
310
0000000000000000000000000000000000000000000000000000000000000000000000000000000000000000000000DC0000BE00000000000000000000000000000000000000000000000000000000000000000000000000000000000000000000000000000000000000000000000000000000000000000000000000000000
310
00000000000000000000000000000000000000000000000000000000000000000000000000000000000000000000000000000000000000000000000000000000000000000000000000000000000000000000000000000000BE00000000000000DC000000000000000000000000000000000000000000000000000000000000
310
00000000000000000000000000000000000000000000000000000000000000000000000000000000000000000000000000DC0000BE0000000000000000000000000000000000000000000000000000000000000000000000000000000000000000000000000000000000000000000000000000000000000000000000000000
310
000000000000000000000000000000000000000000000000000000000000000000000000000000000000000000000000000000000000000000000000000000000000000000000000000000000000000000000000000000000000BE00000000000000DC00002DF52D2D2D2D2D2DF5BEF5F500000000000000000000F5F5BEF5
310
F50000F5BEF5F5000000000000F5F5F5F500000000000000000000000000000000000000000000000000000000000000000000DC0000BE000000000000000000000000000000000000000000000000000000000000000000000000000000000000000000000000000000000000000000000000000000000000000000000000
310
0000000000000000000000000000000000000000000000000000000000000000000000000000000000000000000000000000000000000000000000000000000000000000000000000000000000000000000000000000000000000000BE00000000000000DC00BEBE2D00000000000000F5F5000000000000000000000000F5
310
BE2D0000002DBEF50000000000000000BEF500002D0000000000000000000000000000000000000000000000000000000000000000DC0000BE00000000000000000000000000000000000000000000000000000000000000000000000000000000000000000000000000000000000000000000000000000000000000000000
310
00000000000000000000000000000000000000000000000000000000000000000000000000000000000000000000000000000000000000000000000000000000000000000000000000000000000000000000000000000000000000000000BE00000000000000DC00BEBE2D000000000000F5BEF50000000000000000000000
310
F5F5F52D0000002DBEBE0000000000000000BEF5002D2D0000000000000000000000000000000000000000000000000000000000000000DC0000BE0000000000000000000000000000000000000000000000000000000000000000000000000000000000000000000000000000000000000000000000000000000000000000
310
000000000000000000000000000000000000000000000000000000000000000000000000000000000000000000000000000000000000000000000000000000000000000000000000000000000000000000000000000000000000000000000000BE00000000000000DC00BEBE2D00F5F5F5F5F5F5F5F5F5F5F5F5F5F5F5F5F5
310
F5F5F5F5F52D0000002DF5BEBEF5F5F5F5F5F5F5F52D2D2DF50000000000000000000000000000000000000000000000000000000000000000DC0000BE000000000000000000000000000000000000000000000000000000000000000000000000000000000000000000000000000000000000000000000000000000000000
310
0000000000000000000000000000000000000000000000000000000000000000000000000000000000000000000000000000000000000000000000000000000000000000000000000000000000000000000000000000000000000000000000000000BE00000000000000DC00002D2D2D2DF5BEBEBEBEBEBEBEBEBEBEBEBEBE
310
BEBEBEBEF5F5002D0000002D00F5BEF5F5F5BEBEBEBEF52D2D2D2D0000000000000000000000000000000000000000000000000000000000000000DC0000BE00000000000000000000000000000000000000000000000000000000000000000000000000000000000000000000000000000000000000000000000000000000
310
00000000000000000000000000000000000000000000000000000000000000000000000000000000000000000000000000000000000000000000000000000000000000000000000000000000000000000000000000000000000000000000000000000000BE00000000000000DC00000000002D000000000000000000000000
310
0000000000000000002D0000002D00000000000000000000BE2DBE2D2D0000000000000000000000000000000000000000000000000000000000000000DC0000BE0000000000000000000000000000000000000000000000000000000000000000000000000000000000000000000000000000000000000000000000000000
310
000000000000000000000000000000000000000000000000000000000000000000000000000000000000000000000000000000000000000000000000000000000000000000000000000000000000000000000000000000000000000000000000000000000000BE00000000000000DC00000000002D00000000000000000000
310
00000000000000000000002D0000002D00000000000000000000002DBEBE2D0000000000000000000000000000000000000000000000000000000000000000DC0000BE000000000000000000000000000000000000000000000000000000000000000000000000000000000000000000000000000000000000000000000000
310
0000000000000000000000000000000000000000000000000000000000000000000000000000000000000000000000000000000000000000000000000000000000000000000000000000000000000000000000000000000000000000000000000000000000000000BE00000000000000DC00000000002D2D00000000000000
310
0000000000000000000000002D2D0000002D2D0000000000000000002D2DBEBE000000000000000000000000000000000000000000000000000000000000000000DC0000BE00000000000000000000000000000000000000000000000000000000000000000000000000000000000000000000000000000000000000000000
310
00000000000000000000000000000000000000000000000000000000000000000000000000000000000000000000000000000000000000000000000000000000000000000000000000000000000000000000000000000000000000000000000000000000000000000000BE00000000000000DC00000000002D2D2D2D2D2D2D
310
2D2D2DBEBEBEBEBE2D2D2D2D2D2D2DF50000002D2D2D2D2DBEBEBEBEBEBE2DF5BEBE000000000000000000000000000000000000000000000000000000000000000000DC0000BE0000000000000000000000000000000000000000000000000000000000000000000000000000000000000000000000000000000000000000
310
000000000000000000000000000000000000000000000000000000000000000000000000000000000000000000000000000000000000000000000000000000000000000000000000000000000000000000000000000000000000000000000000000000000000000000000000BE00000000000000DC00000000000000000000
310
0000000000BEBEBEBEBE00000000000000000000000000000000BEBEBEBEBEBE00000000000000000000000000000000000000000000000000000000000000000000000000DC0000BE000000000000000000000000000000000000000000000000000000000000000000000000000000000000000000000000000000000000
310
0000000000000000000000000000000000000000000000000000000000000000000000000000000000000000000000000000000000000000000000000000000000000000000000000000000000000000000000000000000000000000000000000000000000000000000000000000BE00000000000000DC0000000000000000
310
0000000000000000000000000000000000000000000000000000000000000000000000000000000000000000000000000000000000000000000000000000000000000000000000DC0000BE00000000000000000000000000000000000000000000000000000000000000000000000000000000000000000000000000000000
310
00000000000000000000000000000000000000000000000000000000000000000000000000000000000000000000000000000000000000000000000000000000000000000000000000000000000000000000000000000000000000000000000000000000000000000000000000000000BE00000000000000DC000000000000
310
00000000000000000000000000000000000000000000000000000000000000000000000000000000000000000000000000000000000000000000000000000000000000000000000000DC0000BE0000000000000000000000000000000000000000000000000000000000000000000000000000000000000000000000000000
310
000000000000000000000000000000000000000000000000000000000000000000000000000000000000000000000000000000000000000000000000000000000000000000000000000000000000000000000000000000000000000000000000000000000000000000000000000000000000BE00000000000000DC00000000
310
000000000000000000000000000000000000000000000000000000000000000000000000000000000000000000000000000000000000000000000000000000000000000000000000000000DC0000BE000000000000000000000000000000000000000000000000000000000000000000000000000000000000000000000000
310
0000000000000000000000000000000000000000000000000000000000000000000000000000000000000000000000000000000000000000000000000000000000000000000000000000000000000000000000000000000000000000000000000000000000000000000000000000000000000000BE00000000000000DC0000
310
0000000000000000000000000000000000000000000000000000000000000000000000000000000000000000000000000000000000000000000000000000000000000000000000000000000000DC0000BE00000000000000000000000000000000000000000000000000000000000000000000000000000000000000000000
310
00000000000000000000000000000000000000000000000000000000000000000000000000000000000000000000000000000000000000000000000000000000000000000000000000000000000000000000000000000000000000000000000000000000000000000000000000000000000000000000BE00000000000000DC
310
DCDCDCDCDCDCDCDCDCDCDCDCDCDCDCDCDCDCDCDCDCDCDCDCDCDCDCDCDCDCDCDCDCDCDCDCDCDCDCDCDCDCDCDCDCDCDCDCDCDCDCDCDCDCDCDCDCDCDCDCDCDCDCDCDCDCDCDCDCDCDCDCDCDCDCDCDCDCDCDC0000BE0000000000000000000000000000000000000000000000000000000000000000000000000000000000000000
310
000000000000000000000000000000000000000000000000000000000000000000000000000000000000000000000000000000000000000000000000000000000000000000000000000000000000000000000000000000000000000000000000000000000000000000000000000000000000000000000000BE000000000000
310
000000000000000000000000000000000000000000000000000000000000000000000000000000000000000000000000000000000000000000000000000000000000000000000000000000000000000000000000BE000000000000000000000000000000000000000000000000000000000000000000000000000000000000
310
0000000000000000000000000000000000000000000000000000000000000000000000000000000000000000000000000000000000000000000000000000000000000000000000000000000000000000000000000000000000000000000000000000000000000000000000000000000000000000000000000000BEBEBEBEBE
310
BEBEBEBEBEBEBEBEBEBEBEBEBEBEBEBEBEBEBEBEBEBEBEBEBEBEBEBEBEBEBEBEBEBEBEBEBEBEBEBEBEBEBEBEBEBEBEBEBEBEBEBEBEBEBEBEBEBEBEBEBEBEBEBEBEBEBEBEBEBEBEBEBEBEBEBEBEBEBEBEBEBEBEBEBEBEBE00000000000000000000000000000000000000000000000000000000000000000000000000000000
310
00000000000000000000000000000000000000000000000000000000000000000000000000000000000000000000000000000000000000000000000000000000000000000000000000000000000000000000000000000000000000000000000000000000000000000000000000000000000000000000000000000000000000
310
00000000000000000000000000000000000000000000000000000000000000000000000000000000000000000000000000000000000000000000000000000000000000000000000000000000000000000000000000000000000000000000000000000000000000000000000000000000000000000000000000000000000000
310
00000000000000000000000000000000000000000000000000000000000000000000000000000000000000000000000000000000000000000000000000000000000000000000000000000000000000000000000000000000000000000000000000000000000000000000000000000000000000000000000000000000000000
310
00000000000000000000000000000000000000000000000000000000000000000000000000000000000000000000000000000000000000000000000000000000000000000000000000000000000000000000000000000000000000000000000000000000000000000000000000000000000000000000000000000000000000
310
00000000000000000000000000000000000000000000000000000000000000000000000000000000000000000000000000000000000000000000000000000000000000000000000000000000000000000000000000000000000000000000000000000000000000000000000000000000000000000000000000000000000000
310
00000000000000000000000000000000000000000000000000000000000000000000000000000000000000000000000000000000000000000000000000000000000000000000000000000000000000000000000000000000000000000000000000000000000000000000000000000000000000000000000000000000000000
310
00000000000000000000000000000000000000000000000000000000000000000000000000000000000000000000000000000000000000000000000000000000000000000000000000000000000000000000000000000000000000000000000000000000000000000000000000000000000000000000000000000000000000
310
00000000000000000000000000000000000000000000000000000000000000000000000000000000000000000000000000000000000000000000000000000000000000000000000000000000000000000000000000000000000000000000000000000000000000000000000000000000000000000000000000000000000000
310
00000000000000000000000000000000000000000000000000000000000000000000000000000000000000000000000000000000000000000000000000000000000000000000000000000000000000000000000000000000000000000000000000000000000000000000000000000000000000000000000000000000000000
310
00000000000000000000000000000000000000000000000000000000000000000000000000000000000000000000000000000000000000000000000000000000000000000000000000000000000000000000000000000000000000000000000000000000000000000000000000000000000000000000000000000000000000
310
00000000000000000000000000000000000000000000000000000000000000000000000000000000000000000000000000000000000000000000000000000000000000000000000000000000000000000000000000000000000000000000000000000000000000000000000000000000000000000000000000000000000000
310
00000000000000000000000000000000000000000000000000000000000000000000000000000000000000000000000000000000000000000000000000000000000000000000000000000000000000000000000000000000000000000000000000000000000000000000000000000000000000000000000000000000000000
310
00000000000000000000000000000000000000000000000000000000000000000000000000000000000000000000000000000000000000000000000000000000000000000000000000000000000000000000000000000000000000000000000000000000000000000000000000000000000000000000000000000000000000
310
00000000000000000000000000000000000000000000000000000000000000000000000000000000000000000000000000000000000000000000000000000000000000000000000000000000000000000000000000000000000000000000000000000000000000000000000000000000000000000000000000000000000000
310
00000000000000000000000000000000000000000000000000000000000000000000000000000000000000000000000000000000000000000000000000000000000000000000000000000000000000000000000000000000000000000000000000000000000000000000000000000000000000000000000000000000000000
310
00000000000000000000000000000000000000000000000000000000000000000000000000000000000000000000000000000000000000000000000000000000000000000000000000000000000000000000000000000000000000000000000000000000000000000000000000000000000000000000000000000000000000
310
00000000000000000000000000000000000000000000000000000000000000000000000000000000000000000000000000000000000000000000000000000000000000000000000000000000000000000000000000000000000000000000000000000000000000000000000000000000000000000000000000000000000000
310
00000000000000000000000000000000000000000000000000000000000000000000000000000000000000000000000000000000000000000000000000000000000000000000000000000000000000000000000000000000000000000000000000000000000000000000000000000000000000000000000000000000000000
310
00000000000000000000000000000000000000000000000000000000000000000000000000000000000000000000000000000000000000000000000000000000000000000000000000000000000000000000000000000000000000000000000000000000000000000000000000000000000000000000000000000000000000
310
00000000000000000000000000000000000000000000000000000000000000000000000000000000000000000000000000000000000000000000000000000000000000000000000000000000000000000000000000000000000000000000000000000000000000000000000000000000000000000000000000000000000000
310
00000000000000000000000000000000000000000000000000000000000000000000000000000000000000000000000000000000000000000000000000000000000000000000000000000000000000000000000000000000000000000000000000000000000000000000000000000000000000000000000000000000000000
310
00000000000000000000000000000000000000000000000000000000000000000000000000000000000000000000000000000000000000000000000000000000000000000000000000000000000000000000000000000000000000000000000000000000000000000000000000000000000000000000000000000000000000
310
00000000000000000000000000000000000000000000000000000000000000000000000000000000000000000000000000000000000000000000000000000000000000000000000000000000000000000000000000000000000000000000000000000000000000000000000000000000000000000000000000000000000000
310
00000000000000000000000000000000000000000000000000000000000000000000000000000000000000000000000000000000000000000000000000000000000000000000000000000000000000000000000000000000000000000000000000000000000000000000000000000000000000000000000000000000000000
310
00000000000000000000000000000000000000000000000000000000000000000000000000000000000000000000000000000000000000000000000000000000000000000000000000000000
  0
XRECORD
  5
F
102
{ACAD_REACTORS
330
E
102
}
330
E
100
AcDbXrecord
280
     1
270
     1
271
     1
  0
XRECORD
  5
10
102
{ACAD_REACTORS
330
E
102
}
330
E
100
AcDbXrecord
280
     1
270
     1
271
     1
  0
XRECORD
  5
11
102
{ACAD_REACTORS
330
E
102
}
330
E
100
AcDbXrecord
280
     1
270
     1
271
     1
  0
XRECORD
  5
12
102
{ACAD_REACTORS
330
E
102
}
330
E
100
AcDbXrecord
280
     1
270
     1
271
     1
  0
CELLSTYLEMAP
  5
380
102
{ACAD_REACTORS
330
42
102
}
330
42
100
AcDbCellStyleMap
 90
        3
300
CELLSTYLE
  1
TABLEFORMAT_BEGIN
 90
        5
170
     1
 91
        0
 92
    32768
 62
   257
 93
        1
300
CONTENTFORMAT
  1
CONTENTFORMAT_BEGIN
 90
        0
 91
        0
 92
      512
 93
        0
300

 40
0.0
140
1.0
 94
        5
 62
     0
340
25
144
6.0
309
CONTENTFORMAT_END
171
     1
301
MARGIN
  1
CELLMARGIN_BEGIN
 40
1.5
 40
1.5
 40
1.5
 40
1.5
 40
4.5
 40
4.5
309
CELLMARGIN_END
 94
        6
 95
        1
302
GRIDFORMAT
  1
GRIDFORMAT_BEGIN
 90
        0
 91
        1
 62
     0
 92
       -2
340
28
 93
        0
 40
1.125
309
GRIDFORMAT_END
 95
        2
302
GRIDFORMAT
  1
GRIDFORMAT_BEGIN
 90
        0
 91
        1
 62
     0
 92
       -2
340
28
 93
        0
 40
1.125
309
GRIDFORMAT_END
 95
        4
302
GRIDFORMAT
  1
GRIDFORMAT_BEGIN
 90
        0
 91
        1
 62
     0
 92
       -2
340
28
 93
        0
 40
1.125
309
GRIDFORMAT_END
 95
        8
302
GRIDFORMAT
  1
GRIDFORMAT_BEGIN
 90
        0
 91
        1
 62
     0
 92
       -2
340
28
 93
        0
 40
1.125
309
GRIDFORMAT_END
 95
       16
302
GRIDFORMAT
  1
GRIDFORMAT_BEGIN
 90
        0
 91
        1
 62
     0
 92
       -2
340
28
 93
        0
 40
1.125
309
GRIDFORMAT_END
 95
       32
302
GRIDFORMAT
  1
GRIDFORMAT_BEGIN
 90
        0
 91
        1
 62
     0
 92
       -2
340
28
 93
        0
 40
1.125
309
GRIDFORMAT_END
309
TABLEFORMAT_END
  1
CELLSTYLE_BEGIN
 90
        1
 91
        1
300
_TITLE
309
CELLSTYLE_END
300
CELLSTYLE
  1
TABLEFORMAT_BEGIN
 90
        5
170
     1
 91
        0
 92
        0
 62
   257
 93
        1
300
CONTENTFORMAT
  1
CONTENTFORMAT_BEGIN
 90
        0
 91
        0
 92
      512
 93
        0
300

 40
0.0
140
1.0
 94
        5
 62
     0
340
25
144
4.5
309
CONTENTFORMAT_END
171
     1
301
MARGIN
  1
CELLMARGIN_BEGIN
 40
1.5
 40
1.5
 40
1.5
 40
1.5
 40
4.5
 40
4.5
309
CELLMARGIN_END
 94
        6
 95
        1
302
GRIDFORMAT
  1
GRIDFORMAT_BEGIN
 90
        0
 91
        1
 62
     0
 92
       -2
340
28
 93
        0
 40
1.125
309
GRIDFORMAT_END
 95
        2
302
GRIDFORMAT
  1
GRIDFORMAT_BEGIN
 90
        0
 91
        1
 62
     0
 92
       -2
340
28
 93
        0
 40
1.125
309
GRIDFORMAT_END
 95
        4
302
GRIDFORMAT
  1
GRIDFORMAT_BEGIN
 90
        0
 91
        1
 62
     0
 92
       -2
340
28
 93
        0
 40
1.125
309
GRIDFORMAT_END
 95
        8
302
GRIDFORMAT
  1
GRIDFORMAT_BEGIN
 90
        0
 91
        1
 62
     0
 92
       -2
340
28
 93
        0
 40
1.125
309
GRIDFORMAT_END
 95
       16
302
GRIDFORMAT
  1
GRIDFORMAT_BEGIN
 90
        0
 91
        1
 62
     0
 92
       -2
340
28
 93
        0
 40
1.125
309
GRIDFORMAT_END
 95
       32
302
GRIDFORMAT
  1
GRIDFORMAT_BEGIN
 90
        0
 91
        1
 62
     0
 92
       -2
340
28
 93
        0
 40
1.125
309
GRIDFORMAT_END
309
TABLEFORMAT_END
  1
CELLSTYLE_BEGIN
 90
        2
 91
        1
300
_HEADER
309
CELLSTYLE_END
300
CELLSTYLE
  1
TABLEFORMAT_BEGIN
 90
        5
170
     1
 91
        0
 92
        0
 62
   257
 93
        1
300
CONTENTFORMAT
  1
CONTENTFORMAT_BEGIN
 90
        0
 91
        0
 92
      512
 93
        0
300

 40
0.0
140
1.0
 94
        2
 62
     0
340
25
144
4.5
309
CONTENTFORMAT_END
171
     1
301
MARGIN
  1
CELLMARGIN_BEGIN
 40
1.5
 40
1.5
 40
1.5
 40
1.5
 40
4.5
 40
4.5
309
CELLMARGIN_END
 94
        6
 95
        1
302
GRIDFORMAT
  1
GRIDFORMAT_BEGIN
 90
        0
 91
        1
 62
     0
 92
       -2
340
28
 93
        0
 40
1.125
309
GRIDFORMAT_END
 95
        2
302
GRIDFORMAT
  1
GRIDFORMAT_BEGIN
 90
        0
 91
        1
 62
     0
 92
       -2
340
28
 93
        0
 40
1.125
309
GRIDFORMAT_END
 95
        4
302
GRIDFORMAT
  1
GRIDFORMAT_BEGIN
 90
        0
 91
        1
 62
     0
 92
       -2
340
28
 93
        0
 40
1.125
309
GRIDFORMAT_END
 95
        8
302
GRIDFORMAT
  1
GRIDFORMAT_BEGIN
 90
        0
 91
        1
 62
     0
 92
       -2
340
28
 93
        0
 40
1.125
309
GRIDFORMAT_END
 95
       16
302
GRIDFORMAT
  1
GRIDFORMAT_BEGIN
 90
        0
 91
        1
 62
     0
 92
       -2
340
28
 93
        0
 40
1.125
309
GRIDFORMAT_END
 95
       32
302
GRIDFORMAT
  1
GRIDFORMAT_BEGIN
 90
        0
 91
        1
 62
     0
 92
       -2
340
28
 93
        0
 40
1.125
309
GRIDFORMAT_END
309
TABLEFORMAT_END
  1
CELLSTYLE_BEGIN
 90
        3
 91
        2
300
_DATA
309
CELLSTYLE_END
  0
ENDSEC
  0
EOF
