  0
SECTION
  2
HEADER
  9
$ACADVER
  1
AC1024
  9
$ACADMAINTVER
 70
     6
  9
$DWGCODEPAGE
  3
ANSI_1252
  9
$INSBASE
 10
0.0
 20
0.0
 30
0.0
  9
$EXTMIN
 10
-0.0467587160405856
 20
-0.011321698118536
 30
-0.0000000000112498
  9
$EXTMAX
 10
1050.019636052728
 20
742.5113320712825
 30
0.0000000000002956
  9
$LIMMIN
 10
0.0
 20
-0.0000000000001137
  9
$LIMMAX
 10
1049.999999999895
 20
742.4999999999259
  9
$ORTHOMODE
 70
     1
  9
$REGENMODE
 70
     1
  9
$FILLMODE
 70
     1
  9
$QTEXTMODE
 70
     0
  9
$MIRRTEXT
 70
     0
  9
$LTSCALE
 40
15.0
  9
$ATTMODE
 70
     1
  9
$TEXTSIZE
 40
12.0
  9
$TRACEWID
 40
1.0
  9
$TEXTSTYLE
  7
Standard
  9
$CLAYER
  8
09-01
  9
$CELTYPE
  6
ByLayer
  9
$CECOLOR
 62
   256
  9
$CELTSCALE
 40
1.0
  9
$DISPSILH
 70
     0
  9
$DIMSCALE
 40
5.0
  9
$DIMASZ
 40
2.5
  9
$DIMEXO
 40
1.0
  9
$DIMDLI
 40
10.0
  9
$DIMRND
 40
0.0
  9
$DIMDLE
 40
0.0
  9
$DIMEXE
 40
1.0
  9
$DIMTP
 40
0.0
  9
$DIMTM
 40
0.0
  9
$DIMTXT
 40
2.5
  9
$DIMCEN
 40
0.0
  9
$DIMTSZ
 40
0.0
  9
$DIMTOL
 70
     0
  9
$DIMLIM
 70
     0
  9
$DIMTIH
 70
     0
  9
$DIMTOH
 70
     0
  9
$DIMSE1
 70
     0
  9
$DIMSE2
 70
     0
  9
$DIMTAD
 70
     1
  9
$DIMZIN
 70
     8
  9
$DIMBLK
  1

  9
$DIMASO
 70
     1
  9
$DIMSHO
 70
     1
  9
$DIMPOST
  1

  9
$DIMAPOST
  1

  9
$DIMALT
 70
     0
  9
$DIMALTD
 70
     3
  9
$DIMALTF
 40
0.03937007874016
  9
$DIMLFAC
 40
1.0
  9
$DIMTOFL
 70
     1
  9
$DIMTVP
 40
0.0
  9
$DIMTIX
 70
     0
  9
$DIMSOXD
 70
     0
  9
$DIMSAH
 70
     0
  9
$DIMBLK1
  1

  9
$DIMBLK2
  1

  9
$DIMSTYLE
  2
Wagner
  9
$DIMCLRD
 70
     4
  9
$DIMCLRE
 70
     4
  9
$DIMCLRT
 70
     1
  9
$DIMTFAC
 40
1.0
  9
$DIMGAP
 40
1.0
  9
$DIMJUST
 70
     0
  9
$DIMSD1
 70
     0
  9
$DIMSD2
 70
     0
  9
$DIMTOLJ
 70
     0
  9
$DIMTZIN
 70
     8
  9
$DIMALTZ
 70
     0
  9
$DIMALTTZ
 70
     0
  9
$DIMUPT
 70
     0
  9
$DIMDEC
 70
     8
  9
$DIMTDEC
 70
     8
  9
$DIMALTU
 70
     2
  9
$DIMALTTD
 70
     3
  9
$DIMTXSTY
  7
Standard
  9
$DIMAUNIT
 70
     0
  9
$DIMADEC
 70
     1
  9
$DIMALTRND
 40
0.0
  9
$DIMAZIN
 70
     2
  9
$DIMDSEP
 70
    46
  9
$DIMATFIT
 70
     3
  9
$DIMFRAC
 70
     0
  9
$DIMLDRBLK
  1

  9
$DIMLUNIT
 70
     2
  9
$DIMLWD
 70
    -2
  9
$DIMLWE
 70
    -2
  9
$DIMTMOVE
 70
     0
  9
$DIMFXL
 40
1.0
  9
$DIMFXLON
 70
     0
  9
$DIMJOGANG
 40
0.7853981633974483
  9
$DIMTFILL
 70
     0
  9
$DIMTFILLCLR
 70
     0
  9
$DIMARCSYM
 70
     0
  9
$DIMLTYPE
  6

  9
$DIMLTEX1
  6

  9
$DIMLTEX2
  6

  9
$DIMTXTDIRECTION
 70
     0
  9
$LUNITS
 70
     2
  9
$LUPREC
 70
     1
  9
$SKETCHINC
 40
1.0
  9
$FILLETRAD
 40
0.0
  9
$AUNITS
 70
     0
  9
$AUPREC
 70
     0
  9
$MENU
  1
.
  9
$ELEVATION
 40
0.0
  9
$PELEVATION
 40
0.0
  9
$THICKNESS
 40
0.0
  9
$LIMCHECK
 70
     0
  9
$CHAMFERA
 40
0.0
  9
$CHAMFERB
 40
0.0
  9
$CHAMFERC
 40
20.0
  9
$CHAMFERD
 40
0.0
  9
$SKPOLY
 70
     0
  9
$TDCREATE
 40
2453171.364102755
  9
$TDUCREATE
 40
2453171.280769421
  9
$TDUPDATE
 40
2456927.476447431
  9
$TDUUPDATE
 40
2456927.393114098
  9
$TDINDWG
 40
2.7804746296
  9
$TDUSRTIMER
 40
2.7804746296
  9
$USRTIMER
 70
     1
  9
$ANGBASE
 50
0.0
  9
$ANGDIR
 70
     0
  9
$PDMODE
 70
     0
  9
$PDSIZE
 40
0.0
  9
$PLINEWID
 40
0.0
  9
$SPLFRAME
 70
     0
  9
$SPLINETYPE
 70
     6
  9
$SPLINESEGS
 70
     8
  9
$HANDSEED
  5
49A
  9
$SURFTAB1
 70
     6
  9
$SURFTAB2
 70
     6
  9
$SURFTYPE
 70
     6
  9
$SURFU
 70
     6
  9
$SURFV
 70
     6
  9
$UCSBASE
  2

  9
$UCSNAME
  2

  9
$UCSORG
 10
0.0
 20
0.0
 30
0.0
  9
$UCSXDIR
 10
1.0
 20
0.0
 30
0.0
  9
$UCSYDIR
 10
0.0
 20
1.0
 30
0.0
  9
$UCSORTHOREF
  2

  9
$UCSORTHOVIEW
 70
     0
  9
$UCSORGTOP
 10
0.0
 20
0.0
 30
0.0
  9
$UCSORGBOTTOM
 10
0.0
 20
0.0
 30
0.0
  9
$UCSORGLEFT
 10
0.0
 20
0.0
 30
0.0
  9
$UCSORGRIGHT
 10
0.0
 20
0.0
 30
0.0
  9
$UCSORGFRONT
 10
0.0
 20
0.0
 30
0.0
  9
$UCSORGBACK
 10
0.0
 20
0.0
 30
0.0
  9
$PUCSBASE
  2

  9
$PUCSNAME
  2

  9
$PUCSORG
 10
0.0
 20
0.0
 30
0.0
  9
$PUCSXDIR
 10
1.0
 20
0.0
 30
0.0
  9
$PUCSYDIR
 10
0.0
 20
1.0
 30
0.0
  9
$PUCSORTHOREF
  2

  9
$PUCSORTHOVIEW
 70
     0
  9
$PUCSORGTOP
 10
0.0
 20
0.0
 30
0.0
  9
$PUCSORGBOTTOM
 10
0.0
 20
0.0
 30
0.0
  9
$PUCSORGLEFT
 10
0.0
 20
0.0
 30
0.0
  9
$PUCSORGRIGHT
 10
0.0
 20
0.0
 30
0.0
  9
$PUCSORGFRONT
 10
0.0
 20
0.0
 30
0.0
  9
$PUCSORGBACK
 10
0.0
 20
0.0
 30
0.0
  9
$USERI1
 70
     0
  9
$USERI2
 70
     0
  9
$USERI3
 70
     0
  9
$USERI4
 70
     0
  9
$USERI5
 70
     0
  9
$USERR1
 40
0.0
  9
$USERR2
 40
0.0
  9
$USERR3
 40
0.0
  9
$USERR4
 40
0.0
  9
$USERR5
 40
0.0
  9
$WORLDVIEW
 70
     1
  9
$SHADEDGE
 70
     3
  9
$SHADEDIF
 70
    70
  9
$TILEMODE
 70
     1
  9
$MAXACTVP
 70
    64
  9
$PINSBASE
 10
0.0
 20
0.0
 30
0.0
  9
$PLIMCHECK
 70
     0
  9
$PEXTMIN
 10
1.000000000000000E+20
 20
1.000000000000000E+20
 30
1.000000000000000E+20
  9
$PEXTMAX
 10
-1.000000000000000E+20
 20
-1.000000000000000E+20
 30
-1.000000000000000E+20
  9
$PLIMMIN
 10
0.0
 20
0.0
  9
$PLIMMAX
 10
420.0
 20
297.0
  9
$UNITMODE
 70
     0
  9
$VISRETAIN
 70
     1
  9
$PLINEGEN
 70
     0
  9
$PSLTSCALE
 70
     1
  9
$TREEDEPTH
 70
  3020
  9
$CMLSTYLE
  2
Standard
  9
$CMLJUST
 70
     0
  9
$CMLSCALE
 40
20.0
  9
$PROXYGRAPHICS
 70
     1
  9
$MEASUREMENT
 70
     1
  9
$CELWEIGHT
370
    -1
  9
$ENDCAPS
280
     0
  9
$JOINSTYLE
280
     0
  9
$LWDISPLAY
290
     0
  9
$INSUNITS
 70
     4
  9
$HYPERLINKBASE
  1

  9
$STYLESHEET
  1

  9
$XEDIT
290
     1
  9
$CEPSNTYPE
380
     0
  9
$PSTYLEMODE
290
     1
  9
$FINGERPRINTGUID
  2
{5CF84AE9-E68D-4A44-A454-40E1928CDFF3}
  9
$VERSIONGUID
  2
{6D5A8150-EA74-4D08-A129-9A2068526482}
  9
$EXTNAMES
290
     1
  9
$PSVPSCALE
 40
0.0
  9
$OLESTARTUP
290
     0
  9
$SORTENTS
280
   127
  9
$INDEXCTL
280
     0
  9
$HIDETEXT
280
     1
  9
$XCLIPFRAME
280
     0
  9
$HALOGAP
280
     0
  9
$OBSCOLOR
 70
   257
  9
$OBSLTYPE
280
     0
  9
$INTERSECTIONDISPLAY
280
     0
  9
$INTERSECTIONCOLOR
 70
   257
  9
$DIMASSOC
280
     1
  9
$PROJECTNAME
  1

  9
$CAMERADISPLAY
290
     0
  9
$LENSLENGTH
 40
50.0
  9
$CAMERAHEIGHT
 40
0.0
  9
$STEPSPERSEC
 40
2.0
  9
$STEPSIZE
 40
6.0
  9
$3DDWFPREC
 40
2.0
  9
$PSOLWIDTH
 40
0.25
  9
$PSOLHEIGHT
 40
4.0
  9
$LOFTANG1
 40
1.570796326794896
  9
$LOFTANG2
 40
1.570796326794896
  9
$LOFTMAG1
 40
0.0
  9
$LOFTMAG2
 40
0.0
  9
$LOFTPARAM
 70
     7
  9
$LOFTNORMALS
280
     1
  9
$LATITUDE
 40
37.795
  9
$LONGITUDE
 40
-122.394
  9
$NORTHDIRECTION
 40
0.0
  9
$TIMEZONE
 70
 -8000
  9
$LIGHTGLYPHDISPLAY
280
     1
  9
$TILEMODELIGHTSYNCH
280
     1
  9
$CMATERIAL
347
3C
  9
$SOLIDHIST
280
     1
  9
$SHOWHIST
280
     1
  9
$DWFFRAME
280
     2
  9
$DGNFRAME
280
     0
  9
$REALWORLDSCALE
290
     1
  9
$INTERFERECOLOR
 62
     1
  9
$INTERFEREOBJVS
345
56
  9
$INTERFEREVPVS
346
57
  9
$CSHADOW
280
     0
  9
$SHADOWPLANELOCATION
 40
0.0
  0
ENDSEC
  0
SECTION
  2
CLASSES
  0
CLASS
  1
ACDBDICTIONARYWDFLT
  2
AcDbDictionaryWithDefault
  3
ObjectDBX Classes
 90
        0
 91
        1
280
     0
281
     0
  0
CLASS
  1
MATERIAL
  2
AcDbMaterial
  3
ObjectDBX Classes
 90
     1153
 91
        3
280
     0
281
     0
  0
CLASS
  1
VISUALSTYLE
  2
AcDbVisualStyle
  3
ObjectDBX Classes
 90
     4095
 91
        3
280
     0
281
     0
  0
CLASS
  1
TABLESTYLE
  2
AcDbTableStyle
  3
ObjectDBX Classes
 90
     4095
 91
        1
280
     0
281
     0
  0
CLASS
  1
SCALE
  2
AcDbScale
  3
ObjectDBX Classes
 90
     1153
 91
       33
280
     0
281
     0
  0
CLASS
  1
MLEADERSTYLE
  2
AcDbMLeaderStyle
  3
ACDB_MLEADERSTYLE_CLASS
 90
     4095
 91
        0
280
     0
281
     0
  0
CLASS
  1
SORTENTSTABLE
  2
AcDbSortentsTable
  3
ObjectDBX Classes
 90
        0
 91
        6
280
     0
281
     0
  0
CLASS
  1
CELLSTYLEMAP
  2
AcDbCellStyleMap
  3
ObjectDBX Classes
 90
     1152
 91
        1
280
     0
281
     0
  0
CLASS
  1
DICTIONARYVAR
  2
AcDbDictionaryVar
  3
ObjectDBX Classes
 90
        0
 91
        6
280
     0
281
     0
  0
CLASS
  1
DIMASSOC
  2
AcDbDimAssoc
  3
"AcDbDimAssoc|Product Desc:     AcDim ARX App For Dimension|Company:          Autodesk, Inc.|WEB Address:      www.autodesk.com"
 90
        0
 91
        0
280
     0
281
     0
  0
CLASS
  1
ACAD_TABLE
  2
AcDbTable
  3
ObjectDBX Classes
 90
     1025
 91
        0
280
     0
281
     1
  0
CLASS
  1
TABLECONTENT
  2
AcDbTableContent
  3
ObjectDBX Classes
 90
     1152
 91
        0
280
     0
281
     0
  0
CLASS
  1
TABLEGEOMETRY
  2
AcDbTableGeometry
  3
ObjectDBX Classes
 90
     1152
 91
        0
280
     0
281
     0
  0
CLASS
  1
PLOTSETTINGS
  2
AcDbPlotSettings
  3
ObjectDBX Classes
 90
        0
 91
        0
280
     0
281
     0
  0
CLASS
  1
SOLID_BACKGROUND
  2
AcDbSolidBackground
  3
SCENEOE
 90
     4095
 91
        0
280
     0
281
     0
  0
CLASS
  1
NPOCOLLECTION
  2
AcDbImpNonPersistentObjectsCollection
  3
ObjectDBX Classes
 90
     1153
 91
        0
280
     0
281
     0
  0
CLASS
  1
AEC_REFEDIT_STATUS_TRACKER
  2
AecDbRefEditStatusTracker
  3
AecArchBase60|Product Desc: Autodesk Architectural Desktop 2007 |Company: Autodesk,Inc. |WEB Address: www.autodesk.com
 90
      129
 91
        0
280
     0
281
     0
  0
ENDSEC
  0
SECTION
  2
TABLES
  0
TABLE
  2
VPORT
  5
2D
102
{ACAD_XDICTIONARY
360
31
102
}
330
0
100
AcDbSymbolTable
 70
     1
  0
VPORT
  5
2E
330
2D
100
AcDbSymbolTableRecord
100
AcDbViewportTableRecord
  2
*Active
 70
     0
 10
0.0
 20
0.0
 11
1.0
 21
1.0
 12
465.7395876365426
 22
356.5075163382957
 13
0.0
 23
0.0
 14
10.0
 24
10.0
 15
100.0
 25
100.0
 16
0.0
 26
0.0
 36
1.0
 17
0.0
 27
0.0
 37
0.0
 40
847.9979842689251
 41
1.937738246505718
 42
50.0
 43
0.0
 44
0.0
 50
0.0
 51
0.0
 71
     0
 72
  1000
 73
     1
 74
     0
 75
     0
 76
     0
 77
     0
 78
     0
281
     0
 65
     1
110
0.0
120
0.0
130
0.0
111
1.0
121
0.0
131
0.0
112
0.0
122
1.0
132
0.0
 79
     0
146
0.0
348
2F
 60
     3
 61
     5
292
     1
282
     1
141
0.0
142
0.0
 63
   250
421
  3355443
  0
ENDTAB
  0
TABLE
  2
LTYPE
  5
28
330
0
100
AcDbSymbolTable
 70
     4
  0
LTYPE
  5
29
330
28
100
AcDbSymbolTableRecord
100
AcDbLinetypeTableRecord
  2
ByBlock
 70
     0
  3

 72
    65
 73
     0
 40
0.0
  0
LTYPE
  5
2A
330
28
100
AcDbSymbolTableRecord
100
AcDbLinetypeTableRecord
  2
ByLayer
 70
     0
  3

 72
    65
 73
     0
 40
0.0
  0
LTYPE
  5
15
330
28
100
AcDbSymbolTableRecord
100
AcDbLinetypeTableRecord
  2
Continuous
 70
     0
  3
Solid line
 72
    65
 73
     0
 40
0.0
  0
LTYPE
  5
10A
330
28
100
AcDbSymbolTableRecord
100
AcDbLinetypeTableRecord
  2
VERDECKT
 70
     0
  3
Verdeckt __ __ __ __ __ __ __ __ __ __ __ __ __
 72
    65
 73
     2
 40
0.375
 49
0.25
 74
     0
 49
-0.125
 74
     0
  0
LTYPE
  5
189
330
28
100
AcDbSymbolTableRecord
100
AcDbLinetypeTableRecord
  2
STRICHPUNKT
 70
     0
  3
Strichpunkt __ . __ . __ . __ . __ . __ . __ . 
 72
    65
 73
     4
 40
1.0
 49
0.5
 74
     0
 49
-0.25
 74
     0
 49
0.0
 74
     0
 49
-0.25
 74
     0
  0
LTYPE
  5
251
330
28
100
AcDbSymbolTableRecord
100
AcDbLinetypeTableRecord
  2
AUSGEZOGEN
 70
     0
  3
Ausgezogene Linie
 72
    65
 73
     0
 40
0.0
  0
ENDTAB
  0
TABLE
  2
LAYER
  5
1F
102
{ACAD_XDICTIONARY
360
20
102
}
330
0
100
AcDbSymbolTable
 70
    11
  0
LAYER
  5
6
102
{ACAD_XDICTIONARY
360
7
102
}
330
1F
100
AcDbSymbolTableRecord
100
AcDbLayerTableRecord
  2
0
 70
     0
 62
     7
  6
Continuous
370
    -3
390
9
347
C
  0
LAYER
  5
1C8
102
{ACAD_XDICTIONARY
360
1C9
102
}
330
1F
100
AcDbSymbolTableRecord
100
AcDbLayerTableRecord
  2
01-01
 70
     0
 62
     2
  6
Continuous
370
    -3
390
9
347
C
  0
LAYER
  5
50
102
{ACAD_XDICTIONARY
360
51
102
}
330
1F
100
AcDbSymbolTableRecord
100
AcDbLayerTableRecord
  2
09-01
 70
     0
 62
     7
  6
Continuous
370
    -3
390
9
347
C
  0
LAYER
  5
85
330
1F
100
AcDbSymbolTableRecord
100
AcDbLayerTableRecord
  2
Defpoints
 70
     0
 62
     7
  6
Continuous
290
     0
370
    -3
390
9
347
C
  0
LAYER
  5
107
102
{ACAD_XDICTIONARY
360
108
102
}
330
1F
100
AcDbSymbolTableRecord
100
AcDbLayerTableRecord
  2
03-01
 70
     0
 62
     3
  6
VERDECKT
370
    -3
390
9
347
C
  0
LAYER
  5
186
102
{ACAD_XDICTIONARY
360
187
102
}
330
1F
100
AcDbSymbolTableRecord
100
AcDbLayerTableRecord
  2
05-01
 70
     0
 62
     1
  6
STRICHPUNKT
370
    -3
390
9
347
C
  0
LAYER
  5
20F
102
{ACAD_XDICTIONARY
360
210
102
}
330
1F
100
AcDbSymbolTableRecord
100
AcDbLayerTableRecord
  2
01-99
 70
     0
 62
     2
  6
Continuous
370
    -3
390
9
347
C
  0
LAYER
  5
24E
102
{ACAD_XDICTIONARY
360
24F
102
}
330
1F
100
AcDbSymbolTableRecord
100
AcDbLayerTableRecord
  2
06-99
 70
     0
 62
     1
  6
AUSGEZOGEN
370
    -3
390
9
347
C
  0
LAYER
  5
238
102
{ACAD_XDICTIONARY
360
239
102
}
330
1F
100
AcDbSymbolTableRecord
100
AcDbLayerTableRecord
  2
08-99
 70
     0
 62
     7
  6
Continuous
370
    -3
390
9
347
C
  0
LAYER
  5
214
102
{ACAD_XDICTIONARY
360
215
102
}
330
1F
100
AcDbSymbolTableRecord
100
AcDbLayerTableRecord
  2
02-01
 70
     0
 62
     1
  6
Continuous
370
    -3
390
9
347
C
  0
LAYER
  5
140
102
{ACAD_XDICTIONARY
360
141
102
}
330
1F
100
AcDbSymbolTableRecord
100
AcDbLayerTableRecord
  2
02TNR-01
 70
     0
 62
     1
  6
Continuous
370
    -3
390
9
347
C
  0
ENDTAB
  0
TABLE
  2
STYLE
  5
25
330
0
100
AcDbSymbolTable
 70
     3
  0
STYLE
  5
26
330
25
100
AcDbSymbolTableRecord
100
AcDbTextStyleTableRecord
  2
Standard
 70
     0
 40
0.0
 41
1.0
 50
0.0
 71
     0
 42
12.0
  3
txt
  4

  0
STYLE
  5
23B
330
25
100
AcDbSymbolTableRecord
100
AcDbTextStyleTableRecord
  2
ROMANS8
 70
     0
 40
0.0
 41
1.0
 50
0.0
 71
     0
 42
2.5
  3
ROMANS8
  4

  0
STYLE
  5
393
330
25
100
AcDbSymbolTableRecord
100
AcDbTextStyleTableRecord
  2
ROMAND8
 70
     0
 40
0.0
 41
1.0
 50
0.0
 71
     0
 42
3.5
  3
ROMAND8
  4

  0
ENDTAB
  0
TABLE
  2
VIEW
  5
2B
330
0
100
AcDbSymbolTable
 70
     0
  0
ENDTAB
  0
TABLE
  2
UCS
  5
2C
330
0
100
AcDbSymbolTable
 70
     0
  0
ENDTAB
  0
TABLE
  2
APPID
  5
32
330
0
100
AcDbSymbolTable
 70
     5
  0
APPID
  5
24
330
32
100
AcDbSymbolTableRecord
100
AcDbRegAppTableRecord
  2
ACAD
 70
     0
  0
APPID
  5
3CD
330
32
100
AcDbSymbolTableRecord
100
AcDbRegAppTableRecord
  2
ACAD_DSTYLE_DIMRADIAL_EXTENSION
 70
     0
  0
APPID
  5
35
330
32
100
AcDbSymbolTableRecord
100
AcDbRegAppTableRecord
  2
ACAD_DSTYLE_DIMJOGGED_JOGANGLE_SYMBOL
 70
     0
  0
APPID
  5
36
330
32
100
AcDbSymbolTableRecord
100
AcDbRegAppTableRecord
  2
ACAD_DSTYLE_DIMJAG
 70
     0
  0
APPID
  5
37
330
32
100
AcDbSymbolTableRecord
100
AcDbRegAppTableRecord
  2
ACAD_DSTYLE_DIMTALN
 70
     0
  0
ENDTAB
  0
TABLE
  2
DIMSTYLE
  5
33
330
0
100
AcDbSymbolTable
 70
     2
100
AcDbDimStyleTable
 71
     1
340
34
  0
DIMSTYLE
105
34
102
{ACAD_REACTORS
330
3C3
102
}
330
33
100
AcDbSymbolTableRecord
100
AcDbDimStyleTableRecord
  2
Wagner
 70
     0
 41
2.5
 42
1.0
 43
10.0
 44
1.0
 73
     0
 74
     0
 77
     1
 78
     8
 79
     2
140
2.5
141
0.0
143
0.03937007874016
147
1.0
171
     3
172
     1
176
     4
177
     4
178
     1
179
     1
271
     8
272
     8
274
     3
283
     0
284
     8
340
26
1001
ACAD_DSTYLE_DIMJOGGED_JOGANGLE_SYMBOL
1070
   384
1040
0.7853981633974483
1001
ACAD_DSTYLE_DIMJAG
1070
   388
1040
1.5
1001
ACAD_DSTYLE_DIMTALN
1070
   392
1070
     0
  0
DIMSTYLE
105
89
102
{ACAD_REACTORS
330
407
330
3FA
330
3EA
330
3DB
330
3CE
330
12D
330
F6
330
E9
330
C2
330
CF
330
DC
330
B3
330
A4
330
97
330
8A
330
79
102
}
330
33
100
AcDbSymbolTableRecord
100
AcDbDimStyleTableRecord
  2
Wagner$0
 70
     0
 41
2.5
 42
1.0
 43
10.0
 44
1.0
 73
     0
 74
     0
 77
     1
 78
     8
 79
     2
140
2.5
141
0.0
143
0.03937007874016
147
1.0
171
     3
172
     1
174
     1
176
     4
177
     4
178
     1
179
     1
271
     8
272
     8
274
     3
279
     2
283
     0
284
     8
340
26
1001
ACAD_DSTYLE_DIMJOGGED_JOGANGLE_SYMBOL
1070
   384
1040
0.7853981633974483
1001
ACAD_DSTYLE_DIMJAG
1070
   388
1040
1.5
1001
ACAD_DSTYLE_DIMTALN
1070
   392
1070
     0
  0
ENDTAB
  0
TABLE
  2
BLOCK_RECORD
  5
1
330
0
100
AcDbSymbolTable
 70
    24
  0
BLOCK_RECORD
  5
2
102
{ACAD_XDICTIONARY
360
3
102
}
330
1
100
AcDbSymbolTableRecord
100
AcDbBlockTableRecord
  2
*Model_Space
340
17
 70
     0
280
     1
281
     0
  0
BLOCK_RECORD
  5
1B
330
1
100
AcDbSymbolTableRecord
100
AcDbBlockTableRecord
  2
*Paper_Space
340
1E
 70
     0
280
     1
281
     0
  0
BLOCK_RECORD
  5
20A
102
{ACAD_XDICTIONARY
360
20B
102
}
330
1
100
AcDbSymbolTableRecord
100
AcDbBlockTableRecord
  2
DIN A3
340
0
102
{BLKREFS
331
209
102
}
 70
     4
280
     1
281
     0
  0
BLOCK_RECORD
  5
16B
330
1
100
AcDbSymbolTableRecord
100
AcDbBlockTableRecord
  2
schloss-024454-D
340
0
310
2800000020000000200000000100080000000000000400000000000000000000000000000000000000000000000080000080000000808000800000008000800080800000C0C0C000C0DCC000F0CAA6000020400000206000002080000020A0000020C0000020E00000400000004020000040400000406000004080000040A0
310
000040C0000040E00000600000006020000060400000606000006080000060A0000060C0000060E00000800000008020000080400000806000008080000080A0000080C0000080E00000A0000000A0200000A0400000A0600000A0800000A0A00000A0C00000A0E00000C0000000C0200000C0400000C0600000C0800000C0
310
A00000C0C00000C0E00000E0000000E0200000E0400000E0600000E0800000E0A00000E0C00000E0E00040000000400020004000400040006000400080004000A0004000C0004000E00040200000402020004020400040206000402080004020A0004020C0004020E000404000004040200040404000404060004040800040
310
40A0004040C0004040E00040600000406020004060400040606000406080004060A0004060C0004060E00040800000408020004080400040806000408080004080A0004080C0004080E00040A0000040A0200040A0400040A0600040A0800040A0A00040A0C00040A0E00040C0000040C0200040C0400040C0600040C08000
310
40C0A00040C0C00040C0E00040E0000040E0200040E0400040E0600040E0800040E0A00040E0C00040E0E00080000000800020008000400080006000800080008000A0008000C0008000E00080200000802020008020400080206000802080008020A0008020C0008020E00080400000804020008040400080406000804080
310
008040A0008040C0008040E00080600000806020008060400080606000806080008060A0008060C0008060E00080800000808020008080400080806000808080008080A0008080C0008080E00080A0000080A0200080A0400080A0600080A0800080A0A00080A0C00080A0E00080C0000080C0200080C0400080C0600080C0
310
800080C0A00080C0C00080C0E00080E0000080E0200080E0400080E0600080E0800080E0A00080E0C00080E0E000C0000000C0002000C0004000C0006000C0008000C000A000C000C000C000E000C0200000C0202000C0204000C0206000C0208000C020A000C020C000C020E000C0400000C0402000C0404000C0406000C0
310
408000C040A000C040C000C040E000C0600000C0602000C0604000C0606000C0608000C060A000C060C000C060E000C0800000C0802000C0804000C0806000C0808000C080A000C080C000C080E000C0A00000C0A02000C0A04000C0A06000C0A08000C0A0A000C0A0C000C0A0E000C0C00000C0C02000C0C04000C0C06000
310
C0C08000C0C0A000F0FBFF00A4A0A000808080000000FF0000FF000000FFFF00FF000000FF00FF00FFFF0000FFFFFF00000000000000000000000000000000000000000000000000000000000000000000000000000000000000000000000000F9000000000000000000000000000000000000000000000000000000000000
310
00F900000000000000000000000000000000000000000000000000000000000000F90000000000000000000000000000000000000000FFFFFFFFFFFFFFFFFFFFFFF9FFFFFFFFFFFFFFFFFFFF00000000000000000000FF00000000000000000000F900000000000000000000FF0000000000000000FFFFFFFFFFFFFFFFFFFF
310
FFFFF9FFFFFFFFFFFFFFFFFFFFFF0000000000000000FF0000000000000000000000F900000000000000000000FF0000000000000000FF0000000000000000000000F900000000000000000000FF0000000000000000FFFFFFFFFFFFFFFFFFFFFFFFF9FFFFFFFFFFFFFFFFFFFFFF000000000000FFFFFFFFFFFFFFFFFFFFFF
310
FFFFFFF9FFFFFFFFFFFFFFFFFFFFFFFFFF00000000FF000000FF000000000000000000F90000000000000000FF000000FF00000000FF000000FF000000000000000000F90000000000000000FF000000FF00000000FF000000FF000000000000000000F90000000000000000FF000000FF00000000FF000000FF0000000000
310
00000000F90000000000000000FF000000FF00000000FFFFFFFFFFFFFFFFFFFFFFFFFFFFF9FFFFFFFFFFFFFFFFFFFFFFFFFF0000000000000000FF000000000000000000F90000000000000000FF000000000000000000000000FF000000000000000000F90000000000000000FF000000000000000000000000FF00000000
310
0000000000F90000000000000000FF000000000000000000000000FF000000000000000000F90000000000000000FF000000000000000000000000FFFFFFFFFFFFFFFFFFFFF9FFFFFFFFFFFFFFFFFF000000000000000000000000FF000000000000000000F90000000000000000FF000000000000000000000000FF000000
310
000000000000F90000000000000000FF000000000000000000000000FFFFFFFFFFFFFFFFFFFFF9FFFFFFFFFFFFFFFFFF00000000000000000000000000FFFFFFFFFFFFFFFFFFF9FFFFFFFFFFFFFFFF000000000000000000000000000000000000FF00000000F9000000FF0000000000000000000000000000000000000000
310
0000FF00000000F9000000FF00000000000000000000000000000000000000000000FFFFFFFFFFF9FFFFFFFF000000000000000000000000000000000000000000000000000000F900000000000000000000000000000000000000000000000000000000000000F90000000000000000000000000000000000000000000000
310
0000000000000000F90000000000000000000000000000000000000000000000000000000000000000000000000000000000000000000000
102
{BLKREFS
331
16A
102
}
 70
     4
280
     1
281
     1
  0
BLOCK_RECORD
  5
18C
330
1
100
AcDbSymbolTableRecord
100
AcDbBlockTableRecord
  2
schloss-024454-S
340
0
310
2800000020000000200000000100080000000000000400000000000000000000000000000000000000000000000080000080000000808000800000008000800080800000C0C0C000C0DCC000F0CAA6000020400000206000002080000020A0000020C0000020E00000400000004020000040400000406000004080000040A0
310
000040C0000040E00000600000006020000060400000606000006080000060A0000060C0000060E00000800000008020000080400000806000008080000080A0000080C0000080E00000A0000000A0200000A0400000A0600000A0800000A0A00000A0C00000A0E00000C0000000C0200000C0400000C0600000C0800000C0
310
A00000C0C00000C0E00000E0000000E0200000E0400000E0600000E0800000E0A00000E0C00000E0E00040000000400020004000400040006000400080004000A0004000C0004000E00040200000402020004020400040206000402080004020A0004020C0004020E000404000004040200040404000404060004040800040
310
40A0004040C0004040E00040600000406020004060400040606000406080004060A0004060C0004060E00040800000408020004080400040806000408080004080A0004080C0004080E00040A0000040A0200040A0400040A0600040A0800040A0A00040A0C00040A0E00040C0000040C0200040C0400040C0600040C08000
310
40C0A00040C0C00040C0E00040E0000040E0200040E0400040E0600040E0800040E0A00040E0C00040E0E00080000000800020008000400080006000800080008000A0008000C0008000E00080200000802020008020400080206000802080008020A0008020C0008020E00080400000804020008040400080406000804080
310
008040A0008040C0008040E00080600000806020008060400080606000806080008060A0008060C0008060E00080800000808020008080400080806000808080008080A0008080C0008080E00080A0000080A0200080A0400080A0600080A0800080A0A00080A0C00080A0E00080C0000080C0200080C0400080C0600080C0
310
800080C0A00080C0C00080C0E00080E0000080E0200080E0400080E0600080E0800080E0A00080E0C00080E0E000C0000000C0002000C0004000C0006000C0008000C000A000C000C000C000E000C0200000C0202000C0204000C0206000C0208000C020A000C020C000C020E000C0400000C0402000C0404000C0406000C0
310
408000C040A000C040C000C040E000C0600000C0602000C0604000C0606000C0608000C060A000C060C000C060E000C0800000C0802000C0804000C0806000C0808000C080A000C080C000C080E000C0A00000C0A02000C0A04000C0A06000C0A08000C0A0A000C0A0C000C0A0E000C0C00000C0C02000C0C04000C0C06000
310
C0C08000C0C0A000F0FBFF00A4A0A000808080000000FF0000FF000000FFFF00FF000000FF00FF00FFFF0000FFFFFF00000000000000000000000000000000000000000000000000000000000000000000000000000000000000000000000000FFFFFFFFFF0000000000000000000000000000000000000000000000000000
310
00FF000000FFFFFF000000000000000000000000000000000000000000000000FFFF000000FFFFFFFF00000000000000000000000000000000000000FFFFFFFFFFFF000000FFFFFF00FF0000000000000000000000000000000000FFFF00FF00FFFF000000FFFFFF00FF0000000000000000000000000000000000FFFF00FF
310
00FFFF000000FFFFFF00FF000000000000000000000000000000FFFFFFFF00FFFFFFFF000000FFFFFF00FF000000000000000000000000000000FF00FFFF00FF0000FF000000FFFFFF00FF000000000000000000000000000000FF00FFFF00FF0000FF000000FFFFFF00FF000000000000000000000000000000FF00FFFF00
310
FF0000FF000000FFFFFF00FF00000000000000000000000000F9F9FFF9FFF9F9F9F9F9FFFFFFFFFFF9F9F9F9F90000000000000000000000000000FF00FFFF00FF0000FF000000FFFFFF00FF000000000000000000000000000000FF00FFFF00FF0000FF000000FFFFFF00FF000000000000000000000000000000FFFFFFFF
310
00FF0000FF000000FFFFFF00FF0000000000000000000000000000000000FFFF00FFFFFFFF000000FFFFFF00FF0000000000000000000000000000000000FFFF00FF00FFFF000000FFFFFF00FF0000000000000000000000000000000000FFFF00FF00FFFF000000FFFFFF00FF000000000000000000000000000000000000
310
FF00FFFFFFFF000000FFFFFF00FF000000000000000000000000000000000000FF00FF00FFFF000000FFFFFFFF00000000000000000000000000000000000000FF00FF0000FFFFFFFFFF00000000000000000000000000000000000000000000FFFFFF00000000000000000000000000000000000000000000000000000000
310
00FF00FF0000000000000000000000000000000000000000000000000000000000FFFFFF0000000000000000000000000000000000000000000000000000000000FF00FF0000000000000000000000000000000000000000000000000000000000FF00FF000000000000000000000000000000000000000000000000000000
310
0000FF00FF0000000000000000000000000000000000000000000000000000000000FFFFFF0000000000000000000000000000000000000000000000000000000000FF00FF0000000000000000000000000000000000000000000000000000000000FF00FF0000000000000000000000000000000000000000000000000000
310
000000FFFFFF0000000000000000000000000000000000000000000000000000000000000000000000000000000000000000000000000000
102
{BLKREFS
331
18B
102
}
 70
     4
280
     1
281
     1
  0
BLOCK_RECORD
  5
1E7
330
1
100
AcDbSymbolTableRecord
100
AcDbBlockTableRecord
  2
schloss-024454-V
340
0
310
2800000020000000200000000100080000000000000400000000000000000000000000000000000000000000000080000080000000808000800000008000800080800000C0C0C000C0DCC000F0CAA6000020400000206000002080000020A0000020C0000020E00000400000004020000040400000406000004080000040A0
310
000040C0000040E00000600000006020000060400000606000006080000060A0000060C0000060E00000800000008020000080400000806000008080000080A0000080C0000080E00000A0000000A0200000A0400000A0600000A0800000A0A00000A0C00000A0E00000C0000000C0200000C0400000C0600000C0800000C0
310
A00000C0C00000C0E00000E0000000E0200000E0400000E0600000E0800000E0A00000E0C00000E0E00040000000400020004000400040006000400080004000A0004000C0004000E00040200000402020004020400040206000402080004020A0004020C0004020E000404000004040200040404000404060004040800040
310
40A0004040C0004040E00040600000406020004060400040606000406080004060A0004060C0004060E00040800000408020004080400040806000408080004080A0004080C0004080E00040A0000040A0200040A0400040A0600040A0800040A0A00040A0C00040A0E00040C0000040C0200040C0400040C0600040C08000
310
40C0A00040C0C00040C0E00040E0000040E0200040E0400040E0600040E0800040E0A00040E0C00040E0E00080000000800020008000400080006000800080008000A0008000C0008000E00080200000802020008020400080206000802080008020A0008020C0008020E00080400000804020008040400080406000804080
310
008040A0008040C0008040E00080600000806020008060400080606000806080008060A0008060C0008060E00080800000808020008080400080806000808080008080A0008080C0008080E00080A0000080A0200080A0400080A0600080A0800080A0A00080A0C00080A0E00080C0000080C0200080C0400080C0600080C0
310
800080C0A00080C0C00080C0E00080E0000080E0200080E0400080E0600080E0800080E0A00080E0C00080E0E000C0000000C0002000C0004000C0006000C0008000C000A000C000C000C000E000C0200000C0202000C0204000C0206000C0208000C020A000C020C000C020E000C0400000C0402000C0404000C0406000C0
310
408000C040A000C040C000C040E000C0600000C0602000C0604000C0606000C0608000C060A000C060C000C060E000C0800000C0802000C0804000C0806000C0808000C080A000C080C000C080E000C0A00000C0A02000C0A04000C0A06000C0A08000C0A0A000C0A0C000C0A0E000C0C00000C0C02000C0C04000C0C06000
310
C0C08000C0C0A000F0FBFF00A4A0A000808080000000FF0000FF000000FFFF00FF000000FF00FF00FFFF0000FFFFFF00000000000000000000000000000000000000000000000000000000000000000000000000000000000000000000000000F900000000000000000000000000000000000000000000000000FAFAFAFAFA
310
FAFAFAFAFAFAFA0000000000000000000000000000000000000000FA000000FFFFF90000000000FA000000000000000000000000000000000000FA00FFFFFBFBFBFBFBFBFF0000FA000000000000000000000000000000000000FAFFFBFBFAFFFFF9FFFAFBFB0000FA00000000000000000000000000000000FAFFFBFFFFFA
310
FAFAF9FAFAFFFFFB00FA00000000000000000000000000000000FAFBFFFAFAFF0000F90000FAFAFFFB00FA0000000000000000000000000000FAFFFBFAFF0000FFFFF9FF0000FFFAFBFFFA0000000000000000000000000000FAFFFBFA000000FF00F9FF0000FFFAFBFF00FA000000000000000000000000FA00FFFBFF0000
310
00FF00F9FF000000FFFB00FFFA000000000000000000000000FAFFFFFBFF0000FFFF00F9FFFF0000FFFBFFFF00FA00000000000000000000FAF9F9F9FBF9F9F9F9F9F9F9F9F9F9F9F9FBF9F9F9FA0000000000000000000000FA00FFFBFF0000FF0000F900FF0000FFFB00FFFA000000000000000000000000FA00FFFBFF00
310
00FFFF00F9FFFF0000FFFB00FFFA00000000000000000000000000FAFFFBFFFF0000FF00F9FF0000FFFFFBFFFA0000000000000000000000000000FA00FBFF00FFFFFFFFF9FF00FFFFFFFB00FA000000000000000000000000000000FAFAFBFFFF00FFFFF9FFFFFFFFFBFAFA00000000000000000000000000000000FAFAFF
310
FBFFFFFFFFF9FFFFFFFB00FAFA0000000000000000000000000000000000FA00FFFBFBFBFBFBFBFBFB0000FA000000000000000000000000000000000000FA00000000FFFFF9FFFF000000FA000000000000000000000000000000000000FAFAFAFAFAFAFAFAFAFAFAFAFAFA000000000000000000000000000000000000FA
310
0000000000FAFAFAFAFA000000000000000000000000000000000000000000FA0000FAFAFA0000000000000000000000000000000000000000000000000000FA0000FA00000000000000000000000000000000000000000000000000000000FA0000FA00000000000000000000000000000000000000000000000000000000
310
FA0000FA00000000000000000000000000000000000000000000000000000000FA0000FAFAFAFAFAFAFAFAFAFAFA000000000000000000000000000000000000FA000000000000000000000000FA000000000000000000000000000000000000FAFA00000000000000000000FAFA0000000000000000000000000000000000
310
000000FAFAFAFAFAFAFAFAFAFA00000000000000000000000000000000000000000000000000000000000000000000000000000000000000
102
{BLKREFS
331
1E6
102
}
 70
     4
280
     1
281
     1
  0
BLOCK_RECORD
  5
13B
102
{ACAD_XDICTIONARY
360
13C
102
}
330
1
100
AcDbSymbolTableRecord
100
AcDbBlockTableRecord
  2
aaaaWagner
340
0
102
{BLKREFS
331
13A
102
}
 70
     4
280
     1
281
     0
  0
BLOCK_RECORD
  5
154
330
1
100
AcDbSymbolTableRecord
100
AcDbBlockTableRecord
  2
Innendeckel02-d
340
0
310
2800000020000000200000000100080000000000000400000000000000000000000000000000000000000000000080000080000000808000800000008000800080800000C0C0C000C0DCC000F0CAA6000020400000206000002080000020A0000020C0000020E00000400000004020000040400000406000004080000040A0
310
000040C0000040E00000600000006020000060400000606000006080000060A0000060C0000060E00000800000008020000080400000806000008080000080A0000080C0000080E00000A0000000A0200000A0400000A0600000A0800000A0A00000A0C00000A0E00000C0000000C0200000C0400000C0600000C0800000C0
310
A00000C0C00000C0E00000E0000000E0200000E0400000E0600000E0800000E0A00000E0C00000E0E00040000000400020004000400040006000400080004000A0004000C0004000E00040200000402020004020400040206000402080004020A0004020C0004020E000404000004040200040404000404060004040800040
310
40A0004040C0004040E00040600000406020004060400040606000406080004060A0004060C0004060E00040800000408020004080400040806000408080004080A0004080C0004080E00040A0000040A0200040A0400040A0600040A0800040A0A00040A0C00040A0E00040C0000040C0200040C0400040C0600040C08000
310
40C0A00040C0C00040C0E00040E0000040E0200040E0400040E0600040E0800040E0A00040E0C00040E0E00080000000800020008000400080006000800080008000A0008000C0008000E00080200000802020008020400080206000802080008020A0008020C0008020E00080400000804020008040400080406000804080
310
008040A0008040C0008040E00080600000806020008060400080606000806080008060A0008060C0008060E00080800000808020008080400080806000808080008080A0008080C0008080E00080A0000080A0200080A0400080A0600080A0800080A0A00080A0C00080A0E00080C0000080C0200080C0400080C0600080C0
310
800080C0A00080C0C00080C0E00080E0000080E0200080E0400080E0600080E0800080E0A00080E0C00080E0E000C0000000C0002000C0004000C0006000C0008000C000A000C000C000C000E000C0200000C0202000C0204000C0206000C0208000C020A000C020C000C020E000C0400000C0402000C0404000C0406000C0
310
408000C040A000C040C000C040E000C0600000C0602000C0604000C0606000C0608000C060A000C060C000C060E000C0800000C0802000C0804000C0806000C0808000C080A000C080C000C080E000C0A00000C0A02000C0A04000C0A06000C0A08000C0A0A000C0A0C000C0A0E000C0C00000C0C02000C0C04000C0C06000
310
C0C08000C0C0A000F0FBFF00A4A0A000808080000000FF0000FF000000FFFF00FF000000FF00FF00FFFF0000FFFFFF0000000000000000000000000000000000000000000000000000000000000000000000000000000000000000000000000000000000000000000000000000000000000000000000000000000000000000
310
00000000000000000000000000000000000000000000000000000000000000000000000000000000000000000000000000000000000000000000000000000000000000000000000000000000000000000000000000000000000000000000000000000000000000000000000000000000000000000000000000000000000000
310
000000000000000000000000000000000000000000000000000000000000000000000000000000000000000000000000000000000000000000000000000000000000000000000000000000000000000000000000000000000000000000000000000000000000000000000000000000000000000000FFFFFFFFFFFFFFFFFFFF
310
FFFFFFFFFFFFFFFFFFFFFFFFFFFFFFFF00000000FFFF0000000000000000000000000000000000000000000000000000FFFF0000FF00000000000000000000000000000000000000000000000000000000FF0000FF00000000000000000000000000000000000000000000000000000000FF0000FF00000000000000000000
310
000000000000000000000000000000000000FF0000FF00000000000000000000000000000000000000000000000000000000FF0000FF00000000000000000000000000000000000000000000000000000000FF0000FF00000000000000000000000000000000000000000000000000000000FF0000FF000000000000000000
310
00000000FFFF00000000000000000000000000FF0000FF000000000000000000000000FF0000FF000000000000000000000000FF0000FF0000000000000000000000FF00000000FF0000000000000000000000FF0000FFFFFFFFFFFFFFFFFFFFFFFF000000000000FFFFFFFFFFFFFFFFFFFFFFFF0000000000000000000000
310
00000000000000000000000000000000000000000000000000000000000000000000000000000000000000000000000000000000000000000000000000000000000000000000000000000000000000000000000000000000000000000000000000000000000000000000000000000000000000000000000000000000000000
310
00000000000000000000000000000000000000000000000000000000000000000000000000000000000000000000000000000000000000000000000000000000000000000000000000000000000000000000000000000000000000000000000000000000000000000000000000000000000000000000000000000000000000
310
0000000000000000000000000000000000000000000000000000000000000000000000000000000000000000000000000000000000000000
102
{BLKREFS
331
153
102
}
 70
     4
280
     1
281
     0
  0
BLOCK_RECORD
  5
408
330
1
100
AcDbSymbolTableRecord
100
AcDbBlockTableRecord
  2
*D6
340
0
 70
     0
280
     1
281
     0
  0
BLOCK_RECORD
  5
3FB
330
1
100
AcDbSymbolTableRecord
100
AcDbBlockTableRecord
  2
*D7
340
0
 70
     0
280
     1
281
     0
  0
BLOCK_RECORD
  5
3EB
330
1
100
AcDbSymbolTableRecord
100
AcDbBlockTableRecord
  2
*D8
340
0
 70
     0
280
     1
281
     0
  0
BLOCK_RECORD
  5
3DC
330
1
100
AcDbSymbolTableRecord
100
AcDbBlockTableRecord
  2
*D9
340
0
 70
     0
280
     1
281
     0
  0
BLOCK_RECORD
  5
3CF
330
1
100
AcDbSymbolTableRecord
100
AcDbBlockTableRecord
  2
*D10
340
0
 70
     0
280
     1
281
     0
  0
BLOCK_RECORD
  5
3C4
330
1
100
AcDbSymbolTableRecord
100
AcDbBlockTableRecord
  2
*D11
340
0
 70
     0
280
     1
281
     0
  0
BLOCK_RECORD
  5
12E
330
1
100
AcDbSymbolTableRecord
100
AcDbBlockTableRecord
  2
*D12
340
0
 70
     0
280
     1
281
     0
  0
BLOCK_RECORD
  5
104
330
1
100
AcDbSymbolTableRecord
100
AcDbBlockTableRecord
  2
Rueckwand-PP111-s
340
0
310
2800000020000000200000000100080000000000000400000000000000000000000000000000000000000000000080000080000000808000800000008000800080800000C0C0C000C0DCC000F0CAA6000020400000206000002080000020A0000020C0000020E00000400000004020000040400000406000004080000040A0
310
000040C0000040E00000600000006020000060400000606000006080000060A0000060C0000060E00000800000008020000080400000806000008080000080A0000080C0000080E00000A0000000A0200000A0400000A0600000A0800000A0A00000A0C00000A0E00000C0000000C0200000C0400000C0600000C0800000C0
310
A00000C0C00000C0E00000E0000000E0200000E0400000E0600000E0800000E0A00000E0C00000E0E00040000000400020004000400040006000400080004000A0004000C0004000E00040200000402020004020400040206000402080004020A0004020C0004020E000404000004040200040404000404060004040800040
310
40A0004040C0004040E00040600000406020004060400040606000406080004060A0004060C0004060E00040800000408020004080400040806000408080004080A0004080C0004080E00040A0000040A0200040A0400040A0600040A0800040A0A00040A0C00040A0E00040C0000040C0200040C0400040C0600040C08000
310
40C0A00040C0C00040C0E00040E0000040E0200040E0400040E0600040E0800040E0A00040E0C00040E0E00080000000800020008000400080006000800080008000A0008000C0008000E00080200000802020008020400080206000802080008020A0008020C0008020E00080400000804020008040400080406000804080
310
008040A0008040C0008040E00080600000806020008060400080606000806080008060A0008060C0008060E00080800000808020008080400080806000808080008080A0008080C0008080E00080A0000080A0200080A0400080A0600080A0800080A0A00080A0C00080A0E00080C0000080C0200080C0400080C0600080C0
310
800080C0A00080C0C00080C0E00080E0000080E0200080E0400080E0600080E0800080E0A00080E0C00080E0E000C0000000C0002000C0004000C0006000C0008000C000A000C000C000C000E000C0200000C0202000C0204000C0206000C0208000C020A000C020C000C020E000C0400000C0402000C0404000C0406000C0
310
408000C040A000C040C000C040E000C0600000C0602000C0604000C0606000C0608000C060A000C060C000C060E000C0800000C0802000C0804000C0806000C0808000C080A000C080C000C080E000C0A00000C0A02000C0A04000C0A06000C0A08000C0A0A000C0A0C000C0A0E000C0C00000C0C02000C0C04000C0C06000
310
C0C08000C0C0A000F0FBFF00A4A0A000808080000000FF0000FF000000FFFF00FF000000FF00FF00FFFF0000FFFFFF0000000000000000000000000000000000000000000000000000000000000000000000000000000000000000000000FF0000000000000000000000000000000000000000000000000000000000FFFFFF
310
FAFAFAFAFA000000000000000000000000000000000000000000000000FAFAFA00000000FA000000000000000000000000000000000000000000000000FA00FAFAFAFAFAFA000000000000000000000000000000000000000000000000FA000000000000FA000000000000000000000000000000000000000000000000FA00
310
0000000000FA000000000000000000000000000000000000000000000000FA000000000000FA000000000000000000000000000000000000000000000000FA0000FAFAFAFAFA000000000000000000000000000000000000000000000000FA0000FA00000000000000000000000000000000000000000000000000000000FA
310
0000FA00000000000000000000000000000000000000000000000000000000FA0000FA00000000000000000000000000000000000000000000000000000000FA0000FA00000000000000000000000000000000000000000000000000000000FA0000FA00000000000000000000000000000000000000000000000000000000
310
FA0000FA00000000000000000000000000000000000000000000000000000000FA0000FA00000000000000000000000000000000000000000000000000000000FA0000FA00000000000000000000000000000000000000000000000000000000FA0000FA000000000000000000000000000000000000000000000000000000
310
00FA0000FA00000000000000000000000000000000000000000000000000000000FA0000FA00000000000000000000000000000000000000000000000000000000FA0000FA00000000000000000000000000000000000000000000000000000000FA0000FA0000000000000000000000000000000000000000000000000000
310
0000FA0000FA00000000000000000000000000000000000000000000000000000000FA0000FA00000000000000000000000000000000000000000000000000000000FA0000FA00000000000000000000000000000000000000000000000000000000FA0000FA00000000000000000000000000000000000000000000000000
310
000000FA0000FA00000000000000000000000000000000000000000000000000000000FA0000FA00000000000000000000000000000000000000000000000000000000FAFAFAFA00000000000000000000000000000000000000000000000000000000FAFA0000000000000000000000000000000000000000000000000000
310
00000000FAFA0000000000000000000000000000000000000000000000000000000000000000000000000000000000000000000000000000
102
{BLKREFS
331
103
102
}
 70
     4
280
     1
281
     0
  0
BLOCK_RECORD
  5
F7
330
1
100
AcDbSymbolTableRecord
100
AcDbBlockTableRecord
  2
*D14
340
0
 70
     0
280
     1
281
     0
  0
BLOCK_RECORD
  5
EA
330
1
100
AcDbSymbolTableRecord
100
AcDbBlockTableRecord
  2
*D15
340
0
 70
     0
280
     1
281
     0
  0
BLOCK_RECORD
  5
DD
330
1
100
AcDbSymbolTableRecord
100
AcDbBlockTableRecord
  2
*D16
340
0
 70
     0
280
     1
281
     0
  0
BLOCK_RECORD
  5
D0
330
1
100
AcDbSymbolTableRecord
100
AcDbBlockTableRecord
  2
*D17
340
0
 70
     0
280
     1
281
     0
  0
BLOCK_RECORD
  5
C3
330
1
100
AcDbSymbolTableRecord
100
AcDbBlockTableRecord
  2
*D18
340
0
 70
     0
280
     1
281
     0
  0
BLOCK_RECORD
  5
B4
330
1
100
AcDbSymbolTableRecord
100
AcDbBlockTableRecord
  2
*D19
340
0
 70
     0
280
     1
281
     0
  0
BLOCK_RECORD
  5
A5
330
1
100
AcDbSymbolTableRecord
100
AcDbBlockTableRecord
  2
*D20
340
0
 70
     0
280
     1
281
     0
  0
BLOCK_RECORD
  5
98
330
1
100
AcDbSymbolTableRecord
100
AcDbBlockTableRecord
  2
*D21
340
0
 70
     0
280
     1
281
     0
  0
BLOCK_RECORD
  5
8B
330
1
100
AcDbSymbolTableRecord
100
AcDbBlockTableRecord
  2
*D22
340
0
 70
     0
280
     1
281
     0
  0
BLOCK_RECORD
  5
7A
330
1
100
AcDbSymbolTableRecord
100
AcDbBlockTableRecord
  2
*D23
340
0
 70
     0
280
     1
281
     0
  0
ENDTAB
  0
ENDSEC
  0
SECTION
  2
BLOCKS
  0
BLOCK
  5
5
330
2
100
AcDbEntity
  8
0
100
AcDbBlockBegin
  2
*Model_Space
 70
     0
 10
0.0
 20
0.0
 30
0.0
  3
*Model_Space
  1

  0
ENDBLK
  5
16
330
2
100
AcDbEntity
  8
0
100
AcDbBlockEnd
  0
BLOCK
  5
1C
330
1B
100
AcDbEntity
 67
     1
  8
0
100
AcDbBlockBegin
  2
*Paper_Space
 70
     0
 10
0.0
 20
0.0
 30
0.0
  3
*Paper_Space
  1

  0
ENDBLK
  5
1D
330
1B
100
AcDbEntity
 67
     1
  8
0
100
AcDbBlockEnd
  0
BLOCK
  5
20D
330
20A
100
AcDbEntity
  8
0
100
AcDbBlockBegin
  2
DIN A3
 70
     2
 10
0.0
 20
0.0
 30
0.0
  3
DIN A3
  1

  0
LINE
  5
20E
330
20A
100
AcDbEntity
  8
01-99
100
AcDbLine
 10
412.9999997697348
 20
290.0000007613509
 30
0.0
 11
6.999999769775513
 21
290.0000007613508
 31
0.0
  0
LINE
  5
212
330
20A
100
AcDbEntity
  8
01-99
100
AcDbLine
 10
6.999999769775286
 20
7.000000761378942
 30
0.0
 11
6.999999769775513
 21
290.0000007613508
 31
0.0
  0
LINE
  5
213
330
20A
100
AcDbEntity
  8
02-01
100
AcDbLine
 10
419.9999997697341
 20
297.0000007613501
 30
0.0
 11
-0.0000002302240318
 21
297.0000007613501
 31
0.0
  0
LINE
  5
216
330
20A
100
AcDbEntity
  8
02-01
100
AcDbLine
 10
-0.0000002302240318
 20
297.0000007613501
 30
0.0
 11
-0.0000002302240318
 21
0.0000007613796242
 31
0.0
  0
LINE
  5
217
330
20A
100
AcDbEntity
  8
02-01
100
AcDbLine
 10
-0.0000002302240318
 20
0.0000007613796242
 30
0.0
 11
419.9999997697341
 21
0.0000007613796242
 31
0.0
  0
LINE
  5
218
330
20A
100
AcDbEntity
  8
02-01
100
AcDbLine
 10
419.9999997697341
 20
0.0000007613796242
 30
0.0
 11
419.9999997697341
 21
297.0000007613501
 31
0.0
  0
LINE
  5
219
330
20A
100
AcDbEntity
  8
01-99
100
AcDbLine
 10
412.9999997697348
 20
290.0000007613509
 30
0.0
 11
412.9999997697348
 21
7.000000761379055
 31
0.0
  0
LINE
  5
21A
330
20A
100
AcDbEntity
  8
01-99
100
AcDbLine
 10
412.9999997697348
 20
7.000000761379055
 30
0.0
 11
6.999999769775286
 21
7.000000761378942
 31
0.0
  0
LINE
  5
21B
330
20A
100
AcDbEntity
  8
01-99
100
AcDbLine
 10
412.9999997697348
 20
53.00000076137905
 30
0.0
 11
228.999999769733
 21
53.00000076137894
 31
0.0
  0
LINE
  5
21C
330
20A
100
AcDbEntity
  8
01-99
100
AcDbLine
 10
228.999999769733
 20
53.00000076137894
 30
0.0
 11
228.999999769733
 21
7.000000761378942
 31
0.0
  0
LINE
  5
21D
330
20A
100
AcDbEntity
  8
01-99
100
AcDbLine
 10
278.9999997697348
 20
12.11111187237895
 30
0.0
 11
228.9999997697348
 21
12.11111187237895
 31
0.0
  0
LINE
  5
21E
330
20A
100
AcDbEntity
  8
01-99
100
AcDbLine
 10
278.9999997697348
 20
17.22222298337897
 30
0.0
 11
228.9999997697348
 21
17.22222298337897
 31
0.0
  0
LINE
  5
21F
330
20A
100
AcDbEntity
  8
01-99
100
AcDbLine
 10
278.9999997697348
 20
22.33333409437898
 30
0.0
 11
228.9999997697348
 21
22.33333409437893
 31
0.0
  0
LINE
  5
220
330
20A
100
AcDbEntity
  8
01-99
100
AcDbLine
 10
323.9999997697348
 20
27.444445205379
 30
0.0
 11
228.9999997697348
 21
27.44444520537894
 31
0.0
  0
LINE
  5
221
330
20A
100
AcDbEntity
  8
01-99
100
AcDbLine
 10
323.9999997697348
 20
32.55555631637901
 30
0.0
 11
228.9999997697348
 21
32.55555631637895
 31
0.0
  0
LINE
  5
222
330
20A
100
AcDbEntity
  8
01-99
100
AcDbLine
 10
253.9999997697348
 20
7.000000761378942
 30
0.0
 11
253.9999997697348
 21
12.11111187237895
 31
0.0
  0
LINE
  5
223
330
20A
100
AcDbEntity
  8
01-99
100
AcDbLine
 10
236.9999997697348
 20
12.11111187237895
 30
0.0
 11
236.9999997697348
 21
37.66666742804563
 31
0.0
  0
LINE
  5
224
330
20A
100
AcDbEntity
  8
01-99
100
AcDbLine
 10
278.9999997697348
 20
7.000000761378942
 30
0.0
 11
278.9999997697348
 21
53.00000076137894
 31
0.0
  0
LINE
  5
225
330
20A
100
AcDbEntity
  8
01-99
100
AcDbLine
 10
323.9999997697348
 20
7.000000761378942
 30
0.0
 11
323.9999997697348
 21
53.00000076137894
 31
0.0
  0
LINE
  5
226
330
20A
100
AcDbEntity
  8
01-99
100
AcDbLine
 10
353.4999997697348
 20
7.000000761378942
 30
0.0
 11
353.4999997697348
 21
17.22222298337903
 31
0.0
  0
LINE
  5
227
330
20A
100
AcDbEntity
  8
01-99
100
AcDbLine
 10
385.9999997697348
 20
7.000000761378942
 30
0.0
 11
385.9999997697348
 21
17.22222298337908
 31
0.0
  0
LINE
  5
228
330
20A
100
AcDbEntity
  8
01-99
100
AcDbLine
 10
357.4999997697348
 20
37.66666742804569
 30
0.0
 11
357.4999997697348
 21
53.00000076137905
 31
0.0
  0
LINE
  5
229
330
20A
100
AcDbEntity
  8
01-99
100
AcDbLine
 10
390.9999997697348
 20
37.66666742804569
 30
0.0
 11
390.9999997697348
 21
53.00000076137905
 31
0.0
  0
LINE
  5
22A
330
20A
100
AcDbEntity
  8
01-99
100
AcDbLine
 10
286.9999997697348
 20
22.33333409471232
 30
0.0
 11
286.9999997697348
 21
37.66666742804569
 31
0.0
  0
LINE
  5
22B
330
20A
100
AcDbEntity
  8
01-99
100
AcDbLine
 10
269.0031881091643
 20
12.11111187237895
 30
0.0
 11
269.0031881091643
 21
37.66666742804563
 31
0.0
  0
LINE
  5
22C
330
20A
100
AcDbEntity
  8
01-99
100
AcDbLine
 10
257.0031881091643
 20
12.11111187237895
 30
0.0
 11
257.0031881091643
 21
37.66666742804563
 31
0.0
  0
LINE
  5
22D
330
20A
100
AcDbEntity
  8
01-99
100
AcDbLine
 10
323.9999997697348
 20
22.33333409471232
 30
0.0
 11
278.9999997697348
 21
22.33333409471232
 31
0.0
  0
LINE
  5
22E
330
20A
100
AcDbEntity
  8
01-99
100
AcDbLine
 10
323.9999997697348
 20
37.66666742804569
 30
0.0
 11
228.9999997697348
 21
37.66666742804557
 31
0.0
  0
LINE
  5
22F
330
20A
100
AcDbEntity
  8
01-99
100
AcDbLine
 10
300.9999997697348
 20
22.33333409471232
 30
0.0
 11
300.9999997697348
 21
53.000000761379
 31
0.0
  0
LINE
  5
230
330
20A
100
AcDbEntity
  8
01-99
100
AcDbLine
 10
278.9999997697348
 20
37.66666742804563
 30
0.0
 11
286.9999997697348
 21
32.55555632804567
 31
0.0
  0
LINE
  5
231
330
20A
100
AcDbEntity
  8
01-99
100
AcDbLine
 10
278.9999997697348
 20
32.55555632804567
 30
0.0
 11
286.9999997697348
 21
37.66666742804569
 31
0.0
  0
LINE
  5
232
330
20A
100
AcDbEntity
  8
01-99
100
AcDbLine
 10
412.9999997697348
 20
45.33333409471231
 30
0.0
 11
323.9999997697349
 21
45.33333409471225
 31
0.0
  0
LINE
  5
233
330
20A
100
AcDbEntity
  8
01-99
100
AcDbLine
 10
323.9999997697348
 20
17.22222298337897
 30
0.0
 11
412.9999997697348
 21
17.22222298337908
 31
0.0
  0
LINE
  5
234
330
20A
100
AcDbEntity
  8
01-99
100
AcDbLine
 10
323.9999997697348
 20
37.66666742804569
 30
0.0
 11
412.9999997697348
 21
37.66666742804574
 31
0.0
  0
LINE
  5
235
330
20A
100
AcDbEntity
  8
01-99
100
AcDbLine
 10
300.9999997697348
 20
42.77777853937897
 30
0.0
 11
278.9999997697348
 21
42.77777853937897
 31
0.0
  0
LINE
  5
236
330
20A
100
AcDbEntity
  8
01-99
100
AcDbLine
 10
300.9999997697348
 20
47.88888965037898
 30
0.0
 11
278.9999997697348
 21
47.88888965037893
 31
0.0
  0
TEXT
  5
237
330
20A
100
AcDbEntity
  8
08-99
100
AcDbText
 10
325.4997009380411
 20
33.6698744692369
 30
0.0
 40
2.5
  1
Benennung/Teil:
 51
15.0
  7
ROMANS8
100
AcDbText
  0
TEXT
  5
23C
330
20A
100
AcDbEntity
  8
08-99
100
AcDbText
 10
387.5028272173022
 20
13.01760345560962
 30
0.0
 40
2.7
  1
Ident-Nr.
 51
15.0
  7
ROMANS8
100
AcDbText
  0
TEXT
  5
23D
330
20A
100
AcDbEntity
  8
08-99
100
AcDbText
 10
302.5000215029029
 20
34.05557772316138
 30
0.0
 40
2.5
  1
Name:
 51
15.0
  7
ROMANS8
100
AcDbText
  0
TEXT
  5
23E
330
20A
100
AcDbEntity
  8
08-99
100
AcDbText
 10
288.5077689122797
 20
34.04841872238342
 30
0.0
 40
2.5
  1
Datum:
 50
0.102528160689452
 41
0.8933771909280748
 51
15.0
  7
ROMANS8
 72
     5
 11
299.6749659193617
 21
34.0684019288434
 31
0.0
100
AcDbText
  0
TEXT
  5
23F
330
20A
100
AcDbEntity
  8
08-99
100
AcDbText
 10
238.5000078514702
 20
34.05597786035884
 30
0.0
 40
1.6
  1
Änderung:
 51
15.0
  7
ROMANS8
100
AcDbText
  0
TEXT
  5
240
330
20A
100
AcDbEntity
  8
08-99
100
AcDbText
 10
255.4999378454877
 20
10.11112006054139
 30
0.0
 40
1.0
  1
ERSETZT.DURCH:
 51
15.0
  7
ROMANS8
100
AcDbText
  0
TEXT
  5
241
330
20A
100
AcDbEntity
  8
08-99
100
AcDbText
 10
230.4993605854065
 20
10.11085496431519
 30
0.0
 40
1.0
  1
ERSETZT.FÜR:
 51
15.0
  7
ROMANS8
100
AcDbText
  0
TEXT
  5
242
330
20A
100
AcDbEntity
  8
08-99
100
AcDbText
 10
354.990906611889
 20
13.61295762544273
 30
0.0
 40
2.112
  1
AUFTRAGS.NR.:
 51
15.0
  7
ROMANS8
100
AcDbText
  0
TEXT
  5
243
330
20A
100
AcDbEntity
  8
08-99
100
AcDbText
 10
325.5034639747472
 20
13.61092941740929
 30
0.0
 40
2.112
  1
Sonder-Nr:
 51
15.0
  7
ROMANS8
100
AcDbText
  0
TEXT
  5
244
330
20A
100
AcDbEntity
  8
08-99
100
AcDbText
 10
308.6963072648131
 20
50.92370926842125
 30
0.0
 40
1.349999999999999
  1
Format
 51
15.0
  7
ROMANS8
100
AcDbText
  0
TEXT
  5
245
330
20A
100
AcDbEntity
  8
08-99
100
AcDbText
 10
307.3043795165026
 20
45.64161955447966
 30
0.0
 40
1.822499999999999
  1
Normen
 51
15.0
  7
ROMANS8
100
AcDbText
  0
TEXT
  5
246
330
20A
100
AcDbEntity
  8
08-99
100
AcDbText
 10
230.5000293736364
 20
34.05556859693707
 30
0.0
 40
1.6
  1
Zust.
 51
15.0
  7
ROMANS8
100
AcDbText
  0
TEXT
  5
247
330
20A
100
AcDbEntity
  8
08-99
100
AcDbText
 10
258.503180470904
 20
34.0555600128755
 30
0.0
 40
1.6
  1
Datum:
 51
15.0
  7
ROMANS8
100
AcDbText
  0
TEXT
  5
248
330
20A
100
AcDbEntity
  8
08-99
100
AcDbText
 10
270.5032133866668
 20
34.05556481932439
 30
0.0
 40
1.6
  1
Name:
 51
15.0
  7
ROMANS8
100
AcDbText
  0
TEXT
  5
249
330
20A
100
AcDbEntity
  8
08-99
100
AcDbText
 10
280.154554215326
 20
29.0381403293278
 30
0.0
 40
1.6
  1
Erst.
 51
15.0
  7
ROMANS8
100
AcDbText
  0
TEXT
  5
24A
330
20A
100
AcDbEntity
  8
08-99
100
AcDbText
 10
279.5171801320455
 20
24.19745182079998
 30
0.0
 40
1.6
  1
Bearb.
 51
15.0
  7
ROMANS8
100
AcDbText
  0
TEXT
  5
24B
330
20A
100
AcDbEntity
  8
08-99
100
AcDbText
 10
358.4308046815029
 20
42.61949825408587
 30
0.0
 40
2.0
  1
Zuschnittsbreite:
 51
15.0
  7
ROMANS8
100
AcDbText
  0
TEXT
  5
24C
330
20A
100
AcDbEntity
  8
08-99
100
AcDbText
 10
324.984994543767
 20
42.73762438949257
 30
0.0
 40
2.0
  1
Zuschnittslänge:
 51
15.0
  7
ROMANS8
100
AcDbText
  0
LINE
  5
24D
330
20A
100
AcDbEntity
  8
06-99
100
AcDbLine
 10
302.7675395817348
 20
19.87656561071236
 30
0.0
 11
303.0090469137349
 21
20.08724790671238
 31
0.0
  0
LINE
  5
252
330
20A
100
AcDbEntity
  8
06-99
100
AcDbLine
 10
303.0090469137349
 20
20.08724790671238
 30
0.0
 11
302.9228515737349
 21
20.22625816271227
 31
0.0
  0
LINE
  5
253
330
20A
100
AcDbEntity
  8
06-99
100
AcDbLine
 10
302.9228515737349
 20
20.22625816271227
 30
0.0
 11
302.8242642057348
 21
20.35180719071241
 31
0.0
  0
LINE
  5
254
330
20A
100
AcDbEntity
  8
06-99
100
AcDbLine
 10
302.8242642057348
 20
20.35180719071241
 30
0.0
 11
302.713626953735
 21
20.4639413227124
 31
0.0
  0
LINE
  5
255
330
20A
100
AcDbEntity
  8
06-99
100
AcDbLine
 10
302.713626953735
 20
20.4639413227124
 30
0.0
 11
302.5912962177348
 21
20.56271401871226
 31
0.0
  0
LINE
  5
256
330
20A
100
AcDbEntity
  8
06-99
100
AcDbLine
 10
302.5912962177348
 20
20.56271401871226
 30
0.0
 11
302.4576141417349
 21
20.64816448271233
 31
0.0
  0
LINE
  5
257
330
20A
100
AcDbEntity
  8
06-99
100
AcDbLine
 10
302.4576141417349
 20
20.64816448271233
 30
0.0
 11
302.3129264337349
 21
20.7203390467123
 31
0.0
  0
LINE
  5
258
330
20A
100
AcDbEntity
  8
06-99
100
AcDbLine
 10
302.3129264337349
 20
20.7203390467123
 30
0.0
 11
302.1575859297349
 21
20.77929117071233
 31
0.0
  0
LINE
  5
259
330
20A
100
AcDbEntity
  8
06-99
100
AcDbLine
 10
302.1575859297349
 20
20.77929117071233
 30
0.0
 11
301.991934773735
 21
20.82506005871232
 31
0.0
  0
LINE
  5
25A
330
20A
100
AcDbEntity
  8
06-99
100
AcDbLine
 10
301.991934773735
 20
20.82506005871232
 30
0.0
 11
301.8163222377349
 21
20.85769204271242
 31
0.0
  0
LINE
  5
25B
330
20A
100
AcDbEntity
  8
06-99
100
AcDbLine
 10
301.8163222377349
 20
20.85769204271242
 30
0.0
 11
301.631097593735
 21
20.87724058271238
 31
0.0
  0
LINE
  5
25C
330
20A
100
AcDbEntity
  8
06-99
100
AcDbLine
 10
301.631097593735
 20
20.87724058271238
 30
0.0
 11
301.436606549735
 21
20.88374488271234
 31
0.0
  0
LINE
  5
25D
330
20A
100
AcDbEntity
  8
06-99
100
AcDbLine
 10
301.436606549735
 20
20.88374488271234
 30
0.0
 11
301.2756812577348
 21
20.87768251871233
 31
0.0
  0
LINE
  5
25E
330
20A
100
AcDbEntity
  8
06-99
100
AcDbLine
 10
301.2756812577348
 20
20.87768251871233
 30
0.0
 11
301.1199415857348
 21
20.85975916271229
 31
0.0
  0
LINE
  5
25F
330
20A
100
AcDbEntity
  8
06-99
100
AcDbLine
 10
301.1199415857348
 20
20.85975916271229
 30
0.0
 11
300.969718985735
 21
20.83036329071246
 31
0.0
  0
LINE
  5
260
330
20A
100
AcDbEntity
  8
06-99
100
AcDbLine
 10
300.969718985735
 20
20.83036329071246
 30
0.0
 11
300.825348473735
 21
20.78989050671231
 31
0.0
  0
LINE
  5
261
330
20A
100
AcDbEntity
  8
06-99
100
AcDbLine
 10
300.825348473735
 20
20.78989050671231
 30
0.0
 11
300.6871615017349
 21
20.73873641471243
 31
0.0
  0
LINE
  5
262
330
20A
100
AcDbEntity
  8
06-99
100
AcDbLine
 10
300.6871615017349
 20
20.73873641471243
 30
0.0
 11
300.5554823937349
 21
20.67729305471232
 31
0.0
  0
LINE
  5
263
330
20A
100
AcDbEntity
  8
06-99
100
AcDbLine
 10
300.5554823937349
 20
20.67729305471232
 30
0.0
 11
300.4306532937349
 21
20.60595246671232
 31
0.0
  0
LINE
  5
264
330
20A
100
AcDbEntity
  8
06-99
100
AcDbLine
 10
300.4306532937349
 20
20.60595246671232
 30
0.0
 11
300.3129985257349
 21
20.52510669071228
 31
0.0
  0
LINE
  5
265
330
20A
100
AcDbEntity
  8
06-99
100
AcDbLine
 10
300.3129985257349
 20
20.52510669071228
 30
0.0
 11
300.2028495417349
 21
20.43514776671236
 31
0.0
  0
LINE
  5
266
330
20A
100
AcDbEntity
  8
06-99
100
AcDbLine
 10
300.2028495417349
 20
20.43514776671236
 30
0.0
 11
300.1005449217349
 21
20.33647486271235
 31
0.0
  0
LINE
  5
267
330
20A
100
AcDbEntity
  8
06-99
100
AcDbLine
 10
300.1005449217349
 20
20.33647486271235
 30
0.0
 11
300.006405425735
 21
20.22947289071237
 31
0.0
  0
LINE
  5
268
330
20A
100
AcDbEntity
  8
06-99
100
AcDbLine
 10
300.006405425735
 20
20.22947289071237
 30
0.0
 11
299.920769633735
 21
20.11454458271237
 31
0.0
  0
LINE
  5
269
330
20A
100
AcDbEntity
  8
06-99
100
AcDbLine
 10
299.920769633735
 20
20.11454458271237
 30
0.0
 11
299.8439689977349
 21
19.99207485071235
 31
0.0
  0
LINE
  5
26A
330
20A
100
AcDbEntity
  8
06-99
100
AcDbLine
 10
299.8439689977349
 20
19.99207485071235
 30
0.0
 11
299.7763314057349
 21
19.86245929871239
 31
0.0
  0
LINE
  5
26B
330
20A
100
AcDbEntity
  8
06-99
100
AcDbLine
 10
299.7763314057349
 20
19.86245929871239
 30
0.0
 11
299.7181918737349
 21
19.72608996671232
 31
0.0
  0
LINE
  5
26C
330
20A
100
AcDbEntity
  8
06-99
100
AcDbLine
 10
299.7181918737349
 20
19.72608996671232
 30
0.0
 11
299.6698782897349
 21
19.58336602271231
 31
0.0
  0
LINE
  5
26D
330
20A
100
AcDbEntity
  8
06-99
100
AcDbLine
 10
299.6698782897349
 20
19.58336602271231
 30
0.0
 11
299.631722105735
 21
19.43467237871232
 31
0.0
  0
LINE
  5
26E
330
20A
100
AcDbEntity
  8
06-99
100
AcDbLine
 10
299.631722105735
 20
19.43467237871232
 30
0.0
 11
299.6040619017348
 21
19.28040820271229
 31
0.0
  0
LINE
  5
26F
330
20A
100
AcDbEntity
  8
06-99
100
AcDbLine
 10
299.6040619017348
 20
19.28040820271229
 30
0.0
 11
299.5872184377349
 21
19.12096197071235
 31
0.0
  0
LINE
  5
270
330
20A
100
AcDbEntity
  8
06-99
100
AcDbLine
 10
299.5872184377349
 20
19.12096197071235
 30
0.0
 11
299.5815338577349
 21
18.95672928671234
 31
0.0
  0
LINE
  5
271
330
20A
100
AcDbEntity
  8
06-99
100
AcDbLine
 10
299.5815338577349
 20
18.95672928671234
 30
0.0
 11
299.5871471577349
 21
18.7876246147124
 31
0.0
  0
LINE
  5
272
330
20A
100
AcDbEntity
  8
06-99
100
AcDbLine
 10
299.5871471577349
 20
18.7876246147124
 30
0.0
 11
299.603798165735
 21
18.62429005871234
 31
0.0
  0
LINE
  5
273
330
20A
100
AcDbEntity
  8
06-99
100
AcDbLine
 10
299.603798165735
 20
18.62429005871234
 30
0.0
 11
299.6311875057347
 21
18.46704281471233
 31
0.0
  0
LINE
  5
274
330
20A
100
AcDbEntity
  8
06-99
100
AcDbLine
 10
299.6311875057347
 20
18.46704281471233
 30
0.0
 11
299.6690158017348
 21
18.31619651471226
 31
0.0
  0
LINE
  5
275
330
20A
100
AcDbEntity
  8
06-99
100
AcDbLine
 10
299.6690158017348
 20
18.31619651471226
 30
0.0
 11
299.7169872417348
 21
18.17206479071234
 31
0.0
  0
LINE
  5
276
330
20A
100
AcDbEntity
  8
06-99
100
AcDbLine
 10
299.7169872417348
 20
18.17206479071234
 30
0.0
 11
299.774806013735
 21
18.03496127471237
 31
0.0
  0
LINE
  5
277
330
20A
100
AcDbEntity
  8
06-99
100
AcDbLine
 10
299.774806013735
 20
18.03496127471237
 30
0.0
 11
299.8421763057349
 21
17.90519603471233
 31
0.0
  0
LINE
  5
278
330
20A
100
AcDbEntity
  8
06-99
100
AcDbLine
 10
299.8421763057349
 20
17.90519603471233
 30
0.0
 11
299.9187987417349
 21
17.7830862667123
 31
0.0
  0
LINE
  5
279
330
20A
100
AcDbEntity
  8
06-99
100
AcDbLine
 10
299.9187987417349
 20
17.7830862667123
 30
0.0
 11
300.0043775097349
 21
17.66894203871231
 31
0.0
  0
LINE
  5
27A
330
20A
100
AcDbEntity
  8
06-99
100
AcDbLine
 10
300.0043775097349
 20
17.66894203871231
 30
0.0
 11
300.0986203617349
 21
17.56308054671234
 31
0.0
  0
LINE
  5
27B
330
20A
100
AcDbEntity
  8
06-99
100
AcDbLine
 10
300.0986203617349
 20
17.56308054671234
 30
0.0
 11
300.2012207937348
 21
17.46581185871235
 31
0.0
  0
LINE
  5
27C
330
20A
100
AcDbEntity
  8
06-99
100
AcDbLine
 10
300.2012207937348
 20
17.46581185871235
 30
0.0
 11
300.3118936857348
 21
17.37745317071227
 31
0.0
  0
LINE
  5
27D
330
20A
100
AcDbEntity
  8
06-99
100
AcDbLine
 10
300.3118936857348
 20
17.37745317071227
 30
0.0
 11
300.430332533735
 21
17.2983145507124
 31
0.0
  0
LINE
  5
27E
330
20A
100
AcDbEntity
  8
06-99
100
AcDbLine
 10
300.430332533735
 20
17.2983145507124
 30
0.0
 11
300.5562450897348
 21
17.22870963071239
 31
0.0
  0
LINE
  5
27F
330
20A
100
AcDbEntity
  8
06-99
100
AcDbLine
 10
300.5562450897348
 20
17.22870963071239
 30
0.0
 11
300.6893319777348
 21
17.1689556067123
 31
0.0
  0
LINE
  5
280
330
20A
100
AcDbEntity
  8
06-99
100
AcDbLine
 10
300.6893319777348
 20
17.1689556067123
 30
0.0
 11
300.8293009497348
 21
17.11936254671235
 31
0.0
  0
LINE
  5
281
330
20A
100
AcDbEntity
  8
06-99
100
AcDbLine
 10
300.8293009497348
 20
17.11936254671235
 30
0.0
 11
300.975849065735
 21
17.0802440827124
 31
0.0
  0
LINE
  5
282
330
20A
100
AcDbEntity
  8
06-99
100
AcDbLine
 10
300.975849065735
 20
17.0802440827124
 30
0.0
 11
301.1286876417348
 21
17.05191384671241
 31
0.0
  0
LINE
  5
283
330
20A
100
AcDbEntity
  8
06-99
100
AcDbLine
 10
301.1286876417348
 20
17.05191384671241
 30
0.0
 11
301.2875101737348
 21
17.03468547071236
 31
0.0
  0
LINE
  5
284
330
20A
100
AcDbEntity
  8
06-99
100
AcDbLine
 10
301.2875101737348
 20
17.03468547071236
 30
0.0
 11
301.4520279777349
 21
17.02887258671239
 31
0.0
  0
LINE
  5
285
330
20A
100
AcDbEntity
  8
06-99
100
AcDbLine
 10
301.4520279777349
 20
17.02887258671239
 30
0.0
 11
301.616025437735
 21
17.03412592271235
 31
0.0
  0
LINE
  5
286
330
20A
100
AcDbEntity
  8
06-99
100
AcDbLine
 10
301.616025437735
 20
17.03412592271235
 30
0.0
 11
301.7733582177349
 21
17.04976475471238
 31
0.0
  0
LINE
  5
287
330
20A
100
AcDbEntity
  8
06-99
100
AcDbLine
 10
301.7733582177349
 20
17.04976475471238
 30
0.0
 11
301.9238374257349
 21
17.07559662671235
 31
0.0
  0
LINE
  5
288
330
20A
100
AcDbEntity
  8
06-99
100
AcDbLine
 10
301.9238374257349
 20
17.07559662671235
 30
0.0
 11
302.0672741697348
 21
17.11142908271239
 31
0.0
  0
LINE
  5
289
330
20A
100
AcDbEntity
  8
06-99
100
AcDbLine
 10
302.0672741697348
 20
17.11142908271239
 30
0.0
 11
302.203483121735
 21
17.15707323071234
 31
0.0
  0
LINE
  5
28A
330
20A
100
AcDbEntity
  8
06-99
100
AcDbLine
 10
302.203483121735
 20
17.15707323071234
 30
0.0
 11
302.3322718257348
 21
17.21234017871234
 31
0.0
  0
LINE
  5
28B
330
20A
100
AcDbEntity
  8
06-99
100
AcDbLine
 10
302.3322718257348
 20
17.21234017871234
 30
0.0
 11
302.4534549537349
 21
17.27703747071234
 31
0.0
  0
LINE
  5
28C
330
20A
100
AcDbEntity
  8
06-99
100
AcDbLine
 10
302.4534549537349
 20
17.27703747071234
 30
0.0
 11
302.5668364857349
 21
17.35097977871237
 31
0.0
  0
LINE
  5
28D
330
20A
100
AcDbEntity
  8
06-99
100
AcDbLine
 10
302.5668364857349
 20
17.35097977871237
 30
0.0
 11
302.6722382217349
 21
17.43397464671233
 31
0.0
  0
LINE
  5
28E
330
20A
100
AcDbEntity
  8
06-99
100
AcDbLine
 10
302.6722382217349
 20
17.43397464671233
 30
0.0
 11
302.7694605777349
 21
17.52582605471235
 31
0.0
  0
LINE
  5
28F
330
20A
100
AcDbEntity
  8
06-99
100
AcDbLine
 10
302.7694605777349
 20
17.52582605471235
 30
0.0
 11
302.8583217897349
 21
17.62635580271234
 31
0.0
  0
LINE
  5
290
330
20A
100
AcDbEntity
  8
06-99
100
AcDbLine
 10
302.8583217897349
 20
17.62635580271234
 30
0.0
 11
302.938632965735
 21
17.73536074271232
 31
0.0
  0
LINE
  5
291
330
20A
100
AcDbEntity
  8
06-99
100
AcDbLine
 10
302.938632965735
 20
17.73536074271232
 30
0.0
 11
303.0102016497349
 21
17.85266267471235
 31
0.0
  0
LINE
  5
292
330
20A
100
AcDbEntity
  8
06-99
100
AcDbLine
 10
303.0102016497349
 20
17.85266267471235
 30
0.0
 11
303.0728389497349
 21
17.97806201471235
 31
0.0
  0
LINE
  5
293
330
20A
100
AcDbEntity
  8
06-99
100
AcDbLine
 10
303.0728389497349
 20
17.97806201471235
 30
0.0
 11
303.126359537735
 21
18.11137343471228
 31
0.0
  0
LINE
  5
294
330
20A
100
AcDbEntity
  8
06-99
100
AcDbLine
 10
303.126359537735
 20
18.11137343471228
 30
0.0
 11
303.1705745217348
 21
18.25240447871232
 31
0.0
  0
LINE
  5
295
330
20A
100
AcDbEntity
  8
06-99
100
AcDbLine
 10
303.1705745217348
 20
18.25240447871232
 30
0.0
 11
303.2052878817349
 21
18.40096625471233
 31
0.0
  0
LINE
  5
296
330
20A
100
AcDbEntity
  8
06-99
100
AcDbLine
 10
303.2052878817349
 20
18.40096625471233
 30
0.0
 11
303.2303214177349
 21
18.55686987071237
 31
0.0
  0
LINE
  5
297
330
20A
100
AcDbEntity
  8
06-99
100
AcDbLine
 10
303.2303214177349
 20
18.55686987071237
 30
0.0
 11
303.245479109735
 21
18.7199264347123
 31
0.0
  0
LINE
  5
298
330
20A
100
AcDbEntity
  8
06-99
100
AcDbLine
 10
303.245479109735
 20
18.7199264347123
 30
0.0
 11
303.2505720657348
 21
18.88993992671231
 31
0.0
  0
LINE
  5
299
330
20A
100
AcDbEntity
  8
06-99
100
AcDbLine
 10
303.2505720657348
 20
18.88993992671231
 30
0.0
 11
303.2505720657348
 21
18.88993992671231
 31
0.0
  0
LINE
  5
29A
330
20A
100
AcDbEntity
  8
06-99
100
AcDbLine
 10
303.2505720657348
 20
18.88993992671231
 30
0.0
 11
303.2505720657348
 21
18.94132211471236
 31
0.0
  0
LINE
  5
29B
330
20A
100
AcDbEntity
  8
06-99
100
AcDbLine
 10
303.2505720657348
 20
18.94132211471236
 30
0.0
 11
301.6164638097349
 21
18.94132211471236
 31
0.0
  0
LINE
  5
29C
330
20A
100
AcDbEntity
  8
06-99
100
AcDbLine
 10
301.6164638097349
 20
18.94132211471236
 30
0.0
 11
301.6164638097349
 21
18.65355049871232
 31
0.0
  0
LINE
  5
29D
330
20A
100
AcDbEntity
  8
06-99
100
AcDbLine
 10
301.6164638097349
 20
18.65355049871232
 30
0.0
 11
302.8857253857347
 21
18.65355049871232
 31
0.0
  0
LINE
  5
29E
330
20A
100
AcDbEntity
  8
06-99
100
AcDbLine
 10
302.8857253857347
 20
18.65355049871232
 30
0.0
 11
302.8749870537348
 21
18.49100715071233
 31
0.0
  0
LINE
  5
29F
330
20A
100
AcDbEntity
  8
06-99
100
AcDbLine
 10
302.8749870537348
 20
18.49100715071233
 30
0.0
 11
302.8476547377348
 21
18.33636162671234
 31
0.0
  0
LINE
  5
2A0
330
20A
100
AcDbEntity
  8
06-99
100
AcDbLine
 10
302.8476547377348
 20
18.33636162671234
 30
0.0
 11
302.804434109735
 21
18.19027683071238
 31
0.0
  0
LINE
  5
2A1
330
20A
100
AcDbEntity
  8
06-99
100
AcDbLine
 10
302.804434109735
 20
18.19027683071238
 30
0.0
 11
302.7460308417349
 21
18.05341923071233
 31
0.0
  0
LINE
  5
2A2
330
20A
100
AcDbEntity
  8
06-99
100
AcDbLine
 10
302.7460308417349
 20
18.05341923071233
 30
0.0
 11
302.673157733735
 21
17.92644460271236
 31
0.0
  0
LINE
  5
2A3
330
20A
100
AcDbEntity
  8
06-99
100
AcDbLine
 10
302.673157733735
 20
17.92644460271236
 30
0.0
 11
302.586524021735
 21
17.81002654271236
 31
0.0
  0
LINE
  5
2A4
330
20A
100
AcDbEntity
  8
06-99
100
AcDbLine
 10
302.586524021735
 20
17.81002654271236
 30
0.0
 11
302.4868282497349
 21
17.70481726271237
 31
0.0
  0
LINE
  5
2A5
330
20A
100
AcDbEntity
  8
06-99
100
AcDbLine
 10
302.4868282497349
 20
17.70481726271237
 30
0.0
 11
302.3747867817349
 21
17.61149035871233
 31
0.0
  0
LINE
  5
2A6
330
20A
100
AcDbEntity
  8
06-99
100
AcDbLine
 10
302.3747867817349
 20
17.61149035871233
 30
0.0
 11
302.2511052897348
 21
17.53069804271234
 31
0.0
  0
LINE
  5
2A7
330
20A
100
AcDbEntity
  8
06-99
100
AcDbLine
 10
302.2511052897348
 20
17.53069804271234
 30
0.0
 11
302.116489445735
 21
17.46311034671237
 31
0.0
  0
LINE
  5
2A8
330
20A
100
AcDbEntity
  8
06-99
100
AcDbLine
 10
302.116489445735
 20
17.46311034671237
 30
0.0
 11
301.9716484857348
 21
17.40938661071232
 31
0.0
  0
LINE
  5
2A9
330
20A
100
AcDbEntity
  8
06-99
100
AcDbLine
 10
301.9716484857348
 20
17.40938661071232
 30
0.0
 11
301.8172916457349
 21
17.37019330271244
 31
0.0
  0
LINE
  5
2AA
330
20A
100
AcDbEntity
  8
06-99
100
AcDbLine
 10
301.8172916457349
 20
17.37019330271244
 30
0.0
 11
301.654124597735
 21
17.3461897627123
 31
0.0
  0
LINE
  5
2AB
330
20A
100
AcDbEntity
  8
06-99
100
AcDbLine
 10
301.654124597735
 20
17.3461897627123
 30
0.0
 11
301.482856577735
 21
17.33804245871238
 31
0.0
  0
LINE
  5
2AC
330
20A
100
AcDbEntity
  8
06-99
100
AcDbLine
 10
301.482856577735
 20
17.33804245871238
 30
0.0
 11
301.318196213735
 21
17.34599374271232
 31
0.0
  0
LINE
  5
2AD
330
20A
100
AcDbEntity
  8
06-99
100
AcDbLine
 10
301.318196213735
 20
17.34599374271232
 30
0.0
 11
301.1599011537348
 21
17.36937714671228
 31
0.0
  0
LINE
  5
2AE
330
20A
100
AcDbEntity
  8
06-99
100
AcDbLine
 10
301.1599011537348
 20
17.36937714671228
 30
0.0
 11
301.0085630217349
 21
17.40748343471233
 31
0.0
  0
LINE
  5
2AF
330
20A
100
AcDbEntity
  8
06-99
100
AcDbLine
 10
301.0085630217349
 20
17.40748343471233
 30
0.0
 11
300.8647698777347
 21
17.45960693471232
 31
0.0
  0
LINE
  5
2B0
330
20A
100
AcDbEntity
  8
06-99
100
AcDbLine
 10
300.8647698777347
 20
17.45960693471232
 30
0.0
 11
300.7291026537349
 21
17.52503841071234
 31
0.0
  0
LINE
  5
2B1
330
20A
100
AcDbEntity
  8
06-99
100
AcDbLine
 10
300.7291026537349
 20
17.52503841071234
 30
0.0
 11
300.6021529737349
 21
17.6030686267124
 31
0.0
  0
LINE
  5
2B2
330
20A
100
AcDbEntity
  8
06-99
100
AcDbLine
 10
300.6021529737349
 20
17.6030686267124
 30
0.0
 11
300.4845053337349
 21
17.69299547471234
 31
0.0
  0
LINE
  5
2B3
330
20A
100
AcDbEntity
  8
06-99
100
AcDbLine
 10
300.4845053337349
 20
17.69299547471234
 30
0.0
 11
300.3767513577348
 21
17.79410615471244
 31
0.0
  0
LINE
  5
2B4
330
20A
100
AcDbEntity
  8
06-99
100
AcDbLine
 10
300.3767513577348
 20
17.79410615471244
 30
0.0
 11
300.279475541735
 21
17.90569499471235
 31
0.0
  0
LINE
  5
2B5
330
20A
100
AcDbEntity
  8
06-99
100
AcDbLine
 10
300.279475541735
 20
17.90569499471235
 30
0.0
 11
300.1932623817348
 21
18.02705632271232
 31
0.0
  0
LINE
  5
2B6
330
20A
100
AcDbEntity
  8
06-99
100
AcDbLine
 10
300.1932623817348
 20
18.02705632271232
 30
0.0
 11
300.1187035017349
 21
18.15747733871234
 31
0.0
  0
LINE
  5
2B7
330
20A
100
AcDbEntity
  8
06-99
100
AcDbLine
 10
300.1187035017349
 20
18.15747733871234
 30
0.0
 11
300.0563833977349
 21
18.29625593471235
 31
0.0
  0
LINE
  5
2B8
330
20A
100
AcDbEntity
  8
06-99
100
AcDbLine
 10
300.0563833977349
 20
18.29625593471235
 30
0.0
 11
300.0068901297349
 21
18.44268287471232
 31
0.0
  0
LINE
  5
2B9
330
20A
100
AcDbEntity
  8
06-99
100
AcDbLine
 10
300.0068901297349
 20
18.44268287471232
 30
0.0
 11
299.9708117577347
 21
18.59604535871239
 31
0.0
  0
LINE
  5
2BA
330
20A
100
AcDbEntity
  8
06-99
100
AcDbLine
 10
299.9708117577347
 20
18.59604535871239
 30
0.0
 11
299.9487327777348
 21
18.75564484271246
 31
0.0
  0
LINE
  5
2BB
330
20A
100
AcDbEntity
  8
06-99
100
AcDbLine
 10
299.9487327777348
 20
18.75564484271246
 30
0.0
 11
299.9412448137349
 21
18.92076852671226
 31
0.0
  0
LINE
  5
2BC
330
20A
100
AcDbEntity
  8
06-99
100
AcDbLine
 10
299.9412448137349
 20
18.92076852671226
 30
0.0
 11
299.947631501735
 21
19.08914257871237
 31
0.0
  0
LINE
  5
2BD
330
20A
100
AcDbEntity
  8
06-99
100
AcDbLine
 10
299.947631501735
 20
19.08914257871237
 30
0.0
 11
299.9665349577349
 21
19.25115489071231
 31
0.0
  0
LINE
  5
2BE
330
20A
100
AcDbEntity
  8
06-99
100
AcDbLine
 10
299.9665349577349
 20
19.25115489071231
 30
0.0
 11
299.997556013735
 21
19.40630650271231
 31
0.0
  0
LINE
  5
2BF
330
20A
100
AcDbEntity
  8
06-99
100
AcDbLine
 10
299.997556013735
 20
19.40630650271231
 30
0.0
 11
300.0402990657349
 21
19.55410201871234
 31
0.0
  0
LINE
  5
2C0
330
20A
100
AcDbEntity
  8
06-99
100
AcDbLine
 10
300.0402990657349
 20
19.55410201871234
 30
0.0
 11
300.0943720737348
 21
19.69404604271233
 31
0.0
  0
LINE
  5
2C1
330
20A
100
AcDbEntity
  8
06-99
100
AcDbLine
 10
300.0943720737348
 20
19.69404604271233
 30
0.0
 11
300.1593758697349
 21
19.82564674271236
 31
0.0
  0
LINE
  5
2C2
330
20A
100
AcDbEntity
  8
06-99
100
AcDbLine
 10
300.1593758697349
 20
19.82564674271236
 30
0.0
 11
300.2349148497349
 21
19.94840159471238
 31
0.0
  0
LINE
  5
2C3
330
20A
100
AcDbEntity
  8
06-99
100
AcDbLine
 10
300.2349148497349
 20
19.94840159471238
 30
0.0
 11
300.3205969737349
 21
20.06182233071235
 31
0.0
  0
LINE
  5
2C4
330
20A
100
AcDbEntity
  8
06-99
100
AcDbLine
 10
300.3205969737349
 20
20.06182233071235
 30
0.0
 11
300.4160230737348
 21
20.16540642671242
 31
0.0
  0
LINE
  5
2C5
330
20A
100
AcDbEntity
  8
06-99
100
AcDbLine
 10
300.4160230737348
 20
20.16540642671242
 30
0.0
 11
300.5208046737348
 21
20.2586620507123
 31
0.0
  0
LINE
  5
2C6
330
20A
100
AcDbEntity
  8
06-99
100
AcDbLine
 10
300.5208046737348
 20
20.2586620507123
 30
0.0
 11
300.634535477735
 21
20.34109024271237
 31
0.0
  0
LINE
  5
2C7
330
20A
100
AcDbEntity
  8
06-99
100
AcDbLine
 10
300.634535477735
 20
20.34109024271237
 30
0.0
 11
300.756830573735
 21
20.41219917071237
 31
0.0
  0
LINE
  5
2C8
330
20A
100
AcDbEntity
  8
06-99
100
AcDbLine
 10
300.756830573735
 20
20.41219917071237
 30
0.0
 11
300.8872872297347
 21
20.47148987471235
 31
0.0
  0
LINE
  5
2C9
330
20A
100
AcDbEntity
  8
06-99
100
AcDbLine
 10
300.8872872297347
 20
20.47148987471235
 30
0.0
 11
301.025513405735
 21
20.51846695871234
 31
0.0
  0
LINE
  5
2CA
330
20A
100
AcDbEntity
  8
06-99
100
AcDbLine
 10
301.025513405735
 20
20.51846695871234
 30
0.0
 11
301.171117061735
 21
20.55263502671232
 31
0.0
  0
LINE
  5
2CB
330
20A
100
AcDbEntity
  8
06-99
100
AcDbLine
 10
301.171117061735
 20
20.55263502671232
 30
0.0
 11
301.323695465735
 21
20.57350224671234
 31
0.0
  0
LINE
  5
2CC
330
20A
100
AcDbEntity
  8
06-99
100
AcDbLine
 10
301.323695465735
 20
20.57350224671234
 30
0.0
 11
301.482856577735
 21
20.58056609471237
 31
0.0
  0
LINE
  5
2CD
330
20A
100
AcDbEntity
  8
06-99
100
AcDbLine
 10
301.482856577735
 20
20.58056609471237
 30
0.0
 11
301.6605611817349
 21
20.57164896671236
 31
0.0
  0
LINE
  5
2CE
330
20A
100
AcDbEntity
  8
06-99
100
AcDbLine
 10
301.6605611817349
 20
20.57164896671236
 30
0.0
 11
301.830314501735
 21
20.54501163071234
 31
0.0
  0
LINE
  5
2CF
330
20A
100
AcDbEntity
  8
06-99
100
AcDbLine
 10
301.830314501735
 20
20.54501163071234
 30
0.0
 11
301.9917779577349
 21
20.50082159471236
 31
0.0
  0
LINE
  5
2D0
330
20A
100
AcDbEntity
  8
06-99
100
AcDbLine
 10
301.9917779577349
 20
20.50082159471236
 30
0.0
 11
302.1446129697349
 21
20.43924636671233
 31
0.0
  0
LINE
  5
2D1
330
20A
100
AcDbEntity
  8
06-99
100
AcDbLine
 10
302.1446129697349
 20
20.43924636671233
 30
0.0
 11
302.2884809577349
 21
20.36046058271233
 31
0.0
  0
LINE
  5
2D2
330
20A
100
AcDbEntity
  8
06-99
100
AcDbLine
 10
302.2884809577349
 20
20.36046058271233
 30
0.0
 11
302.423046905735
 21
20.2646281867124
 31
0.0
  0
LINE
  5
2D3
330
20A
100
AcDbEntity
  8
06-99
100
AcDbLine
 10
302.423046905735
 20
20.2646281867124
 30
0.0
 11
302.5479722337349
 21
20.15192381471235
 31
0.0
  0
LINE
  5
2D4
330
20A
100
AcDbEntity
  8
06-99
100
AcDbLine
 10
302.5479722337349
 20
20.15192381471235
 30
0.0
 11
302.662914797735
 21
20.02251141071241
 31
0.0
  0
LINE
  5
2D5
330
20A
100
AcDbEntity
  8
06-99
100
AcDbLine
 10
302.662914797735
 20
20.02251141071241
 30
0.0
 11
302.7675395817348
 21
19.87656561071236
 31
0.0
  0
LINE
  5
2D6
330
20A
100
AcDbEntity
  8
06-99
100
AcDbLine
 10
299.4389952417348
 20
13.25281458671242
 30
0.0
 11
301.3222627377349
 21
13.25281458671242
 31
0.0
  0
LINE
  5
2D7
330
20A
100
AcDbEntity
  8
06-99
100
AcDbLine
 10
301.3222627377349
 20
13.25281458671242
 30
0.0
 11
301.4675990937349
 21
14.00768047871236
 31
0.0
  0
LINE
  5
2D8
330
20A
100
AcDbEntity
  8
06-99
100
AcDbLine
 10
301.4675990937349
 20
14.00768047871236
 30
0.0
 11
300.5648699697349
 21
14.00768047871236
 31
0.0
  0
LINE
  5
2D9
330
20A
100
AcDbEntity
  8
06-99
100
AcDbLine
 10
300.5648699697349
 20
14.00768047871236
 30
0.0
 11
300.6210528657348
 21
14.29950792671229
 31
0.0
  0
LINE
  5
2DA
330
20A
100
AcDbEntity
  8
06-99
100
AcDbLine
 10
300.6210528657348
 20
14.29950792671229
 30
0.0
 11
301.4187152697349
 21
14.29950792671229
 31
0.0
  0
LINE
  5
2DB
330
20A
100
AcDbEntity
  8
06-99
100
AcDbLine
 10
301.4187152697349
 20
14.29950792671229
 30
0.0
 11
301.5558009657348
 21
15.01156305071231
 31
0.0
  0
LINE
  5
2DC
330
20A
100
AcDbEntity
  8
06-99
100
AcDbLine
 10
301.5558009657348
 20
15.01156305071231
 30
0.0
 11
300.7581385617348
 21
15.01156305071231
 31
0.0
  0
LINE
  5
2DD
330
20A
100
AcDbEntity
  8
06-99
100
AcDbLine
 10
300.7581385617348
 20
15.01156305071231
 30
0.0
 11
300.8098450737348
 21
15.28005699071229
 31
0.0
  0
LINE
  5
2DE
330
20A
100
AcDbEntity
  8
06-99
100
AcDbLine
 10
300.8098450737348
 20
15.28005699071229
 30
0.0
 11
301.6892264337348
 21
15.28005699071229
 31
0.0
  0
LINE
  5
2DF
330
20A
100
AcDbEntity
  8
06-99
100
AcDbLine
 10
301.6892264337348
 20
15.28005699071229
 30
0.0
 11
301.8345520977349
 21
16.03490862671236
 31
0.0
  0
LINE
  5
2E0
330
20A
100
AcDbEntity
  8
06-99
100
AcDbLine
 10
301.8345520977349
 20
16.03490862671236
 30
0.0
 11
299.9746323657349
 21
16.03490862671236
 31
0.0
  0
LINE
  5
2E1
330
20A
100
AcDbEntity
  8
06-99
100
AcDbLine
 10
299.9746323657349
 20
16.03490862671236
 30
0.0
 11
299.4389952417348
 21
13.25281458671242
 31
0.0
  0
LINE
  5
2E2
330
20A
100
AcDbEntity
  8
06-99
100
AcDbLine
 10
285.6086116857349
 20
13.88042785871232
 30
0.0
 11
298.0658608857348
 21
13.88042785871232
 31
0.0
  0
LINE
  5
2E3
330
20A
100
AcDbEntity
  8
06-99
100
AcDbLine
 10
298.0658608857348
 20
13.88042785871232
 30
0.0
 11
297.9422827497349
 21
13.25209822271233
 31
0.0
  0
LINE
  5
2E4
330
20A
100
AcDbEntity
  8
06-99
100
AcDbLine
 10
297.9422827497349
 20
13.25209822271233
 30
0.0
 11
285.4850371137349
 21
13.25209822271233
 31
0.0
  0
LINE
  5
2E5
330
20A
100
AcDbEntity
  8
06-99
100
AcDbLine
 10
285.4850371137349
 20
13.25209822271233
 30
0.0
 11
285.6086116857349
 21
13.88042785871232
 31
0.0
  0
LINE
  5
2E6
330
20A
100
AcDbEntity
  8
06-99
100
AcDbLine
 10
291.3458426577349
 20
17.02887258671239
 30
0.0
 11
292.3221826377348
 21
20.10266933471235
 31
0.0
  0
LINE
  5
2E7
330
20A
100
AcDbEntity
  8
06-99
100
AcDbLine
 10
292.3221826377348
 20
20.10266933471235
 30
0.0
 11
293.3396476137348
 21
17.02887258671239
 31
0.0
  0
LINE
  5
2E8
330
20A
100
AcDbEntity
  8
06-99
100
AcDbLine
 10
293.3396476137348
 20
17.02887258671239
 30
0.0
 11
294.5677984497349
 21
20.80153409471234
 31
0.0
  0
LINE
  5
2E9
330
20A
100
AcDbEntity
  8
06-99
100
AcDbLine
 10
294.5677984497349
 20
20.80153409471234
 30
0.0
 11
294.2235089217348
 21
20.80153409471234
 31
0.0
  0
LINE
  5
2EA
330
20A
100
AcDbEntity
  8
06-99
100
AcDbLine
 10
294.2235089217348
 20
20.80153409471234
 30
0.0
 11
293.3396476137348
 21
17.89303210271231
 31
0.0
  0
LINE
  5
2EB
330
20A
100
AcDbEntity
  8
06-99
100
AcDbLine
 10
293.3396476137348
 20
17.89303210271231
 30
0.0
 11
292.3221826377348
 21
20.94541277471228
 31
0.0
  0
LINE
  5
2EC
330
20A
100
AcDbEntity
  8
06-99
100
AcDbLine
 10
292.3221826377348
 20
20.94541277471228
 30
0.0
 11
291.3458426577349
 21
17.86733922671237
 31
0.0
  0
LINE
  5
2ED
330
20A
100
AcDbEntity
  8
06-99
100
AcDbLine
 10
291.3458426577349
 20
17.86733922671237
 30
0.0
 11
290.426009897735
 21
20.80153409471234
 31
0.0
  0
LINE
  5
2EE
330
20A
100
AcDbEntity
  8
06-99
100
AcDbLine
 10
290.426009897735
 20
20.80153409471234
 30
0.0
 11
290.0765810817349
 21
20.80153409471234
 31
0.0
  0
LINE
  5
2EF
330
20A
100
AcDbEntity
  8
06-99
100
AcDbLine
 10
290.0765810817349
 20
20.80153409471234
 30
0.0
 11
291.3458426577349
 21
17.02887258671239
 31
0.0
  0
LINE
  5
2F0
330
20A
100
AcDbEntity
  8
06-99
100
AcDbLine
 10
296.324415641735
 20
18.65868622271239
 30
0.0
 11
296.9770339377348
 21
20.2568337187123
 31
0.0
  0
LINE
  5
2F1
330
20A
100
AcDbEntity
  8
06-99
100
AcDbLine
 10
296.9770339377348
 20
20.2568337187123
 30
0.0
 11
297.6039629217348
 21
18.65868622271239
 31
0.0
  0
LINE
  5
2F2
330
20A
100
AcDbEntity
  8
06-99
100
AcDbLine
 10
297.6039629217348
 20
18.65868622271239
 30
0.0
 11
296.324415641735
 21
18.65868622271239
 31
0.0
  0
LINE
  5
2F3
330
20A
100
AcDbEntity
  8
06-99
100
AcDbLine
 10
295.3831810617349
 20
17.12736016271231
 30
0.0
 11
295.7231937897349
 21
17.12736016271231
 31
0.0
  0
LINE
  5
2F4
330
20A
100
AcDbEntity
  8
06-99
100
AcDbLine
 10
295.7231937897349
 20
17.12736016271231
 30
0.0
 11
296.2113619977348
 21
18.37092886271233
 31
0.0
  0
LINE
  5
2F5
330
20A
100
AcDbEntity
  8
06-99
100
AcDbLine
 10
296.2113619977348
 20
18.37092886271233
 30
0.0
 11
297.711863021735
 21
18.37092886271233
 31
0.0
  0
LINE
  5
2F6
330
20A
100
AcDbEntity
  8
06-99
100
AcDbLine
 10
297.711863021735
 20
18.37092886271233
 30
0.0
 11
298.1794918977348
 21
17.12736016271231
 31
0.0
  0
LINE
  5
2F7
330
20A
100
AcDbEntity
  8
06-99
100
AcDbLine
 10
298.1794918977348
 20
17.12736016271231
 30
0.0
 11
298.5443385777348
 21
17.12736016271231
 31
0.0
  0
LINE
  5
2F8
330
20A
100
AcDbEntity
  8
06-99
100
AcDbLine
 10
298.5443385777348
 20
17.12736016271231
 30
0.0
 11
296.9975910897349
 21
20.94541277471228
 31
0.0
  0
LINE
  5
2F9
330
20A
100
AcDbEntity
  8
06-99
100
AcDbLine
 10
296.9975910897349
 20
20.94541277471228
 30
0.0
 11
295.3831810617349
 21
17.12736016271231
 31
0.0
  0
LINE
  5
2FA
330
20A
100
AcDbEntity
  8
06-99
100
AcDbLine
 10
307.9298046897347
 20
13.25281458671242
 30
0.0
 11
309.0043792017348
 21
13.25281458671242
 31
0.0
  0
LINE
  5
2FB
330
20A
100
AcDbEntity
  8
06-99
100
AcDbLine
 10
309.0043792017348
 20
13.25281458671242
 30
0.0
 11
309.1574066697349
 21
13.60301322671233
 31
0.0
  0
LINE
  5
2FC
330
20A
100
AcDbEntity
  8
06-99
100
AcDbLine
 10
309.1574066697349
 20
13.60301322671233
 30
0.0
 11
309.9122725617349
 21
13.60301322671233
 31
0.0
  0
LINE
  5
2FD
330
20A
100
AcDbEntity
  8
06-99
100
AcDbLine
 10
309.9122725617349
 20
13.60301322671233
 30
0.0
 11
309.9343444137348
 21
13.25281458671242
 31
0.0
  0
LINE
  5
2FE
330
20A
100
AcDbEntity
  8
06-99
100
AcDbLine
 10
309.9343444137348
 20
13.25281458671242
 30
0.0
 11
311.0082738417347
 21
13.25281458671242
 31
0.0
  0
LINE
  5
2FF
330
20A
100
AcDbEntity
  8
06-99
100
AcDbLine
 10
311.0082738417347
 20
13.25281458671242
 30
0.0
 11
310.5711492417348
 21
16.03490862671236
 31
0.0
  0
LINE
  5
300
330
20A
100
AcDbEntity
  8
06-99
100
AcDbLine
 10
310.5711492417348
 20
16.03490862671236
 30
0.0
 11
309.4583116257348
 21
16.03490862671236
 31
0.0
  0
LINE
  5
301
330
20A
100
AcDbEntity
  8
06-99
100
AcDbLine
 10
309.4583116257348
 20
16.03490862671236
 30
0.0
 11
307.9298046897347
 21
13.25281458671242
 31
0.0
  0
LINE
  5
302
330
20A
100
AcDbEntity
  8
06-99
100
AcDbLine
 10
305.0434565217349
 20
14.66137866671232
 30
0.0
 11
305.0784799497348
 21
14.66137866671232
 31
0.0
  0
LINE
  5
303
330
20A
100
AcDbEntity
  8
06-99
100
AcDbLine
 10
305.0784799497348
 20
14.66137866671232
 30
0.0
 11
305.0642239497349
 21
14.48699927471239
 31
0.0
  0
LINE
  5
304
330
20A
100
AcDbEntity
  8
06-99
100
AcDbLine
 10
305.0642239497349
 20
14.48699927471239
 30
0.0
 11
305.0637998337348
 21
14.33510159471234
 31
0.0
  0
LINE
  5
305
330
20A
100
AcDbEntity
  8
06-99
100
AcDbLine
 10
305.0637998337348
 20
14.33510159471234
 30
0.0
 11
305.0678984337348
 21
14.20222854671237
 31
0.0
  0
LINE
  5
306
330
20A
100
AcDbEntity
  8
06-99
100
AcDbLine
 10
305.0678984337348
 20
14.20222854671237
 30
0.0
 11
305.0952307497349
 21
13.25281458671242
 31
0.0
  0
LINE
  5
307
330
20A
100
AcDbEntity
  8
06-99
100
AcDbLine
 10
305.0952307497349
 20
13.25281458671242
 30
0.0
 11
305.9668283337347
 21
13.25281458671242
 31
0.0
  0
LINE
  5
308
330
20A
100
AcDbEntity
  8
06-99
100
AcDbLine
 10
305.9668283337347
 20
13.25281458671242
 30
0.0
 11
307.3156882857347
 21
16.03490862671236
 31
0.0
  0
LINE
  5
309
330
20A
100
AcDbEntity
  8
06-99
100
AcDbLine
 10
307.3156882857347
 20
16.03490862671236
 30
0.0
 11
306.3118057137349
 21
16.03490862671236
 31
0.0
  0
LINE
  5
30A
330
20A
100
AcDbEntity
  8
06-99
100
AcDbLine
 10
306.3118057137349
 20
16.03490862671236
 30
0.0
 11
305.8579124937348
 21
14.8092312067123
 31
0.0
  0
LINE
  5
30B
330
20A
100
AcDbEntity
  8
06-99
100
AcDbLine
 10
305.8579124937348
 20
14.8092312067123
 30
0.0
 11
305.8078097817349
 21
14.66872763471229
 31
0.0
  0
LINE
  5
30C
330
20A
100
AcDbEntity
  8
06-99
100
AcDbLine
 10
305.8078097817349
 20
14.66872763471229
 30
0.0
 11
305.7488398377348
 21
14.48671415471227
 31
0.0
  0
LINE
  5
30D
330
20A
100
AcDbEntity
  8
06-99
100
AcDbLine
 10
305.7488398377348
 20
14.48671415471227
 30
0.0
 11
305.6900267097347
 21
14.26059973871241
 31
0.0
  0
LINE
  5
30E
330
20A
100
AcDbEntity
  8
06-99
100
AcDbLine
 10
305.6900267097347
 20
14.26059973871241
 30
0.0
 11
305.6666932017348
 21
14.26059973871241
 31
0.0
  0
LINE
  5
30F
330
20A
100
AcDbEntity
  8
06-99
100
AcDbLine
 10
305.6666932017348
 20
14.26059973871241
 30
0.0
 11
305.6884193457348
 21
14.45803464671235
 31
0.0
  0
LINE
  5
310
330
20A
100
AcDbEntity
  8
06-99
100
AcDbLine
 10
305.6884193457348
 20
14.45803464671235
 30
0.0
 11
305.6929777017349
 21
14.6156953147123
 31
0.0
  0
LINE
  5
311
330
20A
100
AcDbEntity
  8
06-99
100
AcDbLine
 10
305.6929777017349
 20
14.6156953147123
 30
0.0
 11
305.6919370137348
 21
14.73531384671236
 31
0.0
  0
LINE
  5
312
330
20A
100
AcDbEntity
  8
06-99
100
AcDbLine
 10
305.6919370137348
 20
14.73531384671236
 30
0.0
 11
305.6775527097348
 21
16.03490862671236
 31
0.0
  0
LINE
  5
313
330
20A
100
AcDbEntity
  8
06-99
100
AcDbLine
 10
305.6775527097348
 20
16.03490862671236
 30
0.0
 11
304.9732849257348
 21
16.03490862671236
 31
0.0
  0
LINE
  5
314
330
20A
100
AcDbEntity
  8
06-99
100
AcDbLine
 10
304.9732849257348
 20
16.03490862671236
 30
0.0
 11
304.4584829457349
 21
14.73531384671236
 31
0.0
  0
LINE
  5
315
330
20A
100
AcDbEntity
  8
06-99
100
AcDbLine
 10
304.4584829457349
 20
14.73531384671236
 30
0.0
 11
304.4113811217347
 21
14.6156953147123
 31
0.0
  0
LINE
  5
316
330
20A
100
AcDbEntity
  8
06-99
100
AcDbLine
 10
304.4113811217347
 20
14.6156953147123
 30
0.0
 11
304.355226737735
 21
14.45803464671235
 31
0.0
  0
LINE
  5
317
330
20A
100
AcDbEntity
  8
06-99
100
AcDbLine
 10
304.355226737735
 20
14.45803464671235
 30
0.0
 11
304.3009220697348
 21
14.26059973871241
 31
0.0
  0
LINE
  5
318
330
20A
100
AcDbEntity
  8
06-99
100
AcDbLine
 10
304.3009220697348
 20
14.26059973871241
 30
0.0
 11
304.2775885617348
 21
14.26059973871241
 31
0.0
  0
LINE
  5
319
330
20A
100
AcDbEntity
  8
06-99
100
AcDbLine
 10
304.2775885617348
 20
14.26059973871241
 30
0.0
 11
304.3058439537349
 21
14.48671415471227
 31
0.0
  0
LINE
  5
31A
330
20A
100
AcDbEntity
  8
06-99
100
AcDbLine
 10
304.3058439537349
 20
14.48671415471227
 30
0.0
 11
304.3169636337349
 21
14.66872763471229
 31
0.0
  0
LINE
  5
31B
330
20A
100
AcDbEntity
  8
06-99
100
AcDbLine
 10
304.3169636337349
 20
14.66872763471229
 30
0.0
 11
304.3209588777348
 21
14.8092312067123
 31
0.0
  0
LINE
  5
31C
330
20A
100
AcDbEntity
  8
06-99
100
AcDbLine
 10
304.3209588777348
 20
14.8092312067123
 30
0.0
 11
304.3390319217348
 21
16.03490862671236
 31
0.0
  0
LINE
  5
31D
330
20A
100
AcDbEntity
  8
06-99
100
AcDbLine
 10
304.3390319217348
 20
16.03490862671236
 30
0.0
 11
303.3345042657348
 21
16.03490862671236
 31
0.0
  0
LINE
  5
31E
330
20A
100
AcDbEntity
  8
06-99
100
AcDbLine
 10
303.3345042657348
 20
16.03490862671236
 30
0.0
 11
303.6127350537349
 21
13.25281458671242
 31
0.0
  0
LINE
  5
31F
330
20A
100
AcDbEntity
  8
06-99
100
AcDbLine
 10
303.6127350537349
 20
13.25281458671242
 30
0.0
 11
304.4843290737348
 21
13.25281458671242
 31
0.0
  0
LINE
  5
320
330
20A
100
AcDbEntity
  8
06-99
100
AcDbLine
 10
304.4843290737348
 20
13.25281458671242
 30
0.0
 11
304.8772386897349
 21
14.20222854671237
 31
0.0
  0
LINE
  5
321
330
20A
100
AcDbEntity
  8
06-99
100
AcDbLine
 10
304.8772386897349
 20
14.20222854671237
 30
0.0
 11
304.9325127657348
 21
14.33510159471234
 31
0.0
  0
LINE
  5
322
330
20A
100
AcDbEntity
  8
06-99
100
AcDbLine
 10
304.9325127657348
 20
14.33510159471234
 30
0.0
 11
304.9905774537349
 21
14.48699927471239
 31
0.0
  0
LINE
  5
323
330
20A
100
AcDbEntity
  8
06-99
100
AcDbLine
 10
304.9905774537349
 20
14.48699927471239
 30
0.0
 11
305.0434565217349
 21
14.66137866671232
 31
0.0
  0
LINE
  5
324
330
20A
100
AcDbEntity
  8
06-99
100
AcDbLine
 10
309.4520674977348
 20
14.26448449871236
 30
0.0
 11
309.5983590057348
 21
14.57965971071235
 31
0.0
  0
LINE
  5
325
330
20A
100
AcDbEntity
  8
06-99
100
AcDbLine
 10
309.5983590057348
 20
14.57965971071235
 30
0.0
 11
309.6731103417349
 21
14.74409554271244
 31
0.0
  0
LINE
  5
326
330
20A
100
AcDbEntity
  8
06-99
100
AcDbLine
 10
309.6731103417349
 20
14.74409554271244
 30
0.0
 11
309.7541521377349
 21
14.94571102271237
 31
0.0
  0
LINE
  5
327
330
20A
100
AcDbEntity
  8
06-99
100
AcDbLine
 10
309.7541521377349
 20
14.94571102271237
 30
0.0
 11
309.8288286297349
 21
15.19056495071243
 31
0.0
  0
LINE
  5
328
330
20A
100
AcDbEntity
  8
06-99
100
AcDbLine
 10
309.8288286297349
 20
15.19056495071243
 30
0.0
 11
309.8482880697349
 21
15.19056495071243
 31
0.0
  0
LINE
  5
329
330
20A
100
AcDbEntity
  8
06-99
100
AcDbLine
 10
309.8482880697349
 20
15.19056495071243
 30
0.0
 11
309.8286646857348
 21
14.94571102271237
 31
0.0
  0
LINE
  5
32A
330
20A
100
AcDbEntity
  8
06-99
100
AcDbLine
 10
309.8286646857348
 20
14.94571102271237
 30
0.0
 11
309.8320718697348
 21
14.74409554271244
 31
0.0
  0
LINE
  5
32B
330
20A
100
AcDbEntity
  8
06-99
100
AcDbLine
 10
309.8320718697348
 20
14.74409554271244
 30
0.0
 11
309.8435051817348
 21
14.57965971071235
 31
0.0
  0
LINE
  5
32C
330
20A
100
AcDbEntity
  8
06-99
100
AcDbLine
 10
309.8435051817348
 20
14.57965971071235
 30
0.0
 11
309.868410413735
 21
14.26448449871236
 31
0.0
  0
LINE
  5
32D
330
20A
100
AcDbEntity
  8
06-99
100
AcDbLine
 10
309.868410413735
 20
14.26448449871236
 30
0.0
 11
309.4520674977348
 21
14.26448449871236
 31
0.0
  0
LINE
  5
32E
330
20A
100
AcDbEntity
  8
06-99
100
AcDbLine
 10
312.586705289735
 20
13.25281458671242
 30
0.0
 11
313.5672400977347
 21
13.25281458671242
 31
0.0
  0
LINE
  5
32F
330
20A
100
AcDbEntity
  8
06-99
100
AcDbLine
 10
313.5672400977347
 20
13.25281458671242
 30
0.0
 11
313.7440358817348
 21
14.17110413471232
 31
0.0
  0
LINE
  5
330
330
20A
100
AcDbEntity
  8
06-99
100
AcDbLine
 10
313.7440358817348
 20
14.17110413471232
 30
0.0
 11
314.053626305735
 21
13.25281458671242
 31
0.0
  0
LINE
  5
331
330
20A
100
AcDbEntity
  8
06-99
100
AcDbLine
 10
314.053626305735
 20
13.25281458671242
 30
0.0
 11
315.1742370057348
 21
13.25281458671242
 31
0.0
  0
LINE
  5
332
330
20A
100
AcDbEntity
  8
06-99
100
AcDbLine
 10
315.1742370057348
 20
13.25281458671242
 30
0.0
 11
314.6490673497349
 21
14.38511520671233
 31
0.0
  0
LINE
  5
333
330
20A
100
AcDbEntity
  8
06-99
100
AcDbLine
 10
314.6490673497349
 20
14.38511520671233
 30
0.0
 11
314.8084280457349
 21
14.42380955471236
 31
0.0
  0
LINE
  5
334
330
20A
100
AcDbEntity
  8
06-99
100
AcDbLine
 10
314.8084280457349
 20
14.42380955471236
 30
0.0
 11
314.9537002497348
 21
14.49881749871235
 31
0.0
  0
LINE
  5
335
330
20A
100
AcDbEntity
  8
06-99
100
AcDbLine
 10
314.9537002497348
 20
14.49881749871235
 30
0.0
 11
315.0813484737348
 21
14.60690292671233
 31
0.0
  0
LINE
  5
336
330
20A
100
AcDbEntity
  8
06-99
100
AcDbLine
 10
315.0813484737348
 20
14.60690292671233
 30
0.0
 11
315.1878301017348
 21
14.74481903471235
 31
0.0
  0
LINE
  5
337
330
20A
100
AcDbEntity
  8
06-99
100
AcDbLine
 10
315.1878301017348
 20
14.74481903471235
 30
0.0
 11
315.2695989537348
 21
14.90932258271232
 31
0.0
  0
LINE
  5
338
330
20A
100
AcDbEntity
  8
06-99
100
AcDbLine
 10
315.2695989537348
 20
14.90932258271232
 30
0.0
 11
315.3231124137347
 21
15.09717033071234
 31
0.0
  0
LINE
  5
339
330
20A
100
AcDbEntity
  8
06-99
100
AcDbLine
 10
315.3231124137347
 20
15.09717033071234
 30
0.0
 11
315.3445997697348
 21
15.26809264271236
 31
0.0
  0
LINE
  5
33A
330
20A
100
AcDbEntity
  8
06-99
100
AcDbLine
 10
315.3445997697348
 20
15.26809264271236
 30
0.0
 11
315.3403015857348
 21
15.42330127871241
 31
0.0
  0
LINE
  5
33B
330
20A
100
AcDbEntity
  8
06-99
100
AcDbLine
 10
315.3403015857348
 20
15.42330127871241
 30
0.0
 11
315.3102285537349
 21
15.56226163871236
 31
0.0
  0
LINE
  5
33C
330
20A
100
AcDbEntity
  8
06-99
100
AcDbLine
 10
315.3102285537349
 20
15.56226163871236
 30
0.0
 11
315.2543913657347
 21
15.68443555871226
 31
0.0
  0
LINE
  5
33D
330
20A
100
AcDbEntity
  8
06-99
100
AcDbLine
 10
315.2543913657347
 20
15.68443555871226
 30
0.0
 11
315.1728078417348
 21
15.78928843871239
 31
0.0
  0
LINE
  5
33E
330
20A
100
AcDbEntity
  8
06-99
100
AcDbLine
 10
315.1728078417348
 20
15.78928843871239
 30
0.0
 11
315.0654922377348
 21
15.87627855071235
 31
0.0
  0
LINE
  5
33F
330
20A
100
AcDbEntity
  8
06-99
100
AcDbLine
 10
315.0654922377348
 20
15.87627855071235
 30
0.0
 11
314.9324516817348
 21
15.94487485871235
 31
0.0
  0
LINE
  5
340
330
20A
100
AcDbEntity
  8
06-99
100
AcDbLine
 10
314.9324516817348
 20
15.94487485871235
 30
0.0
 11
314.7737075577347
 21
15.9945356347124
 31
0.0
  0
LINE
  5
341
330
20A
100
AcDbEntity
  8
06-99
100
AcDbLine
 10
314.7737075577347
 20
15.9945356347124
 30
0.0
 11
314.5892634297348
 21
16.02472627871236
 31
0.0
  0
LINE
  5
342
330
20A
100
AcDbEntity
  8
06-99
100
AcDbLine
 10
314.5892634297348
 20
16.02472627871236
 30
0.0
 11
314.3791442457348
 21
16.03490862671236
 31
0.0
  0
LINE
  5
343
330
20A
100
AcDbEntity
  8
06-99
100
AcDbLine
 10
314.3791442457348
 20
16.03490862671236
 30
0.0
 11
313.1223424137348
 21
16.03490862671236
 31
0.0
  0
LINE
  5
344
330
20A
100
AcDbEntity
  8
06-99
100
AcDbLine
 10
313.1223424137348
 20
16.03490862671236
 30
0.0
 11
312.586705289735
 21
13.25281458671242
 31
0.0
  0
LINE
  5
345
330
20A
100
AcDbEntity
  8
06-99
100
AcDbLine
 10
313.9650323937349
 20
15.31896517871234
 30
0.0
 11
314.1206829657349
 21
15.31896517871234
 31
0.0
  0
LINE
  5
346
330
20A
100
AcDbEntity
  8
06-99
100
AcDbLine
 10
314.1206829657349
 20
15.31896517871234
 30
0.0
 11
314.2773528417349
 21
15.28538517071229
 31
0.0
  0
LINE
  5
347
330
20A
100
AcDbEntity
  8
06-99
100
AcDbLine
 10
314.2773528417349
 20
15.28538517071229
 30
0.0
 11
314.3582200017347
 21
15.19041169871241
 31
0.0
  0
LINE
  5
348
330
20A
100
AcDbEntity
  8
06-99
100
AcDbLine
 10
314.3582200017347
 20
15.19041169871241
 30
0.0
 11
314.3632167297349
 21
15.04270171871235
 31
0.0
  0
LINE
  5
349
330
20A
100
AcDbEntity
  8
06-99
100
AcDbLine
 10
314.3632167297349
 20
15.04270171871235
 30
0.0
 11
314.3008645497348
 21
14.8970018347124
 31
0.0
  0
LINE
  5
34A
330
20A
100
AcDbEntity
  8
06-99
100
AcDbLine
 10
314.3008645497348
 20
14.8970018347124
 30
0.0
 11
314.1832917537348
 21
14.80578125471237
 31
0.0
  0
LINE
  5
34B
330
20A
100
AcDbEntity
  8
06-99
100
AcDbLine
 10
314.1832917537348
 20
14.80578125471237
 30
0.0
 11
314.0158122657348
 21
14.77422203471229
 31
0.0
  0
LINE
  5
34C
330
20A
100
AcDbEntity
  8
06-99
100
AcDbLine
 10
314.0158122657348
 20
14.77422203471229
 30
0.0
 11
313.8601616937349
 21
14.77422203471229
 31
0.0
  0
LINE
  5
34D
330
20A
100
AcDbEntity
  8
06-99
100
AcDbLine
 10
313.8601616937349
 20
14.77422203471229
 30
0.0
 11
313.9650323937349
 21
15.31896517871234
 31
0.0
  0
LINE
  5
34E
330
20A
100
AcDbEntity
  8
06-99
100
AcDbLine
 10
309.579801257735
 20
17.12736016271231
 30
0.0
 11
311.3988989337349
 21
17.12736016271231
 31
0.0
  0
LINE
  5
34F
330
20A
100
AcDbEntity
  8
06-99
100
AcDbLine
 10
311.3988989337349
 20
17.12736016271231
 30
0.0
 11
311.3988989337349
 21
17.44082465471229
 31
0.0
  0
LINE
  5
350
330
20A
100
AcDbEntity
  8
06-99
100
AcDbLine
 10
311.3988989337349
 20
17.44082465471229
 30
0.0
 11
309.913819337735
 21
17.44082465471229
 31
0.0
  0
LINE
  5
351
330
20A
100
AcDbEntity
  8
06-99
100
AcDbLine
 10
309.913819337735
 20
17.44082465471229
 30
0.0
 11
309.913819337735
 21
19.02353290271242
 31
0.0
  0
LINE
  5
352
330
20A
100
AcDbEntity
  8
06-99
100
AcDbLine
 10
309.913819337735
 20
19.02353290271242
 30
0.0
 11
311.3988989337349
 21
19.02353290271242
 31
0.0
  0
LINE
  5
353
330
20A
100
AcDbEntity
  8
06-99
100
AcDbLine
 10
311.3988989337349
 20
19.02353290271242
 30
0.0
 11
311.3988989337349
 21
19.3369973947124
 31
0.0
  0
LINE
  5
354
330
20A
100
AcDbEntity
  8
06-99
100
AcDbLine
 10
311.3988989337349
 20
19.3369973947124
 30
0.0
 11
309.913819337735
 21
19.3369973947124
 31
0.0
  0
LINE
  5
355
330
20A
100
AcDbEntity
  8
06-99
100
AcDbLine
 10
309.913819337735
 20
19.3369973947124
 30
0.0
 11
309.913819337735
 21
20.48806960271236
 31
0.0
  0
LINE
  5
356
330
20A
100
AcDbEntity
  8
06-99
100
AcDbLine
 10
309.913819337735
 20
20.48806960271236
 30
0.0
 11
311.3988989337349
 21
20.48806960271236
 31
0.0
  0
LINE
  5
357
330
20A
100
AcDbEntity
  8
06-99
100
AcDbLine
 10
311.3988989337349
 20
20.48806960271236
 30
0.0
 11
311.3988989337349
 21
20.80153409471234
 31
0.0
  0
LINE
  5
358
330
20A
100
AcDbEntity
  8
06-99
100
AcDbLine
 10
311.3988989337349
 20
20.80153409471234
 30
0.0
 11
309.579801257735
 21
20.80153409471234
 31
0.0
  0
LINE
  5
359
330
20A
100
AcDbEntity
  8
06-99
100
AcDbLine
 10
309.579801257735
 20
20.80153409471234
 30
0.0
 11
309.579801257735
 21
17.12736016271231
 31
0.0
  0
LINE
  5
35A
330
20A
100
AcDbEntity
  8
06-99
100
AcDbLine
 10
304.853024873735
 20
17.12736016271231
 30
0.0
 11
305.1870465177349
 21
17.12736016271231
 31
0.0
  0
LINE
  5
35B
330
20A
100
AcDbEntity
  8
06-99
100
AcDbLine
 10
305.1870465177349
 20
17.12736016271231
 30
0.0
 11
305.1870465177349
 21
20.09753361071233
 31
0.0
  0
LINE
  5
35C
330
20A
100
AcDbEntity
  8
06-99
100
AcDbLine
 10
305.1870465177349
 20
20.09753361071233
 30
0.0
 11
307.7666661537348
 21
17.01858688271232
 31
0.0
  0
LINE
  5
35D
330
20A
100
AcDbEntity
  8
06-99
100
AcDbLine
 10
307.7666661537348
 20
17.01858688271232
 30
0.0
 11
307.7666661537348
 21
20.80153409471234
 31
0.0
  0
LINE
  5
35E
330
20A
100
AcDbEntity
  8
06-99
100
AcDbLine
 10
307.7666661537348
 20
20.80153409471234
 30
0.0
 11
307.4326587657349
 21
20.80153409471234
 31
0.0
  0
LINE
  5
35F
330
20A
100
AcDbEntity
  8
06-99
100
AcDbLine
 10
307.4326587657349
 20
20.80153409471234
 30
0.0
 11
307.4326587657349
 21
17.88274639871235
 31
0.0
  0
LINE
  5
360
330
20A
100
AcDbEntity
  8
06-99
100
AcDbLine
 10
307.4326587657349
 20
17.88274639871235
 30
0.0
 11
304.853024873735
 21
20.95568422271231
 31
0.0
  0
LINE
  5
361
330
20A
100
AcDbEntity
  8
06-99
100
AcDbLine
 10
304.853024873735
 20
20.95568422271231
 30
0.0
 11
304.853024873735
 21
17.12736016271231
 31
0.0
  0
LINE
  5
362
330
20A
100
AcDbEntity
  8
06-99
100
AcDbLine
 10
313.448423465735
 20
20.50862675471228
 30
0.0
 11
313.7824308537349
 21
20.50862675471228
 31
0.0
  0
LINE
  5
363
330
20A
100
AcDbEntity
  8
06-99
100
AcDbLine
 10
313.7824308537349
 20
20.50862675471228
 30
0.0
 11
313.9866159777348
 21
20.50030837871236
 31
0.0
  0
LINE
  5
364
330
20A
100
AcDbEntity
  8
06-99
100
AcDbLine
 10
313.9866159777348
 20
20.50030837871236
 30
0.0
 11
314.1604465137349
 21
20.47385993471232
 31
0.0
  0
LINE
  5
365
330
20A
100
AcDbEntity
  8
06-99
100
AcDbLine
 10
314.1604465137349
 20
20.47385993471232
 30
0.0
 11
314.3048954337349
 21
20.42705748671227
 31
0.0
  0
LINE
  5
366
330
20A
100
AcDbEntity
  8
06-99
100
AcDbLine
 10
314.3048954337349
 20
20.42705748671227
 30
0.0
 11
314.4209178897349
 21
20.35767353471232
 31
0.0
  0
LINE
  5
367
330
20A
100
AcDbEntity
  8
06-99
100
AcDbLine
 10
314.4209178897349
 20
20.35767353471232
 30
0.0
 11
314.509479725735
 21
20.26348057871229
 31
0.0
  0
LINE
  5
368
330
20A
100
AcDbEntity
  8
06-99
100
AcDbLine
 10
314.509479725735
 20
20.26348057871229
 30
0.0
 11
314.5715432217348
 21
20.14225111871241
 31
0.0
  0
LINE
  5
369
330
20A
100
AcDbEntity
  8
06-99
100
AcDbLine
 10
314.5715432217348
 20
20.14225111871241
 30
0.0
 11
314.6080777857349
 21
19.99175052671228
 31
0.0
  0
LINE
  5
36A
330
20A
100
AcDbEntity
  8
06-99
100
AcDbLine
 10
314.6080777857349
 20
19.99175052671228
 30
0.0
 11
314.6200421337348
 21
19.80976199471234
 31
0.0
  0
LINE
  5
36B
330
20A
100
AcDbEntity
  8
06-99
100
AcDbLine
 10
314.6200421337348
 20
19.80976199471234
 30
0.0
 11
314.6074469577349
 21
19.63100957471232
 31
0.0
  0
LINE
  5
36C
330
20A
100
AcDbEntity
  8
06-99
100
AcDbLine
 10
314.6074469577349
 20
19.63100957471232
 30
0.0
 11
314.5693763097349
 21
19.48586211071233
 31
0.0
  0
LINE
  5
36D
330
20A
100
AcDbEntity
  8
06-99
100
AcDbLine
 10
314.5693763097349
 20
19.48586211071233
 30
0.0
 11
314.5054167657349
 21
19.37130445871241
 31
0.0
  0
LINE
  5
36E
330
20A
100
AcDbEntity
  8
06-99
100
AcDbLine
 10
314.5054167657349
 20
19.37130445871241
 30
0.0
 11
314.4151370817349
 21
19.28432860271238
 31
0.0
  0
LINE
  5
36F
330
20A
100
AcDbEntity
  8
06-99
100
AcDbLine
 10
314.4151370817349
 20
19.28432860271238
 30
0.0
 11
314.298123833735
 21
19.22192296271237
 31
0.0
  0
LINE
  5
370
330
20A
100
AcDbEntity
  8
06-99
100
AcDbLine
 10
314.298123833735
 20
19.22192296271237
 30
0.0
 11
314.1539493417349
 21
19.18107239471232
 31
0.0
  0
LINE
  5
371
330
20A
100
AcDbEntity
  8
06-99
100
AcDbLine
 10
314.1539493417349
 20
19.18107239471232
 30
0.0
 11
313.9821894897348
 21
19.15877244671242
 31
0.0
  0
LINE
  5
372
330
20A
100
AcDbEntity
  8
06-99
100
AcDbLine
 10
313.9821894897348
 20
19.15877244671242
 30
0.0
 11
313.7824308537349
 21
19.15200797471237
 31
0.0
  0
LINE
  5
373
330
20A
100
AcDbEntity
  8
06-99
100
AcDbLine
 10
313.7824308537349
 20
19.15200797471237
 30
0.0
 11
313.448423465735
 21
19.15200797471237
 31
0.0
  0
LINE
  5
374
330
20A
100
AcDbEntity
  8
06-99
100
AcDbLine
 10
313.448423465735
 20
19.15200797471237
 30
0.0
 11
313.448423465735
 21
20.50862675471228
 31
0.0
  0
LINE
  5
375
330
20A
100
AcDbEntity
  8
06-99
100
AcDbLine
 10
315.3445997697348
 20
17.12736016271231
 30
0.0
 11
314.0239560057348
 21
18.87965422271236
 31
0.0
  0
LINE
  5
376
330
20A
100
AcDbEntity
  8
06-99
100
AcDbLine
 10
314.0239560057348
 20
18.87965422271236
 30
0.0
 11
314.212373993735
 21
18.8922529627124
 31
0.0
  0
LINE
  5
377
330
20A
100
AcDbEntity
  8
06-99
100
AcDbLine
 10
314.212373993735
 20
18.8922529627124
 30
0.0
 11
314.3829007017349
 21
18.92942191871231
 31
0.0
  0
LINE
  5
378
330
20A
100
AcDbEntity
  8
06-99
100
AcDbLine
 10
314.3829007017349
 20
18.92942191871231
 30
0.0
 11
314.5343992137349
 21
18.99023088671242
 31
0.0
  0
LINE
  5
379
330
20A
100
AcDbEntity
  8
06-99
100
AcDbLine
 10
314.5343992137349
 20
18.99023088671242
 30
0.0
 11
314.6657219217349
 21
19.07375679071236
 31
0.0
  0
LINE
  5
37A
330
20A
100
AcDbEntity
  8
06-99
100
AcDbLine
 10
314.6657219217349
 20
19.07375679071236
 30
0.0
 11
314.7757283457349
 21
19.17905873471233
 31
0.0
  0
LINE
  5
37B
330
20A
100
AcDbEntity
  8
06-99
100
AcDbLine
 10
314.7757283457349
 20
19.17905873471233
 30
0.0
 11
314.8632744417348
 21
19.30521720671237
 31
0.0
  0
LINE
  5
37C
330
20A
100
AcDbEntity
  8
06-99
100
AcDbLine
 10
314.8632744417348
 20
19.30521720671237
 30
0.0
 11
314.9272232937349
 21
19.4512948747124
 31
0.0
  0
LINE
  5
37D
330
20A
100
AcDbEntity
  8
06-99
100
AcDbLine
 10
314.9272232937349
 20
19.4512948747124
 30
0.0
 11
314.9664308577349
 21
19.61636153471238
 31
0.0
  0
LINE
  5
37E
330
20A
100
AcDbEntity
  8
06-99
100
AcDbLine
 10
314.9664308577349
 20
19.61636153471238
 30
0.0
 11
314.9797530897347
 21
19.79949054671237
 31
0.0
  0
LINE
  5
37F
330
20A
100
AcDbEntity
  8
06-99
100
AcDbLine
 10
314.9797530897347
 20
19.79949054671237
 30
0.0
 11
314.969937833735
 21
19.97455422671237
 31
0.0
  0
LINE
  5
380
330
20A
100
AcDbEntity
  8
06-99
100
AcDbLine
 10
314.969937833735
 20
19.97455422671237
 30
0.0
 11
314.940481373735
 21
20.13261762671238
 31
0.0
  0
LINE
  5
381
330
20A
100
AcDbEntity
  8
06-99
100
AcDbLine
 10
314.940481373735
 20
20.13261762671238
 30
0.0
 11
314.8913551977349
 21
20.27374846271237
 31
0.0
  0
LINE
  5
382
330
20A
100
AcDbEntity
  8
06-99
100
AcDbLine
 10
314.8913551977349
 20
20.27374846271237
 30
0.0
 11
314.822541485735
 21
20.39801445071225
 31
0.0
  0
LINE
  5
383
330
20A
100
AcDbEntity
  8
06-99
100
AcDbLine
 10
314.822541485735
 20
20.39801445071225
 30
0.0
 11
314.7340152897349
 21
20.50548687071239
 31
0.0
  0
LINE
  5
384
330
20A
100
AcDbEntity
  8
06-99
100
AcDbLine
 10
314.7340152897349
 20
20.50548687071239
 30
0.0
 11
314.625751661735
 21
20.59623700271237
 31
0.0
  0
LINE
  5
385
330
20A
100
AcDbEntity
  8
06-99
100
AcDbLine
 10
314.625751661735
 20
20.59623700271237
 30
0.0
 11
314.4977292177349
 21
20.67032899871231
 31
0.0
  0
LINE
  5
386
330
20A
100
AcDbEntity
  8
06-99
100
AcDbLine
 10
314.4977292177349
 20
20.67032899871231
 30
0.0
 11
314.3499230097348
 21
20.72783413871235
 31
0.0
  0
LINE
  5
387
330
20A
100
AcDbEntity
  8
06-99
100
AcDbLine
 10
314.3499230097348
 20
20.72783413871235
 30
0.0
 11
314.1823116537348
 21
20.76882726671238
 31
0.0
  0
LINE
  5
388
330
20A
100
AcDbEntity
  8
06-99
100
AcDbLine
 10
314.1823116537348
 20
20.76882726671238
 30
0.0
 11
313.9948737657348
 21
20.79336897071238
 31
0.0
  0
LINE
  5
389
330
20A
100
AcDbEntity
  8
06-99
100
AcDbLine
 10
313.9948737657348
 20
20.79336897071238
 30
0.0
 11
313.7875808337349
 21
20.80153409471234
 31
0.0
  0
LINE
  5
38A
330
20A
100
AcDbEntity
  8
06-99
100
AcDbLine
 10
313.7875808337349
 20
20.80153409471234
 30
0.0
 11
313.7875808337349
 21
20.80153409471234
 31
0.0
  0
LINE
  5
38B
330
20A
100
AcDbEntity
  8
06-99
100
AcDbLine
 10
313.7875808337349
 20
20.80153409471234
 30
0.0
 11
313.1144053857349
 21
20.80153409471234
 31
0.0
  0
LINE
  5
38C
330
20A
100
AcDbEntity
  8
06-99
100
AcDbLine
 10
313.1144053857349
 20
20.80153409471234
 30
0.0
 11
313.1144053857349
 21
17.12736016271231
 31
0.0
  0
LINE
  5
38D
330
20A
100
AcDbEntity
  8
06-99
100
AcDbLine
 10
313.1144053857349
 20
17.12736016271231
 30
0.0
 11
313.448423465735
 21
17.12736016271231
 31
0.0
  0
LINE
  5
38E
330
20A
100
AcDbEntity
  8
06-99
100
AcDbLine
 10
313.448423465735
 20
17.12736016271231
 30
0.0
 11
313.448423465735
 21
18.87965422271236
 31
0.0
  0
LINE
  5
38F
330
20A
100
AcDbEntity
  8
06-99
100
AcDbLine
 10
313.448423465735
 20
18.87965422271236
 30
0.0
 11
313.6488378777349
 21
18.87965422271236
 31
0.0
  0
LINE
  5
390
330
20A
100
AcDbEntity
  8
06-99
100
AcDbLine
 10
313.6488378777349
 20
18.87965422271236
 30
0.0
 11
314.9386387857348
 21
17.12736016271231
 31
0.0
  0
LINE
  5
391
330
20A
100
AcDbEntity
  8
06-99
100
AcDbLine
 10
314.9386387857348
 20
17.12736016271231
 30
0.0
 11
315.3445997697348
 21
17.12736016271231
 31
0.0
  0
TEXT
  5
392
330
20A
100
AcDbEntity
  8
06-99
100
AcDbText
 10
294.6083578687944
 20
10.63320974709819
 30
0.0
 40
1.4256
  1
GmbH & Co KG
 41
1.199203187251
 51
15.0
  7
ROMAND8
 72
     5
 11
315.0419578687945
 21
10.63320974709819
 31
0.0
100
AcDbText
  0
TEXT
  5
394
330
20A
100
AcDbEntity
  8
06-99
100
AcDbText
 10
294.7098146233783
 20
8.391016474674643
 30
0.0
 40
1.4256
  1
72774 Reutlingen
 50
0.5663244663116128
 41
1.087840993687879
 51
15.0
  7
ROMAND8
 72
     5
 11
314.9434146233783
 21
8.591016474674631
 31
0.0
100
AcDbText
  0
TEXT
  5
395
330
20A
100
AcDbEntity
  8
08-99
100
AcDbText
 10
282.4141179695723
 20
49.4500923918223
 30
0.0
 40
2.25
  1
Zul. Abw.
 51
15.0
  7
ROMANS8
100
AcDbText
  0
TEXT
  5
396
330
20A
100
AcDbEntity
  8
08-99
100
AcDbText
 10
332.2099260900184
 20
50.28616492075241
 30
0.0
 40
2.0
  1
Mat. Art.
 51
15.0
  7
ROMANS8
100
AcDbText
  0
TEXT
  5
397
330
20A
100
AcDbEntity
  8
08-99
100
AcDbText
 10
364.4865307401076
 20
50.40431414472369
 30
0.0
 40
2.0
  1
Oberfläche:
 51
15.0
  7
ROMANS8
100
AcDbText
  0
TEXT
  5
398
330
20A
100
AcDbEntity
  8
08-99
100
AcDbText
 10
393.7625376083154
 20
42.73764747805694
 30
0.0
 40
2.0
  1
Blech Dicke:
 51
15.0
  7
ROMANS8
100
AcDbText
  0
TEXT
  5
399
330
20A
100
AcDbEntity
  8
08-99
100
AcDbText
 10
396.4380277982925
 20
50.28616492075252
 30
0.0
 40
2.0
  1
Maßstab:
 51
15.0
  7
ROMANS8
100
AcDbText
  0
LINE
  5
39A
330
20A
100
AcDbEntity
  8
01-99
100
AcDbLine
 10
323.9999997697348
 20
47.88888965037898
 30
0.0
 11
300.9999997697348
 21
47.88888965037898
 31
0.0
  0
LINE
  5
39B
330
20A
100
AcDbEntity
  8
01-99
100
AcDbLine
 10
323.9999997697348
 20
45.33333409471225
 30
0.0
 11
300.9999997697348
 21
45.33333409471225
 31
0.0
  0
LINE
  5
39C
330
20A
100
AcDbEntity
  8
01-99
100
AcDbLine
 10
323.9999997697349
 20
41.50000076137894
 30
0.0
 11
300.9999997697347
 21
41.50000076137897
 31
0.0
  0
ATTDEF
  5
39D
330
20A
100
AcDbEntity
  8
06-99
100
AcDbText
 10
325.495446508912
 20
27.18783945866119
 30
0.0
 40
4.5
  1

 41
0.9
  7
ROMANS8
100
AcDbAttributeDefinition
280
     0
  3
Benennung/Teil
  2
TEILE
 70
     0
280
     0
  0
ATTDEF
  5
39E
330
20A
100
AcDbEntity
  8
06-99
100
AcDbText
 10
325.495446508912
 20
19.89177436492207
 30
0.0
 40
4.5
  1

 41
0.9
  7
ROMANS8
100
AcDbAttributeDefinition
280
     0
  3
Benennung/Teil2
  2
TEILE2
 70
     0
280
     0
  0
ATTDEF
  5
39F
330
20A
100
AcDbEntity
  8
06-99
100
AcDbText
 10
400.3473859814493
 20
46.33333409471231
 30
0.0
 40
3.375
  1

  7
ROMANS8
100
AcDbAttributeDefinition
280
     0
  3
Maßstab
  2
:
 70
     0
280
     0
  0
ATTDEF
  5
3A0
330
20A
100
AcDbEntity
  8
06-99
100
AcDbText
 10
301.9970675691022
 20
28.44168622941026
 30
0.0
 40
2.5
  1

 41
0.9
  7
ROMANS8
100
AcDbAttributeDefinition
280
     0
  3
Name
  2
NAME
 70
     0
280
     0
  0
ATTDEF
  5
3A1
330
20A
100
AcDbEntity
  8
06-99
100
AcDbText
 10
288.4931462216289
 20
28.46123593549021
 30
0.0
 40
2.5
  1

 50
359.9144597696142
 41
0.9542572414211148
  7
ROMANS8
 72
     5
 11
299.7397368901736
 21
28.44444522804565
 31
0.0
100
AcDbAttributeDefinition
280
     0
  3
Datum
  2
DATUM
 70
     0
280
     0
  0
ATTDEF
  5
3A2
330
20A
100
AcDbEntity
  8
06-99
100
AcDbText
 10
387.5063437368931
 20
8.492900561667681
 30
0.0
 40
2.99376
  1

  7
ROMANS8
100
AcDbAttributeDefinition
280
     0
  3
Ident-Nummer
  2
ID.NR
 70
     0
280
     0
  0
ATTDEF
  5
3A3
330
20A
100
AcDbEntity
  8
06-99
100
AcDbText
 10
325.7312660254454
 20
38.66666740582343
 30
0.0
 40
3.0
  1

 41
0.9
  7
ROMANS8
100
AcDbAttributeDefinition
280
     0
  3
Zuschnitts.Länge
  2
LÄNGE
 70
     0
280
     0
  0
ATTDEF
  5
3A4
330
20A
100
AcDbEntity
  8
06-99
100
AcDbText
 10
359.1808046815046
 20
38.6781046318238
 30
0.0
 40
3.0
  1

 41
0.9
  7
ROMANS8
100
AcDbAttributeDefinition
280
     0
  3
Zuschnitts Breite
  2
BREITE
 70
     0
280
     0
  0
ATTDEF
  5
3A5
330
20A
100
AcDbEntity
  8
06-99
100
AcDbText
 10
399.6090918964667
 20
38.66666742804574
 30
0.0
 40
3.09375
  1

  7
ROMANS8
100
AcDbAttributeDefinition
280
     0
  3
Blech.Dicke
  2
1.0
 70
     0
280
     0
  0
ATTDEF
  5
3A6
330
20A
100
AcDbEntity
  8
06-99
100
AcDbText
 10
373.1277853711375
 20
46.33333409471243
 30
0.0
 40
3.0
  1

  7
ROMANS8
 72
     1
 11
373.1277853711375
 21
46.33333409471243
 31
0.0
100
AcDbAttributeDefinition
280
     0
  3
Oberfläche
  2
IV
 70
     0
280
     0
  0
ATTDEF
  5
3A7
330
20A
100
AcDbEntity
  8
06-99
100
AcDbText
 10
332.2747403058506
 20
46.33333409471219
 30
0.0
 40
3.375
  1
1.4301
  7
ROMANS8
100
AcDbAttributeDefinition
280
     0
  3
Mat.Art
  2
1.4301
 70
     0
280
     0
  0
ATTDEF
  5
3A8
330
20A
100
AcDbEntity
  8
06-99
100
AcDbText
 10
355.0006336566149
 20
8.504397365733609
 30
0.0
 40
3.168
  1

 41
0.9
  7
ROMANS8
100
AcDbAttributeDefinition
280
     0
  3
Auftrags Nr.
  2
AUFTRAGS.NR.
 70
     0
280
     0
  0
ATTDEF
  5
3A9
330
20A
100
AcDbEntity
  8
06-99
100
AcDbText
 10
325.4999997697348
 20
8.500000761378998
 30
0.0
 40
3.168
  1

 41
0.9
  7
ROMANS8
100
AcDbAttributeDefinition
280
     0
  3
Sonder-NR,WPS
  2
SONDER-NR
 70
     0
280
     0
  0
ATTDEF
  5
3AA
330
20A
100
AcDbEntity
  8
06-99
100
AcDbText
 10
255.4997507647431
 20
7.601810830638839
 30
0.0
 40
1.5
  1

 41
0.9
  7
ROMANS8
100
AcDbAttributeDefinition
280
     0
  3
ERSETZT.Durch
  2
ERSETZT.DURCH
 70
     0
280
     0
  0
ATTDEF
  5
3AB
330
20A
100
AcDbEntity
  8
06-99
100
AcDbText
 10
230.4994675499334
 20
7.597457159251405
 30
0.0
 40
1.5
  1

 41
0.9
  7
ROMANS8
100
AcDbAttributeDefinition
280
     0
  3
ERSETZT.Für
  2
ERSETZT.FÜR
 70
     0
280
     0
  0
ATTDEF
  5
3AC
330
20A
100
AcDbEntity
  8
06-99
100
AcDbText
 10
309.0037152733153
 20
48.66851190138698
 30
0.0
 40
1.287
  1
DIN A3
  7
ROMANS8
 72
     1
 11
312.2518581304581
 21
48.66851190138698
 31
0.0
100
AcDbAttributeDefinition
280
     0
  3
Format
  2
FORMAT
 70
     0
280
     0
  0
ATTDEF
  5
3AD
330
20A
100
AcDbEntity
  8
06-99
100
AcDbText
 10
304.9914283411633
 20
38.39666742804565
 30
0.0
 40
2.34
  1
DIN 2768
  7
ROMANS8
 72
     1
 11
313.0142854840205
 21
38.39666742804565
 31
0.0
100
AcDbAttributeDefinition
280
     0
  3
Norm / Kanten
  2
NORM2
 70
     0
280
     0
  0
ATTDEF
  5
3AE
330
20A
100
AcDbEntity
  8
06-99
100
AcDbText
 10
301.8157140554491
 20
42.23000076137895
 30
0.0
 40
2.34
  1
DIN 6930-M
  7
ROMANS8
 72
     1
 11
312.5128569125919
 21
42.23000076137895
 31
0.0
100
AcDbAttributeDefinition
280
     0
  3
Norm / Fräsen
  2
NORM1
 70
     0
280
     0
  0
ENDBLK
  5
3AF
330
20A
100
AcDbEntity
  8
0
100
AcDbBlockEnd
  0
BLOCK
  5
16C
330
16B
100
AcDbEntity
  8
0
100
AcDbBlockBegin
  2
schloss-024454-D
 70
     0
 10
0.0
 20
0.0
 30
0.0
  3
schloss-024454-D
  1

  0
LINE
  5
16D
330
16B
100
AcDbEntity
  8
0
100
AcDbLine
 10
7.249999999999985
 20
-3.300000000000011
 30
0.0
 11
-7.25
 21
-3.300000000000011
 31
0.0
  0
LINE
  5
16E
330
16B
100
AcDbEntity
  8
0
100
AcDbLine
 10
7.249999999999985
 20
-3.300000000000011
 30
0.0
 11
8.499999999999985
 21
-1.800000000000011
 31
0.0
  0
LINE
  5
16F
330
16B
100
AcDbEntity
  8
0
100
AcDbLine
 10
-7.25
 20
-3.300000000000011
 30
0.0
 11
-8.5
 21
-1.800000000000011
 31
0.0
  0
LINE
  5
170
330
16B
100
AcDbEntity
  8
0
100
AcDbLine
 10
-8.5
 20
-1.800000000000011
 30
0.0
 11
8.499999999999985
 21
-1.800000000000011
 31
0.0
  0
LINE
  5
171
330
16B
100
AcDbEntity
  8
0
100
AcDbLine
 10
8.499999999999985
 20
-1.800000000000011
 30
0.0
 11
8.499999999999985
 21
0.0
 31
0.0
  0
LINE
  5
172
330
16B
100
AcDbEntity
  8
0
100
AcDbLine
 10
8.499999999999985
 20
0.0
 30
0.0
 11
-8.5
 21
0.0
 31
0.0
  0
LINE
  5
173
330
16B
100
AcDbEntity
  8
0
100
AcDbLine
 10
-8.5
 20
0.0
 30
0.0
 11
-8.5
 21
-1.800000000000011
 31
0.0
  0
LINE
  5
174
330
16B
100
AcDbEntity
  8
0
100
AcDbLine
 10
6.750000000000014
 20
7.850000000000022
 30
0.0
 11
-6.75
 21
7.850000000000022
 31
0.0
  0
LINE
  5
175
330
16B
100
AcDbEntity
  8
0
100
AcDbLine
 10
-6.75
 20
7.850000000000022
 30
0.0
 11
-6.75
 21
9.850000000000022
 31
0.0
  0
LINE
  5
176
330
16B
100
AcDbEntity
  8
0
100
AcDbLine
 10
-5.800000000000011
 20
10.85000000000002
 30
0.0
 11
5.800000000000011
 21
10.85000000000002
 31
0.0
  0
LINE
  5
177
330
16B
100
AcDbEntity
  8
0
100
AcDbLine
 10
-3.5
 20
12.85000000000002
 30
0.0
 11
3.5
 21
12.84999999999999
 31
0.0
  0
LINE
  5
178
330
16B
100
AcDbEntity
  8
0
100
AcDbLine
 10
5.800000000000011
 20
9.850000000000022
 30
0.0
 11
5.800000000000011
 21
10.85000000000002
 31
0.0
  0
LINE
  5
179
330
16B
100
AcDbEntity
  8
0
100
AcDbLine
 10
-5.800000000000011
 20
9.850000000000022
 30
0.0
 11
-5.800000000000011
 21
10.85000000000002
 31
0.0
  0
LINE
  5
17A
330
16B
100
AcDbEntity
  8
0
100
AcDbLine
 10
3.5
 20
10.85000000000002
 30
0.0
 11
3.5
 21
12.85000000000002
 31
0.0
  0
LINE
  5
17B
330
16B
100
AcDbEntity
  8
0
100
AcDbLine
 10
-3.5
 20
10.85000000000002
 30
0.0
 11
-3.5
 21
12.85000000000002
 31
0.0
  0
LINE
  5
17C
330
16B
100
AcDbEntity
  8
0
100
AcDbLine
 10
9.499999999999985
 20
1.0
 30
0.0
 11
-9.5
 21
1.0
 31
0.0
  0
LINE
  5
17D
330
16B
100
AcDbEntity
  8
0
100
AcDbLine
 10
9.499999999999985
 20
4.099999999999994
 30
0.0
 11
-9.5
 21
4.099999999999994
 31
0.0
  0
LINE
  5
17E
330
16B
100
AcDbEntity
  8
0
100
AcDbLine
 10
9.499999999999985
 20
4.099999999999994
 30
0.0
 11
9.499999999999985
 21
1.0
 31
0.0
  0
LINE
  5
17F
330
16B
100
AcDbEntity
  8
0
100
AcDbLine
 10
-9.5
 20
4.099999999999994
 30
0.0
 11
-9.5
 21
1.0
 31
0.0
  0
LINE
  5
180
330
16B
100
AcDbEntity
  8
0
100
AcDbLine
 10
0.0
 20
4.099999999999994
 30
0.0
 11
0.0
 21
1.0
 31
0.0
  0
LINE
  5
181
330
16B
100
AcDbEntity
  8
0
100
AcDbLine
 10
6.450000000000002
 20
7.850000000000022
 30
0.0
 11
6.449999999999988
 21
0.0
 31
0.0
  0
LINE
  5
182
330
16B
100
AcDbEntity
  8
0
100
AcDbLine
 10
-6.449999999999988
 20
0.0
 30
0.0
 11
-6.449999999999988
 21
7.850000000000022
 31
0.0
  0
LINE
  5
183
330
16B
100
AcDbEntity
  8
0
100
AcDbLine
 10
-6.75
 20
9.850000000000022
 30
0.0
 11
6.750000000000014
 21
9.850000000000022
 31
0.0
  0
LINE
  5
184
330
16B
100
AcDbEntity
  8
0
100
AcDbLine
 10
6.750000000000014
 20
7.850000000000022
 30
0.0
 11
6.750000000000014
 21
9.850000000000022
 31
0.0
  0
LINE
  5
185
330
16B
100
AcDbEntity
  8
05-01
100
AcDbLine
 10
0.0
 20
14.84999999999999
 30
0.0
 11
0.0
 21
-5.300000000000011
 31
0.0
  0
ENDBLK
  5
18A
330
16B
100
AcDbEntity
  8
0
100
AcDbBlockEnd
  0
BLOCK
  5
18D
330
18C
100
AcDbEntity
  8
0
100
AcDbBlockBegin
  2
schloss-024454-S
 70
     0
 10
0.0
 20
0.0
 30
0.0
  3
schloss-024454-S
  1

  0
LINE
  5
18E
330
18C
100
AcDbEntity
  8
0
100
AcDbLine
 10
3.300000000000011
 20
7.25
 30
0.0
 11
3.300000000000011
 21
-7.25
 31
0.0
  0
LINE
  5
18F
330
18C
100
AcDbEntity
  8
0
100
AcDbLine
 10
3.300000000000011
 20
7.25
 30
0.0
 11
1.800000000000011
 21
8.5
 31
0.0
  0
LINE
  5
190
330
18C
100
AcDbEntity
  8
0
100
AcDbLine
 10
3.300000000000011
 20
-7.25
 30
0.0
 11
1.800000000000011
 21
-8.5
 31
0.0
  0
LINE
  5
191
330
18C
100
AcDbEntity
  8
0
100
AcDbLine
 10
1.800000000000011
 20
-8.5
 30
0.0
 11
1.800000000000011
 21
8.5
 31
0.0
  0
LINE
  5
192
330
18C
100
AcDbEntity
  8
0
100
AcDbLine
 10
1.800000000000011
 20
8.5
 30
0.0
 11
0.0000000000000142
 21
8.5
 31
0.0
  0
LINE
  5
193
330
18C
100
AcDbEntity
  8
0
100
AcDbLine
 10
0.0000000000000142
 20
8.5
 30
0.0
 11
0.0
 21
-8.5
 31
0.0
  0
LINE
  5
194
330
18C
100
AcDbEntity
  8
0
100
AcDbLine
 10
0.0
 20
-8.5
 30
0.0
 11
1.800000000000011
 21
-8.5
 31
0.0
  0
LINE
  5
195
330
18C
100
AcDbEntity
  8
0
100
AcDbLine
 10
0.0
 20
-7.799999999999997
 30
0.0
 11
-1.0
 21
-7.799999999999997
 31
0.0
  0
LINE
  5
196
330
18C
100
AcDbEntity
  8
0
100
AcDbLine
 10
-4.099999999999994
 20
-7.799999999999997
 30
0.0
 11
-5.449999999999988
 21
-7.799999999999997
 31
0.0
  0
LINE
  5
197
330
18C
100
AcDbEntity
  8
0
100
AcDbLine
 10
-5.649999999999991
 20
-7.599999999999994
 30
0.0
 11
-5.449999999999988
 21
-7.799999999999997
 31
0.0
  0
LINE
  5
198
330
18C
100
AcDbEntity
  8
0
100
AcDbLine
 10
0.0000000000000142
 20
7.799999999999997
 30
0.0
 11
-0.9999999999999715
 21
7.799999999999997
 31
0.0
  0
LINE
  5
199
330
18C
100
AcDbEntity
  8
0
100
AcDbLine
 10
-4.09999999999998
 20
7.799999999999997
 30
0.0
 11
-5.449999999999974
 21
7.800000000000011
 31
0.0
  0
LINE
  5
19A
330
18C
100
AcDbEntity
  8
0
100
AcDbLine
 10
-7.849999999999994
 20
7.0
 30
0.0
 11
-7.849999999999994
 21
-7.0
 31
0.0
  0
LINE
  5
19B
330
18C
100
AcDbEntity
  8
0
100
AcDbLine
 10
-5.649999999999977
 20
7.0
 30
0.0
 11
-7.849999999999994
 21
7.0
 31
0.0
  0
LINE
  5
19C
330
18C
100
AcDbEntity
  8
0
100
AcDbLine
 10
-5.649999999999991
 20
-7.0
 30
0.0
 11
-7.849999999999994
 21
-7.0
 31
0.0
  0
LINE
  5
19D
330
18C
100
AcDbEntity
  8
0
100
AcDbLine
 10
-5.649999999999977
 20
7.599999999999994
 30
0.0
 11
-5.649999999999977
 21
7.0
 31
0.0
  0
LINE
  5
19E
330
18C
100
AcDbEntity
  8
0
100
AcDbLine
 10
-5.449999999999974
 20
7.800000000000011
 30
0.0
 11
-5.649999999999977
 21
7.599999999999994
 31
0.0
  0
LINE
  5
19F
330
18C
100
AcDbEntity
  8
0
100
AcDbLine
 10
-5.649999999999991
 20
-7.599999999999994
 30
0.0
 11
-5.649999999999991
 21
-7.0
 31
0.0
  0
LINE
  5
1A0
330
18C
100
AcDbEntity
  8
0
100
AcDbLine
 10
0.0000000000000142
 20
7.5
 30
0.0
 11
-0.9999999999999715
 21
7.5
 31
0.0
  0
LINE
  5
1A1
330
18C
100
AcDbEntity
  8
0
100
AcDbLine
 10
-4.099999999999965
 20
7.5
 30
0.0
 11
-5.649999999999977
 21
7.5
 31
0.0
  0
LINE
  5
1A2
330
18C
100
AcDbEntity
  8
0
100
AcDbLine
 10
0.0
 20
-7.5
 30
0.0
 11
-1.0
 21
-7.5
 31
0.0
  0
LINE
  5
1A3
330
18C
100
AcDbEntity
  8
0
100
AcDbLine
 10
-4.099999999999994
 20
-7.5
 30
0.0
 11
-5.649999999999991
 21
-7.5
 31
0.0
  0
LINE
  5
1A4
330
18C
100
AcDbEntity
  8
0
100
AcDbLine
 10
-7.849999999999994
 20
18.55000000000001
 30
0.0
 11
-7.849999999999994
 21
-6.75
 31
0.0
  0
LINE
  5
1A5
330
18C
100
AcDbEntity
  8
0
100
AcDbLine
 10
-7.849999999999994
 20
-6.75
 30
0.0
 11
-9.849999999999994
 21
-6.75
 31
0.0
  0
LINE
  5
1A6
330
18C
100
AcDbEntity
  8
0
100
AcDbLine
 10
-9.849999999999994
 20
-6.75
 30
0.0
 11
-9.849999999999994
 21
18.55000000000001
 31
0.0
  0
LINE
  5
1A7
330
18C
100
AcDbEntity
  8
0
100
AcDbLine
 10
-9.849999999999994
 20
18.55000000000001
 30
0.0
 11
-7.849999999999994
 21
18.55000000000001
 31
0.0
  0
LINE
  5
1A8
330
18C
100
AcDbEntity
  8
0
100
AcDbLine
 10
-5.649999999999977
 20
7.0
 30
0.0
 11
-5.649999999999977
 21
3.886057455164035
 31
0.0
  0
LINE
  5
1A9
330
18C
100
AcDbEntity
  8
0
100
AcDbLine
 10
-5.649999999999977
 20
-3.886057455164035
 30
0.0
 11
-5.649999999999991
 21
-7.0
 31
0.0
  0
LINE
  5
1AA
330
18C
100
AcDbEntity
  8
0
100
AcDbLine
 10
0.0000000000000142
 20
4.386057455164035
 30
0.0
 11
-0.9999999999999715
 21
4.386057455164035
 31
0.0
  0
LINE
  5
1AB
330
18C
100
AcDbEntity
  8
0
100
AcDbLine
 10
-4.099999999999965
 20
4.386057455164035
 30
0.0
 11
-5.649999999999977
 21
4.386057455164035
 31
0.0
  0
LINE
  5
1AC
330
18C
100
AcDbEntity
  8
0
100
AcDbLine
 10
0.0
 20
-4.386057455164035
 30
0.0
 11
-1.0
 21
-4.386057455164035
 31
0.0
  0
LINE
  5
1AD
330
18C
100
AcDbEntity
  8
0
100
AcDbLine
 10
-4.099999999999994
 20
-4.386057455164035
 30
0.0
 11
-5.649999999999977
 21
-4.386057455164035
 31
0.0
  0
LINE
  5
1AE
330
18C
100
AcDbEntity
  8
0
100
AcDbLine
 10
-5.649999999999977
 20
3.886057455164035
 30
0.0
 11
-7.849999999999994
 21
3.886057455164035
 31
0.0
  0
LINE
  5
1AF
330
18C
100
AcDbEntity
  8
0
100
AcDbLine
 10
-5.649999999999977
 20
-3.886057455164035
 30
0.0
 11
-7.849999999999994
 21
-3.886057455164035
 31
0.0
  0
LINE
  5
1B0
330
18C
100
AcDbEntity
  8
05-01
100
AcDbLine
 10
4.759251177166959
 20
0.0
 30
0.0
 11
-14.89074882283304
 21
0.0
 31
0.0
  0
LINE
  5
1B1
330
18C
100
AcDbEntity
  8
0
100
AcDbLine
 10
-10.84999999999999
 20
-5.799999999999997
 30
0.0
 11
-10.84999999999999
 21
5.800000000000011
 31
0.0
  0
LINE
  5
1B2
330
18C
100
AcDbEntity
  8
0
100
AcDbLine
 10
-12.84999999999999
 20
-3.5
 30
0.0
 11
-12.84999999999998
 21
3.5
 31
0.0
  0
LINE
  5
1B3
330
18C
100
AcDbEntity
  8
0
100
AcDbLine
 10
-9.849999999999994
 20
5.800000000000011
 30
0.0
 11
-10.84999999999999
 21
5.800000000000011
 31
0.0
  0
LINE
  5
1B4
330
18C
100
AcDbEntity
  8
0
100
AcDbLine
 10
-9.849999999999994
 20
-5.799999999999997
 30
0.0
 11
-10.84999999999999
 21
-5.799999999999997
 31
0.0
  0
LINE
  5
1B5
330
18C
100
AcDbEntity
  8
0
100
AcDbLine
 10
-10.84999999999999
 20
3.5
 30
0.0
 11
-12.84999999999999
 21
3.5
 31
0.0
  0
LINE
  5
1B6
330
18C
100
AcDbEntity
  8
0
100
AcDbLine
 10
-10.84999999999999
 20
-3.5
 30
0.0
 11
-12.84999999999999
 21
-3.5
 31
0.0
  0
LINE
  5
1B7
330
18C
100
AcDbEntity
  8
0
100
AcDbLine
 10
-0.9999999999999857
 20
9.5
 30
0.0
 11
-1.0
 21
-9.5
 31
0.0
  0
LINE
  5
1B8
330
18C
100
AcDbEntity
  8
0
100
AcDbLine
 10
-4.099999999999994
 20
9.5
 30
0.0
 11
-4.099999999999994
 21
-9.5
 31
0.0
  0
LINE
  5
1B9
330
18C
100
AcDbEntity
  8
0
100
AcDbLine
 10
-4.099999999999994
 20
9.5
 30
0.0
 11
-0.9999999999999857
 21
9.5
 31
0.0
  0
LINE
  5
1BA
330
18C
100
AcDbEntity
  8
0
100
AcDbLine
 10
-4.099999999999994
 20
-9.5
 30
0.0
 11
-1.0
 21
-9.5
 31
0.0
  0
LINE
  5
1BB
330
18C
100
AcDbEntity
  8
0
100
AcDbLine
 10
-4.099999999999994
 20
0.0
 30
0.0
 11
-0.9999999999999857
 21
0.0
 31
0.0
  0
LINE
  5
1BC
330
18C
100
AcDbEntity
  8
0
100
AcDbLine
 10
-9.849999999999994
 20
15.75
 30
0.0
 11
-7.849999999999994
 21
15.75
 31
0.0
  0
LINE
  5
1BD
330
18C
100
AcDbEntity
  8
0
100
AcDbLine
 10
-9.849999999999994
 20
12.25
 30
0.0
 11
-7.849999999999994
 21
12.25
 31
0.0
  0
LINE
  5
1BE
330
18C
100
AcDbEntity
  8
0
100
AcDbLine
 10
-9.849999999999994
 20
9.75
 30
0.0
 11
-7.849999999999994
 21
9.75
 31
0.0
  0
ENDBLK
  5
1BF
330
18C
100
AcDbEntity
  8
0
100
AcDbBlockEnd
  0
BLOCK
  5
1E8
330
1E7
100
AcDbEntity
  8
0
100
AcDbBlockBegin
  2
schloss-024454-V
 70
     0
 10
0.0
 20
0.0
 30
0.0
  3
schloss-024454-V
  1

  0
CIRCLE
  5
1E9
330
1E7
100
AcDbEntity
  8
0
100
AcDbCircle
 10
0.0
 20
0.0
 30
0.0
 40
7.25
  0
CIRCLE
  5
1EA
330
1E7
100
AcDbEntity
  8
0
100
AcDbCircle
 10
0.0
 20
0.0
 30
0.0
 40
6.75
  0
ARC
  5
1EB
330
1E7
100
AcDbEntity
  8
0
100
AcDbCircle
 10
0.0
 20
0.8335449644247887
 30
0.0
 40
2.5
100
AcDbArc
 50
119.9999999999997
 51
240.0000000000003
  0
ARC
  5
1EC
330
1E7
100
AcDbEntity
  8
0
100
AcDbCircle
 10
0.0
 20
0.8335449644247887
 30
0.0
 40
2.5
100
AcDbArc
 50
299.9999999999997
 51
60.00000000000028
  0
LWPOLYLINE
  5
1ED
330
1E7
100
AcDbEntity
  8
0
100
AcDbPolyline
 90
        2
 70
     0
 43
0.0
 10
1.25
 20
-3.195428162044066
 10
1.25
 20
-1.331518545036317
  0
LWPOLYLINE
  5
1EE
330
1E7
100
AcDbEntity
  8
0
100
AcDbPolyline
 90
        2
 70
     0
 43
0.0
 10
1.25
 20
2.99860847388588
 10
1.25
 20
4.800000000000011
  0
LWPOLYLINE
  5
1EF
330
1E7
100
AcDbEntity
  8
0
100
AcDbPolyline
 90
        2
 70
     0
 43
0.0
 10
-1.25
 20
-3.195428162044066
 10
-1.25
 20
-1.331518545036317
  0
LWPOLYLINE
  5
1F0
330
1E7
100
AcDbEntity
  8
0
100
AcDbPolyline
 90
        2
 70
     0
 43
0.0
 10
-1.25
 20
2.99860847388588
 10
-1.25
 20
4.800000000000011
  0
LINE
  5
1F1
330
1E7
100
AcDbEntity
  8
0
100
AcDbLine
 10
-1.25
 20
4.800000000000011
 30
0.0
 11
1.25
 21
4.800000000000011
 31
0.0
  0
LINE
  5
1F2
330
1E7
100
AcDbEntity
  8
0
100
AcDbLine
 10
-1.25
 20
-3.195428162044066
 30
0.0
 11
1.25
 21
-3.195428162044066
 31
0.0
  0
CIRCLE
  5
1F3
330
1E7
100
AcDbEntity
  8
0
100
AcDbCircle
 10
0.0
 20
0.0
 30
0.0
 40
5.799999999999999
  0
LINE
  5
1F4
330
1E7
100
AcDbEntity
  8
03-01
100
AcDbLine
 10
-6.450000000000017
 20
-4.386057455164035
 30
0.0
 11
-6.450000000000017
 21
4.386057455164035
 31
0.0
  0
LINE
  5
1F5
330
1E7
100
AcDbEntity
  8
03-01
100
AcDbLine
 10
6.449999999999988
 20
4.386057455164035
 30
0.0
 11
6.449999999999988
 21
-4.386057455164035
 31
0.0
  0
ARC
  5
1F6
330
1E7
100
AcDbEntity
  8
03-01
100
AcDbCircle
 10
0.0
 20
0.0
 30
0.0
 40
7.799999999999999
100
AcDbArc
 50
214.2160511312984
 51
325.783948868701
  0
ARC
  5
1F7
330
1E7
100
AcDbEntity
  8
03-01
100
AcDbCircle
 10
0.0
 20
0.0
 30
0.0
 40
7.799999999999999
100
AcDbArc
 50
34.21605113129835
 51
145.7839488687016
  0
CIRCLE
  5
1F8
330
1E7
100
AcDbEntity
  8
0
100
AcDbCircle
 10
0.0
 20
0.0
 30
0.0
 40
8.5
  0
LINE
  5
1F9
330
1E7
100
AcDbEntity
  8
03-01
100
AcDbLine
 10
-6.299999999999982
 20
0.0
 30
0.0
 11
-6.300000000000011
 21
17.75
 31
0.0
  0
LINE
  5
1FA
330
1E7
100
AcDbEntity
  8
03-01
100
AcDbLine
 10
6.299999999999997
 20
0.0
 30
0.0
 11
6.299999999999997
 21
9.75
 31
0.0
  0
LINE
  5
1FB
330
1E7
100
AcDbEntity
  8
03-01
100
AcDbLine
 10
6.299999999999997
 20
15.75
 30
0.0
 11
6.299999999999997
 21
17.75
 31
0.0
  0
ARC
  5
1FC
330
1E7
100
AcDbEntity
  8
03-01
100
AcDbCircle
 10
0.0
 20
0.0
 30
0.0
 40
6.299999999999999
100
AcDbArc
 50
180.0
 51
0.0
  0
LINE
  5
1FD
330
1E7
100
AcDbEntity
  8
05-01
100
AcDbLine
 10
-10.5
 20
0.0
 30
0.0
 11
10.5
 21
0.0
 31
0.0
  0
LINE
  5
1FE
330
1E7
100
AcDbEntity
  8
05-01
100
AcDbLine
 10
0.0
 20
-10.5
 30
0.0
 11
0.0000000000000284
 21
11.0
 31
0.0
  0
ARC
  5
1FF
330
1E7
100
AcDbEntity
  8
01-01
100
AcDbCircle
 10
0.0
 20
0.0000000000001137
 30
0.0
 40
8.05
100
AcDbArc
 50
35.54446660210409
 51
144.4555333978959
  0
LINE
  5
200
330
1E7
100
AcDbEntity
  8
01-01
100
AcDbLine
 10
6.550000000000181
 20
4.67974358271806
 30
0.0
 11
6.550000000000181
 21
-4.679743582717833
 31
0.0
  0
LINE
  5
201
330
1E7
100
AcDbEntity
  8
01-01
100
AcDbLine
 10
-6.550000000000181
 20
4.67974358271806
 30
0.0
 11
-6.550000000000181
 21
-4.67974358271806
 31
0.0
  0
ARC
  5
202
330
1E7
100
AcDbEntity
  8
01-01
100
AcDbCircle
 10
0.0
 20
0.0000000000001137
 30
0.0
 40
8.05
100
AcDbArc
 50
215.5444666021041
 51
324.4555333978959
  0
LWPOLYLINE
  5
203
330
1E7
100
AcDbEntity
  8
03-01
100
AcDbPolyline
 90
        6
 70
     1
 43
0.0
 10
-5.484827557301429
 20
9.5
 10
-10.96965511460288
 20
0.0
 10
-5.484827557301429
 20
-9.5
 10
5.484827557301429
 20
-9.5
 10
10.96965511460288
 20
-0.0000000000000142
 10
5.484827557301457
 20
9.5
  0
LINE
  5
204
330
1E7
100
AcDbEntity
  8
03-01
100
AcDbLine
 10
6.299999999999997
 20
9.75
 30
0.0
 11
-3.700000000000017
 21
11.73412698412699
 31
0.0
  0
LINE
  5
205
330
1E7
100
AcDbEntity
  8
03-01
100
AcDbLine
 10
6.299999999999997
 20
15.75
 30
0.0
 11
-3.700000000000017
 21
15.75
 31
0.0
  0
ARC
  5
206
330
1E7
100
AcDbEntity
  8
03-01
100
AcDbCircle
 10
0.0
 20
-6.656249999999872
 30
0.0
 40
25.20624999999988
100
AcDbArc
 50
75.52615594806404
 51
104.4738440519359
  0
LINE
  5
207
330
1E7
100
AcDbEntity
  8
03-01
100
AcDbLine
 10
-3.700000000000017
 20
11.73412698412699
 30
0.0
 11
-3.700000000000017
 21
15.75
 31
0.0
  0
ENDBLK
  5
208
330
1E7
100
AcDbEntity
  8
0
100
AcDbBlockEnd
  0
BLOCK
  5
13E
330
13B
100
AcDbEntity
  8
0
100
AcDbBlockBegin
  2
aaaaWagner
 70
     0
 10
0.0
 20
0.0
 30
0.0
  3
aaaaWagner
  1

  0
LWPOLYLINE
  5
13F
330
13B
100
AcDbEntity
  8
02TNR-01
100
AcDbPolyline
 90
      133
 70
     1
 43
0.0135
 10
2.64276749999999
 20
8.613321999999925
 10
2.947701000000051
 20
8.879334999999969
 10
2.838868499999989
 20
9.054852999999866
 10
2.714389500000038
 20
9.213374499999986
 10
2.57469600000013
 20
9.35495800000001
 10
2.420237999999926
 20
9.479670999999882
 10
2.25144750000004
 20
9.587562999999931
 10
2.068760999999994
 20
9.678692499999897
 10
1.872623999999973
 20
9.753126999999949
 10
1.663468500000135
 20
9.810915999999906
 10
1.441735500000049
 20
9.852118000000018
 10
1.20786600000008
 20
9.876800499999944
 10
0.9622965000000931
 20
9.885012999999958
 10
0.759108000000083
 20
9.8773584999999
 10
0.5624669999999697
 20
9.854727999999909
 10
0.372792000000004
 20
9.817611999999996
 10
0.1905060000001413
 20
9.766509999999925
 10
0.0160275000000638
 20
9.701921499999969
 10
-0.1502339999999549
 20
9.6243414999999
 10
-0.3078464999999824
 20
9.534264999999891
 10
-0.4564004999999725
 20
9.432186999999885
 10
-0.5954774999999018
 20
9.318602499999997
 10
-0.7246499999999969
 20
9.194015499999977
 10
-0.8435129999999162
 20
9.058911999999963
 10
-0.9516390000000001
 20
8.913800499999979
 10
-1.048609499999884
 20
8.759166999999933
 10
-1.134010499999931
 20
8.595510999999987
 10
-1.207418999999958
 20
8.42332749999997
 10
-1.268420999999875
 20
8.243120499999918
 10
-1.316597999999885
 20
8.05537599999991
 10
-1.351522499999987
 20
7.860597999999868
 10
-1.372789499999953
 20
7.659276999999974
 10
-1.379966999999965
 20
7.451912499999991
 10
-1.372879499999953
 20
7.238396500000021
 10
-1.351855499999942
 20
7.032165999999961
 10
-1.317273
 20
6.833621499999935
 10
-1.269509999999968
 20
6.643158999999855
 10
-1.208939999999984
 20
6.46117449999997
 10
-1.135936499999957
 20
6.288063999999963
 10
-1.050873000000024
 20
6.124218999999925
 10
-0.9541274999999131
 20
5.970039999999926
 10
-0.8460734999999885
 20
5.825918499999943
 10
-0.7270800000000009
 20
5.692254999999931
 10
-0.5975339999999961
 20
5.569440999999983
 10
-0.4577954999999747
 20
5.457876999999882
 10
-0.308251499999983
 20
5.357954499999948
 10
-0.1492709999999988
 20
5.270069499999976
 10
0.0187680000000228
 20
5.194622499999979
 10
0.1954964999999902
 20
5.132004999999992
 10
0.3805320000001302
 20
5.082613000000037
 10
0.5735100000000557
 20
5.046842500000025
 10
0.7740435000000617
 20
5.025089499999921
 10
0.9817679999999882
 20
5.017749999999921
 10
1.188835500000095
 20
5.024382999999943
 10
1.387488000000075
 20
5.044128999999998
 10
1.577487000000019
 20
5.076744999999959
 10
1.758594000000016
 20
5.121987999999987
 10
1.930574999999976
 20
5.179619500000001
 10
2.093186999999943
 20
5.24940099999992
 10
2.246196000000054
 20
5.331089499999961
 10
2.389354500000081
 20
5.424450999999976
 10
2.522437500000023
 20
5.529242499999895
 10
2.645193000000062
 20
5.645216499999946
 10
2.757391500000039
 20
5.772147999999901
 10
2.858794500000044
 20
5.909780499999897
 10
2.949159000000122
 20
6.057888999999931
 10
3.028246500000022
 20
6.21622149999996
 10
3.095823000000109
 20
6.384543999999891
 10
3.151650000000017
 20
6.562613499999883
 10
3.195480000000088
 20
6.750191499999914
 10
3.227088000000094
 20
6.947039499999959
 10
3.246226500000034
 20
7.152918999999883
 10
3.252657000000112
 20
7.367582499999912
 10
3.252657000000112
 20
7.367582499999912
 10
3.252657000000112
 20
7.432458999999994
 10
1.189389000000005
 20
7.432458999999994
 10
1.189389000000005
 20
7.069110999999907
 10
2.79199200000005
 20
7.069110999999907
 10
2.778433500000005
 20
6.863879499999995
 10
2.743922999999995
 20
6.668619999999918
 10
2.689351500000043
 20
6.48416949999995
 10
2.61561000000006
 20
6.311369499999955
 10
2.523598500000048
 20
6.151047999999946
 10
2.414212500000076
 20
6.004055499999935
 10
2.288334000000077
 20
5.871215499999948
 10
2.146867500000098
 20
5.753378499999939
 10
1.99070400000005
 20
5.651367999999933
 10
1.820734500000071
 20
5.566030000000012
 10
1.637854500000003
 20
5.49819699999989
 10
1.442959500000142
 20
5.448710500000004
 10
1.236940500000059
 20
5.418402999999898
 10
1.020693000000051
 20
5.408115999999949
 10
0.8127885000001242
 20
5.418155499999897
 10
0.6129210000000285
 20
5.447679999999877
 10
0.4218375000000379
 20
5.495793999999932
 10
0.2402805000000399
 20
5.561606499999925
 10
0.0689835000000585
 20
5.644221999999899
 10
-0.0913064999998596
 20
5.742744999999956
 10
-0.2398514999999861
 20
5.856288999999947
 10
-0.3759045000000469
 20
5.983954000000039
 10
-0.4987274999999727
 20
6.124848999999926
 10
-0.6075824999999213
 20
6.27808299999998
 10
-0.7017224999999599
 20
6.442755999999917
 10
-0.7804095000000189
 20
6.617981499999928
 10
-0.8429009999998697
 20
6.802863999999885
 10
-0.8884544999999661
 20
6.996503500000017
 10
-0.9163320000000112
 20
7.19801799999999
 10
-0.9257864999999583
 20
7.406507499999861
 10
-0.9177224999998543
 20
7.619100999999943
 10
-0.8938544999999749
 20
7.823661999999899
 10
-0.854686499999957
 20
8.019560499999897
 10
-0.8007179999999607
 20
8.206170999999926
 10
-0.7324439999999868
 20
8.382867999999916
 10
-0.6503685000000133
 20
8.549030499999958
 10
-0.5549909999999727
 20
8.704024000000003
 10
-0.446806499999866
 20
8.847231999999962
 10
-0.3263190000000122
 20
8.978020000000014
 10
-0.194018999999912
 20
9.095766999999909
 10
-0.0504194999998617
 20
9.199842999999987
 10
0.1039935000001151
 20
9.289626999999995
 10
0.2687114999999949
 20
9.364488999999935
 10
0.443239500000118
 20
9.423803499999962
 10
0.6270825000000287
 20
9.466944999999896
 10
0.8197320000000445
 20
9.493292499999938
 10
1.020693000000051
 20
9.50221149999993
 10
1.245067500000004
 20
9.490952499999934
 10
1.45940250000001
 20
9.457319499999925
 10
1.663270500000066
 20
9.401523999999994
 10
1.85624400000006
 20
9.323777499999891
 10
2.037895500000104
 20
9.224300499999912
 10
2.207802000000015
 20
9.10329999999999
 10
2.365536000000133
 20
8.960996499999964
 10
2.510665500000072
 20
8.797596999999939
  0
LWPOLYLINE
  5
142
330
13B
100
AcDbEntity
  8
02TNR-01
100
AcDbPolyline
 90
       12
 70
     1
 43
0.0135
 10
-1.117729499999995
 20
0.25
 10
1.260133500000165
 20
0.25
 10
1.443639000000075
 20
1.203113499999972
 10
0.3038295000001199
 20
1.203113499999972
 10
0.3747675000000754
 20
1.571582499999863
 10
1.381917000000157
 20
1.571582499999863
 10
1.555004999999937
 20
2.470641999999884
 10
0.5478555000000825
 20
2.470641999999884
 10
0.6131415000000971
 20
2.809649499999864
 10
1.723471500000073
 20
2.809649499999864
 10
1.906963500000074
 20
3.762744999999995
 10
-0.4414199999999937
 20
3.762744999999995
  0
LWPOLYLINE
  5
143
330
13B
100
AcDbEntity
  8
02TNR-01
100
AcDbPolyline
 90
        4
 70
     1
 43
0.0135
 10
-18.58033499999988
 20
1.042440999999939
 10
-2.851485000000025
 20
1.042440999999939
 10
-3.007518000000004
 20
0.2490954999999531
 10
-18.73636349999992
 20
0.2490954999999531
  0
SOLID
  5
144
330
13B
100
AcDbEntity
  8
02TNR-01
100
AcDbTrace
 10
-18.58033499999988
 20
1.042440999999939
 30
0.0
 11
-2.851485000000025
 21
1.042440999999939
 31
0.0
 12
-18.73636349999992
 22
0.2490954999999531
 32
0.0
 13
-3.007518000000004
 23
0.2490954999999531
 33
0.0
  0
LWPOLYLINE
  5
145
330
13B
100
AcDbEntity
  8
02TNR-01
100
AcDbPolyline
 90
       10
 70
     1
 43
0.0135
 10
-11.77856699999995
 20
5.017749999999921
 10
-10.54581449999989
 20
8.898806499999977
 10
-9.261136499999906
 20
5.017749999999921
 10
-7.710440999999946
 20
9.781211499999926
 10
-8.145149999999944
 20
9.781211499999926
 10
-9.261136499999906
 20
6.108860499999877
 10
-10.54581449999989
 20
9.962876499999879
 10
-11.77856699999995
 20
6.076419999999984
 10
-12.93997200000001
 20
9.781211499999926
 10
-13.38116999999988
 20
9.781211499999926
  0
LWPOLYLINE
  5
146
330
13B
100
AcDbEntity
  8
02TNR-01
100
AcDbPolyline
 90
        3
 70
     1
 43
0.0135
 10
-5.492489999999861
 20
7.075595499999963
 10
-4.668476999999938
 20
9.093458499999883
 10
-3.876899999999977
 20
7.075595499999963
  0
LWPOLYLINE
  5
147
330
13B
100
AcDbEntity
  8
02TNR-01
100
AcDbPolyline
 90
        7
 70
     1
 43
0.0135
 10
-6.68091749999985
 20
5.142102999999906
 10
-6.251608499999974
 20
5.142102999999906
 10
-5.63523449999991
 20
6.712265499999944
 10
-3.740662499999871
 20
6.712265499999944
 10
-3.150221999999985
 20
5.142102999999906
 10
-2.689556999999922
 20
5.142102999999906
 10
-4.642520999999987
 20
9.962876499999879
  0
LWPOLYLINE
  5
148
330
13B
100
AcDbEntity
  8
02TNR-01
100
AcDbPolyline
 90
        8
 70
     1
 43
0.0135
 10
9.602989500000035
 20
0.25
 10
10.95977550000009
 20
0.25
 10
11.15299200000004
 20
0.6921699999999192
 10
12.10610550000001
 20
0.6921699999999192
 10
12.13397400000008
 20
0.25
 10
13.48994549999998
 20
0.25
 10
12.93802049999999
 20
3.762744999999995
 10
11.53292250000004
 20
3.762744999999995
  0
LWPOLYLINE
  5
149
330
13B
100
AcDbEntity
  8
02TNR-01
100
AcDbPolyline
 90
       34
 70
     1
 43
0.0135
 10
5.958610500000077
 20
2.028489999999919
 10
6.002832000000012
 20
2.028489999999919
 10
5.984831999999983
 20
1.808313999999995
 10
5.984296500000141
 20
1.616523999999913
 10
5.989471500000036
 20
1.448755000000005
 10
6.023982000000046
 20
0.25
 10
7.124483999999938
 20
0.25
 10
8.827589999999986
 20
3.762744999999995
 10
7.560061500000074
 20
3.762744999999995
 10
6.986964000000057
 20
2.215172499999937
 10
6.923703000000045
 20
2.037768999999912
 10
6.849245999999993
 20
1.807953999999881
 10
6.77498700000001
 20
1.522456000000033
 10
6.745525500000098
 20
1.522456000000033
 10
6.772957500000075
 20
1.771742499999959
 10
6.778713000000038
 20
1.970808999999917
 10
6.777399000000059
 20
2.121842499999956
 10
6.759236999999984
 20
3.762744999999995
 10
5.870010000000092
 20
3.762744999999995
 10
5.220007500000065
 20
2.121842499999956
 10
5.160535500000037
 20
1.970808999999917
 10
5.089633500000104
 20
1.771742499999959
 10
5.021067000000016
 20
1.522456000000033
 10
4.991605499999991
 20
1.522456000000033
 10
5.027281500000071
 20
1.807953999999881
 10
5.041321500000094
 20
2.037768999999912
 10
5.046366000000034
 20
2.215172499999937
 10
5.069185500000003
 20
3.762744999999995
 10
3.800842500000044
 20
3.762744999999995
 10
4.152144000000021
 20
0.25
 10
5.252641499999981
 20
0.25
 10
5.748739500000056
 20
1.448755000000005
 10
5.818530000000009
 20
1.616523999999913
 10
5.891844000000105
 20
1.808313999999995
  0
LWPOLYLINE
  5
14A
330
13B
100
AcDbEntity
  8
02TNR-01
100
AcDbPolyline
 90
       10
 70
     1
 43
0.0135
 10
11.52503850000005
 20
1.527360999999928
 10
11.7097500000001
 20
1.925309499999912
 10
11.80413300000009
 20
2.132930500000043
 10
11.9064585000001
 20
2.387495499999999
 10
12.00074700000004
 20
2.696654500000022
 10
12.02531700000008
 20
2.696654500000022
 10
12.00054
 20
2.387495499999999
 10
12.00484200000005
 20
2.132930500000043
 10
12.0192780000001
 20
1.925309499999912
 10
12.05072400000006
 20
1.527360999999928
  0
LWPOLYLINE
  5
14B
330
13B
100
AcDbEntity
  8
02TNR-01
100
AcDbPolyline
 90
       23
 70
     1
 43
0.0135
 10
15.4829145000001
 20
0.25
 10
16.72096350000004
 20
0.25
 10
16.9441905000001
 20
1.409456499999919
 10
17.33508749999998
 20
0.25
 10
18.75
 20
0.25
 10
18.08690700000011
 20
1.679672499999924
 10
18.28812000000016
 20
1.72852899999998
 10
18.47154450000005
 20
1.823235999999951
 10
18.63271650000001
 20
1.959707499999922
 10
18.76716300000009
 20
2.133843999999953
 10
18.87040650000006
 20
2.341550499999925
 10
18.93797400000005
 20
2.578731999999945
 10
18.96510450000016
 20
2.794542999999976
 10
18.9596775
 20
2.99051350000002
 10
18.92170650000003
 20
3.165968499999962
 10
18.85120500000005
 20
3.320228499999871
 10
18.74819550000006
 20
3.452618499999971
 10
18.61269600000003
 20
3.562454499999944
 10
18.44471550000003
 20
3.649065999999947
 10
18.244281
 20
3.711769000000003
 10
18.0113970000001
 20
3.74988849999994
 10
17.74609500000008
 20
3.762744999999995
 10
16.15922399999999
 20
3.762744999999995
  0
LWPOLYLINE
  5
14C
330
13B
100
AcDbEntity
  8
02TNR-01
100
AcDbPolyline
 90
        9
 70
     1
 43
0.0135
 10
17.22322650000001
 20
2.85877599999992
 10
17.41975500000012
 20
2.85877599999992
 10
17.61757050000005
 20
2.816376999999931
 10
17.71967549999999
 20
2.696460999999999
 10
17.72598450000009
 20
2.509958499999925
 10
17.64725700000008
 20
2.32599399999998
 10
17.4988065
 20
2.210816499999964
 10
17.28734250000002
 20
2.1709689999999
 10
17.09081400000002
 20
2.1709689999999
  0
LWPOLYLINE
  5
14D
330
13B
100
AcDbEntity
  8
02TNR-01
100
AcDbPolyline
 90
       12
 70
     1
 43
0.0135
 10
11.24410800000009
 20
5.142102999999906
 10
13.54094850000001
 20
5.142102999999906
 10
13.54094850000001
 20
5.537891499999943
 10
11.66584800000009
 20
5.537891499999943
 10
11.66584800000009
 20
7.536260500000025
 10
13.54094850000001
 20
7.536260500000025
 10
13.54094850000001
 20
7.932049000000006
 10
11.66584800000009
 20
7.932049000000006
 10
11.66584800000009
 20
9.385422999999946
 10
13.54094850000001
 20
9.385422999999946
 10
13.54094850000001
 20
9.781211499999926
 10
11.24410800000009
 20
9.781211499999926
  0
LWPOLYLINE
  5
14E
330
13B
100
AcDbEntity
  8
02TNR-01
100
AcDbPolyline
 90
        8
 70
     1
 43
0.0135
 10
5.275956000000064
 20
5.142102999999906
 10
5.697700499999996
 20
5.142102999999906
 10
5.697700499999996
 20
8.892321999999921
 10
8.954796000000101
 20
5.004762999999968
 10
8.954796000000101
 20
9.781211499999926
 10
8.53306950000001
 20
9.781211499999926
 10
8.53306950000001
 20
6.095873499999925
 10
5.275956000000064
 20
9.975845499999877
  0
LWPOLYLINE
  5
14F
330
13B
100
AcDbEntity
  8
02TNR-01
100
AcDbPolyline
 90
       19
 70
     1
 43
0.0135
 10
16.12873200000001
 20
9.411378999999897
 10
16.55045849999999
 20
9.411378999999897
 10
16.80826800000011
 20
9.400875999999925
 10
17.02775099999996
 20
9.367481499999939
 10
17.21013600000015
 20
9.308387499999867
 10
17.35662900000011
 20
9.22078149999993
 10
17.46844950000002
 20
9.101850999999896
 10
17.5468125000001
 20
8.94878349999999
 10
17.59294199999999
 20
8.758757499999887
 10
17.60804850000011
 20
8.528973999999948
 10
17.59214550000013
 20
8.303276499999924
 10
17.54407650000007
 20
8.120009499999923
 10
17.46331950000012
 20
7.975366000000008
 10
17.34933000000001
 20
7.865547999999989
 10
17.20158600000002
 20
7.786752999999976
 10
17.01954750000004
 20
7.735173999999915
 10
16.80267900000001
 20
7.707017500000006
 10
16.55045849999999
 20
7.698476499999969
 10
16.12873200000001
 20
7.698476499999969
  0
LWPOLYLINE
  5
150
330
13B
100
AcDbEntity
  8
02TNR-01
100
AcDbPolyline
 90
       29
 70
     1
 43
0.0135
 10
18.52289400000006
 20
5.142102999999906
 10
16.85541450000005
 20
7.354595499999959
 10
17.09331600000007
 20
7.370502999999985
 10
17.30862750000006
 20
7.417433499999901
 10
17.49991350000005
 20
7.494212500000003
 10
17.66572500000006
 20
7.599674499999991
 10
17.80462199999999
 20
7.732631499999911
 10
17.91516000000001
 20
7.891922499999964
 10
17.99590350000005
 20
8.076364000000012
 10
18.04540800000006
 20
8.284781500000008
 10
18.062229
 20
8.51600499999995
 10
18.04983600000014
 20
8.737044999999966
 10
18.01264350000008
 20
8.936619999999891
 10
17.95061550000002
 20
9.114815499999963
 10
17.86372950000009
 20
9.271716999999853
 10
17.75195399999995
 20
9.407414499999958
 10
17.6152575000001
 20
9.521997999999939
 10
17.45361300000002
 20
9.615548499999931
 10
17.26698900000008
 20
9.688155999999935
 10
17.05535850000001
 20
9.739914999999996
 10
16.81869449999999
 20
9.770901999999978
 10
16.55696100000011
 20
9.781211499999926
 10
16.55696100000011
 20
9.781211499999926
 10
15.70699200000001
 20
9.781211499999926
 10
15.70699200000001
 20
5.142102999999906
 10
16.12873200000001
 20
5.142102999999906
 10
16.12873200000001
 20
7.354595499999959
 10
16.3817805000001
 20
7.354595499999959
 10
18.0103170000001
 20
5.142102999999906
  0
LWPOLYLINE
  5
151
330
13B
100
AcDbEntity
  8
02TNR-01
  6
VERDECKT
100
AcDbPolyline
 90
        4
 70
     1
 43
0.0
 10
-19.0
 20
0.0
 10
19.0
 20
0.0
 10
19.0
 20
10.0
 10
-19.0
 20
10.0
  0
ENDBLK
  5
152
330
13B
100
AcDbEntity
  8
0
100
AcDbBlockEnd
  0
BLOCK
  5
155
330
154
100
AcDbEntity
  8
0
100
AcDbBlockBegin
  2
Innendeckel02-d
 70
     0
 10
0.0
 20
0.0
 30
0.0
  3
Innendeckel02-d
  1

  0
LINE
  5
156
330
154
100
AcDbEntity
  8
0
100
AcDbLine
 10
131.5
 20
105.1999999999993
 30
0.0
 11
37.07106799999929
 21
105.1999999999993
 31
0.0
  0
ARC
  5
157
330
154
100
AcDbEntity
  8
0
100
AcDbCircle
 10
37.07106799999929
 20
100.1999999999993
 30
0.0
 40
5.0
100
AcDbArc
 50
90.0
 51
134.9999999999954
  0
LINE
  5
158
330
154
100
AcDbEntity
  8
0
100
AcDbLine
 10
33.53553399999964
 20
103.7355339999999
 30
0.0
 11
3.535533999999643
 21
73.73553399999991
 31
0.0
  0
ARC
  5
159
330
154
100
AcDbEntity
  8
0
100
AcDbCircle
 10
0.0
 20
77.27106800000047
 30
0.0
 40
5.0
100
AcDbArc
 50
225.0000000000046
 51
314.9999999999954
  0
LINE
  5
15A
330
154
100
AcDbEntity
  8
0
100
AcDbLine
 10
-3.535534000000552
 20
73.73553399999991
 30
0.0
 11
-33.53553400000055
 21
103.7355339999999
 31
0.0
  0
ARC
  5
15B
330
154
100
AcDbEntity
  8
0
100
AcDbCircle
 10
-37.0710680000002
 20
100.1999999999993
 30
0.0
 40
5.0
100
AcDbArc
 50
45.0000000000046
 51
90.0
  0
LINE
  5
15C
330
154
100
AcDbEntity
  8
0
100
AcDbLine
 10
-37.0710680000002
 20
105.1999999999993
 30
0.0
 11
-131.5000000000009
 21
105.1999999999993
 31
0.0
  0
LINE
  5
15D
330
154
100
AcDbEntity
  8
03-01
100
AcDbLine
 10
-130.7000000000007
 20
105.1999999999993
 30
0.0
 11
-130.7000000000007
 21
11.19999999999936
 31
0.0
  0
LINE
  5
15E
330
154
100
AcDbEntity
  8
0
100
AcDbLine
 10
-131.5000000000009
 20
105.1999999999993
 30
0.0
 11
-131.5000000000009
 21
11.19999999999936
 31
0.0
  0
LINE
  5
15F
330
154
100
AcDbEntity
  8
0
100
AcDbLine
 10
-131.5000000000009
 20
11.19999999999936
 30
0.0
 11
-130.7000000000007
 21
11.19999999999936
 31
0.0
  0
LINE
  5
160
330
154
100
AcDbEntity
  8
0
100
AcDbLine
 10
-130.7000000000007
 20
11.19999999999936
 30
0.0
 11
-120.3000000000002
 21
1.000000000000454
 31
0.0
  0
LINE
  5
161
330
154
100
AcDbEntity
  8
0
100
AcDbLine
 10
-120.3000000000002
 20
1.000000000000454
 30
0.0
 11
-120.3000000000002
 21
-0.0000000000004547
 31
0.0
  0
LINE
  5
162
330
154
100
AcDbEntity
  8
03-01
100
AcDbLine
 10
-120.3000000000002
 20
0.7999999999997272
 30
0.0
 11
120.3000000000002
 21
0.7999999999997272
 31
0.0
  0
LINE
  5
163
330
154
100
AcDbEntity
  8
0
100
AcDbLine
 10
-120.3000000000002
 20
0.0000000000004547
 30
0.0
 11
120.3000000000002
 21
-0.0000000000004547
 31
0.0
  0
LINE
  5
164
330
154
100
AcDbEntity
  8
0
100
AcDbLine
 10
120.3000000000002
 20
-0.0000000000004547
 30
0.0
 11
120.3000000000002
 21
1.000000000000454
 31
0.0
  0
LINE
  5
165
330
154
100
AcDbEntity
  8
0
100
AcDbLine
 10
120.3000000000002
 20
1.000000000000454
 30
0.0
 11
130.6999999999998
 21
11.19999999999936
 31
0.0
  0
LINE
  5
166
330
154
100
AcDbEntity
  8
0
100
AcDbLine
 10
130.6999999999998
 20
11.19999999999936
 30
0.0
 11
131.5
 21
11.19999999999936
 31
0.0
  0
LINE
  5
167
330
154
100
AcDbEntity
  8
03-01
100
AcDbLine
 10
130.6999999999998
 20
11.19999999999936
 30
0.0
 11
130.6999999999998
 21
105.1999999999993
 31
0.0
  0
LINE
  5
168
330
154
100
AcDbEntity
  8
0
100
AcDbLine
 10
131.5
 20
11.19999999999936
 30
0.0
 11
131.5
 21
105.1999999999993
 31
0.0
  0
ENDBLK
  5
169
330
154
100
AcDbEntity
  8
0
100
AcDbBlockEnd
  0
BLOCK
  5
409
330
408
100
AcDbEntity
  8
0
100
AcDbBlockBegin
  2
*D6
 70
     1
 10
0.0
 20
0.0
 30
0.0
  3
*D6
  1

  0
LINE
  5
40A
330
408
100
AcDbEntity
  8
09-01
 62
     4
370
    -2
100
AcDbLine
 10
145.9726671069129
 20
687.8036358875251
 30
0.0
 11
145.9726671069129
 21
701.8485403045142
 31
0.0
  0
LINE
  5
40B
330
408
100
AcDbEntity
  8
09-01
 62
     4
370
    -2
100
AcDbLine
 10
410.5726671069133
 20
687.8036358875251
 30
0.0
 11
410.5726671069133
 21
701.8485403045142
 31
0.0
  0
LINE
  5
40C
330
408
100
AcDbEntity
  8
09-01
 62
     4
370
    -2
100
AcDbLine
 10
150.9726671069129
 20
699.8485403045142
 30
0.0
 11
405.5726671069132
 21
699.8485403045142
 31
0.0
  0
SOLID
  5
40D
330
408
100
AcDbEntity
  8
09-01
 62
     4
100
AcDbTrace
 10
150.9726671069129
 20
700.6818736378476
 30
0.0
 11
150.9726671069129
 21
699.0152069711808
 31
0.0
 12
145.9726671069129
 22
699.8485403045142
 32
0.0
 13
145.9726671069129
 23
699.8485403045142
 33
0.0
  0
SOLID
  5
40E
330
408
100
AcDbEntity
  8
09-01
 62
     4
100
AcDbTrace
 10
405.5726671069132
 20
700.6818736378476
 30
0.0
 11
405.5726671069132
 21
699.0152069711808
 31
0.0
 12
410.5726671069133
 22
699.8485403045142
 32
0.0
 13
410.5726671069133
 23
699.8485403045142
 33
0.0
  0
MTEXT
  5
40F
330
408
100
AcDbEntity
  8
09-01
 62
     1
100
AcDbMText
 10
278.2726671069131
 20
704.3485403045142
 30
0.0
 40
5.0
 41
0.0
 46
0.0
 71
     5
 72
     1
  1
264.6
 73
     1
 44
1.0
  0
POINT
  5
410
330
408
100
AcDbEntity
  8
Defpoints
 62
     0
100
AcDbPoint
 10
145.9726671069129
 20
685.8036358875251
 30
0.0
  0
POINT
  5
411
330
408
100
AcDbEntity
  8
Defpoints
 62
     0
100
AcDbPoint
 10
410.5726671069133
 20
685.8036358875251
 30
0.0
  0
POINT
  5
412
330
408
100
AcDbEntity
  8
Defpoints
 62
     0
100
AcDbPoint
 10
410.5726671069133
 20
699.8485403045142
 30
0.0
  0
ENDBLK
  5
413
330
408
100
AcDbEntity
  8
0
100
AcDbBlockEnd
  0
BLOCK
  5
3FC
330
3FB
100
AcDbEntity
  8
0
100
AcDbBlockBegin
  2
*D7
 70
     1
 10
0.0
 20
0.0
 30
0.0
  3
*D7
  1

  0
LINE
  5
3FD
330
3FB
100
AcDbEntity
  8
09-01
 62
     4
370
    -2
100
AcDbLine
 10
544.0748169839507
 20
687.8036358875251
 30
0.0
 11
544.0748169839507
 21
700.3485403045142
 31
0.0
  0
LINE
  5
3FE
330
3FB
100
AcDbEntity
  8
09-01
 62
     4
370
    -2
100
AcDbLine
 10
664.0748169839508
 20
687.803635887526
 30
0.0
 11
664.0748169839508
 21
700.3485403045142
 31
0.0
  0
LINE
  5
3FF
330
3FB
100
AcDbEntity
  8
09-01
 62
     4
370
    -2
100
AcDbLine
 10
549.0748169839507
 20
698.3485403045142
 30
0.0
 11
659.0748169839507
 21
698.3485403045142
 31
0.0
  0
SOLID
  5
400
330
3FB
100
AcDbEntity
  8
09-01
 62
     4
100
AcDbTrace
 10
549.0748169839507
 20
699.1818736378476
 30
0.0
 11
549.0748169839507
 21
697.5152069711809
 31
0.0
 12
544.0748169839507
 22
698.3485403045142
 32
0.0
 13
544.0748169839507
 23
698.3485403045142
 33
0.0
  0
SOLID
  5
401
330
3FB
100
AcDbEntity
  8
09-01
 62
     4
100
AcDbTrace
 10
659.0748169839507
 20
699.1818736378476
 30
0.0
 11
659.0748169839507
 21
697.5152069711809
 31
0.0
 12
664.0748169839508
 22
698.3485403045142
 32
0.0
 13
664.0748169839508
 23
698.3485403045142
 33
0.0
  0
MTEXT
  5
402
330
3FB
100
AcDbEntity
  8
09-01
 62
     1
100
AcDbMText
 10
604.0748169839507
 20
702.8485403045142
 30
0.0
 40
5.0
 41
0.0
 46
0.0
 71
     5
 72
     1
  1
120
 73
     1
 44
1.0
  0
POINT
  5
403
330
3FB
100
AcDbEntity
  8
Defpoints
 62
     0
100
AcDbPoint
 10
544.0748169839507
 20
685.8036358875251
 30
0.0
  0
POINT
  5
404
330
3FB
100
AcDbEntity
  8
Defpoints
 62
     0
100
AcDbPoint
 10
664.0748169839508
 20
685.803635887526
 30
0.0
  0
POINT
  5
405
330
3FB
100
AcDbEntity
  8
Defpoints
 62
     0
100
AcDbPoint
 10
664.0748169839508
 20
698.3485403045142
 30
0.0
  0
ENDBLK
  5
406
330
3FB
100
AcDbEntity
  8
0
100
AcDbBlockEnd
  0
BLOCK
  5
3EC
330
3EB
100
AcDbEntity
  8
0
100
AcDbBlockBegin
  2
*D8
 70
     1
 10
0.0
 20
0.0
 30
0.0
  3
*D8
  1

  0
LINE
  5
3ED
330
3EB
100
AcDbEntity
  8
09-01
 62
     4
370
    -2
100
AcDbLine
 10
395.5726671069133
 20
223.5290968593517
 30
0.0
 11
432.4210544112092
 21
223.5290968593517
 31
0.0
  0
LINE
  5
3EE
330
3EB
100
AcDbEntity
  8
09-01
 62
     4
370
    -2
100
AcDbLine
 10
412.5726671069132
 20
685.8036358875251
 30
0.0
 11
432.4210544112093
 21
685.8036358875251
 31
0.0
  0
LINE
  5
3EF
330
3EB
100
AcDbEntity
  8
09-01
 62
     4
370
    -2
100
AcDbLine
 10
430.4210544112091
 20
228.5290968593518
 30
0.0
 11
430.4210544112093
 21
680.8036358875251
 31
0.0
  0
SOLID
  5
3F0
330
3EB
100
AcDbEntity
  8
09-01
 62
     4
100
AcDbTrace
 10
429.5877210778758
 20
228.5290968593518
 30
0.0
 11
431.2543877445425
 21
228.5290968593518
 31
0.0
 12
430.4210544112091
 22
223.5290968593517
 32
0.0
 13
430.4210544112091
 23
223.5290968593517
 33
0.0
  0
SOLID
  5
3F1
330
3EB
100
AcDbEntity
  8
09-01
 62
     4
100
AcDbTrace
 10
429.5877210778759
 20
680.8036358875251
 30
0.0
 11
431.2543877445426
 21
680.8036358875251
 31
0.0
 12
430.4210544112093
 22
685.8036358875251
 32
0.0
 13
430.4210544112093
 23
685.8036358875251
 33
0.0
  0
MTEXT
  5
3F2
330
3EB
100
AcDbEntity
  8
09-01
 62
     1
100
AcDbMText
 10
425.9210544112091
 20
454.6663663734385
 30
0.0
 40
5.0
 41
0.0
 46
0.0
 71
     5
 72
     1
  1
462.3
 11
0.0000000000000001
 21
1.0
 31
0.0
 73
     1
 44
1.0
  0
POINT
  5
3F3
330
3EB
100
AcDbEntity
  8
Defpoints
 62
     0
100
AcDbPoint
 10
393.5726671069133
 20
223.5290968593517
 30
0.0
  0
POINT
  5
3F4
330
3EB
100
AcDbEntity
  8
Defpoints
 62
     0
100
AcDbPoint
 10
410.5726671069133
 20
685.8036358875251
 30
0.0
  0
POINT
  5
3F5
330
3EB
100
AcDbEntity
  8
Defpoints
 62
     0
100
AcDbPoint
 10
430.4210544112093
 20
685.8036358875251
 30
0.0
  0
ENDBLK
  5
3F6
330
3EB
100
AcDbEntity
  8
0
100
AcDbBlockEnd
  0
BLOCK
  5
3DD
330
3DC
100
AcDbEntity
  8
0
100
AcDbBlockBegin
  2
*D9
 70
     1
 10
0.0
 20
0.0
 30
0.0
  3
*D9
  1

  0
LINE
  5
3DE
330
3DC
100
AcDbEntity
  8
09-01
 62
     4
370
    -2
100
AcDbLine
 10
145.9726671069129
 20
167.2557944948557
 30
0.0
 11
145.9726671069129
 21
182.1214378449431
 31
0.0
  0
LINE
  5
3DF
330
3DC
100
AcDbEntity
  8
09-01
 62
     4
370
    -2
100
AcDbLine
 10
410.5726671069133
 20
167.2557944948557
 30
0.0
 11
410.5726671069133
 21
182.1214378449431
 31
0.0
  0
LINE
  5
3E0
330
3DC
100
AcDbEntity
  8
09-01
 62
     4
370
    -2
100
AcDbLine
 10
150.9726671069129
 20
180.1214378449431
 30
0.0
 11
405.5726671069132
 21
180.1214378449431
 31
0.0
  0
SOLID
  5
3E1
330
3DC
100
AcDbEntity
  8
09-01
 62
     4
100
AcDbTrace
 10
150.9726671069129
 20
180.9547711782764
 30
0.0
 11
150.9726671069129
 21
179.2881045116097
 31
0.0
 12
145.9726671069129
 22
180.1214378449431
 32
0.0
 13
145.9726671069129
 23
180.1214378449431
 33
0.0
  0
SOLID
  5
3E2
330
3DC
100
AcDbEntity
  8
09-01
 62
     4
100
AcDbTrace
 10
405.5726671069132
 20
180.9547711782764
 30
0.0
 11
405.5726671069132
 21
179.2881045116097
 31
0.0
 12
410.5726671069133
 22
180.1214378449431
 32
0.0
 13
410.5726671069133
 23
180.1214378449431
 33
0.0
  0
MTEXT
  5
3E3
330
3DC
100
AcDbEntity
  8
09-01
 62
     1
100
AcDbMText
 10
278.2726671069131
 20
184.6214378449431
 30
0.0
 40
5.0
 41
0.0
 46
0.0
 71
     5
 72
     1
  1
264.6
 73
     1
 44
1.0
  0
POINT
  5
3E4
330
3DC
100
AcDbEntity
  8
Defpoints
 62
     0
100
AcDbPoint
 10
145.9726671069129
 20
165.2557944948557
 30
0.0
  0
POINT
  5
3E5
330
3DC
100
AcDbEntity
  8
Defpoints
 62
     0
100
AcDbPoint
 10
410.5726671069133
 20
165.2557944948557
 30
0.0
  0
POINT
  5
3E6
330
3DC
100
AcDbEntity
  8
Defpoints
 62
     0
100
AcDbPoint
 10
410.5726671069133
 20
180.1214378449431
 30
0.0
  0
ENDBLK
  5
3E7
330
3DC
100
AcDbEntity
  8
0
100
AcDbBlockEnd
  0
BLOCK
  5
3D0
330
3CF
100
AcDbEntity
  8
0
100
AcDbBlockBegin
  2
*D10
 70
     1
 10
0.0
 20
0.0
 30
0.0
  3
*D10
  1

  0
LINE
  5
3D1
330
3CF
100
AcDbEntity
  8
09-01
 62
     4
370
    -2
100
AcDbLine
 10
412.5726671069132
 20
165.2557944948557
 30
0.0
 11
429.0063742989359
 21
165.2557944948557
 31
0.0
  0
LINE
  5
3D2
330
3CF
100
AcDbEntity
  8
09-01
 62
     4
370
    -2
100
AcDbLine
 10
402.589667106914
 20
45.45579449485558
 30
0.0
 11
429.0063742989359
 21
45.45579449485558
 31
0.0
  0
LINE
  5
3D3
330
3CF
100
AcDbEntity
  8
09-01
 62
     4
370
    -2
100
AcDbLine
 10
427.006374298936
 20
160.2557944948557
 30
0.0
 11
427.0063742989359
 21
50.45579449485558
 31
0.0
  0
SOLID
  5
3D4
330
3CF
100
AcDbEntity
  8
09-01
 62
     4
100
AcDbTrace
 10
426.1730409656027
 20
160.2557944948557
 30
0.0
 11
427.8397076322693
 21
160.2557944948557
 31
0.0
 12
427.006374298936
 22
165.2557944948557
 32
0.0
 13
427.006374298936
 23
165.2557944948557
 33
0.0
  0
SOLID
  5
3D5
330
3CF
100
AcDbEntity
  8
09-01
 62
     4
100
AcDbTrace
 10
426.1730409656026
 20
50.45579449485558
 30
0.0
 11
427.8397076322693
 21
50.45579449485558
 31
0.0
 12
427.0063742989359
 22
45.45579449485558
 32
0.0
 13
427.0063742989359
 23
45.45579449485558
 33
0.0
  0
MTEXT
  5
3D6
330
3CF
100
AcDbEntity
  8
09-01
 62
     1
100
AcDbMText
 10
422.5063742989359
 20
105.3557944948557
 30
0.0
 40
5.0
 41
0.0
 46
0.0
 71
     5
 72
     1
  1
119.8
 11
0.0000000000000001
 21
1.0
 31
0.0
 73
     1
 44
1.0
  0
POINT
  5
3D7
330
3CF
100
AcDbEntity
  8
Defpoints
 62
     0
100
AcDbPoint
 10
410.5726671069133
 20
165.2557944948557
 30
0.0
  0
POINT
  5
3D8
330
3CF
100
AcDbEntity
  8
Defpoints
 62
     0
100
AcDbPoint
 10
400.589667106914
 20
45.45579449485558
 30
0.0
  0
POINT
  5
3D9
330
3CF
100
AcDbEntity
  8
Defpoints
 62
     0
100
AcDbPoint
 10
427.0063742989359
 20
45.45579449485558
 30
0.0
  0
ENDBLK
  5
3DA
330
3CF
100
AcDbEntity
  8
0
100
AcDbBlockEnd
  0
BLOCK
  5
3C5
330
3C4
100
AcDbEntity
  8
0
100
AcDbBlockBegin
  2
*D11
 70
     1
 10
0.0
 20
0.0
 30
0.0
  3
*D11
  1

  0
LINE
  5
3C6
330
3C4
100
AcDbEntity
  8
09-01
 62
     4
370
    -2
100
AcDbLine
 10
131.2290992460871
 20
30.53789839158358
 30
0.0
 11
145.2036665926816
 21
44.61172440253764
 31
0.0
  0
MTEXT
  5
3C7
330
3C4
100
AcDbEntity
  8
09-01
 62
     1
100
AcDbMText
 10
133.2616618059837
 20
38.97149986927694
 30
0.0
 40
5.0
 41
0.0
 46
0.0
 71
     5
 72
     1
  1
R10
 11
0.7046000342820734
 21
0.7096046728212132
 31
0.0
 73
     1
 44
1.0
  0
LINE
  5
3C8
330
3C4
100
AcDbEntity
  8
09-01
 62
     4
370
    -2
100
AcDbLine
 10
155.7726671069126
 20
55.25579449485576
 30
0.0
 11
148.726666764092
 21
48.1597477666437
 31
0.0
  0
SOLID
  5
3C9
330
3C4
100
AcDbEntity
  8
09-01
 62
     4
100
AcDbTrace
 10
144.6123293653306
 20
45.1988910977727
 30
0.0
 11
145.7950038200326
 21
44.02455770730258
 31
0.0
 12
148.726666764092
 22
48.1597477666437
 32
0.0
 13
148.726666764092
 23
48.1597477666437
 33
0.0
  0
POINT
  5
3CA
330
3C4
100
AcDbEntity
  8
Defpoints
 62
     0
100
AcDbPoint
 10
148.726666764092
 20
48.1597477666437
 30
0.0
  0
POINT
  5
3CB
330
3C4
100
AcDbEntity
  8
Defpoints
 62
     0
100
AcDbPoint
 10
155.7726671069126
 20
55.25579449485576
 30
0.0
  0
ENDBLK
  5
3CC
330
3C4
100
AcDbEntity
  8
0
100
AcDbBlockEnd
  0
BLOCK
  5
12F
330
12E
100
AcDbEntity
  8
0
100
AcDbBlockBegin
  2
*D12
 70
     1
 10
0.0
 20
0.0
 30
0.0
  3
*D12
  1

  0
LINE
  5
130
330
12E
100
AcDbEntity
  8
09-01
 62
     4
370
    -2
100
AcDbLine
 10
665.8748169839509
 20
237.8036358875261
 30
0.0
 11
683.9368199575109
 21
237.8036358875261
 31
0.0
  0
LINE
  5
131
330
12E
100
AcDbEntity
  8
09-01
 62
     4
370
    -2
100
AcDbLine
 10
666.0748169839507
 20
685.803635887526
 30
0.0
 11
683.936819957511
 21
685.803635887526
 31
0.0
  0
LINE
  5
132
330
12E
100
AcDbEntity
  8
09-01
 62
     4
370
    -2
100
AcDbLine
 10
681.9368199575109
 20
242.8036358875261
 30
0.0
 11
681.936819957511
 21
680.803635887526
 31
0.0
  0
SOLID
  5
133
330
12E
100
AcDbEntity
  8
09-01
 62
     4
100
AcDbTrace
 10
681.1034866241775
 20
242.8036358875261
 30
0.0
 11
682.7701532908442
 21
242.8036358875261
 31
0.0
 12
681.9368199575109
 22
237.8036358875261
 32
0.0
 13
681.9368199575109
 23
237.8036358875261
 33
0.0
  0
SOLID
  5
134
330
12E
100
AcDbEntity
  8
09-01
 62
     4
100
AcDbTrace
 10
681.1034866241776
 20
680.803635887526
 30
0.0
 11
682.7701532908443
 21
680.803635887526
 31
0.0
 12
681.936819957511
 22
685.803635887526
 32
0.0
 13
681.936819957511
 23
685.803635887526
 33
0.0
  0
MTEXT
  5
135
330
12E
100
AcDbEntity
  8
09-01
 62
     1
100
AcDbMText
 10
677.4368199575109
 20
461.8036358875261
 30
0.0
 40
5.0
 41
0.0
 46
0.0
 71
     5
 72
     1
  1
448
 11
0.0000000000000001
 21
1.0
 31
0.0
 73
     1
 44
1.0
  0
POINT
  5
136
330
12E
100
AcDbEntity
  8
Defpoints
 62
     0
100
AcDbPoint
 10
663.8748169839509
 20
237.8036358875261
 30
0.0
  0
POINT
  5
137
330
12E
100
AcDbEntity
  8
Defpoints
 62
     0
100
AcDbPoint
 10
664.0748169839508
 20
685.803635887526
 30
0.0
  0
POINT
  5
138
330
12E
100
AcDbEntity
  8
Defpoints
 62
     0
100
AcDbPoint
 10
681.936819957511
 20
685.803635887526
 30
0.0
  0
ENDBLK
  5
139
330
12E
100
AcDbEntity
  8
0
100
AcDbBlockEnd
  0
BLOCK
  5
105
330
104
100
AcDbEntity
  8
0
100
AcDbBlockBegin
  2
Rueckwand-PP111-s
 70
     0
 10
0.0
 20
0.0
 30
0.0
  3
Rueckwand-PP111-s
  1

  0
LINE
  5
106
330
104
100
AcDbEntity
  8
03-01
100
AcDbLine
 10
94.50000000000001
 20
84.50000000000001
 30
0.0
 11
42.5
 21
84.50000000000001
 31
0.0
  0
LINE
  5
10B
330
104
100
AcDbEntity
  8
03-01
100
AcDbLine
 10
39.5
 20
87.5
 30
0.0
 11
39.5
 21
413.0
 31
0.0
  0
ARC
  5
10C
330
104
100
AcDbEntity
  8
03-01
100
AcDbCircle
 10
42.5
 20
87.5
 30
0.0
 40
3.0
100
AcDbArc
 50
180.0
 51
270.0
  0
LINE
  5
10D
330
104
100
AcDbEntity
  8
03-01
100
AcDbLine
 10
36.5
 20
416.0
 30
0.0
 11
7.0
 21
416.0
 31
0.0
  0
ARC
  5
10E
330
104
100
AcDbEntity
  8
03-01
100
AcDbCircle
 10
7.0
 20
417.0
 30
0.0
 40
1.0
100
AcDbArc
 50
180.0
 51
270.0
  0
LINE
  5
10F
330
104
100
AcDbEntity
  8
03-01
100
AcDbLine
 10
6.0
 20
417.0
 30
0.0
 11
6.0
 21
433.0
 31
0.0
  0
ARC
  5
110
330
104
100
AcDbEntity
  8
03-01
100
AcDbCircle
 10
3.0
 20
433.0
 30
0.0
 40
3.0
100
AcDbArc
 50
0.0
 51
90.0
  0
ARC
  5
111
330
104
100
AcDbEntity
  8
03-01
100
AcDbCircle
 10
36.5
 20
413.0
 30
0.0
 40
3.0
100
AcDbArc
 50
0.0
 51
90.0
  0
LINE
  5
112
330
104
100
AcDbEntity
  8
03-01
100
AcDbLine
 10
99.50000000000001
 20
-4.491378028647886
 30
0.0
 11
99.50000000000001
 21
79.5
 31
0.0
  0
ARC
  5
113
330
104
100
AcDbEntity
  8
03-01
100
AcDbCircle
 10
94.50000000000001
 20
79.5
 30
0.0
 40
5.0
100
AcDbArc
 50
0.0
 51
90.0
  0
LINE
  5
114
330
104
100
AcDbEntity
  8
03-01
100
AcDbLine
 10
99.50000000000001
 20
19.5
 30
0.0
 11
25.81804203048796
 21
19.5
 31
0.0
  0
LINE
  5
115
330
104
100
AcDbEntity
  8
03-01
100
AcDbLine
 10
30.0
 20
-9.491378028647886
 30
0.0
 11
94.50000000000001
 21
-9.491378028647886
 31
0.0
  0
ARC
  5
116
330
104
100
AcDbEntity
  8
03-01
100
AcDbCircle
 10
94.50000000000001
 20
-4.491378028647886
 30
0.0
 40
5.0
100
AcDbArc
 50
270.0
 51
0.0
  0
LINE
  5
117
330
104
100
AcDbEntity
  8
03-01
100
AcDbLine
 10
25.0
 20
16.5
 30
0.0
 11
25.0
 21
-4.491378028647886
 31
0.0
  0
ARC
  5
118
330
104
100
AcDbEntity
  8
03-01
100
AcDbCircle
 10
9.0
 20
-2.0
 30
0.0
 40
5.0
100
AcDbArc
 50
270.0
 51
0.0
  0
LINE
  5
119
330
104
100
AcDbEntity
  8
03-01
100
AcDbLine
 10
9.0
 20
-7.0
 30
0.0
 11
-6.0
 21
-7.0
 31
0.0
  0
ARC
  5
11A
330
104
100
AcDbEntity
  8
03-01
100
AcDbCircle
 10
30.0
 20
-4.491378028647886
 30
0.0
 40
5.0
100
AcDbArc
 50
180.0
 51
270.0
  0
ARC
  5
11B
330
104
100
AcDbEntity
  8
03-01
100
AcDbCircle
 10
16.0
 20
16.5
 30
0.0
 40
2.0
100
AcDbArc
 50
90.0
 51
180.0
  0
ARC
  5
11C
330
104
100
AcDbEntity
  8
03-01
100
AcDbCircle
 10
23.0
 20
16.5
 30
0.0
 40
2.0
100
AcDbArc
 50
0.0
 51
90.0
  0
LINE
  5
11D
330
104
100
AcDbEntity
  8
03-01
100
AcDbLine
 10
16.0
 20
18.5
 30
0.0
 11
23.0
 21
18.5
 31
0.0
  0
LINE
  5
11E
330
104
100
AcDbEntity
  8
03-01
100
AcDbLine
 10
14.0
 20
-2.0
 30
0.0
 11
14.0
 21
16.5
 31
0.0
  0
CIRCLE
  5
11F
330
104
100
AcDbEntity
  8
03-01
100
AcDbCircle
 10
0.0
 20
0.0
 30
0.0
 40
1.649999999999999
  0
LINE
  5
120
330
104
100
AcDbEntity
  8
03-01
100
AcDbLine
 10
-7.0
 20
437.0
 30
0.0
 11
-7.0
 21
-7.767326987979686
 31
0.0
  0
LINE
  5
121
330
104
100
AcDbEntity
  8
03-01
100
AcDbLine
 10
-6.0
 20
436.0
 30
0.0
 11
-5.999999999999545
 21
-7.0
 31
0.0
  0
LINE
  5
122
330
104
100
AcDbEntity
  8
0
100
AcDbLine
 10
22.94309961161161
 20
-15.79055634779433
 30
0.0
 11
27.18574029873071
 21
-20.03319703491343
 31
0.0
  0
LINE
  5
123
330
104
100
AcDbEntity
  8
0
100
AcDbLine
 10
23.46073770181738
 20
-14.89398087562586
 30
0.0
 11
27.89284707991737
 21
-19.32609025372676
 31
0.0
  0
LINE
  5
124
330
104
100
AcDbEntity
  8
0
100
AcDbLine
 10
27.89284707991737
 20
-19.32609025372676
 30
0.0
 11
27.18574029873071
 21
-20.03319703491343
 31
0.0
  0
LINE
  5
125
330
104
100
AcDbEntity
  8
0
100
AcDbLine
 10
-7.0
 20
-7.767326987979686
 30
0.0
 11
22.94309961161161
 21
-15.79055634779433
 31
0.0
  0
LINE
  5
126
330
104
100
AcDbEntity
  8
0
100
AcDbLine
 10
-5.999999999999545
 20
-7.0
 30
0.0
 11
23.46073770181738
 21
-14.89398087562586
 31
0.0
  0
LINE
  5
127
330
104
100
AcDbEntity
  8
03-01
100
AcDbLine
 10
9.5
 20
437.0
 30
0.0
 11
-7.0
 21
437.0
 31
0.0
  0
LINE
  5
128
330
104
100
AcDbEntity
  8
03-01
100
AcDbLine
 10
8.5
 20
436.0
 30
0.0
 11
-6.0
 21
436.0
 31
0.0
  0
LINE
  5
129
330
104
100
AcDbEntity
  8
03-01
100
AcDbLine
 10
9.5
 20
437.0
 30
0.0
 11
9.5
 21
427.0
 31
0.0
  0
LINE
  5
12A
330
104
100
AcDbEntity
  8
03-01
100
AcDbLine
 10
8.5
 20
436.0
 30
0.0
 11
8.5
 21
427.0
 31
0.0
  0
LINE
  5
12B
330
104
100
AcDbEntity
  8
03-01
100
AcDbLine
 10
9.5
 20
427.0
 30
0.0
 11
8.5
 21
427.0
 31
0.0
  0
ENDBLK
  5
12C
330
104
100
AcDbEntity
  8
0
100
AcDbBlockEnd
  0
BLOCK
  5
F8
330
F7
100
AcDbEntity
  8
0
100
AcDbBlockBegin
  2
*D14
 70
     1
 10
0.0
 20
0.0
 30
0.0
  3
*D14
  1

  0
LINE
  5
F9
330
F7
100
AcDbEntity
  8
09-01
 62
     4
370
    -2
100
AcDbLine
 10
395.7549019500175
 20
667.3036358875251
 30
0.0
 11
444.9457931425282
 21
667.3036358875251
 31
0.0
  0
LINE
  5
FA
330
F7
100
AcDbEntity
  8
09-01
 62
     4
370
    -2
100
AcDbLine
 10
395.7549019500175
 20
272.3036358875252
 30
0.0
 11
444.9457931425281
 21
272.3036358875252
 31
0.0
  0
LINE
  5
FB
330
F7
100
AcDbEntity
  8
09-01
 62
     4
370
    -2
100
AcDbLine
 10
442.9457931425282
 20
662.3036358875252
 30
0.0
 11
442.9457931425281
 21
277.3036358875252
 31
0.0
  0
SOLID
  5
FC
330
F7
100
AcDbEntity
  8
09-01
 62
     4
100
AcDbTrace
 10
442.1124598091949
 20
662.3036358875252
 30
0.0
 11
443.7791264758615
 21
662.3036358875252
 31
0.0
 12
442.9457931425282
 22
667.3036358875251
 32
0.0
 13
442.9457931425282
 23
667.3036358875251
 33
0.0
  0
SOLID
  5
FD
330
F7
100
AcDbEntity
  8
09-01
 62
     4
100
AcDbTrace
 10
442.1124598091948
 20
277.3036358875252
 30
0.0
 11
443.7791264758614
 21
277.3036358875252
 31
0.0
 12
442.9457931425281
 22
272.3036358875252
 32
0.0
 13
442.9457931425281
 23
272.3036358875252
 33
0.0
  0
MTEXT
  5
FE
330
F7
100
AcDbEntity
  8
09-01
 62
     1
100
AcDbMText
 10
438.4457931425281
 20
469.8036358875253
 30
0.0
 40
5.0
 41
0.0
 46
0.0
 71
     5
 72
     1
  1
395
 11
0.0000000000000001
 21
1.0
 31
0.0
 73
     1
 44
1.0
  0
POINT
  5
FF
330
F7
100
AcDbEntity
  8
Defpoints
 62
     0
100
AcDbPoint
 10
393.7549019500175
 20
667.3036358875251
 30
0.0
  0
POINT
  5
100
330
F7
100
AcDbEntity
  8
Defpoints
 62
     0
100
AcDbPoint
 10
393.7549019500175
 20
272.3036358875252
 30
0.0
  0
POINT
  5
101
330
F7
100
AcDbEntity
  8
Defpoints
 62
     0
100
AcDbPoint
 10
442.9457931425281
 20
272.3036358875252
 30
0.0
  0
ENDBLK
  5
102
330
F7
100
AcDbEntity
  8
0
100
AcDbBlockEnd
  0
BLOCK
  5
EB
330
EA
100
AcDbEntity
  8
0
100
AcDbBlockBegin
  2
*D15
 70
     1
 10
0.0
 20
0.0
 30
0.0
  3
*D15
  1

  0
LINE
  5
EC
330
EA
100
AcDbEntity
  8
09-01
 62
     4
370
    -2
100
AcDbLine
 10
395.7549019500175
 20
272.3036358875252
 30
0.0
 11
444.9457931425281
 21
272.3036358875252
 31
0.0
  0
LINE
  5
ED
330
EA
100
AcDbEntity
  8
09-01
 62
     4
370
    -2
100
AcDbLine
 10
412.5726671069137
 20
237.8036358875261
 30
0.0
 11
444.9457931425281
 21
237.8036358875261
 31
0.0
  0
LINE
  5
EE
330
EA
100
AcDbEntity
  8
09-01
 62
     4
370
    -2
100
AcDbLine
 10
442.9457931425281
 20
267.3036358875251
 30
0.0
 11
442.9457931425281
 21
242.8036358875261
 31
0.0
  0
SOLID
  5
EF
330
EA
100
AcDbEntity
  8
09-01
 62
     4
100
AcDbTrace
 10
442.1124598091948
 20
267.3036358875251
 30
0.0
 11
443.7791264758614
 21
267.3036358875251
 31
0.0
 12
442.9457931425281
 22
272.3036358875252
 32
0.0
 13
442.9457931425281
 23
272.3036358875252
 33
0.0
  0
SOLID
  5
F0
330
EA
100
AcDbEntity
  8
09-01
 62
     4
100
AcDbTrace
 10
442.1124598091948
 20
242.8036358875261
 30
0.0
 11
443.7791264758614
 21
242.8036358875261
 31
0.0
 12
442.9457931425281
 22
237.8036358875261
 32
0.0
 13
442.9457931425281
 23
237.8036358875261
 33
0.0
  0
MTEXT
  5
F1
330
EA
100
AcDbEntity
  8
09-01
 62
     1
100
AcDbMText
 10
438.4457931425281
 20
255.0536358875257
 30
0.0
 40
5.0
 41
0.0
 46
0.0
 71
     5
 72
     1
  1
34.5
 11
0.0000000000000001
 21
1.0
 31
0.0
 73
     1
 44
1.0
  0
POINT
  5
F2
330
EA
100
AcDbEntity
  8
Defpoints
 62
     0
100
AcDbPoint
 10
393.7549019500175
 20
272.3036358875252
 30
0.0
  0
POINT
  5
F3
330
EA
100
AcDbEntity
  8
Defpoints
 62
     0
100
AcDbPoint
 10
410.5726671069137
 20
237.8036358875261
 30
0.0
  0
POINT
  5
F4
330
EA
100
AcDbEntity
  8
Defpoints
 62
     0
100
AcDbPoint
 10
442.9457931425281
 20
237.8036358875261
 30
0.0
  0
ENDBLK
  5
F5
330
EA
100
AcDbEntity
  8
0
100
AcDbBlockEnd
  0
BLOCK
  5
DE
330
DD
100
AcDbEntity
  8
0
100
AcDbBlockBegin
  2
*D16
 70
     1
 10
0.0
 20
0.0
 30
0.0
  3
*D16
  1

  0
LINE
  5
DF
330
DD
100
AcDbEntity
  8
09-01
 62
     4
370
    -2
100
AcDbLine
 10
410.5726671069137
 20
235.8036358875261
 30
0.0
 11
410.5726671069137
 21
199.7325052194574
 31
0.0
  0
LINE
  5
E0
330
DD
100
AcDbEntity
  8
09-01
 62
     4
370
    -2
100
AcDbLine
 10
390.2549019500175
 20
251.0536358875252
 30
0.0
 11
390.2549019500175
 21
199.7325052194574
 31
0.0
  0
LINE
  5
E1
330
DD
100
AcDbEntity
  8
09-01
 62
     4
370
    -2
100
AcDbLine
 10
405.5726671069137
 20
201.7325052194574
 30
0.0
 11
395.2549019500175
 21
201.7325052194574
 31
0.0
  0
SOLID
  5
E2
330
DD
100
AcDbEntity
  8
09-01
 62
     4
100
AcDbTrace
 10
405.5726671069137
 20
202.5658385527907
 30
0.0
 11
405.5726671069137
 21
200.899171886124
 31
0.0
 12
410.5726671069137
 22
201.7325052194574
 32
0.0
 13
410.5726671069137
 23
201.7325052194574
 33
0.0
  0
SOLID
  5
E3
330
DD
100
AcDbEntity
  8
09-01
 62
     4
100
AcDbTrace
 10
395.2549019500175
 20
202.5658385527907
 30
0.0
 11
395.2549019500175
 21
200.899171886124
 31
0.0
 12
390.2549019500175
 22
201.7325052194574
 32
0.0
 13
390.2549019500175
 23
201.7325052194574
 33
0.0
  0
MTEXT
  5
E4
330
DD
100
AcDbEntity
  8
09-01
 62
     1
100
AcDbMText
 10
400.4137845284656
 20
206.2325052194574
 30
0.0
 40
5.0
 41
0.0
 46
0.0
 71
     5
 72
     1
  1
20.3
 73
     1
 44
1.0
  0
POINT
  5
E5
330
DD
100
AcDbEntity
  8
Defpoints
 62
     0
100
AcDbPoint
 10
410.5726671069137
 20
237.8036358875261
 30
0.0
  0
POINT
  5
E6
330
DD
100
AcDbEntity
  8
Defpoints
 62
     0
100
AcDbPoint
 10
390.2549019500175
 20
253.0536358875252
 30
0.0
  0
POINT
  5
E7
330
DD
100
AcDbEntity
  8
Defpoints
 62
     0
100
AcDbPoint
 10
390.2549019500175
 20
201.7325052194574
 30
0.0
  0
ENDBLK
  5
E8
330
DD
100
AcDbEntity
  8
0
100
AcDbBlockEnd
  0
BLOCK
  5
D1
330
D0
100
AcDbEntity
  8
0
100
AcDbBlockBegin
  2
*D17
 70
     1
 10
0.0
 20
0.0
 30
0.0
  3
*D17
  1

  0
LINE
  5
D2
330
D0
100
AcDbEntity
  8
09-01
 62
     4
370
    -2
100
AcDbLine
 10
390.2549019500175
 20
251.0536358875252
 30
0.0
 11
390.2549019500175
 21
199.7325052194574
 31
0.0
  0
LINE
  5
D3
330
D0
100
AcDbEntity
  8
09-01
 62
     4
370
    -2
100
AcDbLine
 10
166.2904322638087
 20
251.0536358875252
 30
0.0
 11
166.2904322638087
 21
199.7325052194574
 31
0.0
  0
LINE
  5
D4
330
D0
100
AcDbEntity
  8
09-01
 62
     4
370
    -2
100
AcDbLine
 10
385.2549019500175
 20
201.7325052194574
 30
0.0
 11
171.2904322638087
 21
201.7325052194574
 31
0.0
  0
SOLID
  5
D5
330
D0
100
AcDbEntity
  8
09-01
 62
     4
100
AcDbTrace
 10
385.2549019500175
 20
202.5658385527907
 30
0.0
 11
385.2549019500175
 21
200.899171886124
 31
0.0
 12
390.2549019500175
 22
201.7325052194574
 32
0.0
 13
390.2549019500175
 23
201.7325052194574
 33
0.0
  0
SOLID
  5
D6
330
D0
100
AcDbEntity
  8
09-01
 62
     4
100
AcDbTrace
 10
171.2904322638087
 20
202.5658385527907
 30
0.0
 11
171.2904322638087
 21
200.899171886124
 31
0.0
 12
166.2904322638087
 22
201.7325052194574
 32
0.0
 13
166.2904322638087
 23
201.7325052194574
 33
0.0
  0
MTEXT
  5
D7
330
D0
100
AcDbEntity
  8
09-01
 62
     1
100
AcDbMText
 10
278.2726671069131
 20
206.2325052194574
 30
0.0
 40
5.0
 41
0.0
 46
0.0
 71
     5
 72
     1
  1
224
 73
     1
 44
1.0
  0
POINT
  5
D8
330
D0
100
AcDbEntity
  8
Defpoints
 62
     0
100
AcDbPoint
 10
390.2549019500175
 20
253.0536358875252
 30
0.0
  0
POINT
  5
D9
330
D0
100
AcDbEntity
  8
Defpoints
 62
     0
100
AcDbPoint
 10
166.2904322638087
 20
253.0536358875252
 30
0.0
  0
POINT
  5
DA
330
D0
100
AcDbEntity
  8
Defpoints
 62
     0
100
AcDbPoint
 10
166.2904322638087
 20
201.7325052194574
 30
0.0
  0
ENDBLK
  5
DB
330
D0
100
AcDbEntity
  8
0
100
AcDbBlockEnd
  0
BLOCK
  5
C4
330
C3
100
AcDbEntity
  8
0
100
AcDbBlockBegin
  2
*D18
 70
     1
 10
0.0
 20
0.0
 30
0.0
  3
*D18
  1

  0
LINE
  5
C5
330
C3
100
AcDbEntity
  8
09-01
 62
     4
370
    -2
100
AcDbLine
 10
166.2904322638087
 20
251.0536358875252
 30
0.0
 11
166.2904322638087
 21
199.7325052194574
 31
0.0
  0
LINE
  5
C6
330
C3
100
AcDbEntity
  8
09-01
 62
     4
370
    -2
100
AcDbLine
 10
145.9726671069129
 20
235.8036358875261
 30
0.0
 11
145.9726671069129
 21
199.7325052194574
 31
0.0
  0
LINE
  5
C7
330
C3
100
AcDbEntity
  8
09-01
 62
     4
370
    -2
100
AcDbLine
 10
161.2904322638087
 20
201.7325052194574
 30
0.0
 11
150.9726671069129
 21
201.7325052194574
 31
0.0
  0
SOLID
  5
C8
330
C3
100
AcDbEntity
  8
09-01
 62
     4
100
AcDbTrace
 10
161.2904322638087
 20
202.5658385527907
 30
0.0
 11
161.2904322638087
 21
200.899171886124
 31
0.0
 12
166.2904322638087
 22
201.7325052194574
 32
0.0
 13
166.2904322638087
 23
201.7325052194574
 33
0.0
  0
SOLID
  5
C9
330
C3
100
AcDbEntity
  8
09-01
 62
     4
100
AcDbTrace
 10
150.9726671069129
 20
202.5658385527907
 30
0.0
 11
150.9726671069129
 21
200.899171886124
 31
0.0
 12
145.9726671069129
 22
201.7325052194574
 32
0.0
 13
145.9726671069129
 23
201.7325052194574
 33
0.0
  0
MTEXT
  5
CA
330
C3
100
AcDbEntity
  8
09-01
 62
     1
100
AcDbMText
 10
156.1315496853608
 20
206.2325052194574
 30
0.0
 40
5.0
 41
0.0
 46
0.0
 71
     5
 72
     1
  1
20.3
 73
     1
 44
1.0
  0
POINT
  5
CB
330
C3
100
AcDbEntity
  8
Defpoints
 62
     0
100
AcDbPoint
 10
166.2904322638087
 20
253.0536358875252
 30
0.0
  0
POINT
  5
CC
330
C3
100
AcDbEntity
  8
Defpoints
 62
     0
100
AcDbPoint
 10
145.9726671069129
 20
237.8036358875261
 30
0.0
  0
POINT
  5
CD
330
C3
100
AcDbEntity
  8
Defpoints
 62
     0
100
AcDbPoint
 10
145.9726671069129
 20
201.7325052194574
 30
0.0
  0
ENDBLK
  5
CE
330
C3
100
AcDbEntity
  8
0
100
AcDbBlockEnd
  0
BLOCK
  5
B5
330
B4
100
AcDbEntity
  8
0
100
AcDbBlockBegin
  2
*D19
 70
     1
 10
0.0
 20
0.0
 30
0.0
  3
*D19
  1

  0
LINE
  5
B6
330
B4
100
AcDbEntity
  8
09-01
 62
     4
370
    -2
100
AcDbLine
 10
171.7904322638087
 20
667.3036358875251
 30
0.0
 11
190.8841285766325
 21
667.3036358875251
 31
0.0
  0
LINE
  5
B7
330
B4
100
AcDbEntity
  8
09-01
 62
     4
370
    -2
100
AcDbLine
 10
175.5404322638087
 20
655.3036358875251
 30
0.0
 11
190.8841285766325
 21
655.3036358875251
 31
0.0
  0
LINE
  5
B8
330
B4
100
AcDbEntity
  8
09-01
 62
     4
370
    -2
100
AcDbLine
 10
188.8841285766325
 20
672.3036358875251
 30
0.0
 11
188.8841285766325
 21
677.3036358875251
 31
0.0
  0
LINE
  5
B9
330
B4
100
AcDbEntity
  8
09-01
 62
     4
370
    -2
100
AcDbLine
 10
188.8841285766325
 20
650.3036358875251
 30
0.0
 11
188.8841285766325
 21
645.3036358875252
 31
0.0
  0
LINE
  5
BA
330
B4
100
AcDbEntity
  8
09-01
 62
     4
370
    -2
100
AcDbLine
 10
188.8841285766325
 20
667.3036358875251
 30
0.0
 11
188.8841285766325
 21
655.3036358875251
 31
0.0
  0
SOLID
  5
BB
330
B4
100
AcDbEntity
  8
09-01
 62
     4
100
AcDbTrace
 10
188.0507952432991
 20
672.3036358875251
 30
0.0
 11
189.7174619099658
 21
672.3036358875251
 31
0.0
 12
188.8841285766325
 22
667.3036358875251
 32
0.0
 13
188.8841285766325
 23
667.3036358875251
 33
0.0
  0
SOLID
  5
BC
330
B4
100
AcDbEntity
  8
09-01
 62
     4
100
AcDbTrace
 10
188.0507952432991
 20
650.3036358875251
 30
0.0
 11
189.7174619099658
 21
650.3036358875251
 31
0.0
 12
188.8841285766325
 22
655.3036358875251
 32
0.0
 13
188.8841285766325
 23
655.3036358875251
 33
0.0
  0
MTEXT
  5
BD
330
B4
100
AcDbEntity
  8
09-01
 62
     1
100
AcDbMText
 10
184.3841285766324
 20
661.3036358875251
 30
0.0
 40
5.0
 41
0.0
 46
0.0
 71
     5
 72
     1
  1
12
 11
0.0000000000000001
 21
1.0
 31
0.0
 73
     1
 44
1.0
  0
POINT
  5
BE
330
B4
100
AcDbEntity
  8
Defpoints
 62
     0
100
AcDbPoint
 10
169.7904322638087
 20
667.3036358875251
 30
0.0
  0
POINT
  5
BF
330
B4
100
AcDbEntity
  8
Defpoints
 62
     0
100
AcDbPoint
 10
173.5404322638087
 20
655.3036358875251
 30
0.0
  0
POINT
  5
C0
330
B4
100
AcDbEntity
  8
Defpoints
 62
     0
100
AcDbPoint
 10
188.8841285766325
 20
655.3036358875251
 30
0.0
  0
ENDBLK
  5
C1
330
B4
100
AcDbEntity
  8
0
100
AcDbBlockEnd
  0
BLOCK
  5
A6
330
A5
100
AcDbEntity
  8
0
100
AcDbBlockBegin
  2
*D20
 70
     1
 10
0.0
 20
0.0
 30
0.0
  3
*D20
  1

  0
LINE
  5
A7
330
A5
100
AcDbEntity
  8
09-01
 62
     4
370
    -2
100
AcDbLine
 10
160.0404322638087
 20
653.3036358875251
 30
0.0
 11
160.0404322638087
 21
633.9922483337363
 31
0.0
  0
LINE
  5
A8
330
A5
100
AcDbEntity
  8
09-01
 62
     4
370
    -2
100
AcDbLine
 10
172.5404322638087
 20
653.3036358875251
 30
0.0
 11
172.5404322638087
 21
633.9922483337363
 31
0.0
  0
LINE
  5
A9
330
A5
100
AcDbEntity
  8
09-01
 62
     4
370
    -2
100
AcDbLine
 10
155.0404322638087
 20
635.9922483337363
 30
0.0
 11
150.0404322638087
 21
635.9922483337363
 31
0.0
  0
LINE
  5
AA
330
A5
100
AcDbEntity
  8
09-01
 62
     4
370
    -2
100
AcDbLine
 10
177.5404322638087
 20
635.9922483337363
 30
0.0
 11
182.5404322638087
 21
635.9922483337363
 31
0.0
  0
MTEXT
  5
AB
330
A5
100
AcDbEntity
  8
09-01
 62
     1
100
AcDbMText
 10
185.4223446361902
 20
640.2665573489835
 30
0.0
 40
5.0
 41
0.0
 46
0.0
 71
     5
 72
     1
  1
12.5
 73
     1
 44
1.0
  0
LINE
  5
AC
330
A5
100
AcDbEntity
  8
09-01
 62
     4
370
    -2
100
AcDbLine
 10
160.0404322638087
 20
635.9922483337363
 30
0.0
 11
172.5404322638087
 21
635.9922483337363
 31
0.0
  0
SOLID
  5
AD
330
A5
100
AcDbEntity
  8
09-01
 62
     4
100
AcDbTrace
 10
155.0404322638087
 20
636.8255816670697
 30
0.0
 11
155.0404322638087
 21
635.158915000403
 31
0.0
 12
160.0404322638087
 22
635.9922483337363
 32
0.0
 13
160.0404322638087
 23
635.9922483337363
 33
0.0
  0
SOLID
  5
AE
330
A5
100
AcDbEntity
  8
09-01
 62
     4
100
AcDbTrace
 10
177.5404322638087
 20
636.8255816670697
 30
0.0
 11
177.5404322638087
 21
635.158915000403
 31
0.0
 12
172.5404322638087
 22
635.9922483337363
 32
0.0
 13
172.5404322638087
 23
635.9922483337363
 33
0.0
  0
POINT
  5
AF
330
A5
100
AcDbEntity
  8
Defpoints
 62
     0
100
AcDbPoint
 10
160.0404322638087
 20
655.3036358875251
 30
0.0
  0
POINT
  5
B0
330
A5
100
AcDbEntity
  8
Defpoints
 62
     0
100
AcDbPoint
 10
172.5404322638087
 20
655.3036358875251
 30
0.0
  0
POINT
  5
B1
330
A5
100
AcDbEntity
  8
Defpoints
 62
     0
100
AcDbPoint
 10
172.5404322638087
 20
635.9922483337363
 30
0.0
  0
ENDBLK
  5
B2
330
A5
100
AcDbEntity
  8
0
100
AcDbBlockEnd
  0
BLOCK
  5
99
330
98
100
AcDbEntity
  8
0
100
AcDbBlockBegin
  2
*D21
 70
     1
 10
0.0
 20
0.0
 30
0.0
  3
*D21
  1

  0
LINE
  5
9A
330
98
100
AcDbEntity
  8
09-01
 62
     4
370
    -2
100
AcDbLine
 10
143.9726671069129
 20
685.8036358875251
 30
0.0
 11
130.6284570033199
 21
685.8036358875251
 31
0.0
  0
LINE
  5
9B
330
98
100
AcDbEntity
  8
09-01
 62
     4
370
    -2
100
AcDbLine
 10
160.7726671069131
 20
667.3036358875251
 30
0.0
 11
130.6284570033199
 21
667.3036358875251
 31
0.0
  0
LINE
  5
9C
330
98
100
AcDbEntity
  8
09-01
 62
     4
370
    -2
100
AcDbLine
 10
132.6284570033199
 20
680.8036358875251
 30
0.0
 11
132.6284570033199
 21
672.3036358875251
 31
0.0
  0
SOLID
  5
9D
330
98
100
AcDbEntity
  8
09-01
 62
     4
100
AcDbTrace
 10
131.7951236699865
 20
680.8036358875251
 30
0.0
 11
133.4617903366532
 21
680.8036358875251
 31
0.0
 12
132.6284570033199
 22
685.8036358875251
 32
0.0
 13
132.6284570033199
 23
685.8036358875251
 33
0.0
  0
SOLID
  5
9E
330
98
100
AcDbEntity
  8
09-01
 62
     4
100
AcDbTrace
 10
131.7951236699865
 20
672.3036358875251
 30
0.0
 11
133.4617903366532
 21
672.3036358875251
 31
0.0
 12
132.6284570033199
 22
667.3036358875251
 32
0.0
 13
132.6284570033199
 23
667.3036358875251
 33
0.0
  0
MTEXT
  5
9F
330
98
100
AcDbEntity
  8
09-01
 62
     1
100
AcDbMText
 10
128.1284570033198
 20
676.5536358875252
 30
0.0
 40
5.0
 41
0.0
 46
0.0
 71
     5
 72
     1
  1
18.5
 11
0.0000000000000001
 21
1.0
 31
0.0
 73
     1
 44
1.0
  0
POINT
  5
A0
330
98
100
AcDbEntity
  8
Defpoints
 62
     0
100
AcDbPoint
 10
145.9726671069129
 20
685.8036358875251
 30
0.0
  0
POINT
  5
A1
330
98
100
AcDbEntity
  8
Defpoints
 62
     0
100
AcDbPoint
 10
162.7726671069131
 20
667.3036358875251
 30
0.0
  0
POINT
  5
A2
330
98
100
AcDbEntity
  8
Defpoints
 62
     0
100
AcDbPoint
 10
132.6284570033199
 20
667.3036358875251
 30
0.0
  0
ENDBLK
  5
A3
330
98
100
AcDbEntity
  8
0
100
AcDbBlockEnd
  0
BLOCK
  5
8C
330
8B
100
AcDbEntity
  8
0
100
AcDbBlockBegin
  2
*D22
 70
     1
 10
0.0
 20
0.0
 30
0.0
  3
*D22
  1

  0
LINE
  5
8D
330
8B
100
AcDbEntity
  8
09-01
 62
     4
370
    -2
100
AcDbLine
 10
160.7726671069131
 20
667.3036358875251
 30
0.0
 11
130.62845700332
 21
667.3036358875251
 31
0.0
  0
LINE
  5
8E
330
8B
100
AcDbEntity
  8
09-01
 62
     4
370
    -2
100
AcDbLine
 10
160.7726671069131
 20
260.3036358875252
 30
0.0
 11
130.6284570033199
 21
260.3036358875252
 31
0.0
  0
LINE
  5
8F
330
8B
100
AcDbEntity
  8
09-01
 62
     4
370
    -2
100
AcDbLine
 10
132.62845700332
 20
662.3036358875252
 30
0.0
 11
132.6284570033199
 21
265.3036358875251
 31
0.0
  0
SOLID
  5
90
330
8B
100
AcDbEntity
  8
09-01
 62
     4
100
AcDbTrace
 10
131.7951236699866
 20
662.3036358875252
 30
0.0
 11
133.4617903366533
 21
662.3036358875252
 31
0.0
 12
132.62845700332
 22
667.3036358875251
 32
0.0
 13
132.62845700332
 23
667.3036358875251
 33
0.0
  0
SOLID
  5
91
330
8B
100
AcDbEntity
  8
09-01
 62
     4
100
AcDbTrace
 10
131.7951236699865
 20
265.3036358875251
 30
0.0
 11
133.4617903366532
 21
265.3036358875251
 31
0.0
 12
132.6284570033199
 22
260.3036358875252
 32
0.0
 13
132.6284570033199
 23
260.3036358875252
 33
0.0
  0
MTEXT
  5
92
330
8B
100
AcDbEntity
  8
09-01
 62
     1
100
AcDbMText
 10
128.1284570033198
 20
463.8036358875251
 30
0.0
 40
5.0
 41
0.0
 46
0.0
 71
     5
 72
     1
  1
407
 11
0.0000000000000001
 21
1.0
 31
0.0
 73
     1
 44
1.0
  0
POINT
  5
93
330
8B
100
AcDbEntity
  8
Defpoints
 62
     0
100
AcDbPoint
 10
162.7726671069131
 20
667.3036358875251
 30
0.0
  0
POINT
  5
94
330
8B
100
AcDbEntity
  8
Defpoints
 62
     0
100
AcDbPoint
 10
162.7726671069131
 20
260.3036358875252
 30
0.0
  0
POINT
  5
95
330
8B
100
AcDbEntity
  8
Defpoints
 62
     0
100
AcDbPoint
 10
132.6284570033199
 20
260.3036358875252
 30
0.0
  0
ENDBLK
  5
96
330
8B
100
AcDbEntity
  8
0
100
AcDbBlockEnd
  0
BLOCK
  5
7B
330
7A
100
AcDbEntity
  8
0
100
AcDbBlockBegin
  2
*D23
 70
     1
 10
0.0
 20
0.0
 30
0.0
  3
*D23
  1

  0
LINE
  5
7C
330
7A
100
AcDbEntity
  8
09-01
 62
     4
370
    -2
100
AcDbLine
 10
163.7726671069131
 20
275.1276043374432
 30
0.0
 11
163.7726671069131
 21
287.041008201272
 31
0.0
  0
LINE
  5
7D
330
7A
100
AcDbEntity
  8
09-01
 62
     4
370
    -2
100
AcDbLine
 10
168.7726671069131
 20
275.1276043374432
 30
0.0
 11
168.7726671069131
 21
287.041008201272
 31
0.0
  0
LINE
  5
7E
330
7A
100
AcDbEntity
  8
09-01
 62
     4
370
    -2
100
AcDbLine
 10
158.7726671069131
 20
285.041008201272
 30
0.0
 11
153.7726671069131
 21
285.041008201272
 31
0.0
  0
LINE
  5
7F
330
7A
100
AcDbEntity
  8
09-01
 62
     4
370
    -2
100
AcDbLine
 10
173.7726671069131
 20
285.041008201272
 30
0.0
 11
178.7726671069131
 21
285.041008201272
 31
0.0
  0
LINE
  5
80
330
7A
100
AcDbEntity
  8
09-01
 62
     4
370
    -2
100
AcDbLine
 10
163.7726671069131
 20
285.041008201272
 30
0.0
 11
168.7726671069131
 21
285.041008201272
 31
0.0
  0
SOLID
  5
81
330
7A
100
AcDbEntity
  8
09-01
 62
     4
100
AcDbTrace
 10
158.7726671069131
 20
285.8743415346053
 30
0.0
 11
158.7726671069131
 21
284.2076748679387
 31
0.0
 12
163.7726671069131
 22
285.041008201272
 32
0.0
 13
163.7726671069131
 23
285.041008201272
 33
0.0
  0
SOLID
  5
82
330
7A
100
AcDbEntity
  8
09-01
 62
     4
100
AcDbTrace
 10
173.7726671069131
 20
285.8743415346053
 30
0.0
 11
173.7726671069131
 21
284.2076748679387
 31
0.0
 12
168.7726671069131
 22
285.041008201272
 32
0.0
 13
168.7726671069131
 23
285.041008201272
 33
0.0
  0
MTEXT
  5
83
330
7A
100
AcDbEntity
  8
09-01
 62
     1
100
AcDbMText
 10
166.2726671069131
 20
289.541008201272
 30
0.0
 40
5.0
 41
0.0
 46
0.0
 71
     5
 72
     1
  1
5
 73
     1
 44
1.0
  0
POINT
  5
84
330
7A
100
AcDbEntity
  8
Defpoints
 62
     0
100
AcDbPoint
 10
163.7726671069131
 20
273.1276043374432
 30
0.0
  0
POINT
  5
86
330
7A
100
AcDbEntity
  8
Defpoints
 62
     0
100
AcDbPoint
 10
168.7726671069131
 20
273.1276043374432
 30
0.0
  0
POINT
  5
87
330
7A
100
AcDbEntity
  8
Defpoints
 62
     0
100
AcDbPoint
 10
168.7726671069131
 20
285.041008201272
 30
0.0
  0
ENDBLK
  5
88
330
7A
100
AcDbEntity
  8
0
100
AcDbBlockEnd
  0
ENDSEC
  0
SECTION
  2
ENTITIES
  0
DIMENSION
  5
79
330
2
100
AcDbEntity
  8
09-01
100
AcDbDimension
280
     0
  2
*D23
 10
168.7726671069131
 20
285.041008201272
 30
0.0
 11
166.2726671069131
 21
289.541008201272
 31
0.0
 71
     5
 42
5.0
 73
     0
 74
     0
 75
     0
  3
Wagner$0
100
AcDbAlignedDimension
 13
163.7726671069131
 23
273.1276043374432
 33
0.0
 14
168.7726671069131
 24
273.1276043374432
 34
0.0
100
AcDbRotatedDimension
1001
ACAD
1000
DSTYLE
1002
{
1070
    40
1040
2.0
1002
}
  0
DIMENSION
  5
8A
330
2
100
AcDbEntity
  8
09-01
100
AcDbDimension
280
     0
  2
*D22
 10
132.6284570033199
 20
260.3036358875252
 30
0.0
 11
128.1284570033198
 21
463.8036358875251
 31
0.0
 71
     5
 42
406.9999999999999
 73
     0
 74
     0
 75
     0
  3
Wagner$0
100
AcDbAlignedDimension
 13
162.7726671069131
 23
667.3036358875251
 33
0.0
 14
162.7726671069131
 24
260.3036358875252
 34
0.0
 50
90.0
100
AcDbRotatedDimension
1001
ACAD
1000
DSTYLE
1002
{
1070
    40
1040
2.0
1002
}
  0
DIMENSION
  5
97
330
2
100
AcDbEntity
  8
09-01
100
AcDbDimension
280
     0
  2
*D21
 10
132.6284570033199
 20
667.3036358875251
 30
0.0
 11
128.1284570033198
 21
676.5536358875252
 31
0.0
 71
     5
 42
18.5
 73
     0
 74
     0
 75
     0
  3
Wagner$0
100
AcDbAlignedDimension
 13
145.9726671069129
 23
685.8036358875251
 33
0.0
 14
162.7726671069131
 24
667.3036358875251
 34
0.0
 50
90.0
100
AcDbRotatedDimension
1001
ACAD
1000
DSTYLE
1002
{
1070
    40
1040
2.0
1002
}
  0
DIMENSION
  5
A4
330
2
100
AcDbEntity
  8
09-01
100
AcDbDimension
280
     0
  2
*D20
 10
172.5404322638087
 20
635.9922483337363
 30
0.0
 11
185.4223446361902
 21
640.2665573489835
 31
0.0
 70
   128
 71
     5
 42
12.5
 73
     0
 74
     0
 75
     0
  3
Wagner$0
100
AcDbAlignedDimension
 13
160.0404322638087
 23
655.3036358875251
 33
0.0
 14
172.5404322638087
 24
655.3036358875251
 34
0.0
100
AcDbRotatedDimension
1001
ACAD
1000
DSTYLE
1002
{
1070
    40
1040
2.0
1002
}
  0
DIMENSION
  5
B3
330
2
100
AcDbEntity
  8
09-01
100
AcDbDimension
280
     0
  2
*D19
 10
188.8841285766325
 20
655.3036358875251
 30
0.0
 11
184.3841285766324
 21
661.3036358875251
 31
0.0
 71
     5
 42
12.0
 73
     0
 74
     0
 75
     0
  3
Wagner$0
100
AcDbAlignedDimension
 13
169.7904322638087
 23
667.3036358875251
 33
0.0
 14
173.5404322638087
 24
655.3036358875251
 34
0.0
 50
90.0
100
AcDbRotatedDimension
1001
ACAD
1000
DSTYLE
1002
{
1070
    40
1040
2.0
1002
}
  0
DIMENSION
  5
C2
330
2
100
AcDbEntity
  8
09-01
100
AcDbDimension
280
     0
  2
*D18
 10
145.9726671069129
 20
201.7325052194574
 30
0.0
 11
156.1315496853608
 21
206.2325052194574
 31
0.0
 71
     5
 42
20.3177651568958
 73
     0
 74
     0
 75
     0
  3
Wagner$0
100
AcDbAlignedDimension
 13
166.2904322638087
 23
253.0536358875252
 33
0.0
 14
145.9726671069129
 24
237.8036358875261
 34
0.0
100
AcDbRotatedDimension
1001
ACAD
1000
DSTYLE
1002
{
1070
    40
1040
2.0
1070
   271
1070
     1
1002
}
  0
DIMENSION
  5
CF
330
2
100
AcDbEntity
  8
09-01
100
AcDbDimension
280
     0
  2
*D17
 10
166.2904322638087
 20
201.7325052194574
 30
0.0
 11
278.2726671069131
 21
206.2325052194574
 31
0.0
 71
     5
 42
223.9644696862088
 73
     0
 74
     0
 75
     0
  3
Wagner$0
100
AcDbAlignedDimension
 13
390.2549019500175
 23
253.0536358875252
 33
0.0
 14
166.2904322638087
 24
253.0536358875252
 34
0.0
100
AcDbRotatedDimension
1001
ACAD
1000
DSTYLE
1002
{
1070
    40
1040
2.0
1070
   271
1070
     1
1002
}
  0
DIMENSION
  5
DC
330
2
100
AcDbEntity
  8
09-01
100
AcDbDimension
280
     0
  2
*D16
 10
390.2549019500175
 20
201.7325052194574
 30
0.0
 11
400.4137845284656
 21
206.2325052194574
 31
0.0
 71
     5
 42
20.31776515689626
 73
     0
 74
     0
 75
     0
  3
Wagner$0
100
AcDbAlignedDimension
 13
410.5726671069137
 23
237.8036358875261
 33
0.0
 14
390.2549019500175
 24
253.0536358875252
 34
0.0
100
AcDbRotatedDimension
1001
ACAD
1000
DSTYLE
1002
{
1070
    40
1040
2.0
1070
   271
1070
     1
1002
}
  0
DIMENSION
  5
E9
330
2
100
AcDbEntity
  8
09-01
100
AcDbDimension
280
     0
  2
*D15
 10
442.9457931425281
 20
237.8036358875261
 30
0.0
 11
438.4457931425281
 21
255.0536358875257
 31
0.0
 71
     5
 42
34.49999999999912
 73
     0
 74
     0
 75
     0
  3
Wagner$0
100
AcDbAlignedDimension
 13
393.7549019500175
 23
272.3036358875252
 33
0.0
 14
410.5726671069137
 24
237.8036358875261
 34
0.0
 50
90.0
100
AcDbRotatedDimension
1001
ACAD
1000
DSTYLE
1002
{
1070
    40
1040
2.0
1070
   271
1070
     1
1002
}
  0
DIMENSION
  5
F6
330
2
100
AcDbEntity
  8
09-01
100
AcDbDimension
280
     0
  2
*D14
 10
442.9457931425281
 20
272.3036358875252
 30
0.0
 11
438.4457931425281
 21
469.8036358875253
 31
0.0
 71
     5
 42
395.0
 73
     0
 74
     0
 75
     0
  3
Wagner$0
100
AcDbAlignedDimension
 13
393.7549019500175
 23
667.3036358875251
 33
0.0
 14
393.7549019500175
 24
272.3036358875252
 34
0.0
 50
90.0
100
AcDbRotatedDimension
1001
ACAD
1000
DSTYLE
1002
{
1070
    40
1040
2.0
1070
   271
1070
     1
1002
}
  0
INSERT
  5
103
330
2
100
AcDbEntity
  8
09-01
100
AcDbBlockReference
  2
Rueckwand-PP111-s
 10
551.0748169839508
 20
244.8036358875261
 30
0.0
  0
DIMENSION
  5
12D
330
2
100
AcDbEntity
  8
09-01
100
AcDbDimension
280
     0
  2
*D12
 10
681.936819957511
 20
685.803635887526
 30
0.0
 11
677.4368199575109
 21
461.8036358875261
 31
0.0
 71
     5
 42
448.0
 73
     0
 74
     0
 75
     0
  3
Wagner$0
100
AcDbAlignedDimension
 13
663.8748169839509
 23
237.8036358875261
 33
0.0
 14
664.0748169839508
 24
685.803635887526
 34
0.0
 50
90.0
100
AcDbRotatedDimension
1001
ACAD
1000
DSTYLE
1002
{
1070
    40
1040
2.0
1002
}
  0
INSERT
  5
13A
330
2
100
AcDbEntity
  8
09-01
100
AcDbBlockReference
  2
aaaaWagner
 10
278.2726671068767
 20
639.303635887526
 30
0.0
  0
INSERT
  5
153
330
2
100
AcDbEntity
  8
03-01
100
AcDbBlockReference
  2
Innendeckel02-d
 10
278.2726671069131
 20
46.25579449485576
 30
0.0
  0
INSERT
  5
16A
330
2
100
AcDbEntity
  8
0
100
AcDbBlockReference
  2
schloss-024454-D
 10
278.2726671069131
 20
685.8036358875251
 30
0.0
 50
180.0
  0
INSERT
  5
18B
330
2
100
AcDbEntity
  8
0
100
AcDbBlockReference
  2
schloss-024454-S
 10
575.5748169839507
 20
685.8036358875296
 30
0.0
 50
90.0
  0
CIRCLE
  5
1C0
330
2
100
AcDbEntity
  8
03-01
100
AcDbCircle
 10
278.2726671069131
 20
655.3036358875251
 30
0.0
 40
3.25
  0
LINE
  5
1C1
330
2
100
AcDbEntity
  8
05-01
100
AcDbLine
 10
278.2726671069131
 20
659.5536358875251
 30
0.0
 11
278.2726671069131
 21
651.0536358875251
 31
0.0
  0
LINE
  5
1C2
330
2
100
AcDbEntity
  8
05-01
100
AcDbLine
 10
274.0226671069131
 20
655.3036358875251
 30
0.0
 11
282.5226671069131
 21
655.3036358875251
 31
0.0
  0
ARC
  5
1C3
330
2
100
AcDbEntity
  8
03-01
100
AcDbCircle
 10
390.2549019500175
 20
260.3036358875252
 30
0.0
 40
6.25
100
AcDbArc
 50
113.5781784782071
 51
66.42182152179284
  0
LINE
  5
1C4
330
2
100
AcDbEntity
  8
05-01
100
AcDbLine
 10
397.5049019500175
 20
260.3036358875252
 30
0.0
 11
383.0049019500175
 21
260.3036358875252
 31
0.0
  0
LINE
  5
1C5
330
2
100
AcDbEntity
  8
05-01
100
AcDbLine
 10
393.7549019500175
 20
272.3036358875252
 30
0.0
 11
386.7549019500175
 21
272.3036358875252
 31
0.0
  0
LINE
  5
1C6
330
2
100
AcDbEntity
  8
03-01
100
AcDbLine
 10
392.7549019500175
 20
272.3036358875252
 30
0.0
 11
392.7549019500175
 21
266.0318555062204
 31
0.0
  0
LINE
  5
1C7
330
2
100
AcDbEntity
  8
01-01
100
AcDbLine
 10
390.2549019500175
 20
274.8036358875252
 30
0.0
 11
390.2549019500175
 21
274.8036358875252
 31
0.0
  0
ARC
  5
1CB
330
2
100
AcDbEntity
  8
03-01
100
AcDbCircle
 10
390.2549019500175
 20
272.3036358875252
 30
0.0
 40
2.5
100
AcDbArc
 50
0.0
 51
180.0
  0
LINE
  5
1CC
330
2
100
AcDbEntity
  8
03-01
100
AcDbLine
 10
387.7549019500175
 20
266.0318555062204
 30
0.0
 11
387.7549019500175
 21
272.3036358875252
 31
0.0
  0
LINE
  5
1CD
330
2
100
AcDbEntity
  8
05-01
100
AcDbLine
 10
390.2549019500175
 20
275.8036358875251
 30
0.0
 11
390.2549019500175
 21
253.0536358875252
 31
0.0
  0
ARC
  5
1CE
330
2
100
AcDbEntity
  8
03-01
100
AcDbCircle
 10
166.2904322638087
 20
260.3036358875252
 30
0.0
 40
6.25
100
AcDbArc
 50
113.5781784782071
 51
66.42182152179284
  0
LINE
  5
1CF
330
2
100
AcDbEntity
  8
05-01
100
AcDbLine
 10
159.0404322638087
 20
260.3036358875252
 30
0.0
 11
173.5404322638087
 21
260.3036358875252
 31
0.0
  0
LINE
  5
1D0
330
2
100
AcDbEntity
  8
05-01
100
AcDbLine
 10
162.7904322638087
 20
272.3036358875252
 30
0.0
 11
169.7904322638087
 21
272.3036358875252
 31
0.0
  0
LINE
  5
1D1
330
2
100
AcDbEntity
  8
03-01
100
AcDbLine
 10
163.7904322638087
 20
272.3036358875252
 30
0.0
 11
163.7904322638087
 21
266.0318555062204
 31
0.0
  0
LINE
  5
1D2
330
2
100
AcDbEntity
  8
01-01
100
AcDbLine
 10
166.2904322638087
 20
274.8036358875252
 30
0.0
 11
166.2904322638087
 21
274.8036358875252
 31
0.0
  0
ARC
  5
1D3
330
2
100
AcDbEntity
  8
03-01
100
AcDbCircle
 10
166.2904322638087
 20
272.3036358875252
 30
0.0
 40
2.5
100
AcDbArc
 50
0.0
 51
180.0
  0
LINE
  5
1D4
330
2
100
AcDbEntity
  8
03-01
100
AcDbLine
 10
168.7904322638087
 20
266.0318555062204
 30
0.0
 11
168.7904322638087
 21
272.3036358875252
 31
0.0
  0
LINE
  5
1D5
330
2
100
AcDbEntity
  8
05-01
100
AcDbLine
 10
166.2904322638087
 20
275.8036358875251
 30
0.0
 11
166.2904322638087
 21
253.0536358875252
 31
0.0
  0
ARC
  5
1D6
330
2
100
AcDbEntity
  8
03-01
100
AcDbCircle
 10
390.2549019500175
 20
655.3036358875251
 30
0.0
 40
6.25
100
AcDbArc
 50
113.5781784782071
 51
66.42182152179284
  0
LINE
  5
1D7
330
2
100
AcDbEntity
  8
05-01
100
AcDbLine
 10
397.5049019500175
 20
655.3036358875251
 30
0.0
 11
383.0049019500175
 21
655.3036358875251
 31
0.0
  0
LINE
  5
1D8
330
2
100
AcDbEntity
  8
05-01
100
AcDbLine
 10
393.7549019500175
 20
667.3036358875251
 30
0.0
 11
386.7549019500175
 21
667.3036358875251
 31
0.0
  0
LINE
  5
1D9
330
2
100
AcDbEntity
  8
03-01
100
AcDbLine
 10
392.7549019500175
 20
667.3036358875251
 30
0.0
 11
392.7549019500175
 21
661.0318555062203
 31
0.0
  0
LINE
  5
1DA
330
2
100
AcDbEntity
  8
03-01
100
AcDbLine
 10
390.2549019500175
 20
669.8036358875251
 30
0.0
 11
390.2549019500175
 21
669.8036358875251
 31
0.0
  0
ARC
  5
1DB
330
2
100
AcDbEntity
  8
03-01
100
AcDbCircle
 10
390.2549019500175
 20
667.3036358875251
 30
0.0
 40
2.5
100
AcDbArc
 50
0.0
 51
180.0
  0
LINE
  5
1DC
330
2
100
AcDbEntity
  8
03-01
100
AcDbLine
 10
387.7549019500175
 20
661.0318555062203
 30
0.0
 11
387.7549019500175
 21
667.3036358875251
 31
0.0
  0
LINE
  5
1DD
330
2
100
AcDbEntity
  8
05-01
100
AcDbLine
 10
390.2549019500175
 20
670.8036358875252
 30
0.0
 11
390.2549019500175
 21
648.0536358875252
 31
0.0
  0
ARC
  5
1DE
330
2
100
AcDbEntity
  8
03-01
100
AcDbCircle
 10
166.2904322638087
 20
655.3036358875251
 30
0.0
 40
6.25
100
AcDbArc
 50
113.5781784782071
 51
66.42182152179284
  0
LINE
  5
1DF
330
2
100
AcDbEntity
  8
05-01
100
AcDbLine
 10
159.0404322638087
 20
655.3036358875251
 30
0.0
 11
173.5404322638087
 21
655.3036358875251
 31
0.0
  0
LINE
  5
1E0
330
2
100
AcDbEntity
  8
05-01
100
AcDbLine
 10
162.7904322638087
 20
667.3036358875251
 30
0.0
 11
169.7904322638087
 21
667.3036358875251
 31
0.0
  0
LINE
  5
1E1
330
2
100
AcDbEntity
  8
03-01
100
AcDbLine
 10
163.7904322638087
 20
667.3036358875251
 30
0.0
 11
163.7904322638087
 21
661.0318555062203
 31
0.0
  0
LINE
  5
1E2
330
2
100
AcDbEntity
  8
01-01
100
AcDbLine
 10
166.2904322638087
 20
669.8036358875251
 30
0.0
 11
166.2904322638087
 21
669.8036358875251
 31
0.0
  0
ARC
  5
1E3
330
2
100
AcDbEntity
  8
03-01
100
AcDbCircle
 10
166.2904322638087
 20
667.3036358875251
 30
0.0
 40
2.5
100
AcDbArc
 50
0.0
 51
180.0
  0
LINE
  5
1E4
330
2
100
AcDbEntity
  8
03-01
100
AcDbLine
 10
168.7904322638087
 20
661.0318555062203
 30
0.0
 11
168.7904322638087
 21
667.3036358875251
 31
0.0
  0
LINE
  5
1E5
330
2
100
AcDbEntity
  8
05-01
100
AcDbLine
 10
166.2904322638087
 20
670.8036358875252
 30
0.0
 11
166.2904322638087
 21
648.0536358875252
 31
0.0
  0
INSERT
  5
1E6
330
2
100
AcDbEntity
  8
0
100
AcDbBlockReference
  2
schloss-024454-V
 10
278.2726671069131
 20
133.7557944948557
 30
0.0
  0
INSERT
  5
209
330
2
100
AcDbEntity
  8
09-01
100
AcDbBlockReference
 66
     1
  2
DIN A3
 10
0.0000005755600796
 20
-0.0000019034491743
 30
0.0
 41
2.5
 42
2.5
 43
2.5
  0
ATTRIB
  5
3B0
330
209
100
AcDbEntity
  8
06-99
100
AcDbText
 10
813.7386168478396
 20
67.96959674320397
 30
0.0
 40
11.25
  1
Handtuchspender PP 111
 41
0.9
  7
ROMANS8
100
AcDbAttribute
280
     0
  2
TEILE
 70
     0
280
     0
  0
ATTRIB
  5
3B1
330
209
100
AcDbEntity
  8
06-99
100
AcDbText
 10
813.7386168478396
 20
49.72943400885606
 30
0.0
 40
11.25
  1

 41
0.9
  7
ROMANS8
100
AcDbAttribute
280
     0
  2
TEILE2
 70
     0
280
     0
  0
ATTRIB
  5
3B2
330
209
100
AcDbEntity
  8
06-99
100
AcDbText
 10
1000.868465529183
 20
115.8333333333317
 30
0.0
 40
8.4375
  1
1:2
  7
ROMANS8
100
AcDbAttribute
280
     0
  2
:
 70
     0
280
     0
  0
ATTRIB
  5
3B3
330
209
100
AcDbEntity
  8
06-99
100
AcDbText
 10
754.992669498316
 20
71.10421367007666
 30
0.0
 40
6.25
  1
Pfrepper
 41
0.9
  7
ROMANS8
100
AcDbAttribute
280
     0
  2
NAME
 70
     0
280
     0
  0
ATTRIB
  5
3B4
330
209
100
AcDbEntity
  8
06-99
100
AcDbText
 10
721.2328661296314
 20
71.15308793527629
 30
0.0
 40
6.25
  1
30.01.2012
 50
359.9144597696145
 41
0.5691052222933336
  7
ROMANS8
 72
     5
 11
749.3493428009942
 21
71.11111116666506
 31
0.0
100
AcDbAttribute
280
     0
  2
DATUM
 70
     0
280
     0
  0
ATTRIB
  5
3B5
330
209
100
AcDbEntity
  8
06-99
100
AcDbText
 10
968.7658599177931
 20
21.23224950072017
 30
0.0
 40
7.4844
  1
727585
  7
ROMANS8
100
AcDbAttribute
280
     0
  2
ID.NR
 70
     0
280
     0
  0
ATTRIB
  5
3B6
330
209
100
AcDbEntity
  8
06-99
100
AcDbText
 10
814.3281656391728
 20
96.66666661110959
 30
0.0
 40
7.5
  1

 41
0.9
  7
ROMANS8
100
AcDbAttribute
280
     0
  2
LÄNGE
 70
     0
280
     0
  0
ATTRIB
  5
3B7
330
209
100
AcDbEntity
  8
06-99
100
AcDbText
 10
897.9520122793211
 20
96.69525967611026
 30
0.0
 40
7.5
  1

 41
0.9
  7
ROMANS8
100
AcDbAttribute
280
     0
  2
BREITE
 70
     0
280
     0
  0
ATTRIB
  5
3B8
330
209
100
AcDbEntity
  8
06-99
100
AcDbText
 10
999.0227303167275
 20
96.66666666666515
 30
0.0
 40
7.734375000000001
  1

  7
ROMANS8
100
AcDbAttribute
280
     0
  2
1.0
 70
     0
280
     0
  0
ATTRIB
  5
3B9
330
209
100
AcDbEntity
  8
06-99
100
AcDbText
 10
932.8194640034043
 20
115.8333333333317
 30
0.0
 40
7.5
  1

  7
ROMANS8
 72
     1
 11
932.8194640034043
 21
115.8333333333317
 31
0.0
100
AcDbAttribute
280
     0
  2
IV
 70
     0
280
     0
  0
ATTRIB
  5
3BA
330
209
100
AcDbEntity
  8
06-99
100
AcDbText
 10
830.6868513401868
 20
115.8333333333312
 30
0.0
 40
8.4375
  1
1.4301
  7
ROMANS8
100
AcDbAttribute
280
     0
  2
1.4301
 70
     0
280
     0
  0
ATTRIB
  5
3BB
330
209
100
AcDbEntity
  8
06-99
100
AcDbText
 10
887.5015847170988
 20
21.2609915108851
 30
0.0
 40
7.919999999999999
  1

 41
0.9000000000000001
  7
ROMANS8
100
AcDbAttribute
280
     0
  2
AUFTRAGS.NR.
 70
     0
280
     0
  0
ATTRIB
  5
3BC
330
209
100
AcDbEntity
  8
06-99
100
AcDbText
 10
813.7499999998972
 20
21.24999999999818
 30
0.0
 40
7.919999999999999
  1

 41
0.9000000000000001
  7
ROMANS8
100
AcDbAttribute
280
     0
  2
SONDER-NR
 70
     0
280
     0
  0
ATTRIB
  5
3BD
330
209
100
AcDbEntity
  8
06-99
100
AcDbText
 10
638.7493774874183
 20
19.00452517314807
 30
0.0
 40
3.75
  1

 41
0.9
  7
ROMANS8
100
AcDbAttribute
280
     0
  2
ERSETZT.DURCH
 70
     0
280
     0
  0
ATTRIB
  5
3BE
330
209
100
AcDbEntity
  8
06-99
100
AcDbText
 10
576.2486694503941
 20
18.99364099467948
 30
0.0
 40
3.75
  1

 41
0.9
  7
ROMANS8
100
AcDbAttribute
280
     0
  2
ERSETZT.FÜR
 70
     0
280
     0
  0
ATTRIB
  5
3BF
330
209
100
AcDbEntity
  8
06-99
100
AcDbText
 10
772.5092887588486
 20
121.6712778500182
 30
0.0
 40
3.2175
  1
DIN A3
  7
ROMANS8
 72
     1
 11
780.6296459017057
 21
121.6712778500182
 31
0.0
100
AcDbAttribute
280
     0
  2
FORMAT
 70
     0
280
     0
  0
ATTRIB
  5
3C0
330
209
100
AcDbEntity
  8
06-99
100
AcDbText
 10
762.4785714284691
 20
95.99166666666496
 30
0.0
 40
5.85
  1
DIN 2768
  7
ROMANS8
 72
     1
 11
782.5357142856119
 21
95.99166666666496
 31
0.0
100
AcDbAttribute
280
     0
  2
NORM2
 70
     0
280
     0
  0
ATTRIB
  5
3C1
330
209
100
AcDbEntity
  8
06-99
100
AcDbText
 10
754.5392857141843
 20
105.574999999998
 30
0.0
 40
5.85
  1
DIN 6930-M
  7
ROMANS8
 72
     1
 11
781.2821428570414
 21
105.574999999998
 31
0.0
100
AcDbAttribute
280
     0
  2
NORM1
 70
     0
280
     0
  0
SEQEND
  5
3C2
330
209
100
AcDbEntity
  8
09-01
  0
DIMENSION
  5
3C3
330
2
100
AcDbEntity
  8
09-01
100
AcDbDimension
280
     0
  2
*D11
 10
155.7726671069126
 20
55.25579449485576
 30
0.0
 11
133.2616618059837
 21
38.97149986927694
 31
0.0
 70
     4
 71
     5
 42
9.999999999999886
 73
     0
 74
     0
 75
     0
  3
Wagner
100
AcDbRadialDimension
 15
148.726666764092
 25
48.1597477666437
 35
0.0
 40
0.0
1001
ACAD_DSTYLE_DIMRADIAL_EXTENSION
1070
   387
1070
     1
1070
   388
1040
3.141592653589793
1070
   390
1040
4.712388980384689
1001
ACAD
1000
DSTYLE
1002
{
1070
    40
1040
2.0
1002
}
  0
DIMENSION
  5
3CE
330
2
100
AcDbEntity
  8
09-01
100
AcDbDimension
280
     0
  2
*D10
 10
427.0063742989359
 20
45.45579449485558
 30
0.0
 11
422.5063742989359
 21
105.3557944948557
 31
0.0
 71
     5
 42
119.8000000000002
 73
     0
 74
     0
 75
     0
  3
Wagner$0
100
AcDbAlignedDimension
 13
410.5726671069133
 23
165.2557944948557
 33
0.0
 14
400.589667106914
 24
45.45579449485558
 34
0.0
 50
90.0
100
AcDbRotatedDimension
1001
ACAD
1000
DSTYLE
1002
{
1070
    40
1040
2.0
1002
}
  0
DIMENSION
  5
3DB
330
2
100
AcDbEntity
  8
09-01
100
AcDbDimension
280
     0
  2
*D9
 10
410.5726671069133
 20
180.1214378449431
 30
0.0
 11
278.2726671069131
 21
184.6214378449431
 31
0.0
 71
     5
 42
264.6000000000004
 73
     0
 74
     0
 75
     0
  3
Wagner$0
100
AcDbAlignedDimension
 13
145.9726671069129
 23
165.2557944948557
 33
0.0
 14
410.5726671069133
 24
165.2557944948557
 34
0.0
100
AcDbRotatedDimension
1001
ACAD
1000
DSTYLE
1002
{
1070
    40
1040
2.0
1002
}
  0
LINE
  5
3E8
330
2
100
AcDbEntity
  8
0
100
AcDbLine
 10
286.7726671069131
 20
685.8036358875251
 30
0.0
 11
269.7726671069131
 21
685.8036358875251
 31
0.0
  0
LINE
  5
3E9
330
2
100
AcDbEntity
  8
03-01
100
AcDbLine
 10
276.6238471891652
 20
684.300507890749
 30
0.0
 11
276.6238479372032
 21
684.303635739865
 31
0.0
  0
DIMENSION
  5
3EA
330
2
100
AcDbEntity
  8
09-01
100
AcDbDimension
280
     0
  2
*D8
 10
430.4210544112093
 20
685.8036358875251
 30
0.0
 11
425.9210544112091
 21
454.6663663734385
 31
0.0
 71
     5
 42
462.2745390281734
 73
     0
 74
     0
 75
     0
  3
Wagner$0
100
AcDbAlignedDimension
 13
393.5726671069133
 23
223.5290968593517
 33
0.0
 14
410.5726671069133
 24
685.8036358875251
 34
0.0
 50
90.0
100
AcDbRotatedDimension
1001
ACAD
1000
DSTYLE
1002
{
1070
   271
1070
     1
1070
    40
1040
2.0
1002
}
  0
LINE
  5
3F7
330
2
100
AcDbEntity
  8
09-01
100
AcDbLine
 10
410.5726671069133
 20
684.303635887526
 30
0.0
 11
410.5726671069133
 21
685.8036358875251
 31
0.0
  0
LINE
  5
3F8
330
2
100
AcDbEntity
  8
09-01
100
AcDbLine
 10
145.9726671069129
 20
684.303635887526
 30
0.0
 11
145.9726671069129
 21
685.8036358875251
 31
0.0
  0
LINE
  5
3F9
330
2
100
AcDbEntity
  8
09-01
100
AcDbLine
 10
410.5726671069133
 20
685.8036358875251
 30
0.0
 11
145.9726671069129
 21
685.8036358875251
 31
0.0
  0
DIMENSION
  5
3FA
330
2
100
AcDbEntity
  8
09-01
100
AcDbDimension
280
     0
  2
*D7
 10
664.0748169839508
 20
698.3485403045142
 30
0.0
 11
604.0748169839507
 21
702.8485403045142
 31
0.0
 71
     5
 42
120.0
 73
     0
 74
     0
 75
     0
  3
Wagner$0
100
AcDbAlignedDimension
 13
544.0748169839507
 23
685.8036358875251
 33
0.0
 14
664.0748169839508
 24
685.803635887526
 34
0.0
100
AcDbRotatedDimension
1001
ACAD
1000
DSTYLE
1002
{
1070
    40
1040
2.0
1002
}
  0
DIMENSION
  5
407
330
2
100
AcDbEntity
  8
09-01
100
AcDbDimension
280
     0
  2
*D6
 10
410.5726671069133
 20
699.8485403045142
 30
0.0
 11
278.2726671069131
 21
704.3485403045142
 31
0.0
 71
     5
 42
264.6000000000004
 73
     0
 74
     0
 75
     0
  3
Wagner$0
100
AcDbAlignedDimension
 13
145.9726671069129
 23
685.8036358875251
 33
0.0
 14
410.5726671069133
 24
685.8036358875251
 34
0.0
100
AcDbRotatedDimension
1001
ACAD
1000
DSTYLE
1002
{
1070
    40
1040
2.0
1002
}
  0
LINE
  5
414
330
2
100
AcDbEntity
  8
05-01
100
AcDbLine
 10
144.0570270759308
 20
158.2557944948557
 30
0.0
 11
151.2470557933657
 21
158.2557944948557
 31
0.0
  0
ARC
  5
415
330
2
100
AcDbEntity
  8
03-01
100
AcDbCircle
 10
170.0569383543743
 20
65.75579449485577
 30
0.0
 40
7.0
100
AcDbArc
 50
270.0
 51
0.0
  0
LINE
  5
416
330
2
100
AcDbEntity
  8
03-01
100
AcDbLine
 10
148.7726671069131
 20
58.75579449485576
 30
0.0
 11
170.0569383543743
 21
58.75579449485576
 31
0.0
  0
LINE
  5
417
330
2
100
AcDbEntity
  8
03-01
100
AcDbLine
 10
148.7726671069131
 20
132.7557944948557
 30
0.0
 11
170.0569383543743
 21
132.7557944948557
 31
0.0
  0
ARC
  5
418
330
2
100
AcDbEntity
  8
03-01
100
AcDbCircle
 10
170.0569383543743
 20
125.7557944948557
 30
0.0
 40
7.0
100
AcDbArc
 50
0.0
 51
90.0
  0
LINE
  5
419
330
2
100
AcDbEntity
  8
03-01
100
AcDbLine
 10
177.0569383543743
 20
125.7557944948557
 30
0.0
 11
177.0569383543743
 21
65.75579449485577
 31
0.0
  0
ARC
  5
41A
330
2
100
AcDbEntity
  8
03-01
100
AcDbCircle
 10
386.4883958594519
 20
65.75579449485577
 30
0.0
 40
7.0
100
AcDbArc
 50
180.0
 51
270.0
  0
LINE
  5
41B
330
2
100
AcDbEntity
  8
03-01
100
AcDbLine
 10
407.7726671069131
 20
58.75579449485576
 30
0.0
 11
386.4883958594519
 21
58.75579449485576
 31
0.0
  0
LINE
  5
41C
330
2
100
AcDbEntity
  8
03-01
100
AcDbLine
 10
407.7726671069131
 20
132.7557944948557
 30
0.0
 11
386.4883958594519
 21
132.7557944948557
 31
0.0
  0
ARC
  5
41D
330
2
100
AcDbEntity
  8
03-01
100
AcDbCircle
 10
386.4883958594519
 20
125.7557944948557
 30
0.0
 40
7.0
100
AcDbArc
 50
90.0
 51
180.0
  0
LINE
  5
41E
330
2
100
AcDbEntity
  8
03-01
100
AcDbLine
 10
379.4883958594519
 20
125.7557944948557
 30
0.0
 11
379.4883958594519
 21
65.75579449485577
 31
0.0
  0
ARC
  5
41F
330
2
100
AcDbEntity
  8
03-01
100
AcDbCircle
 10
400.772667106913
 20
137.9747188472847
 30
0.0
 40
7.0
100
AcDbArc
 50
270.0
 51
0.0
  0
ARC
  5
420
330
2
100
AcDbEntity
  8
03-01
100
AcDbCircle
 10
155.7726671069131
 20
137.9747188472847
 30
0.0
 40
7.0
100
AcDbArc
 50
180.0
 51
270.0
  0
LINE
  5
421
330
2
100
AcDbEntity
  8
03-01
100
AcDbLine
 10
400.772667106913
 20
130.9747188472847
 30
0.0
 11
155.7726671069131
 21
130.9747188472847
 31
0.0
  0
LINE
  5
422
330
2
100
AcDbEntity
  8
03-01
100
AcDbLine
 10
406.8212164143906
 20
135.5015625708765
 30
0.0
 11
149.7241177994356
 21
135.5015625708765
 31
0.0
  0
ARC
  5
423
330
2
100
AcDbEntity
  8
03-01
100
AcDbCircle
 10
162.9726671069134
 20
72.18331675183344
 30
0.0
 40
7.0
100
AcDbArc
 50
90.0
 51
180.0
  0
LINE
  5
424
330
2
100
AcDbEntity
  8
03-01
100
AcDbLine
 10
393.5726671069133
 20
79.18331675183345
 30
0.0
 11
162.9726671069134
 21
79.18331675183345
 31
0.0
  0
LINE
  5
425
330
2
100
AcDbEntity
  8
03-01
100
AcDbLine
 10
400.0846512710495
 20
74.75120737373254
 30
0.0
 11
156.4606829427766
 21
74.75120737373254
 31
0.0
  0
ARC
  5
426
330
2
100
AcDbEntity
  8
03-01
100
AcDbCircle
 10
393.5726671069133
 20
72.18331675183344
 30
0.0
 40
7.0
100
AcDbArc
 50
0.0
 51
90.0
  0
LINE
  5
427
330
2
100
AcDbEntity
  8
03-01
100
AcDbLine
 10
400.5726671069132
 20
72.18331675183344
 30
0.0
 11
400.5726671069132
 21
45.45579449485558
 31
0.0
  0
LINE
  5
428
330
2
100
AcDbEntity
  8
03-01
100
AcDbLine
 10
155.9726671069133
 20
72.18331675183344
 30
0.0
 11
155.9726671069133
 21
45.45579449485558
 31
0.0
  0
LINE
  5
429
330
2
100
AcDbEntity
  8
09-01
100
AcDbLine
 10
145.9726671069129
 20
165.2557944948557
 30
0.0
 11
410.5726671069133
 21
165.2557944948557
 31
0.0
  0
LINE
  5
42A
330
2
100
AcDbEntity
  8
05-01
100
AcDbLine
 10
412.4883071378953
 20
158.2557944948557
 30
0.0
 11
405.2982784204605
 21
158.2557944948557
 31
0.0
  0
LINE
  5
42B
330
2
100
AcDbEntity
  8
05-01
100
AcDbLine
 10
551.0748169839508
 20
248.2175641618769
 30
0.0
 11
551.0748169839508
 21
241.027535444442
 31
0.0
  0
LINE
  5
42C
330
2
100
AcDbEntity
  8
05-01
100
AcDbLine
 10
554.488745258302
 20
244.8036358875261
 30
0.0
 11
547.2987165408672
 21
244.8036358875261
 31
0.0
  0
CIRCLE
  5
42D
330
2
100
AcDbEntity
  8
0
100
AcDbCircle
 10
551.0748169839508
 20
244.8036358875261
 30
0.0
 40
1.649999999999999
  0
ARC
  5
42E
330
2
100
AcDbEntity
  8
0
100
AcDbCircle
 10
551.0748169839508
 20
244.8036358875261
 30
0.0
 40
7.0
100
AcDbArc
 50
180.0
 51
270.0
  0
LINE
  5
42F
330
2
100
AcDbEntity
  8
0
100
AcDbLine
 10
551.0748169839508
 20
237.8036358875261
 30
0.0
 11
663.8748169839509
 21
237.8036358875261
 31
0.0
  0
LINE
  5
430
330
2
100
AcDbEntity
  8
05-01
100
AcDbLine
 10
414.1865953812648
 20
244.8036358875261
 30
0.0
 11
406.9965666638295
 21
244.8036358875261
 31
0.0
  0
LINE
  5
431
330
2
100
AcDbEntity
  8
03-01
100
AcDbLine
 10
409.772667106913
 20
237.8036358875261
 30
0.0
 11
409.772667106913
 21
684.303635887526
 31
0.0
  0
LINE
  5
432
330
2
100
AcDbEntity
  8
09-01
100
AcDbLine
 10
410.5726671069137
 20
237.8036358875261
 30
0.0
 11
410.5726671069133
 21
684.303635887526
 31
0.0
  0
LINE
  5
433
330
2
100
AcDbEntity
  8
09-01
100
AcDbLine
 10
400.0067147924428
 20
227.7717375464717
 30
0.0
 11
156.5386194213834
 21
227.7717375464717
 31
0.0
  0
LINE
  5
434
330
2
100
AcDbEntity
  8
0
100
AcDbLine
 10
155.9726671069133
 20
235.5363088995473
 30
0.0
 11
400.5726671069132
 21
235.5363088995473
 31
0.0
  0
LINE
  5
435
330
2
100
AcDbEntity
  8
05-01
100
AcDbLine
 10
142.3587388325618
 20
244.8036358875261
 30
0.0
 11
149.5487675499967
 21
244.8036358875261
 31
0.0
  0
LINE
  5
436
330
2
100
AcDbEntity
  8
03-01
100
AcDbLine
 10
146.7726671069131
 20
237.8036358875261
 30
0.0
 11
146.7726671069131
 21
684.303635887526
 31
0.0
  0
LINE
  5
437
330
2
100
AcDbEntity
  8
09-01
100
AcDbLine
 10
145.9726671069129
 20
237.8036358875261
 30
0.0
 11
145.9726671069129
 21
684.303635887526
 31
0.0
  0
LINE
  5
438
330
2
100
AcDbEntity
  8
0
100
AcDbLine
 10
630.147294726973
 20
224.2362036405384
 30
0.0
 11
630.7129801519222
 21
223.6705182155883
 31
0.0
  0
LINE
  5
439
330
2
100
AcDbEntity
  8
0
100
AcDbLine
 10
634.579404105074
 20
228.6683130186393
 30
0.0
 11
630.147294726973
 21
224.2362036405384
 31
0.0
  0
LINE
  5
43A
330
2
100
AcDbEntity
  8
0
100
AcDbLine
 10
634.9935145772369
 20
227.951052640904
 30
0.0
 11
630.7129801519222
 21
223.6705182155883
 31
0.0
  0
LINE
  5
43B
330
2
100
AcDbEntity
  8
0
100
AcDbLine
 10
663.0748169839507
 20
236.3036358875261
 30
0.0
 11
634.579404105074
 21
228.6683130186393
 31
0.0
  0
LINE
  5
43C
330
2
100
AcDbEntity
  8
0
100
AcDbLine
 10
663.8748169839509
 20
235.6897742971423
 30
0.0
 11
634.9935145772369
 21
227.951052640904
 31
0.0
  0
LINE
  5
43D
330
2
100
AcDbEntity
  8
0
100
AcDbLine
 10
663.0748169839512
 20
237.8036358875261
 30
0.0
 11
663.0748169839507
 21
236.3036358875261
 31
0.0
  0
LINE
  5
43E
330
2
100
AcDbEntity
  8
03-01
100
AcDbLine
 10
663.0748169839507
 20
684.303635887526
 30
0.0
 11
663.0748169839512
 21
237.8036358875261
 31
0.0
  0
LINE
  5
43F
330
2
100
AcDbEntity
  8
0
100
AcDbLine
 10
544.0748169839507
 20
685.8036358875251
 30
0.0
 11
544.0748169839507
 21
244.8036358875261
 31
0.0
  0
LINE
  5
440
330
2
100
AcDbEntity
  8
0
100
AcDbLine
 10
663.8748169839509
 20
685.803635887526
 30
0.0
 11
663.8748169839509
 21
235.6897742971423
 31
0.0
  0
LINE
  5
441
330
2
100
AcDbEntity
  8
0
100
AcDbLine
 10
544.0748169839507
 20
685.8036358875251
 30
0.0
 11
664.0748169839508
 21
685.803635887526
 31
0.0
  0
LINE
  5
442
330
2
100
AcDbEntity
  8
0
100
AcDbLine
 10
544.0748169839507
 20
684.303635887526
 30
0.0
 11
664.0748169839508
 21
684.303635887526
 31
0.0
  0
LINE
  5
443
330
2
100
AcDbEntity
  8
03-01
100
AcDbLine
 10
155.9726671069133
 20
236.3036358875261
 30
0.0
 11
400.5726671069132
 21
236.3036358875261
 31
0.0
  0
ARC
  5
444
330
2
100
AcDbEntity
  8
03-01
100
AcDbCircle
 10
400.772667106913
 20
55.25579449485576
 30
0.0
 40
9.0
100
AcDbArc
 50
270.0
 51
0.0
  0
LINE
  5
445
330
2
100
AcDbEntity
  8
03-01
100
AcDbLine
 10
409.772667106913
 20
55.25579449485576
 30
0.0
 11
409.772667106913
 21
165.2557944948557
 31
0.0
  0
LINE
  5
446
330
2
100
AcDbEntity
  8
03-01
100
AcDbLine
 10
155.7726671069131
 20
46.25579449485576
 30
0.0
 11
400.772667106913
 21
46.25579449485576
 31
0.0
  0
LINE
  5
447
330
2
100
AcDbEntity
  8
03-01
100
AcDbLine
 10
146.7726671069131
 20
165.2557944948557
 30
0.0
 11
146.7726671069131
 21
55.25579449485576
 31
0.0
  0
ARC
  5
448
330
2
100
AcDbEntity
  8
03-01
100
AcDbCircle
 10
155.7726671069131
 20
55.25579449485576
 30
0.0
 40
9.0
100
AcDbArc
 50
180.0
 51
270.0
  0
ARC
  5
449
330
2
100
AcDbEntity
  8
0
100
AcDbCircle
 10
155.7726671069131
 20
55.25579449485576
 30
0.0
 40
9.8
100
AcDbArc
 50
180.0
 51
270.0
  0
ARC
  5
44A
330
2
100
AcDbEntity
  8
0
100
AcDbCircle
 10
400.772667106913
 20
55.25579449485576
 30
0.0
 40
9.8
100
AcDbArc
 50
270.0
 51
0.0
  0
LINE
  5
44B
330
2
100
AcDbEntity
  8
0
100
AcDbLine
 10
145.9726671069129
 20
165.2557944948557
 30
0.0
 11
145.9726671069129
 21
55.25579449485576
 31
0.0
  0
LINE
  5
44C
330
2
100
AcDbEntity
  8
0
100
AcDbLine
 10
410.5726671069133
 20
55.25579449485576
 30
0.0
 11
410.5726671069133
 21
165.2557944948557
 31
0.0
  0
LINE
  5
44D
330
2
100
AcDbEntity
  8
0
100
AcDbLine
 10
155.7726671069131
 20
45.45579449485558
 30
0.0
 11
400.772667106913
 21
45.45579449485558
 31
0.0
  0
LINE
  5
44E
330
2
100
AcDbEntity
  8
0
100
AcDbLine
 10
410.5726671069133
 20
684.303635887526
 30
0.0
 11
145.9726671069129
 21
684.303635887526
 31
0.0
  0
ARC
  5
44F
330
2
100
AcDbEntity
  8
0
100
AcDbCircle
 10
162.9726671069134
 20
230.5290968593517
 30
0.0
 40
7.0
100
AcDbArc
 50
180.0
 51
270.0
  0
LINE
  5
450
330
2
100
AcDbEntity
  8
0
100
AcDbLine
 10
155.9726671069133
 20
237.8036358875261
 30
0.0
 11
155.9726671069133
 21
230.5290968593517
 31
0.0
  0
LINE
  5
451
330
2
100
AcDbEntity
  8
0
100
AcDbLine
 10
145.9726671069129
 20
237.8036358875261
 30
0.0
 11
155.9726671069133
 21
237.8036358875261
 31
0.0
  0
LINE
  5
452
330
2
100
AcDbEntity
  8
0
100
AcDbLine
 10
275.7726671069131
 20
305.3036358875261
 30
0.0
 11
275.7726671069131
 21
260.3036358875261
 31
0.0
  0
ARC
  5
453
330
2
100
AcDbEntity
  8
0
100
AcDbCircle
 10
393.5726671069133
 20
230.5290968593517
 30
0.0
 40
7.0
100
AcDbArc
 50
270.0
 51
0.0
  0
LINE
  5
454
330
2
100
AcDbEntity
  8
0
100
AcDbLine
 10
400.5726671069132
 20
230.5290968593517
 30
0.0
 11
400.5726671069132
 21
237.8036358875261
 31
0.0
  0
LINE
  5
455
330
2
100
AcDbEntity
  8
0
100
AcDbLine
 10
400.5726671069132
 20
237.8036358875261
 30
0.0
 11
410.5726671069137
 21
237.8036358875261
 31
0.0
  0
LINE
  5
456
330
2
100
AcDbEntity
  8
0
100
AcDbLine
 10
280.7726671069131
 20
260.3036358875261
 30
0.0
 11
280.7726671069131
 21
305.3036358875261
 31
0.0
  0
LINE
  5
457
330
2
100
AcDbEntity
  8
0
100
AcDbLine
 10
162.9726671069134
 20
223.5290968593517
 30
0.0
 11
393.5726671069133
 21
223.5290968593517
 31
0.0
  0
ARC
  5
458
330
2
100
AcDbEntity
  8
0
100
AcDbCircle
 10
278.2726671069131
 20
260.3036358875261
 30
0.0
 40
2.5
100
AcDbArc
 50
180.0
 51
0.0
  0
ARC
  5
459
330
2
100
AcDbEntity
  8
0
100
AcDbCircle
 10
278.2726671069131
 20
305.3036358875261
 30
0.0
 40
2.5
100
AcDbArc
 50
0.0
 51
180.0
  0
ARC
  5
45A
330
2
100
AcDbEntity
  8
0
100
AcDbCircle
 10
404.272667106913
 20
228.7060935371428
 30
0.0
 40
3.0
100
AcDbArc
 50
270.0
 51
0.0
  0
LINE
  5
45B
330
2
100
AcDbEntity
  8
05-01
100
AcDbLine
 10
411.6444555444968
 20
244.8036358875261
 30
0.0
 11
403.5976997949833
 21
244.8036358875261
 31
0.0
  0
LINE
  5
45C
330
2
100
AcDbEntity
  8
03-01
100
AcDbLine
 10
407.7726671069131
 20
262.6823155439661
 30
0.0
 11
407.7726671069131
 21
237.8036358875261
 31
0.0
  0
LINE
  5
45D
330
2
100
AcDbEntity
  8
03-01
100
AcDbLine
 10
408.7726671069135
 20
263.682315543967
 30
0.0
 11
408.7726671069135
 21
237.8036358875261
 31
0.0
  0
LINE
  5
45E
330
2
100
AcDbEntity
  8
03-01
100
AcDbLine
 10
407.7726671069135
 20
264.0965291063394
 30
0.0
 11
379.3419492500448
 21
235.6658112494715
 31
0.0
  0
LINE
  5
45F
330
2
100
AcDbEntity
  8
03-01
100
AcDbLine
 10
408.7726671069135
 20
263.682315543967
 30
0.0
 11
380.0490560312314
 21
234.9587044682849
 31
0.0
  0
LINE
  5
460
330
2
100
AcDbEntity
  8
03-01
100
AcDbLine
 10
408.7726671069135
 20
237.8036358875261
 30
0.0
 11
407.2726671069131
 21
237.8036358875261
 31
0.0
  0
LINE
  5
461
330
2
100
AcDbEntity
  8
0
100
AcDbLine
 10
407.2726671069131
 20
237.8036358875261
 30
0.0
 11
407.2726671069131
 21
227.6454333653628
 31
0.0
  0
ARC
  5
462
330
2
100
AcDbEntity
  8
0
100
AcDbCircle
 10
404.272667106913
 20
227.6454333653628
 30
0.0
 40
3.0
100
AcDbArc
 50
270.0
 51
0.0
  0
LINE
  5
463
330
2
100
AcDbEntity
  8
03-01
100
AcDbLine
 10
407.7726671069131
 20
680.8036358875251
 30
0.0
 11
407.7726671069135
 21
264.0965291063394
 31
0.0
  0
LINE
  5
464
330
2
100
AcDbEntity
  8
03-01
100
AcDbLine
 10
408.772667106913
 20
680.8036358875251
 30
0.0
 11
408.7726671069135
 21
263.682315543967
 31
0.0
  0
LINE
  5
465
330
2
100
AcDbEntity
  8
03-01
100
AcDbLine
 10
379.3419492500448
 20
235.6658112494715
 30
0.0
 11
380.0490560312314
 21
234.9587044682849
 31
0.0
  0
ARC
  5
466
330
2
100
AcDbEntity
  8
0
100
AcDbCircle
 10
152.2726671069131
 20
228.7060935371428
 30
0.0
 40
3.0
100
AcDbArc
 50
180.0
 51
270.0
  0
LINE
  5
467
330
2
100
AcDbEntity
  8
0
100
AcDbLine
 10
398.645993328827
 20
225.7060935371428
 30
0.0
 11
404.272667106913
 21
225.7060935371428
 31
0.0
  0
LINE
  5
468
330
2
100
AcDbEntity
  8
0
100
AcDbLine
 10
152.2726671069131
 20
225.7060935371428
 30
0.0
 11
157.8993408849997
 21
225.7060935371428
 31
0.0
  0
ARC
  5
469
330
2
100
AcDbEntity
  8
03-01
100
AcDbCircle
 10
292.2726671069131
 20
675.3036358875251
 30
0.0
 40
3.0
100
AcDbArc
 50
270.0
 51
0.0
  0
ARC
  5
46A
330
2
100
AcDbEntity
  8
03-01
100
AcDbCircle
 10
278.2726671069131
 20
675.3036358875251
 30
0.0
 40
3.0
100
AcDbArc
 50
180.0
 51
270.0
  0
LINE
  5
46B
330
2
100
AcDbEntity
  8
03-01
100
AcDbLine
 10
292.2726671069131
 20
672.3036358875251
 30
0.0
 11
278.2726671069131
 21
672.3036358875251
 31
0.0
  0
LINE
  5
46C
330
2
100
AcDbEntity
  8
03-01
100
AcDbLine
 10
275.2726671069131
 20
675.3036358875251
 30
0.0
 11
275.2726671069131
 21
681.3036358875251
 31
0.0
  0
LINE
  5
46D
330
2
100
AcDbEntity
  8
03-01
100
AcDbLine
 10
295.2726671069131
 20
675.3036358875251
 30
0.0
 11
295.2726671069131
 21
681.3036358875251
 31
0.0
  0
CIRCLE
  5
46E
330
2
100
AcDbEntity
  8
01-01
100
AcDbCircle
 10
551.0748169839508
 20
244.8036358875261
 30
0.0
 40
1.649999999999999
  0
LINE
  5
46F
330
2
100
AcDbEntity
  8
05-01
100
AcDbLine
 10
144.9008786693293
 20
244.8036358875261
 30
0.0
 11
152.9476344188433
 21
244.8036358875261
 31
0.0
  0
LINE
  5
470
330
2
100
AcDbEntity
  8
03-01
100
AcDbLine
 10
148.7726671069131
 20
262.682315543967
 30
0.0
 11
148.7726671069131
 21
237.8036358875261
 31
0.0
  0
LINE
  5
471
330
2
100
AcDbEntity
  8
03-01
100
AcDbLine
 10
147.7726671069131
 20
263.682315543967
 30
0.0
 11
147.7726671069131
 21
237.8036358875261
 31
0.0
  0
LINE
  5
472
330
2
100
AcDbEntity
  8
03-01
100
AcDbLine
 10
148.7726671069131
 20
264.0965291063403
 30
0.0
 11
177.2033849637819
 21
235.6658112494715
 31
0.0
  0
LINE
  5
473
330
2
100
AcDbEntity
  8
03-01
100
AcDbLine
 10
147.7726671069131
 20
263.682315543967
 30
0.0
 11
176.4962781825952
 21
234.9587044682849
 31
0.0
  0
LINE
  5
474
330
2
100
AcDbEntity
  8
03-01
100
AcDbLine
 10
275.2726671069131
 20
148.7557944948557
 30
0.0
 11
295.2726671069131
 21
148.7557944948557
 31
0.0
  0
LINE
  5
475
330
2
100
AcDbEntity
  8
03-01
100
AcDbLine
 10
275.2726671069131
 20
149.7557944948557
 30
0.0
 11
295.2726671069131
 21
149.7557944948557
 31
0.0
  0
LINE
  5
476
330
2
100
AcDbEntity
  8
03-01
100
AcDbLine
 10
295.2726671069131
 20
148.7557944948557
 30
0.0
 11
295.2726671069131
 21
165.2557944948557
 31
0.0
  0
LINE
  5
477
330
2
100
AcDbEntity
  8
03-01
100
AcDbLine
 10
275.2726671069131
 20
148.7557944948557
 30
0.0
 11
275.2726671069131
 21
165.2557944948557
 31
0.0
  0
LINE
  5
478
330
2
100
AcDbEntity
  8
0
100
AcDbLine
 10
147.7726671069131
 20
165.2557944948557
 30
0.0
 11
408.772667106913
 21
165.2557944948557
 31
0.0
  0
LINE
  5
479
330
2
100
AcDbEntity
  8
03-01
100
AcDbLine
 10
148.7726671069131
 20
164.2557944948557
 30
0.0
 11
407.7726671069131
 21
164.2557944948557
 31
0.0
  0
LINE
  5
47A
330
2
100
AcDbEntity
  8
03-01
100
AcDbLine
 10
147.7726671069131
 20
58.75579449485576
 30
0.0
 11
148.7726671069131
 21
58.75579449485576
 31
0.0
  0
LINE
  5
47B
330
2
100
AcDbEntity
  8
03-01
100
AcDbLine
 10
408.772667106913
 20
58.75579449485576
 30
0.0
 11
407.7726671069131
 21
58.75579449485576
 31
0.0
  0
LINE
  5
47C
330
2
100
AcDbEntity
  8
03-01
100
AcDbLine
 10
147.7726671069131
 20
58.75579449485576
 30
0.0
 11
147.7726671069131
 21
165.2557944948557
 31
0.0
  0
LINE
  5
47D
330
2
100
AcDbEntity
  8
03-01
100
AcDbLine
 10
408.772667106913
 20
165.2557944948557
 30
0.0
 11
408.772667106913
 21
58.75579449485576
 31
0.0
  0
LINE
  5
47E
330
2
100
AcDbEntity
  8
03-01
100
AcDbLine
 10
148.7726671069131
 20
58.75579449485576
 30
0.0
 11
148.7726671069131
 21
164.2557944948557
 31
0.0
  0
LINE
  5
47F
330
2
100
AcDbEntity
  8
03-01
100
AcDbLine
 10
407.7726671069131
 20
164.2557944948557
 30
0.0
 11
407.7726671069131
 21
58.75579449485576
 31
0.0
  0
LINE
  5
480
330
2
100
AcDbEntity
  8
03-01
100
AcDbLine
 10
147.7726671069131
 20
237.8036358875261
 30
0.0
 11
149.2726671069131
 21
237.8036358875261
 31
0.0
  0
LINE
  5
481
330
2
100
AcDbEntity
  8
03-01
100
AcDbLine
 10
275.2726671069131
 20
681.3036358875251
 30
0.0
 11
295.2726671069131
 21
681.3036358875251
 31
0.0
  0
LINE
  5
482
330
2
100
AcDbEntity
  8
0
100
AcDbLine
 10
149.2726671069131
 20
237.8036358875261
 30
0.0
 11
149.2726671069131
 21
227.6454333653628
 31
0.0
  0
ARC
  5
483
330
2
100
AcDbEntity
  8
0
100
AcDbCircle
 10
152.2726671069131
 20
227.6454333653628
 30
0.0
 40
3.0
100
AcDbArc
 50
180.0
 51
270.0
  0
LINE
  5
484
330
2
100
AcDbEntity
  8
03-01
100
AcDbLine
 10
148.7726671069131
 20
680.803635887526
 30
0.0
 11
148.7726671069131
 21
264.0965291063403
 31
0.0
  0
LINE
  5
485
330
2
100
AcDbEntity
  8
03-01
100
AcDbLine
 10
147.7726671069131
 20
680.803635887526
 30
0.0
 11
147.7726671069131
 21
263.682315543967
 31
0.0
  0
LINE
  5
486
330
2
100
AcDbEntity
  8
03-01
100
AcDbLine
 10
177.2033849637819
 20
235.6658112494715
 30
0.0
 11
176.4962781825952
 21
234.9587044682849
 31
0.0
  0
LINE
  5
487
330
2
100
AcDbEntity
  8
0
100
AcDbLine
 10
397.3650942834711
 20
224.6454333653628
 30
0.0
 11
404.272667106913
 21
224.6454333653628
 31
0.0
  0
LINE
  5
488
330
2
100
AcDbEntity
  8
0
100
AcDbLine
 10
152.2726671069131
 20
224.6454333653628
 30
0.0
 11
159.1802399303551
 21
224.6454333653628
 31
0.0
  0
LINE
  5
489
330
2
100
AcDbEntity
  8
03-01
100
AcDbLine
 10
149.2726671069131
 20
237.8036358875261
 30
0.0
 11
407.2726671069131
 21
237.8036358875261
 31
0.0
  0
LINE
  5
48A
330
2
100
AcDbEntity
  8
0
100
AcDbLine
 10
400.5663992645058
 20
230.2329372607337
 30
0.0
 11
407.2726671069131
 21
230.2329372607337
 31
0.0
  0
LINE
  5
48B
330
2
100
AcDbEntity
  8
0
100
AcDbLine
 10
149.2726671069131
 20
230.2329372607337
 30
0.0
 11
155.9726671069133
 21
230.2329372607337
 31
0.0
  0
LINE
  5
48C
330
2
100
AcDbEntity
  8
03-01
100
AcDbLine
 10
408.7726671069135
 20
680.8036358875251
 30
0.0
 11
147.7726671069131
 21
680.803635887526
 31
0.0
  0
ENDSEC
  0
SECTION
  2
OBJECTS
  0
DICTIONARY
  5
B
330
0
100
AcDbDictionary
281
     1
  3
ACAD_COLOR
350
4C
  3
ACAD_GROUP
350
39
  3
ACAD_LAYOUT
350
18
  3
ACAD_MATERIAL
350
D
  3
ACAD_MLEADERSTYLE
350
4F
  3
ACAD_MLINESTYLE
350
3A
  3
ACAD_PLOTSETTINGS
350
3B
  3
ACAD_PLOTSTYLENAME
350
A
  3
ACAD_SCALELIST
350
4D
  3
ACAD_TABLESTYLE
350
4E
  3
ACAD_VISUALSTYLE
350
30
  3
ACDB_RECOMPOSE_DATA
350
499
  3
AcDbVariableDictionary
350
490
  0
DICTIONARY
  5
31
330
2D
100
AcDbDictionary
280
     1
281
     1
  0
DICTIONARY
  5
20
330
1F
100
AcDbDictionary
280
     1
281
     1
  3
ACAD_LAYERFILTERS
360
21
  3
ACAD_LAYERSTATES
360
22
  3
ACLYDICTIONARY
360
23
  0
DICTIONARY
  5
7
330
6
100
AcDbDictionary
280
     1
281
     1
  3
ADSK_XREC_LAYER_RECONCILED
360
8
  0
DICTIONARY
  5
1C9
330
1C8
100
AcDbDictionary
280
     1
281
     1
  3
ADSK_XREC_LAYER_RECONCILED
360
1CA
  0
DICTIONARY
  5
51
330
50
100
AcDbDictionary
280
     1
281
     1
  3
ADSK_XREC_LAYER_RECONCILED
360
52
  0
DICTIONARY
  5
108
330
107
100
AcDbDictionary
280
     1
281
     1
  3
ADSK_XREC_LAYER_RECONCILED
360
109
  0
DICTIONARY
  5
187
330
186
100
AcDbDictionary
280
     1
281
     1
  3
ADSK_XREC_LAYER_RECONCILED
360
188
  0
DICTIONARY
  5
210
330
20F
100
AcDbDictionary
280
     1
281
     1
  3
ADSK_XREC_LAYER_RECONCILED
360
211
  0
DICTIONARY
  5
24F
330
24E
100
AcDbDictionary
280
     1
281
     1
  3
ADSK_XREC_LAYER_RECONCILED
360
250
  0
DICTIONARY
  5
239
330
238
100
AcDbDictionary
280
     1
281
     1
  3
ADSK_XREC_LAYER_RECONCILED
360
23A
  0
DICTIONARY
  5
215
330
214
100
AcDbDictionary
280
     1
281
     1
  0
DICTIONARY
  5
141
330
140
100
AcDbDictionary
280
     1
281
     1
  0
DICTIONARY
  5
3
330
2
100
AcDbDictionary
280
     1
281
     1
  3
ACAD_SORTENTS
360
48F
  0
DICTIONARY
  5
20B
330
20A
100
AcDbDictionary
280
     1
281
     1
  3
ACAD_SORTENTS
360
48D
  0
DICTIONARY
  5
13C
330
13B
100
AcDbDictionary
280
     1
281
     1
  3
ACAD_SORTENTS
360
48E
  0
DICTIONARY
  5
4C
102
{ACAD_REACTORS
330
B
102
}
330
B
100
AcDbDictionary
281
     1
  0
DICTIONARY
  5
39
102
{ACAD_REACTORS
330
B
102
}
330
B
100
AcDbDictionary
281
     1
  0
DICTIONARY
  5
18
102
{ACAD_REACTORS
330
B
102
}
330
B
100
AcDbDictionary
281
     1
  3
Layout1
350
1E
  3
Model
350
17
  0
DICTIONARY
  5
D
102
{ACAD_REACTORS
330
B
102
}
330
B
100
AcDbDictionary
281
     1
  3
ByBlock
350
44
  3
ByLayer
350
3C
  3
Global
350
C
  0
DICTIONARY
  5
4F
102
{ACAD_REACTORS
330
B
102
}
330
B
100
AcDbDictionary
281
     1
  0
DICTIONARY
  5
3A
102
{ACAD_REACTORS
330
B
102
}
330
B
100
AcDbDictionary
281
     1
  3
Standard
350
53
  0
DICTIONARY
  5
3B
102
{ACAD_REACTORS
330
B
102
}
330
B
100
AcDbDictionary
281
     1
  0
ACDBDICTIONARYWDFLT
  5
A
102
{ACAD_REACTORS
330
B
102
}
330
B
100
AcDbDictionary
281
     1
  3
Normal
350
9
100
AcDbDictionaryWithDefault
340
9
  0
DICTIONARY
  5
4D
102
{ACAD_REACTORS
330
B
102
}
330
B
100
AcDbDictionary
281
     1
  3
A0
350
58
  3
A1
350
59
  3
A2
350
5A
  3
A3
350
5B
  3
A4
350
5C
  3
A5
350
5D
  3
A6
350
5E
  3
A7
350
5F
  3
A8
350
60
  3
A9
350
61
  3
B0
350
62
  3
B1
350
63
  3
B2
350
64
  3
B3
350
65
  3
B4
350
66
  3
B5
350
67
  3
B6
350
68
  3
B7
350
69
  3
B8
350
6A
  3
B9
350
6B
  3
C0
350
6C
  3
C1
350
6D
  3
C2
350
6E
  3
C3
350
6F
  3
C4
350
70
  3
C5
350
71
  3
C6
350
72
  3
C7
350
73
  3
C8
350
74
  3
C9
350
75
  3
D0
350
76
  3
D1
350
77
  3
D2
350
78
  0
DICTIONARY
  5
4E
102
{ACAD_REACTORS
330
B
102
}
330
B
100
AcDbDictionary
281
     1
  3
Standard
350
54
  0
DICTIONARY
  5
30
102
{ACAD_REACTORS
330
B
102
}
330
B
100
AcDbDictionary
281
     1
  3
2dWireframe
350
2F
  3
3dWireframe
350
57
  3
Realistic
350
56
  0
XRECORD
  5
499
102
{ACAD_REACTORS
330
B
102
}
330
B
100
AcDbXrecord
280
     1
 90
        1
330
54
  0
DICTIONARY
  5
490
102
{ACAD_REACTORS
330
B
102
}
330
B
100
AcDbDictionary
281
     1
  3
CANNOSCALE
350
493
  3
CMLEADERSTYLE
350
492
  3
CTABLESTYLE
350
491
  3
LAYEREVAL
350
495
  3
LAYERNOTIFY
350
496
  3
LIGHTINGUNITS
350
494
  0
DICTIONARY
  5
21
102
{ACAD_REACTORS
330
20
102
}
330
20
100
AcDbDictionary
281
     1
  0
DICTIONARY
  5
22
102
{ACAD_REACTORS
330
20
102
}
330
20
100
AcDbDictionary
281
     1
  0
DICTIONARY
  5
23
102
{ACAD_REACTORS
330
20
102
}
330
20
100
AcDbDictionary
281
     1
1001
ACAD
1000
<All
  0
XRECORD
  5
8
102
{ACAD_REACTORS
330
7
102
}
330
7
100
AcDbXrecord
280
     1
290
     1
  0
XRECORD
  5
1CA
102
{ACAD_REACTORS
330
1C9
102
}
330
1C9
100
AcDbXrecord
280
     1
290
     1
  0
XRECORD
  5
52
102
{ACAD_REACTORS
330
51
102
}
330
51
100
AcDbXrecord
280
     1
290
     1
  0
XRECORD
  5
109
102
{ACAD_REACTORS
330
108
102
}
330
108
100
AcDbXrecord
280
     1
290
     1
  0
XRECORD
  5
188
102
{ACAD_REACTORS
330
187
102
}
330
187
100
AcDbXrecord
280
     1
290
     1
  0
XRECORD
  5
211
102
{ACAD_REACTORS
330
210
102
}
330
210
100
AcDbXrecord
280
     1
290
     1
  0
XRECORD
  5
250
102
{ACAD_REACTORS
330
24F
102
}
330
24F
100
AcDbXrecord
280
     1
290
     1
  0
XRECORD
  5
23A
102
{ACAD_REACTORS
330
239
102
}
330
239
100
AcDbXrecord
280
     1
290
     1
  0
SORTENTSTABLE
  5
48F
102
{ACAD_REACTORS
330
3
102
}
330
3
100
AcDbSortentsTable
330
2
331
3F7
  5
451
331
436
  5
42A
331
432
  5
42E
331
1DC
  5
463
331
1D8
  5
467
331
474
  5
1CB
331
470
  5
1CF
331
46C
  5
1D3
331
468
  5
1D7
331
E9
  5
484
331
42E
  5
432
331
42A
  5
436
331
426
  5
43A
331
1D4
  5
46B
331
422
  5
43E
331
1D0
  5
46F
331
1CC
  5
473
331
464
  5
1DB
331
460
  5
1DF
331
45C
  5
1E3
331
458
  5
209
331
153
  5
47F
331
41E
  5
442
331
41A
  5
446
331
3DB
  5
455
331
416
  5
44A
331
1C4
  5
478
331
1C0
  5
47C
331
454
  5
3E8
331
450
  5
3F8
331
48B
  5
8A
331
44C
  5
414
331
448
  5
418
331
8A
  5
48B
331
3C3
  5
457
331
1E3
  5
45C
331
487
  5
C2
331
444
  5
41C
331
483
  5
F6
331
440
  5
420
331
47F
  5
153
331
47B
  5
1C1
331
43C
  5
424
331
438
  5
428
331
3FA
  5
44E
331
435
  5
42B
331
1DF
  5
460
331
431
  5
42F
331
1DB
  5
464
331
477
  5
1C5
331
473
  5
1CC
331
46F
  5
1D0
331
46B
  5
1D4
331
42D
  5
433
331
429
  5
437
331
1D7
  5
468
331
3EA
  5
452
331
425
  5
43B
331
1D3
  5
46C
331
421
  5
43F
331
1CF
  5
470
331
1CB
  5
474
331
467
  5
1D8
331
463
  5
1DC
331
45F
  5
1E0
331
45B
  5
1E4
331
DC
  5
485
331
41D
  5
443
331
419
  5
447
331
1C7
  5
475
331
415
  5
44B
331
1C3
  5
479
331
457
  5
3C3
331
453
  5
3E9
331
44F
  5
3F9
331
48A
  5
97
331
44B
  5
415
331
103
  5
482
331
3CE
  5
456
331
1E6
  5
459
331
1E2
  5
45D
331
447
  5
419
331
486
  5
CF
331
443
  5
41D
331
482
  5
103
331
43F
  5
421
331
47E
  5
16A
331
47A
  5
1C2
331
43B
  5
425
331
13A
  5
480
331
79
  5
48C
331
3F9
  5
44F
331
434
  5
42C
331
1DE
  5
461
331
1DA
  5
465
331
476
  5
1C6
331
472
  5
1CD
331
46E
  5
1D1
331
46A
  5
1D5
331
42C
  5
434
331
3E9
  5
453
331
428
  5
438
331
1D6
  5
469
331
424
  5
43C
331
1D2
  5
46D
331
1CE
  5
471
331
209
  5
458
331
420
  5
440
331
18B
  5
47D
331
466
  5
1D9
331
462
  5
1DD
331
45E
  5
1E1
331
45A
  5
1E5
331
A4
  5
489
331
41C
  5
444
331
418
  5
448
331
1C6
  5
476
331
414
  5
44C
331
1C2
  5
47A
331
456
  5
3CE
331
452
  5
3EA
331
44E
  5
3FA
331
44A
  5
416
331
489
  5
A4
331
CF
  5
486
331
1E5
  5
45A
331
1E1
  5
45E
331
446
  5
41A
331
485
  5
DC
331
442
  5
41E
331
481
  5
12D
331
47D
  5
18B
331
43E
  5
422
331
479
  5
1C3
331
43A
  5
426
331
F6
  5
483
331
3F8
  5
450
331
437
  5
429
331
433
  5
42D
331
1DD
  5
462
331
1D9
  5
466
331
475
  5
1C7
331
471
  5
1CE
331
46D
  5
1D2
331
469
  5
1D6
331
12D
  5
481
331
B3
  5
488
331
42F
  5
431
331
42B
  5
435
331
3E8
  5
454
331
427
  5
439
331
1D5
  5
46A
331
423
  5
43D
331
1D1
  5
46E
331
1CD
  5
472
331
465
  5
1DA
331
461
  5
1DE
331
45D
  5
1E2
331
459
  5
1E6
331
41F
  5
441
331
41B
  5
445
331
417
  5
449
331
1C5
  5
477
331
1C1
  5
47B
331
455
  5
3DB
331
451
  5
3F7
331
48C
  5
79
331
97
  5
48A
331
44D
  5
407
331
449
  5
417
331
488
  5
B3
331
407
  5
44D
331
1E4
  5
45B
331
16A
  5
47E
331
1E0
  5
45F
331
445
  5
41B
331
484
  5
E9
331
441
  5
41F
331
480
  5
13A
331
47C
  5
1C0
331
43D
  5
423
331
C2
  5
487
331
439
  5
427
331
478
  5
1C4
  0
SORTENTSTABLE
  5
48D
102
{ACAD_REACTORS
330
20B
102
}
330
20B
100
AcDbSortentsTable
330
20A
  0
SORTENTSTABLE
  5
48E
102
{ACAD_REACTORS
330
13C
102
}
330
13C
100
AcDbSortentsTable
330
13B
  0
LAYOUT
  5
1E
102
{ACAD_REACTORS
330
18
102
}
330
18
100
AcDbPlotSettings
  1

  2

  4

  6

 40
0.0
 41
0.0
 42
0.0
 43
0.0
 44
0.0
 45
0.0
 46
0.0
 47
0.0
 48
0.0
 49
0.0
140
0.0
141
0.0
142
1.0
143
1.0
 70
   688
 72
     0
 73
     0
 74
     5
  7

 75
    16
147
1.0
 76
     0
 77
     2
 78
   300
148
0.0
149
0.0
100
AcDbLayout
  1
Layout1
 70
     1
 71
     1
 10
0.0
 20
0.0
 11
420.0
 21
297.0
 12
0.0
 22
0.0
 32
0.0
 14
1.000000000000000E+20
 24
1.000000000000000E+20
 34
1.000000000000000E+20
 15
-1.000000000000000E+20
 25
-1.000000000000000E+20
 35
-1.000000000000000E+20
146
0.0
 13
0.0
 23
0.0
 33
0.0
 16
1.0
 26
0.0
 36
0.0
 17
0.0
 27
1.0
 37
0.0
 76
     0
330
1B
  0
LAYOUT
  5
17
102
{ACAD_XDICTIONARY
360
19
102
}
102
{ACAD_REACTORS
330
18
102
}
330
18
100
AcDbPlotSettings
  1

  2
HP LaserJet 4 Plus
  4
A4
  6

 40
6.805083274841308
 41
5.069413185119628
 42
6.805084228515625
 43
5.027069091796875
 44
209.9733276367187
 45
296.9683227539062
 46
0.0
 47
0.0
 48
0.0
 49
0.0
140
0.0
141
0.0
142
1.0
143
2.48396074989149
 70
 11952
 72
     1
 73
     0
 74
     1
  7
CNC-Soft.ctb
 75
     0
147
0.4025828508134375
 76
     0
 77
     2
 78
   300
148
0.0160205061733905
149
0.0226575730168861
100
AcDbLayout
  1
Model
 70
     1
 71
     0
 10
0.0
 20
0.0
 11
12.0
 21
9.0
 12
0.0
 22
0.0
 32
0.0
 14
0.0
 24
0.0
 34
0.0
 15
0.0
 25
0.0
 35
0.0
146
0.0
 13
0.0
 23
0.0
 33
0.0
 16
1.0
 26
0.0
 36
0.0
 17
0.0
 27
1.0
 37
0.0
 76
     0
330
2
331
2E
  0
MATERIAL
  5
44
102
{ACAD_XDICTIONARY
360
45
102
}
102
{ACAD_REACTORS
330
D
102
}
330
D
100
AcDbMaterial
  1
ByBlock
 72
     0
 43
0.0008202099737533
 43
0.0
 43
0.0
 43
0.0
 43
0.0
 43
0.0008202099737533
 43
0.0
 43
0.0
 43
0.0
 43
0.0
 43
1.0
 43
0.0
 43
0.0
 43
0.0
 43
0.0
 43
1.0
 77
     0
 47
0.0008202099737533
 47
0.0
 47
0.0
 47
0.0
 47
0.0
 47
0.0008202099737533
 47
0.0
 47
0.0
 47
0.0
 47
0.0
 47
1.0
 47
0.0
 47
0.0
 47
0.0
 47
0.0
 47
1.0
171
     0
 49
0.0008202099737533
 49
0.0
 49
0.0
 49
0.0
 49
0.0
 49
0.0008202099737533
 49
0.0
 49
0.0
 49
0.0
 49
0.0
 49
1.0
 49
0.0
 49
0.0
 49
0.0
 49
0.0
 49
1.0
175
     0
142
0.0008202099737533
142
0.0
142
0.0
142
0.0
142
0.0
142
0.0008202099737533
142
0.0
142
0.0
142
0.0
142
0.0
142
1.0
142
0.0
142
0.0
142
0.0
142
0.0
142
1.0
179
     0
144
0.0008202099737533
144
0.0
144
0.0
144
0.0
144
0.0
144
0.0008202099737533
144
0.0
144
0.0
144
0.0
144
0.0
144
1.0
144
0.0
144
0.0
144
0.0
144
0.0
144
1.0
147
0.0008202099737533
147
0.0
147
0.0
147
0.0
147
0.0
147
0.0008202099737533
147
0.0
147
0.0
147
0.0
147
0.0
147
1.0
147
0.0
147
0.0
147
0.0
147
0.0
147
1.0
  0
MATERIAL
  5
3C
102
{ACAD_XDICTIONARY
360
3D
102
}
102
{ACAD_REACTORS
330
D
102
}
330
D
100
AcDbMaterial
  1
ByLayer
 72
     0
 43
0.0008202099737533
 43
0.0
 43
0.0
 43
0.0
 43
0.0
 43
0.0008202099737533
 43
0.0
 43
0.0
 43
0.0
 43
0.0
 43
1.0
 43
0.0
 43
0.0
 43
0.0
 43
0.0
 43
1.0
 77
     0
 47
0.0008202099737533
 47
0.0
 47
0.0
 47
0.0
 47
0.0
 47
0.0008202099737533
 47
0.0
 47
0.0
 47
0.0
 47
0.0
 47
1.0
 47
0.0
 47
0.0
 47
0.0
 47
0.0
 47
1.0
171
     0
 49
0.0008202099737533
 49
0.0
 49
0.0
 49
0.0
 49
0.0
 49
0.0008202099737533
 49
0.0
 49
0.0
 49
0.0
 49
0.0
 49
1.0
 49
0.0
 49
0.0
 49
0.0
 49
0.0
 49
1.0
175
     0
142
0.0008202099737533
142
0.0
142
0.0
142
0.0
142
0.0
142
0.0008202099737533
142
0.0
142
0.0
142
0.0
142
0.0
142
1.0
142
0.0
142
0.0
142
0.0
142
0.0
142
1.0
179
     0
144
0.0008202099737533
144
0.0
144
0.0
144
0.0
144
0.0
144
0.0008202099737533
144
0.0
144
0.0
144
0.0
144
0.0
144
1.0
144
0.0
144
0.0
144
0.0
144
0.0
144
1.0
147
0.0008202099737533
147
0.0
147
0.0
147
0.0
147
0.0
147
0.0008202099737533
147
0.0
147
0.0
147
0.0
147
0.0
147
1.0
147
0.0
147
0.0
147
0.0
147
0.0
147
1.0
  0
MATERIAL
  5
C
102
{ACAD_XDICTIONARY
360
E
102
}
102
{ACAD_REACTORS
330
D
102
}
330
D
100
AcDbMaterial
  1
Global
 72
     0
 43
0.0008202099737533
 43
0.0
 43
0.0
 43
0.0
 43
0.0
 43
0.0008202099737533
 43
0.0
 43
0.0
 43
0.0
 43
0.0
 43
1.0
 43
0.0
 43
0.0
 43
0.0
 43
0.0
 43
1.0
 77
     0
 47
0.0008202099737533
 47
0.0
 47
0.0
 47
0.0
 47
0.0
 47
0.0008202099737533
 47
0.0
 47
0.0
 47
0.0
 47
0.0
 47
1.0
 47
0.0
 47
0.0
 47
0.0
 47
0.0
 47
1.0
171
     0
 49
0.0008202099737533
 49
0.0
 49
0.0
 49
0.0
 49
0.0
 49
0.0008202099737533
 49
0.0
 49
0.0
 49
0.0
 49
0.0
 49
1.0
 49
0.0
 49
0.0
 49
0.0
 49
0.0
 49
1.0
175
     0
142
0.0008202099737533
142
0.0
142
0.0
142
0.0
142
0.0
142
0.0008202099737533
142
0.0
142
0.0
142
0.0
142
0.0
142
1.0
142
0.0
142
0.0
142
0.0
142
0.0
142
1.0
179
     0
144
0.0008202099737533
144
0.0
144
0.0
144
0.0
144
0.0
144
0.0008202099737533
144
0.0
144
0.0
144
0.0
144
0.0
144
1.0
144
0.0
144
0.0
144
0.0
144
0.0
144
1.0
147
0.0008202099737533
147
0.0
147
0.0
147
0.0
147
0.0
147
0.0008202099737533
147
0.0
147
0.0
147
0.0
147
0.0
147
1.0
147
0.0
147
0.0
147
0.0
147
0.0
147
1.0
  0
MLINESTYLE
  5
53
102
{ACAD_REACTORS
330
3A
102
}
330
3A
100
AcDbMlineStyle
  2
STANDARD
 70
     0
  3

 62
   256
 51
90.0
 52
90.0
 71
     2
 49
0.5
 62
   256
  6
BYLAYER
 49
-0.5
 62
   256
  6
BYLAYER
  0
ACDBPLACEHOLDER
  5
9
102
{ACAD_REACTORS
330
A
102
}
330
A
  0
SCALE
  5
58
102
{ACAD_REACTORS
330
4D
102
}
330
4D
100
AcDbScale
 70
     0
300
1:1
140
1.0
141
1.0
290
     1
  0
SCALE
  5
59
102
{ACAD_REACTORS
330
4D
102
}
330
4D
100
AcDbScale
 70
     0
300
1:2
140
1.0
141
2.0
290
     0
  0
SCALE
  5
5A
102
{ACAD_REACTORS
330
4D
102
}
330
4D
100
AcDbScale
 70
     0
300
1:4
140
1.0
141
4.0
290
     0
  0
SCALE
  5
5B
102
{ACAD_REACTORS
330
4D
102
}
330
4D
100
AcDbScale
 70
     0
300
1:5
140
1.0
141
5.0
290
     0
  0
SCALE
  5
5C
102
{ACAD_REACTORS
330
4D
102
}
330
4D
100
AcDbScale
 70
     0
300
1:8
140
1.0
141
8.0
290
     0
  0
SCALE
  5
5D
102
{ACAD_REACTORS
330
4D
102
}
330
4D
100
AcDbScale
 70
     0
300
1:10
140
1.0
141
10.0
290
     0
  0
SCALE
  5
5E
102
{ACAD_REACTORS
330
4D
102
}
330
4D
100
AcDbScale
 70
     0
300
1:16
140
1.0
141
16.0
290
     0
  0
SCALE
  5
5F
102
{ACAD_REACTORS
330
4D
102
}
330
4D
100
AcDbScale
 70
     0
300
1:20
140
1.0
141
20.0
290
     0
  0
SCALE
  5
60
102
{ACAD_REACTORS
330
4D
102
}
330
4D
100
AcDbScale
 70
     0
300
1:30
140
1.0
141
30.0
290
     0
  0
SCALE
  5
61
102
{ACAD_REACTORS
330
4D
102
}
330
4D
100
AcDbScale
 70
     0
300
1:40
140
1.0
141
40.0
290
     0
  0
SCALE
  5
62
102
{ACAD_REACTORS
330
4D
102
}
330
4D
100
AcDbScale
 70
     0
300
1:50
140
1.0
141
50.0
290
     0
  0
SCALE
  5
63
102
{ACAD_REACTORS
330
4D
102
}
330
4D
100
AcDbScale
 70
     0
300
1:100
140
1.0
141
100.0
290
     0
  0
SCALE
  5
64
102
{ACAD_REACTORS
330
4D
102
}
330
4D
100
AcDbScale
 70
     0
300
2:1
140
2.0
141
1.0
290
     0
  0
SCALE
  5
65
102
{ACAD_REACTORS
330
4D
102
}
330
4D
100
AcDbScale
 70
     0
300
4:1
140
4.0
141
1.0
290
     0
  0
SCALE
  5
66
102
{ACAD_REACTORS
330
4D
102
}
330
4D
100
AcDbScale
 70
     0
300
8:1
140
8.0
141
1.0
290
     0
  0
SCALE
  5
67
102
{ACAD_REACTORS
330
4D
102
}
330
4D
100
AcDbScale
 70
     0
300
10:1
140
10.0
141
1.0
290
     0
  0
SCALE
  5
68
102
{ACAD_REACTORS
330
4D
102
}
330
4D
100
AcDbScale
 70
     0
300
100:1
140
100.0
141
1.0
290
     0
  0
SCALE
  5
69
102
{ACAD_REACTORS
330
4D
102
}
330
4D
100
AcDbScale
 70
     0
300
1/128" = 1'-0"
140
0.0078125
141
12.0
290
     0
  0
SCALE
  5
6A
102
{ACAD_REACTORS
330
4D
102
}
330
4D
100
AcDbScale
 70
     0
300
1/64" = 1'-0"
140
0.015625
141
12.0
290
     0
  0
SCALE
  5
6B
102
{ACAD_REACTORS
330
4D
102
}
330
4D
100
AcDbScale
 70
     0
300
1/32" = 1'-0"
140
0.03125
141
12.0
290
     0
  0
SCALE
  5
6C
102
{ACAD_REACTORS
330
4D
102
}
330
4D
100
AcDbScale
 70
     0
300
1/16" = 1'-0"
140
0.0625
141
12.0
290
     0
  0
SCALE
  5
6D
102
{ACAD_REACTORS
330
4D
102
}
330
4D
100
AcDbScale
 70
     0
300
3/32" = 1'-0"
140
0.09375
141
12.0
290
     0
  0
SCALE
  5
6E
102
{ACAD_REACTORS
330
4D
102
}
330
4D
100
AcDbScale
 70
     0
300
1/8" = 1'-0"
140
0.125
141
12.0
290
     0
  0
SCALE
  5
6F
102
{ACAD_REACTORS
330
4D
102
}
330
4D
100
AcDbScale
 70
     0
300
3/16" = 1'-0"
140
0.1875
141
12.0
290
     0
  0
SCALE
  5
70
102
{ACAD_REACTORS
330
4D
102
}
330
4D
100
AcDbScale
 70
     0
300
1/4" = 1'-0"
140
0.25
141
12.0
290
     0
  0
SCALE
  5
71
102
{ACAD_REACTORS
330
4D
102
}
330
4D
100
AcDbScale
 70
     0
300
3/8" = 1'-0"
140
0.375
141
12.0
290
     0
  0
SCALE
  5
72
102
{ACAD_REACTORS
330
4D
102
}
330
4D
100
AcDbScale
 70
     0
300
1/2" = 1'-0"
140
0.5
141
12.0
290
     0
  0
SCALE
  5
73
102
{ACAD_REACTORS
330
4D
102
}
330
4D
100
AcDbScale
 70
     0
300
3/4" = 1'-0"
140
0.75
141
12.0
290
     0
  0
SCALE
  5
74
102
{ACAD_REACTORS
330
4D
102
}
330
4D
100
AcDbScale
 70
     0
300
1" = 1'-0"
140
1.0
141
12.0
290
     0
  0
SCALE
  5
75
102
{ACAD_REACTORS
330
4D
102
}
330
4D
100
AcDbScale
 70
     0
300
1-1/2" = 1'-0"
140
1.5
141
12.0
290
     0
  0
SCALE
  5
76
102
{ACAD_REACTORS
330
4D
102
}
330
4D
100
AcDbScale
 70
     0
300
3" = 1'-0"
140
3.0
141
12.0
290
     0
  0
SCALE
  5
77
102
{ACAD_REACTORS
330
4D
102
}
330
4D
100
AcDbScale
 70
     0
300
6" = 1'-0"
140
6.0
141
12.0
290
     0
  0
SCALE
  5
78
102
{ACAD_REACTORS
330
4D
102
}
330
4D
100
AcDbScale
 70
     0
300
1'-0" = 1'-0"
140
12.0
141
12.0
290
     0
  0
TABLESTYLE
  5
54
102
{ACAD_XDICTIONARY
360
55
102
}
102
{ACAD_REACTORS
330
4E
102
}
330
4E
100
AcDbTableStyle
280
     0
  3
Standard
 70
     0
 71
     0
 40
1.5
 41
1.5
280
     0
281
     0
  7
Standard
140
4.5
170
     2
 62
     0
 63
     7
283
     0
 90
      512
 91
        0
  1

274
    -2
284
     1
 64
     0
275
    -2
285
     1
 65
     0
276
    -2
286
     1
 66
     0
277
    -2
287
     1
 67
     0
278
    -2
288
     1
 68
     0
279
    -2
289
     1
 69
     0
  7
Standard
140
6.0
170
     5
 62
     0
 63
     7
283
     0
 90
      512
 91
        0
  1

274
    -2
284
     1
 64
     0
275
    -2
285
     1
 65
     0
276
    -2
286
     1
 66
     0
277
    -2
287
     1
 67
     0
278
    -2
288
     1
 68
     0
279
    -2
289
     1
 69
     0
  7
Standard
140
4.5
170
     5
 62
     0
 63
     7
283
     0
 90
      512
 91
        0
  1

274
    -2
284
     1
 64
     0
275
    -2
285
     1
 65
     0
276
    -2
286
     1
 66
     0
277
    -2
287
     1
 67
     0
278
    -2
288
     1
 68
     0
279
    -2
289
     1
 69
     0
  0
VISUALSTYLE
  5
2F
102
{ACAD_REACTORS
330
30
102
}
330
30
100
AcDbVisualStyle
  2
2dWireframe
 70
     4
177
     2
291
     0
 71
     0
176
     1
 72
     2
176
     1
 73
     0
176
     1
 90
        0
176
     1
 40
0.6
176
     1
 41
30.0
176
     1
 63
     7
176
     1
 74
     1
176
     1
 91
        4
176
     1
 64
     7
176
     1
 65
   257
176
     1
 75
     1
176
     1
175
     1
176
     1
 42
1.0
176
     1
 92
        0
176
     1
 66
   257
176
     1
 43
1.0
176
     1
 76
     1
176
     1
 77
     6
176
     1
 78
     2
176
     1
 67
     7
176
     1
 79
     5
176
     1
170
     0
176
     1
171
     0
176
     1
290
     0
176
     1
 93
        1
176
     1
 44
0.0
176
     1
173
     0
176
     1
  0
VISUALSTYLE
  5
57
102
{ACAD_REACTORS
330
30
102
}
330
30
100
AcDbVisualStyle
  2
3dWireframe
 70
     5
177
     2
291
     0
 71
     0
176
     1
 72
     2
176
     1
 73
     0
176
     1
 90
        0
176
     1
 40
0.6
176
     1
 41
30.0
176
     1
 63
     7
176
     1
 74
     1
176
     1
 91
        4
176
     1
 64
     7
176
     1
 65
   257
176
     1
 75
     1
176
     1
175
     1
176
     1
 42
1.0
176
     1
 92
        0
176
     1
 66
   257
176
     1
 43
1.0
176
     1
 76
     1
176
     1
 77
     6
176
     1
 78
     2
176
     1
 67
     7
176
     1
 79
     5
176
     1
170
     0
176
     1
171
     0
176
     1
290
     0
176
     1
 93
        1
176
     1
 44
0.0
176
     1
173
     0
176
     1
  0
VISUALSTYLE
  5
56
102
{ACAD_REACTORS
330
30
102
}
330
30
100
AcDbVisualStyle
  2
Realistic
 70
     8
177
     2
291
     0
 71
     2
176
     1
 72
     2
176
     1
 73
     0
176
     1
 90
        0
176
     1
 40
0.6
176
     1
 41
30.0
176
     1
 63
     7
176
     1
 74
     1
176
     1
 91
        0
176
     1
 64
     7
176
     1
 65
   257
176
     1
 75
     1
176
     1
175
     1
176
     1
 42
1.0
176
     1
 92
        8
176
     1
 66
     8
176
     1
 43
1.0
176
     1
 76
     1
176
     1
 77
     6
176
     1
 78
     2
176
     1
 67
     7
176
     1
 79
     5
176
     1
170
     0
176
     1
171
     0
176
     1
290
     0
176
     1
 93
       13
176
     1
 44
0.0
176
     1
173
     0
176
     1
  0
DICTIONARYVAR
  5
493
102
{ACAD_REACTORS
330
490
102
}
330
490
100
DictionaryVariables
280
     0
  1
1:1
  0
DICTIONARYVAR
  5
492
102
{ACAD_REACTORS
330
490
102
}
330
490
100
DictionaryVariables
280
     0
  1
STANDARD
  0
DICTIONARYVAR
  5
491
102
{ACAD_REACTORS
330
490
102
}
330
490
100
DictionaryVariables
280
     0
  1
STANDARD
  0
DICTIONARYVAR
  5
495
102
{ACAD_REACTORS
330
490
102
}
330
490
100
DictionaryVariables
280
     0
  1
1
  0
DICTIONARYVAR
  5
496
102
{ACAD_REACTORS
330
490
102
}
330
490
100
DictionaryVariables
280
     0
  1
15
  0
DICTIONARYVAR
  5
494
102
{ACAD_REACTORS
330
490
102
}
330
490
100
DictionaryVariables
280
     0
  1
0
  0
DICTIONARY
  5
19
330
17
100
AcDbDictionary
280
     1
281
     1
  3
ADSK_XREC_LAYOUTTHUMBNAIL
360
1A
  0
DICTIONARY
  5
45
330
44
100
AcDbDictionary
280
     1
281
     1
  3
BUMPTILE
360
46
  3
DIFFUSETILE
360
47
  3
OPACITYTILE
360
48
  3
REFLECTIONTILE
360
49
  3
REFRACTIONTILE
360
4A
  3
SPECULARTILE
360
4B
  0
DICTIONARY
  5
3D
330
3C
100
AcDbDictionary
280
     1
281
     1
  3
BUMPTILE
360
3E
  3
DIFFUSETILE
360
3F
  3
OPACITYTILE
360
40
  3
REFLECTIONTILE
360
41
  3
REFRACTIONTILE
360
42
  3
SPECULARTILE
360
43
  0
DICTIONARY
  5
E
330
C
100
AcDbDictionary
280
     1
281
     1
  3
BUMPTILE
360
F
  3
DIFFUSETILE
360
10
  3
OPACITYTILE
360
11
  3
REFLECTIONTILE
360
12
  3
REFRACTIONTILE
360
13
  3
SPECULARTILE
360
14
  0
DICTIONARY
  5
55
330
54
100
AcDbDictionary
280
     1
281
     1
  3
ACAD_ROUNDTRIP_2008_TABLESTYLE_CELLSTYLEMAP
360
497
  0
XRECORD
  5
1A
102
{ACAD_REACTORS
330
19
102
}
330
19
100
AcDbXrecord
280
     1
310
280000000001000084000000010008000000000000840000000000000000000000010000000000000000000000000000FFFFFF000000000000000000000000000000000000000000000000000000000000000000330000006600000099000000CC000000FF00000000330000333300006633000099330000CC330000FF3300
310
0000660000336600006666000099660000CC660000FF66000000990000339900006699000099990000CC990000FF99000000CC000033CC000066CC000099CC0000CCCC0000FFCC000000FF000033FF000066FF000099FF0000CCFF0000FFFF000000003300330033006600330099003300CC003300FF003300003333003333
310
33006633330099333300CC333300FF33330000663300336633006666330099663300CC663300FF66330000993300339933006699330099993300CC993300FF99330000CC330033CC330066CC330099CC3300CCCC3300FFCC330000FF330033FF330066FF330099FF3300CCFF3300FFFF330000006600330066006600660099
310
006600CC006600FF00660000336600333366006633660099336600CC336600FF33660000666600336666006666660099666600CC666600FF66660000996600339966006699660099996600CC996600FF99660000CC660033CC660066CC660099CC6600CCCC6600FFCC660000FF660033FF660066FF660099FF6600CCFF6600
310
FFFF660000009900330099006600990099009900CC009900FF00990000339900333399006633990099339900CC339900FF33990000669900336699006666990099669900CC669900FF66990000999900339999006699990099999900CC999900FF99990000CC990033CC990066CC990099CC9900CCCC9900FFCC990000FF99
310
0033FF990066FF990099FF9900CCFF9900FFFF99000000CC003300CC006600CC009900CC00CC00CC00FF00CC000033CC003333CC006633CC009933CC00CC33CC00FF33CC000066CC003366CC006666CC009966CC00CC66CC00FF66CC000099CC003399CC006699CC009999CC00CC99CC00FF99CC0000CCCC0033CCCC0066CC
310
CC0099CCCC00CCCCCC00FFCCCC0000FFCC0033FFCC0066FFCC0099FFCC00CCFFCC00FFFFCC000000FF003300FF006600FF009900FF00CC00FF00FF00FF000033FF003333FF006633FF009933FF00CC33FF00FF33FF000066FF003366FF006666FF009966FF00CC66FF00FF66FF000099FF003399FF006699FF009999FF00CC
310
99FF00FF99FF0000CCFF0033CCFF0066CCFF0099CCFF00CCCCFF00FFCCFF0000FFFF0033FFFF0066FFFF0099FFFF00CCFFFF00FFFFFF00000000000D0D0D001A1A1A00282828003535350043434300505050005D5D5D006B6B6B00787878008686860093939300A1A1A100AEAEAE00BBBBBB00C9C9C900D6D6D600E4E4E400
310
F1F1F100FFFFFF0000000000000000000000000000000000000000000000000000000000000000000000000000000000E2E2E2E2E2E2E2E2E2E2E2E2E2E2E2E2E2E2E2E2E2E2E2E2E2E2E2E2E2E2E2E2E2E2E2E2E2E2E2E2E2E2E2E2E2E2E2E2E2E2E2E2E2E2E2E2E2E2E2E2E2E2E2E2E2E2E2E2E2E2E2E2E2E2E2E2E2E2E2
310
E2E2E2E2E2E2E2E2E2E2E2E2E2E2E2E2E2E2E2E2E2E2E2E2E2E2E2E2E2E2E2E2E2E2E2E2E2E2E2E2E2E2E2E2E2E2E2E2E2E2E2E2E2E2E2E2E2E2E2E2E2E2E2E2E2E2E2E2E2E2E2E2E2E2E2E2E2E2E2E2E2E2E2E2E2E2E2E2E2E2E2E2E2E2E2E2E2E2E2E2E2E2E2E2E2E2E2E2E2E2E2E2E2E2E2E2E2E2E2E2E2E2E2E2E2E2E2
310
E2E2E2E2E2E2E2E2E2E2E2E2E2E2E2E2E2E2E2E2E2E2E2E2E2E2E2E2E2E2E2E2E2E2E2E2E2E2E2E2E2E2E2E2E2E2E2E2E2E2E2E2E2E2E2E2E2E2E2E2E2E2E2E2E2E2E2E2E2E2E2E2E2E2E2E2E2E2E2E2E2E2E2E2E2E2E2E2E2E2E2E2E2E2E2E2E2E2E2E2E2E2E2E2E2E2E2E2E2E2E2E2E2E2E2E2E2E2E2E2E2E2E2E2E2E2E2
310
E2E2E2E2E2E2E2E2E2E2E2E2E2E2E2E2E2E2E2E2E2E2E2E2E2E2E2E2E2E2E2E2E2E2E2E2E2E2E2E2E2E2E2E2E2E2E2E2E2E2E2E2E2E2E2E2E2E2E2E2E2E2E2E2E2E2E2E2E2E2E2E2E2E2E2E2E2E2E2E2E2E2E2E2E2E2E2E2E2E2E2E2E2E2E2E2E2E2E2E2E2E2E2E2E2E2E2E2E2E2E2E2E2E2E2E2E2E2E2E2E2E2E2E2E2E2E2
310
E2E2E2E2E2E2E2E2E2E2E2E2E2E2E2E2E2E2E2E2E2E2E2E2E2E2E2E2E2E2E2E2E2E2E2E2E2E2E2E2E2E2E2E2E2E2E2E2E2E2E2E2E2E2E2E2E2E2E2E2E2E2E2E2E2E2E2E2E2E2E2E2E2E2E2E2E2E2E2E2E2E2E2E2E2E2E2E2E2E2E2E2E2E2E2E2E2E2E2E2E2E2E2E2E2E2E2E2E2E2E2E2E2E2E2E2E2E2E2E2E2E2E2E2E2E2E2
310
E2E2E2E2E2E2E2E2E2E2E2E2E2E2E2E2E2E2E2E2E2E2E2E2E2E2E2E2E2E2E2E2E2E2E2E2E2E2E2E2E2E2E2E2E2E2E2E2E2E2E2E2E2E2E2E2E2E2E2E2E2E2E2E2E2E2E2E2E2E2E2E2E2E2E2E2E2E2E2E2E2E2E2E2E2E2E2E2E2E2E2E2E2E2E2E2E2E2E2E2E2E2E2E2E2E2E2E2E2E2E2E2E2E2E2E2E2E2E2E2E2E2E2E2E2E2E2
310
E2E2E2E2E2E2E2E2E2E2E2E2E2E2E2E2E2E2E2E2E2E2E2E2E2E2E2E2E2E2E2E2E2E2E2E2E2E2E2E2E2E2E2E2E2E2E2E2E2E2E2E2E2E2E2E2E2E2E2E2E2E2E2E2E2E2E2E2E2E2E2E2E2E2E2E2E2E2E2E2E2E2E2E2E2E2E2E2E2E2E2E2E2E2E2E2E2E2E2E2E2E2E2E2E2E2E2E2E2E2E2E2E2E2E2E2E2E2E2E2E2E2E2E2E2E2E2
310
E2E2E2E2E2E2E2E2E2E2E2E2E2E2E2E2E2E2E2E2E2E2E2E2E2E2E2E2E2E2E2E2E2E2E2E2E2E2E2E2E2E2E2E2E2E2E2E2E2E2E2E2E2E2E2E2E2E2E2E2E2E2E2E2E2E2E2E2E2E2E2E2E2E2E2E2E2E2E2E2E2E2E2E2E2E2E2E2E2E2E2E2E2E2E2E2E2E2E2E2E2E2E2E2E2E2E2E2E2E2E2E2E2E2E2E2E2E2E2E2E2E2E2E2E2E2E2
310
E2E2E2E2E2E2E2E2E2E2E2E2E2E2E2E2E2E2E2E2E2E2E2E2E2E2E2E2E2E2E2E2E2E2E2E2E2E2E2E2E2E2E2E2E2E2E2E2E2E2E2E2E2E2E2E2E2E2E2E2E2E2E2E2E2E2E2E2E2E2E2E2E2E2E2E2E2E2E2E2E2E2E2E2E2E2E2E2E2E2E2E2E2E2E2E2E2E2E2E2E2E2E2E2E2E2E2E2E2E2E2E2E2E2E2E2E2E2E2E2E2E2E2E2E2E2E2
310
E2E2E2E2E2E2E2E2E2E2E2E2E2E2E2E2E2E2E2E2E2E2E2E2E2E2E2E2E2E2E2E2E2E2E2E2E2E2E2E2E2E2E2E2E2E2E2E2E2E2E2E2E2E2E2E2E2E2E2E2E2E2E2E2E2E2E2E2E2E2E2E2E2E2E2E2E2E2E2E2E2E2E2E2E2E2E2E2E2E2E2E2E2E2E2E2E2E2E2E2E2E2E2E2E2E2E2E2E2E2E2E2E2E2E2E2E2E2E2E2E2E2E2E2E2E2E2
310
E2E2E2E2E2E2E2E2E2E2E2E2E2E2E2E2E2E2E2E2E2E2E2E2E2E2E2E2E2E2E2E2E2E2E2E2E2E2E2E2E2E2E2E2E2E2E2E2E2E2E2E2E2E2E2E2E2E2E2E2E2E2E2E2E2E2E2E2E2E2E2E2E2E2E2E2E2E2E2E2E2E2E2E2E2E2E2E2E2E2E2E2E2E2E2E2E2E2E2E2E2E2E2E2E2E2E2E2E2E2E2E2E2E2E2E2E2E2E2E2E2E2E2E2E2E2E2
310
E2E2E2E2E2E2E2E2E2E2E2E2E2E2E2E2E2E2E2E2E2E2E2E2E2E2E2E2E2E2E2E2E2E2E2E2E2E2E2E2E2E2E2E2E2E2E2E2E2E2E2E2E2E2E2E2E2E2E2E2E2E2E2E2E2E2E2E2E2E2E2E2E2E2E2E2E2E2E2E2E2E2E2E2E2E2E2E2E2E2E2E2E2E2E2E2E2E2E2E2E2E2E2E2E2E2E2E2E2E2E2E2E2E2E2E2E2E2E2E2E2E2E2E2E2E2E2
310
E2E2E2E2E2E2E2E2E2E2E2E2E2E2E2E2E2E2E2E2E2E2E2E2E2E2E2E2E2E2E2E2E2E2E2E2E2E2E2E2E2E2E2E2E2E2E2E2E2E2E2E2E2E2E2E2E2E2E2E2E2E2E2E2E2E2E2E2E2E2E2E2E2E2E2E2E2E2E2E2E2E2E2E2E2E2E2E2E2E2E2E2E2E2E2E2E2E2E2E2E2E2E2E2E2E2E2E2E2E2E2E2E2E2E2E2E2E2E2E2E2E2E2E2E2E2E2
310
E2E2E2E2E2E2E2E2E2E2E2E2E2E2E2E2E2E2E2E2E2E2E2E2E2E2E2E2E2E2E2E2E2E2E2E2E2E2E2E2E2E2E2E2E2E2E2E2E2E2E2E2E2E2E2E2E2E2E2E2E2E2E2E2E2E2E2E2E2E2E2E2E2E2E2E2E2E2E2E2E2E2E2E2E2E2E2E2E2E2E2E2E2E2E2E2E2E2E2E2E2E2E2E2E2E2E2E2E2E2E2E2E2E2E2E2E2E2E2E2E2E2E2E2E2E2E2
310
E2E2E2E2E2E2E2E2E2E2E2E2E2E2E2E2E2E2E2E2E2E2E2E2E2E2E2E2E2E2E2E2E2E2E2E2E2E2E2E2E2E2E2E2E2E2E2E2E2E2E2E2E2E2E2E2E2E2E2E2E2E2E2E2E2E2E2E2E2E2E2E2E2E2E2E2E2E2E2E2E2E2E2E2E2E2E2E2E2E2E2E2E2E2E2E2E2E2E2E2E2E2E2E2E2E2E2E2E2E2E2E2E2E2E2E2E2E2E2E2E2E2E2E2E2E2E2
310
E2E2E2E2E2E2E2E2E2E2E2E2E2E2E2E2E2E2E2E2E2E2E2E2E2E2E2E2E2E2E2E2E2E2E2E2E2E2E2E2E2E2E2E2E2E2E2E2E2E2E2E2E2E2E2E2E2E2E2E2E2E2E2E2E2E2E2E2E2E2E2E2E2E2E2E2E2E2E2E2E2E2E2E2E2E2E2E2E2E2E2E2E2E2E2E2E2E2E2E2E2E2E2E2E2E2E2E2E2E2E2E2E2E2E2E2E2E2E2E2E2E2E2E2E2E2E2
310
E2E2E2E2E2E2E2E2E2E2E2E2E2E2E2E2E2E2E2E2E2E2E2E2E2E2E2E2E2E2E2E2E2E2E2E2E2E2E2E2E2E2E2E2E2E2E2E2E2E2E2E2E2E2E2E2E2E2E2E2E2E2E2E2E2E2E2E2E2E2E2E2E2E2E2E2E2E2E2E2E2E2E2E2E2E2E2E2E2E2E2E2E2E2E2E2E2E2E2E2E2E2E2E2E2E2E2E2E2E2E2E2E2E2E2E2E2E2E2E2E2E2E2E2E2E2E2
310
E2E2E2E2E2E2E2E2E2E2E2E2E2E2E2E2E2E2E2E2E2E2E2E2E2E2E2E2E2E2E2E2E2E2E2E2E2E2E2E2E2E2E2E2E2E2E2E2E2E2E2E2E2E2E2E2E2E2E2E2E2E2E2E2E2E2E2E2E2E2E2E2E2E2E2E2E2E2E2E2E2E2E2E2E2E2E2E2E2E2E2E2E2E2E2E2E2E2E2E2E2E2E2E2E2E2E2E2E2E2E2E2E2E2E2E2E2E2E2E2E2E2E2E2E2E2E2
310
E2E2E2E2E2E2E2E2E2E2E2E2E2E2E2E2E2E2E2E2E2E2E2E2E2E2E2E2E2E2E2E2E2E2E2E2E2E2E2E2E2E2E2E2E2E2E2E2E2E2E2E2E2E2E2E2E2E2E2E2E2E2E2E2E2E2E2E2E2E2E2E2E2E2E2E2E2E2E2E2E2E2E2E2E2E2E2E2E2E2E2E2E2E2E2E2E2E2E2E2E2E2E2E2E2E2E2E2E2E2E2E2E2E2E2E2E2E2E2E2E2E2E2E2E2E2E2
310
E2E2E2E2E2E2E2E2E2E2E2E2E2E2E2E2E2E2E2E2E2E2E2E2E2E2E2E2E2E2E2E2E2E2E2E2E2E2E2E2E2E2E2E2E2E2E2E2E2E2E2E2E2E2E2E2E2E2E2E2E2E2E2E2E2E2E2E2E2E2E2E2E2E2E2E2E2E2E2E2E2E2E2E2E2E2E2E2E2E2E2E2E2E2E2E2E2E2E2E2E2E2E2E2E2E2E2E2E2E2E2E2E2E2E2E2E2E2E2E2E2E2E2E2E2E2E2
310
E2E2E2E2E2E2E2E2E2E2E2E2E2E2E2E2E2E2E2E2E2E2E2E2E2E2E2E2E2E2E2E2E2E2E2E2E2E2E2E2E2E2E2E2E2E2E2E2E2E2E2E2E2E2E2E2E2E2E2E2E2E2E2E2E2E2E2E2E2E2E2E2E2E2E2E2E2E2E2E2E2E2E2E2E2E2E2E2E2E2E2E2E2E2E2E2E2E2E2E2E2E2E2E2E2E2E2E2E2E2E2E2E2E2E2E2E2E2E2E2E2E2E2E2E2E2E2
310
E2E2E2E2E2E2E2E2E2E2E2E2E2E2E2E2E2E2E2E2E2E2E2E2E2E2E2E2E2E2E2E2E2E2E2E2E2E2E2E2E2E2E2E2E2E2E2E2E2E2E2E2E2E2E2E2E2E2E2E2E2E2E2E2E2E2E2E2E2E2E2E2E2E2E2E2E2E2E2E2E2E2E2E2E2E2E2E2E2E2E2E2E2E2E2E2E2E2E2E2E2E2E2E2E2E2E2E2E2E2E2E2E2E2E2E2E2E2E2E2E2E2E2E2E2E2E2
310
E2E2E2E2E2E2E2E2E2E2E2E2E2E2E2E2E2E2E2E2E2E2E2E2E2E2E2E2E2E2E2E2E2E2E2E2E2E2E2E2E2E2E2E2E2E2E2E2E2E2E2E2E2E2E2E2E2E2E2E2E2E2E2E2E2E2E2E2E2E2E2E2E2E2E2E2E2E2E2E2E2E2E2E2E2E2E2E2E2E2E2E2E2E2E2E2E2E2E2E2E2E2E2E2E2E2E2E2E2E2E2E2E2E2E2E2E2E2E2E2E2E2E2E2E2E2E2
310
E2E2E2E2E2E2E2E2E2E2E2E2E2E2E2E2E2E2E2E2E2E2E2E2E2E2E2E2E2E2E2E2E2E2E2E2E2E2E2E2E2E2E2E2E2E2E2E2E2E2E2E2E2E2E2E2E2E2E2E2E2E2E2E2E2E2E2E2E2E2E2E2E2E2E2E2E2E2E2E2E2E2E2E2E2E2E2E2E2E2E2E2E2E2E2E2E2E2E2E2E2E2E2E2E2E2E2E2E2E2E2E2E2E2E2E2E2E2E2E2E2E2E2E2E2E2E2
310
E2E2E2E2E2E2E2E2E2E2E2E2E2E2E2E2E2E2E2E2E2E2E2E2E2E2E2E2E2E2E2E2E2E2E2E2E2E2E2E2E2E2E2E2E2E2E2E2E2E2E2E2E2E2E2E2E2E2E2E2E2E2E2E2E2E2E2E2E2E2E2E2E2E2E2E2E2E2E2E2E2E2E2E2E2E2E2E2E2E2E2E2E2E2E2E2E2E2E2E2E2E2E2E2E2E2E2E2E2E2E2E2E2E2E2E2E2E2E2E2E2E2E2E2E2E2E2
310
E2E2E2E2E2E2E2E2E2E2E2E2E2E2E2E2E2E2E2E2E2E2E2E2E2E2E2E2E2E2E2E2E2E2E2E2E2E2E2E2E2E2E2E2E2E2E2E2E2E2E2E2E2E2E2E2E2E2E2E2E2E2E2E2E2E2E2E2E2E2E2E2E2E2E2E2E2E2E2E2E2E2E2E2E2E2E2E2E2E2E2E2E2E2E2E2E2E2E2E2E2E2E2E2E2E2E2E2E2E2E2E2E2E2E2E2E2E2E2E2E2E2E2E2E2E2E2
310
E2E2E2E2E2E2E2E2E2E2E2E2E2E2E2E2E2E2E2E2E2E2E2E2E2E2E2E2E2E2E2E2E2E2E2E2E2E2E2E2E2E2E2E2E2E2E2E2E2E2E2E2E2E2E2E2E2E2E2E2E2E2E2E2E2E2E2E2E2E2E2E2E2E2E2E2E2E2E2E2E2E2E2E2E2E2E2E2E2E2E2E2E2E2E2E2E2E2E2E2E2E2E2E2E2E2E2E2E2E2E2E2E2E2E2E2E2E2E2E2E2E2E2E2E2E2E2
310
E2E2E2E2E2E2E2E2E2E2E2E2E2E2E2E2E2E2E2E2E2E2E2E2E2E2E2E2E2E2E2E2E2E2E2E2E2E2E2E2E2E2E2E2E2E2E2E2E2E2E2E2E2E2E2E2E2E2E2E2E2E2E2E2E2E2E2E2E2E2E2E2E2E2E2E2E2E2E2E2E2E2E2E2E2E2E2E2E2E2E2E2E2E2E2E2E2E2E2E2E2E2E2E2E2E2E2E2E2E2E2E2E2E2E2E2E2E2E2E2E2E2E2E2E2E2E2
310
E2E2E2E2E2E2E2E2E2E2E2E2E2E2E2E2E2E2E2E2E2E2E2E2E2E2E2E2E2E2E2E2E2E2E2E2E2E2E2E2E2E2E2E2E2E2E2E2E2E2E2E2E2E2E2E2E2E2E2E2E2E2E2E2E2E2E2E2E2E2E2E2E2E2E2E2E2E2E2E2E2E2E2E2E2E2E2E2E2E2E2E2E2E2E2E2E2E2E2E2E2E2E2E2E2E2E2E2E2E2E2E2E2E2E2E2E2E2E2E2E2E2E2E2E2E2E2
310
E2E2E2E2E2E2E2E2E2E2E2E2E2E2E2E2E2E2E2E2E2E2E2E2E2E2E2E2E2E2E2E2E2E2E2E2E2E2E2E2E2E2E2E2E2E2E2E2E2E2E2E2E2E2E2E2E2E2E2E2E2E2E2E2E2E2E2E2E2E2E2E2E2E2E2E2E2E2E2E2E2E2E2E2E2E2E2E2E2E2E2E2E2E2E2E2E2E2E2E2E2E2E2E2E2E2E2E2E2E2E2E2E2E2E2E2E2E2E2E2E2E2E2E2E2E2E2
310
E2E2E2E2E2E2E2E2E2E2E2E2E2E2E2E2E2E2E2E2E2E2E2E2E2E2E2E2E2E2E2E2E2E2E2E2E2E2E2E2E2E2E2E2E2E2E2E2E2E2E2E2E2E2E2E2E2E2E2E2E2E2E2E2E2E2E2E2E2E2E2E2E2E2E2E2E2E2E2E2E2E2E2E2E2E2E2E2E2E2E2E2E2E2E2E2E2E2E2E2E2E2E2E2E2E2E2E2E2E2E2E2E2E2E2E2E2E2E2E2E2E2E2E2E2E2E2
310
E2E2E2E2E2E2E2E2E2E2E2E2E2E2E2E2E2E2E2E2E2E2E2E2E2E2E2E2E2E2E2E2E2E2E2E2E2E2E2E2E2E2E2E2E2E2E2E2E2E2E2E2E2E2E2E2E2E2E2E2E2E2E2E2E2E2E2E2E2E2E2E2E2E2E2E2E2E2E2E2E2E2E2E2E2E2E2E2E2E2E2E2E2E2E2E2E2E2E2E2E2E2E2E2E2E2E2E2E2E2E2E2E2E2E2E2E2E2E2E2E2E2E2E2E2E2E2
310
E2E2E2E2E2E2E2E2E2E2E2E2E2E2E2E2E2E2E2E2E2E2E2E2E2E2E2E2E2E2E2E2E2E2E2E2E2E2E2E2E2E2E2E2E2E2E2E2E2E2E2E2E2E2E2E2E2E2E2E2E2E2E2E2E2E2E2E2E2E2E2E2E2E2E2E2E2E2E2E2E2E2E2E2E2E2E2E2E2E2E2E2E2E2E2E2E2E2E2E2E2E2E2E2E2E2E2E2E2E2E2E2E2E2E2E2E2E2E2E2E2E2E2E2E2E2E2
310
E2E2E2E2E2E2E2E2E2E2E2E2E2E2E2E2E2E2E2E2E2E2E2E2E2E2E2E2E2E2E2E2E2E2E2E2E2E2E2E2E2E2E2E2E2E2E2E2E2E2E2E2E2E2E2E2E2E2E2E2E2E2E2E2E2E2E2E2E2E2E2E2E2E2E2E2E2E2E2E2E2E2E2E2E2E2E2E2E2E2E2E2E2E2E2E2E2E2E2E2E2E2E2E2E2E2E2E2E2E2E2E2E2E2E2E2E2E2E2E2E2E2E2E2E2E2E2
310
E2E2E2E2E2E2E2E2E2E2E2E2E2E2E2E2E2E2E2E2E2E2E2E2E2E2E2E2E2E2E2E2E2E2E2E2E2E2E2E2E2E2E2E2E2E2E2E2E2E2E2E2E2E2E2E2E2E2E2E2E2E2E2E2E2E2E2E2E2E2E2E2E2E2E2E2E2E2E2E2E2E2E2E2E2E2E2E2E2E2E2E2E2E2E2E2E2E2E2E2E2E2E2E2E2E2E2E2E2E2E2E2E2E2E2E2E2E2E2E2E2E2E2E2E2E2E2
310
E2E2E2E2E2E2E2E2E2E2E2BEBEBEBEBEBEBEBEBEBEBEBEBEBEBEBEBEBEBEBEBEBEBEBEBEBEBEBEBEBEBEBEBEBEBEBEBEBEBEBEBEBEBEBEBEBEBEBEBEBEBEBEBEBEBEBEBEBEBEBEBEBEBEBEBEBEBEBEBEBEBEBEBEBEBEBEBEBEBEBEBEBEBEBEBEBEBEBEBEBEBEBEBEBEBEBEBEBEBEBEBEBEBEBEBEBEBEBEBEBEBEBEBEBEBEBE
310
BEE2E2E2E2E2E2E2E2E2E2E2E2E2E2E2E2E2E2E2E2E2E2E2E2E2E2E2E2E2E2E2E2E2E2E2E2E2E2E2E2E2E2E2E2E2E2E2E2E2E2E2E2E2E2E2E2E2E2E2E2E2E2E2E2E2E2E2E2E2E2E2E2E2E2E2E2E2E2E2E2E2E2E2E2E2E2E2E2E2E2E2E2E2E2E2E2E2E2E2E2E2E2E2E2E2E2E2E2E2E2E2E2E2E2E2E2E2E2E2E2E2E2E2E2E2E2
310
E2E2E2E2E2E2E2E2E2E2E2E2E2BEE2E2E2E2E2E2E2E2E2E2E2E2E2E2E2E2E2E2E2E2E2E2E2E2E2E2E2E2E2E2E2E2E2E2E2E2E2E2E2E2E2E2E2E2E2E2E2E2E2E2E2E2E2E2E2E2E2E2E2E2E2E2E2E2E2E2E2E2E2E2E2E2E2E2E2E2E2E2E2E2E2E2E2E2E2E2E2E2E2E2E2E2E2E2E2E2E2E2E2E2E2E2E2E2E2E2E2E2E2E2E2E2E2
310
E2E2BEE2E2E2E2E2E2E2E2E2E2E2E2E2E2E2E2E2E2E2E2E2E2E2E2E2E2E2E2E2E2E2E2E2E2E2E2E2E2E2E2E2E2E2E2E2E2E2E2E2E2E2E2E2E2E2E2E2E2E2E2E2E2E2E2E2E2E2E2E2E2E2E2E2E2E2E2E2E2E2E2E2E2E2E2E2E2E2E2E2E2E2E2E2E2E2E2E2E2E2E2E2E2E2E2E2E2E2E2E2E2E2E2E2E2E2E2E2E2E2E2E2E2E2E2
310
E2E2E2E2E2E2E2E2E2E2E2E2E2E2E2BEE2DCDCDCDCDCDCDCDCDCDCDCDCDCDCDCDCDCDCDCDCDCDCDCDCDCDCDCDCDCDCDCDCDCDCDCDCDCDCDCDCDCDCDCDCDCDCDCDCDCDCDCDCDCDCDCDCDCDCDCDCDCDCDCDCDCDCDCDCDCDCDCDCDCDCDCDCDCDCDCDCDCDCDCDCDCDCDCDCDCDCDCDCDCDCDCDCDCDCDCDCDCDCDCDCDCDCDCDCDCDC
310
DCDCDCE2BEE2E2E2E2E2E2E2E2E2E2E2E2E2E2E2E2E2E2E2E2E2E2E2E2E2E2E2E2E2E2E2E2E2E2E2E2E2E2E2E2E2E2E2E2E2E2E2E2E2E2E2E2E2E2E2E2E2E2E2E2E2E2E2E2E2E2E2E2E2E2E2E2E2E2E2E2E2E2E2E2E2E2E2E2E2E2E2E2E2E2E2E2E2E2E2E2E2E2E2E2E2E2E2E2E2E2E2E2E2E2E2E2E2E2E2E2E2E2E2E2E2E2
310
E2E2E2E2E2E2E2E2E2E2E2E2E2E2E2E2E2BEE2DCE2E2E2E2E2E2E2E2E2E2E2E2E2E2E2E2E2E2E2E2E2E2E2E2E2E2E2E2E2E2E2E2E2E2E2E2E2E2E2E2E2E2E2E2E2E2E2E2E2E2E2E2E2E2E2E2E2E2E2E2DCF5F5F5E2E2E2F5F5F5F5F5E2E2DCE2E2E2BEBEBEBEBEBEBEE2DCE2E2E2E2E2E2E2DCE2E2E2E2E2E2E2E2DCBEBEBE
310
BEBEE2E2DCE2BEE2E2E2E2E2E2E2E2E2E2E2E2E2E2E2E2E2E2E2E2E2E2E2E2E2E2E2E2E2E2E2E2E2E2E2E2E2E2E2E2E2E2E2E2E2E2E2E2E2E2E2E2E2E2E2E2E2E2E2E2E2E2E2E2E2E2E2E2E2E2E2E2E2E2E2E2E2E2E2E2E2E2E2E2E2E2E2E2E2E2E2E2E2E2E2E2E2E2E2E2E2E2E2E2E2E2E2E2E2E2E2E2E2E2E2E2E2E2E2E2
310
E2E2E2E2E2E2E2E2E2E2E2E2E2E2E2E2E2E2E2BEE2DCE2E2E2E2E2E2E2E2E2E2E2BEBEE2E2E2E2E2E2E2E2E2E2E2E2E2E2E2E2E2E2E2E2E2E2E2E2E2E2E2E2E2E2E2E2E2E2E2E2E2E2E2E2E2E2E2E2E2E2E2DCF5F5F5DCDCDCDCF5F5F5F5DCDCDCE2BEBEBEBEBEBEBEBEBEE2DCF5F5F5F5F5E2E2DCF5F5F5F5F5F5F5E2DCBE
310
BEBEBEBEF5E2DCE2BEE2E2E2E2E2E2E2E2E2E2E2E2E2E2E2E2E2E2E2E2E2E2E2E2E2E2E2E2E2E2E2E2E2E2E2E2E2E2E2E2E2E2E2E2E2E2E2E2E2E2E2E2E2E2E2E2E2E2E2E2E2E2E2E2E2E2E2E2E2E2E2E2E2E2E2E2E2E2E2E2E2E2E2E2E2E2E2E2E2E2E2E2E2E2E2E2E2E2E2E2E2E2E2E2E2E2E2E2E2E2E2E2E2E2E2E2E2E2
310
E2E2E2E2E2E2E2E2E2E2E2E2E2E2E2E2E2E2E2E2E2BEE2DCE2E2E2E2E2E2E2E2E2E2E2BEBE2D28F5F5F5F5F5F5F5F5F5F5F5F5F5F5F5F5F5F5F5F5F5F5F5F5F5F5F52D2DF5E2E2E2E2E2E2E2E2E2E2E2E2E2E2E2DCDCDCDCDCDCDCDCDCDCDCDCDCDCDCE2E2BEBEBEBEBEBEBEBEE2DCF5F5F5F5F5F5DCDCF5F5F5F5F5F5F5DC
310
DCF5F5F5DCF5F5DCDCE2BEE2E2E2E2E2E2E2E2E2E2E2E2E2E2E2E2E2E2E2E2E2E2E2E2E2E2E2E2E2E2E2E2E2E2E2E2E2E2E2E2E2E2E2E2E2E2E2E2E2E2E2E2E2E2E2E2E2E2E2E2E2E2E2E2E2E2E2E2E2E2E2E2E2E2E2E2E2E2E2E2E2E2E2E2E2E2E2E2E2E2E2E2E2E2E2E2E2E2E2E2E2E2E2E2E2E2E2E2E2E2E2E2E2E2E2E2
310
E2E2E2E2E2E2E2E2E2E2E2E2E2E2E2E2E2E2E2E2E2E2E2BEE2DCE2E2E2E2E2E2E2E2E2E2E2E2E2282828282828282828282828282828282828282828282828282828282828E22DE2E2E2E2E2E2E2E2E2E2E2E2E2E2E2DCE2DCE2E2E2E2E2DCE2E2DCE2E2DCE2E2BEBEBEBEBEBEBEBEE2DCE2E2E2E2E2E2E2E2E2E2E2E2E2E2
310
E2E2E2E2E2E2E2E2E2E2DCE2BEE2E2E2E2E2E2E2E2E2E2E2E2E2E2E2E2E2E2E2E2E2E2E2E2E2E2E2E2E2E2E2E2E2E2E2E2E2E2E2E2E2E2E2E2E2E2E2E2E2E2E2E2E2E2E2E2E2E2E2E2E2E2E2E2E2E2E2E2E2E2E2E2E2E2E2E2E2E2E2E2E2E2E2E2E2E2E2E2E2E2E2E2E2E2E2E2E2E2E2E2E2E2E2E2E2E2E2E2E2E2E2E2E2E2
310
E2E2E2E2E2E2E2E2E2E2E2E2E2E2E2E2E2E2E2E2E2E2E2E2E2BEE2DCE2E2E2E2E2E2E2E2E2E2E2E2E228F5282828E2E2E2E2E2E2E2E2E2E2E2E2E2E2E2E2E2E2E2E2E228282828E22DE2E2E2E2E2E2E2E2E2E2E2E2E2E2E2DCDCDCDCDCDCDCDCDCDCDCDCDCDCF5F5F5DCDCDCDCDCDCDCDCDCDCE2E2E2E2E2E2E2E2E2E2E2E2
310
E2E2E2E2E2E2E2E2E2E2E2E2DCE2BEE2E2E2E2E2E2E2E2E2E2E2E2E2E2E2E2E2E2E2E2E2E2E2E2E2E2E2E2E2E2E2E2E2E2E2E2E2E2E2E2E2E2E2E2E2E2E2E2E2E2E2E2E2E2E2E2E2E2E2E2E2E2E2E2E2E2E2E2E2E2E2E2E2E2E2E2E2E2E2E2E2E2E2E2E2E2E2E2E2E2E2E2E2E2E2E2E2E2E2E2E2E2E2E2E2E2E2E2E2E2E2E2
310
E2E2E2E2E2E2E2E2E2E2E2E2E2E2E2E2E2E2E2E2E2E2E2E2E2E2E2BEE2DCE2E2E2E2E2E2E2E2E2E2E2E2E22828E2E228E2E2E2E2E2E2E2E2E2E2E2E2E2E2E2E2E2E2E2E2E228E22828E22DE2E2E2E2E2E2E2E2E2E2E2E2E2E2E2DCDCDCDCDCDCDCDCDCDCDCDCDCDCF5F5F5BEBEBEBEBEBEBEBEDCDCBEBEBEBEBEBEBEBEBEBE
310
BEBEBEBEE2BEBEE2E2BEBEE2E2E2DCE2BEE2E2E2E2E2E2E2E2E2E2E2E2E2E2E2E2E2E2E2E2E2E2E2E2E2E2E2E2E2E2E2E2E2E2E2E2E2E2E2E2E2E2E2E2E2E2E2E2E2E2E2E2E2E2E2E2E2E2E2E2E2E2E2E2E2E2E2E2E2E2E2E2E2E2E2E2E2E2E2E2E2E2E2E2E2E2E2E2E2E2E2E2E2E2E2E2E2E2E2E2E2E2E2E2E2E2E2E2E2E2
310
E2E2E2E2E2E2E2E2E2E2E2E2E2E2E2E2E2E2E2E2E2E2E2E2E2E2E2E2E2BEE2DCE2E2E2E2E2E2E2E2E2E2E2E2E2282828282828282828282828282828282828282828282828282828282828E22DE2E2E2E2E2E2E2E2E2E2E2E2E2E2E2DCDCDCDCDCDCDCDCDCDCDCDCDCDCF5F5F5BEBEBEBEBEBEBEBEDCDCBEBEBEBEBEBEBEBE
310
BEBEBEBEBEBEBEBEBEBEBEBEBEE2E2E2DCE2BEE2E2E2E2E2E2E2E2E2E2E2E2E2E2E2E2E2E2E2E2E2E2E2E2E2E2E2E2E2E2E2E2E2E2E2E2E2E2E2E2E2E2E2E2E2E2E2E2E2E2E2E2E2E2E2E2E2E2E2E2E2E2E2E2E2E2E2E2E2E2E2E2E2E2E2E2E2E2E2E2E2E2E2E2E2E2E2E2E2E2E2E2E2E2E2E2E2E2E2E2E2E2E2E2E2E2E2E2
310
E2E2E2E2E2E2E2E2E2E2E2E2E2E2E2E2E2E2E2E2E2E2E2E2E2E2E2E2E2E2E2BEE2DCE2E2E2E2E2E2E2E2E2E2E2E2E22828E2E228E2E2E2E2E2E2E2E2E2E2E2E2E2E2E2E2E2E2E2E2E228E2E228E22DE2E2E2E2E2E2E2E2E2E2E2E2E2E2E2DCF5F5F5F5F5F5E2F5F5F5F5F5F5F5DCDCF5F5F5F5F5F5F5F5E2DCF5F5F5F5F5F5
310
F5F5F5E2E2E2E2E2E2E2E2E2E2E2E2E2E2E2DCE2BEE2E2E2E2E2E2E2E2E2E2E2E2E2E2E2E2E2E2E2E2E2E2E2E2E2E2E2E2E2E2E2E2E2E2E2E2E2E2E2E2E2E2E2E2E2E2E2E2E2E2E2E2E2E2E2E2E2E2E2E2E2E2E2E2E2E2E2E2E2E2E2E2E2E2E2E2E2E2E2E2E2E2E2E2E2E2E2E2E2E2E2E2E2E2E2E2E2E2E2E2E2E2E2E2E2E2
310
E2E2E2E2E2E2E2E2E2E2E2E2E2E2E2E2E2E2E2E2E2E2E2E2E2E2E2E2E2E2E2E2E2BEE2DCE2E2E2E2E2E2E2E2E2E2E2E2E22828E2E228E2E2E2E2E2E2E2E2E2E2E2E2E2E2E2E2E2E2E2E2E228E2E228BEBEE2E2E2E2E2E2E2E2E2E2E2E2E2E2E2DCDCDCDCDCDCDCDCDCDCDCDCDCDCDCDCDCDCDCDCDCBEBEBEBEBEBEDCDCDCDC
310
DCDCF5DCDCDCDCDCDCDCDCDCDCDCDCDCDCDCDCDCDCE2BEE2E2E2E2E2E2E2E2E2E2E2E2E2E2E2E2E2E2E2E2E2E2E2E2E2E2E2E2E2E2E2E2E2E2E2E2E2E2E2E2E2E2E2E2E2E2E2E2E2E2E2E2E2E2E2E2E2E2E2E2E2E2E2E2E2E2E2E2E2E2E2E2E2E2E2E2E2E2E2E2E2E2E2E2E2E2E2E2E2E2E2E2E2E2E2E2E2E2E2E2E2E2E2E2
310
E2E2E2E2E2E2E2E2E2E2E2E2E2E2E2E2E2E2E2E2E2E2E2E2E2E2E2E2E2E2E2E2E2E2E2BEE2DCE2E2E2E2E2E2E2E2E2E2E2E2E22828E2E228E2E2E2E2E2E2E2E2E2E2E2E2E2E2E2E2E2E2E2E2E228E2E228BEBEE2E2E2E2E2E2E2E2E2E2E2E2E2E2E2DCE2E2E2E2E2E2E2E2E2E2E2E2E2DCDCDCDCDCDCBEBEBEBEBEBEBEF5F5
310
F5F5F5F5F5E2E2F5F5F5F5F5F5F5F5E2F5F5F5F5F5F5DCE2BEE2E2E2E2E2E2E2E2E2E2E2E2E2E2E2E2E2E2E2E2E2E2E2E2E2E2E2E2E2E2E2E2E2E2E2E2E2E2E2E2E2E2E2E2E2E2E2E2E2E2E2E2E2E2E2E2E2E2E2E2E2E2E2E2E2E2E2E2E2E2E2E2E2E2E2E2E2E2E2E2E2E2E2E2E2E2E2E2E2E2E2E2E2E2E2E2E2E2E2E2E2E2
310
E2E2E2E2E2E2E2E2E2E2E2E2E2E2E2E2E2E2E2E2E2E2E2E2E2E2E2E2E2E2E2E2E2E2E2E2E2BEE2DCE2E2E2E2E2E2E2E2E2E2E2E2E22828E2E228E2E2E2E2E2E2E2E2E2E228E2E2E2E2E2E2E2E2E2E228E2E228BEBEE2E2E2E2E2E2E2E2E2E2E2E2E2E2E2DCE2E2E2E2E2E2E2E2E2E2E2E2E2DCE2E2E2E2E2BEBEBEBEBEBEBE
310
F5F5BEBEBEBEBEDCDCF5F5F5F5F5F5F5F5DCDCF5F5BEBEF5DCE2BEE2E2E2E2E2E2E2E2E2E2E2E2E2E2E2E2E2E2E2E2E2E2E2E2E2E2E2E2E2E2E2E2E2E2E2E2E2E2E2E2E2E2E2E2E2E2E2E2E2E2E2E2E2E2E2E2E2E2E2E2E2E2E2E2E2E2E2E2E2E2E2E2E2E2E2E2E2E2E2E2E2E2E2E2E2E2E2E2E2E2E2E2E2E2E2E2E2E2E2E2
310
E2E2E2E2E2E2E2E2E2E2E2E2E2E2E2E2E2E2E2E2E2E2E2E2E2E2E2E2E2E2E2E2E2E2E2E2E2E2E2BEE2DCE2E2E2E2E2E2E2E2E2E2E2E2E22828E2E228E2E2E2E2E2E2E2E2E2282828E2E2E2E2E2E2E2E2E228E2E228E22DE2E2E2E2E2E2E2E2E2E2E2E2E2E2E2DCE2E2E2E2E2E2E2E2E2E2E2E2E2DCF5F5F5F5F5DCDCBEBEBE
310
DCDCE2E2BEBEBEBEBEE2E2DCE2F5F5F5F5F5E2E2DCF5BEBEBEF5DCE2BEE2E2E2E2E2E2E2E2E2E2E2E2E2E2E2E2E2E2E2E2E2E2E2E2E2E2E2E2E2E2E2E2E2E2E2E2E2E2E2E2E2E2E2E2E2E2E2E2E2E2E2E2E2E2E2E2E2E2E2E2E2E2E2E2E2E2E2E2E2E2E2E2E2E2E2E2E2E2E2E2E2E2E2E2E2E2E2E2E2E2E2E2E2E2E2E2E2E2
310
E2E2E2E2E2E2E2E2E2E2E2E2E2E2E2E2E2E2E2E2E2E2E2E2E2E2E2E2E2E2E2E2E2E2E2E2E2E2E2E2E2BEE2DCE2E2E2E2E2E2E2E2E2E2E2E2E2282828282828282828282828282828BE2828282828282828282828282828E22DE2E2E2E2E2E2E2E2E2E2E2E2E2E2E2DCDCDCDCDCDCDCDCDCDCDCDCDCDCDCF5F5DCF5DCDCDCF5
310
F5F5DCDCDCDCF5F5F5F5DCDCDCDCDCF5F5F5F5F5DCDCDCF5F5F5F5F5DCE2BEE2E2E2E2E2E2E2E2E2E2E2E2E2E2E2E2E2E2E2E2E2E2E2E2E2E2E2E2E2E2E2E2E2E2E2E2E2E2E2E2E2E2E2E2E2E2E2E2E2E2E2E2E2E2E2E2E2E2E2E2E2E2E2E2E2E2E2E2E2E2E2E2E2E2E2E2E2E2E2E2E2E2E2E2E2E2E2E2E2E2E2E2E2E2E2E2
310
E2E2E2E2E2E2E2E2E2E2E2E2E2E2E2E2E2E2E2E2E2E2E2E2E2E2E2E2E2E2E2E2E2E2E2E2E2E2E2E2E2E2E2BEE2DCE2E2E2E2E2E2E2E2E2E2E2E2E22828E2E2E2E2E2E2E2E2E2E228E22828282828E2E2E2E2E2E2E2E2E2E228E22DE2E2E2E2E2E2E2E2E2E2E2E2E2E2E2E2E2E2E2E2E2E2E2E2E2E2E2E2E2E2E2E2E2E2E2E2
310
E2E2E2E2E2E2E2E2E2E2E2E2E2E2E2E2E2E2E2E2E2E2E2E2E2E2E2E2E2E2DCE2BEE2E2E2E2E2E2E2E2E2E2E2E2E2E2E2E2E2E2E2E2E2E2E2E2E2E2E2E2E2E2E2E2E2E2E2E2E2E2E2E2E2E2E2E2E2E2E2E2E2E2E2E2E2E2E2E2E2E2E2E2E2E2E2E2E2E2E2E2E2E2E2E2E2E2E2E2E2E2E2E2E2E2E2E2E2E2E2E2E2E2E2E2E2E2
310
E2E2E2E2E2E2E2E2E2E2E2E2E2E2E2E2E2E2E2E2E2E2E2E2E2E2E2E2E2E2E2E2E2E2E2E2E2E2E2E2E2E2E2E2E2BEE2DCE2E2E2E2E2E2E2E2E2E2E2E2E2282828282828282828282828E2E228282828282828282828282828282828E22DE2E2E2E2E2E2E2E2E2E2E2E2E2E2E2E2E2E2E2E2E2E2E2E2E2E2E2E2E2E2E2E2E2E2
310
E2E2E2E2E2E2E2E2E2E2E2E2E2E2E2E2E2E2E2E2E2E2E2E2E2E2E2E2E2E2E2E2DCE2BEE2E2E2E2E2E2E2E2E2E2E2E2E2E2E2E2E2E2E2E2E2E2E2E2E2E2E2E2E2E2E2E2E2E2E2E2E2E2E2E2E2E2E2E2E2E2E2E2E2E2E2E2E2E2E2E2E2E2E2E2E2E2E2E2E2E2E2E2E2E2E2E2E2E2E2E2E2E2E2E2E2E2E2E2E2E2E2E2E2E2E2E2
310
E2E2E2E2E2E2E2E2E2E2E2E2E2E2E2E2E2E2E2E2E2E2E2E2E2E2E2E2E2E2E2E2E2E2E2E2E2E2E2E2E2E2E2E2E2E2E2BEE2DCE2E2E2E2E2E2E2E2E2E2E2E2E2BEBE282828282828282828282828282828282828282828282828282828BEBE2DE2E2E2E2E2E2E2E2E2E2E2E2E2E2E2E2E2E2E2E2E2E2E2E2E2E2E2E2E2E2E2E2
310
E2E2E2E2E2E2E2E2E2E2E2E2E2E2E2E2E2E2E2E2E2E2E2E2E2E2E2E2E2E2E2E2E2E2DCE2BEE2E2E2E2E2E2E2E2E2E2E2E2E2E2E2E2E2E2E2E2E2E2E2E2E2E2E2E2E2E2E2E2E2E2E2E2E2E2E2E2E2E2E2E2E2E2E2E2E2E2E2E2E2E2E2E2E2E2E2E2E2E2E2E2E2E2E2E2E2E2E2E2E2E2E2E2E2E2E2E2E2E2E2E2E2E2E2E2E2E2
310
E2E2E2E2E2E2E2E2E2E2E2E2E2E2E2E2E2E2E2E2E2E2E2E2E2E2E2E2E2E2E2E2E2E2E2E2E2E2E2E2E2E2E2E2E2E2E2E2E2BEE2DCE2E2E2E2E2E2E2E2E2E2E2E2E2F5F5F5F5F5F5F5F5F5F5F5F5F5F5F5F5F5F5F5F5F5F5F5F5F5F5F5F5F5F52D2DE2E2E2E2E2E2E2E2E2E2E2E2E2E2E2E2E2E2E2E2E2E2E2E2E2E2E2E2E2E2
310
E2E2E2E2E2E2E2E2E2E2E2E2E2E2E2E2E2E2E2E2E2E2E2E2E2E2E2E2E2E2E2E2E2E2E2E2DCE2BEE2E2E2E2E2E2E2E2E2E2E2E2E2E2E2E2E2E2E2E2E2E2E2E2E2E2E2E2E2E2E2E2E2E2E2E2E2E2E2E2E2E2E2E2E2E2E2E2E2E2E2E2E2E2E2E2E2E2E2E2E2E2E2E2E2E2E2E2E2E2E2E2E2E2E2E2E2E2E2E2E2E2E2E2E2E2E2E2
310
E2E2E2E2E2E2E2E2E2E2E2E2E2E2E2E2E2E2E2E2E2E2E2E2E2E2E2E2E2E2E2E2E2E2E2E2E2E2E2E2E2E2E2E2E2E2E2E2E2E2E2BEE2DCE2E2E2E2E2E2E2E2E2E2E2E2E22D2D2D2D2D2D2D2D2D2D2D2D2D2DBEBEBE2D2D2D2D2D2D2D2D2D2D2D2DF5E2E2E2E2E2E2E2E2E2E2E2E2E2E2E2E2E2E2E2E2E2E2E2E2E2E2E2E2E2E2
310
E2E2E2E2E2E2E2E2E2E2E2E2E2E2E2E2E2E2E2E2E2E2E2E2E2E2E2E2E2E2E2E2E2E2E2E2E2E2DCE2BEE2E2E2E2E2E2E2E2E2E2E2E2E2E2E2E2E2E2E2E2E2E2E2E2E2E2E2E2E2E2E2E2E2E2E2E2E2E2E2E2E2E2E2E2E2E2E2E2E2E2E2E2E2E2E2E2E2E2E2E2E2E2E2E2E2E2E2E2E2E2E2E2E2E2E2E2E2E2E2E2E2E2E2E2E2E2
310
E2E2E2E2E2E2E2E2E2E2E2E2E2E2E2E2E2E2E2E2E2E2E2E2E2E2E2E2E2E2E2E2E2E2E2E2E2E2E2E2E2E2E2E2E2E2E2E2E2E2E2E2E2BEE2DCE2E2E2E2E2E2E2E2E2E2E2E2E2E2E2E2E2E2E2E2E2E2E2E2E2E2E2BEBEBEE2E2E2E2E2E2E2E2E2E2E2E2E2E2E2E2E2E2E2E2E2E2E2E2E2E2E2E2E2E2E2E2E2E2E2E2E2E2E2E2E2
310
E2E2E2E2E2E2E2E2E2E2E2E2E2E2E2E2E2E2E2E2E2E2E2E2E2E2E2E2E2E2E2E2E2E2E2E2E2E2E2E2DCE2BEE2E2E2E2E2E2E2E2E2E2E2E2E2E2E2E2E2E2E2E2E2E2E2E2E2E2E2E2E2E2E2E2E2E2E2E2E2E2E2E2E2E2E2E2E2E2E2E2E2E2E2E2E2E2E2E2E2E2E2E2E2E2E2E2E2E2E2E2E2E2E2E2E2E2E2E2E2E2E2E2E2E2E2E2
310
E2E2E2E2E2E2E2E2E2E2E2E2E2E2E2E2E2E2E2E2E2E2E2E2E2E2E2E2E2E2E2E2E2E2E2E2E2E2E2E2E2E2E2E2E2E2E2E2E2E2E2E2E2E2E2BEE2DCE2E2E2E2E2E2E2E2E2E2E2E2E22D2D2D2DE2E2E2E2E2E2E2E2E2E2E2E2E2E2E2E2E2E2E2E2E2E2E22D2D2DE2E2E2E2E2E2E2E2E2E2E2E2E2E2E2E2E2E2E2E2E2E2E2E2E2E2
310
E2E2E2E2E2E2E2E2E2E2E2E2E2E2E2E2E2E2E2E2E2E2E2E2E2E2E2E2E2E2E2E2E2E2E2E2E2E2E2E2E2E2DCE2BEE2E2E2E2E2E2E2E2E2E2E2E2E2E2E2E2E2E2E2E2E2E2E2E2E2E2E2E2E2E2E2E2E2E2E2E2E2E2E2E2E2E2E2E2E2E2E2E2E2E2E2E2E2E2E2E2E2E2E2E2E2E2E2E2E2E2E2E2E2E2E2E2E2E2E2E2E2E2E2E2E2E2
310
E2E2E2E2E2E2E2E2E2E2E2E2E2E2E2E2E2E2E2E2E2E2E2E2E2E2E2E2E2E2E2E2E2E2E2E2E2E2E2E2E2E2E2E2E2E2E2E2E2E2E2E2E2E2E2E2E2BEE2DCE2E2E2E2E2E2E2E2E2E2E2E2E2F5BEBE2D2D2D2D2D2D2D2D2D2D2DBEBEBE2D2D2D2D2D2D2D2D2D2D2DBEBEE2E2E2E2E2E2E2E2E2E2E2E2E2E2E2E2E2E2E2E2E2E2E2E2
310
E2E2E2E2E2E2E2E2E2E2E2E2E2E2E2E2E2E2E2E2E2E2E2E2E2E2E2E2E2E2E2E2E2E2E2E2E2E2E2E2E2E2E2E2DCE2BEE2E2E2E2E2E2E2E2E2E2E2E2E2E2E2E2E2E2E2E2E2E2E2E2E2E2E2E2E2E2E2E2E2E2E2E2E2E2E2E2E2E2E2E2E2E2E2E2E2E2E2E2E2E2E2E2E2E2E2E2E2E2E2E2E2E2E2E2E2E2E2E2E2E2E2E2E2E2E2E2
310
E2E2E2E2E2E2E2E2E2E2E2E2E2E2E2E2E2E2E2E2E2E2E2E2E2E2E2E2E2E2E2E2E2E2E2E2E2E2E2E2E2E2E2E2E2E2E2E2E2E2E2E2E2E2E2E2E2E2E2BEE2DCE2E2E2E2E2E2E2E2E2E2E2E2E22DE2E22DE2E2E2E2E2E2E2E2E2E2E2E2E2E2E2E2E2E2E2E2E2E2E22DE22DE2E2E2E2E2E2E2E2E2E2E2E2E2E2E2E2E2E2E2E2E2E2
310
E2E2E2E2E2E2E2E2E2E2E2E2E2E2E2E2E2E2E2E2E2E2E2E2E2E2E2E2E2E2E2E2E2E2E2E2E2E2E2E2E2E2E2E2E2E2DCE2BEE2E2E2E2E2E2E2E2E2E2E2E2E2E2E2E2E2E2E2E2E2E2E2E2E2E2E2E2E2E2E2E2E2E2E2E2E2E2E2E2E2E2E2E2E2E2E2E2E2E2E2E2E2E2E2E2E2E2E2E2E2E2E2E2E2E2E2E2E2E2E2E2E2E2E2E2E2E2
310
E2E2E2E2E2E2E2E2E2E2E2E2E2E2E2E2E2E2E2E2E2E2E2E2E2E2E2E2E2E2E2E2E2E2E2E2E2E2E2E2E2E2E2E2E2E2E2E2E2E2E2E2E2E2E2E2E2E2E2E2E2BEE2DCE2E2E2E2E2E2E2E2E2E2E2E2E22DF5F52DF5F5F5F5F5F5F5F5F5F5F5F5F5F5F5F5F5F5F5F5F5F5F52DF52D2D2D2DE2E2E2E2E2E2E2E2E2E2E2E2E2E2E2F5E2
310
E2E2E2E2F5F5E2E2E2E2E2E2E2E2E2E2E2E2E2E2E2E2E2E2E2E2E2E2E2E2E2E2E2E2E2E2E2E2E2E2E2E2E2E2E2E2E2E2DCE2BEE2E2E2E2E2E2E2E2E2E2E2E2E2E2E2E2E2E2E2E2E2E2E2E2E2E2E2E2E2E2E2E2E2E2E2E2E2E2E2E2E2E2E2E2E2E2E2E2E2E2E2E2E2E2E2E2E2E2E2E2E2E2E2E2E2E2E2E2E2E2E2E2E2E2E2E2
310
E2E2E2E2E2E2E2E2E2E2E2E2E2E2E2E2E2E2E2E2E2E2E2E2E2E2E2E2E2E2E2E2E2E2E2E2E2E2E2E2E2E2E2E2E2E2E2E2E2E2E2E2E2E2E2E2E2E2E2E2E2E2E2BEE2DCE2E2E2E2E2E2E2E2E2E2E2E2E22DF5F52DF5F5F5F5F5F5F5F5F5F5F5F5F5F5F5F5F5F5F5F5F5F5F52DF52DE2E22DE2E2E2E2E2E2E2E2E2E2E2F5F5F5F5
310
282828282828282828F5E2E2E2E2E2E2E2E2E2E2E2E2E2E2E2E2E2E2E2E2E2E2E2E2E2E2E2E2E2E2E2E2E2E2E2E2E2E2E2E2DCE2BEE2E2E2E2E2E2E2E2E2E2E2E2E2E2E2E2E2E2E2E2E2E2E2E2E2E2E2E2E2E2E2E2E2E2E2E2E2E2E2E2E2E2E2E2E2E2E2E2E2E2E2E2E2E2E2E2E2E2E2E2E2E2E2E2E2E2E2E2E2E2E2E2E2E2
310
E2E2E2E2E2E2E2E2E2E2E2E2E2E2E2E2E2E2E2E2E2E2E2E2E2E2E2E2E2E2E2E2E2E2E2E2E2E2E2E2E2E2E2E2E2E2E2E2E2E2E2E2E2E2E2E2E2E2E2E2E2E2E2E2E2BEE2DCE2E2E2E2E2E2E2E2E2E2E2E2E2F5BE282D28282828282828282828282828282828282828282828282DF5F52D2D2DF5E2E2E2E2E2E2E2E2E2E2F5F5
310
28F528F5F5F5F5F5F5F528F52D2DE2E2E2E2E2E2E2E2E2E2E2E2E2E2E2E2E2E2E2E2E2E2E2E2E2E2E2E2E2E2E2E2E2E2E2E2E2E2DCE2BEE2E2E2E2E2E2E2E2E2E2E2E2E2E2E2E2E2E2E2E2E2E2E2E2E2E2E2E2E2E2E2E2E2E2E2E2E2E2E2E2E2E2E2E2E2E2E2E2E2E2E2E2E2E2E2E2E2E2E2E2E2E2E2E2E2E2E2E2E2E2E2E2
310
E2E2E2E2E2E2E2E2E2E2E2E2E2E2E2E2E2E2E2E2E2E2E2E2E2E2E2E2E2E2E2E2E2E2E2E2E2E2E2E2E2E2E2E2E2E2E2E2E2E2E2E2E2E2E2E2E2E2E2E2E2E2E2E2E2E2E2BEE2DCE2E2E2E2E2E2E2E2E2E2E2E2E2282828F5E2E2E2E2E2E2E2E2E2E2E2E2E2E2E2E2E2E2E2E2E22DE2F52828E2E2BEBEE2E2E2E2E2E2E2E2E2E2
310
28BE28E228E2E2E2E2E2E2E22828E22DE2E2E2E2E2E2E2E2E2E2E2E2E2E2E2E2E2E2E2E2E2E2E2E2E2E2E2E2E2E2E2E2E2E2E2E2E2E2DCE2BEE2E2E2E2E2E2E2E2E2E2E2E2E2E2E2E2E2E2E2E2E2E2E2E2E2E2E2E2E2E2E2E2E2E2E2E2E2E2E2E2E2E2E2E2E2E2E2E2E2E2E2E2E2E2E2E2E2E2E2E2E2E2E2E2E2E2E2E2E2E2
310
E2E2E2E2E2E2E2E2E2E2E2E2E2E2E2E2E2E2E2E2E2E2E2E2E2E2E2E2E2E2E2E2E2E2E2E2E2E2E2E2E2E2E2E2E2E2E2E2E2E2E2E2E2E2E2E2E2E2E2E2E2E2E2E2E2E2E2E2E2BEE2DCE2E2E2E2E2E2E2E2E2E2E2E2E228282828E2E2E2E2E2E2E2E2E2E2E2F5E2E2E2E2E2E2E2E2BEF5F5282828E2E2BEBEE2E2E2E2E2E2E2E2
310
E2E228E2282828282828282828282828E22DE2E2E2E2E2E2E2E2E2E2E2E2E2E2E2E2E2E2E2E2E2E2E2E2E2E2E2E2E2E2E2E2E2E2E2E2E2E2DCE2BEE2E2E2E2E2E2E2E2E2E2E2E2E2E2E2E2E2E2E2E2E2E2E2E2E2E2E2E2E2E2E2E2E2E2E2E2E2E2E2E2E2E2E2E2E2E2E2E2E2E2E2E2E2E2E2E2E2E2E2E2E2E2E2E2E2E2E2E2
310
E2E2E2E2E2E2E2E2E2E2E2E2E2E2E2E2E2E2E2E2E2E2E2E2E2E2E2E2E2E2E2E2E2E2E2E2E2E2E2E2E2E2E2E2E2E2E2E2E2E2E2E2E2E2E2E2E2E2E2E2E2E2E2E2E2E2E2E2E2E2E2BEE2DCE2E2E2E2E2E2E2E2E2E2E2E2E228282828E2E2E2E2E2E2E2E2E2E2E2F5E2E2E2E2E2E2E2E2BEBE2DF5F52D2D2D2D2DE2E2E2E2E2E2
310
E2E2E2E228E2E2E2E2E2E2E2E2E2E2E22828E22DE2E2E2E2E2E2E2E2E2E2E2E2E2E2E2E2E2E2E2E2E2E2E2E2E2E2E2E2E2E2E2E2E2E2E2E2E2E2DCE2BEE2E2E2E2E2E2E2E2E2E2E2E2E2E2E2E2E2E2E2E2E2E2E2E2E2E2E2E2E2E2E2E2E2E2E2E2E2E2E2E2E2E2E2E2E2E2E2E2E2E2E2E2E2E2E2E2E2E2E2E2E2E2E2E2E2E2
310
E2E2E2E2E2E2E2E2E2E2E2E2E2E2E2E2E2E2E2E2E2E2E2E2E2E2E2E2E2E2E2E2E2E2E2E2E2E2E2E2E2E2E2E2E2E2E2E2E2E2E2E2E2E2E2E2E2E2E2E2E2E2E2E2E2E2E2E2E2E2E2E2E2BEE2DCE2E2E2E2E2E2E2E2E2E2E2E2E2282828DCE2E2E2E2E2E2E2E2E2E2E2F5E2E2E2E2E2E2E2E2E22DE22DE228E2E22D2DE2E2E2E2
310
E2E2E2E2E2E228E2E2E2E2E2E2E2E2E2E2E22828E22DE2E2E2E2E2E2E2E2E2E2E2E2E2E2E2E2E2E2E2E2E2E2E2E2E2E2E2E2E2E2E2E2E2E2E2E2E2E2DCE2BEE2E2E2E2E2E2E2E2E2E2E2E2E2E2E2E2E2E2E2E2E2E2E2E2E2E2E2E2E2E2E2E2E2E2E2E2E2E2E2E2E2E2E2E2E2E2E2E2E2E2E2E2E2E2E2E2E2E2E2E2E2E2E2E2
310
E2E2E2E2E2E2E2E2E2E2E2E2E2E2E2E2E2E2E2E2E2E2E2E2E2E2E2E2E2E2E2E2E2E2E2E2E2E2E2E2E2E2E2E2E2E2E2E2E2E2E2E2E2E2E2E2E2E2E2E2E2E2E2E2E2E2E2E2E2E2E2E2E2E2E2BEE2DCE2E2E2E2E2E2E2E2E2E2E2E2E22828E2E2E2E2E2E2E2E2E2E2E2E2E2F5E2E2E2E2E2E2E2E2E2E22DF52D2DE2E22D2DE2E2
310
E2E2E2E2E2E2E2E228E2E2E2E2E2E2E2E2E2E2E22828E22DE2E2E2E2E2E2E2E2E2E2E2E2E2E2E2E2E2E2E2E2E2E2E2E2E2E2E2E2E2E2E2E2E2E2E2E2E2E2DCE2BEE2E2E2E2E2E2E2E2E2E2E2E2E2E2E2E2E2E2E2E2E2E2E2E2E2E2E2E2E2E2E2E2E2E2E2E2E2E2E2E2E2E2E2E2E2E2E2E2E2E2E2E2E2E2E2E2E2E2E2E2E2E2
310
E2E2E2E2E2E2E2E2E2E2E2E2E2E2E2E2E2E2E2E2E2E2E2E2E2E2E2E2E2E2E2E2E2E2E2E2E2E2E2E2E2E2E2E2E2E2E2E2E2E2E2E2E2E2E2E2E2E2E2E2E2E2E2E2E2E2E2E2E2E2E2E2E2E2E2E2E2BEE2DCE2E2E2E2E2E2E2E2E2E2E2E2E22828E2E2E2E2E2E2E2E2E2E2E2E2E2F5E2E2E2E2E2E2E2E2E2E2E2BEE228E2E22D2D
310
E2E2E2E2E2E2E2E2E2E228E2E2E2E2E2E2E2E2E2E2E22828E22DE2E2E2E2E2E2E2E2E2E2E2E2E2E2E2E2E2E2E2E2E2E2E2E2E2E2E2E2E2E2E2E2E2E2E2E2E2E2DCE2BEE2E2E2E2E2E2E2E2E2E2E2E2E2E2E2E2E2E2E2E2E2E2E2E2E2E2E2E2E2E2E2E2E2E2E2E2E2E2E2E2E2E2E2E2E2E2E2E2E2E2E2E2E2E2E2E2E2E2E2E2
310
E2E2E2E2E2E2E2E2E2E2E2E2E2E2E2E2E2E2E2E2E2E2E2E2E2E2E2E2E2E2E2E2E2E2E2E2E2E2E2E2E2E2E2E2E2E2E2E2E2E2E2E2E2E2E2E2E2E2E2E2E2E2E2E2E2E2E2E2E2E2E2E2E2E2E2E2E2E2E2BEE2DCE2E2E2E2E2E2E2E2E2E2E2E2E22828E2E2E2E2E2E2E2E2E2E2E2E2E2F5E2E2E2E2E2E2E2E2E2E2E2E2E228E2E2
310
2D2DE2E2E2E2E2E2E2E2E2E228E2E2E2E2E2E2E2E2E2E2E22828E22DE2E2E2E2E2E2E2E2E2E2E2E2E2E2E2E2E2E2E2E2E2E2E2E2E2E2E2E2E2E2E2E2E2E2E2E2E2E2DCE2BEE2E2E2E2E2E2E2E2E2E2E2E2E2E2E2E2E2E2E2E2E2E2E2E2E2E2E2E2E2E2E2E2E2E2E2E2E2E2E2E2E2E2E2E2E2E2E2E2E2E2E2E2E2E2E2E2E2E2
310
E2E2E2E2E2E2E2E2E2E2E2E2E2E2E2E2E2E2E2E2E2E2E2E2E2E2E2E2E2E2E2E2E2E2E2E2E2E2E2E2E2E2E2E2E2E2E2E2E2E2E2E2E2E2E2E2E2E2E2E2E2E2E2E2E2E2E2E2E2E2E2E2E2E2E2E2E2E2E2E2E2BEE2DCE2E2E2E2E2E2E2E2E2E2E2E2E22828E2E2E2E2E2E2E2E2E2E2E2E2E2E2E2E2E2E2E2E2E2E2E2E2E2E2E228
310
E2E22D2DE2E2E2E2E2E2E2E2E2E228E2E2E2E2E2E2E2E2E2E2E22828E22DE2E2E2E2E2E2E2E2E2E2E2E2E2E2E2E2E2E2E2E2E2E2E2E2E2E2E2E2E2E2E2E2E2E2E2E2E2E2DCE2BEE2E2E2E2E2E2E2E2E2E2E2E2E2E2E2E2E2E2E2E2E2E2E2E2E2E2E2E2E2E2E2E2E2E2E2E2E2E2E2E2E2E2E2E2E2E2E2E2E2E2E2E2E2E2E2E2
310
E2E2E2E2E2E2E2E2E2E2E2E2E2E2E2E2E2E2E2E2E2E2E2E2E2E2E2E2E2E2E2E2E2E2E2E2E2E2E2E2E2E2E2E2E2E2E2E2E2E2E2E2E2E2E2E2E2E2E2E2E2E2E2E2E2E2E2E2E2E2E2E2E2E2E2E2E2E2E2E2E2E2E2BEE2DCE2E2E2E2E2E2E2E2E2E2E2E2E22828E2E2E2E2E2E2E2E2E2E2E2E2E2E2E2E2E2E2E2E2E2E2E2E2E2E2
310
E228E2E22D2DE2E2E2E2E2E2E2E2E2E228E2E2E2E2E2E2E2E2E2E2E22828E22DE2E2E2E2E2E2E2E2E2E2E2E2E2E2E2E2E2E2E2E2E2E2E2E2E2E2E2E2E2E2E2E2E2E2E2E2E2E2DCE2BEE2E2E2E2E2E2E2E2E2E2E2E2E2E2E2E2E2E2E2E2E2E2E2E2E2E2E2E2E2E2E2E2E2E2E2E2E2E2E2E2E2E2E2E2E2E2E2E2E2E2E2E2E2E2
310
E2E2E2E2E2E2E2E2E2E2E2E2E2E2E2E2E2E2E2E2E2E2E2E2E2E2E2E2E2E2E2E2E2E2E2E2E2E2E2E2E2E2E2E2E2E2E2E2E2E2E2E2E2E2E2E2E2E2E2E2E2E2E2E2E2E2E2E2E2E2E2E2E2E2E2E2E2E2E2E2E2E2E2E2E2BEE2DCE2E2E2E2E2E2E2E2E2E2E2E2E22828E2E2E2E2E2E2E2E2E2E2E2E2E2E2E2E2E2E2E2E2E2E2E2E2
310
E2E2E228E2E22D2DE2E2E2E2E2E2E2E2E2E228E2E2E2E228282828282828E228E22DE2E2E2E2E2E2E2E2E2E2E2E2E2E2E2E2E2E2E2E2E2E2E2E2E2E2E2E2E2E2E2E2E2E2E2E2E2E2DCE2BEE2E2E2E2E2E2E2E2E2E2E2E2E2E2E2E2E2E2E2E2E2E2E2E2E2E2E2E2E2E2E2E2E2E2E2E2E2E2E2E2E2E2E2E2E2E2E2E2E2E2E2E2
310
E2E2E2E2E2E2E2E2E2E2E2E2E2E2E2E2E2E2E2E2E2E2E2E2E2E2E2E2E2E2E2E2E2E2E2E2E2E2E2E2E2E2E2E2E2E2E2E2E2E2E2E2E2E2E2E2E2E2E2E2E2E2E2E2E2E2E2E2E2E2E2E2E2E2E2E2E2E2E2E2E2E2E2E2E2E2E2BEE2DCE2E2E2E2E2E2E2E2E2E2E2E2E22828E2E2E2E2E2E2E2E2E2E2E2E2E2E2E2E2E2E2E2E2E2E2
310
E2E2E2E2E228E2E22D2DE2E2E2E2E2E2E2E2E2E228E2E2E2E228E2E2E2E2E2E2E228E22DE2E2E2E2E2E2E2E2E2E2E2E2E2E2E2E2E2E2E2E2E2E2E2E2E2E2E2E2E2E2E2E2E2E2E2E2E2E2DCE2BEE2E2E2E2E2E2E2E2E2E2E2E2E2E2E2E2E2E2E2E2E2E2E2E2E2E2E2E2E2E2E2E2E2E2E2E2E2E2E2E2E2E2E2E2E2E2E2E2E2E2
310
E2E2E2E2E2E2E2E2E2E2E2E2E2E2E2E2E2E2E2E2E2E2E2E2E2E2E2E2E2E2E2E2E2E2E2E2E2E2E2E2E2E2E2E2E2E2E2E2E2E2E2E2E2E2E2E2E2E2E2E2E2E2E2E2E2E2E2E2E2E2E2E2E2E2E2E2E2E2E2E2E2E2E2E2E2E2E2E2E2BEE2DCE2E2E2E2E2E2E2E2E2E2E2E2E22828E2E2E2E2E2E2E2E2E2E2E2E2E2E2E2E2E2E2E2E2
310
E2E2E2E2E2E2E228E2E22D2DE2E2E2E2E2E2E2E2E2E228E2E2E2E228E2E2E2E2E2E2E228E22DE2E2E2E2E2E2E2E2E2E2E2E2E2E2E2E2E2E2E2E2E2E2E2E2E2E2E2E2E2E2E2E2E2E2E2E2E2E2DCE2BEE2E2E2E2E2E2E2E2E2E2E2E2E2E2E2E2E2E2E2E2E2E2E2E2E2E2E2E2E2E2E2E2E2E2E2E2E2E2E2E2E2E2E2E2E2E2E2E2
310
E2E2E2E2E2E2E2E2E2E2E2E2E2E2E2E2E2E2E2E2E2E2E2E2E2E2E2E2E2E2E2E2E2E2E2E2E2E2E2E2E2E2E2E2E2E2E2E2E2E2E2E2E2E2E2E2E2E2E2E2E2E2E2E2E2E2E2E2E2E2E2E2E2E2E2E2E2E2E2E2E2E2E2E2E2E2E2E2E2E2E2BEE2DCE2E2E2E2E2E2E2E2E2E2E2E2E22828E2E2E2E2E2E2E2E2E2E2E2E2E2E2E2E2E2E2
310
E2E2E2E2E2E2E2E2E228E2E22D2DE2E2E2E2E2E2E2E2E2E228E2E2E2E228E2E2E2E2E2E2E228E22DE2E2E2E2E2E2E2E2E2E2E2E2E2E2E2E2E2E2E2E2E2E2E2E2E2E2E2E2E2E2E2E2E2E2E2E2E2E2DCE2BEE2E2E2E2E2E2E2E2E2E2E2E2E2E2E2E2E2E2E2E2E2E2E2E2E2E2E2E2E2E2E2E2E2E2E2E2E2E2E2E2E2E2E2E2E2E2
310
E2E2E2E2E2E2E2E2E2E2E2E2E2E2E2E2E2E2E2E2E2E2E2E2E2E2E2E2E2E2E2E2E2E2E2E2E2E2E2E2E2E2E2E2E2E2E2E2E2E2E2E2E2E2E2E2E2E2E2E2E2E2E2E2E2E2E2E2E2E2E2E2E2E2E2E2E2E2E2E2E2E2E2E2E2E2E2E2E2E2E2E2E2BEE2DCE2E2E2E2E2E2E2E2E2E2E2E2E22828E2E2E2E2E2E2E2E2E2E2E2E2E2E2E2E2
310
E2E2E2E2E2E2E2E2E2E2E228E2E22D2DE2E2E2E2E2E2E2E2E2E228E2E2E2E228E2E2E2E2E2E2E228E22DE2E2E2E2E2E2E2E2E2E2E2E2E2E2E2E2E2E2E2E2E2E2E2E2E2E2E2E2E2E2E2E2E2E2E2E2E2E2DCE2BEE2E2E2E2E2E2E2E2E2E2E2E2E2E2E2E2E2E2E2E2E2E2E2E2E2E2E2E2E2E2E2E2E2E2E2E2E2E2E2E2E2E2E2E2
310
E2E2E2E2E2E2E2E2E2E2E2E2E2E2E2E2E2E2E2E2E2E2E2E2E2E2E2E2E2E2E2E2E2E2E2E2E2E2E2E2E2E2E2E2E2E2E2E2E2E2E2E2E2E2E2E2E2E2E2E2E2E2E2E2E2E2E2E2E2E2E2E2E2E2E2E2E2E2E2E2E2E2E2E2E2E2E2E2E2E2E2E2E2E2E2BEE2DCE2E2E2E2E2E2E2E2E2E2E2E2E22828E2E2E2E2E2E2E2E2E2E2E2E2E2E2
310
E2E2E2E2E2E2E2E2E2E2E2E2E228E2E22D2DE2E2E2E2E2E2E2E2E2E228E2E2E2E228E2E2E2E2E2E2E228E22DE2E2E2E2E2E2E2E2E2E2E2E2E2E2E2E2E2E2E2E2E2E2E2E2E2E2E2E2E2E2E2E2E2E2E2E2E2E2DCE2BEE2E2E2E2E2E2E2E2E2E2E2E2E2E2E2E2E2E2E2E2E2E2E2E2E2E2E2E2E2E2E2E2E2E2E2E2E2E2E2E2E2E2
310
E2E2E2E2E2E2E2E2E2E2E2E2E2E2E2E2E2E2E2E2E2E2E2E2E2E2E2E2E2E2E2E2E2E2E2E2E2E2E2E2E2E2E2E2E2E2E2E2E2E2E2E2E2E2E2E2E2E2E2E2E2E2E2E2E2E2E2E2E2E2E2E2E2E2E2E2E2E2E2E2E2E2E2E2E2E2E2E2E2E2E2E2E2E2E2E2E2BEE2DCE2E2E2E2E2E2E2E2E2E2E2E2E22828E2E2E2E2E2E2E2E2E2E2E2E2
310
E2E2E2E2E2E2E2E2E2E2E2E2E2E2E228E2E22D2DE2E2E2E2E2E2E2E2E2E228E2E2E2E228E2E2E2E2E2E2E228E22DE2E2E2E2E2E2E2E2E2E2E2E2E2E2E2E2E2E2E2E2E2E2E2E2E2E2E2E2E2E2E2E2E2E2E2E2E2E2DCE2BEE2E2E2E2E2E2E2E2E2E2E2E2E2E2E2E2E2E2E2E2E2E2E2E2E2E2E2E2E2E2E2E2E2E2E2E2E2E2E2E2
310
E2E2E2E2E2E2E2E2E2E2E2E2E2E2E2E2E2E2E2E2E2E2E2E2E2E2E2E2E2E2E2E2E2E2E2E2E2E2E2E2E2E2E2E2E2E2E2E2E2E2E2E2E2E2E2E2E2E2E2E2E2E2E2E2E2E2E2E2E2E2E2E2E2E2E2E2E2E2E2E2E2E2E2E2E2E2E2E2E2E2E2E2E2E2E2E2E2E2E2BEE2DCE2E2E2E2E2E2E2E2E2E2E2E2E22828E2E2E2E2E2E2E2E2E2E2
310
E2E2E2E2E2E2E2E2E2E2E2E2E2E2E2E2E228E2E22D2DE2E2E2E2E2E2E2E2E2E228E2E2E2E228E2E2E2E2E2E2E228E22DE2E2E2E2E2E2E2E2E2E2E2E2E2E2E2E2E2E2E2E2E2E2E2E2E2E2E2E2E2E2E2E2E2E2E2E2E2E2DCE2BEE2E2E2E2E2E2E2E2E2E2E2E2E2E2E2E2E2E2E2E2E2E2E2E2E2E2E2E2E2E2E2E2E2E2E2E2E2E2
310
E2E2E2E2E2E2E2E2E2E2E2E2E2E2E2E2E2E2E2E2E2E2E2E2E2E2E2E2E2E2E2E2E2E2E2E2E2E2E2E2E2E2E2E2E2E2E2E2E2E2E2E2E2E2E2E2E2E2E2E2E2E2E2E2E2E2E2E2E2E2E2E2E2E2E2E2E2E2E2E2E2E2E2E2E2E2E2E2E2E2E2E2E2E2E2E2E2E2E2E2E2BEE2DCE2E2E2E2E2E2E2E2E2E2E2E2E22828E2E2E2E2E2E2E2E2
310
E2E2E2E2E2E2E2E2E2E2E2E2E2E2E2E2E2E2E228E2E22D2DE2E2E2E2E2E2E2E2E2E228E2E2E2E228E2E2E2E2E2E2E228E22DE2E2E2E2E2E2E2E2E2E2E2E2E2E2E2E2E2E2E2E2E2E2E2E2E2E2E2E2E2E2E2E2E2E2E2E2E2E2DCE2BEE2E2E2E2E2E2E2E2E2E2E2E2E2E2E2E2E2E2E2E2E2E2E2E2E2E2E2E2E2E2E2E2E2E2E2E2
310
E2E2E2E2E2E2E2E2E2E2E2E2E2E2E2E2E2E2E2E2E2E2E2E2E2E2E2E2E2E2E2E2E2E2E2E2E2E2E2E2E2E2E2E2E2E2E2E2E2E2E2E2E2E2E2E2E2E2E2E2E2E2E2E2E2E2E2E2E2E2E2E2E2E2E2E2E2E2E2E2E2E2E2E2E2E2E2E2E2E2E2E2E2E2E2E2E2E2E2E2E2E2E2BEE2DCE2E2E2E2E2E2E2E2E2E2E2E2E22828E2E2E2E2E2E2
310
E2E2E2E2E2E2E2E2E2E2E2E2E2E2E2E2E2E2E2E2E228E2E22D2DE2E2E2E2E2E2E2E2E2E228E2E2E2E228E2E2E2E2E2E2E228E22DE2E2E2E2E2E2E2E2E2E2E2E2E2E2E2E2E2E2E2E2E2E2E2E2E2E2E2E2E2E2E2E2E2E2E2E2E2E2DCE2BEE2E2E2E2E2E2E2E2E2E2E2E2E2E2E2E2E2E2E2E2E2E2E2E2E2E2E2E2E2E2E2E2E2E2
310
E2E2E2E2E2E2E2E2E2E2E2E2E2E2E2E2E2E2E2E2E2E2E2E2E2E2E2E2E2E2E2E2E2E2E2E2E2E2E2E2E2E2E2E2E2E2E2E2E2E2E2E2E2E2E2E2E2E2E2E2E2E2E2E2E2E2E2E2E2E2E2E2E2E2E2E2E2E2E2E2E2E2E2E2E2E2E2E2E2E2E2E2E2E2E2E2E2E2E2E2E2E2E2E2E2BEE2DCE2E2E2E2E2E2E2E2E2E2E2E2E22828E2E2E2E2
310
E2E2E2E2E2E2E2E2E2E2E2E2E2E2E2E2E2E2E2E2E2E2E228E2E22D2DE2E2E2E2E2E2E2E2E2E228E2E2E2E228E2E2E2E2E2E2E228E22DE2E2E2E2E2E2E2E2E2E2E2E2E2E2E2E2E2E2E2E2E2E2E2E2E2E2E2E2E2E2E2E2E2E2E2E2E2E2DCE2BEE2E2E2E2E2E2E2E2E2E2E2E2E2E2E2E2E2E2E2E2E2E2E2E2E2E2E2E2E2E2E2E2
310
E2E2E2E2E2E2E2E2E2E2E2E2E2E2E2E2E2E2E2E2E2E2E2E2E2E2E2E2E2E2E2E2E2E2E2E2E2E2E2E2E2E2E2E2E2E2E2E2E2E2E2E2E2E2E2E2E2E2E2E2E2E2E2E2E2E2E2E2E2E2E2E2E2E2E2E2E2E2E2E2E2E2E2E2E2E2E2E2E2E2E2E2E2E2E2E2E2E2E2E2E2E2E2E2E2E2E2BEE2DCE2E2E2E2E2E2E2E2E2E2E2E2E22828E2E2
310
E2E2E2E2E2E2E2E2E2E2E2E2E2E2E2E2E2E2E2E2E2E2E2E2E228E2E22D2DE2E2E2E2E2E2E2E2E2E228E2E2E2E228E2E2E2E2E2E2E228E22DE2E2E2E2E2E2E2E2E2E2E2E2E2E2E2E2E2E2E2E2E2E2E2E2E2E2E2E2E2E2E2E2E2E2E2E2E2E2DCE2BEE2E2E2E2E2E2E2E2E2E2E2E2E2E2E2E2E2E2E2E2E2E2E2E2E2E2E2E2E2E2
310
E2E2E2E2E2E2E2E2E2E2E2E2E2E2E2E2E2E2E2E2E2E2E2E2E2E2E2E2E2E2E2E2E2E2E2E2E2E2E2E2E2E2E2E2E2E2E2E2E2E2E2E2E2E2E2E2E2E2E2E2E2E2E2E2E2E2E2E2E2E2E2E2E2E2E2E2E2E2E2E2E2E2E2E2E2E2E2E2E2E2E2E2E2E2E2E2E2E2E2E2E2E2E2E2E2E2E2E2E2BEE2DCE2E2E2E2E2E2E2E2E2E2E2E2E22828
310
E2E2E2E2E2E2E2E2E2E2E2E2E2E2E2E2E2E2E2E2E2E2E2E2E2E2E228E2BE2D2DE2E2E2E2E2E2E2E2E2E228E2E2E2E228E2E2E2E2E2E2E228E22DE2E2E2E2E2E2E2E2E2E2E2E2E2E2E2E2E2E2E2E2E2E2E2E2E2E2E2E2E2E2E2E2E2E2E2E2E2E2DCE2BEE2E2E2E2E2E2E2E2E2E2E2E2E2E2E2E2E2E2E2E2E2E2E2E2E2E2E2E2
310
E2E2E2E2E2E2E2E2E2E2E2E2E2E2E2E2E2E2E2E2E2E2E2E2E2E2E2E2E2E2E2E2E2E2E2E2E2E2E2E2E2E2E2E2E2E2E2E2E2E2E2E2E2E2E2E2E2E2E2E2E2E2E2E2E2E2E2E2E2E2E2E2E2E2E2E2E2E2E2E2E2E2E2E2E2E2E2E2E2E2E2E2E2E2E2E2E2E2E2E2E2E2E2E2E2E2E2E2E2E2E2BEE2DCE2E2E2E2E2E2E2E2E2E2E2E2E2
310
2828E2E2E2E2E2E2E2E2E2E2E2E2E2E2E2E2E2E2E2E2E2E2E2E2E2E2E228E2BE2D2DE2E2E2E2E2E2E2E2E2E228E2E2E2E228E2E2E2E2E2E2E228E2BEE2E2E2E2E2E2E2E2E2E2E2E2E2E2E2E2E2E2E2E2E2E2E2E2E2E2E2E2E2E2E2E2E2E2E2E2E2E2DCE2BEE2E2E2E2E2E2E2E2E2E2E2E2E2E2E2E2E2E2E2E2E2E2E2E2E2E2
310
E2E2E2E2E2E2E2E2E2E2E2E2E2E2E2E2E2E2E2E2E2E2E2E2E2E2E2E2E2E2E2E2E2E2E2E2E2E2E2E2E2E2E2E2E2E2E2E2E2E2E2E2E2E2E2E2E2E2E2E2E2E2E2E2E2E2E2E2E2E2E2E2E2E2E2E2E2E2E2E2E2E2E2E2E2E2E2E2E2E2E2E2E2E2E2E2E2E2E2E2E2E2E2E2E2E2E2E2E2E2E2E2E2BEE2DCE2E2E2E2E2E2E2E2E2E2E2
310
E2E22828E2E2E2E2E2E2E2E2E2E2E2E2E2E2E2E2E2E2E2E2E2E2E2E2E2E2E228E2BEBEBEE2E2E2E2E2E2E2E2E2E228E2E2E2E228E2E2E2E2E2E2E228BEBEE2E2E2E2E2E2E2E2E2E2E2E2E2E2E2E2E2E2E2E2E2E2E2E2E2E2E2E2E2E2E2E2E2E2E2E2E2E2DCE2BEE2E2E2E2E2E2E2E2E2E2E2E2E2E2E2E2E2E2E2E2E2E2E2E2
310
E2E2E2E2E2E2E2E2E2E2E2E2E2E2E2E2E2E2E2E2E2E2E2E2E2E2E2E2E2E2E2E2E2E2E2E2E2E2E2E2E2E2E2E2E2E2E2E2E2E2E2E2E2E2E2E2E2E2E2E2E2E2E2E2E2E2E2E2E2E2E2E2E2E2E2E2E2E2E2E2E2E2E2E2E2E2E2E2E2E2E2E2E2E2E2E2E2E2E2E2E2E2E2E2E2E2E2E2E2E2E2E2E2E2E2BEE2DCE2E2E2E2E2E2E2E2E2
310
E2E2E2E22828E2E2E2E2E2E2E2E2E2E2E2E2E2E2E2E2E2E2E2E2E2E2E2E2E2E2E228E2E2BEBEE2E2E2E2E2E2E2E2E2E228E2E2E2E228E2E2E2E2E2E2E228BEBEE2E2E2E2E2E2E2E2E2E2E2E2E2E2E2E2E2E2E2E2E2E2E2E2E2E2E2E2E2E2E2E2E2E2E2E2E2E2DCE2BEE2E2E2E2E2E2E2E2E2E2E2E2E2E2E2E2E2E2E2E2E2E2
310
E2E2E2E2E2E2E2E2E2E2E2E2E2E2E2E2E2E2E2E2E2E2E2E2E2E2E2E2E2E2E2E2E2E2E2E2E2E2E2E2E2E2E2E2E2E2E2E2E2E2E2E2E2E2E2E2E2E2E2E2E2E2E2E2E2E2E2E2E2E2E2E2E2E2E2E2E2E2E2E2E2E2E2E2E2E2E2E2E2E2E2E2E2E2E2E2E2E2E2E2E2E2E2E2E2E2E2E2E2E2E2E2E2E2E2E2E2BEE2DCE2E2E2E2E2E2E2
310
E2E2E2E2E2E22828E2E2E2E2E2E2E2E2E2E2E2E2E2E2E2E2E2E2E2E2E2E2E2E2E2E2E228E2E2BEBEE2E2E2E2E2E2E2E2E2E228E2E2E2E228E2E2E2E2E2E2E228E22DE2E2E2E2E2E2E2E2E2E2E2E2E2E2E2E2E2E2E2E2E2E2E2E2E2E2E2E2E2E2E2E2E2E2E2E2E2E2DCE2BEE2E2E2E2E2E2E2E2E2E2E2E2E2E2E2E2E2E2E2E2
310
E2E2E2E2E2E2E2E2E2E2E2E2E2E2E2E2E2E2E2E2E2E2E2E2E2E2E2E2E2E2E2E2E2E2E2E2E2E2E2E2E2E2E2E2E2E2E2E2E2E2E2E2E2E2E2E2E2E2E2E2E2E2E2E2E2E2E2E2E2E2E2E2E2E2E2E2E2E2E2E2E2E2E2E2E2E2E2E2E2E2E2E2E2E2E2E2E2E2E2E2E2E2E2E2E2E2E2E2E2E2E2E2E2E2E2E2E2E2E2BEE2DCE2E2E2E2E2
310
E2E2E2E2E2E2E2E22828E2E2E2E2E2E2E2E2E2E2E2E2E2E2E2E2E2E2E2E2E2E2E2E2E2E2E228E2E22D2DE2E2E2E2E2E2E2E2E2E228E2E2E2E228E2E2E2E2E2E2E228E22DE2E2E2E2E2E2E2E2E2E2E2E2E2E2E2E2E2E2E2E2E2E2E2E2E2E2E2E2E2E2E2E2E2E2E2E2E2E2DCE2BEE2E2E2E2E2E2E2E2E2E2E2E2E2E2E2E2E2E2
310
E2E2E2E2E2E2E2E2E2E2E2E2E2E2E2E2E2E2E2E2E2E2E2E2E2E2E2E2E2E2E2E2E2E2E2E2E2E2E2E2E2E2E2E2E2E2E2E2E2E2E2E2E2E2E2E2E2E2E2E2E2E2E2E2E2E2E2E2E2E2E2E2E2E2E2E2E2E2E2E2E2E2E2E2E2E2E2E2E2E2E2E2E2E2E2E2E2E2E2E2E2E2E2E2E2E2E2E2E2E2E2E2E2E2E2E2E2E2E2E2E2BEE2DCE2E2E2
310
E2E2E2E2E2E2E2E2E2E22828E2E2E2E2E2E2E2E2E2E2E2E2E2E2E2E2E2E2E2E2E2E2E2E2E2E2E228E2E22D2DE2E2E2E2E2E2E2E2E2E228E2E2E2E228E2E2E2E2E2E2E228E22DE2E2E2E2E2E2E2E2E2E2E2E2E2E2E2E2E2E2E2E2E2E2E2E2E2E2E2E2E2E2E2E2E2E2E2E2E2E2DCE2BEE2E2E2E2E2E2E2E2E2E2E2E2E2E2E2E2
310
E2E2E2E2E2E2E2E2E2E2E2E2E2E2E2E2E2E2E2E2E2E2E2E2E2E2E2E2E2E2E2E2E2E2E2E2E2E2E2E2E2E2E2E2E2E2E2E2E2E2E2E2E2E2E2E2E2E2E2E2E2E2E2E2E2E2E2E2E2E2E2E2E2E2E2E2E2E2E2E2E2E2E2E2E2E2E2E2E2E2E2E2E2E2E2E2E2E2E2E2E2E2E2E2E2E2E2E2E2E2E2E2E2E2E2E2E2E2E2E2E2E2E2BEE2DCE2
310
E2E2E2E2E2E2E2E2E2E2E2E22828E2E2E2E2E2E2E2E2E2E2E2E2E2E2E2E2E2E2E2E2E2E2E2E2E2E2E228E2E22D2DE2E2E2E2E2E2E2E2E2E228E2E2E2E228E2E2E2E2E2E2E228E22DE2E2E2E2E2E2E2E2E2E2E2E2E2E2E2E2E2E2E2E2E2E2E2E2E2E2E2E2E2E2E2E2E2E2E2E2E2E2DCE2BEE2E2E2E2E2E2E2E2E2E2E2E2E2E2
310
E2E2E2E2E2E2E2E2E2E2E2E2E2E2E2E2E2E2E2E2E2E2E2E2E2E2E2E2E2E2E2E2E2E2E2E2E2E2E2E2E2E2E2E2E2E2E2E2E2E2E2E2E2E2E2E2E2E2E2E2E2E2E2E2E2E2E2E2E2E2E2E2E2E2E2E2E2E2E2E2E2E2E2E2E2E2E2E2E2E2E2E2E2E2E2E2E2E2E2E2E2E2E2E2E2E2E2E2E2E2E2E2E2E2E2E2E2E2E2E2E2E2E2E2E2BEE2
310
DCE2E2E2E2E2E2E2E2E2E2E2E2E22828E2E2E2E2E2E2E2E2E2E2E2E2E2E2E2E2E2E2E2E2E2E2E2E2E2E2E228E2E22D2DE2E2E2E2E2E2E2E2E2E228E2E2E2E228E2E2E2E2E2E2E228E22DE2E2E2E2E2E2E2E2E2E2E2E2E2E2E2E2E2E2E2E2E2E2E2E2E2E2E2E2E2E2E2E2E2E2E2E2E2E2DCE2BEE2E2E2E2E2E2E2E2E2E2E2E2
310
E2E2E2E2E2E2E2E2E2E2E2E2E2E2E2E2E2E2E2E2E2E2E2E2E2E2E2E2E2E2E2E2E2E2E2E2E2E2E2E2E2E2E2E2E2E2E2E2E2E2E2E2E2E2E2E2E2E2E2E2E2E2E2E2E2E2E2E2E2E2E2E2E2E2E2E2E2E2E2E2E2E2E2E2E2E2E2E2E2E2E2E2E2E2E2E2E2E2E2E2E2E2E2E2E2E2E2E2E2E2E2E2E2E2E2E2E2E2E2E2E2E2E2E2E2E2E2
310
BEE2DCE2E2E2E2E2E2E2E2E2E2E2E2E22828E2E2E2E2E2E2E2E2E2E2E2E2E2E2E2E2E2E2E2E2E2E2E2E2E2E2E228E2E22D2DE2E2E2E2E2E2E2E2E2E228E2E2E2E228E2E2E2E2E2E2E228E22DE2E2E2E2E2E2E2E2E2E2E2E2E2E2E2E2E2E2E2E2E2E2E2E2E2E2E2E2E2E2E2E2E2E2E2E2E2E2DCE2BEE2E2E2E2E2E2E2E2E2E2
310
E2E2E2E2E2E2E2E2E2E2E2E2E2E2E2E2E2E2E2E2E2E2E2E2E2E2E2E2E2E2E2E2E2E2E2E2E2E2E2E2E2E2E2E2E2E2E2E2E2E2E2E2E2E2E2E2E2E2E2E2E2E2E2E2E2E2E2E2E2E2E2E2E2E2E2E2E2E2E2E2E2E2E2E2E2E2E2E2E2E2E2E2E2E2E2E2E2E2E2E2E2E2E2E2E2E2E2E2E2E2E2E2E2E2E2E2E2E2E2E2E2E2E2E2E2E2E2
310
E2E2BEE2DCE2E2E2E2E2E2E2E2E2E2E2E2E22828E2E2E2E2E2E2E2E2E2E2E2E2E2E2E2E2E2E2E2E2E2E2E2E2E2E2E228E2E22D2DE2E2E2E2E2E2E2E2E2E228E2E2E2E228E2E2E2E2E2E2E228E22DE2E2E2E2E2E2E2E2E2E2E2E2E2E2E2E2E2E2E2E2E2E2E2E2E2E2E2E2E2E2E2E2E2E2E2E2E2E2DCE2BEE2E2E2E2E2E2E2E2
310
E2E2E2E2E2E2E2E2E2E2E2E2E2E2E2E2E2E2E2E2E2E2E2E2E2E2E2E2E2E2E2E2E2E2E2E2E2E2E2E2E2E2E2E2E2E2E2E2E2E2E2E2E2E2E2E2E2E2E2E2E2E2E2E2E2E2E2E2E2E2E2E2E2E2E2E2E2E2E2E2E2E2E2E2E2E2E2E2E2E2E2E2E2E2E2E2E2E2E2E2E2E2E2E2E2E2E2E2E2E2E2E2E2E2E2E2E2E2E2E2E2E2E2E2E2E2E2
310
E2E2E2E2BEE2DCE2E2E2E2E2E2E2E2E2E2E2E2E22828E2E2E2E2E2E2E2E2E2E2E2E2E2E2E2E2E2E2E2E2E2E2E2E2E2E2E228E2E22D2DE2E2E2E2E2E2E2E2E2E228E2E2E2E228E2E2E2E2E2E2E228E22DE2E2E2E2E2E2E2E2E2E2E2E2E2E2E2E2E2E2E2E2E2E2E2E2E2E2E2E2E2E2E2E2E2E2E2E2E2E2DCE2BEE2E2E2E2E2E2
310
E2E2E2E2E2E2E2E2E2E2E2E2E2E2E2E2E2E2E2E2E2E2E2E2E2E2E2E2E2E2E2E2E2E2E2E2E2E2E2E2E2E2E2E2E2E2E2E2E2E2E2E2E2E2E2E2E2E2E2E2E2E2E2E2E2E2E2E2E2E2E2E2E2E2E2E2E2E2E2E2E2E2E2E2E2E2E2E2E2E2E2E2E2E2E2E2E2E2E2E2E2E2E2E2E2E2E2E2E2E2E2E2E2E2E2E2E2E2E2E2E2E2E2E2E2E2E2
310
E2E2E2E2E2E2BEE2DCE2E2E2E2E2E2E2E2E2E2E2E2E22828E2E2E2E2E2E2E2E2E2E2E2E2E2E2E2E2E2E2E2E2E2E2E2E2E2E2E228E2E22D2DE2E2E2E2E2E2E2E2E2E228E2E2E2E228E2E2E2E2E2E2E228E22DE2E2E2E2E2E2E2E2E2E2E2E2E2E2E2E2E2E2E2E2E2E2E2E2E2E2E2E2E2E2E2E2E2E2E2E2E2E2DCE2BEE2E2E2E2
310
E2E2E2E2E2E2E2E2E2E2E2E2E2E2E2E2E2E2E2E2E2E2E2E2E2E2E2E2E2E2E2E2E2E2E2E2E2E2E2E2E2E2E2E2E2E2E2E2E2E2E2E2E2E2E2E2E2E2E2E2E2E2E2E2E2E2E2E2E2E2E2E2E2E2E2E2E2E2E2E2E2E2E2E2E2E2E2E2E2E2E2E2E2E2E2E2E2E2E2E2E2E2E2E2E2E2E2E2E2E2E2E2E2E2E2E2E2E2E2E2E2E2E2E2E2E2E2
310
E2E2E2E2E2E2E2E2BEE2DCE2E2E2E2E2E2E2E2E2E2E2E2E22828E2E2E2E2E2E2E2E2E2E2E2E2E2E2E2E2E2E2E2E2E2E2E2E2E2E2E228E2E22D2DE2E2E2E2E2E2E2E2E2E228E2E2E2E228E2E2E2E2E2E2E228E22DE2E2E2E2E2E2E2E2E2E2E2E2E2E2E2E2E2E2E2E2E2E2E2E2E2E2E2E2E2E2E2E2E2E2E2E2E2E2DCE2BEE2E2
310
E2E2E2E2E2E2E2E2E2E2E2E2E2E2E2E2E2E2E2E2E2E2E2E2E2E2E2E2E2E2E2E2E2E2E2E2E2E2E2E2E2E2E2E2E2E2E2E2E2E2E2E2E2E2E2E2E2E2E2E2E2E2E2E2E2E2E2E2E2E2E2E2E2E2E2E2E2E2E2E2E2E2E2E2E2E2E2E2E2E2E2E2E2E2E2E2E2E2E2E2E2E2E2E2E2E2E2E2E2E2E2E2E2E2E2E2E2E2E2E2E2E2E2E2E2E2E2
310
E2E2E2E2E2E2E2E2E2E2BEE2DCE2E2E2E2E2E2E2E2E2E2E2E2E22828E2E2E2E2E2E2E2E2E2E2E2E2E2E2E2E2E2E2E2E2E2E2E2E2E2E2E228E2E22D2DE2E2E2E2E2E2E2E2E2E228E2E2E2E228E2E2E2E2E2E2E228E22DE2E2E2E2E2E2E2E2E2E2E2E2E2E2E2E2E2E2E2E2E2E2E2E2E2E2E2E2E2E2E2E2E2E2E2E2E2E2DCE2BE
310
E2E2E2E2E2E2E2E2E2E2E2E2E2E2E2E2E2E2E2E2E2E2E2E2E2E2E2E2E2E2E2E2E2E2E2E2E2E2E2E2E2E2E2E2E2E2E2E2E2E2E2E2E2E2E2E2E2E2E2E2E2E2E2E2E2E2E2E2E2E2E2E2E2E2E2E2E2E2E2E2E2E2E2E2E2E2E2E2E2E2E2E2E2E2E2E2E2E2E2E2E2E2E2E2E2E2E2E2E2E2E2E2E2E2E2E2E2E2E2E2E2E2E2E2E2E2E2
310
E2E2E2E2E2E2E2E2E2E2E2E2BEE2DCE2E2E2E2E2E2E2E2E2E2E2E2E22828E2E2E2E2E2E2E2E2E2E2E2E2E2E2E2E2E2E2E2E2E2E2E2E2E2E2E228E2E22D2DE2E2E2E2E2E2E2E2E2E228E2E2E2E228E2E2E2E2E2E2E228E22DE2E2E2E2E2E2E2E2E2E2E2E2E2E2E2E2E2E2E2E2E2E2E2E2E2E2E2E2E2E2E2E2E2E2E2E2E2E2DC
310
E2BEE2E2E2E2E2E2E2E2E2E2E2E2E2E2E2E2E2E2E2E2E2E2E2E2E2E2E2E2E2E2E2E2E2E2E2E2E2E2E2E2E2E2E2E2E2E2E2E2E2E2E2E2E2E2E2E2E2E2E2E2E2E2E2E2E2E2E2E2E2E2E2E2E2E2E2E2E2E2E2E2E2E2E2E2E2E2E2E2E2E2E2E2E2E2E2E2E2E2E2E2E2E2E2E2E2E2E2E2E2E2E2E2E2E2E2E2E2E2E2E2E2E2E2E2E2
310
E2E2E2E2E2E2E2E2E2E2E2E2E2E2BEE2DCE2E2E2E2E2E2E2E2E2E2E2E2E22828E2E2E2E2E2E2E2E2E2E2E2E2E2E2E2E2E2E2E2E2E2E2E2E2E2E2E228E2E22D2DE2E2E2E2E2E2E2E2E2E228E2E2E2E228E2E2E2E2E2E2E228E22DE2E2E2E2E2E2E2E2E2E2E2E2E2E2E2E2E2E2E2E2E2E2E2E2E2E2E2E2E2E2E2E2E2E2E2E2E2
310
E2DCE2BEE2E2E2E2E2E2E2E2E2E2E2E2E2E2E2E2E2E2E2E2E2E2E2E2E2E2E2E2E2E2E2E2E2E2E2E2E2E2E2E2E2E2E2E2E2E2E2E2E2E2E2E2E2E2E2E2E2E2E2E2E2E2E2E2E2E2E2E2E2E2E2E2E2E2E2E2E2E2E2E2E2E2E2E2E2E2E2E2E2E2E2E2E2E2E2E2E2E2E2E2E2E2E2E2E2E2E2E2E2E2E2E2E2E2E2E2E2E2E2E2E2E2E2
310
E2E2E2E2E2E2E2E2E2E2E2E2E2E2E2E2BEE2DCE2E2E2E2E2E2E2E2E2E2E2E2E22828E2E2E2E2E2E2E2E2E2E2E2E2E2E2E2E2E2E2E2E2E2E2E2E2E2E2E228E2E22D2DE2E2E2E2E2E2E2E2E2E228E2E2E2E228E2E2E2E2E2E2E228E22DE2E2E2E2E2E2E2E2E2E2E2E2E2E2E2E2E2E2E2E2E2E2E2E2E2E2E2E2E2E2E2E2E2E2E2
310
E2E2E2DCE2BEE2E2E2E2E2E2E2E2E2E2E2E2E2E2E2E2E2E2E2E2E2E2E2E2E2E2E2E2E2E2E2E2E2E2E2E2E2E2E2E2E2E2E2E2E2E2E2E2E2E2E2E2E2E2E2E2E2E2E2E2E2E2E2E2E2E2E2E2E2E2E2E2E2E2E2E2E2E2E2E2E2E2E2E2E2E2E2E2E2E2E2E2E2E2E2E2E2E2E2E2E2E2E2E2E2E2E2E2E2E2E2E2E2E2E2E2E2E2E2E2E2
310
E2E2E2E2E2E2E2E2E2E2E2E2E2E2E2E2E2E2BEE2DCE2E2E2E2E2E2E2E2E2E2E2E2E22828E2E2E2E2E2E2E2E2E2E2E2E2E2E2E2E2E2E2E2E2E2E2E2E2E2E2E228E2E22D2DE2E2E2E2E2E2E2E2E2E228E2E2E2E228E2E2E2E2E2E2E228E22DE2E2E2E2E2E2E2E2E2E2E2E2E2E2E2E2E2E2E2E2E2E2E2E2E2E2E2E2E2E2E2E2E2
310
E2E2E2E2E2DCE2BEE2E2E2E2E2E2E2E2E2E2E2E2E2E2E2E2E2E2E2E2E2E2E2E2E2E2E2E2E2E2E2E2E2E2E2E2E2E2E2E2E2E2E2E2E2E2E2E2E2E2E2E2E2E2E2E2E2E2E2E2E2E2E2E2E2E2E2E2E2E2E2E2E2E2E2E2E2E2E2E2E2E2E2E2E2E2E2E2E2E2E2E2E2E2E2E2E2E2E2E2E2E2E2E2E2E2E2E2E2E2E2E2E2E2E2E2E2E2E2
310
E2E2E2E2E2E2E2E2E2E2E2E2E2E2E2E2E2E2E2E2BEE2DCE2E2E2E2E2E2E2E2E2E2E2E2E22828E2E2E2E2E2E2E2E2E2E2E2E2E2E2E2E2E2E2E2E2E2E2E2E2E2E2E228E2E22D2DE2E2E2E2E2E2E2E2E2E228E2E2E2E228E2E2E2E2E2E2E228E22DE2E2E2E2E2E2E2E2E2E2E2E2E2E2E2E2E2E2E2E2E2E2E2E2E2E2E2E2E2E2E2
310
E2E2E2E2E2E2E2DCE2BEE2E2E2E2E2E2E2E2E2E2E2E2E2E2E2E2E2E2E2E2E2E2E2E2E2E2E2E2E2E2E2E2E2E2E2E2E2E2E2E2E2E2E2E2E2E2E2E2E2E2E2E2E2E2E2E2E2E2E2E2E2E2E2E2E2E2E2E2E2E2E2E2E2E2E2E2E2E2E2E2E2E2E2E2E2E2E2E2E2E2E2E2E2E2E2E2E2E2E2E2E2E2E2E2E2E2E2E2E2E2E2E2E2E2E2E2E2
310
E2E2E2E2E2E2E2E2E2E2E2E2E2E2E2E2E2E2E2E2E2E2BEE2DCE2E2E2E2E2E2E2E2E2E2E2E2E22828E2E2E2E2E2E2E2E2E2E2E2E2E2E2E2E2E2E2E2E2E2E2E2E2E2E2E228E2E22D2DE2E2E2E2E2E2E2E2E2E228E2E2E2E228E2E2E2E2E2E2E228E22DE2E2E2E2E2E2E2E2E2E2E2E2E2E2E2E2E2E2E2E2E2E2E2E2E2E2E2E2E2
310
E2E2E2E2E2E2E2E2E2DCE2BEE2E2E2E2E2E2E2E2E2E2E2E2E2E2E2E2E2E2E2E2E2E2E2E2E2E2E2E2E2E2E2E2E2E2E2E2E2E2E2E2E2E2E2E2E2E2E2E2E2E2E2E2E2E2E2E2E2E2E2E2E2E2E2E2E2E2E2E2E2E2E2E2E2E2E2E2E2E2E2E2E2E2E2E2E2E2E2E2E2E2E2E2E2E2E2E2E2E2E2E2E2E2E2E2E2E2E2E2E2E2E2E2E2E2E2
310
E2E2E2E2E2E2E2E2E2E2E2E2E2E2E2E2E2E2E2E2E2E2E2E2BEE2DCE2E2E2E2E2E2E2E2E2E2E2E2E22828E2E2E2E2E2E2E2E2E2E2E2BEBEBEBEBEE2E2E2E2E2E2E2E2E2E2E228E2E22D2DE2E2E2E2E2E2E2E2E2E228E2E2E2E228E2E2E2E2E2E2E228E22DE2E2E2E2E2E2E2E2E2E2E2E2E2E2E2E2E2E2E2E2E2E2E2E2E2E2E2
310
E2E2E2E2E2E2E2E2E2E2E2DCE2BEE2E2E2E2E2E2E2E2E2E2E2E2E2E2E2E2E2E2E2E2E2E2E2E2E2E2E2E2E2E2E2E2E2E2E2E2E2E2E2E2E2E2E2E2E2E2E2E2E2E2E2E2E2E2E2E2E2E2E2E2E2E2E2E2E2E2E2E2E2E2E2E2E2E2E2E2E2E2E2E2E2E2E2E2E2E2E2E2E2E2E2E2E2E2E2E2E2E2E2E2E2E2E2E2E2E2E2E2E2E2E2E2E2
310
E2E2E2E2E2E2E2E2E2E2E2E2E2E2E2E2E2E2E2E2E2E2E2E2E2E2BEE2DCE2E2E2E2E2E2E2E2E2E2E2E2E22828E2BEE2E2E2E2E2E2E2E2E2BEBEBEBEBEE2E2E2E2E2E2E2E2E2BEE228E2E22D2DE2E2E2E2E2E2E2E2E2E228E2E2E2E228E2E2E2E2E2E2E228E22DE2E2E2E2E2E2E2E2E2E2E2E2E2E2E2E2E2E2E2E2E2E2E2E2E2
310
E2E2E2E2E2E2E2E2E2E2E2E2E2DCE2BEE2E2E2E2E2E2E2E2E2E2E2E2E2E2E2E2E2E2E2E2E2E2E2E2E2E2E2E2E2E2E2E2E2E2E2E2E2E2E2E2E2E2E2E2E2E2E2E2E2E2E2E2E2E2E2E2E2E2E2E2E2E2E2E2E2E2E2E2E2E2E2E2E2E2E2E2E2E2E2E2E2E2E2E2E2E2E2E2E2E2E2E2E2E2E2E2E2E2E2E2E2E2E2E2E2E2E2E2E2E2E2
310
E2E2E2E2E2E2E2E2E2E2E2E2E2E2E2E2E2E2E2E2E2E2E2E2E2E2E2E2BEE2DCE2E2E2E2E2E2E2E2E2E2E2E2E228282828E2E2E2E2E2E2E2E2E2BEBEBEBEBEE2E2E2E2E2E2E2E228282828E2E22D2DE2E2E2E2E2E2E2E2E2E228E2E2E2E228E2E2E2E2E2E2E228E22DE2E2E2E2E2E2E2E2E2E2E2E2E2E2E2E2E2E2E2E2E2E2E2
310
E2E2E2E2E2E2E2E2E2E2E2E2E2E2E2DCE2BEE2E2E2E2E2E2E2E2E2E2E2E2E2E2E2E2E2E2E2E2E2E2E2E2E2E2E2E2E2E2E2E2E2E2E2E2E2E2E2E2E2E2E2E2E2E2E2E2E2E2E2E2E2E2E2E2E2E2E2E2E2E2E2E2E2E2E2E2E2E2E2E2E2E2E2E2E2E2E2E2E2E2E2E2E2E2E2E2E2E2E2E2E2E2E2E2E2E2E2E2E2E2E2E2E2E2E2E2E2
310
E2E2E2E2E2E2E2E2E2E2E2E2E2E2E2E2E2E2E2E2E2E2E2E2E2E2E2E2E2E2BEE2DCE2E2E2E2E2E2E2E2E2E2E2E2E228282828E2E2E2E2E2E2E2E2E2E2E228E2E2E2E2E2E2E2E2E2E2E2282828E2E22D2DE2E2E2E2E2E2E2E2E2E228E228282828E2E2E2E2E2E2E228E22DE2E2E2E2E2E2E2E2E2E2E2E2E2E2E2E2E2E2E2E2E2
310
E2E2E2E2E2E2E2E2E2E2E2E2E2E2E2E2E2DCE2BEE2E2E2E2E2E2E2E2E2E2E2E2E2E2E2E2E2E2E2E2E2E2E2E2E2E2E2E2E2E2E2E2E2E2E2E2E2E2E2E2E2E2E2E2E2E2E2E2E2E2E2E2E2E2E2E2E2E2E2E2E2E2E2E2E2E2E2E2E2E2E2E2E2E2E2E2E2E2E2E2E2E2E2E2E2E2E2E2E2E2E2E2E2E2E2E2E2E2E2E2E2E2E2E2E2E2E2
310
E2E2E2E2E2E2E2E2E2E2E2E2E2E2E2E2E2E2E2E2E2E2E2E2E2E2E2E2E2E2E2E2BEE2DCE2E2E2E2E2E2E2E2E2E2E2E2E22828BEBEE2E2E2E2E2E2E2E2E2E2F5BEF528E2E2E2E2E2E2E2E2E2BEF52D2D2D2D2DE2E2E2E2E2E2E2E2E2E228E228F5F5E2E2E2E2E2E2E2E228E22DE2E2E2E2E2E2E2E2E2E2E2E2E2E2E2E2E2E2E2
310
E2E2E2E2E2E2E2E2E2E2E2E2E2E2E2E2E2E2E2DCE2BEE2E2E2E2E2E2E2E2E2E2E2E2E2E2E2E2E2E2E2E2E2E2E2E2E2E2E2E2E2E2E2E2E2E2E2E2E2E2E2E2E2E2E2E2E2E2E2E2E2E2E2E2E2E2E2E2E2E2E2E2E2E2E2E2E2E2E2E2E2E2E2E2E2E2E2E2E2E2E2E2E2E2E2E2E2E2E2E2E2E2E2E2E2E2E2E2E2E2E2E2E2E2E2E2E2
310
E2E2E2E2E2E2E2E2E2E2E2E2E2E2E2E2E2E2E2E2E2E2E2E2E2E2E2E2E2E2E2E2E2E2BEE2DCE2E2E2E2E2E2E2E2E2E2E2E2E2F5F5F5F5F5F5F5F5F5F5F5F5F5F5F5BEF5F5F5F5F5F5F5F5F5F5F5F5F5F5E22D2DE2E2E2E2E2E2E2E2E2E2E2282828F5F5F5F5F5F5F5F5F5F528E22DE2E2E2E2E2E2E2E2E2E2E2E2E2E2E2E2E2
310
E2E2E2E2E2E2E2E2E2E2E2E2E2E2E2E2E2E2E2E2E2DCE2BEE2E2E2E2E2E2E2E2E2E2E2E2E2E2E2E2E2E2E2E2E2E2E2E2E2E2E2E2E2E2E2E2E2E2E2E2E2E2E2E2E2E2E2E2E2E2E2E2E2E2E2E2E2E2E2E2E2E2E2E2E2E2E2E2E2E2E2E2E2E2E2E2E2E2E2E2E2E2E2E2E2E2E2E2E2E2E2E2E2E2E2E2E2E2E2E2E2E2E2E2E2E2E2
310
E2E2E2E2E2E2E2E2E2E2E2E2E2E2E2E2E2E2E2E2E2E2E2E2E2E2E2E2E2E2E2E2E2E2E2E2BEE2DCE2E2E2E2E2E2E2E2E2E2E2E2E2F5F5F5F5F5F5F5F5F5F5F5F5F5F5F5BEF5F5F5F5F5F5F5F5F5F5F5F5F5F52D2DF5E2E2E2E2E2E2E2E2E2E2E2F5F5F5F5BEF5F5F5F5F5F5F5F5F52DF5E2E2E2E2E2E2E2E2E2E2E2E2E2E2E2
310
E2E2E2E2E2E2E2E2E2E2E2E2E2E2E2E2E2E2E2E2E2E2E2DCE2BEE2E2E2E2E2E2E2E2E2E2E2E2E2E2E2E2E2E2E2E2E2E2E2E2E2E2E2E2E2E2E2E2E2E2E2E2E2E2E2E2E2E2E2E2E2E2E2E2E2E2E2E2E2E2E2E2E2E2E2E2E2E2E2E2E2E2E2E2E2E2E2E2E2E2E2E2E2E2E2E2E2E2E2E2E2E2E2E2E2E2E2E2E2E2E2E2E2E2E2E2E2
310
E2E2E2E2E2E2E2E2E2E2E2E2E2E2E2E2E2E2E2E2E2E2E2E2E2E2E2E2E2E2E2E2E2E2E2E2E2E2BEE2DCE2E2E2E2E2E2E2E2E2E2E2E2E22D2D2D2D2D2D2D2D2D2D2D2D2D2DBEBEBE2D2D2D2D2D2D2D2D2D2D2D2DF5E2E2E2E2E2E2E2E2E2E2E2E2E2E22D2D2D2D2D2DBEBE2D2D2D2D2DF5E2E2E2E2E2E2E2E2E2E2E2E2E2E2E2
310
E2E2E2E2E2E2E2E2E2E2E2E2E2E2E2E2E2E2E2E2E2E2E2E2E2DCE2BEE2E2E2E2E2E2E2E2E2E2E2E2E2E2E2E2E2E2E2E2E2E2E2E2E2E2E2E2E2E2E2E2E2E2E2E2E2E2E2E2E2E2E2E2E2E2E2E2E2E2E2E2E2E2E2E2E2E2E2E2E2E2E2E2E2E2E2E2E2E2E2E2E2E2E2E2E2E2E2E2E2E2E2E2E2E2E2E2E2E2E2E2E2E2E2E2E2E2E2
310
E2E2E2E2E2E2E2E2E2E2E2E2E2E2E2E2E2E2E2E2E2E2E2E2E2E2E2E2E2E2E2E2E2E2E2E2E2E2E2E2BEE2DCE2E2E2E2E2E2E2E2E2E2E2E2E2E2E2E2E2E2E2E2E2E2E2E2E2E2E2BEBEBEE2E2E2E2E2E2E2E2E2E2E2E2E2E2E2E2E2E2E2E2E2E2E2E2E2E2E2E2E2E2E2E2E2BEBEE2E2E2E2E2E2E2E2E2E2E2E2E2E2E2E2E2E2E2
310
E2E2E2E2E2E2E2E2E2E2E2E2E2E2E2E2E2E2E2E2E2E2E2E2E2E2E2DCE2BEE2E2E2E2E2E2E2E2E2E2E2E2E2E2E2E2E2E2E2E2E2E2E2E2E2E2E2E2E2E2E2E2E2E2E2E2E2E2E2E2E2E2E2E2E2E2E2E2E2E2E2E2E2E2E2E2E2E2E2E2E2E2E2E2E2E2E2E2E2E2E2E2E2E2E2E2E2E2E2E2E2E2E2E2E2E2E2E2E2E2E2E2E2E2E2E2E2
310
E2E2E2E2E2E2E2E2E2E2E2E2E2E2E2E2E2E2E2E2E2E2E2E2E2E2E2E2E2E2E2E2E2E2E2E2E2E2E2E2E2E2BEE2DCE2E2E2E2E2E2E2E2E2E2E2E2E2E2E2E2E2E2E2E2E2E2E2E2E2E2E2E2E2E2E2E2E2E2E2E2E2E2E2E2E2E2E2E2E2E2E2E2E2E2E2E2E2E2E2E2E2E2E2E2E2E2E2E2E2E2E2E2E2E2E2E2E2E2E2E2E2E2E2E2E2E2
310
E2E2E2E2E2E2E2E2E2E2E2E2E2E2E2E2E2E2E2E2E2E2E2E2E2E2E2E2E2DCE2BEE2E2E2E2E2E2E2E2E2E2E2E2E2E2E2E2E2E2E2E2E2E2E2E2E2E2E2E2E2E2E2E2E2E2E2E2E2E2E2E2E2E2E2E2E2E2E2E2E2E2E2E2E2E2E2E2E2E2E2E2E2E2E2E2E2E2E2E2E2E2E2E2E2E2E2E2E2E2E2E2E2E2E2E2E2E2E2E2E2E2E2E2E2E2E2
310
E2E2E2E2E2E2E2E2E2E2E2E2E2E2E2E2E2E2E2E2E2E2E2E2E2E2E2E2E2E2E2E2E2E2E2E2E2E2E2E2E2E2E2E2BEE2DCDCDCDCDCDCDCDCDCDCDCDCDCDCDCDCDCDCDCDCDCDCDCDCDCDCDCDCDCDCDCDCDCDCDCDCDCDCDCDCDCDCDCDCDCDCDCDCDCDCDCDCDCDCDCDCDCDCDCDCDCDCDCDCDCDCDCDCDCDCDCDCDCDCDCDCDCDCDCDCDC
310
DCDCDCDCDCDCDCDCDCDCDCDCDCDCDCDCDCDCDCDCDCDCDCDCDCDCDCDCDCDCDCDCE2BEE2E2E2E2E2E2E2E2E2E2E2E2E2E2E2E2E2E2E2E2E2E2E2E2E2E2E2E2E2E2E2E2E2E2E2E2E2E2E2E2E2E2E2E2E2E2E2E2E2E2E2E2E2E2E2E2E2E2E2E2E2E2E2E2E2E2E2E2E2E2E2E2E2E2E2E2E2E2E2E2E2E2E2E2E2E2E2E2E2E2E2E2E2
310
E2E2E2E2E2E2E2E2E2E2E2E2E2E2E2E2E2E2E2E2E2E2E2E2E2E2E2E2E2E2E2E2E2E2E2E2E2E2E2E2E2E2E2E2E2E2BEE2E2E2E2E2E2E2E2E2E2E2E2E2E2E2E2E2E2E2E2E2E2E2E2E2E2E2E2E2E2E2E2E2E2E2E2E2E2E2E2E2E2E2E2E2E2E2E2E2E2E2E2E2E2E2E2E2E2E2E2E2E2E2E2E2E2E2E2E2E2E2E2E2E2E2E2E2E2E2E2
310
E2E2E2E2E2E2E2E2E2E2E2E2E2E2E2E2E2E2E2E2E2E2E2E2E2E2E2E2E2E2E2E2E2E2E2BEE2E2E2E2E2E2E2E2E2E2E2E2E2E2E2E2E2E2E2E2E2E2E2E2E2E2E2E2E2E2E2E2E2E2E2E2E2E2E2E2E2E2E2E2E2E2E2E2E2E2E2E2E2E2E2E2E2E2E2E2E2E2E2E2E2E2E2E2E2E2E2E2E2E2E2E2E2E2E2E2E2E2E2E2E2E2E2E2E2E2E2
310
E2E2E2E2E2E2E2E2E2E2E2E2E2E2E2E2E2E2E2E2E2E2E2E2E2E2E2E2E2E2E2E2E2E2E2E2E2E2E2E2E2E2E2E2E2E2E2E2BEBEBEBEBEBEBEBEBEBEBEBEBEBEBEBEBEBEBEBEBEBEBEBEBEBEBEBEBEBEBEBEBEBEBEBEBEBEBEBEBEBEBEBEBEBEBEBEBEBEBEBEBEBEBEBEBEBEBEBEBEBEBEBEBEBEBEBEBEBEBEBEBEBEBEBEBEBEBE
310
BEBEBEBEBEBEBEBEBEBEBEBEBEBEBEBEBEBEBEBEBEBEBEBEBEBEBEBEBEBEBEBEBEBEBEBEBEBEE2E2E2E2E2E2E2E2E2E2E2E2E2E2E2E2E2E2E2E2E2E2E2E2E2E2E2E2E2E2E2E2E2E2E2E2E2E2E2E2E2E2E2E2E2E2E2E2E2E2E2E2E2E2E2E2E2E2E2E2E2E2E2E2E2E2E2E2E2E2E2E2E2E2E2E2E2E2E2E2E2E2E2E2E2E2E2E2E2
310
E2E2E2E2E2E2E2E2E2E2E2E2E2E2E2E2E2E2E2E2E2E2E2E2E2E2E2E2E2E2E2E2E2E2E2E2E2E2E2E2E2E2E2E2E2E2E2E2E2E2E2E2E2E2E2E2E2E2E2E2E2E2E2E2E2E2E2E2E2E2E2E2E2E2E2E2E2E2E2E2E2E2E2E2E2E2E2E2E2E2E2E2E2E2E2E2E2E2E2E2E2E2E2E2E2E2E2E2E2E2E2E2E2E2E2E2E2E2E2E2E2E2E2E2E2E2E2
310
E2E2E2E2E2E2E2E2E2E2E2E2E2E2E2E2E2E2E2E2E2E2E2E2E2E2E2E2E2E2E2E2E2E2E2E2E2E2E2E2E2E2E2E2E2E2E2E2E2E2E2E2E2E2E2E2E2E2E2E2E2E2E2E2E2E2E2E2E2E2E2E2E2E2E2E2E2E2E2E2E2E2E2E2E2E2E2E2E2E2E2E2E2E2E2E2E2E2E2E2E2E2E2E2E2E2E2E2E2E2E2E2E2E2E2E2E2E2E2E2E2E2E2E2E2E2E2
310
E2E2E2E2E2E2E2E2E2E2E2E2E2E2E2E2E2E2E2E2E2E2E2E2E2E2E2E2E2E2E2E2E2E2E2E2E2E2E2E2E2E2E2E2E2E2E2E2E2E2E2E2E2E2E2E2E2E2E2E2E2E2E2E2E2E2E2E2E2E2E2E2E2E2E2E2E2E2E2E2E2E2E2E2E2E2E2E2E2E2E2E2E2E2E2E2E2E2E2E2E2E2E2E2E2E2E2E2E2E2E2E2E2E2E2E2E2E2E2E2E2E2E2E2E2E2E2
310
E2E2E2E2E2E2E2E2E2E2E2E2E2E2E2E2E2E2E2E2E2E2E2E2E2E2E2E2E2E2E2E2E2E2E2E2E2E2E2E2E2E2E2E2E2E2E2E2E2E2E2E2E2E2E2E2E2E2E2E2E2E2E2E2E2E2E2E2E2E2E2E2E2E2E2E2E2E2E2E2E2E2E2E2E2E2E2E2E2E2E2E2E2E2E2E2E2E2E2E2E2E2E2E2E2E2E2E2E2E2E2E2E2E2E2E2E2E2E2E2E2E2E2E2E2E2E2
310
E2E2E2E2E2E2E2E2E2E2E2E2E2E2E2E2E2E2E2E2E2E2E2E2E2E2E2E2E2E2E2E2E2E2E2E2E2E2E2E2E2E2E2E2E2E2E2E2E2E2E2E2E2E2E2E2E2E2E2E2E2E2E2E2E2E2E2E2E2E2E2E2E2E2E2E2E2E2E2E2E2E2E2E2E2E2E2E2E2E2E2E2E2E2E2E2E2E2E2E2E2E2E2E2E2E2E2E2E2E2E2E2E2E2E2E2E2E2E2E2E2E2E2E2E2E2E2
310
E2E2E2E2E2E2E2E2E2E2E2E2E2E2E2E2E2E2E2E2E2E2E2E2E2E2E2E2E2E2E2E2E2E2E2E2E2E2E2E2E2E2E2E2E2E2E2E2E2E2E2E2E2E2E2E2E2E2E2E2E2E2E2E2E2E2E2E2E2E2E2E2E2E2E2E2E2E2E2E2E2E2E2E2E2E2E2E2E2E2E2E2E2E2E2E2E2E2E2E2E2E2E2E2E2E2E2E2E2E2E2E2E2E2E2E2E2E2E2E2E2E2E2E2E2E2E2
310
E2E2E2E2E2E2E2E2E2E2E2E2E2E2E2E2E2E2E2E2E2E2E2E2E2E2E2E2E2E2E2E2E2E2E2E2E2E2E2E2E2E2E2E2E2E2E2E2E2E2E2E2E2E2E2E2E2E2E2E2E2E2E2E2E2E2E2E2E2E2E2E2E2E2E2E2E2E2E2E2E2E2E2E2E2E2E2E2E2E2E2E2E2E2E2E2E2E2E2E2E2E2E2E2E2E2E2E2E2E2E2E2E2E2E2E2E2E2E2E2E2E2E2E2E2E2E2
310
E2E2E2E2E2E2E2E2E2E2E2E2E2E2E2E2E2E2E2E2E2E2E2E2E2E2E2E2E2E2E2E2E2E2E2E2E2E2E2E2E2E2E2E2E2E2E2E2E2E2E2E2E2E2E2E2E2E2E2E2E2E2E2E2E2E2E2E2E2E2E2E2E2E2E2E2E2E2E2E2E2E2E2E2E2E2E2E2E2E2E2E2E2E2E2E2E2E2E2E2E2E2E2E2E2E2E2E2E2E2E2E2E2E2E2E2E2E2E2E2E2E2E2E2E2E2E2
310
E2E2E2E2E2E2E2E2E2E2E2E2E2E2E2E2E2E2E2E2E2E2E2E2E2E2E2E2E2E2E2E2E2E2E2E2E2E2E2E2E2E2E2E2E2E2E2E2E2E2E2E2E2E2E2E2E2E2E2E2E2E2E2E2E2E2E2E2E2E2E2E2E2E2E2E2E2E2E2E2E2E2E2E2E2E2E2E2E2E2E2E2E2E2E2E2E2E2E2E2E2E2E2E2E2E2E2E2E2E2E2E2E2E2E2E2E2E2E2E2E2E2E2E2E2E2E2
310
E2E2E2E2E2E2E2E2E2E2E2E2E2E2E2E2E2E2E2E2E2E2E2E2E2E2E2E2E2E2E2E2E2E2E2E2E2E2E2E2E2E2E2E2E2E2E2E2E2E2E2E2E2E2E2E2E2E2E2E2E2E2E2E2E2E2E2E2E2E2E2E2E2E2E2E2E2E2E2E2E2E2E2E2E2E2E2E2E2E2E2E2E2E2E2E2E2E2E2E2E2E2E2E2E2E2E2E2E2E2E2E2E2E2E2E2E2E2E2E2E2E2E2E2E2E2E2
310
E2E2E2E2E2E2E2E2E2E2E2E2E2E2E2E2E2E2E2E2E2E2E2E2E2E2E2E2E2E2E2E2E2E2E2E2E2E2E2E2E2E2E2E2E2E2E2E2E2E2E2E2E2E2E2E2E2E2E2E2E2E2E2E2E2E2E2E2E2E2E2E2E2E2E2E2E2E2E2E2E2E2E2E2E2E2E2E2E2E2E2E2E2E2E2E2E2E2E2E2E2E2E2E2E2E2E2E2E2E2E2E2E2E2E2E2E2E2E2E2E2E2E2E2E2E2E2
310
E2E2E2E2E2E2E2E2E2E2E2E2E2E2E2E2E2E2E2E2E2E2E2E2E2E2E2E2E2E2E2E2E2E2E2E2E2E2E2E2E2E2E2E2E2E2E2E2E2E2E2E2E2E2E2E2E2E2E2E2E2E2E2E2E2E2E2E2E2E2E2E2E2E2E2E2E2E2E2E2E2E2E2E2E2E2E2E2E2E2E2E2E2E2E2E2E2E2E2E2E2E2E2E2E2E2E2E2E2E2E2E2E2E2E2E2E2E2E2E2E2E2E2E2E2E2E2
310
E2E2E2E2E2E2E2E2E2E2E2E2E2E2E2E2E2E2E2E2E2E2E2E2E2E2E2E2E2E2E2E2E2E2E2E2E2E2E2E2E2E2E2E2E2E2E2E2E2E2E2E2E2E2E2E2E2E2E2E2E2E2E2E2E2E2E2E2E2E2E2E2E2E2E2E2E2E2E2E2E2E2E2E2E2E2E2E2E2E2E2E2E2E2E2E2E2E2E2E2E2E2E2E2E2E2E2E2E2E2E2E2E2E2E2E2E2E2E2E2E2E2E2E2E2E2E2
310
E2E2E2E2E2E2E2E2E2E2E2E2E2E2E2E2E2E2E2E2E2E2E2E2E2E2E2E2E2E2E2E2E2E2E2E2E2E2E2E2E2E2E2E2E2E2E2E2E2E2E2E2E2E2E2E2E2E2E2E2E2E2E2E2E2E2E2E2E2E2E2E2E2E2E2E2E2E2E2E2E2E2E2E2E2E2E2E2E2E2E2E2E2E2E2E2E2E2E2E2E2E2E2E2E2E2E2E2E2E2E2E2E2E2E2E2E2E2E2E2E2E2E2E2E2E2E2
310
E2E2E2E2E2E2E2E2E2E2E2E2E2E2E2E2E2E2E2E2E2E2E2E2E2E2E2E2E2E2E2E2E2E2E2E2E2E2E2E2E2E2E2E2E2E2E2E2E2E2E2E2E2E2E2E2E2E2E2E2E2E2E2E2E2E2E2E2E2E2E2E2E2E2E2E2E2E2E2E2E2E2E2E2E2E2E2E2E2E2E2E2E2E2E2E2E2E2E2E2E2E2E2E2E2E2E2E2E2E2E2E2E2E2E2E2E2E2E2E2E2E2E2E2E2E2E2
310
E2E2E2E2E2E2E2E2E2E2E2E2E2E2E2E2E2E2E2E2E2E2E2E2E2E2E2E2E2E2E2E2E2E2E2E2E2E2E2E2E2E2E2E2E2E2E2E2E2E2E2E2E2E2E2E2E2E2E2E2E2E2E2E2E2E2E2E2E2E2E2E2E2E2E2E2E2E2E2E2E2E2E2E2E2E2E2E2E2E2E2E2E2E2E2E2E2E2E2E2E2E2E2E2E2E2E2E2E2E2E2E2E2E2E2E2E2E2E2E2E2E2E2E2E2E2E2
310
E2E2E2E2E2E2E2E2E2E2E2E2E2E2E2E2E2E2E2E2E2E2E2E2E2E2E2E2E2E2E2E2E2E2E2E2E2E2E2E2E2E2E2E2E2E2E2E2E2E2E2E2E2E2E2E2E2E2E2E2E2E2E2E2E2E2E2E2E2E2E2E2E2E2E2E2E2E2E2E2E2E2E2E2E2E2E2E2E2E2E2E2E2E2E2E2E2E2E2E2E2E2E2E2E2E2E2E2E2E2E2E2E2E2E2E2E2E2E2E2E2E2E2E2E2E2E2
310
E2E2E2E2E2E2E2E2E2E2E2E2E2E2E2E2E2E2E2E2E2E2E2E2E2E2E2E2E2E2E2E2E2E2E2E2E2E2E2E2E2E2E2E2E2E2E2E2E2E2E2E2E2E2E2E2E2E2E2E2E2E2E2E2E2E2E2E2E2E2E2E2E2E2E2E2E2E2E2E2E2E2E2E2E2E2E2E2E2E2E2E2E2E2E2E2E2E2E2E2E2E2E2E2E2E2E2E2E2E2E2E2E2E2E2E2E2E2E2E2E2E2E2E2E2E2E2
310
E2E2E2E2E2E2E2E2E2E2E2E2E2E2E2E2E2E2E2E2E2E2E2E2E2E2E2E2E2E2E2E2E2E2E2E2E2E2E2E2E2E2E2E2E2E2E2E2E2E2E2E2E2E2E2E2E2E2E2E2E2E2E2E2E2E2E2E2E2E2E2E2E2E2E2E2E2E2E2E2E2E2E2E2E2E2E2E2E2E2E2E2E2E2E2E2E2E2E2E2E2E2E2E2E2E2E2E2E2E2E2E2E2E2E2E2E2E2E2E2E2E2E2E2E2E2E2
310
E2E2E2E2E2E2E2E2E2E2E2E2E2E2E2E2E2E2E2E2E2E2E2E2E2E2E2E2E2E2E2E2E2E2E2E2E2E2E2E2E2E2E2E2E2E2E2E2E2E2E2E2E2E2E2E2E2E2E2E2E2E2E2E2E2E2E2E2E2E2E2E2E2E2E2E2E2E2E2E2E2E2E2E2E2E2E2E2E2E2E2E2E2E2E2E2E2E2E2E2E2E2E2E2E2E2E2E2E2E2E2E2E2E2E2E2E2E2E2E2E2E2E2E2E2E2E2
310
E2E2E2E2E2E2E2E2E2E2E2E2E2E2E2E2E2E2E2E2E2E2E2E2E2E2E2E2E2E2E2E2E2E2E2E2E2E2E2E2E2E2E2E2E2E2E2E2E2E2E2E2E2E2E2E2E2E2E2E2E2E2E2E2E2E2E2E2E2E2E2E2E2E2E2E2E2E2E2E2E2E2E2E2E2E2E2E2E2E2E2E2E2E2E2E2E2E2E2E2E2E2E2E2E2E2E2E2E2E2E2E2E2E2E2E2E2E2E2E2E2E2E2E2E2E2E2
310
E2E2E2E2E2E2E2E2E2E2E2E2E2E2E2E2E2E2E2E2E2E2E2E2E2E2E2E2E2E2E2E2E2E2E2E2E2E2E2E2E2E2E2E2E2E2E2E2E2E2E2E2E2E2E2E2E2E2E2E2E2E2E2E2E2E2E2E2E2E2E2E2E2E2E2E2E2E2E2E2E2E2E2E2E2E2E2E2E2E2E2E2E2E2E2E2E2E2E2E2E2E2E2E2E2E2E2E2E2E2E2E2E2E2E2E2E2E2E2E2E2E2E2E2E2E2E2
310
E2E2E2E2E2E2E2E2E2E2E2E2E2E2E2E2E2E2E2E2E2E2E2E2E2E2E2E2E2E2E2E2E2E2E2E2E2E2E2E2E2E2E2E2E2E2E2E2E2E2E2E2E2E2E2E2E2E2E2E2E2E2E2E2E2E2E2E2E2E2E2E2E2E2E2E2E2E2E2E2E2E2E2E2E2E2E2E2E2E2E2E2E2E2E2E2E2E2E2E2E2E2E2E2E2E2E2E2E2E2E2E2E2E2E2E2E2E2E2E2E2E2E2E2E2E2E2
310
E2E2E2E2E2E2E2E2E2E2E2E2E2E2E2E2E2E2E2E2E2E2E2E2E2E2E2E2E2E2E2E2E2E2E2E2E2E2E2E2E2E2E2E2E2E2E2E2E2E2E2E2E2E2E2E2E2E2E2E2E2E2E2E2E2E2E2E2E2E2E2E2E2E2E2E2E2E2E2E2E2E2E2E2E2E2E2E2E2E2E2E2E2E2E2E2E2E2E2E2E2E2E2E2E2E2E2E2E2E2E2E2E2E2E2E2E2E2E2E2E2E2E2E2E2E2E2
310
E2E2E2E2E2E2E2E2E2E2E2E2E2E2E2E2E2E2E2E2E2E2E2E2E2E2E2E2E2E2E2E2E2E2E2E2E2E2E2E2E2E2E2E2E2E2E2E2E2E2E2E2E2E2E2E2E2E2E2E2E2E2E2E2E2E2E2E2E2E2E2E2E2E2E2E2E2E2E2E2E2E2E2E2E2E2E2E2E2E2E2E2E2E2E2E2E2E2E2E2E2E2E2E2E2E2E2E2E2E2E2E2E2E2E2E2E2E2E2E2E2E2E2E2E2E2E2
310
E2E2E2E2E2E2E2E2E2E2E2E2E2E2E2E2E2E2E2E2E2E2E2E2E2E2E2E2E2E2E2E2E2E2E2E2E2E2E2E2E2E2E2E2E2E2E2E2E2E2E2E2E2E2E2E2E2E2E2E2E2E2E2E2E2E2E2E2E2E2E2E2E2E2E2E2E2E2E2E2E2E2E2E2E2E2E2E2E2E2E2E2E2E2E2E2E2E2E2E2E2E2E2E2E2E2E2E2E2E2E2E2E2E2E2E2E2E2E2E2E2E2E2E2E2E2E2
310
E2E2E2E2E2E2E2E2E2E2E2E2E2E2E2E2E2E2E2E2E2E2E2E2E2E2E2E2E2E2E2E2E2E2E2E2E2E2E2E2E2E2E2E2E2E2E2E2E2E2E2E2E2E2E2E2E2E2E2E2E2E2E2E2E2E2E2E2E2E2E2E2E2E2E2E2E2E2E2E2E2E2E2E2E2E2E2E2E2E2E2E2E2E2E2E2E2E2E2E2E2E2E2E2E2E2E2E2E2E2E2E2E2E2E2E2E2E2E2E2E2E2E2E2E2E2E2
310
E2E2E2E2E2E2E2E2E2E2E2E2E2E2E2E2E2E2E2E2E2E2E2E2E2E2E2E2E2E2E2E2E2E2E2E2E2E2E2E2E2E2E2E2E2E2E2E2E2E2E2E2E2E2E2E2E2E2E2E2E2E2E2E2E2E2E2E2E2E2E2E2E2E2E2E2E2E2E2E2E2E2E2E2E2E2E2E2E2E2E2E2E2E2E2E2E2E2E2E2E2E2E2E2E2E2E2E2E2E2E2E2E2E2E2E2E2E2E2E2E2E2E2E2E2E2E2
310
E2E2E2E2E2E2E2E2E2E2E2E2E2E2E2E2E2E2E2E2E2E2E2E2E2E2E2E2E2E2E2E2E2E2E2E2E2E2E2E2E2E2E2E2E2E2E2E2E2E2E2E2E2E2E2E2E2E2E2E2E2E2E2E2E2E2E2E2E2E2E2E2E2E2E2E2E2E2E2E2E2E2E2E2E2E2E2E2E2E2E2E2E2E2E2E2E2E2E2E2E2E2E2E2E2E2E2E2E2E2E2E2E2E2E2E2E2E2E2E2E2E2E2E2E2E2E2
310
E2E2E2E2E2E2E2E2E2E2E2E2E2E2E2E2E2E2E2E2E2E2E2E2E2E2E2E2E2E2E2E2E2E2E2E2E2E2E2E2E2E2E2E2E2E2E2E2E2E2E2E2E2E2E2E2E2E2E2E2E2E2E2E2E2E2E2E2E2E2E2E2E2E2E2E2E2E2E2E2E2E2E2E2E2E2E2E2E2E2E2E2E2E2E2E2E2E2E2E2E2E2E2E2E2E2E2E2E2E2E2E2E2E2E2E2E2E2E2E2E2E2E2E2E2E2E2
310
E2E2E2E2E2E2E2E2E2E2E2E2E2E2E2E2E2E2E2E2E2E2E2E2E2E2E2E2E2E2E2E2E2E2E2E2E2E2E2E2E2E2E2E2E2E2E2E2E2E2E2E2E2E2E2E2E2E2E2E2E2E2E2E2E2E2E2E2E2E2E2E2E2E2E2E2E2E2E2E2E2E2E2E2E2E2E2E2E2E2E2E2E2E2E2E2E2E2E2E2E2E2E2E2E2E2E2E2E2E2E2E2E2E2E2E2E2E2E2E2E2E2E2E2E2E2E2
310
E2E2E2E2E2E2E2E2E2E2E2E2E2E2E2E2E2E2E2E2E2E2E2E2E2E2E2E2E2E2E2E2E2E2E2E2E2E2E2E2E2E2E2E2E2E2E2E2E2E2E2E2E2E2E2E2E2E2E2E2E2E2E2E2E2E2E2E2E2E2E2E2E2E2E2E2E2E2E2E2E2E2E2E2E2E2E2E2E2E2E2E2E2E2E2E2E2E2E2E2E2E2E2E2E2E2E2E2E2E2E2E2E2E2E2E2E2E2E2E2E2E2E2E2E2E2E2
310
E2E2E2E2E2E2E2E2E2E2E2E2E2E2E2E2E2E2E2E2E2E2E2E2E2E2E2E2E2E2E2E2E2E2E2E2E2E2E2E2E2E2E2E2E2E2E2E2E2E2E2E2E2E2E2E2E2E2E2E2E2E2E2E2E2E2E2E2E2E2E2E2E2E2E2E2E2E2E2E2E2E2E2E2E2E2E2E2E2E2E2E2E2E2E2E2E2E2E2E2E2E2E2E2E2E2E2E2E2E2E2E2E2E2E2E2E2E2E2E2E2E2E2E2E2E2E2
310
E2E2E2E2E2E2E2E2E2E2E2E2E2E2E2E2E2E2E2E2E2E2E2E2E2E2E2E2E2E2E2E2E2E2E2E2E2E2E2E2E2E2E2E2E2E2E2E2E2E2E2E2E2E2E2E2E2E2E2E2E2E2E2E2E2E2E2E2E2E2E2E2E2E2E2E2E2E2E2E2E2E2E2E2E2E2E2E2E2E2E2E2E2E2E2E2E2E2E2E2E2E2E2E2E2E2E2E2E2E2E2E2E2E2E2E2E2E2E2E2E2E2E2E2E2E2E2
310
E2E2E2E2E2E2E2E2E2E2E2E2E2E2E2E2E2E2E2E2E2E2E2E2E2E2E2E2E2E2E2E2E2E2E2E2E2E2E2E2E2E2E2E2E2E2E2E2E2E2E2E2E2E2E2E2E2E2E2E2E2E2E2E2E2E2E2E2E2E2E2E2E2E2E2E2E2E2E2E2E2E2E2E2E2E2E2E2E2E2E2E2E2E2E2E2E2E2E2E2E2E2E2E2E2E2E2E2E2E2E2E2E2E2E2E2E2E2E2E2E2E2E2E2E2E2E2
310
E2E2E2E2E2E2E2E2E2E2E2E2E2E2E2E2E2E2E2E2E2E2E2E2E2E2E2E2E2E2E2E2E2E2E2E2E2E2E2E2E2E2E2E2E2E2E2E2E2E2E2E2E2E2E2E2E2E2E2E2E2E2E2E2E2E2E2E2E2E2E2E2E2E2E2E2E2E2E2E2E2E2E2E2E2E2E2E2E2E2E2E2E2E2E2E2E2E2E2E2E2E2E2E2E2E2E2E2E2E2E2E2E2E2E2E2E2E2E2E2E2E2E2E2E2E2E2
310
E2E2E2E2E2E2E2E2E2E2E2E2E2E2E2E2E2E2E2E2E2E2E2E2E2E2E2E2E2E2E2E2E2E2E2E2E2E2E2E2E2E2E2E2E2E2E2E2E2E2E2E2E2E2E2E2E2E2E2E2E2E2E2E2E2E2E2E2E2E2E2E2E2E2E2E2E2E2E2E2E2E2E2E2E2E2E2E2E2E2E2E2E2E2E2E2E2E2E2E2E2E2E2E2E2E2E2E2E2E2E2E2E2E2E2E2E2E2E2E2E2E2E2E2E2E2E2
310
E2E2E2E2E2E2E2E2E2E2E2E2E2E2E2E2E2E2E2E2E2E2E2E2E2E2E2E2E2E2E2E2E2E2E2E2E2E2E2E2E2E2E2E2E2E2E2E2E2E2E2E2E2E2E2E2E2E2E2E2E2E2E2E2E2E2E2E2E2E2E2E2E2E2E2E2E2E2E2E2E2E2E2E2E2E2E2E2E2E2E2E2E2E2E2E2E2E2E2E2E2E2E2E2E2E2E2E2E2E2E2E2E2E2E2E2E2E2E2E2E2E2E2E2E2E2E2
310
E2E2E2E2E2E2E2E2E2E2E2E2E2E2E2E2E2E2E2E2E2E2E2E2E2E2E2E2E2E2E2E2E2E2E2E2E2E2E2E2E2E2E2E2E2E2E2E2E2E2E2E2E2E2E2E2E2E2E2E2E2E2E2E2E2E2E2E2E2E2E2E2E2E2E2E2E2E2E2E2E2E2E2E2E2E2E2E2E2E2E2E2E2E2E2E2E2E2E2E2E2E2E2E2E2E2E2E2E2E2E2E2E2E2E2E2E2E2E2E2E2E2E2E2E2E2E2
310
E2E2E2E2E2E2E2E2E2E2E2E2E2E2E2E2E2E2E2E2E2E2E2E2E2E2E2E2E2E2E2E2E2E2E2E2E2E2E2E2E2E2E2E2E2E2E2E2E2E2E2E2E2E2E2E2E2E2E2E2E2E2E2E2E2E2E2E2E2E2E2E2E2E2E2E2E2E2E2E2E2E2E2E2E2E2E2E2E2E2E2E2E2E2E2E2E2E2E2E2E2E2E2E2E2E2E2E2E2E2E2E2E2E2E2E2E2E2E2E2E2E2E2E2E2E2E2
310
E2E2E2E2E2E2E2E2E2E2E2E2E2E2E2E2E2E2E2E2E2E2E2E2E2E2E2E2E2E2E2E2E2E2E2E2E2E2E2E2E2E2E2E2E2E2E2E2E2E2E2E2E2E2E2E2E2E2E2E2E2E2E2E2E2E2E2E2E2E2E2E2E2E2E2E2E2E2E2E2E2E2E2E2E2E2E2E2E2E2E2E2E2E2E2E2E2E2E2E2E2E2E2E2E2E2E2E2E2E2E2E2E2E2E2E2E2E2E2E2E2E2E2E2E2E2E2
310
E2E2E2E2E2E2E2E2E2E2E2E2E2E2E2E2E2E2E2E2E2E2E2E2E2E2E2E2E2E2E2E2E2E2E2E2E2E2E2E2E2E2E2E2E2E2E2E2E2E2E2E2E2E2E2E2E2E2E2E2E2E2E2E2E2E2E2E2E2E2E2E2E2E2E2E2E2E2E2E2E2E2E2E2E2E2E2E2E2E2E2E2E2E2E2E2E2E2E2E2E2E2E2E2E2E2E2E2E2E2E2E2E2E2E2E2E2E2E2E2E2E2E2E2E2E2E2
310
E2E2E2E2E2E2E2E2E2E2E2E2E2E2E2E2E2E2E2E2E2E2E2E2E2E2E2E2E2E2E2E2E2E2E2E2E2E2E2E2E2E2E2E2E2E2E2E2E2E2E2E2E2E2E2E2E2E2E2E2E2E2E2E2E2E2E2E2E2E2E2E2E2E2E2E2E2E2E2E2E2E2E2E2E2E2E2E2E2E2E2E2E2E2E2E2E2E2E2E2E2E2E2E2E2E2E2E2E2E2E2E2E2E2E2E2E2E2E2E2E2E2E2E2E2E2E2
310
E2E2E2E2E2E2E2E2E2E2E2E2E2E2E2E2E2E2E2E2E2E2E2E2E2E2E2E2E2E2E2E2E2E2E2E2E2E2E2E2E2E2E2E2E2E2E2E2E2E2E2E2E2E2E2E2E2E2E2E2E2E2E2E2E2E2E2E2E2E2E2E2E2E2E2E2E2E2E2E2E2E2E2E2E2E2E2E2E2E2E2E2E2E2E2E2E2E2E2E2E2E2E2E2E2E2E2E2E2E2E2E2E2E2E2E2E2E2E2E2E2E2E2E2E2E2E2
310
E2E2E2E2E2E2E2E2E2E2E2E2E2E2E2E2E2E2E2E2E2E2E2E2E2E2E2E2E2E2E2E2E2E2E2E2E2E2E2E2E2E2E2E2E2E2E2E2E2E2E2E2E2E2E2E2E2E2E2E2E2E2E2E2E2E2E2E2E2E2E2E2E2E2E2E2E2E2E2E2E2E2E2E2E2E2E2E2E2E2E2E2E2E2E2E2E2E2E2E2E2E2E2E2E2E2E2E2E2E2E2E2E2E2E2E2E2E2E2E2E2E2E2E2E2E2E2
310
E2E2E2E2E2E2E2E2E2E2E2E2E2E2E2E2E2E2E2E2E2E2E2E2E2E2E2E2E2E2E2E2E2E2E2E2E2E2E2E2E2E2E2E2E2E2E2E2E2E2E2E2E2E2E2E2E2E2E2E2E2E2E2E2E2E2E2E2E2E2E2E2E2E2E2E2E2E2E2E2E2E2E2E2E2E2E2E2E2E2E2E2E2E2E2E2E2E2E2E2E2E2E2E2E2E2E2E2E2E2E2E2E2E2E2E2E2E2E2E2E2E2E2E2E2E2E2
310
E2E2E2E2E2E2E2E2E2E2E2E2E2E2E2E2E2E2E2E2E2E2E2E2E2E2E2E2E2E2E2E2E2E2E2E2E2E2E2E2E2E2E2E2E2E2E2E2E2E2E2E2E2E2E2E2E2E2E2E2E2E2E2E2E2E2E2E2E2E2E2E2E2E2E2E2E2E2E2E2E2E2E2E2E2E2E2E2E2E2E2E2E2E2E2E2E2E2E2E2E2E2E2E2E2E2E2E2E2E2E2E2E2E2E2E2E2E2E2E2E2E2E2E2E2E2E2
310
E2E2E2E2E2E2E2E2E2E2E2E2E2E2E2E2E2E2E2E2E2E2E2E2E2E2E2E2E2E2E2E2E2E2E2E2E2E2E2E2E2E2E2E2E2E2E2E2E2E2E2E2E2E2E2E2E2E2E2E2E2E2E2E2E2E2E2E2E2E2E2E2E2E2E2E2E2E2E2E2E2E2E2E2E2E2E2E2E2E2E2E2E2E2E2E2E2E2E2E2E2E2E2E2E2E2E2E2E2E2E2E2E2E2E2E2E2E2E2E2E2E2E2E2E2E2E2
310
E2E2E2E2E2E2E2E2E2E2E2E2E2E2E2E2E2E2E2E2E2E2E2E2E2E2E2E2E2E2E2E2E2E2E2E2E2E2E2E2E2E2E2E2E2E2E2E2E2E2E2E2E2E2E2E2E2E2E2E2E2E2E2E2E2E2E2E2E2E2E2E2E2E2E2E2E2E2E2E2E2E2E2E2E2E2E2E2E2E2E2E2E2E2E2E2E2E2E2E2E2E2E2E2E2E2E2E2E2E2E2E2E2E2E2E2E2E2E2E2E2E2E2E2E2E2E2
310
E2E2E2E2E2E2E2E2E2E2E2E2E2E2E2E2E2E2E2E2E2E2E2E2E2E2E2E2E2E2E2E2E2E2E2E2E2E2E2E2E2E2E2E2E2E2E2E2E2E2E2E2E2E2E2E2E2E2E2E2E2E2E2E2E2E2E2E2E2E2E2E2E2E2E2E2E2E2E2E2E2E2E2E2E2E2E2E2E2E2E2E2E2E2E2E2E2E2E2E2E2E2E2E2E2E2E2E2E2E2E2E2E2E2E2E2E2E2E2E2E2E2E2E2E2E2E2
310
E2E2E2E2E2E2E2E2E2E2E2E2E2E2E2E2E2E2E2E2E2E2E2E2E2E2E2E2E2E2E2E2E2E2E2E2E2E2E2E2E2E2E2E2E2E2E2E2E2E2E2E2E2E2E2E2E2E2E2E2E2E2E2E2E2E2E2E2E2E2E2E2E2E2E2E2E2E2E2E2E2E2E2E2E2E2E2E2E2E2E2E2E2E2E2E2E2E2E2E2E2E2E2E2E2E2E2E2E2E2E2E2E2E2E2E2E2E2E2E2E2E2E2E2E2E2E2
310
E2E2E2E2E2E2E2E2E2E2E2E2E2E2E2E2E2E2E2E2E2E2E2E2E2E2E2E2E2E2E2E2E2E2E2E2E2E2E2E2E2E2E2E2E2E2E2E2E2E2E2E2E2E2E2E2E2E2E2E2E2E2E2E2E2E2E2E2E2E2E2E2E2E2E2E2E2E2E2E2E2E2E2E2E2E2E2E2E2E2E2E2E2E2E2E2E2E2E2E2E2E2E2E2E2E2E2E2E2E2E2E2E2E2E2E2E2E2E2E2E2E2E2E2E2E2E2
310
E2E2E2E2E2E2E2E2E2E2E2E2E2E2E2E2E2E2E2E2E2E2E2E2E2E2E2E2E2E2E2E2E2E2E2E2E2E2E2E2E2E2E2E2E2E2E2E2E2E2E2E2E2E2E2E2E2E2E2E2E2E2E2E2E2E2E2E2E2E2E2E2E2E2E2E2E2E2E2E2E2E2E2E2E2E2E2E2E2E2E2E2E2E2E2E2E2E2E2E2E2E2E2E2E2E2E2E2E2E2E2E2E2E2E2E2E2E2E2E2E2E2E2E2E2E2E2
310
E2E2E2E2E2E2E2E2E2E2E2E2E2E2E2E2E2E2E2E2E2E2E2E2E2E2E2E2E2E2E2E2E2E2E2E2E2E2E2E2E2E2E2E2E2E2E2E2E2E2E2E2E2E2E2E2E2E2E2E2E2E2E2E2E2E2E2E2E2E2E2E2E2E2E2E2E2E2E2E2E2E2E2E2E2E2E2E2E2E2E2E2E2E2E2E2E2E2E2E2E2E2E2E2E2E2E2E2E2E2E2E2E2E2E2E2E2E2E2E2E2E2E2E2E2E2E2
310
E2E2E2E2E2E2E2E2E2E2E2E2E2E2E2E2E2E2E2E2E2E2E2E2E2E2E2E2E2E2E2E2E2E2E2E2E2E2E2E2E2E2E2E2E2E2E2E2E2E2E2E2E2E2E2E2E2E2E2E2E2E2E2E2E2E2E2E2E2E2E2E2E2E2E2E2E2E2E2E2E2E2E2E2E2E2E2E2E2E2E2E2E2E2E2E2E2E2E2E2E2E2E2E2E2E2E2E2E2E2E2E2E2E2E2E2E2E2E2E2E2E2E2E2E2E2E2
310
E2E2E2E2E2E2E2E2E2E2E2E2E2E2E2E2E2E2E2E2E2E2E2E2E2E2E2E2E2E2E2E2E2E2E2E2E2E2E2E2E2E2E2E2E2E2E2E2E2E2E2E2E2E2E2E2E2E2E2E2E2E2E2E2E2E2E2E2E2E2E2E2E2E2E2E2E2E2E2E2E2E2E2E2E2E2E2E2E2E2E2E2E2E2E2E2E2E2E2E2E2E2E2E2E2E2E2E2E2E2E2E2E2E2E2E2E2E2E2E2E2E2E2E2E2E2E2
310
E2E2E2E2E2E2E2E2E2E2E2E2E2E2E2E2E2E2E2E2E2E2E2E2E2E2E2E2E2E2E2E2E2E2E2E2E2E2E2E2E2E2E2E2E2E2E2E2E2E2E2E2E2E2E2E2E2E2E2E2E2E2E2E2E2E2E2E2E2E2E2E2E2E2E2E2E2E2E2E2E2E2E2E2E2E2E2E2E2E2E2E2E2E2E2E2E2E2E2E2E2E2E2E2E2E2E2E2E2E2E2E2E2E2E2E2E2E2E2E2E2E2E2E2E2E2E2
310
E2E2E2E2E2E2E2E2E2E2E2E2E2E2E2E2E2E2E2E2E2E2E2E2E2E2E2E2E2E2E2E2E2E2E2E2E2E2E2E2E2E2E2E2E2E2E2E2E2E2E2E2E2E2E2E2E2E2E2E2E2E2E2E2E2E2E2E2E2E2E2E2E2E2E2E2E2E2E2E2E2E2E2E2E2E2E2E2E2E2E2E2E2E2E2E2E2E2E2E2E2E2E2E2E2E2E2E2E2E2E2E2E2E2E2E2E2E2E2E2E2E2E2E2E2E2E2
310
E2E2E2E2E2E2E2E2E2E2E2E2E2E2E2E2E2E2E2E2E2E2E2E2E2E2E2E2E2E2E2E2E2E2E2E2E2E2E2E2E2E2E2E2E2E2E2E2E2E2E2E2E2E2E2E2E2E2E2E2E2E2E2E2E2E2E2E2E2E2E2E2E2E2E2E2E2E2E2E2E2E2E2E2E2E2E2E2E2E2E2E2E2E2E2E2E2E2E2E2E2E2E2E2E2E2E2E2E2E2E2E2E2E2E2E2E2E2E2E2E2E2E2E2E2E2E2
310
E2E2E2E2E2E2E2E2E2E2E2E2E2E2E2E2E2E2E2E2E2E2E2E2E2E2E2E2E2E2E2E2E2E2E2E2E2E2E2E2E2E2E2E2E2E2E2E2E2E2E2E2E2E2E2E2E2E2E2E2E2E2E2E2E2E2E2E2E2E2E2E2E2E2E2E2E2E2E2E2E2E2E2E2E2E2E2E2E2E2E2E2E2E2E2E2E2E2E2E2E2E2E2E2E2E2E2E2E2E2E2E2E2E2E2E2E2E2E2E2E2E2E2E2E2E2E2
310
E2E2E2E2E2E2E2E2E2E2E2E2E2E2E2E2E2E2E2E2E2E2E2E2E2E2E2E2E2E2E2E2E2E2E2E2E2E2E2E2E2E2E2E2E2E2E2E2E2E2E2E2E2E2E2E2E2E2E2E2E2E2E2E2E2E2E2E2E2E2E2E2E2E2E2E2E2E2E2E2E2E2E2E2E2E2E2E2E2E2E2E2E2E2E2E2E2E2E2E2E2E2E2E2E2E2E2E2E2E2E2E2E2E2E2E2E2E2E2E2E2E2E2E2E2E2E2
310
E2E2E2E2E2E2E2E2E2E2E2E2E2E2E2E2E2E2E2E2E2E2E2E2E2E2E2E2E2E2E2E2E2E2E2E2E2E2E2E2E2E2E2E2E2E2E2E2E2E2E2E2E2E2E2E2E2E2E2E2E2E2E2E2E2E2E2E2E2E2E2E2E2E2E2E2E2E2E2E2E2E2E2E2E2E2E2E2E2E2E2E2E2E2E2E2E2E2E2E2E2E2E2E2E2E2E2E2E2E2E2E2E2E2E2E2E2E2E2E2E2E2E2E2E2E2E2
310
E2E2E2E2E2E2E2E2E2E2E2E2E2E2E2E2E2E2E2E2E2E2E2E2E2E2E2E2E2E2E2E2E2E2E2E2E2E2E2E2E2E2E2E2E2E2E2E2E2E2E2E2E2E2E2E2E2E2E2E2E2E2E2E2E2E2E2E2E2E2E2E2E2E2E2E2E2E2E2E2E2E2E2E2E2E2E2E2E2E2E2E2E2E2E2E2E2E2E2E2E2E2E2E2E2E2E2E2E2E2E2E2E2E2E2E2E2E2E2E2E2E2E2E2E2E2E2
310
E2E2E2E2E2E2E2E2E2E2E2E2E2E2E2E2E2E2E2E2E2E2E2E2E2E2E2E2E2E2E2E2E2E2E2E2E2E2E2E2E2E2E2E2E2E2E2E2E2E2E2E2E2E2E2E2E2E2E2E2E2E2E2E2E2E2E2E2E2E2E2E2E2E2E2E2E2E2E2E2E2E2E2E2E2E2E2E2E2E2E2E2E2E2E2E2E2E2E2E2E2E2E2E2E2E2E2E2E2E2E2E2E2E2E2E2E2E2E2E2E2E2E2E2E2E2E2
310
E2E2E2E2E2E2E2E2E2E2E2E2E2E2E2E2E2E2E2E2E2E2E2E2E2E2E2E2E2E2E2E2E2E2E2E2E2E2E2E2E2E2E2E2E2E2E2E2E2E2E2E2E2E2E2E2E2E2
  0
XRECORD
  5
46
102
{ACAD_REACTORS
330
45
102
}
330
45
100
AcDbXrecord
280
     1
270
     1
271
     1
  0
XRECORD
  5
47
102
{ACAD_REACTORS
330
45
102
}
330
45
100
AcDbXrecord
280
     1
270
     1
271
     1
  0
XRECORD
  5
48
102
{ACAD_REACTORS
330
45
102
}
330
45
100
AcDbXrecord
280
     1
270
     1
271
     1
  0
XRECORD
  5
49
102
{ACAD_REACTORS
330
45
102
}
330
45
100
AcDbXrecord
280
     1
270
     1
271
     1
  0
XRECORD
  5
4A
102
{ACAD_REACTORS
330
45
102
}
330
45
100
AcDbXrecord
280
     1
270
     1
271
     1
  0
XRECORD
  5
4B
102
{ACAD_REACTORS
330
45
102
}
330
45
100
AcDbXrecord
280
     1
270
     1
271
     1
  0
XRECORD
  5
3E
102
{ACAD_REACTORS
330
3D
102
}
330
3D
100
AcDbXrecord
280
     1
270
     1
271
     1
  0
XRECORD
  5
3F
102
{ACAD_REACTORS
330
3D
102
}
330
3D
100
AcDbXrecord
280
     1
270
     1
271
     1
  0
XRECORD
  5
40
102
{ACAD_REACTORS
330
3D
102
}
330
3D
100
AcDbXrecord
280
     1
270
     1
271
     1
  0
XRECORD
  5
41
102
{ACAD_REACTORS
330
3D
102
}
330
3D
100
AcDbXrecord
280
     1
270
     1
271
     1
  0
XRECORD
  5
42
102
{ACAD_REACTORS
330
3D
102
}
330
3D
100
AcDbXrecord
280
     1
270
     1
271
     1
  0
XRECORD
  5
43
102
{ACAD_REACTORS
330
3D
102
}
330
3D
100
AcDbXrecord
280
     1
270
     1
271
     1
  0
XRECORD
  5
F
102
{ACAD_REACTORS
330
E
102
}
330
E
100
AcDbXrecord
280
     1
270
     1
271
     1
  0
XRECORD
  5
10
102
{ACAD_REACTORS
330
E
102
}
330
E
100
AcDbXrecord
280
     1
270
     1
271
     1
  0
XRECORD
  5
11
102
{ACAD_REACTORS
330
E
102
}
330
E
100
AcDbXrecord
280
     1
270
     1
271
     1
  0
XRECORD
  5
12
102
{ACAD_REACTORS
330
E
102
}
330
E
100
AcDbXrecord
280
     1
270
     1
271
     1
  0
XRECORD
  5
13
102
{ACAD_REACTORS
330
E
102
}
330
E
100
AcDbXrecord
280
     1
270
     1
271
     1
  0
XRECORD
  5
14
102
{ACAD_REACTORS
330
E
102
}
330
E
100
AcDbXrecord
280
     1
270
     1
271
     1
  0
CELLSTYLEMAP
  5
497
102
{ACAD_REACTORS
330
55
102
}
330
55
100
AcDbCellStyleMap
 90
        3
300
CELLSTYLE
  1
TABLEFORMAT_BEGIN
 90
        5
170
     1
 91
        0
 92
    32768
 62
   257
 93
        1
300
CONTENTFORMAT
  1
CONTENTFORMAT_BEGIN
 90
        0
 91
        0
 92
      512
 93
        0
300

 40
0.0
140
1.0
 94
        5
 62
     0
340
26
144
6.0
309
CONTENTFORMAT_END
171
     1
301
MARGIN
  1
CELLMARGIN_BEGIN
 40
1.5
 40
1.5
 40
1.5
 40
1.5
 40
4.5
 40
4.5
309
CELLMARGIN_END
 94
        6
 95
        1
302
GRIDFORMAT
  1
GRIDFORMAT_BEGIN
 90
        0
 91
        1
 62
     0
 92
       -2
340
0
 93
        0
 40
1.125
309
GRIDFORMAT_END
 95
        2
302
GRIDFORMAT
  1
GRIDFORMAT_BEGIN
 90
        0
 91
        1
 62
     0
 92
       -2
340
0
 93
        0
 40
1.125
309
GRIDFORMAT_END
 95
        4
302
GRIDFORMAT
  1
GRIDFORMAT_BEGIN
 90
        0
 91
        1
 62
     0
 92
       -2
340
0
 93
        0
 40
1.125
309
GRIDFORMAT_END
 95
        8
302
GRIDFORMAT
  1
GRIDFORMAT_BEGIN
 90
        0
 91
        1
 62
     0
 92
       -2
340
0
 93
        0
 40
1.125
309
GRIDFORMAT_END
 95
       16
302
GRIDFORMAT
  1
GRIDFORMAT_BEGIN
 90
        0
 91
        1
 62
     0
 92
       -2
340
0
 93
        0
 40
1.125
309
GRIDFORMAT_END
 95
       32
302
GRIDFORMAT
  1
GRIDFORMAT_BEGIN
 90
        0
 91
        1
 62
     0
 92
       -2
340
0
 93
        0
 40
1.125
309
GRIDFORMAT_END
309
TABLEFORMAT_END
  1
CELLSTYLE_BEGIN
 90
        1
 91
        1
300
_TITLE
309
CELLSTYLE_END
300
CELLSTYLE
  1
TABLEFORMAT_BEGIN
 90
        5
170
     1
 91
        0
 92
        0
 62
   257
 93
        1
300
CONTENTFORMAT
  1
CONTENTFORMAT_BEGIN
 90
        0
 91
        0
 92
      512
 93
        0
300

 40
0.0
140
1.0
 94
        5
 62
     0
340
26
144
4.5
309
CONTENTFORMAT_END
171
     1
301
MARGIN
  1
CELLMARGIN_BEGIN
 40
1.5
 40
1.5
 40
1.5
 40
1.5
 40
4.5
 40
4.5
309
CELLMARGIN_END
 94
        6
 95
        1
302
GRIDFORMAT
  1
GRIDFORMAT_BEGIN
 90
        0
 91
        1
 62
     0
 92
       -2
340
0
 93
        0
 40
1.125
309
GRIDFORMAT_END
 95
        2
302
GRIDFORMAT
  1
GRIDFORMAT_BEGIN
 90
        0
 91
        1
 62
     0
 92
       -2
340
0
 93
        0
 40
1.125
309
GRIDFORMAT_END
 95
        4
302
GRIDFORMAT
  1
GRIDFORMAT_BEGIN
 90
        0
 91
        1
 62
     0
 92
       -2
340
0
 93
        0
 40
1.125
309
GRIDFORMAT_END
 95
        8
302
GRIDFORMAT
  1
GRIDFORMAT_BEGIN
 90
        0
 91
        1
 62
     0
 92
       -2
340
0
 93
        0
 40
1.125
309
GRIDFORMAT_END
 95
       16
302
GRIDFORMAT
  1
GRIDFORMAT_BEGIN
 90
        0
 91
        1
 62
     0
 92
       -2
340
0
 93
        0
 40
1.125
309
GRIDFORMAT_END
 95
       32
302
GRIDFORMAT
  1
GRIDFORMAT_BEGIN
 90
        0
 91
        1
 62
     0
 92
       -2
340
0
 93
        0
 40
1.125
309
GRIDFORMAT_END
309
TABLEFORMAT_END
  1
CELLSTYLE_BEGIN
 90
        2
 91
        1
300
_HEADER
309
CELLSTYLE_END
300
CELLSTYLE
  1
TABLEFORMAT_BEGIN
 90
        5
170
     1
 91
        0
 92
        0
 62
   257
 93
        1
300
CONTENTFORMAT
  1
CONTENTFORMAT_BEGIN
 90
        0
 91
        0
 92
      512
 93
        0
300

 40
0.0
140
1.0
 94
        2
 62
     0
340
26
144
4.5
309
CONTENTFORMAT_END
171
     1
301
MARGIN
  1
CELLMARGIN_BEGIN
 40
1.5
 40
1.5
 40
1.5
 40
1.5
 40
4.5
 40
4.5
309
CELLMARGIN_END
 94
        6
 95
        1
302
GRIDFORMAT
  1
GRIDFORMAT_BEGIN
 90
        0
 91
        1
 62
     0
 92
       -2
340
0
 93
        0
 40
1.125
309
GRIDFORMAT_END
 95
        2
302
GRIDFORMAT
  1
GRIDFORMAT_BEGIN
 90
        0
 91
        1
 62
     0
 92
       -2
340
0
 93
        0
 40
1.125
309
GRIDFORMAT_END
 95
        4
302
GRIDFORMAT
  1
GRIDFORMAT_BEGIN
 90
        0
 91
        1
 62
     0
 92
       -2
340
0
 93
        0
 40
1.125
309
GRIDFORMAT_END
 95
        8
302
GRIDFORMAT
  1
GRIDFORMAT_BEGIN
 90
        0
 91
        1
 62
     0
 92
       -2
340
0
 93
        0
 40
1.125
309
GRIDFORMAT_END
 95
       16
302
GRIDFORMAT
  1
GRIDFORMAT_BEGIN
 90
        0
 91
        1
 62
     0
 92
       -2
340
0
 93
        0
 40
1.125
309
GRIDFORMAT_END
 95
       32
302
GRIDFORMAT
  1
GRIDFORMAT_BEGIN
 90
        0
 91
        1
 62
     0
 92
       -2
340
0
 93
        0
 40
1.125
309
GRIDFORMAT_END
309
TABLEFORMAT_END
  1
CELLSTYLE_BEGIN
 90
        3
 91
        2
300
_DATA
309
CELLSTYLE_END
  0
ENDSEC
  0
EOF
