  0
SECTION
  2
HEADER
  9
$ACADVER
  1
AC1024
  9
$ACADMAINTVER
 70
     6
  9
$DWGCODEPAGE
  3
ANSI_1252
  9
$INSBASE
 10
0.0
 20
0.0
 30
0.0
  9
$EXTMIN
 10
0.0
 20
0.0
 30
0.0
  9
$EXTMAX
 10
839.9999999999163
 20
593.9999999999408
 30
0.0
  9
$LIMMIN
 10
0.0
 20
0.0
  9
$LIMMAX
 10
839.9999999999163
 20
593.9999999999408
  9
$ORTHOMODE
 70
     0
  9
$REGENMODE
 70
     1
  9
$FILLMODE
 70
     1
  9
$QTEXTMODE
 70
     0
  9
$MIRRTEXT
 70
     1
  9
$LTSCALE
 40
15.0
  9
$ATTMODE
 70
     1
  9
$TEXTSIZE
 40
5.0
  9
$TRACEWID
 40
1.0
  9
$TEXTSTYLE
  7
Standard
  9
$CLAYER
  8
0
  9
$CELTYPE
  6
ByLayer
  9
$CECOLOR
 62
   256
  9
$CELTSCALE
 40
1.0
  9
$DISPSILH
 70
     0
  9
$DIMSCALE
 40
2.0
  9
$DIMASZ
 40
2.5
  9
$DIMEXO
 40
1.0
  9
$DIMDLI
 40
10.0
  9
$DIMRND
 40
0.0
  9
$DIMDLE
 40
0.0
  9
$DIMEXE
 40
1.0
  9
$DIMTP
 40
0.0
  9
$DIMTM
 40
0.0
  9
$DIMTXT
 40
2.5
  9
$DIMCEN
 40
0.0
  9
$DIMTSZ
 40
0.0
  9
$DIMTOL
 70
     0
  9
$DIMLIM
 70
     0
  9
$DIMTIH
 70
     0
  9
$DIMTOH
 70
     0
  9
$DIMSE1
 70
     0
  9
$DIMSE2
 70
     0
  9
$DIMTAD
 70
     1
  9
$DIMZIN
 70
     8
  9
$DIMBLK
  1

  9
$DIMASO
 70
     1
  9
$DIMSHO
 70
     1
  9
$DIMPOST
  1

  9
$DIMAPOST
  1

  9
$DIMALT
 70
     0
  9
$DIMALTD
 70
     3
  9
$DIMALTF
 40
0.03937007874016
  9
$DIMLFAC
 40
1.0
  9
$DIMTOFL
 70
     1
  9
$DIMTVP
 40
0.0
  9
$DIMTIX
 70
     0
  9
$DIMSOXD
 70
     0
  9
$DIMSAH
 70
     0
  9
$DIMBLK1
  1

  9
$DIMBLK2
  1

  9
$DIMSTYLE
  2
Wagner
  9
$DIMCLRD
 70
     4
  9
$DIMCLRE
 70
     4
  9
$DIMCLRT
 70
     1
  9
$DIMTFAC
 40
1.0
  9
$DIMGAP
 40
1.0
  9
$DIMJUST
 70
     0
  9
$DIMSD1
 70
     0
  9
$DIMSD2
 70
     0
  9
$DIMTOLJ
 70
     0
  9
$DIMTZIN
 70
     8
  9
$DIMALTZ
 70
     0
  9
$DIMALTTZ
 70
     0
  9
$DIMUPT
 70
     0
  9
$DIMDEC
 70
     8
  9
$DIMTDEC
 70
     8
  9
$DIMALTU
 70
     2
  9
$DIMALTTD
 70
     3
  9
$DIMTXSTY
  7
Standard
  9
$DIMAUNIT
 70
     0
  9
$DIMADEC
 70
     2
  9
$DIMALTRND
 40
0.0
  9
$DIMAZIN
 70
     2
  9
$DIMDSEP
 70
    46
  9
$DIMATFIT
 70
     3
  9
$DIMFRAC
 70
     0
  9
$DIMLDRBLK
  1

  9
$DIMLUNIT
 70
     2
  9
$DIMLWD
 70
    -2
  9
$DIMLWE
 70
    -2
  9
$DIMTMOVE
 70
     0
  9
$DIMFXL
 40
1.0
  9
$DIMFXLON
 70
     0
  9
$DIMJOGANG
 40
0.7853981633974483
  9
$DIMTFILL
 70
     0
  9
$DIMTFILLCLR
 70
     0
  9
$DIMARCSYM
 70
     0
  9
$DIMLTYPE
  6

  9
$DIMLTEX1
  6

  9
$DIMLTEX2
  6

  9
$DIMTXTDIRECTION
 70
     0
  9
$LUNITS
 70
     2
  9
$LUPREC
 70
     2
  9
$SKETCHINC
 40
1.0
  9
$FILLETRAD
 40
0.0
  9
$AUNITS
 70
     0
  9
$AUPREC
 70
     0
  9
$MENU
  1
.
  9
$ELEVATION
 40
0.0
  9
$PELEVATION
 40
0.0
  9
$THICKNESS
 40
0.0
  9
$LIMCHECK
 70
     0
  9
$CHAMFERA
 40
0.0
  9
$CHAMFERB
 40
0.0
  9
$CHAMFERC
 40
20.0
  9
$CHAMFERD
 40
0.0
  9
$SKPOLY
 70
     0
  9
$TDCREATE
 40
2453810.680203079
  9
$TDUCREATE
 40
2453810.596869745
  9
$TDUPDATE
 40
2456126.483524144
  9
$TDUUPDATE
 40
2456126.400190810
  9
$TDINDWG
 40
0.2035127894
  9
$TDUSRTIMER
 40
0.2035127894
  9
$USRTIMER
 70
     1
  9
$ANGBASE
 50
0.0
  9
$ANGDIR
 70
     0
  9
$PDMODE
 70
     0
  9
$PDSIZE
 40
-1.0
  9
$PLINEWID
 40
0.0
  9
$SPLFRAME
 70
     0
  9
$SPLINETYPE
 70
     6
  9
$SPLINESEGS
 70
     8
  9
$HANDSEED
  5
2EB
  9
$SURFTAB1
 70
     6
  9
$SURFTAB2
 70
     6
  9
$SURFTYPE
 70
     6
  9
$SURFU
 70
     6
  9
$SURFV
 70
     6
  9
$UCSBASE
  2

  9
$UCSNAME
  2

  9
$UCSORG
 10
0.0
 20
0.0
 30
0.0
  9
$UCSXDIR
 10
1.0
 20
0.0
 30
0.0
  9
$UCSYDIR
 10
0.0
 20
1.0
 30
0.0
  9
$UCSORTHOREF
  2

  9
$UCSORTHOVIEW
 70
     0
  9
$UCSORGTOP
 10
0.0
 20
0.0
 30
0.0
  9
$UCSORGBOTTOM
 10
0.0
 20
0.0
 30
0.0
  9
$UCSORGLEFT
 10
0.0
 20
0.0
 30
0.0
  9
$UCSORGRIGHT
 10
0.0
 20
0.0
 30
0.0
  9
$UCSORGFRONT
 10
0.0
 20
0.0
 30
0.0
  9
$UCSORGBACK
 10
0.0
 20
0.0
 30
0.0
  9
$PUCSBASE
  2

  9
$PUCSNAME
  2

  9
$PUCSORG
 10
0.0
 20
0.0
 30
0.0
  9
$PUCSXDIR
 10
1.0
 20
0.0
 30
0.0
  9
$PUCSYDIR
 10
0.0
 20
1.0
 30
0.0
  9
$PUCSORTHOREF
  2

  9
$PUCSORTHOVIEW
 70
     0
  9
$PUCSORGTOP
 10
0.0
 20
0.0
 30
0.0
  9
$PUCSORGBOTTOM
 10
0.0
 20
0.0
 30
0.0
  9
$PUCSORGLEFT
 10
0.0
 20
0.0
 30
0.0
  9
$PUCSORGRIGHT
 10
0.0
 20
0.0
 30
0.0
  9
$PUCSORGFRONT
 10
0.0
 20
0.0
 30
0.0
  9
$PUCSORGBACK
 10
0.0
 20
0.0
 30
0.0
  9
$USERI1
 70
     0
  9
$USERI2
 70
     0
  9
$USERI3
 70
     0
  9
$USERI4
 70
     0
  9
$USERI5
 70
     0
  9
$USERR1
 40
0.0
  9
$USERR2
 40
0.0
  9
$USERR3
 40
0.0
  9
$USERR4
 40
0.0
  9
$USERR5
 40
0.0
  9
$WORLDVIEW
 70
     1
  9
$SHADEDGE
 70
     3
  9
$SHADEDIF
 70
    70
  9
$TILEMODE
 70
     1
  9
$MAXACTVP
 70
    64
  9
$PINSBASE
 10
0.0
 20
0.0
 30
0.0
  9
$PLIMCHECK
 70
     0
  9
$PEXTMIN
 10
1.000000000000000E+20
 20
1.000000000000000E+20
 30
1.000000000000000E+20
  9
$PEXTMAX
 10
-1.000000000000000E+20
 20
-1.000000000000000E+20
 30
-1.000000000000000E+20
  9
$PLIMMIN
 10
0.0
 20
0.0
  9
$PLIMMAX
 10
420.0
 20
297.0
  9
$UNITMODE
 70
     0
  9
$VISRETAIN
 70
     1
  9
$PLINEGEN
 70
     0
  9
$PSLTSCALE
 70
     1
  9
$TREEDEPTH
 70
  3020
  9
$CMLSTYLE
  2
Standard
  9
$CMLJUST
 70
     0
  9
$CMLSCALE
 40
20.0
  9
$PROXYGRAPHICS
 70
     1
  9
$MEASUREMENT
 70
     1
  9
$CELWEIGHT
370
    -1
  9
$ENDCAPS
280
     0
  9
$JOINSTYLE
280
     0
  9
$LWDISPLAY
290
     0
  9
$INSUNITS
 70
     4
  9
$HYPERLINKBASE
  1

  9
$STYLESHEET
  1

  9
$XEDIT
290
     1
  9
$CEPSNTYPE
380
     0
  9
$PSTYLEMODE
290
     1
  9
$FINGERPRINTGUID
  2
{80BB989B-F46D-40E4-88CB-FAAB26F08EAA}
  9
$VERSIONGUID
  2
{1CFC1DA0-C598-47CE-A35B-74729CB62AC0}
  9
$EXTNAMES
290
     1
  9
$PSVPSCALE
 40
0.0
  9
$OLESTARTUP
290
     0
  9
$SORTENTS
280
   127
  9
$INDEXCTL
280
     0
  9
$HIDETEXT
280
     1
  9
$XCLIPFRAME
280
     0
  9
$HALOGAP
280
     0
  9
$OBSCOLOR
 70
   257
  9
$OBSLTYPE
280
     0
  9
$INTERSECTIONDISPLAY
280
     0
  9
$INTERSECTIONCOLOR
 70
   257
  9
$DIMASSOC
280
     1
  9
$PROJECTNAME
  1

  9
$CAMERADISPLAY
290
     0
  9
$LENSLENGTH
 40
50.0
  9
$CAMERAHEIGHT
 40
0.0
  9
$STEPSPERSEC
 40
2.0
  9
$STEPSIZE
 40
6.0
  9
$3DDWFPREC
 40
2.0
  9
$PSOLWIDTH
 40
0.25
  9
$PSOLHEIGHT
 40
4.0
  9
$LOFTANG1
 40
1.570796326794896
  9
$LOFTANG2
 40
1.570796326794896
  9
$LOFTMAG1
 40
0.0
  9
$LOFTMAG2
 40
0.0
  9
$LOFTPARAM
 70
     7
  9
$LOFTNORMALS
280
     1
  9
$LATITUDE
 40
37.795
  9
$LONGITUDE
 40
-122.394
  9
$NORTHDIRECTION
 40
0.0
  9
$TIMEZONE
 70
 -8000
  9
$LIGHTGLYPHDISPLAY
280
     1
  9
$TILEMODELIGHTSYNCH
280
     1
  9
$CMATERIAL
347
39
  9
$SOLIDHIST
280
     1
  9
$SHOWHIST
280
     1
  9
$DWFFRAME
280
     2
  9
$DGNFRAME
280
     0
  9
$REALWORLDSCALE
290
     1
  9
$INTERFERECOLOR
 62
     1
  9
$INTERFEREOBJVS
345
50
  9
$INTERFEREVPVS
346
51
  9
$CSHADOW
280
     0
  9
$SHADOWPLANELOCATION
 40
0.0
  0
ENDSEC
  0
SECTION
  2
CLASSES
  0
CLASS
  1
ACDBDICTIONARYWDFLT
  2
AcDbDictionaryWithDefault
  3
ObjectDBX Classes
 90
        0
 91
        1
280
     0
281
     0
  0
CLASS
  1
MATERIAL
  2
AcDbMaterial
  3
ObjectDBX Classes
 90
     1153
 91
        3
280
     0
281
     0
  0
CLASS
  1
VISUALSTYLE
  2
AcDbVisualStyle
  3
ObjectDBX Classes
 90
     4095
 91
        3
280
     0
281
     0
  0
CLASS
  1
TABLESTYLE
  2
AcDbTableStyle
  3
ObjectDBX Classes
 90
     4095
 91
        1
280
     0
281
     0
  0
CLASS
  1
SCALE
  2
AcDbScale
  3
ObjectDBX Classes
 90
     1153
 91
       33
280
     0
281
     0
  0
CLASS
  1
MLEADERSTYLE
  2
AcDbMLeaderStyle
  3
ACDB_MLEADERSTYLE_CLASS
 90
     4095
 91
        0
280
     0
281
     0
  0
CLASS
  1
SORTENTSTABLE
  2
AcDbSortentsTable
  3
ObjectDBX Classes
 90
        0
 91
        4
280
     0
281
     0
  0
CLASS
  1
CELLSTYLEMAP
  2
AcDbCellStyleMap
  3
ObjectDBX Classes
 90
     1152
 91
        1
280
     0
281
     0
  0
CLASS
  1
DICTIONARYVAR
  2
AcDbDictionaryVar
  3
ObjectDBX Classes
 90
        0
 91
        7
280
     0
281
     0
  0
CLASS
  1
DIMASSOC
  2
AcDbDimAssoc
  3
"AcDbDimAssoc|Product Desc:     AcDim ARX App For Dimension|Company:          Autodesk, Inc.|WEB Address:      www.autodesk.com"
 90
        0
 91
        0
280
     0
281
     0
  0
ENDSEC
  0
SECTION
  2
TABLES
  0
TABLE
  2
VPORT
  5
29
102
{ACAD_XDICTIONARY
360
2D
102
}
330
0
100
AcDbSymbolTable
 70
     1
  0
VPORT
  5
2A
330
29
100
AcDbSymbolTableRecord
100
AcDbViewportTableRecord
  2
*Active
 70
     0
 10
0.0
 20
0.0
 11
1.0
 21
1.0
 12
338.1825662632171
 22
206.5312724641257
 13
0.0
 23
0.0
 14
10.0
 24
10.0
 15
10.0
 25
10.0
 16
0.0
 26
0.0
 36
1.0
 17
148.5000047564429
 27
105.0
 37
-0.0000000000006694
 40
687.8441699909975
 41
1.937738246505718
 42
50.0
 43
0.0
 44
0.0
 50
0.0
 51
0.0
 71
     0
 72
  2000
 73
     1
 74
     3
 75
     0
 76
     0
 77
     0
 78
     0
281
     0
 65
     1
110
0.0
120
0.0
130
0.0
111
1.0
121
0.0
131
0.0
112
0.0
122
1.0
132
0.0
 79
     0
146
0.0
348
2B
 60
     3
 61
     5
292
     1
282
     1
141
0.0
142
0.0
 63
   250
421
  3355443
  0
ENDTAB
  0
TABLE
  2
LTYPE
  5
24
330
0
100
AcDbSymbolTable
 70
     4
  0
LTYPE
  5
25
330
24
100
AcDbSymbolTableRecord
100
AcDbLinetypeTableRecord
  2
ByBlock
 70
     0
  3

 72
    65
 73
     0
 40
0.0
  0
LTYPE
  5
26
330
24
100
AcDbSymbolTableRecord
100
AcDbLinetypeTableRecord
  2
ByLayer
 70
     0
  3

 72
    65
 73
     0
 40
0.0
  0
LTYPE
  5
15
330
24
100
AcDbSymbolTableRecord
100
AcDbLinetypeTableRecord
  2
Continuous
 70
     0
  3
Solid line
 72
    65
 73
     0
 40
0.0
  0
LTYPE
  5
298
330
24
100
AcDbSymbolTableRecord
100
AcDbLinetypeTableRecord
  2
AUSGEZOGEN
 70
     0
  3
Ausgezogene Linie
 72
    65
 73
     0
 40
0.0
  0
LTYPE
  5
137
330
24
100
AcDbSymbolTableRecord
100
AcDbLinetypeTableRecord
  2
VERDECKT
 70
     0
  3
__ __ __ __ __ __ __ __ __ __ __ __ __ __ __ __
 72
    65
 73
     2
 40
0.375
 49
0.25
 74
     0
 49
-0.125
 74
     0
  0
LTYPE
  5
176
330
24
100
AcDbSymbolTableRecord
100
AcDbLinetypeTableRecord
  2
STRICHPUNKT
 70
     0
  3
__ . __ . __ . __ . __ . __ . __ . __ . __ . __
 72
    65
 73
     4
 40
1.0
 49
0.5
 74
     0
 49
-0.25
 74
     0
 49
0.0
 74
     0
 49
-0.25
 74
     0
  0
ENDTAB
  0
TABLE
  2
LAYER
  5
1E
102
{ACAD_XDICTIONARY
360
1F
102
}
330
0
100
AcDbSymbolTable
 70
    11
  0
LAYER
  5
6
102
{ACAD_XDICTIONARY
360
7
102
}
330
1E
100
AcDbSymbolTableRecord
100
AcDbLayerTableRecord
  2
0
 70
     0
 62
     7
  6
Continuous
370
    -3
390
9
347
C
  0
LAYER
  5
7F
330
1E
100
AcDbSymbolTableRecord
100
AcDbLayerTableRecord
  2
Defpoints
 70
     0
 62
     7
  6
Continuous
290
     0
370
    -3
390
9
347
C
  0
LAYER
  5
281
102
{ACAD_XDICTIONARY
360
282
102
}
330
1E
100
AcDbSymbolTableRecord
100
AcDbLayerTableRecord
  2
01-99
 70
     0
 62
     2
  6
Continuous
370
    -3
390
9
347
C
  0
LAYER
  5
2B7
102
{ACAD_XDICTIONARY
360
2B8
102
}
330
1E
100
AcDbSymbolTableRecord
100
AcDbLayerTableRecord
  2
06-99
 70
     0
 62
     1
  6
AUSGEZOGEN
370
    -3
390
9
347
C
  0
LAYER
  5
295
102
{ACAD_XDICTIONARY
360
296
102
}
330
1E
100
AcDbSymbolTableRecord
100
AcDbLayerTableRecord
  2
02-99
 70
     0
 62
     1
  6
AUSGEZOGEN
370
    -3
390
9
347
C
  0
LAYER
  5
288
102
{ACAD_XDICTIONARY
360
289
102
}
330
1E
100
AcDbSymbolTableRecord
100
AcDbLayerTableRecord
  2
08-99
 70
     0
 62
     7
  6
Continuous
370
    -3
390
9
347
C
  0
LAYER
  5
2BE
102
{ACAD_XDICTIONARY
360
2BF
102
}
330
1E
100
AcDbSymbolTableRecord
100
AcDbLayerTableRecord
  2
10-98
 70
     0
 62
     4
  6
Continuous
370
    -3
390
9
347
C
  0
LAYER
  5
2B1
102
{ACAD_XDICTIONARY
360
2B2
102
}
330
1E
100
AcDbSymbolTableRecord
100
AcDbLayerTableRecord
  2
07-99
 70
     0
 62
     6
  6
AUSGEZOGEN
370
    -3
390
9
347
C
  0
LAYER
  5
135
102
{ACAD_XDICTIONARY
360
136
102
}
330
1E
100
AcDbSymbolTableRecord
100
AcDbLayerTableRecord
  2
03-01
 70
     0
 62
     3
  6
VERDECKT
370
    -3
390
9
347
C
  0
LAYER
  5
174
102
{ACAD_XDICTIONARY
360
175
102
}
330
1E
100
AcDbSymbolTableRecord
100
AcDbLayerTableRecord
  2
05-01
 70
     0
 62
     1
  6
STRICHPUNKT
370
    -3
390
9
347
C
  0
LAYER
  5
74
330
1E
100
AcDbSymbolTableRecord
100
AcDbLayerTableRecord
  2
02-01
 70
     0
 62
     1
  6
Continuous
370
    -3
390
9
347
C
  0
ENDTAB
  0
TABLE
  2
STYLE
  5
21
330
0
100
AcDbSymbolTable
 70
     2
  0
STYLE
  5
22
330
21
100
AcDbSymbolTableRecord
100
AcDbTextStyleTableRecord
  2
Standard
 70
     0
 40
0.0
 41
1.0
 50
0.0
 71
     0
 42
5.0
  3
txt
  4

  0
STYLE
  5
28B
330
21
100
AcDbSymbolTableRecord
100
AcDbTextStyleTableRecord
  2
ROMANS8
 70
     0
 40
0.0
 41
1.0
 50
0.0
 71
     0
 42
2.5
  3
romans.shx
  4

  0
ENDTAB
  0
TABLE
  2
VIEW
  5
27
330
0
100
AcDbSymbolTable
 70
     0
  0
ENDTAB
  0
TABLE
  2
UCS
  5
28
330
0
100
AcDbSymbolTable
 70
     0
  0
ENDTAB
  0
TABLE
  2
APPID
  5
2E
330
0
100
AcDbSymbolTable
 70
     5
  0
APPID
  5
2F
330
2E
100
AcDbSymbolTableRecord
100
AcDbRegAppTableRecord
  2
ACAD
 70
     0
  0
APPID
  5
32
330
2E
100
AcDbSymbolTableRecord
100
AcDbRegAppTableRecord
  2
ACAD_DSTYLE_DIMJOGGED_JOGANGLE_SYMBOL
 70
     0
  0
APPID
  5
33
330
2E
100
AcDbSymbolTableRecord
100
AcDbRegAppTableRecord
  2
ACAD_DSTYLE_DIMJAG
 70
     0
  0
APPID
  5
34
330
2E
100
AcDbSymbolTableRecord
100
AcDbRegAppTableRecord
  2
ACAD_DSTYLE_DIMTALN
 70
     0
  0
APPID
  5
19
330
2E
100
AcDbSymbolTableRecord
100
AcDbRegAppTableRecord
  2
ACAD_PSEXT
 70
     0
  0
ENDTAB
  0
TABLE
  2
DIMSTYLE
  5
30
330
0
100
AcDbSymbolTable
 70
     2
100
AcDbDimStyleTable
 71
     1
340
31
  0
DIMSTYLE
105
31
330
30
100
AcDbSymbolTableRecord
100
AcDbDimStyleTableRecord
  2
Wagner
 70
     0
 41
2.5
 42
1.0
 43
10.0
 44
1.0
 73
     0
 74
     0
 77
     1
 78
     8
 79
     2
140
2.5
141
0.0
143
0.03937007874016
147
1.0
171
     3
172
     1
176
     4
177
     4
178
     1
179
     2
271
     8
272
     8
274
     3
283
     0
284
     8
340
22
1001
ACAD_DSTYLE_DIMJOGGED_JOGANGLE_SYMBOL
1070
   384
1040
0.7853981633974483
1001
ACAD_DSTYLE_DIMJAG
1070
   388
1040
1.5
1001
ACAD_DSTYLE_DIMTALN
1070
   392
1070
     0
  0
DIMSTYLE
105
83
102
{ACAD_REACTORS
330
178
330
187
330
194
330
1A1
330
1B1
330
1BE
330
1CB
330
1E4
330
1F1
330
1FE
330
117
330
10A
330
FD
330
F0
330
E3
330
75
102
}
330
30
100
AcDbSymbolTableRecord
100
AcDbDimStyleTableRecord
  2
Wagner$0
 70
     0
 41
2.5
 42
1.0
 43
10.0
 44
1.0
 73
     0
 74
     0
 77
     1
 78
     8
 79
     2
140
2.5
141
0.0
143
0.03937007874016
147
1.0
171
     3
172
     1
174
     1
176
     4
177
     4
178
     1
179
     2
271
     8
272
     8
274
     3
279
     2
283
     0
284
     8
340
22
1001
ACAD_DSTYLE_DIMJOGGED_JOGANGLE_SYMBOL
1070
   384
1040
0.7853981633974483
1001
ACAD_DSTYLE_DIMJAG
1070
   388
1040
1.5
1001
ACAD_DSTYLE_DIMTALN
1070
   392
1070
     0
  0
ENDTAB
  0
TABLE
  2
BLOCK_RECORD
  5
1
330
0
100
AcDbSymbolTable
 70
    18
  0
BLOCK_RECORD
  5
2
102
{ACAD_XDICTIONARY
360
3
102
}
330
1
100
AcDbSymbolTableRecord
100
AcDbBlockTableRecord
  2
*Model_Space
340
17
 70
     0
280
     1
281
     0
  0
BLOCK_RECORD
  5
1A
330
1
100
AcDbSymbolTableRecord
100
AcDbBlockTableRecord
  2
*Paper_Space
340
1D
 70
     0
280
     1
281
     0
  0
BLOCK_RECORD
  5
27C
102
{ACAD_XDICTIONARY
360
27D
102
}
330
1
100
AcDbSymbolTableRecord
100
AcDbBlockTableRecord
  2
Wagner-A3
340
0
102
{BLKREFS
331
27B
102
}
 70
     4
280
     1
281
     0
  0
BLOCK_RECORD
  5
1F2
330
1
100
AcDbSymbolTableRecord
100
AcDbBlockTableRecord
  2
*D1
340
0
 70
     0
280
     1
281
     0
  0
BLOCK_RECORD
  5
1FF
330
1
100
AcDbSymbolTableRecord
100
AcDbBlockTableRecord
  2
*D2
340
0
 70
     0
280
     1
281
     0
  0
BLOCK_RECORD
  5
1E5
330
1
100
AcDbSymbolTableRecord
100
AcDbBlockTableRecord
  2
*D3
340
0
 70
     0
280
     1
281
     0
  0
BLOCK_RECORD
  5
1CC
330
1
100
AcDbSymbolTableRecord
100
AcDbBlockTableRecord
  2
*D4
340
0
 70
     0
280
     1
281
     0
  0
BLOCK_RECORD
  5
1BF
330
1
100
AcDbSymbolTableRecord
100
AcDbBlockTableRecord
  2
*D5
340
0
 70
     0
280
     1
281
     0
  0
BLOCK_RECORD
  5
1B2
330
1
100
AcDbSymbolTableRecord
100
AcDbBlockTableRecord
  2
*D6
340
0
 70
     0
280
     1
281
     0
  0
BLOCK_RECORD
  5
1A2
330
1
100
AcDbSymbolTableRecord
100
AcDbBlockTableRecord
  2
*D7
340
0
 70
     0
280
     1
281
     0
  0
BLOCK_RECORD
  5
195
330
1
100
AcDbSymbolTableRecord
100
AcDbBlockTableRecord
  2
*D8
340
0
 70
     0
280
     1
281
     0
  0
BLOCK_RECORD
  5
188
330
1
100
AcDbSymbolTableRecord
100
AcDbBlockTableRecord
  2
*D9
340
0
 70
     0
280
     1
281
     0
  0
BLOCK_RECORD
  5
179
330
1
100
AcDbSymbolTableRecord
100
AcDbBlockTableRecord
  2
*D10
340
0
 70
     0
280
     1
281
     0
  0
BLOCK_RECORD
  5
125
330
1
100
AcDbSymbolTableRecord
100
AcDbBlockTableRecord
  2
Auffangschale01-s
340
0
310
2800000020000000200000000100080000000000000400000000000000000000000000000000000000000000000080000080000000808000800000008000800080800000C0C0C000C0DCC000F0CAA6000020400000206000002080000020A0000020C0000020E00000400000004020000040400000406000004080000040A0
310
000040C0000040E00000600000006020000060400000606000006080000060A0000060C0000060E00000800000008020000080400000806000008080000080A0000080C0000080E00000A0000000A0200000A0400000A0600000A0800000A0A00000A0C00000A0E00000C0000000C0200000C0400000C0600000C0800000C0
310
A00000C0C00000C0E00000E0000000E0200000E0400000E0600000E0800000E0A00000E0C00000E0E00040000000400020004000400040006000400080004000A0004000C0004000E00040200000402020004020400040206000402080004020A0004020C0004020E000404000004040200040404000404060004040800040
310
40A0004040C0004040E00040600000406020004060400040606000406080004060A0004060C0004060E00040800000408020004080400040806000408080004080A0004080C0004080E00040A0000040A0200040A0400040A0600040A0800040A0A00040A0C00040A0E00040C0000040C0200040C0400040C0600040C08000
310
40C0A00040C0C00040C0E00040E0000040E0200040E0400040E0600040E0800040E0A00040E0C00040E0E00080000000800020008000400080006000800080008000A0008000C0008000E00080200000802020008020400080206000802080008020A0008020C0008020E00080400000804020008040400080406000804080
310
008040A0008040C0008040E00080600000806020008060400080606000806080008060A0008060C0008060E00080800000808020008080400080806000808080008080A0008080C0008080E00080A0000080A0200080A0400080A0600080A0800080A0A00080A0C00080A0E00080C0000080C0200080C0400080C0600080C0
310
800080C0A00080C0C00080C0E00080E0000080E0200080E0400080E0600080E0800080E0A00080E0C00080E0E000C0000000C0002000C0004000C0006000C0008000C000A000C000C000C000E000C0200000C0202000C0204000C0206000C0208000C020A000C020C000C020E000C0400000C0402000C0404000C0406000C0
310
408000C040A000C040C000C040E000C0600000C0602000C0604000C0606000C0608000C060A000C060C000C060E000C0800000C0802000C0804000C0806000C0808000C080A000C080C000C080E000C0A00000C0A02000C0A04000C0A06000C0A08000C0A0A000C0A0C000C0A0E000C0C00000C0C02000C0C04000C0C06000
310
C0C08000C0C0A000F0FBFF00A4A0A000808080000000FF0000FF000000FFFF00FF000000FF00FF00FFFF0000FFFFFF000000000000000000000000000000000000000000000000000000000000000000000000000000000000000000000000000000FFFF00000000000000000000000000000000000000000000000000FFFF
310
FFFFFFFFFFFFFFFFFFFF00000000000000000000000000000000000000FF0000000000FFFF00000000FF0000000000000000000000000000FFFFFFFFFFFFFFFFFFFFFFFAFAFFFFFFFFFFFF0000000000000000000000FFFF00000000FFFFFFFFFFFFFFFFFFFFFFFFFFFFFFFF00000000000000000000FFFF00000000000000
310
0000000000000000000000000000000000000000000000FFFF000000000000000000000000000000000000000000000000000000000000FFFF000000000000000000000000000000000000000000000000000000000000FFFF000000000000000000000000000000000000000000000000000000000000FFFF000000000000
310
000000000000000000000000000000000000000000000000FFFF000000000000000000000000000000000000000000000000000000000000FFFF000000000000000000000000000000000000000000000000000000000000FFFF000000000000000000000000000000000000000000000000000000000000FFFF0000000000
310
00000000000000000000000000000000000000000000000000FFFF000000000000000000000000000000000000000000000000000000000000FFFF000000000000000000000000000000000000000000000000000000000000FFFF000000000000000000000000000000000000000000000000000000000000FFFF00000000
310
0000000000000000000000000000000000000000000000000000FFFF000000000000000000000000000000000000000000000000000000000000FFFF000000000000000000000000000000000000000000000000000000000000FFFF000000000000000000000000000000000000000000000000000000000000FFFF000000
310
000000000000000000000000000000000000000000000000000000FFFF000000000000000000000000000000000000000000000000000000000000FFFF000000000000000000000000000000000000000000000000000000000000FFFF000000000000000000000000000000000000000000000000000000000000FFFF0000
310
00000000000000000000000000000000000000000000000000000000FFFF000000000000000000000000000000000000000000000000000000000000FFFF000000000000000000000000000000000000000000000000000000000000FAFA000000000000000000000000000000000000000000000000000000000000FF0000
310
0000000000000000000000000000000000000000000000000000000000000000000000000000000000000000000000000000000000000000
102
{BLKREFS
331
124
102
}
 70
     4
280
     1
281
     0
  0
BLOCK_RECORD
  5
118
330
1
100
AcDbSymbolTableRecord
100
AcDbBlockTableRecord
  2
*D12
340
0
 70
     0
280
     1
281
     0
  0
BLOCK_RECORD
  5
10B
330
1
100
AcDbSymbolTableRecord
100
AcDbBlockTableRecord
  2
*D13
340
0
 70
     0
280
     1
281
     0
  0
BLOCK_RECORD
  5
FE
330
1
100
AcDbSymbolTableRecord
100
AcDbBlockTableRecord
  2
*D14
340
0
 70
     0
280
     1
281
     0
  0
BLOCK_RECORD
  5
F1
330
1
100
AcDbSymbolTableRecord
100
AcDbBlockTableRecord
  2
*D15
340
0
 70
     0
280
     1
281
     0
  0
BLOCK_RECORD
  5
E4
330
1
100
AcDbSymbolTableRecord
100
AcDbBlockTableRecord
  2
*D16
340
0
 70
     0
280
     1
281
     0
  0
BLOCK_RECORD
  5
76
330
1
100
AcDbSymbolTableRecord
100
AcDbBlockTableRecord
  2
*D17
340
0
 70
     0
280
     1
281
     0
  0
ENDTAB
  0
ENDSEC
  0
SECTION
  2
BLOCKS
  0
BLOCK
  5
5
330
2
100
AcDbEntity
  8
0
100
AcDbBlockBegin
  2
*Model_Space
 70
     0
 10
0.0
 20
0.0
 30
0.0
  3
*Model_Space
  1

  0
ENDBLK
  5
16
330
2
100
AcDbEntity
  8
0
100
AcDbBlockEnd
  0
BLOCK
  5
1B
330
1A
100
AcDbEntity
 67
     1
  8
0
100
AcDbBlockBegin
  2
*Paper_Space
 70
     0
 10
0.0
 20
0.0
 30
0.0
  3
*Paper_Space
  1

  0
ENDBLK
  5
1C
330
1A
100
AcDbEntity
 67
     1
  8
0
100
AcDbBlockEnd
  0
BLOCK
  5
27F
330
27C
100
AcDbEntity
  8
0
100
AcDbBlockBegin
  2
Wagner-A3
 70
     2
 10
0.0
 20
0.0
 30
0.0
  3
Wagner-A3
  1

  0
LINE
  5
280
330
27C
100
AcDbEntity
  8
01-99
100
AcDbLine
 10
-675.6935110999732
 20
231.999999999977
 30
0.0
 11
-1000.493511099941
 21
231.9999999999769
 31
0.0
  0
LINE
  5
284
330
27C
100
AcDbEntity
  8
01-99
100
AcDbLine
 10
-675.6935110999732
 20
231.999999999977
 30
0.0
 11
-675.6935110999732
 21
5.599999999999534
 31
0.0
  0
LINE
  5
285
330
27C
100
AcDbEntity
  8
01-99
100
AcDbLine
 10
-675.6935110999732
 20
5.599999999999534
 30
0.0
 11
-1000.493511099941
 21
5.599999999999443
 31
0.0
  0
LINE
  5
286
330
27C
100
AcDbEntity
  8
01-99
100
AcDbLine
 10
-1000.493511099941
 20
5.599999999999443
 30
0.0
 11
-1000.493511099941
 21
231.9999999999769
 31
0.0
  0
TEXT
  5
287
330
27C
100
AcDbEntity
  8
08-99
100
AcDbText
 10
-821.6935110999585
 20
11.19999999999889
 30
0.0
 40
1.999999999999801
  1
Benennung/Teil:
 51
15.0
  7
ROMANS8
100
AcDbText
  0
TEXT
  5
28C
330
27C
100
AcDbEntity
  8
08-99
100
AcDbText
 10
-681.6935110999724
 20
11.59999999999884
 30
0.0
 40
1.999999999999801
  1
Index
 41
0.7538461538461555
 51
15.0
  7
ROMANS8
 72
     5
 11
-676.0935110999731
 21
11.59999999999884
 31
0.0
100
AcDbText
  0
TEXT
  5
28D
330
27C
100
AcDbEntity
  8
08-99
100
AcDbText
 10
-688.0935110999719
 20
11.59999999999884
 30
0.0
 40
1.999999999999801
  1
Form
 41
0.7184210526315936
 51
15.0
  7
ROMANS8
 72
     5
 11
-682.8935110999723
 21
11.59999999999884
 31
0.0
100
AcDbText
  0
TEXT
  5
28E
330
27C
100
AcDbEntity
  8
08-99
100
AcDbText
 10
-727.293511099968
 20
11.59999999999884
 30
0.0
 40
1.999999999999801
  1
Ident-Nr.
 51
15.0
  7
ROMANS8
100
AcDbText
  0
TEXT
  5
28F
330
27C
100
AcDbEntity
  8
08-99
100
AcDbText
 10
-746.4935110999661
 20
11.59999999999884
 30
0.0
 40
1.999999999999801
  1
Maßstab
 51
15.0
  7
ROMANS8
100
AcDbText
  0
LINE
  5
290
330
27C
100
AcDbEntity
  8
01-99
100
AcDbLine
 10
-728.4935110999679
 20
14.39999999999866
 30
0.0
 11
-728.4935110999679
 21
5.599999999999534
 31
0.0
  0
LINE
  5
291
330
27C
100
AcDbEntity
  8
01-99
100
AcDbLine
 10
-688.4935110999718
 20
14.39999999999866
 30
0.0
 11
-688.4935110999718
 21
5.599999999999534
 31
0.0
  0
LINE
  5
292
330
27C
100
AcDbEntity
  8
01-99
100
AcDbLine
 10
-682.0935110999726
 20
14.39999999999866
 30
0.0
 11
-682.0935110999726
 21
5.599999999999534
 31
0.0
  0
LINE
  5
293
330
27C
100
AcDbEntity
  8
01-99
100
AcDbLine
 10
-747.6935110999675
 20
14.39999999999861
 30
0.0
 11
-747.6935110999675
 21
5.599999999999625
 31
0.0
  0
LINE
  5
294
330
27C
100
AcDbEntity
  8
02-99
100
AcDbLine
 10
-750.893511099967
 20
26.39999999999738
 30
0.0
 11
-750.8935110999669
 21
42.39999999999581
 31
0.0
  0
TEXT
  5
299
330
27C
100
AcDbEntity
  8
01-99
100
AcDbText
 10
-687.6935110999719
 20
7.399999999999264
 30
0.0
 40
2.799999999999721
  1
A3
  7
ROMANS8
 72
     4
 11
-685.2935110999721
 21
8.799999999999124
 31
0.0
100
AcDbText
  0
LINE
  5
29A
330
27C
100
AcDbEntity
  8
01-99
100
AcDbLine
 10
-822.89351109996
 20
42.39999999999578
 30
0.0
 11
-822.89351109996
 21
5.59999999999948
 31
0.0
  0
LINE
  5
29B
330
27C
100
AcDbEntity
  8
01-99
100
AcDbLine
 10
-675.6935110999732
 20
14.39999999999865
 30
0.0
 11
-822.8935110999584
 21
14.39999999999857
 31
0.0
  0
TEXT
  5
29C
330
27C
100
AcDbEntity
  8
08-99
100
AcDbText
 10
-779.6935110999627
 20
15.19999999999851
 30
0.0
 40
1.999999999999801
  1
Name:
 51
15.0
  7
ROMANS8
100
AcDbText
  0
TEXT
  5
29D
330
27C
100
AcDbEntity
  8
08-99
100
AcDbText
 10
-822.0935110999585
 20
15.19999999999849
 30
0.0
 40
1.999999999999801
  1
gezeichnet Datum:
 41
0.9142857142857117
 51
15.0
  7
ROMANS8
 72
     5
 11
-796.493511099961
 21
15.19999999999849
 31
0.0
100
AcDbText
  0
LINE
  5
29E
330
27C
100
AcDbEntity
  8
01-99
100
AcDbLine
 10
-713.2935110999694
 20
26.39999999999745
 30
0.0
 11
-713.2935110999694
 21
14.39999999999857
 31
0.0
  0
LINE
  5
29F
330
27C
100
AcDbEntity
  8
02-99
100
AcDbLine
 10
-713.2935110999708
 20
18.39999999999824
 30
0.0
 11
-822.8935110999584
 21
18.39999999999817
 31
0.0
  0
LINE
  5
2A0
330
27C
100
AcDbEntity
  8
01-99
100
AcDbLine
 10
-705.2935110999701
 20
14.39999999999866
 30
0.0
 11
-705.2935110999701
 21
5.599999999999534
 31
0.0
  0
TEXT
  5
2A1
330
27C
100
AcDbEntity
  8
08-99
100
AcDbText
 10
-704.8935110999702
 20
11.59999999999884
 30
0.0
 40
1.999999999999801
  1
DWG-Name
 41
0.9202247191011291
 51
15.0
  7
ROMANS8
 72
     5
 11
-689.2935110999717
 21
11.59999999999884
 31
0.0
100
AcDbText
  0
LINE
  5
2A2
330
27C
100
AcDbEntity
  8
01-99
100
AcDbLine
 10
-713.2935110999708
 20
18.39999999999824
 30
0.0
 11
-822.8935110999584
 21
18.39999999999817
 31
0.0
  0
LINE
  5
2A3
330
27C
100
AcDbEntity
  8
02-99
100
AcDbLine
 10
-713.2935110999708
 20
22.39999999999785
 30
0.0
 11
-822.8935110999584
 21
22.39999999999778
 31
0.0
  0
LINE
  5
2A4
330
27C
100
AcDbEntity
  8
01-99
100
AcDbLine
 10
-675.6935110999732
 20
26.39999999999748
 30
0.0
 11
-822.89351109996
 21
26.39999999999738
 31
0.0
  0
LINE
  5
2A5
330
27C
100
AcDbEntity
  8
02-99
100
AcDbLine
 10
-675.6935110999732
 20
34.39999999999668
 30
0.0
 11
-822.89351109996
 21
34.39999999999658
 31
0.0
  0
LINE
  5
2A6
330
27C
100
AcDbEntity
  8
01-99
100
AcDbLine
 10
-675.6935110999732
 20
42.39999999999588
 30
0.0
 11
-822.89351109996
 21
42.39999999999578
 31
0.0
  0
TEXT
  5
2A7
330
27C
100
AcDbEntity
  8
08-99
100
AcDbText
 10
-821.6935110999585
 20
23.19999999999769
 30
0.0
 40
1.999999999999801
  1
Änderung:
 51
15.0
  7
ROMANS8
100
AcDbText
  0
TEXT
  5
2A8
330
27C
100
AcDbEntity
  8
08-99
100
AcDbText
 10
-821.6935110999585
 20
31.1999999999969
 30
0.0
 40
1.999999999999801
  1
Com:
 51
15.0
  7
ROMANS8
100
AcDbText
  0
TEXT
  5
2A9
330
27C
100
AcDbEntity
  8
08-99
100
AcDbText
 10
-821.6935110999585
 20
39.1999999999961
 30
0.0
 40
1.999999999999801
  1
Kunde:
 51
15.0
  7
ROMANS8
100
AcDbText
  0
TEXT
  5
2AA
330
27C
100
AcDbEntity
  8
08-99
100
AcDbText
 10
-749.6935110999657
 20
39.1999999999961
 30
0.0
 40
1.999999999999801
  1
Projekt:
 51
15.0
  7
ROMANS8
100
AcDbText
  0
TEXT
  5
2AB
330
27C
100
AcDbEntity
  8
08-99
100
AcDbText
 10
-749.6935110999657
 20
31.1999999999969
 30
0.0
 40
1.999999999999801
  1
Pos:
 51
15.0
  7
ROMANS8
100
AcDbText
  0
ATTDEF
  5
2AC
330
27C
100
AcDbEntity
  8
01-99
100
AcDbText
 10
-821.6935110999585
 20
27.19999999999731
 30
0.0
 40
2.399999999999761
  1
.
 41
0.9
  7
ROMANS8
100
AcDbAttributeDefinition
280
     0
  3
Kommission
  2
COM
 70
     0
280
     0
  0
ATTDEF
  5
2AD
330
27C
100
AcDbEntity
  8
01-99
100
AcDbText
 10
-749.6935110999657
 20
35.19999999999651
 30
0.0
 40
2.399999999999761
  1
.
 41
0.9
  7
ROMANS8
100
AcDbAttributeDefinition
280
     0
  3
Projekt
  2
PROJ
 70
     0
280
     0
  0
ATTDEF
  5
2AE
330
27C
100
AcDbEntity
  8
01-99
100
AcDbText
 10
-749.6935110999657
 20
27.19999999999731
 30
0.0
 40
2.399999999999761
  1
.
 41
0.9
  7
ROMANS8
100
AcDbAttributeDefinition
280
     0
  3
Positionen
  2
POS
 70
     0
280
     0
  0
ATTDEF
  5
2AF
330
27C
100
AcDbEntity
  8
01-99
100
AcDbText
 10
-728.093511099968
 20
7.199999999999295
 30
0.0
 40
2.799999999999721
  1
.
  7
ROMANS8
100
AcDbAttributeDefinition
280
     0
  3
Ident-Nummer
  2
E:M1
 70
     0
280
     0
  0
ATTDEF
  5
2B0
330
27C
100
AcDbEntity
  8
07-99
100
AcDbText
 10
-675.7163682428303
 20
5.599999999999455
 30
0.0
 40
0.0799999999999921
  1
.
  7
ROMANS8
 72
     2
 11
-675.6935110999732
 21
5.599999999999455
 31
0.0
100
AcDbAttributeDefinition
280
     0
  3
unsichtbar
  2
E:M2
 70
     0
280
     0
  0
ATTDEF
  5
2B4
330
27C
100
AcDbEntity
  8
01-99
100
AcDbText
 10
-821.6935110999585
 20
7.199999999999295
 30
0.0
 40
2.399999999999761
  1
.
 41
0.9
  7
ROMANS8
100
AcDbAttributeDefinition
280
     0
  3
Benennung/Teil
  2
E:M3
 70
     0
280
     0
  0
ATTDEF
  5
2B5
330
27C
100
AcDbEntity
  8
01-99
100
AcDbText
 10
-821.6935110999585
 20
35.19999999999651
 30
0.0
 40
2.399999999999761
  1
.
 41
0.9
  7
ROMANS8
100
AcDbAttributeDefinition
280
     0
  3
Kunde
  2
E:M4
 70
     0
280
     0
  0
ATTDEF
  5
2B6
330
27C
100
AcDbEntity
  8
06-99
100
AcDbText
 10
-769.2935110999638
 20
15.19999999999737
 30
0.0
 40
1.999999999999801
  1
.
 41
0.9
  7
ROMANS8
100
AcDbAttributeDefinition
280
     0
  3
Name
  2
E:M5
 70
     0
280
     0
  0
ATTDEF
  5
2BA
330
27C
100
AcDbEntity
  8
06-99
100
AcDbText
 10
-795.6935110999611
 20
15.1999999999985
 30
0.0
 40
1.999999999999801
  1
.
 41
24.50000000000005
  7
ROMANS8
 72
     5
 11
-781.6935110999625
 21
15.1999999999985
 31
0.0
100
AcDbAttributeDefinition
280
     0
  3
Datum
  2
E:M6
 70
     0
280
     0
  0
ATTDEF
  5
2BB
330
27C
100
AcDbEntity
  8
01-99
100
AcDbText
 10
-739.0649396713953
 20
7.199999999999295
 30
0.0
 40
2.399999999999761
  1
.
  7
ROMANS8
 72
     1
 11
-738.4935110999667
 21
7.199999999999295
 31
0.0
100
AcDbAttributeDefinition
280
     0
  3
Maßstab
  2
E:MA
 70
     0
280
     0
  0
ATTDEF
  5
2BC
330
27C
100
AcDbEntity
  8
02-99
100
AcDbText
 10
-704.8935110999702
 20
7.199999999999295
 30
0.0
 40
1.999999999999801
  1
.
  7
ROMANS8
100
AcDbAttributeDefinition
280
     0
  3
DWG-Name
  2
E:DOS
 70
     0
280
     0
  0
LWPOLYLINE
  5
2BD
330
27C
100
AcDbEntity
  8
10-98
100
AcDbPolyline
 90
      133
 70
     1
 43
0.0107999999999989
 10
-692.1902062999715
 20
23.49138119999764
 10
-691.9462594999715
 20
23.70419159999766
 10
-692.0333254999716
 20
23.84460599999756
 10
-692.1329086999715
 20
23.97142319999765
 10
-692.2446634999714
 20
24.08468999999766
 10
-692.3682298999715
 20
24.18446039999754
 10
-692.5032622999715
 20
24.27077399999757
 10
-692.6494114999713
 20
24.34367759999754
 10
-692.8063210999714
 20
24.40322519999757
 10
-692.9736454999713
 20
24.44945639999753
 10
-693.1510318999714
 20
24.48241799999762
 10
-693.3381274999715
 20
24.50216399999756
 10
-693.5345830999713
 20
24.50873399999757
 10
-693.6971338999715
 20
24.50261039999752
 10
-693.8544466999715
 20
24.48450599999753
 10
-694.0061866999712
 20
24.45481319999761
 10
-694.1520154999712
 20
24.41393159999755
 10
-694.2915982999713
 20
24.36226079999759
 10
-694.4246074999714
 20
24.30019679999754
 10
-694.5506974999712
 20
24.22813559999755
 10
-694.6695406999713
 20
24.14647319999755
 10
-694.7808022999711
 20
24.05560559999765
 10
-694.8841402999712
 20
23.95593599999764
 10
-694.9792306999711
 20
23.84785319999764
 10
-695.0657314999712
 20
23.73176399999767
 10
-695.1433078999712
 20
23.60805719999764
 10
-695.2116286999712
 20
23.47713239999769
 10
-695.2703554999711
 20
23.33938559999769
 10
-695.319157099971
 20
23.19521999999767
 10
-695.357698699971
 20
23.04502439999768
 10
-695.3856382999711
 20
22.88920199999766
 10
-695.4026518999712
 20
22.72814519999776
 10
-695.408393899971
 20
22.56225359999779
 10
-695.402723899971
 20
22.39144079999783
 10
-695.3859046999712
 20
22.2264563999978
 10
-695.3582386999713
 20
22.0676207999978
 10
-695.3200282999712
 20
21.91525079999774
 10
-695.2715722999712
 20
21.76966319999785
 10
-695.2131694999711
 20
21.63117479999786
 10
-695.1451186999711
 20
21.50009879999784
 10
-695.0677222999711
 20
21.37675559999785
 10
-694.9812790999713
 20
21.26145839999788
 10
-694.8860842999711
 20
21.15452759999788
 10
-694.7824474999713
 20
21.05627639999793
 10
-694.6706566999712
 20
20.96702519999786
 10
-694.5510214999712
 20
20.88708719999792
 10
-694.4238370999713
 20
20.81677919999795
 10
-694.2894058999713
 20
20.75642159999796
 10
-694.1480230999713
 20
20.70632759999798
 10
-693.9999946999712
 20
20.66681399999801
 10
-693.8456122999714
 20
20.638197599998
 10
-693.6851854999713
 20
20.62079519999793
 10
-693.5190058999714
 20
20.61492359999792
 10
-693.3533518999714
 20
20.62022999999794
 10
-693.1944298999715
 20
20.63602679999799
 10
-693.0424306999714
 20
20.66211959999795
 10
-692.8975450999715
 20
20.69831399999797
 10
-692.7599602999714
 20
20.74441919999798
 10
-692.6298706999714
 20
20.80024439999791
 10
-692.5074634999714
 20
20.86559519999793
 10
-692.3929366999714
 20
20.94028439999794
 10
-692.2864702999714
 20
21.02411759999787
 10
-692.1882658999716
 20
21.11689679999789
 10
-692.0985070999716
 20
21.21844199999785
 10
-692.0173846999714
 20
21.32854799999783
 10
-691.9450930999714
 20
21.44703479999785
 10
-691.8818230999716
 20
21.57370079999786
 10
-691.8277618999714
 20
21.7083587999978
 10
-691.7831002999714
 20
21.85081439999777
 10
-691.7480362999715
 20
22.00087679999779
 10
-691.7227498999714
 20
22.1583551999978
 10
-691.7074390999714
 20
22.32305879999772
 10
-691.7022946999714
 20
22.49478959999773
 10
-691.7022946999714
 20
22.49478959999773
 10
-691.7022946999714
 20
22.54669079999779
 10
-693.3529090999713
 20
22.54669079999779
 10
-693.3529090999713
 20
22.25601239999775
 10
-692.0708266999715
 20
22.25601239999775
 10
-692.0816734999716
 20
22.09182719999784
 10
-692.1092818999716
 20
21.93561959999779
 10
-692.1529390999714
 20
21.78805919999783
 10
-692.2119322999715
 20
21.64981919999785
 10
-692.2855414999714
 20
21.52156199999786
 10
-692.3730502999715
 20
21.40396799999786
 10
-692.4737530999713
 20
21.29769599999788
 10
-692.5869262999715
 20
21.20342639999788
 10
-692.7118570999714
 20
21.12181799999789
 10
-692.8478326999713
 20
21.05354759999796
 10
-692.9941366999714
 20
20.99928119999786
 10
-693.1500526999713
 20
20.95969199999796
 10
-693.3148678999714
 20
20.93544599999788
 10
-693.4878658999714
 20
20.92721639999792
 10
-693.6541894999713
 20
20.93524799999788
 10
-693.8140834999712
 20
20.95886759999785
 10
-693.9669502999713
 20
20.9973587999979
 10
-694.1121958999713
 20
21.05000879999789
 10
-694.2492334999712
 20
21.11610119999786
 10
-694.377465499971
 20
21.19491959999789
 10
-694.4963014999712
 20
21.28575479999788
 10
-694.6051438999713
 20
21.38788679999795
 10
-694.7034022999712
 20
21.50060279999784
 10
-694.7904862999712
 20
21.62318999999787
 10
-694.8657982999711
 20
21.75492839999781
 10
-694.9287478999713
 20
21.8951087999978
 10
-694.9787410999711
 20
22.04301479999775
 10
-695.0151838999714
 20
22.19792639999784
 10
-695.0374858999712
 20
22.35913799999781
 10
-695.0450494999714
 20
22.52592959999769
 10
-695.0385982999712
 20
22.69600439999774
 10
-695.0195038999711
 20
22.85965319999768
 10
-694.9881694999712
 20
23.01637199999767
 10
-694.9449946999711
 20
23.16566039999768
 10
-694.8903754999712
 20
23.30701799999765
 10
-694.8247150999714
 20
23.43994799999768
 10
-694.7484130999712
 20
23.5639427999977
 10
-694.6618654999711
 20
23.67850919999765
 10
-694.5654754999714
 20
23.78313959999768
 10
-694.4596354999712
 20
23.87733719999759
 10
-694.3447558999712
 20
23.96059799999765
 10
-694.2212254999713
 20
24.03242519999765
 10
-694.0894510999714
 20
24.09231479999759
 10
-693.9498286999712
 20
24.13976639999761
 10
-693.8027542999714
 20
24.17427959999755
 10
-693.6486346999713
 20
24.19535759999759
 10
-693.4878658999714
 20
24.20249279999758
 10
-693.3083662999713
 20
24.19348559999758
 10
-693.1368982999713
 20
24.16657919999758
 10
-692.9738038999712
 20
24.12194279999764
 10
-692.8194250999713
 20
24.05974559999756
 10
-692.6741038999714
 20
23.98016399999759
 10
-692.5381786999714
 20
23.88336359999766
 10
-692.4119914999714
 20
23.76952079999765
 10
-692.2958878999714
 20
23.63880119999764
  0
LWPOLYLINE
  5
2C1
330
27C
100
AcDbEntity
  8
10-98
100
AcDbPolyline
 90
       12
 70
     1
 43
0.0107999999999989
 10
-695.1986038999712
 20
16.80072359999837
 10
-693.2963134999713
 20
16.80072359999837
 10
-693.1495090999715
 20
17.56321439999827
 10
-694.0613566999713
 20
17.56321439999827
 10
-694.0046062999713
 20
17.85798959999815
 10
-693.1988866999713
 20
17.85798959999815
 10
-693.0604162999713
 20
18.5772371999981
 10
-693.8661358999714
 20
18.5772371999981
 10
-693.8139070999714
 20
18.84844319999805
 10
-692.9256430999714
 20
18.84844319999805
 10
-692.7788494999713
 20
19.61091959999808
 10
-694.6575562999712
 20
19.61091959999808
  0
LWPOLYLINE
  5
2C2
330
27C
100
AcDbEntity
  8
10-98
100
AcDbPolyline
 90
        4
 70
     1
 43
0.0107999999999989
 10
-709.1686882999697
 20
17.43467639999825
 10
-696.5856082999712
 20
17.43467639999825
 10
-696.710434699971
 20
16.79999999999833
 10
-709.2935110999697
 20
16.79999999999833
  0
SOLID
  5
2C3
330
27C
100
AcDbEntity
  8
10-98
100
AcDbTrace
 10
-709.1686882999697
 20
17.43467639999825
 30
0.0
 11
-696.5856082999712
 21
17.43467639999825
 31
0.0
 12
-709.2935110999697
 22
16.79999999999833
 32
0.0
 13
-696.710434699971
 23
16.79999999999833
 33
0.0
  0
LWPOLYLINE
  5
2C4
330
27C
100
AcDbEntity
  8
10-98
100
AcDbPolyline
 90
       10
 70
     1
 43
0.0107999999999989
 10
-703.7272738999704
 20
20.61492359999792
 10
-702.7410718999703
 20
23.71976879999766
 10
-701.7133294999705
 20
20.61492359999792
 10
-700.4727730999706
 20
24.42569279999756
 10
-700.8205402999706
 20
24.42569279999756
 10
-701.7133294999705
 20
21.48781199999781
 10
-702.7410718999703
 20
24.5710247999975
 10
-703.7272738999704
 20
21.46185959999789
 10
-704.6563978999702
 20
24.42569279999756
 10
-705.0093562999702
 20
24.42569279999756
  0
LWPOLYLINE
  5
2C5
330
27C
100
AcDbEntity
  8
10-98
100
AcDbPolyline
 90
        3
 70
     1
 43
0.0107999999999989
 10
-698.6984122999708
 20
22.2611999999978
 10
-698.0392018999709
 20
23.87549039999757
 10
-697.405940299971
 20
22.2611999999978
  0
LWPOLYLINE
  5
2C6
330
27C
100
AcDbEntity
  8
10-98
100
AcDbPolyline
 90
        7
 70
     1
 43
0.0107999999999989
 10
-699.6491542999706
 20
20.71440599999791
 10
-699.3057070999707
 20
20.71440599999791
 10
-698.8126078999707
 20
21.97053599999781
 10
-697.2969502999708
 20
21.97053599999781
 10
-696.8245978999711
 20
20.71440599999791
 10
-696.456065899971
 20
20.71440599999791
 10
-698.0184370999709
 20
24.5710247999975
  0
LWPOLYLINE
  5
2C7
330
27C
100
AcDbEntity
  8
10-98
100
AcDbPolyline
 90
        8
 70
     1
 43
0.0107999999999989
 10
-686.6220286999721
 20
16.80072359999837
 10
-685.5365998999721
 20
16.80072359999837
 10
-685.3820266999721
 20
17.15445959999827
 10
-684.6195358999721
 20
17.15445959999827
 10
-684.5972410999722
 20
16.80072359999837
 10
-683.5124638999722
 20
16.80072359999837
 10
-683.9540038999723
 20
19.61091959999808
 10
-685.0780822999722
 20
19.61091959999808
  0
LWPOLYLINE
  5
2C8
330
27C
100
AcDbEntity
  8
10-98
100
AcDbPolyline
 90
       34
 70
     1
 43
0.0107999999999989
 10
-689.5375318999717
 20
18.22351559999816
 10
-689.5021546999719
 20
18.22351559999816
 10
-689.5165546999717
 20
18.04737479999824
 10
-689.5169830999716
 20
17.89394279999819
 10
-689.5128430999716
 20
17.75972759999828
 10
-689.4852346999718
 20
16.80072359999837
 10
-688.6048330999719
 20
16.80072359999837
 10
-687.242348299972
 20
19.61091959999808
 10
-688.2563710999718
 20
19.61091959999808
 10
-688.7148490999718
 20
18.37286159999816
 10
-688.7654578999717
 20
18.23093879999816
 10
-688.8250234999718
 20
18.04708679999815
 10
-688.8844306999717
 20
17.81868839999829
 10
-688.9079998999719
 20
17.81868839999829
 10
-688.8860542999719
 20
18.01811759999821
 10
-688.8814498999717
 20
18.17737079999816
 10
-688.8825010999717
 20
18.29819759999818
 10
-688.8970306999717
 20
19.61091959999808
 10
-689.6084122999716
 20
19.61091959999808
 10
-690.1284142999716
 20
18.29819759999818
 10
-690.1759918999716
 20
18.17737079999816
 10
-690.2327134999715
 20
18.01811759999821
 10
-690.2875666999716
 20
17.81868839999829
 10
-690.3111358999717
 20
17.81868839999829
 10
-690.2825950999718
 20
18.04708679999815
 10
-690.2713630999717
 20
18.23093879999816
 10
-690.2673274999718
 20
18.37286159999816
 10
-690.2490718999716
 20
19.61091959999808
 10
-691.2637462999716
 20
19.61091959999808
 10
-690.9827050999715
 20
16.80072359999837
 10
-690.1023070999717
 20
16.80072359999837
 10
-689.7054286999717
 20
17.75972759999828
 10
-689.6495962999718
 20
17.89394279999819
 10
-689.5909450999718
 20
18.04737479999824
  0
LWPOLYLINE
  5
2C9
330
27C
100
AcDbEntity
  8
10-98
100
AcDbPolyline
 90
       10
 70
     1
 43
0.0107999999999989
 10
-685.084389499972
 20
17.82261239999821
 10
-684.9366202999722
 20
18.14097119999816
 10
-684.8611138999721
 20
18.30706799999825
 10
-684.7792534999721
 20
18.5107199999982
 10
-684.7038226999723
 20
18.75804719999819
 10
-684.6841666999721
 20
18.75804719999819
 10
-684.7039882999722
 20
18.5107199999982
 10
-684.7005466999721
 20
18.30706799999825
 10
-684.6889978999723
 20
18.14097119999816
 10
-684.6638410999721
 20
17.82261239999821
  0
LWPOLYLINE
  5
2CA
330
27C
100
AcDbEntity
  8
10-98
100
AcDbPolyline
 90
       23
 70
     1
 43
0.0107999999999989
 10
-681.9180886999724
 20
16.80072359999837
 10
-680.9276494999726
 20
16.80072359999837
 10
-680.7490678999725
 20
17.72828879999821
 10
-680.4363502999726
 20
16.80072359999837
 10
-679.3044202999729
 20
16.80072359999837
 10
-679.8348946999726
 20
17.94446159999819
 10
-679.6739242999726
 20
17.98354679999823
 10
-679.5271846999728
 20
18.0593123999982
 10
-679.3982470999728
 20
18.16848959999817
 10
-679.2906898999726
 20
18.30779879999818
 10
-679.2080950999727
 20
18.47396399999814
 10
-679.1540410999727
 20
18.66370919999814
 10
-679.1323366999726
 20
18.83635799999814
 10
-679.1366782999728
 20
18.99313439999816
 10
-679.1670550999729
 20
19.13349839999811
 10
-679.2234562999729
 20
19.25690639999802
 10
-679.3058638999728
 20
19.36281839999809
 10
-679.4142634999728
 20
19.45068719999806
 10
-679.5486478999728
 20
19.51997639999806
 10
-679.7089954999728
 20
19.57013879999809
 10
-679.8953026999726
 20
19.60063439999804
 10
-680.1075442999726
 20
19.61091959999808
 10
-681.3770410999725
 20
19.61091959999808
  0
LWPOLYLINE
  5
2CB
330
27C
100
AcDbEntity
  8
10-98
100
AcDbPolyline
 90
        9
 70
     1
 43
0.0107999999999989
 10
-680.5258390999727
 20
18.8877443999981
 10
-680.3686162999727
 20
18.8877443999981
 10
-680.2103638999726
 20
18.85382519999811
 10
-680.1286798999726
 20
18.75789239999817
 10
-680.1236326999726
 20
18.60869039999813
 10
-680.1866146999728
 20
18.46151879999819
 10
-680.3053750999727
 20
18.36937679999818
 10
-680.4745462999726
 20
18.33749879999813
 10
-680.6317690999726
 20
18.33749879999813
  0
LWPOLYLINE
  5
2CC
330
27C
100
AcDbEntity
  8
10-98
100
AcDbPolyline
 90
       12
 70
     1
 43
0.0107999999999989
 10
-685.309133899972
 20
20.71440599999791
 10
-683.4716614999725
 20
20.71440599999791
 10
-683.4716614999725
 20
21.0310367999979
 10
-684.9717418999721
 20
21.0310367999979
 10
-684.9717418999721
 20
22.62973199999781
 10
-683.4716614999725
 20
22.62973199999781
 10
-683.4716614999725
 20
22.94636279999776
 10
-684.9717418999721
 20
22.94636279999776
 10
-684.9717418999721
 20
24.1090619999976
 10
-683.4716614999725
 20
24.1090619999976
 10
-683.4716614999725
 20
24.42569279999756
 10
-685.309133899972
 20
24.42569279999756
  0
LWPOLYLINE
  5
2CD
330
27C
100
AcDbEntity
  8
10-98
100
AcDbPolyline
 90
        8
 70
     1
 43
0.0107999999999989
 10
-690.0836554999716
 20
20.71440599999791
 10
-689.7462598999718
 20
20.71440599999791
 10
-689.7462598999718
 20
23.71458119999762
 10
-687.1405834999718
 20
20.60453399999797
 10
-687.1405834999718
 20
24.42569279999756
 10
-687.477964699972
 20
24.42569279999756
 10
-687.477964699972
 20
21.47742239999784
 10
-690.0836554999716
 20
24.5813999999975
  0
LWPOLYLINE
  5
2CE
330
27C
100
AcDbEntity
  8
10-98
100
AcDbPolyline
 90
       19
 70
     1
 43
0.0107999999999989
 10
-681.4014346999726
 20
24.12982679999756
 10
-681.0640534999724
 20
24.12982679999756
 10
-680.8578058999726
 20
24.12142439999758
 10
-680.6822194999726
 20
24.09470879999759
 10
-680.5363114999727
 20
24.04743359999754
 10
-680.4191170999727
 20
23.9773487999976
 10
-680.3296606999727
 20
23.88220439999758
 10
-680.2669702999726
 20
23.75975039999767
 10
-680.2300666999727
 20
23.6077295999976
 10
-680.2179814999727
 20
23.42390279999767
 10
-680.2307038999726
 20
23.24334479999767
 10
-680.2691590999727
 20
23.09673119999768
 10
-680.3337646999725
 20
22.98101639999776
 10
-680.4249562999728
 20
22.89316199999776
 10
-680.5431514999727
 20
22.83012599999775
 10
-680.6887822999726
 20
22.7888627999977
 10
-680.8622770999727
 20
22.76633759999778
 10
-681.0640534999724
 20
22.75950479999775
 10
-681.4014346999726
 20
22.75950479999775
  0
LWPOLYLINE
  5
2CF
330
27C
100
AcDbEntity
  8
10-98
100
AcDbPolyline
 90
       29
 70
     1
 43
0.0107999999999989
 10
-679.4861050999728
 20
20.71440599999791
 10
-680.8200886999725
 20
22.48439999999777
 10
-680.6297674999726
 20
22.49712599999779
 10
-680.4575182999727
 20
22.53467039999772
 10
-680.3044894999727
 20
22.59609359999779
 10
-680.1718402999727
 20
22.68046319999778
 10
-680.0607226999727
 20
22.7868287999977
 10
-679.9722922999726
 20
22.91426159999773
 10
-679.9076974999727
 20
23.06181479999775
 10
-679.8680938999727
 20
23.22854879999773
 10
-679.8546370999729
 20
23.41352759999767
 10
-679.8645514999726
 20
23.59035959999767
 10
-679.8943054999726
 20
23.75001959999759
 10
-679.9439278999727
 20
23.89257599999763
 10
-680.0134366999728
 20
24.01809719999754
 10
-680.1028570999728
 20
24.12665519999761
 10
-680.2122142999726
 20
24.21832199999758
 10
-680.3415298999725
 20
24.29316239999757
 10
-680.4908290999726
 20
24.35124839999757
 10
-680.6601334999727
 20
24.39265559999761
 10
-680.8494646999727
 20
24.4174451999976
 10
-681.0588514999726
 20
24.42569279999756
 10
-681.0588514999726
 20
24.42569279999756
 10
-681.7388266999726
 20
24.42569279999756
 10
-681.7388266999726
 20
20.71440599999791
 10
-681.4014346999726
 20
20.71440599999791
 10
-681.4014346999726
 20
22.48439999999777
 10
-681.1989958999724
 20
22.48439999999777
 10
-679.8961666999728
 20
20.71440599999791
  0
LWPOLYLINE
  5
2D0
330
27C
100
AcDbEntity
  8
02-01
100
AcDbPolyline
 90
        4
 70
     1
 43
0.0
 10
-1006.09351109994
 20
0.0
 10
-670.0935110999737
 20
0.0
 10
-670.0935110999737
 20
237.5999999999764
 10
-1006.09351109994
 20
237.5999999999764
  0
ENDBLK
  5
2D1
330
27C
100
AcDbEntity
  8
0
100
AcDbBlockEnd
  0
BLOCK
  5
1F3
330
1F2
100
AcDbEntity
  8
0
100
AcDbBlockBegin
  2
*D1
 70
     1
 10
0.0
 20
0.0
 30
0.0
  3
*D1
  1

  0
LINE
  5
1F4
330
1F2
100
AcDbEntity
  8
0
 62
     4
370
    -2
100
AcDbLine
 10
369.5646952888103
 20
500.8167929814885
 30
0.0
 11
349.8807722609289
 21
500.8167929814885
 31
0.0
  0
LINE
  5
1F5
330
1F2
100
AcDbEntity
  8
0
 62
     4
370
    -2
100
AcDbLine
 10
369.5646952888107
 20
256.8167929814886
 30
0.0
 11
349.8807722609288
 21
256.8167929814886
 31
0.0
  0
LINE
  5
1F6
330
1F2
100
AcDbEntity
  8
0
 62
     4
370
    -2
100
AcDbLine
 10
351.8807722609289
 20
495.8167929814885
 30
0.0
 11
351.8807722609288
 21
261.8167929814886
 31
0.0
  0
SOLID
  5
1F7
330
1F2
100
AcDbEntity
  8
0
 62
     4
100
AcDbTrace
 10
351.0474389275955
 20
495.8167929814885
 30
0.0
 11
352.7141055942621
 21
495.8167929814885
 31
0.0
 12
351.8807722609289
 22
500.8167929814885
 32
0.0
 13
351.8807722609289
 23
500.8167929814885
 33
0.0
  0
SOLID
  5
1F8
330
1F2
100
AcDbEntity
  8
0
 62
     4
100
AcDbTrace
 10
351.0474389275955
 20
261.8167929814886
 30
0.0
 11
352.7141055942621
 21
261.8167929814886
 31
0.0
 12
351.8807722609288
 22
256.8167929814886
 32
0.0
 13
351.8807722609288
 23
256.8167929814886
 33
0.0
  0
MTEXT
  5
1F9
330
1F2
100
AcDbEntity
  8
0
 62
     1
100
AcDbMText
 10
347.3807722609287
 20
378.8167929814886
 30
0.0
 40
5.0
 41
0.0
 46
0.0
 71
     5
 72
     1
  1
244
 11
0.0000000000000001
 21
1.0
 31
0.0
 73
     1
 44
1.0
  0
POINT
  5
1FA
330
1F2
100
AcDbEntity
  8
Defpoints
 62
     0
100
AcDbPoint
 10
371.5646952888103
 20
500.8167929814885
 30
0.0
  0
POINT
  5
1FB
330
1F2
100
AcDbEntity
  8
Defpoints
 62
     0
100
AcDbPoint
 10
371.5646952888107
 20
256.8167929814886
 30
0.0
  0
POINT
  5
1FC
330
1F2
100
AcDbEntity
  8
Defpoints
 62
     0
100
AcDbPoint
 10
351.8807722609288
 20
256.8167929814886
 30
0.0
  0
ENDBLK
  5
1FD
330
1F2
100
AcDbEntity
  8
0
100
AcDbBlockEnd
  0
BLOCK
  5
200
330
1FF
100
AcDbEntity
  8
0
100
AcDbBlockBegin
  2
*D2
 70
     1
 10
0.0
 20
0.0
 30
0.0
  3
*D2
  1

  0
LINE
  5
201
330
1FF
100
AcDbEntity
  8
0
 62
     4
370
    -2
100
AcDbLine
 10
96.44548595756873
 20
254.8167929814884
 30
0.0
 11
96.44548595756873
 21
245.473583933152
 31
0.0
  0
LINE
  5
202
330
1FF
100
AcDbEntity
  8
0
 62
     4
370
    -2
100
AcDbLine
 10
177.4454859575687
 20
254.8167929814882
 30
0.0
 11
177.4454859575687
 21
245.473583933152
 31
0.0
  0
LINE
  5
203
330
1FF
100
AcDbEntity
  8
0
 62
     4
370
    -2
100
AcDbLine
 10
101.4454859575687
 20
247.473583933152
 30
0.0
 11
172.4454859575687
 21
247.473583933152
 31
0.0
  0
SOLID
  5
204
330
1FF
100
AcDbEntity
  8
0
 62
     4
100
AcDbTrace
 10
101.4454859575687
 20
248.3069172664853
 30
0.0
 11
101.4454859575687
 21
246.6402505998187
 31
0.0
 12
96.44548595756873
 22
247.473583933152
 32
0.0
 13
96.44548595756873
 23
247.473583933152
 33
0.0
  0
SOLID
  5
205
330
1FF
100
AcDbEntity
  8
0
 62
     4
100
AcDbTrace
 10
172.4454859575687
 20
248.3069172664853
 30
0.0
 11
172.4454859575687
 21
246.6402505998187
 31
0.0
 12
177.4454859575687
 22
247.473583933152
 32
0.0
 13
177.4454859575687
 23
247.473583933152
 33
0.0
  0
MTEXT
  5
206
330
1FF
100
AcDbEntity
  8
0
 62
     1
100
AcDbMText
 10
136.9454859575687
 20
251.973583933152
 30
0.0
 40
5.0
 41
0.0
 46
0.0
 71
     5
 72
     1
  1
81
 73
     1
 44
1.0
  0
POINT
  5
207
330
1FF
100
AcDbEntity
  8
Defpoints
 62
     0
100
AcDbPoint
 10
96.44548595756873
 20
256.8167929814883
 30
0.0
  0
POINT
  5
208
330
1FF
100
AcDbEntity
  8
Defpoints
 62
     0
100
AcDbPoint
 10
177.4454859575687
 20
256.8167929814882
 30
0.0
  0
POINT
  5
209
330
1FF
100
AcDbEntity
  8
Defpoints
 62
     0
100
AcDbPoint
 10
177.4454859575687
 20
247.473583933152
 30
0.0
  0
ENDBLK
  5
20A
330
1FF
100
AcDbEntity
  8
0
100
AcDbBlockEnd
  0
BLOCK
  5
1E6
330
1E5
100
AcDbEntity
  8
0
100
AcDbBlockBegin
  2
*D3
 70
     1
 10
0.0
 20
0.0
 30
0.0
  3
*D3
  1

  0
LINE
  5
1E7
330
1E5
100
AcDbEntity
  8
0
 62
     4
370
    -2
100
AcDbLine
 10
94.44548595756874
 20
256.8167929814883
 30
0.0
 11
63.24928956811231
 21
256.8167929814883
 31
0.0
  0
LINE
  5
1E8
330
1E5
100
AcDbEntity
  8
0
 62
     4
370
    -2
100
AcDbLine
 10
126.6454859575695
 20
307.8167929814889
 30
0.0
 11
63.24928956811231
 21
307.8167929814889
 31
0.0
  0
LINE
  5
1E9
330
1E5
100
AcDbEntity
  8
0
 62
     4
370
    -2
100
AcDbLine
 10
65.2492895681123
 20
261.8167929814883
 30
0.0
 11
65.24928956811232
 21
302.8167929814888
 31
0.0
  0
SOLID
  5
1EA
330
1E5
100
AcDbEntity
  8
0
 62
     4
100
AcDbTrace
 10
64.41595623477898
 20
261.8167929814883
 30
0.0
 11
66.08262290144563
 21
261.8167929814883
 31
0.0
 12
65.2492895681123
 22
256.8167929814883
 32
0.0
 13
65.2492895681123
 23
256.8167929814883
 33
0.0
  0
SOLID
  5
1EB
330
1E5
100
AcDbEntity
  8
0
 62
     4
100
AcDbTrace
 10
64.41595623477899
 20
302.8167929814888
 30
0.0
 11
66.08262290144565
 21
302.8167929814888
 31
0.0
 12
65.24928956811232
 22
307.8167929814889
 32
0.0
 13
65.24928956811232
 23
307.8167929814889
 33
0.0
  0
MTEXT
  5
1EC
330
1E5
100
AcDbEntity
  8
0
 62
     1
100
AcDbMText
 10
60.74928956811226
 20
282.3167929814886
 30
0.0
 40
5.0
 41
0.0
 46
0.0
 71
     5
 72
     1
  1
51
 11
0.0000000000000001
 21
1.0
 31
0.0
 73
     1
 44
1.0
  0
POINT
  5
1ED
330
1E5
100
AcDbEntity
  8
Defpoints
 62
     0
100
AcDbPoint
 10
96.44548595756873
 20
256.8167929814883
 30
0.0
  0
POINT
  5
1EE
330
1E5
100
AcDbEntity
  8
Defpoints
 62
     0
100
AcDbPoint
 10
128.6454859575694
 20
307.8167929814888
 30
0.0
  0
POINT
  5
1EF
330
1E5
100
AcDbEntity
  8
Defpoints
 62
     0
100
AcDbPoint
 10
65.24928956811232
 20
307.8167929814889
 30
0.0
  0
ENDBLK
  5
1F0
330
1E5
100
AcDbEntity
  8
0
100
AcDbBlockEnd
  0
BLOCK
  5
1CD
330
1CC
100
AcDbEntity
  8
0
100
AcDbBlockBegin
  2
*D4
 70
     1
 10
0.0
 20
0.0
 30
0.0
  3
*D4
  1

  0
LINE
  5
1CE
330
1CC
100
AcDbEntity
  8
0
 62
     4
370
    -2
100
AcDbLine
 10
126.6454859575695
 20
307.8167929814889
 30
0.0
 11
63.24928956811229
 21
307.8167929814889
 31
0.0
  0
LINE
  5
1CF
330
1CC
100
AcDbEntity
  8
0
 62
     4
370
    -2
100
AcDbLine
 10
106.6454859575694
 20
476.8167929814892
 30
0.0
 11
63.24928956811232
 21
476.8167929814892
 31
0.0
  0
LINE
  5
1D0
330
1CC
100
AcDbEntity
  8
0
 62
     4
370
    -2
100
AcDbLine
 10
65.24928956811229
 20
312.8167929814889
 30
0.0
 11
65.24928956811232
 21
471.8167929814892
 31
0.0
  0
SOLID
  5
1D1
330
1CC
100
AcDbEntity
  8
0
 62
     4
100
AcDbTrace
 10
64.41595623477896
 20
312.8167929814889
 30
0.0
 11
66.08262290144562
 21
312.8167929814889
 31
0.0
 12
65.24928956811229
 22
307.8167929814889
 32
0.0
 13
65.24928956811229
 23
307.8167929814889
 33
0.0
  0
SOLID
  5
1D2
330
1CC
100
AcDbEntity
  8
0
 62
     4
100
AcDbTrace
 10
64.41595623477899
 20
471.8167929814892
 30
0.0
 11
66.08262290144565
 21
471.8167929814892
 31
0.0
 12
65.24928956811232
 22
476.8167929814892
 32
0.0
 13
65.24928956811232
 23
476.8167929814892
 33
0.0
  0
MTEXT
  5
1D3
330
1CC
100
AcDbEntity
  8
0
 62
     1
100
AcDbMText
 10
60.74928956811223
 20
392.316792981489
 30
0.0
 40
5.0
 41
0.0
 46
0.0
 71
     5
 72
     1
  1
169
 11
0.0000000000000001
 21
1.0
 31
0.0
 73
     1
 44
1.0
  0
POINT
  5
1D4
330
1CC
100
AcDbEntity
  8
Defpoints
 62
     0
100
AcDbPoint
 10
128.6454859575694
 20
307.8167929814888
 30
0.0
  0
POINT
  5
1D5
330
1CC
100
AcDbEntity
  8
Defpoints
 62
     0
100
AcDbPoint
 10
108.6454859575694
 20
476.8167929814892
 30
0.0
  0
POINT
  5
1D6
330
1CC
100
AcDbEntity
  8
Defpoints
 62
     0
100
AcDbPoint
 10
65.24928956811232
 20
476.8167929814892
 30
0.0
  0
ENDBLK
  5
1D7
330
1CC
100
AcDbEntity
  8
0
100
AcDbBlockEnd
  0
BLOCK
  5
1C0
330
1BF
100
AcDbEntity
  8
0
100
AcDbBlockBegin
  2
*D5
 70
     1
 10
0.0
 20
0.0
 30
0.0
  3
*D5
  1

  0
LINE
  5
1C1
330
1BF
100
AcDbEntity
  8
0
 62
     4
370
    -2
100
AcDbLine
 10
106.6454859575694
 20
476.8167929814892
 30
0.0
 11
63.24928956811231
 21
476.8167929814892
 31
0.0
  0
LINE
  5
1C2
330
1BF
100
AcDbEntity
  8
0
 62
     4
370
    -2
100
AcDbLine
 10
94.44548595756874
 20
500.8167929814885
 30
0.0
 11
63.24928956811231
 21
500.8167929814885
 31
0.0
  0
LINE
  5
1C3
330
1BF
100
AcDbEntity
  8
0
 62
     4
370
    -2
100
AcDbLine
 10
65.24928956811232
 20
481.8167929814892
 30
0.0
 11
65.24928956811232
 21
495.8167929814885
 31
0.0
  0
SOLID
  5
1C4
330
1BF
100
AcDbEntity
  8
0
 62
     4
100
AcDbTrace
 10
64.41595623477899
 20
481.8167929814892
 30
0.0
 11
66.08262290144565
 21
481.8167929814892
 31
0.0
 12
65.2492895681123
 22
476.8167929814892
 32
0.0
 13
65.2492895681123
 23
476.8167929814892
 33
0.0
  0
SOLID
  5
1C5
330
1BF
100
AcDbEntity
  8
0
 62
     4
100
AcDbTrace
 10
64.41595623477899
 20
495.8167929814885
 30
0.0
 11
66.08262290144565
 21
495.8167929814885
 31
0.0
 12
65.24928956811232
 22
500.8167929814885
 32
0.0
 13
65.24928956811232
 23
500.8167929814885
 33
0.0
  0
MTEXT
  5
1C6
330
1BF
100
AcDbEntity
  8
0
 62
     1
100
AcDbMText
 10
60.74928956811223
 20
488.8167929814889
 30
0.0
 40
5.0
 41
0.0
 46
0.0
 71
     5
 72
     1
  1
24
 11
0.0000000000000001
 21
1.0
 31
0.0
 73
     1
 44
1.0
  0
POINT
  5
1C7
330
1BF
100
AcDbEntity
  8
Defpoints
 62
     0
100
AcDbPoint
 10
108.6454859575694
 20
476.8167929814892
 30
0.0
  0
POINT
  5
1C8
330
1BF
100
AcDbEntity
  8
Defpoints
 62
     0
100
AcDbPoint
 10
96.44548595756873
 20
500.8167929814885
 30
0.0
  0
POINT
  5
1C9
330
1BF
100
AcDbEntity
  8
Defpoints
 62
     0
100
AcDbPoint
 10
65.24928956811232
 20
500.8167929814885
 30
0.0
  0
ENDBLK
  5
1CA
330
1BF
100
AcDbEntity
  8
0
100
AcDbBlockEnd
  0
BLOCK
  5
1B3
330
1B2
100
AcDbEntity
  8
0
100
AcDbBlockBegin
  2
*D6
 70
     1
 10
0.0
 20
0.0
 30
0.0
  3
*D6
  1

  0
LINE
  5
1B4
330
1B2
100
AcDbEntity
  8
0
 62
     4
370
    -2
100
AcDbLine
 10
366.5646952888108
 20
291.8167929814885
 30
0.0
 11
366.5646952888108
 21
218.479493822532
 31
0.0
  0
LINE
  5
1B5
330
1B2
100
AcDbEntity
  8
0
 62
     4
370
    -2
100
AcDbLine
 10
450.5646952888103
 20
340.8167929814886
 30
0.0
 11
450.5646952888103
 21
218.479493822532
 31
0.0
  0
LINE
  5
1B6
330
1B2
100
AcDbEntity
  8
0
 62
     4
370
    -2
100
AcDbLine
 10
371.5646952888107
 20
220.479493822532
 30
0.0
 11
445.5646952888103
 21
220.479493822532
 31
0.0
  0
SOLID
  5
1B7
330
1B2
100
AcDbEntity
  8
0
 62
     4
100
AcDbTrace
 10
371.5646952888107
 20
221.3128271558653
 30
0.0
 11
371.5646952888107
 21
219.6461604891987
 31
0.0
 12
366.5646952888108
 22
220.479493822532
 32
0.0
 13
366.5646952888108
 23
220.479493822532
 33
0.0
  0
SOLID
  5
1B8
330
1B2
100
AcDbEntity
  8
0
 62
     4
100
AcDbTrace
 10
445.5646952888103
 20
221.3128271558653
 30
0.0
 11
445.5646952888103
 21
219.6461604891987
 31
0.0
 12
450.5646952888103
 22
220.479493822532
 32
0.0
 13
450.5646952888103
 23
220.479493822532
 33
0.0
  0
MTEXT
  5
1B9
330
1B2
100
AcDbEntity
  8
0
 62
     1
100
AcDbMText
 10
408.5646952888104
 20
224.979493822532
 30
0.0
 40
5.0
 41
0.0
 46
0.0
 71
     5
 72
     1
  1
84
 73
     1
 44
1.0
  0
POINT
  5
1BA
330
1B2
100
AcDbEntity
  8
Defpoints
 62
     0
100
AcDbPoint
 10
366.5646952888108
 20
293.8167929814886
 30
0.0
  0
POINT
  5
1BB
330
1B2
100
AcDbEntity
  8
Defpoints
 62
     0
100
AcDbPoint
 10
450.5646952888103
 20
342.8167929814886
 30
0.0
  0
POINT
  5
1BC
330
1B2
100
AcDbEntity
  8
Defpoints
 62
     0
100
AcDbPoint
 10
450.5646952888103
 20
220.479493822532
 30
0.0
  0
ENDBLK
  5
1BD
330
1B2
100
AcDbEntity
  8
0
100
AcDbBlockEnd
  0
BLOCK
  5
1A3
330
1A2
100
AcDbEntity
  8
0
100
AcDbBlockBegin
  2
*D7
 70
     1
 10
0.0
 20
0.0
 30
0.0
  3
*D7
  1

  0
LINE
  5
1A4
330
1A2
100
AcDbEntity
  8
0
 62
     4
370
    -2
100
AcDbLine
 10
366.5646952888103
 20
497.8167929814885
 30
0.0
 11
366.5646952888103
 21
530.6726377958482
 31
0.0
  0
LINE
  5
1A5
330
1A2
100
AcDbEntity
  8
0
 62
     4
370
    -2
100
AcDbLine
 10
528.7442272390665
 20
473.5442042356842
 30
0.0
 11
528.7442272390665
 21
530.6726377958482
 31
0.0
  0
LINE
  5
1A6
330
1A2
100
AcDbEntity
  8
0
 62
     4
370
    -2
100
AcDbLine
 10
371.5646952888103
 20
528.6726377958482
 30
0.0
 11
523.7442272390665
 21
528.6726377958482
 31
0.0
  0
SOLID
  5
1A7
330
1A2
100
AcDbEntity
  8
0
 62
     4
100
AcDbTrace
 10
371.5646952888103
 20
529.5059711291815
 30
0.0
 11
371.5646952888103
 21
527.8393044625148
 31
0.0
 12
366.5646952888103
 22
528.6726377958482
 32
0.0
 13
366.5646952888103
 23
528.6726377958482
 33
0.0
  0
SOLID
  5
1A8
330
1A2
100
AcDbEntity
  8
0
 62
     4
100
AcDbTrace
 10
523.7442272390665
 20
529.5059711291815
 30
0.0
 11
523.7442272390665
 21
527.8393044625148
 31
0.0
 12
528.7442272390665
 22
528.6726377958482
 32
0.0
 13
528.7442272390665
 23
528.6726377958482
 33
0.0
  0
MTEXT
  5
1A9
330
1A2
100
AcDbEntity
  8
0
 62
     1
100
AcDbMText
 10
447.6544612639384
 20
533.1726377958482
 30
0.0
 40
5.0
 41
0.0
 46
0.0
 71
     5
 72
     1
  1
162
 73
     1
 44
1.0
  0
POINT
  5
1AA
330
1A2
100
AcDbEntity
  8
Defpoints
 62
     0
100
AcDbPoint
 10
366.5646952888103
 20
495.8167929814885
 30
0.0
  0
POINT
  5
1AB
330
1A2
100
AcDbEntity
  8
Defpoints
 62
     0
100
AcDbPoint
 10
528.7442272390665
 20
471.5442042356841
 30
0.0
  0
POINT
  5
1AC
330
1A2
100
AcDbEntity
  8
Defpoints
 62
     0
100
AcDbPoint
 10
528.7442272390665
 20
528.6726377958482
 30
0.0
  0
ENDBLK
  5
1AD
330
1A2
100
AcDbEntity
  8
0
100
AcDbBlockEnd
  0
BLOCK
  5
196
330
195
100
AcDbEntity
  8
0
100
AcDbBlockBegin
  2
*D8
 70
     1
 10
0.0
 20
0.0
 30
0.0
  3
*D8
  1

  0
LINE
  5
197
330
195
100
AcDbEntity
  8
0
 62
     4
370
    -2
100
AcDbLine
 10
366.5646952888103
 20
497.8167929814885
 30
0.0
 11
366.5646952888103
 21
566.4138727435999
 31
0.0
  0
LINE
  5
198
330
195
100
AcDbEntity
  8
0
 62
     4
370
    -2
100
AcDbLine
 10
581.5646952888102
 20
550.3167929814885
 30
0.0
 11
581.5646952888102
 21
566.4138727435999
 31
0.0
  0
LINE
  5
199
330
195
100
AcDbEntity
  8
0
 62
     4
370
    -2
100
AcDbLine
 10
371.5646952888103
 20
564.4138727436
 30
0.0
 11
576.5646952888102
 21
564.4138727436
 31
0.0
  0
SOLID
  5
19A
330
195
100
AcDbEntity
  8
0
 62
     4
100
AcDbTrace
 10
371.5646952888103
 20
565.2472060769333
 30
0.0
 11
371.5646952888103
 21
563.5805394102666
 31
0.0
 12
366.5646952888103
 22
564.4138727436
 32
0.0
 13
366.5646952888103
 23
564.4138727436
 33
0.0
  0
SOLID
  5
19B
330
195
100
AcDbEntity
  8
0
 62
     4
100
AcDbTrace
 10
576.5646952888102
 20
565.2472060769333
 30
0.0
 11
576.5646952888102
 21
563.5805394102666
 31
0.0
 12
581.5646952888102
 22
564.4138727436
 32
0.0
 13
581.5646952888102
 23
564.4138727436
 33
0.0
  0
MTEXT
  5
19C
330
195
100
AcDbEntity
  8
0
 62
     1
100
AcDbMText
 10
474.0646952888103
 20
568.9138727436
 30
0.0
 40
5.0
 41
0.0
 46
0.0
 71
     5
 72
     1
  1
215
 73
     1
 44
1.0
  0
POINT
  5
19D
330
195
100
AcDbEntity
  8
Defpoints
 62
     0
100
AcDbPoint
 10
366.5646952888103
 20
495.8167929814885
 30
0.0
  0
POINT
  5
19E
330
195
100
AcDbEntity
  8
Defpoints
 62
     0
100
AcDbPoint
 10
581.5646952888102
 20
548.3167929814885
 30
0.0
  0
POINT
  5
19F
330
195
100
AcDbEntity
  8
Defpoints
 62
     0
100
AcDbPoint
 10
581.5646952888102
 20
564.4138727436
 30
0.0
  0
ENDBLK
  5
1A0
330
195
100
AcDbEntity
  8
0
100
AcDbBlockEnd
  0
BLOCK
  5
189
330
188
100
AcDbEntity
  8
0
100
AcDbBlockBegin
  2
*D9
 70
     1
 10
0.0
 20
0.0
 30
0.0
  3
*D9
  1

  0
LINE
  5
18A
330
188
100
AcDbEntity
  8
0
 62
     4
370
    -2
100
AcDbLine
 10
116.9454859575687
 20
486.3667929814893
 30
0.0
 11
116.9454859575687
 21
515.6919778046747
 31
0.0
  0
LINE
  5
18B
330
188
100
AcDbEntity
  8
0
 62
     4
370
    -2
100
AcDbLine
 10
156.9454859575687
 20
486.3667929814893
 30
0.0
 11
156.9454859575687
 21
515.6919778046747
 31
0.0
  0
LINE
  5
18C
330
188
100
AcDbEntity
  8
0
 62
     4
370
    -2
100
AcDbLine
 10
121.9454859575687
 20
513.6919778046746
 30
0.0
 11
151.9454859575687
 21
513.6919778046746
 31
0.0
  0
SOLID
  5
18D
330
188
100
AcDbEntity
  8
0
 62
     4
100
AcDbTrace
 10
121.9454859575687
 20
514.525311138008
 30
0.0
 11
121.9454859575687
 21
512.8586444713413
 31
0.0
 12
116.9454859575687
 22
513.6919778046746
 32
0.0
 13
116.9454859575687
 23
513.6919778046746
 33
0.0
  0
SOLID
  5
18E
330
188
100
AcDbEntity
  8
0
 62
     4
100
AcDbTrace
 10
151.9454859575687
 20
514.525311138008
 30
0.0
 11
151.9454859575687
 21
512.8586444713413
 31
0.0
 12
156.9454859575687
 22
513.6919778046746
 32
0.0
 13
156.9454859575687
 23
513.6919778046746
 33
0.0
  0
MTEXT
  5
18F
330
188
100
AcDbEntity
  8
0
 62
     1
100
AcDbMText
 10
136.9454859575687
 20
518.1919778046746
 30
0.0
 40
5.0
 41
0.0
 46
0.0
 71
     5
 72
     1
  1
40
 73
     1
 44
1.0
  0
POINT
  5
190
330
188
100
AcDbEntity
  8
Defpoints
 62
     0
100
AcDbPoint
 10
116.9454859575687
 20
484.3667929814894
 30
0.0
  0
POINT
  5
191
330
188
100
AcDbEntity
  8
Defpoints
 62
     0
100
AcDbPoint
 10
156.9454859575687
 20
484.3667929814894
 30
0.0
  0
POINT
  5
192
330
188
100
AcDbEntity
  8
Defpoints
 62
     0
100
AcDbPoint
 10
156.9454859575687
 20
513.6919778046746
 30
0.0
  0
ENDBLK
  5
193
330
188
100
AcDbEntity
  8
0
100
AcDbBlockEnd
  0
BLOCK
  5
17A
330
179
100
AcDbEntity
  8
0
100
AcDbBlockBegin
  2
*D10
 70
     1
 10
0.0
 20
0.0
 30
0.0
  3
*D10
  1

  0
LINE
  5
17B
330
179
100
AcDbEntity
  8
0
 62
     4
370
    -2
100
AcDbLine
 10
133.5454859575686
 20
309.8167929814888
 30
0.0
 11
133.5454859575686
 21
330.3227062823305
 31
0.0
  0
LINE
  5
17C
330
179
100
AcDbEntity
  8
0
 62
     4
370
    -2
100
AcDbLine
 10
140.3454859575688
 20
309.8167929814888
 30
0.0
 11
140.3454859575688
 21
330.3227062823305
 31
0.0
  0
LINE
  5
17D
330
179
100
AcDbEntity
  8
0
 62
     4
370
    -2
100
AcDbLine
 10
128.5454859575686
 20
328.3227062823305
 30
0.0
 11
123.5454859575686
 21
328.3227062823305
 31
0.0
  0
LINE
  5
17E
330
179
100
AcDbEntity
  8
0
 62
     4
370
    -2
100
AcDbLine
 10
145.3454859575688
 20
328.3227062823305
 30
0.0
 11
150.3454859575688
 21
328.3227062823305
 31
0.0
  0
MTEXT
  5
17F
330
179
100
AcDbEntity
  8
0
 62
     1
100
AcDbMText
 10
157.2059458184178
 20
341.1298397445055
 30
0.0
 40
5.0
 41
0.0
 46
0.0
 71
     5
 72
     1
  1
6.8
 73
     1
 44
1.0
  0
LINE
  5
180
330
179
100
AcDbEntity
  8
0
 62
     4
370
    -2
100
AcDbLine
 10
133.5454859575686
 20
328.3227062823305
 30
0.0
 11
140.3454859575688
 21
328.3227062823305
 31
0.0
  0
SOLID
  5
181
330
179
100
AcDbEntity
  8
0
 62
     4
100
AcDbTrace
 10
128.5454859575686
 20
329.1560396156638
 30
0.0
 11
128.5454859575686
 21
327.4893729489972
 31
0.0
 12
133.5454859575686
 22
328.3227062823305
 32
0.0
 13
133.5454859575686
 23
328.3227062823305
 33
0.0
  0
SOLID
  5
182
330
179
100
AcDbEntity
  8
0
 62
     4
100
AcDbTrace
 10
145.3454859575688
 20
329.1560396156638
 30
0.0
 11
145.3454859575688
 21
327.4893729489972
 31
0.0
 12
140.3454859575688
 22
328.3227062823305
 32
0.0
 13
140.3454859575688
 23
328.3227062823305
 33
0.0
  0
POINT
  5
183
330
179
100
AcDbEntity
  8
Defpoints
 62
     0
100
AcDbPoint
 10
133.5454859575686
 20
307.8167929814888
 30
0.0
  0
POINT
  5
184
330
179
100
AcDbEntity
  8
Defpoints
 62
     0
100
AcDbPoint
 10
140.3454859575688
 20
307.8167929814888
 30
0.0
  0
POINT
  5
185
330
179
100
AcDbEntity
  8
Defpoints
 62
     0
100
AcDbPoint
 10
140.3454859575688
 20
328.3227062823305
 30
0.0
  0
ENDBLK
  5
186
330
179
100
AcDbEntity
  8
0
100
AcDbBlockEnd
  0
BLOCK
  5
126
330
125
100
AcDbEntity
  8
0
100
AcDbBlockBegin
  2
Auffangschale01-s
 70
     0
 10
0.0
 20
0.0
 30
0.0
  3
Auffangschale01-s
  1

  0
LINE
  5
127
330
125
100
AcDbEntity
  8
0
100
AcDbLine
 10
175.4995466597101
 20
-352.7491036348741
 30
0.0
 11
155.4995466597102
 21
-352.7491036348738
 31
0.0
  0
LINE
  5
128
330
125
100
AcDbEntity
  8
0
100
AcDbLine
 10
255.9995466597104
 20
-319.000000794479
 30
0.0
 11
233.9995466597108
 21
-319.000000794479
 31
0.0
  0
LINE
  5
129
330
125
100
AcDbEntity
  8
0
100
AcDbLine
 10
233.9995466597108
 20
-319.000000794479
 30
0.0
 11
175.4995466597106
 21
-319.000000794479
 31
0.0
  0
LINE
  5
12A
330
125
100
AcDbEntity
  8
0
100
AcDbLine
 10
155.4995466597106
 20
-319.000000794479
 30
0.0
 11
60.0
 21
-319.0000007944787
 31
0.0
  0
LINE
  5
12B
330
125
100
AcDbEntity
  8
0
100
AcDbLine
 10
-0.0000000000038654
 20
-2.0
 30
0.0
 11
-0.0000000000038654
 21
0.0
 31
0.0
  0
LINE
  5
12C
330
125
100
AcDbEntity
  8
0
100
AcDbLine
 10
5.999999999996134
 20
7.999999999999772
 30
0.0
 11
5.999999999996134
 21
-2.0
 31
0.0
  0
LINE
  5
12D
330
125
100
AcDbEntity
  8
0
100
AcDbLine
 10
5.999999999996134
 20
-2.0
 30
0.0
 11
5.999999999996134
 21
-303.9999999999963
 31
0.0
  0
LINE
  5
12E
330
125
100
AcDbEntity
  8
0
100
AcDbLine
 10
-0.0000000000038654
 20
-303.9999999999963
 30
0.0
 11
-0.0000000000038654
 21
-2.0
 31
0.0
  0
ARC
  5
12F
330
125
100
AcDbEntity
  8
0
100
AcDbCircle
 10
14.99999999999977
 20
-303.9999999999963
 30
0.0
 40
9.000000000004035
100
AcDbArc
 50
180.0
 51
270.0
  0
ARC
  5
130
330
125
100
AcDbEntity
  8
0
100
AcDbCircle
 10
14.99999999999977
 20
-303.9999999999963
 30
0.0
 40
15.00000000000398
100
AcDbArc
 50
180.0
 51
270.0
  0
LINE
  5
131
330
125
100
AcDbEntity
  8
0
100
AcDbLine
 10
15.0
 20
-313.0000000000003
 30
0.0
 11
60.0
 21
-313.0000007944777
 31
0.0
  0
LINE
  5
132
330
125
100
AcDbEntity
  8
0
100
AcDbLine
 10
60.0
 20
-319.0000000000002
 30
0.0
 11
14.99999999999977
 21
-319.0000000000002
 31
0.0
  0
LINE
  5
133
330
125
100
AcDbEntity
  8
0
100
AcDbLine
 10
155.4995466597106
 20
-319.9302717610216
 30
0.0
 11
175.4995466597106
 21
-319.9302717610218
 31
0.0
  0
LINE
  5
134
330
125
100
AcDbEntity
  8
03-01
100
AcDbLine
 10
155.4995466597108
 20
-308.0000007944774
 30
0.0
 11
175.4995466597108
 21
-308.0000007944777
 31
0.0
  0
LINE
  5
138
330
125
100
AcDbEntity
  8
0
100
AcDbLine
 10
175.4995466597108
 20
-307.4000007944777
 30
0.0
 11
155.4995466597108
 21
-307.4000007944775
 31
0.0
  0
LINE
  5
139
330
125
100
AcDbEntity
  8
03-01
100
AcDbLine
 10
175.4995466597101
 20
-352.0253257925323
 30
0.0
 11
155.4995466597102
 21
-352.025325792532
 31
0.0
  0
LINE
  5
13A
330
125
100
AcDbEntity
  8
0
100
AcDbLine
 10
155.4995466597108
 20
-307.4000007944775
 30
0.0
 11
155.4995466597102
 21
-352.025325792532
 31
0.0
  0
LINE
  5
13B
330
125
100
AcDbEntity
  8
0
100
AcDbLine
 10
175.4995466597108
 20
-307.4000007944777
 30
0.0
 11
175.4995466597101
 21
-352.0253257925323
 31
0.0
  0
LINE
  5
13C
330
125
100
AcDbEntity
  8
0
100
AcDbLine
 10
155.4995466597102
 20
-352.025325792532
 30
0.0
 11
155.4995466597102
 21
-352.7491036348738
 31
0.0
  0
LINE
  5
13D
330
125
100
AcDbEntity
  8
0
100
AcDbLine
 10
175.4995466597101
 20
-352.7491036348741
 30
0.0
 11
175.4995466597101
 21
-352.0253257925323
 31
0.0
  0
LINE
  5
13E
330
125
100
AcDbEntity
  8
0
100
AcDbLine
 10
-0.7999999999999546
 20
10.0
 30
0.0
 11
0.0
 21
10.0
 31
0.0
  0
LINE
  5
13F
330
125
100
AcDbEntity
  8
0
100
AcDbLine
 10
-0.7999999999999546
 20
0.0
 30
0.0
 11
0.0
 21
0.0
 31
0.0
  0
LINE
  5
140
330
125
100
AcDbEntity
  8
0
100
AcDbLine
 10
0.0
 20
10.0
 30
0.0
 11
0.0
 21
0.0
 31
0.0
  0
LINE
  5
141
330
125
100
AcDbEntity
  8
0
100
AcDbLine
 10
-0.7999999999999546
 20
10.0
 30
0.0
 11
-0.7999999999999546
 21
0.0
 31
0.0
  0
CIRCLE
  5
142
330
125
100
AcDbEntity
  8
0
100
AcDbCircle
 10
8.999999999995907
 20
-283.9999999999962
 30
0.0
 40
3.000000000000015
  0
LINE
  5
143
330
125
100
AcDbEntity
  8
0
100
AcDbLine
 10
60.0
 20
-313.0000007944777
 30
0.0
 11
99.9995466597104
 21
-313.0000007944777
 31
0.0
  0
ARC
  5
144
330
125
100
AcDbEntity
  8
0
100
AcDbCircle
 10
73.4995466597104
 20
-311.5000007944778
 30
0.0
 40
1.49999999999995
100
AcDbArc
 50
180.0
 51
270.0
  0
LINE
  5
145
330
125
100
AcDbEntity
  8
0
100
AcDbLine
 10
257.4995466597104
 20
-308.0000007944777
 30
0.0
 11
175.4995466597108
 21
-308.0000007944777
 31
0.0
  0
LINE
  5
146
330
125
100
AcDbEntity
  8
0
100
AcDbLine
 10
155.4995466597108
 20
-308.0000007944777
 30
0.0
 11
73.4995466597104
 21
-308.0000007944777
 31
0.0
  0
LINE
  5
147
330
125
100
AcDbEntity
  8
0
100
AcDbLine
 10
230.9995466597106
 20
-313.0000007944777
 30
0.0
 11
257.4995466597104
 21
-313.0000007944777
 31
0.0
  0
ARC
  5
148
330
125
100
AcDbEntity
  8
0
100
AcDbCircle
 10
257.4995466597104
 20
-311.5000007944778
 30
0.0
 40
1.500000000000003
100
AcDbArc
 50
270.0
 51
0.0
  0
ARC
  5
149
330
125
100
AcDbEntity
  8
0
100
AcDbCircle
 10
257.4995466597104
 20
-309.5000007944778
 30
0.0
 40
1.500000000000056
100
AcDbArc
 50
0.0
 51
90.0
  0
ARC
  5
14A
330
125
100
AcDbEntity
  8
0
100
AcDbCircle
 10
73.4995466597104
 20
-309.5000007944778
 30
0.0
 40
1.500000000000056
100
AcDbArc
 50
90.0
 51
180.0
  0
LINE
  5
14B
330
125
100
AcDbEntity
  8
0
100
AcDbLine
 10
71.99954665971063
 20
-309.5000007944778
 30
0.0
 11
71.99954665971063
 21
-311.5000007944778
 31
0.0
  0
LINE
  5
14C
330
125
100
AcDbEntity
  8
0
100
AcDbLine
 10
258.9995466597104
 20
-309.5000007944778
 30
0.0
 11
258.9995466597104
 21
-311.5000007944778
 31
0.0
  0
LINE
  5
14D
330
125
100
AcDbEntity
  8
0
100
AcDbLine
 10
99.9995466597104
 20
-313.0000007944777
 30
0.0
 11
155.4995466597106
 21
-313.0000007944777
 31
0.0
  0
LINE
  5
14E
330
125
100
AcDbEntity
  8
0
100
AcDbLine
 10
175.4995466597106
 20
-313.0000007944777
 30
0.0
 11
230.9995466597106
 21
-313.0000007944777
 31
0.0
  0
LINE
  5
14F
330
125
100
AcDbEntity
  8
0
100
AcDbLine
 10
242.6123499198402
 20
-338.1042425143858
 30
0.0
 11
249.565725254113
 21
-319.000000794479
 31
0.0
  0
LINE
  5
150
330
125
100
AcDbEntity
  8
0
100
AcDbLine
 10
88.38674339958084
 20
-338.1042425143858
 30
0.0
 11
81.43336806530806
 21
-319.000000794479
 31
0.0
  0
LINE
  5
151
330
125
100
AcDbEntity
  8
0
100
AcDbLine
 10
232.9330063321386
 20
-345.8932633262058
 30
0.0
 11
232.9329023948885
 21
-345.8912474511707
 31
0.0
  0
ARC
  5
152
330
125
100
AcDbEntity
  8
0
100
AcDbCircle
 10
231.3360384704092
 20
-334.0000007944778
 30
0.0
 40
11.99999999999999
100
AcDbArc
 50
277.6476480877013
 51
340.0000000000046
  0
LINE
  5
153
330
125
100
AcDbEntity
  8
0
100
AcDbLine
 10
231.483244316101
 20
-345.9151873553566
 30
0.0
 11
230.9995466597106
 21
-345.9230305362102
 31
0.0
  0
ARC
  5
154
330
125
100
AcDbEntity
  8
0
100
AcDbCircle
 10
232.6326027063078
 20
-371.6101875860924
 30
0.0
 40
25.72069325594953
100
AcDbArc
 50
89.33103297402993
 51
92.56117984581267
  0
LINE
  5
155
330
125
100
AcDbEntity
  8
0
100
AcDbLine
 10
99.9995466597104
 20
-345.9230305362102
 30
0.0
 11
99.51584900332001
 21
-345.9151873553566
 31
0.0
  0
ARC
  5
156
330
125
100
AcDbEntity
  8
0
100
AcDbCircle
 10
99.66305484901182
 20
-334.0000007944778
 30
0.0
 40
11.99999999999998
100
AcDbArc
 50
199.9999999999953
 51
262.3523519122987
  0
LINE
  5
157
330
125
100
AcDbEntity
  8
0
100
AcDbLine
 10
98.06619092453253
 20
-345.8912474511707
 30
0.0
 11
98.06608698728247
 21
-345.8932633262058
 31
0.0
  0
ARC
  5
158
330
125
100
AcDbEntity
  8
0
100
AcDbCircle
 10
98.46985638324282
 20
-365.3509719027582
 30
0.0
 40
19.46391074615458
100
AcDbArc
 50
86.91943476171021
 51
91.18835241843461
  0
ARC
  5
159
330
125
100
AcDbEntity
  8
0
100
AcDbCircle
 10
232.9994998374484
 20
-346.3867451418013
 30
0.0
 40
0.4999531785835548
100
AcDbArc
 50
97.6549729008258
 51
179.9966673728264
  0
ARC
  5
15A
330
125
100
AcDbEntity
  8
0
100
AcDbCircle
 10
97.99959348197262
 20
-346.3867451418013
 30
0.0
 40
0.499953178583538
100
AcDbArc
 50
0.0033326271735177
 51
82.34502709917421
  0
LINE
  5
15B
330
125
100
AcDbEntity
  8
0
100
AcDbLine
 10
98.99954665971041
 20
-347.0000007944778
 30
0.0
 11
99.49954665971041
 21
-347.0000007944778
 31
0.0
  0
ARC
  5
15C
330
125
100
AcDbEntity
  8
0
100
AcDbCircle
 10
98.99954665971041
 20
-346.5000007944778
 30
0.0
 40
0.4999999999999716
100
AcDbArc
 50
180.0
 51
270.0
  0
LINE
  5
15D
330
125
100
AcDbEntity
  8
0
100
AcDbLine
 10
99.49954665971041
 20
-347.0000007944778
 30
0.0
 11
155.4995466597104
 21
-347.0000007944778
 31
0.0
  0
LINE
  5
15E
330
125
100
AcDbEntity
  8
0
100
AcDbLine
 10
175.4995466597104
 20
-347.0000007944778
 30
0.0
 11
231.4995466597104
 21
-347.0000007944778
 31
0.0
  0
LINE
  5
15F
330
125
100
AcDbEntity
  8
0
100
AcDbLine
 10
98.4995466597104
 20
-346.5000007944778
 30
0.0
 11
98.4995466597104
 21
-346.3867160618662
 31
0.0
  0
LINE
  5
160
330
125
100
AcDbEntity
  8
0
100
AcDbLine
 10
232.4995466597104
 20
-346.5000007944778
 30
0.0
 11
232.4995466597104
 21
-346.3867160618662
 31
0.0
  0
LINE
  5
161
330
125
100
AcDbEntity
  8
0
100
AcDbLine
 10
231.4995466597104
 20
-347.0000007944778
 30
0.0
 11
231.9995466597104
 21
-347.0000007944778
 31
0.0
  0
ARC
  5
162
330
125
100
AcDbEntity
  8
0
100
AcDbCircle
 10
231.9995466597104
 20
-346.5000007944778
 30
0.0
 40
0.5000000000000071
100
AcDbArc
 50
270.0
 51
0.0
  0
ARC
  5
163
330
125
100
AcDbEntity
  8
0
100
AcDbCircle
 10
232.9995466597104
 20
-346.3888159316945
 30
0.0
 40
0.5000000000000428
100
AcDbArc
 50
97.64764808770125
 51
180.0
  0
LINE
  5
164
330
125
100
AcDbEntity
  8
0
100
AcDbLine
 10
232.4995466597104
 20
-346.3867160618662
 30
0.0
 11
232.4995466597104
 21
-346.3888159316945
 31
0.0
  0
ARC
  5
165
330
125
100
AcDbEntity
  8
0
100
AcDbCircle
 10
97.99954665971041
 20
-346.3888159316945
 30
0.0
 40
0.5000000000000453
100
AcDbArc
 50
0.0
 51
82.35235191229874
  0
LINE
  5
166
330
125
100
AcDbEntity
  8
0
100
AcDbLine
 10
98.4995466597104
 20
-346.3888159316945
 30
0.0
 11
98.4995466597104
 21
-346.3867160618662
 31
0.0
  0
ARC
  5
167
330
125
100
AcDbEntity
  8
0
100
AcDbCircle
 10
255.9995466597104
 20
-316.0000007944788
 30
0.0
 40
3.000000000000113
100
AcDbArc
 50
270.0
 51
90.0
  0
ARC
  5
168
330
125
100
AcDbEntity
  8
0
100
AcDbCircle
 10
2.999999999996134
 20
7.999999999999772
 30
0.0
 40
3.000000000000042
100
AcDbArc
 50
0.0
 51
180.0
  0
LINE
  5
169
330
125
100
AcDbEntity
  8
0
100
AcDbLine
 10
71.9995466597104
 20
-309.5000007944778
 30
0.0
 11
155.4995466597106
 21
-309.5000007944778
 31
0.0
  0
LINE
  5
16A
330
125
100
AcDbEntity
  8
0
100
AcDbLine
 10
175.4995466597108
 20
-309.5000007944778
 30
0.0
 11
258.9995466597106
 21
-309.5000007944778
 31
0.0
  0
LINE
  5
16B
330
125
100
AcDbEntity
  8
0
100
AcDbLine
 10
258.9995466597104
 20
-311.5000007944778
 30
0.0
 11
175.4995466597106
 21
-311.5000007944778
 31
0.0
  0
LINE
  5
16C
330
125
100
AcDbEntity
  8
0
100
AcDbLine
 10
155.4995466597106
 20
-311.5000007944778
 30
0.0
 11
71.99954665971063
 21
-311.5000007944778
 31
0.0
  0
LINE
  5
16D
330
125
100
AcDbEntity
  8
0
100
AcDbLine
 10
230.9995466597106
 20
-345.9230305362102
 30
0.0
 11
175.4995466597101
 21
-345.9230305362102
 31
0.0
  0
LINE
  5
16E
330
125
100
AcDbEntity
  8
0
100
AcDbLine
 10
155.4995466597104
 20
-345.9230305362102
 30
0.0
 11
99.9995466597104
 21
-345.9230305362102
 31
0.0
  0
LINE
  5
16F
330
125
100
AcDbEntity
  8
0
100
AcDbLine
 10
60.0
 20
-319.0000000000002
 30
0.0
 11
60.0
 21
-313.0000007944777
 31
0.0
  0
LINE
  5
170
330
125
100
AcDbEntity
  8
03-01
100
AcDbLine
 10
155.4995466597106
 20
-319.3302717610219
 30
0.0
 11
175.4995466597106
 21
-319.3302717610219
 31
0.0
  0
ARC
  5
171
330
125
100
AcDbEntity
  8
03-01
100
AcDbCircle
 10
2.999999999996134
 20
7.999999999999772
 30
0.0
 40
3.000000000000042
100
AcDbArc
 50
180.0
 51
0.0
  0
ENDBLK
  5
172
330
125
100
AcDbEntity
  8
0
100
AcDbBlockEnd
  0
BLOCK
  5
119
330
118
100
AcDbEntity
  8
0
100
AcDbBlockBegin
  2
*D12
 70
     1
 10
0.0
 20
0.0
 30
0.0
  3
*D12
  1

  0
LINE
  5
11A
330
118
100
AcDbEntity
  8
0
 62
     4
370
    -2
100
AcDbLine
 10
626.3642419485206
 20
182.3167921870107
 30
0.0
 11
626.3642419485206
 21
122.4110774519447
 31
0.0
  0
LINE
  5
11B
330
118
100
AcDbEntity
  8
0
 62
     4
370
    -2
100
AcDbLine
 10
366.5646952888108
 20
291.8167929814885
 30
0.0
 11
366.5646952888108
 21
122.4110774519447
 31
0.0
  0
LINE
  5
11C
330
118
100
AcDbEntity
  8
0
 62
     4
370
    -2
100
AcDbLine
 10
621.3642419485206
 20
124.4110774519447
 30
0.0
 11
371.5646952888107
 21
124.4110774519447
 31
0.0
  0
SOLID
  5
11D
330
118
100
AcDbEntity
  8
0
 62
     4
100
AcDbTrace
 10
621.3642419485206
 20
125.244410785278
 30
0.0
 11
621.3642419485206
 21
123.5777441186113
 31
0.0
 12
626.3642419485206
 22
124.4110774519447
 32
0.0
 13
626.3642419485206
 23
124.4110774519447
 33
0.0
  0
SOLID
  5
11E
330
118
100
AcDbEntity
  8
0
 62
     4
100
AcDbTrace
 10
371.5646952888107
 20
125.244410785278
 30
0.0
 11
371.5646952888107
 21
123.5777441186113
 31
0.0
 12
366.5646952888108
 22
124.4110774519447
 32
0.0
 13
366.5646952888108
 23
124.4110774519447
 33
0.0
  0
MTEXT
  5
11F
330
118
100
AcDbEntity
  8
0
 62
     1
100
AcDbMText
 10
496.4644686186657
 20
128.9110774519447
 30
0.0
 40
5.0
 41
0.0
 46
0.0
 71
     5
 72
     1
  1
260
 73
     1
 44
1.0
  0
POINT
  5
120
330
118
100
AcDbEntity
  8
Defpoints
 62
     0
100
AcDbPoint
 10
626.3642419485206
 20
184.3167921870107
 30
0.0
  0
POINT
  5
121
330
118
100
AcDbEntity
  8
Defpoints
 62
     0
100
AcDbPoint
 10
366.5646952888108
 20
293.8167929814886
 30
0.0
  0
POINT
  5
122
330
118
100
AcDbEntity
  8
Defpoints
 62
     0
100
AcDbPoint
 10
366.5646952888108
 20
124.4110774519447
 30
0.0
  0
ENDBLK
  5
123
330
118
100
AcDbEntity
  8
0
100
AcDbBlockEnd
  0
BLOCK
  5
10C
330
10B
100
AcDbEntity
  8
0
100
AcDbBlockBegin
  2
*D13
 70
     1
 10
0.0
 20
0.0
 30
0.0
  3
*D13
  1

  0
LINE
  5
10D
330
10B
100
AcDbEntity
  8
0
 62
     4
370
    -2
100
AcDbLine
 10
421.5646952888103
 20
500.8167929814885
 30
0.0
 11
646.2891203528441
 21
500.8167929814884
 31
0.0
  0
LINE
  5
10E
330
10B
100
AcDbEntity
  8
0
 62
     4
370
    -2
100
AcDbLine
 10
626.8642419485206
 20
187.8167921870108
 30
0.0
 11
646.2891203528439
 21
187.8167921870108
 31
0.0
  0
LINE
  5
10F
330
10B
100
AcDbEntity
  8
0
 62
     4
370
    -2
100
AcDbLine
 10
644.289120352844
 20
495.8167929814885
 30
0.0
 11
644.2891203528439
 21
192.8167921870108
 31
0.0
  0
SOLID
  5
110
330
10B
100
AcDbEntity
  8
0
 62
     4
100
AcDbTrace
 10
643.4557870195106
 20
495.8167929814885
 30
0.0
 11
645.1224536861774
 21
495.8167929814885
 31
0.0
 12
644.289120352844
 22
500.8167929814884
 32
0.0
 13
644.289120352844
 23
500.8167929814884
 33
0.0
  0
SOLID
  5
111
330
10B
100
AcDbEntity
  8
0
 62
     4
100
AcDbTrace
 10
643.4557870195106
 20
192.8167921870108
 30
0.0
 11
645.1224536861773
 21
192.8167921870108
 31
0.0
 12
644.2891203528439
 22
187.8167921870108
 32
0.0
 13
644.2891203528439
 23
187.8167921870108
 33
0.0
  0
MTEXT
  5
112
330
10B
100
AcDbEntity
  8
0
 62
     1
100
AcDbMText
 10
639.7891203528439
 20
344.3167925842498
 30
0.0
 40
5.0
 41
0.0
 46
0.0
 71
     5
 72
     1
  1
313
 11
0.0000000000000001
 21
1.0
 31
0.0
 73
     1
 44
1.0
  0
POINT
  5
113
330
10B
100
AcDbEntity
  8
Defpoints
 62
     0
100
AcDbPoint
 10
419.5646952888102
 20
500.8167929814885
 30
0.0
  0
POINT
  5
114
330
10B
100
AcDbEntity
  8
Defpoints
 62
     0
100
AcDbPoint
 10
624.8642419485206
 20
187.8167921870108
 30
0.0
  0
POINT
  5
115
330
10B
100
AcDbEntity
  8
Defpoints
 62
     0
100
AcDbPoint
 10
644.2891203528439
 20
187.8167921870108
 30
0.0
  0
ENDBLK
  5
116
330
10B
100
AcDbEntity
  8
0
100
AcDbBlockEnd
  0
BLOCK
  5
FF
330
FE
100
AcDbEntity
  8
0
100
AcDbBlockBegin
  2
*D14
 70
     1
 10
0.0
 20
0.0
 30
0.0
  3
*D14
  1

  0
LINE
  5
100
330
FE
100
AcDbEntity
  8
0
 62
     4
370
    -2
100
AcDbLine
 10
626.8642419485206
 20
187.8167921870108
 30
0.0
 11
646.2891203528439
 21
187.8167921870108
 31
0.0
  0
LINE
  5
101
330
FE
100
AcDbEntity
  8
0
 62
     4
370
    -2
100
AcDbLine
 10
600.8642419485206
 20
148.8167921870107
 30
0.0
 11
646.2891203528439
 21
148.8167921870107
 31
0.0
  0
LINE
  5
102
330
FE
100
AcDbEntity
  8
0
 62
     4
370
    -2
100
AcDbLine
 10
644.2891203528439
 20
182.8167921870108
 30
0.0
 11
644.2891203528439
 21
153.8167921870107
 31
0.0
  0
SOLID
  5
103
330
FE
100
AcDbEntity
  8
0
 62
     4
100
AcDbTrace
 10
643.4557870195106
 20
182.8167921870108
 30
0.0
 11
645.1224536861773
 21
182.8167921870108
 31
0.0
 12
644.2891203528439
 22
187.8167921870108
 32
0.0
 13
644.2891203528439
 23
187.8167921870108
 33
0.0
  0
SOLID
  5
104
330
FE
100
AcDbEntity
  8
0
 62
     4
100
AcDbTrace
 10
643.4557870195106
 20
153.8167921870107
 30
0.0
 11
645.1224536861773
 21
153.8167921870107
 31
0.0
 12
644.2891203528439
 22
148.8167921870107
 32
0.0
 13
644.2891203528439
 23
148.8167921870107
 33
0.0
  0
MTEXT
  5
105
330
FE
100
AcDbEntity
  8
0
 62
     1
100
AcDbMText
 10
639.7891203528439
 20
168.3167921870109
 30
0.0
 40
5.0
 41
0.0
 46
0.0
 71
     5
 72
     1
  1
39
 11
0.0000000000000001
 21
1.0
 31
0.0
 73
     1
 44
1.0
  0
POINT
  5
106
330
FE
100
AcDbEntity
  8
Defpoints
 62
     0
100
AcDbPoint
 10
624.8642419485206
 20
187.8167921870108
 30
0.0
  0
POINT
  5
107
330
FE
100
AcDbEntity
  8
Defpoints
 62
     0
100
AcDbPoint
 10
598.8642419485207
 20
148.8167921870107
 30
0.0
  0
POINT
  5
108
330
FE
100
AcDbEntity
  8
Defpoints
 62
     0
100
AcDbPoint
 10
644.2891203528439
 20
148.8167921870107
 30
0.0
  0
ENDBLK
  5
109
330
FE
100
AcDbEntity
  8
0
100
AcDbBlockEnd
  0
BLOCK
  5
F2
330
F1
100
AcDbEntity
  8
0
100
AcDbBlockBegin
  2
*D15
 70
     1
 10
0.0
 20
0.0
 30
0.0
  3
*D15
  1

  0
LINE
  5
F3
330
F1
100
AcDbEntity
  8
0
 62
     4
370
    -2
100
AcDbLine
 10
626.8642419485206
 20
187.8167921870108
 30
0.0
 11
662.2182510683662
 21
187.8167921870108
 31
0.0
  0
LINE
  5
F4
330
F1
100
AcDbEntity
  8
0
 62
     4
370
    -2
100
AcDbLine
 10
544.8642419485204
 20
143.0676893466144
 30
0.0
 11
662.2182510683662
 21
143.0676893466144
 31
0.0
  0
LINE
  5
F5
330
F1
100
AcDbEntity
  8
0
 62
     4
370
    -2
100
AcDbLine
 10
660.2182510683662
 20
182.8167921870108
 30
0.0
 11
660.2182510683662
 21
148.0676893466144
 31
0.0
  0
SOLID
  5
F6
330
F1
100
AcDbEntity
  8
0
 62
     4
100
AcDbTrace
 10
659.3849177350328
 20
182.8167921870108
 30
0.0
 11
661.0515844016996
 21
182.8167921870108
 31
0.0
 12
660.2182510683662
 22
187.8167921870108
 32
0.0
 13
660.2182510683662
 23
187.8167921870108
 33
0.0
  0
SOLID
  5
F7
330
F1
100
AcDbEntity
  8
0
 62
     4
100
AcDbTrace
 10
659.3849177350328
 20
148.0676893466144
 30
0.0
 11
661.0515844016996
 21
148.0676893466144
 31
0.0
 12
660.2182510683662
 22
143.0676893466144
 32
0.0
 13
660.2182510683662
 23
143.0676893466144
 33
0.0
  0
MTEXT
  5
F8
330
F1
100
AcDbEntity
  8
0
 62
     1
100
AcDbMText
 10
655.7182510683662
 20
165.4422407668127
 30
0.0
 40
5.0
 41
0.0
 46
0.0
 71
     5
 72
     1
  1
44.7
 11
0.0000000000000001
 21
1.0
 31
0.0
 73
     1
 44
1.0
  0
POINT
  5
F9
330
F1
100
AcDbEntity
  8
Defpoints
 62
     0
100
AcDbPoint
 10
624.8642419485206
 20
187.8167921870108
 30
0.0
  0
POINT
  5
FA
330
F1
100
AcDbEntity
  8
Defpoints
 62
     0
100
AcDbPoint
 10
542.8642419485204
 20
143.0676893466144
 30
0.0
  0
POINT
  5
FB
330
F1
100
AcDbEntity
  8
Defpoints
 62
     0
100
AcDbPoint
 10
660.2182510683662
 20
143.0676893466144
 30
0.0
  0
ENDBLK
  5
FC
330
F1
100
AcDbEntity
  8
0
100
AcDbBlockEnd
  0
BLOCK
  5
E5
330
E4
100
AcDbEntity
  8
0
100
AcDbBlockBegin
  2
*D16
 70
     1
 10
0.0
 20
0.0
 30
0.0
  3
*D16
  1

  0
LINE
  5
E6
330
E4
100
AcDbEntity
  8
0
 62
     4
370
    -2
100
AcDbLine
 10
626.3642419485209
 20
188.3167921870107
 30
0.0
 11
626.3642419485209
 21
199.6823211457915
 31
0.0
  0
LINE
  5
E7
330
E4
100
AcDbEntity
  8
0
 62
     4
370
    -2
100
AcDbLine
 10
439.3642419485206
 20
188.3167921870107
 30
0.0
 11
439.3642419485206
 21
199.6823211457915
 31
0.0
  0
LINE
  5
E8
330
E4
100
AcDbEntity
  8
0
 62
     4
370
    -2
100
AcDbLine
 10
621.3642419485209
 20
197.6823211457915
 30
0.0
 11
444.3642419485206
 21
197.6823211457915
 31
0.0
  0
SOLID
  5
E9
330
E4
100
AcDbEntity
  8
0
 62
     4
100
AcDbTrace
 10
621.3642419485209
 20
198.5156544791248
 30
0.0
 11
621.3642419485209
 21
196.8489878124582
 31
0.0
 12
626.3642419485209
 22
197.6823211457915
 32
0.0
 13
626.3642419485209
 23
197.6823211457915
 33
0.0
  0
SOLID
  5
EA
330
E4
100
AcDbEntity
  8
0
 62
     4
100
AcDbTrace
 10
444.3642419485206
 20
198.5156544791248
 30
0.0
 11
444.3642419485206
 21
196.8489878124582
 31
0.0
 12
439.3642419485206
 22
197.6823211457915
 32
0.0
 13
439.3642419485206
 23
197.6823211457915
 33
0.0
  0
MTEXT
  5
EB
330
E4
100
AcDbEntity
  8
0
 62
     1
100
AcDbMText
 10
532.8642419485207
 20
202.1823211457915
 30
0.0
 40
5.0
 41
0.0
 46
0.0
 71
     5
 72
     1
  1
187
 73
     1
 44
1.0
  0
POINT
  5
EC
330
E4
100
AcDbEntity
  8
Defpoints
 62
     0
100
AcDbPoint
 10
626.3642419485209
 20
186.3167921870107
 30
0.0
  0
POINT
  5
ED
330
E4
100
AcDbEntity
  8
Defpoints
 62
     0
100
AcDbPoint
 10
439.3642419485206
 20
186.3167921870107
 30
0.0
  0
POINT
  5
EE
330
E4
100
AcDbEntity
  8
Defpoints
 62
     0
100
AcDbPoint
 10
439.3642419485206
 20
197.6823211457915
 30
0.0
  0
ENDBLK
  5
EF
330
E4
100
AcDbEntity
  8
0
100
AcDbBlockEnd
  0
BLOCK
  5
77
330
76
100
AcDbEntity
  8
0
100
AcDbBlockBegin
  2
*D17
 70
     1
 10
0.0
 20
0.0
 30
0.0
  3
*D17
  1

  0
LINE
  5
78
330
76
100
AcDbEntity
  8
0
 62
     4
370
    -2
100
AcDbLine
 10
62.69548595756919
 20
186.3167921870107
 30
0.0
 11
62.69548595756919
 21
199.3747373229464
 31
0.0
  0
LINE
  5
79
330
76
100
AcDbEntity
  8
0
 62
     4
370
    -2
100
AcDbLine
 10
211.1954859575692
 20
186.316792187011
 30
0.0
 11
211.1954859575692
 21
199.3747373229464
 31
0.0
  0
LINE
  5
7A
330
76
100
AcDbEntity
  8
0
 62
     4
370
    -2
100
AcDbLine
 10
67.69548595756919
 20
197.3747373229464
 30
0.0
 11
206.1954859575692
 21
197.3747373229464
 31
0.0
  0
SOLID
  5
7B
330
76
100
AcDbEntity
  8
0
 62
     4
100
AcDbTrace
 10
67.69548595756919
 20
198.2080706562797
 30
0.0
 11
67.69548595756919
 21
196.541403989613
 31
0.0
 12
62.69548595756919
 22
197.3747373229464
 32
0.0
 13
62.69548595756919
 23
197.3747373229464
 33
0.0
  0
SOLID
  5
7C
330
76
100
AcDbEntity
  8
0
 62
     4
100
AcDbTrace
 10
206.1954859575692
 20
198.2080706562797
 30
0.0
 11
206.1954859575692
 21
196.541403989613
 31
0.0
 12
211.1954859575692
 22
197.3747373229464
 32
0.0
 13
211.1954859575692
 23
197.3747373229464
 33
0.0
  0
MTEXT
  5
7D
330
76
100
AcDbEntity
  8
0
 62
     1
100
AcDbMText
 10
136.9454859575692
 20
201.8747373229464
 30
0.0
 40
5.0
 41
0.0
 46
0.0
 71
     5
 72
     1
  1
148.5
 73
     1
 44
1.0
  0
POINT
  5
7E
330
76
100
AcDbEntity
  8
Defpoints
 62
     0
100
AcDbPoint
 10
62.69548595756919
 20
184.3167921870107
 30
0.0
  0
POINT
  5
80
330
76
100
AcDbEntity
  8
Defpoints
 62
     0
100
AcDbPoint
 10
211.1954859575692
 20
184.316792187011
 30
0.0
  0
POINT
  5
81
330
76
100
AcDbEntity
  8
Defpoints
 62
     0
100
AcDbPoint
 10
211.1954859575692
 20
197.3747373229464
 30
0.0
  0
ENDBLK
  5
82
330
76
100
AcDbEntity
  8
0
100
AcDbBlockEnd
  0
ENDSEC
  0
SECTION
  2
ENTITIES
  0
TEXT
  5
73
330
2
100
AcDbEntity
  8
02-01
100
AcDbText
 10
31.6811893362231
 20
29.10269442429896
 30
0.0
 40
8.0
  1
Auffangschale Sonderzubehör: Ident Nr. 727130
100
AcDbText
  0
DIMENSION
  5
75
330
2
100
AcDbEntity
  8
0
100
AcDbDimension
280
     0
  2
*D17
 10
211.1954859575692
 20
197.3747373229464
 30
0.0
 11
136.9454859575692
 21
201.8747373229464
 31
0.0
 71
     5
 42
148.5
 73
     0
 74
     0
 75
     0
  3
Wagner$0
100
AcDbAlignedDimension
 13
62.69548595756919
 23
184.3167921870107
 33
0.0
 14
211.1954859575692
 24
184.316792187011
 34
0.0
100
AcDbRotatedDimension
1001
ACAD
1000
DSTYLE
1002
{
1070
    40
1040
2.0
1002
}
  0
ARC
  5
84
330
2
100
AcDbEntity
  8
0
100
AcDbCircle
 10
206.9438474385288
 20
179.8167921870097
 30
0.0
 40
3.000000000000113
100
AcDbArc
 50
270.0
 51
90.0
  0
ARC
  5
85
330
2
100
AcDbEntity
  8
0
100
AcDbCircle
 10
66.94384743852902
 20
179.8167921870097
 30
0.0
 40
3.000000000000113
100
AcDbArc
 50
90.0
 51
270.0
  0
ARC
  5
86
330
2
100
AcDbEntity
  8
0
100
AcDbCircle
 10
184.9454859575692
 20
149.396969539373
 30
0.0
 40
0.4999999999999716
100
AcDbArc
 50
96.49293252668947
 51
180.0
  0
LINE
  5
87
330
2
100
AcDbEntity
  8
0
100
AcDbLine
 10
184.4454859575692
 20
149.396969539373
 30
0.0
 11
184.4454859575692
 21
149.4051395194287
 31
0.0
  0
ARC
  5
88
330
2
100
AcDbEntity
  8
0
100
AcDbCircle
 10
88.94548595756919
 20
149.396969539373
 30
0.0
 40
0.5000000000000427
100
AcDbArc
 50
0.0
 51
83.50706747329756
  0
LINE
  5
89
330
2
100
AcDbEntity
  8
0
100
AcDbLine
 10
89.44548595756918
 20
149.4051395194287
 30
0.0
 11
89.44548595756918
 21
149.396969539373
 31
0.0
  0
LINE
  5
8A
330
2
100
AcDbEntity
  8
0
100
AcDbLine
 10
183.9454859575692
 20
148.8167921870107
 30
0.0
 11
183.4454859575692
 21
148.8167921870107
 31
0.0
  0
ARC
  5
8B
330
2
100
AcDbEntity
  8
0
100
AcDbCircle
 10
183.9454859575692
 20
149.3167921870107
 30
0.0
 40
0.4999999999999716
100
AcDbArc
 50
270.0
 51
0.0
  0
LINE
  5
8C
330
2
100
AcDbEntity
  8
0
100
AcDbLine
 10
184.4454859575692
 20
149.3167921870107
 30
0.0
 11
184.4454859575692
 21
149.4051395194287
 31
0.0
  0
LINE
  5
8D
330
2
100
AcDbEntity
  8
0
100
AcDbLine
 10
183.4454859575692
 20
148.8167921870107
 30
0.0
 11
90.4454859575692
 21
148.8167921870107
 31
0.0
  0
LINE
  5
8E
330
2
100
AcDbEntity
  8
0
100
AcDbLine
 10
89.44548595756918
 20
149.3167921870107
 30
0.0
 11
89.44548595756918
 21
149.4051395194287
 31
0.0
  0
ARC
  5
8F
330
2
100
AcDbEntity
  8
0
100
AcDbCircle
 10
89.94548595756919
 20
149.3167921870107
 30
0.0
 40
0.4999999999999716
100
AcDbArc
 50
180.0
 51
270.0
  0
LINE
  5
90
330
2
100
AcDbEntity
  8
0
100
AcDbLine
 10
90.4454859575692
 20
148.8167921870107
 30
0.0
 11
89.94548595756919
 21
148.8167921870107
 31
0.0
  0
ARC
  5
91
330
2
100
AcDbEntity
  8
0
100
AcDbCircle
 10
88.94565789055628
 20
149.4050252580589
 30
0.0
 40
0.4998280800733774
100
AcDbArc
 50
0.0130978921936711
 51
83.46491112030834
  0
ARC
  5
92
330
2
100
AcDbEntity
  8
0
100
AcDbCircle
 10
184.9453140245825
 20
149.4050252580589
 30
0.0
 40
0.4998280800733774
100
AcDbArc
 50
96.53508887970497
 51
179.9869021078096
  0
ARC
  5
93
330
2
100
AcDbEntity
  8
0
100
AcDbCircle
 10
184.0106766272122
 20
140.6921420087398
 30
0.0
 40
9.251198147390933
100
AcDbArc
 50
84.55560275881387
 51
93.55428874964378
  0
LINE
  5
94
330
2
100
AcDbEntity
  8
0
100
AcDbLine
 10
184.8884277549361
 20
149.901605626132
 30
0.0
 11
184.8889456299973
 21
149.8937624452784
 31
0.0
  0
ARC
  5
95
330
2
100
AcDbEntity
  8
0
100
AcDbCircle
 10
183.531977768268
 20
161.8167921870107
 30
0.0
 40
12.00000000000003
100
AcDbArc
 50
276.4929325267024
 51
339.9999999999999
  0
LINE
  5
96
330
2
100
AcDbEntity
  8
0
100
AcDbLine
 10
183.1954859575692
 20
149.9235296552827
 30
0.0
 11
183.4371554244665
 21
149.9255455303179
 31
0.0
  0
LINE
  5
97
330
2
100
AcDbEntity
  8
0
100
AcDbLine
 10
90.69548595756941
 20
149.9235296552827
 30
0.0
 11
183.1954859575692
 21
149.9235296552827
 31
0.0
  0
ARC
  5
98
330
2
100
AcDbEntity
  8
0
100
AcDbCircle
 10
89.93043829594103
 20
137.6523988446458
 30
0.0
 40
12.28430113204419
100
AcDbArc
 50
87.55814831935333
 51
94.33196017217921
  0
LINE
  5
99
330
2
100
AcDbEntity
  8
0
100
AcDbLine
 10
90.4538164906719
 20
149.9255455303179
 30
0.0
 11
90.69548595756941
 21
149.9235296552827
 31
0.0
  0
ARC
  5
9A
330
2
100
AcDbEntity
  8
0
100
AcDbCircle
 10
90.3589941468706
 20
161.8167921870107
 30
0.0
 40
11.99999999999995
100
AcDbArc
 50
200.0000000000001
 51
263.5070674732976
  0
LINE
  5
9B
330
2
100
AcDbEntity
  8
0
100
AcDbLine
 10
89.00202628514149
 20
149.8937624452784
 30
0.0
 11
89.00254416020244
 21
149.901605626132
 31
0.0
  0
LINE
  5
9C
330
2
100
AcDbEntity
  8
0
100
AcDbLine
 10
194.808289217699
 20
157.7125504671028
 30
0.0
 11
201.7616645519717
 21
176.8167921870096
 31
0.0
  0
LINE
  5
9D
330
2
100
AcDbEntity
  8
0
100
AcDbLine
 10
79.08268269743962
 20
157.7125504671028
 30
0.0
 11
72.12930736316685
 21
176.8167921870096
 31
0.0
  0
LINE
  5
9E
330
2
100
AcDbEntity
  8
0
100
AcDbLine
 10
211.1954859575692
 20
186.3167921870107
 30
0.0
 11
211.1954859575692
 21
184.3167921870107
 31
0.0
  0
ARC
  5
9F
330
2
100
AcDbEntity
  8
0
100
AcDbCircle
 10
209.6954859575692
 20
184.3167921870107
 30
0.0
 40
1.500000000000056
100
AcDbArc
 50
270.0
 51
0.0
  0
ARC
  5
A0
330
2
100
AcDbEntity
  8
0
100
AcDbCircle
 10
209.6954859575692
 20
186.3167921870107
 30
0.0
 40
1.500000000000056
100
AcDbArc
 50
0.0
 51
90.0
  0
ARC
  5
A1
330
2
100
AcDbEntity
  8
0
100
AcDbCircle
 10
64.19548595756919
 20
186.3167921870107
 30
0.0
 40
1.500000000000056
100
AcDbArc
 50
90.0
 51
180.0
  0
LINE
  5
A2
330
2
100
AcDbEntity
  8
0
100
AcDbLine
 10
64.19548595756919
 20
187.8167921870108
 30
0.0
 11
209.6795619326813
 21
187.8167921870108
 31
0.0
  0
ARC
  5
A3
330
2
100
AcDbEntity
  8
0
100
AcDbCircle
 10
64.19548595756919
 20
184.3167921870107
 30
0.0
 40
1.499999999999985
100
AcDbArc
 50
180.0
 51
270.0
  0
LINE
  5
A4
330
2
100
AcDbEntity
  8
0
100
AcDbLine
 10
209.6954859575692
 20
182.8167921870109
 30
0.0
 11
64.19548595756919
 21
182.8167921870108
 31
0.0
  0
LINE
  5
A5
330
2
100
AcDbEntity
  8
0
100
AcDbLine
 10
211.1176153992908
 20
186.3167921870107
 30
0.0
 11
62.69548595756919
 21
186.3167921870107
 31
0.0
  0
LINE
  5
A6
330
2
100
AcDbEntity
  8
0
100
AcDbLine
 10
62.69548595756919
 20
186.3167921870107
 30
0.0
 11
62.69548595756919
 21
184.3167921870107
 31
0.0
  0
LINE
  5
A7
330
2
100
AcDbEntity
  8
0
100
AcDbLine
 10
62.69548595756919
 20
184.3167921870107
 30
0.0
 11
211.1954859575692
 21
184.316792187011
 31
0.0
  0
LINE
  5
A8
330
2
100
AcDbEntity
  8
0
100
AcDbLine
 10
183.4454859575689
 20
215.2957389282252
 30
0.0
 11
183.4454859575689
 21
209.2957389282252
 31
0.0
  0
LINE
  5
A9
330
2
100
AcDbEntity
  8
0
100
AcDbLine
 10
90.44548595756896
 20
215.2957389282252
 30
0.0
 11
90.44548595756896
 21
209.2957389282253
 31
0.0
  0
LINE
  5
AA
330
2
100
AcDbEntity
  8
0
100
AcDbLine
 10
96.44548595756875
 20
496.2957389282215
 30
0.0
 11
95.23728202506935
 21
496.2957389282214
 31
0.0
  0
LINE
  5
AB
330
2
100
AcDbEntity
  8
0
100
AcDbLine
 10
178.6536898900679
 20
496.2957389282214
 30
0.0
 11
177.4454859575687
 21
496.2957389282213
 31
0.0
  0
LINE
  5
AC
330
2
100
AcDbEntity
  8
0
100
AcDbLine
 10
203.6954859575678
 20
188.4167921870108
 30
0.0
 11
205.6954859575678
 21
188.4167921870108
 31
0.0
  0
LINE
  5
AD
330
2
100
AcDbEntity
  8
0
100
AcDbLine
 10
203.6954859575678
 20
187.8167921870109
 30
0.0
 11
203.6954859575678
 21
188.4167921870108
 31
0.0
  0
LINE
  5
AE
330
2
100
AcDbEntity
  8
0
100
AcDbLine
 10
68.19548595756782
 20
188.4167921870108
 30
0.0
 11
70.19548595756782
 21
188.4167921870108
 31
0.0
  0
LINE
  5
AF
330
2
100
AcDbEntity
  8
0
100
AcDbLine
 10
70.19548595756782
 20
188.4167921870108
 30
0.0
 11
70.19548595756782
 21
187.8167921870109
 31
0.0
  0
LINE
  5
B0
330
2
100
AcDbEntity
  8
0
100
AcDbLine
 10
63.23161408534065
 20
188.4167921870108
 30
0.0
 11
68.19548595756782
 21
188.4167921870108
 31
0.0
  0
ARC
  5
B1
330
2
100
AcDbEntity
  8
0
100
AcDbCircle
 10
63.23161408534065
 20
187.3167921870108
 30
0.0
 40
1.100000000000038
100
AcDbArc
 50
90.0
 51
176.5746449198134
  0
LINE
  5
B2
330
2
100
AcDbEntity
  8
0
100
AcDbLine
 10
61.51526036229211
 20
177.0522441507701
 30
0.0
 11
62.13357925145237
 21
187.3825151173141
 31
0.0
  0
ARC
  5
B3
330
2
100
AcDbEntity
  8
0
100
AcDbCircle
 10
62.61329519618062
 20
176.9865212204666
 30
0.0
 40
1.100000000000047
100
AcDbArc
 50
176.5746449198037
 51
270.0
  0
LINE
  5
B4
330
2
100
AcDbEntity
  8
0
100
AcDbLine
 10
69.59538218846296
 20
175.8865212204666
 30
0.0
 11
62.61329519618062
 21
175.8865212204666
 31
0.0
  0
ARC
  5
B5
330
2
100
AcDbEntity
  8
0
100
AcDbCircle
 10
69.59538218846296
 20
175.3865212204666
 30
0.0
 40
0.5000000000000048
100
AcDbArc
 50
20.00000000001039
 51
90.0
  0
LINE
  5
B6
330
2
100
AcDbEntity
  8
0
100
AcDbLine
 10
81.62713029220299
 20
143.7914671889563
 30
0.0
 11
70.06522849885573
 21
175.5575312921295
 31
0.0
  0
ARC
  5
B7
330
2
100
AcDbEntity
  8
0
100
AcDbCircle
 10
82.66079217506741
 20
144.1676893466144
 30
0.0
 40
1.100000000000001
100
AcDbArc
 50
200.0000000000001
 51
280.3865309822493
  0
ARC
  5
B8
330
2
100
AcDbEntity
  8
0
100
AcDbCircle
 10
136.9454859575678
 20
-151.9984498741616
 30
0.0
 40
300.0
100
AcDbArc
 50
79.61346901776408
 51
100.3865309822359
  0
ARC
  5
B9
330
2
100
AcDbEntity
  8
0
100
AcDbCircle
 10
191.230179740068
 20
144.1676893466144
 30
0.0
 40
1.100000000000068
100
AcDbArc
 50
259.6134690177641
 51
340.0000000000035
  0
LINE
  5
BA
330
2
100
AcDbEntity
  8
0
100
AcDbLine
 10
203.8257434162797
 20
175.5575312921295
 30
0.0
 11
192.2638416229326
 21
143.7914671889563
 31
0.0
  0
ARC
  5
BB
330
2
100
AcDbEntity
  8
0
100
AcDbCircle
 10
204.2955897266727
 20
175.3865212204666
 30
0.0
 40
0.5000000000001137
100
AcDbArc
 50
90.0
 51
159.9999999999896
  0
LINE
  5
BC
330
2
100
AcDbEntity
  8
0
100
AcDbLine
 10
211.2776767189548
 20
175.8865212204668
 30
0.0
 11
204.2955897266727
 21
175.8865212204668
 31
0.0
  0
ARC
  5
BD
330
2
100
AcDbEntity
  8
0
100
AcDbCircle
 10
211.2776767189548
 20
176.9865212204668
 30
0.0
 40
1.100000000000038
100
AcDbArc
 50
270.0
 51
3.425355080186553
  0
LINE
  5
BE
330
2
100
AcDbEntity
  8
0
100
AcDbLine
 10
211.7573926636833
 20
187.3825151173141
 30
0.0
 11
212.3757115528433
 21
177.0522441507701
 31
0.0
  0
ARC
  5
BF
330
2
100
AcDbEntity
  8
0
100
AcDbCircle
 10
210.6593578297946
 20
187.3167921870108
 30
0.0
 40
1.10000000000018
100
AcDbArc
 50
3.425355080186553
 51
90.0
  0
LINE
  5
C0
330
2
100
AcDbEntity
  8
0
100
AcDbLine
 10
205.6954859575678
 20
188.4167921870108
 30
0.0
 11
210.6593578297946
 21
188.4167921870108
 31
0.0
  0
LINE
  5
C1
330
2
100
AcDbEntity
  8
0
100
AcDbLine
 10
210.6593578297946
 20
187.8167921870108
 30
0.0
 11
209.6954859575692
 21
187.8167921870108
 31
0.0
  0
ARC
  5
C2
330
2
100
AcDbEntity
  8
0
100
AcDbCircle
 10
210.6593578297946
 20
187.3167921870108
 30
0.0
 40
0.5000000000000967
100
AcDbArc
 50
3.425355080189805
 51
90.0
  0
LINE
  5
C3
330
2
100
AcDbEntity
  8
0
100
AcDbLine
 10
211.7767834616314
 20
177.0163952796954
 30
0.0
 11
211.1584645724713
 21
187.3466662462397
 31
0.0
  0
ARC
  5
C4
330
2
100
AcDbEntity
  8
0
100
AcDbCircle
 10
211.2776767189548
 20
176.9865212204668
 30
0.0
 40
0.5000000000001137
100
AcDbArc
 50
270.0
 51
3.425355080173452
  0
LINE
  5
C5
330
2
100
AcDbEntity
  8
0
100
AcDbLine
 10
204.2955897266727
 20
176.4865212204666
 30
0.0
 11
211.2776767189548
 21
176.4865212204666
 31
0.0
  0
ARC
  5
C6
330
2
100
AcDbEntity
  8
0
100
AcDbCircle
 10
204.2955897266727
 20
175.3865212204666
 30
0.0
 40
1.099999999999994
100
AcDbArc
 50
90.0
 51
159.9999999999999
  0
LINE
  5
C7
330
2
100
AcDbEntity
  8
0
100
AcDbLine
 10
191.7000260504612
 20
143.9966792749517
 30
0.0
 11
203.261927843808
 21
175.7627433781249
 31
0.0
  0
ARC
  5
C8
330
2
100
AcDbEntity
  8
0
100
AcDbCircle
 10
191.230179740068
 20
144.1676893466145
 30
0.0
 40
0.5000000000001382
100
AcDbArc
 50
259.6134690177641
 51
339.9999999999999
  0
ARC
  5
C9
330
2
100
AcDbEntity
  8
0
100
AcDbCircle
 10
136.9454859575678
 20
-151.9984498741616
 30
0.0
 40
300.5999999999999
100
AcDbArc
 50
79.61346901776408
 51
100.3865309822359
  0
ARC
  5
CA
330
2
100
AcDbEntity
  8
0
100
AcDbCircle
 10
82.66079217506741
 20
144.1676893466144
 30
0.0
 40
0.4999999999999853
100
AcDbArc
 50
200.0000000000104
 51
280.3865309822493
  0
LINE
  5
CB
330
2
100
AcDbEntity
  8
0
100
AcDbLine
 10
70.62904407132737
 20
175.7627433781249
 30
0.0
 11
82.1909458646744
 21
143.9966792749516
 31
0.0
  0
ARC
  5
CC
330
2
100
AcDbEntity
  8
0
100
AcDbCircle
 10
69.59538218846296
 20
175.3865212204666
 30
0.0
 40
1.099999999999994
100
AcDbArc
 50
20.00000000000009
 51
90.0
  0
LINE
  5
CD
330
2
100
AcDbEntity
  8
0
100
AcDbLine
 10
62.61329519618062
 20
176.4865212204666
 30
0.0
 11
69.59538218846296
 21
176.4865212204666
 31
0.0
  0
ARC
  5
CE
330
2
100
AcDbEntity
  8
0
100
AcDbCircle
 10
62.61329519618062
 20
176.9865212204668
 30
0.0
 40
0.5000000000001137
100
AcDbArc
 50
176.5746449198265
 51
270.0
  0
LINE
  5
CF
330
2
100
AcDbEntity
  8
0
100
AcDbLine
 10
62.73250734266435
 20
187.3466662462397
 30
0.0
 11
62.11418845350408
 21
177.0163952796954
 31
0.0
  0
ARC
  5
D0
330
2
100
AcDbEntity
  8
0
100
AcDbCircle
 10
63.23161408534065
 20
187.3167921870108
 30
0.0
 40
0.5000000000001137
100
AcDbArc
 50
90.0
 51
176.5746449198102
  0
LINE
  5
D1
330
2
100
AcDbEntity
  8
0
100
AcDbLine
 10
64.19548595756919
 20
187.8167921870108
 30
0.0
 11
63.23161408534065
 21
187.8167921870109
 31
0.0
  0
LINE
  5
D2
330
2
100
AcDbEntity
  8
0
100
AcDbLine
 10
184.9454859575687
 20
187.8167921870108
 30
0.0
 11
184.9454859575687
 21
494.2957389282214
 31
0.0
  0
LINE
  5
D3
330
2
100
AcDbEntity
  8
0
100
AcDbLine
 10
178.9454859575687
 20
209.2957389282252
 30
0.0
 11
178.9454859575687
 21
187.8167921870108
 31
0.0
  0
LINE
  5
D4
330
2
100
AcDbEntity
  8
0
100
AcDbLine
 10
178.9454859575687
 20
494.2957389282214
 30
0.0
 11
178.9454859575687
 21
215.2957389282252
 31
0.0
  0
ARC
  5
D5
330
2
100
AcDbEntity
  8
0
100
AcDbCircle
 10
171.9454859575687
 20
494.2957389282214
 30
0.0
 40
12.99999999999997
100
AcDbArc
 50
0.0
 51
72.0797951434285
  0
ARC
  5
D6
330
2
100
AcDbEntity
  8
0
100
AcDbCircle
 10
171.9454859575687
 20
494.2957389282214
 30
0.0
 40
6.999999999999886
100
AcDbArc
 50
0.0
 51
38.2132107017367
  0
LINE
  5
D7
330
2
100
AcDbEntity
  8
0
100
AcDbLine
 10
102.9454861736355
 20
501.2957389282215
 30
0.0
 11
170.9454889378009
 21
501.2957389282213
 31
0.0
  0
LINE
  5
D8
330
2
100
AcDbEntity
  8
0
100
AcDbLine
 10
170.9454889378009
 20
507.2957389282212
 30
0.0
 11
102.9454861736355
 21
507.2957389282215
 31
0.0
  0
ARC
  5
D9
330
2
100
AcDbEntity
  8
0
100
AcDbCircle
 10
101.9454859575687
 20
494.2957389282214
 30
0.0
 40
13.00000000000011
100
AcDbArc
 50
107.9202126993672
 51
180.0
  0
ARC
  5
DA
330
2
100
AcDbEntity
  8
0
100
AcDbCircle
 10
101.9454859575687
 20
494.2957389282214
 30
0.0
 40
7.000000000000028
100
AcDbArc
 50
141.7867892982613
 51
180.0
  0
LINE
  5
DB
330
2
100
AcDbEntity
  8
0
100
AcDbLine
 10
88.94548595756873
 20
494.2957389282214
 30
0.0
 11
88.94548595756873
 21
187.8167921870108
 31
0.0
  0
LINE
  5
DC
330
2
100
AcDbEntity
  8
0
100
AcDbLine
 10
94.94548595756873
 20
215.2957389282252
 30
0.0
 11
94.94548595756873
 21
494.2957389282214
 31
0.0
  0
LINE
  5
DD
330
2
100
AcDbEntity
  8
0
100
AcDbLine
 10
94.94548595756873
 20
187.8167921870108
 30
0.0
 11
94.94548595756873
 21
209.2957389282253
 31
0.0
  0
LINE
  5
DE
330
2
100
AcDbEntity
  8
0
100
AcDbLine
 10
207.0013142683183
 20
182.8162417304215
 30
0.0
 11
206.972583489692
 21
182.8167921870108
 31
0.0
  0
LINE
  5
DF
330
2
100
AcDbEntity
  8
0
100
AcDbLine
 10
66.91511515319575
 20
182.8167921870108
 30
0.0
 11
66.88638813832108
 21
182.8162418746723
 31
0.0
  0
LINE
  5
E0
330
2
100
AcDbEntity
  8
0
100
AcDbLine
 10
66.94384743852902
 20
176.8167921870096
 30
0.0
 11
206.9438474385288
 21
176.8167921870096
 31
0.0
  0
LINE
  5
E1
330
2
100
AcDbEntity
  8
0
100
AcDbLine
 10
183.4454859575689
 20
215.2957389282252
 30
0.0
 11
90.44548595756896
 21
215.2957389282252
 31
0.0
  0
LINE
  5
E2
330
2
100
AcDbEntity
  8
0
100
AcDbLine
 10
90.44548595756896
 20
209.2957389282253
 30
0.0
 11
183.4454859575689
 21
209.2957389282252
 31
0.0
  0
DIMENSION
  5
E3
330
2
100
AcDbEntity
  8
0
100
AcDbDimension
280
     0
  2
*D16
 10
439.3642419485206
 20
197.6823211457915
 30
0.0
 11
532.8642419485207
 21
202.1823211457915
 31
0.0
 71
     5
 42
187.0000000000002
 73
     0
 74
     0
 75
     0
  3
Wagner$0
100
AcDbAlignedDimension
 13
626.3642419485209
 23
186.3167921870107
 33
0.0
 14
439.3642419485206
 24
186.3167921870107
 34
0.0
100
AcDbRotatedDimension
1001
ACAD
1000
DSTYLE
1002
{
1070
    40
1040
2.0
1002
}
  0
DIMENSION
  5
F0
330
2
100
AcDbEntity
  8
0
100
AcDbDimension
280
     0
  2
*D15
 10
660.2182510683662
 20
143.0676893466144
 30
0.0
 11
655.7182510683662
 21
165.4422407668127
 31
0.0
 71
     5
 42
44.74910284039643
 73
     0
 74
     0
 75
     0
  3
Wagner$0
100
AcDbAlignedDimension
 13
624.8642419485206
 23
187.8167921870108
 33
0.0
 14
542.8642419485204
 24
143.0676893466144
 34
0.0
 50
90.0
100
AcDbRotatedDimension
1001
ACAD
1000
DSTYLE
1002
{
1070
   271
1070
     1
1070
    40
1040
2.0
1002
}
  0
DIMENSION
  5
FD
330
2
100
AcDbEntity
  8
0
100
AcDbDimension
280
     0
  2
*D14
 10
644.2891203528439
 20
148.8167921870107
 30
0.0
 11
639.7891203528439
 21
168.3167921870109
 31
0.0
 71
     5
 42
39.00000000000011
 73
     0
 74
     0
 75
     0
  3
Wagner$0
100
AcDbAlignedDimension
 13
624.8642419485206
 23
187.8167921870108
 33
0.0
 14
598.8642419485207
 24
148.8167921870107
 34
0.0
 50
90.0
100
AcDbRotatedDimension
1001
ACAD
1000
DSTYLE
1002
{
1070
    40
1040
2.0
1002
}
  0
DIMENSION
  5
10A
330
2
100
AcDbEntity
  8
0
100
AcDbDimension
280
     0
  2
*D13
 10
644.2891203528439
 20
187.8167921870108
 30
0.0
 11
639.7891203528439
 21
344.3167925842498
 31
0.0
 71
     5
 42
313.0000007944777
 73
     0
 74
     0
 75
     0
  3
Wagner$0
100
AcDbAlignedDimension
 13
419.5646952888102
 23
500.8167929814885
 33
0.0
 14
624.8642419485206
 24
187.8167921870108
 34
0.0
 50
90.0
100
AcDbRotatedDimension
1001
ACAD
1000
DSTYLE
1002
{
1070
   271
1070
     1
1070
    40
1040
2.0
1002
}
  0
DIMENSION
  5
117
330
2
100
AcDbEntity
  8
0
100
AcDbDimension
280
     0
  2
*D12
 10
366.5646952888108
 20
124.4110774519447
 30
0.0
 11
496.4644686186657
 21
128.9110774519447
 31
0.0
 71
     5
 42
259.7995466597099
 73
     0
 74
     0
 75
     0
  3
Wagner$0
100
AcDbAlignedDimension
 13
626.3642419485206
 23
184.3167921870107
 33
0.0
 14
366.5646952888108
 24
293.8167929814886
 34
0.0
100
AcDbRotatedDimension
1001
ACAD
1000
DSTYLE
1002
{
1070
   271
1070
     0
1070
    40
1040
2.0
1002
}
  0
INSERT
  5
124
330
2
100
AcDbEntity
  8
0
100
AcDbBlockReference
  2
Auffangschale01-s
 10
367.3646952888102
 20
495.8167929814885
 30
0.0
  0
LINE
  5
173
330
2
100
AcDbEntity
  8
05-01
100
AcDbLine
 10
360.3523656136747
 20
476.8167929814892
 30
0.0
 11
376.9523656136732
 21
476.8167929814892
 31
0.0
  0
LINE
  5
177
330
2
100
AcDbEntity
  8
05-01
100
AcDbLine
 10
376.2622790887188
 20
307.8167929814888
 30
0.0
 11
359.6622790887202
 21
307.8167929814888
 31
0.0
  0
DIMENSION
  5
178
330
2
100
AcDbEntity
  8
0
100
AcDbDimension
280
     0
  2
*D10
 10
140.3454859575688
 20
328.3227062823305
 30
0.0
 11
157.2059458184178
 21
341.1298397445055
 31
0.0
 70
   128
 71
     5
 42
6.800000000000181
 73
     0
 74
     0
 75
     0
  3
Wagner$0
100
AcDbAlignedDimension
 13
133.5454859575686
 23
307.8167929814888
 33
0.0
 14
140.3454859575688
 24
307.8167929814888
 34
0.0
100
AcDbRotatedDimension
1001
ACAD
1000
DSTYLE
1002
{
1070
    40
1040
2.0
1002
}
  0
DIMENSION
  5
187
330
2
100
AcDbEntity
  8
0
100
AcDbDimension
280
     0
  2
*D9
 10
156.9454859575687
 20
513.6919778046746
 30
0.0
 11
136.9454859575687
 21
518.1919778046746
 31
0.0
 71
     5
 42
40.0
 73
     0
 74
     0
 75
     0
  3
Wagner$0
100
AcDbAlignedDimension
 13
116.9454859575687
 23
484.3667929814894
 33
0.0
 14
156.9454859575687
 24
484.3667929814894
 34
0.0
100
AcDbRotatedDimension
1001
ACAD
1000
DSTYLE
1002
{
1070
    40
1040
2.0
1002
}
  0
DIMENSION
  5
194
330
2
100
AcDbEntity
  8
0
100
AcDbDimension
280
     0
  2
*D8
 10
581.5646952888102
 20
564.4138727436
 30
0.0
 11
474.0646952888103
 21
568.9138727436
 31
0.0
 71
     5
 42
215.0
 73
     0
 74
     0
 75
     0
  3
Wagner$0
100
AcDbAlignedDimension
 13
366.5646952888103
 23
495.8167929814885
 33
0.0
 14
581.5646952888102
 24
548.3167929814885
 34
0.0
100
AcDbRotatedDimension
1001
ACAD
1000
DSTYLE
1002
{
1070
    40
1040
2.0
1002
}
  0
DIMENSION
  5
1A1
330
2
100
AcDbEntity
  8
0
100
AcDbDimension
280
     0
  2
*D7
 10
528.7442272390665
 20
528.6726377958482
 30
0.0
 11
447.6544612639384
 21
533.1726377958482
 31
0.0
 71
     5
 42
162.1795319502562
 73
     0
 74
     0
 75
     0
  3
Wagner$0
100
AcDbAlignedDimension
 13
366.5646952888103
 23
495.8167929814885
 33
0.0
 14
528.7442272390665
 24
471.5442042356841
 34
0.0
100
AcDbRotatedDimension
1001
ACAD
1000
DSTYLE
1002
{
1070
   271
1070
     0
1070
    40
1040
2.0
1002
}
  0
ARC
  5
1AE
330
2
100
AcDbEntity
  8
0
100
AcDbCircle
 10
615.5347728413642
 20
173.6430678199327
 30
0.0
 40
378.9445070433711
100
AcDbArc
 50
95.55955552577303
 51
121.1410827857093
  0
ARC
  5
1AF
330
2
100
AcDbEntity
  8
0
100
AcDbCircle
 10
615.5347728413642
 20
173.6430678199327
 30
0.0
 40
373.9445070433711
100
AcDbArc
 50
95.55955552577303
 51
121.1547780893265
  0
CIRCLE
  5
1B0
330
2
100
AcDbEntity
  8
0
100
AcDbCircle
 10
579.0646952888103
 20
548.3167929814885
 30
0.0
 40
2.5
  0
DIMENSION
  5
1B1
330
2
100
AcDbEntity
  8
0
100
AcDbDimension
280
     0
  2
*D6
 10
450.5646952888103
 20
220.479493822532
 30
0.0
 11
408.5646952888104
 21
224.979493822532
 31
0.0
 71
     5
 42
83.99999999999954
 73
     0
 74
     0
 75
     0
  3
Wagner$0
100
AcDbAlignedDimension
 13
366.5646952888108
 23
293.8167929814886
 33
0.0
 14
450.5646952888103
 24
342.8167929814886
 34
0.0
100
AcDbRotatedDimension
1001
ACAD
1000
DSTYLE
1002
{
1070
    40
1040
2.0
1002
}
  0
DIMENSION
  5
1BE
330
2
100
AcDbEntity
  8
0
100
AcDbDimension
280
     0
  2
*D5
 10
65.24928956811232
 20
500.8167929814885
 30
0.0
 11
60.74928956811223
 21
488.8167929814889
 31
0.0
 71
     5
 42
23.99999999999932
 73
     0
 74
     0
 75
     0
  3
Wagner$0
100
AcDbAlignedDimension
 13
108.6454859575694
 23
476.8167929814892
 33
0.0
 14
96.44548595756873
 24
500.8167929814885
 34
0.0
 50
90.0
100
AcDbRotatedDimension
1001
ACAD
1000
DSTYLE
1002
{
1070
    40
1040
2.0
1002
}
  0
DIMENSION
  5
1CB
330
2
100
AcDbEntity
  8
0
100
AcDbDimension
280
     0
  2
*D4
 10
65.24928956811232
 20
476.8167929814892
 30
0.0
 11
60.74928956811223
 21
392.316792981489
 31
0.0
 71
     5
 42
169.0000000000004
 73
     0
 74
     0
 75
     0
  3
Wagner$0
100
AcDbAlignedDimension
 13
128.6454859575694
 23
307.8167929814888
 33
0.0
 14
108.6454859575694
 24
476.8167929814892
 34
0.0
 50
90.0
100
AcDbRotatedDimension
1001
ACAD
1000
DSTYLE
1002
{
1070
    40
1040
2.0
1002
}
  0
LINE
  5
1D8
330
2
100
AcDbEntity
  8
0
100
AcDbLine
 10
450.5646952888103
 20
433.8717135291515
 30
0.0
 11
473.2171243874456
 21
460.2735921152523
 31
0.0
  0
LINE
  5
1D9
330
2
100
AcDbEntity
  8
0
100
AcDbLine
 10
519.1498551605138
 20
464.6168334043852
 30
0.0
 11
522.6139567756515
 21
466.616833404385
 31
0.0
  0
LINE
  5
1DA
330
2
100
AcDbEntity
  8
0
100
AcDbLine
 10
516.6498551605139
 20
468.9469604233075
 30
0.0
 11
519.1498551605138
 21
464.6168334043852
 31
0.0
  0
LINE
  5
1DB
330
2
100
AcDbEntity
  8
0
100
AcDbLine
 10
521.1169469239077
 20
469.2097305270364
 30
0.0
 11
522.6139567756515
 21
466.616833404385
 31
0.0
  0
ARC
  5
1DC
330
2
100
AcDbEntity
  8
0
100
AcDbCircle
 10
488.3959346956596
 20
447.2503929066379
 30
0.0
 40
20.0
100
AcDbArc
 50
93.36646066342144
 51
139.3708848863882
  0
ARC
  5
1DD
330
2
100
AcDbEntity
  8
0
100
AcDbCircle
 10
526.7442272390665
 20
471.5442042356841
 30
0.0
 40
2.0
100
AcDbArc
 50
273.3664606634214
 51
18.43494882291896
  0
LINE
  5
1DE
330
2
100
AcDbEntity
  8
0
100
AcDbLine
 10
526.8616712829696
 20
469.5476554893341
 30
0.0
 11
487.22149425663
 21
467.2158803701377
 31
0.0
  0
LINE
  5
1DF
330
2
100
AcDbEntity
  8
0
100
AcDbLine
 10
525.8502805239784
 20
480.5505997012856
 30
0.0
 11
528.6415938351677
 21
472.1766597677178
 31
0.0
  0
ARC
  5
1E0
330
2
100
AcDbEntity
  8
0
100
AcDbCircle
 10
523.9529139278772
 20
479.9181441692519
 30
0.0
 40
2.0
100
AcDbArc
 50
18.43494882291896
 51
80.88863723859624
  0
LINE
  5
1E1
330
2
100
AcDbEntity
  8
0
100
AcDbLine
 10
428.2289135787689
 20
497.2956739175982
 30
0.0
 11
524.2696216992333
 21
481.8929090128631
 31
0.0
  0
LINE
  5
1E2
330
2
100
AcDbEntity
  8
0
100
AcDbLine
 10
419.5646952888102
 20
498.6852192470239
 30
0.0
 11
420.4889378905902
 21
498.536991565359
 31
0.0
  0
LINE
  5
1E3
330
2
100
AcDbEntity
  8
05-01
100
AcDbLine
 10
108.6454859575694
 20
476.8167929814892
 30
0.0
 11
125.245485957568
 21
476.8167929814892
 31
0.0
  0
DIMENSION
  5
1E4
330
2
100
AcDbEntity
  8
0
100
AcDbDimension
280
     0
  2
*D3
 10
65.24928956811232
 20
307.8167929814889
 30
0.0
 11
60.74928956811226
 21
282.3167929814886
 31
0.0
 71
     5
 42
51.00000000000051
 73
     0
 74
     0
 75
     0
  3
Wagner$0
100
AcDbAlignedDimension
 13
96.44548595756873
 23
256.8167929814883
 33
0.0
 14
128.6454859575694
 24
307.8167929814888
 34
0.0
 50
90.0
100
AcDbRotatedDimension
1001
ACAD
1000
DSTYLE
1002
{
1070
    40
1040
2.0
1002
}
  0
DIMENSION
  5
1F1
330
2
100
AcDbEntity
  8
0
100
AcDbDimension
280
     0
  2
*D1
 10
351.8807722609288
 20
256.8167929814886
 30
0.0
 11
347.3807722609287
 21
378.8167929814886
 31
0.0
 71
     5
 42
244.0
 73
     0
 74
     0
 75
     0
  3
Wagner$0
100
AcDbAlignedDimension
 13
371.5646952888103
 23
500.8167929814885
 33
0.0
 14
371.5646952888107
 24
256.8167929814886
 34
0.0
 50
90.0
100
AcDbRotatedDimension
1001
ACAD
1000
DSTYLE
1002
{
1070
    40
1040
2.0
1002
}
  0
DIMENSION
  5
1FE
330
2
100
AcDbEntity
  8
0
100
AcDbDimension
280
     0
  2
*D2
 10
177.4454859575687
 20
247.473583933152
 30
0.0
 11
136.9454859575687
 21
251.973583933152
 31
0.0
 71
     5
 42
81.0
 73
     0
 74
     0
 75
     0
  3
Wagner$0
100
AcDbAlignedDimension
 13
96.44548595756873
 23
256.8167929814883
 33
0.0
 14
177.4454859575687
 24
256.8167929814882
 34
0.0
100
AcDbRotatedDimension
1001
ACAD
1000
DSTYLE
1002
{
1070
    40
1040
2.0
1002
}
  0
ARC
  5
20B
330
2
100
AcDbEntity
  8
0
100
AcDbCircle
 10
424.5646952888103
 20
498.0544399965383
 30
0.0
 40
5.0
100
AcDbArc
 50
180.0
 51
232.2295104113511
  0
ARC
  5
20C
330
2
100
AcDbEntity
  8
0
100
AcDbCircle
 10
375.5646952888108
 20
434.8167929814885
 30
0.0
 40
75.0
100
AcDbArc
 50
0.0
 51
52.22951041135104
  0
ARC
  5
20D
330
2
100
AcDbEntity
  8
0
100
AcDbCircle
 10
426.5160500755175
 20
287.3066970644359
 30
0.0
 40
15.5
100
AcDbArc
 50
289.9999999999896
 51
342.4902716427931
  0
ARC
  5
20E
330
2
100
AcDbEntity
  8
0
100
AcDbCircle
 10
250.5646952888103
 20
342.8167929815061
 30
0.0
 40
200.0
100
AcDbArc
 50
342.4902716427931
 51
359.9999999999935
  0
LINE
  5
20F
330
2
100
AcDbEntity
  8
0
100
AcDbLine
 10
388.0646952888108
 20
256.8167929814888
 30
0.0
 11
431.817362297065
 21
272.7414614422544
 31
0.0
  0
LINE
  5
210
330
2
100
AcDbEntity
  8
0
100
AcDbLine
 10
366.5646952888103
 20
495.8167929814885
 30
0.0
 11
366.5646952888108
 21
293.8167929814886
 31
0.0
  0
LINE
  5
211
330
2
100
AcDbEntity
  8
0
100
AcDbLine
 10
450.5646952888107
 20
434.8167929814885
 30
0.0
 11
450.5646952888103
 21
342.8167929814886
 31
0.0
  0
LINE
  5
212
330
2
100
AcDbEntity
  8
0
100
AcDbLine
 10
419.5646952888102
 20
500.8167929814885
 30
0.0
 11
419.5646952888102
 21
498.0544399965386
 31
0.0
  0
LINE
  5
213
330
2
100
AcDbEntity
  8
0
100
AcDbLine
 10
371.5646952888103
 20
500.8167929814885
 30
0.0
 11
371.5646952888107
 21
256.8167929814886
 31
0.0
  0
LINE
  5
214
330
2
100
AcDbEntity
  8
0
100
AcDbLine
 10
371.5646952888107
 20
256.8167929814886
 30
0.0
 11
388.0646952888108
 21
256.8167929814888
 31
0.0
  0
LINE
  5
215
330
2
100
AcDbEntity
  8
0
100
AcDbLine
 10
366.5646952888108
 20
293.8167929814886
 30
0.0
 11
371.5646952888199
 21
293.8167929814888
 31
0.0
  0
LINE
  5
216
330
2
100
AcDbEntity
  8
0
100
AcDbLine
 10
366.5646952888103
 20
495.8167929814885
 30
0.0
 11
371.5646952888103
 21
495.8167929814887
 31
0.0
  0
LINE
  5
217
330
2
100
AcDbEntity
  8
0
100
AcDbLine
 10
371.5646952888103
 20
500.8167929814885
 30
0.0
 11
419.5646952888102
 21
500.8167929814885
 31
0.0
  0
ARC
  5
218
330
2
100
AcDbEntity
  8
0
100
AcDbCircle
 10
136.9454868572268
 20
389.673935838631
 30
0.0
 40
48.14285714285778
100
AcDbArc
 50
94.76597495119372
 51
121.2844929144248
  0
ARC
  5
219
330
2
100
AcDbEntity
  8
0
100
AcDbCircle
 10
136.9454868572268
 20
389.673935838631
 30
0.0
 40
48.14285714285778
100
AcDbArc
 50
58.71550708557516
 51
85.23402449269138
  0
LINE
  5
21A
330
2
100
AcDbEntity
  8
0
100
AcDbLine
 10
98.94548685722634
 20
460.1164489010472
 30
0.0
 11
98.94548685722634
 21
430.8167929814888
 31
0.0
  0
LINE
  5
21B
330
2
100
AcDbEntity
  8
0
100
AcDbLine
 10
174.9454868572263
 20
460.1152573473503
 30
0.0
 11
174.9454868572263
 21
430.816792981489
 31
0.0
  0
ARC
  5
21C
330
2
100
AcDbEntity
  8
0
100
AcDbCircle
 10
136.9454859575687
 20
275.5667929814888
 30
0.0
 40
12.1
100
AcDbArc
 50
126.3138527588203
 51
233.6861472411796
  0
ARC
  5
21D
330
2
100
AcDbEntity
  8
0
100
AcDbCircle
 10
136.9454859575687
 20
275.5667929814888
 30
0.0
 40
12.1
100
AcDbArc
 50
306.3138527588204
 51
53.68614724117963
  0
LINE
  5
21E
330
2
100
AcDbEntity
  8
0
100
AcDbLine
 10
144.1112029489106
 20
265.8167929814888
 30
0.0
 11
129.7797689662272
 21
265.8167929814888
 31
0.0
  0
LINE
  5
21F
330
2
100
AcDbEntity
  8
0
100
AcDbLine
 10
144.1112029489102
 20
285.3167929814888
 30
0.0
 11
129.7797689662277
 21
285.3167929814888
 31
0.0
  0
ARC
  5
220
330
2
100
AcDbEntity
  8
0
100
AcDbCircle
 10
102.4454859575687
 20
265.3167929814887
 30
0.0
 40
3.0
100
AcDbArc
 50
180.0
 51
270.0
  0
ARC
  5
221
330
2
100
AcDbEntity
  8
0
100
AcDbCircle
 10
171.4454859575687
 20
265.3167929814888
 30
0.0
 40
3.0
100
AcDbArc
 50
270.0
 51
0.0
  0
LINE
  5
222
330
2
100
AcDbEntity
  8
0
100
AcDbLine
 10
171.4454859575687
 20
262.3167929814888
 30
0.0
 11
102.4454859575687
 21
262.3167929814887
 31
0.0
  0
LINE
  5
223
330
2
100
AcDbEntity
  8
0
100
AcDbLine
 10
113.9454859575687
 20
430.8167929814894
 30
0.0
 11
113.9454859575687
 21
431.9673709378675
 31
0.0
  0
LINE
  5
224
330
2
100
AcDbEntity
  8
0
100
AcDbLine
 10
159.9454859575687
 20
430.8167929814894
 30
0.0
 11
159.9454859575687
 21
431.9673719163709
 31
0.0
  0
LINE
  5
225
330
2
100
AcDbEntity
  8
0
100
AcDbLine
 10
125.1954859575687
 20
433.8167929814887
 30
0.0
 11
125.1954859575685
 21
436.3608951820669
 31
0.0
  0
LINE
  5
226
330
2
100
AcDbEntity
  8
0
100
AcDbLine
 10
148.6954859575685
 20
433.8167929814899
 30
0.0
 11
148.6954859575685
 21
436.3608956349122
 31
0.0
  0
ARC
  5
227
330
2
100
AcDbEntity
  8
0
100
AcDbCircle
 10
104.9454859575685
 20
425.8167929814885
 30
0.0
 40
5.0
100
AcDbArc
 50
90.0
 51
180.0
  0
LINE
  5
228
330
2
100
AcDbEntity
  8
0
100
AcDbLine
 10
99.94548595756851
 20
425.8167929814885
 30
0.0
 11
99.94548595756874
 21
294.8167929814886
 31
0.0
  0
ARC
  5
229
330
2
100
AcDbEntity
  8
0
100
AcDbCircle
 10
168.945485957569
 20
294.8167929814904
 30
0.0
 40
5.0
100
AcDbArc
 50
270.0
 51
0.0
  0
ARC
  5
22A
330
2
100
AcDbEntity
  8
0
100
AcDbCircle
 10
168.9454859575687
 20
425.8167929814903
 30
0.0
 40
5.0
100
AcDbArc
 50
0.0
 51
90.0
  0
LINE
  5
22B
330
2
100
AcDbEntity
  8
0
100
AcDbLine
 10
173.9454859575687
 20
425.8167929814903
 30
0.0
 11
173.9454859575689
 21
294.8167929814904
 31
0.0
  0
ARC
  5
22C
330
2
100
AcDbEntity
  8
0
100
AcDbCircle
 10
104.9454859575687
 20
294.8167929814886
 30
0.0
 40
5.0
100
AcDbArc
 50
180.0
 51
270.0
  0
LINE
  5
22D
330
2
100
AcDbEntity
  8
0
100
AcDbLine
 10
127.1840466824521
 20
436.8167929814888
 30
0.0
 11
146.7069270319982
 21
436.8167929814894
 31
0.0
  0
LINE
  5
22E
330
2
100
AcDbEntity
  8
0
100
AcDbLine
 10
117.7323960818501
 20
433.8167929814887
 30
0.0
 11
156.1585776326001
 21
433.8167929814901
 31
0.0
  0
LINE
  5
22F
330
2
100
AcDbEntity
  8
0
100
AcDbLine
 10
104.9454859575685
 20
430.8167929814885
 30
0.0
 11
168.9454859575685
 21
430.8167929814904
 31
0.0
  0
LINE
  5
230
330
2
100
AcDbEntity
  8
0
100
AcDbLine
 10
104.9454859575689
 20
289.8167929814885
 30
0.0
 11
168.945485957569
 21
289.8167929814904
 31
0.0
  0
LINE
  5
231
330
2
100
AcDbEntity
  8
0
100
AcDbLine
 10
97.69548595756873
 20
499.5667929814885
 30
0.0
 11
97.69548595756873
 21
256.8167929814884
 31
0.0
  0
LINE
  5
232
330
2
100
AcDbEntity
  8
0
100
AcDbLine
 10
96.44548595756873
 20
500.8167929814885
 30
0.0
 11
96.44548595756873
 21
256.8167929814883
 31
0.0
  0
LINE
  5
233
330
2
100
AcDbEntity
  8
0
100
AcDbLine
 10
176.1954859575687
 20
499.5667929814888
 30
0.0
 11
176.1954859575692
 21
256.8167929814884
 31
0.0
  0
LINE
  5
234
330
2
100
AcDbEntity
  8
0
100
AcDbLine
 10
177.4454859575687
 20
500.8167929814885
 30
0.0
 11
177.4454859575687
 21
256.8167929814882
 31
0.0
  0
ARC
  5
235
330
2
100
AcDbEntity
  8
0
100
AcDbCircle
 10
102.4454859575687
 20
288.3167929814888
 30
0.0
 40
3.0
100
AcDbArc
 50
107.9039979355799
 51
180.0
  0
LINE
  5
236
330
2
100
AcDbEntity
  8
0
100
AcDbLine
 10
99.44548595756874
 20
288.3167929814888
 30
0.0
 11
99.44548595756874
 21
265.3167929814887
 31
0.0
  0
ARC
  5
237
330
2
100
AcDbEntity
  8
0
100
AcDbCircle
 10
171.4454859575687
 20
288.3167929814888
 30
0.0
 40
3.0
100
AcDbArc
 50
0.0
 51
72.09600206444736
  0
LINE
  5
238
330
2
100
AcDbEntity
  8
0
100
AcDbLine
 10
174.4454859575687
 20
288.3167929814888
 30
0.0
 11
174.4454859575687
 21
265.3167929814888
 31
0.0
  0
LINE
  5
239
330
2
100
AcDbEntity
  8
0
100
AcDbLine
 10
177.4454859575687
 20
256.8167929814882
 30
0.0
 11
96.44548595756873
 21
256.8167929814883
 31
0.0
  0
LINE
  5
23A
330
2
100
AcDbEntity
  8
0
100
AcDbLine
 10
176.1954859575687
 20
499.5667929814888
 30
0.0
 11
97.69548595756873
 21
499.5667929814885
 31
0.0
  0
LINE
  5
23B
330
2
100
AcDbEntity
  8
0
100
AcDbLine
 10
177.4454859575687
 20
500.8167929814885
 30
0.0
 11
96.44548595756873
 21
500.8167929814885
 31
0.0
  0
LINE
  5
23C
330
2
100
AcDbEntity
  8
0
100
AcDbLine
 10
132.9454864344059
 20
480.8115977477439
 30
0.0
 11
140.9454859575687
 21
480.8115980797706
 31
0.0
  0
LINE
  5
23D
330
2
100
AcDbEntity
  8
0
100
AcDbLine
 10
133.9454859575687
 20
480.2316054059717
 30
0.0
 11
139.9454857191501
 21
480.23160529288
 31
0.0
  0
ARC
  5
23E
330
2
100
AcDbEntity
  8
0
100
AcDbCircle
 10
136.9454859575687
 20
486.5561607263084
 30
0.0
 40
6.999999999999887
100
AcDbArc
 50
235.1500954209623
 51
244.6230664748394
  0
ARC
  5
23F
330
2
100
AcDbEntity
  8
0
100
AcDbCircle
 10
136.9454859575687
 20
486.5561607263084
 30
0.0
 40
6.999999999999887
100
AcDbArc
 50
295.3769335251605
 51
304.8499045790377
  0
LINE
  5
240
330
2
100
AcDbEntity
  8
0
100
AcDbLine
 10
146.9454850038944
 20
498.8168038295343
 30
0.0
 11
170.9454889378009
 21
498.8168038295343
 31
0.0
  0
LINE
  5
241
330
2
100
AcDbEntity
  8
0
100
AcDbLine
 10
102.9454861736355
 20
498.8168038295343
 30
0.0
 11
126.9454854509292
 21
498.8168038295343
 31
0.0
  0
ELLIPSE
  5
242
330
2
100
AcDbEntity
  8
0
100
AcDbEllipse
 10
108.5146983782981
 20
436.8421848905272
 30
0.0
 11
-1.841460566064871
 21
64.66059606371601
 31
0.0
210
0.0
220
0.0
230
1.0
 40
0.0028650578271192
 41
5.12644134265911
 42
5.728677607316297
  0
ELLIPSE
  5
243
330
2
100
AcDbEntity
  8
0
100
AcDbEllipse
 10
165.3762735368393
 20
436.8421848905272
 30
0.0
 11
1.841460566064938
 21
64.66059606371629
 31
0.0
210
0.0
220
0.0
230
1.0
 40
0.0028650578271187
 41
0.5545076998669982
 42
1.15674396452141
  0
LINE
  5
244
330
2
100
AcDbEntity
  8
0
100
AcDbLine
 10
165.9475351652561
 20
463.0832530425623
 30
0.0
 11
165.9475351652561
 21
462.8614343570307
 31
0.0
  0
LINE
  5
245
330
2
100
AcDbEntity
  8
0
100
AcDbLine
 10
107.9434390148578
 20
463.0832530425623
 30
0.0
 11
107.9434390148578
 21
462.8614343570307
 31
0.0
  0
ARC
  5
246
330
2
100
AcDbEntity
  8
0
100
AcDbCircle
 10
170.947955381637
 20
463.1194636738062
 30
0.0
 40
5.000551324627949
100
AcDbArc
 50
180.4149011518033
 51
323.0745753839868
  0
ELLIPSE
  5
247
330
2
100
AcDbEntity
  8
0
100
AcDbEllipse
 10
165.0266151666544
 20
421.2896493492459
 30
0.0
 11
2.927627723473378
 21
102.80000405166
 31
0.0
210
0.0
220
0.0
230
1.0
 40
0.0028650578271188
 41
0.7165113133740344
 42
1.152200412940006
  0
ELLIPSE
  5
248
330
2
100
AcDbEntity
  8
0
100
AcDbEllipse
 10
108.8643567484835
 20
421.2896493492459
 30
0.0
 11
-2.927627723473307
 21
102.8000040516595
 31
0.0
210
0.0
220
0.0
230
1.0
 40
0.0028650578271188
 41
5.1309848942404
 42
5.566673993808739
  0
ARC
  5
249
330
2
100
AcDbEntity
  8
0
100
AcDbCircle
 10
102.9429994134568
 20
463.1207281749318
 30
0.0
 40
5.000580025637653
100
AcDbArc
 50
216.9262230177386
 51
359.5706124071011
  0
LINE
  5
24A
330
2
100
AcDbEntity
  8
0
100
AcDbLine
 10
132.9454864344059
 20
437.6503330615889
 30
0.0
 11
132.9454864344059
 21
470.383466021879
 31
0.0
  0
LINE
  5
24B
330
2
100
AcDbEntity
  8
0
100
AcDbLine
 10
140.945487745708
 20
470.383466021879
 30
0.0
 11
140.945487745708
 21
437.6503330227647
 31
0.0
  0
LINE
  5
24C
330
2
100
AcDbEntity
  8
0
100
AcDbLine
 10
132.9454864344059
 20
470.383466021879
 30
0.0
 11
132.9454864344059
 21
479.9259908364847
 31
0.0
  0
LINE
  5
24D
330
2
100
AcDbEntity
  8
0
100
AcDbLine
 10
140.945487745708
 20
479.9259908364847
 30
0.0
 11
140.945487745708
 21
470.383466021879
 31
0.0
  0
LINE
  5
24E
330
2
100
AcDbEntity
  8
0
100
AcDbLine
 10
126.9454854509292
 20
498.8168038295343
 30
0.0
 11
146.9454850038944
 21
498.8168038295343
 31
0.0
  0
ARC
  5
24F
330
2
100
AcDbEntity
  8
0
100
AcDbCircle
 10
146.9454859575687
 20
496.816799061163
 30
0.0
 40
1.999999999999957
100
AcDbArc
 50
0.0
 51
90.0
  0
ARC
  5
250
330
2
100
AcDbEntity
  8
0
100
AcDbCircle
 10
126.9454859575687
 20
496.816799061163
 30
0.0
 40
1.999999999999992
100
AcDbArc
 50
90.0
 51
180.0
  0
LINE
  5
251
330
2
100
AcDbEntity
  8
0
100
AcDbLine
 10
148.9454853317199
 20
496.8167997764185
 30
0.0
 11
148.9454853317199
 21
436.2972640176635
 31
0.0
  0
LINE
  5
252
330
2
100
AcDbEntity
  8
0
100
AcDbLine
 10
124.9454851231037
 20
436.297263178694
 30
0.0
 11
124.9454851231037
 21
496.8167997764185
 31
0.0
  0
LINE
  5
253
330
2
100
AcDbEntity
  8
0
100
AcDbLine
 10
126.9454854509292
 20
486.8805713819101
 30
0.0
 11
146.9454850038944
 21
486.8805713819101
 31
0.0
  0
ELLIPSE
  5
254
330
2
100
AcDbEntity
  8
0
100
AcDbEllipse
 10
126.9454859575687
 20
486.4794658872165
 30
0.0
 11
1.999999999999992
 21
0.0
 31
0.0
210
0.0
220
0.0
230
1.0
 40
0.200554697389564
 41
1.570796326794896
 42
3.141592653589792
  0
LINE
  5
255
330
2
100
AcDbEntity
  8
0
100
AcDbLine
 10
132.9454864344059
 20
479.9259908364847
 30
0.0
 11
132.9454864344059
 21
485.9147228168085
 31
0.0
  0
LINE
  5
256
330
2
100
AcDbEntity
  8
0
100
AcDbLine
 10
132.9454864344059
 20
485.9147228168085
 30
0.0
 11
140.945487745708
 21
485.9147228168085
 31
0.0
  0
LINE
  5
257
330
2
100
AcDbEntity
  8
0
100
AcDbLine
 10
140.945487745708
 20
485.9147228168085
 30
0.0
 11
140.945487745708
 21
479.9259908364847
 31
0.0
  0
ELLIPSE
  5
258
330
2
100
AcDbEntity
  8
0
100
AcDbEllipse
 10
146.9454859575687
 20
486.4794658872165
 30
0.0
 11
1.999999999999957
 21
0.0
 31
0.0
210
0.0
220
0.0
230
1.0
 40
0.2005546973895676
 41
0.0
 42
1.570796326794896
  0
LINE
  5
259
330
2
100
AcDbEntity
  8
0
100
AcDbLine
 10
97.94548605256364
 20
495.3168041871622
 30
0.0
 11
97.94548605256364
 21
491.8168045447901
 31
0.0
  0
LINE
  5
25A
330
2
100
AcDbEntity
  8
0
100
AcDbLine
 10
175.9454841694294
 20
491.8168045447901
 30
0.0
 11
175.9454841694294
 21
495.3168041871622
 31
0.0
  0
LINE
  5
25B
330
2
100
AcDbEntity
  8
0
100
AcDbLine
 10
166.8431173047481
 20
491.8168045447901
 30
0.0
 11
175.9454841694294
 21
491.8168045447901
 31
0.0
  0
LINE
  5
25C
330
2
100
AcDbEntity
  8
0
100
AcDbLine
 10
97.94548605256364
 20
491.8168045447901
 30
0.0
 11
107.0478578066884
 21
491.8168045447901
 31
0.0
  0
ARC
  5
25D
330
2
100
AcDbEntity
  8
0
100
AcDbCircle
 10
173.4454859575687
 20
495.3167990611627
 30
0.0
 40
2.5
100
AcDbArc
 50
180.0
 51
0.0
  0
ARC
  5
25E
330
2
100
AcDbEntity
  8
0
100
AcDbCircle
 10
100.4454859575687
 20
495.3167990611627
 30
0.0
 40
2.5
100
AcDbArc
 50
180.0
 51
0.0
  0
LINE
  5
25F
330
2
100
AcDbEntity
  8
0
100
AcDbLine
 10
97.94548605256364
 20
546.8167848752568
 30
0.0
 11
97.94548605256364
 21
548.8167889283727
 31
0.0
  0
LINE
  5
260
330
2
100
AcDbEntity
  8
0
100
AcDbLine
 10
175.9454841694294
 20
548.8167889283727
 30
0.0
 11
175.9454841694294
 21
546.8167848752568
 31
0.0
  0
LINE
  5
261
330
2
100
AcDbEntity
  8
0
100
AcDbLine
 10
133.9454847356735
 20
476.556167738302
 30
0.0
 11
139.9454857191501
 21
476.556167738302
 31
0.0
  0
LINE
  5
262
330
2
100
AcDbEntity
  8
0
100
AcDbLine
 10
98.94548685722634
 20
430.8167929814888
 30
0.0
 11
111.9454868572263
 21
430.8167929814888
 31
0.0
  0
LINE
  5
263
330
2
100
AcDbEntity
  8
0
100
AcDbLine
 10
161.9454868572263
 20
430.816792981489
 30
0.0
 11
174.9454868572263
 21
430.816792981489
 31
0.0
  0
LINE
  5
264
330
2
100
AcDbEntity
  8
0
100
AcDbLine
 10
170.9454889378009
 20
544.816780822141
 30
0.0
 11
170.9454889378009
 21
495.3168041871622
 31
0.0
  0
LINE
  5
265
330
2
100
AcDbEntity
  8
0
100
AcDbLine
 10
175.9454841694294
 20
495.3168041871622
 30
0.0
 11
175.9454841694294
 21
547.8683300183843
 31
0.0
  0
LINE
  5
266
330
2
100
AcDbEntity
  8
0
100
AcDbLine
 10
97.94548605256364
 20
547.8720553086827
 30
0.0
 11
97.94548605256364
 21
495.3168041871622
 31
0.0
  0
LINE
  5
267
330
2
100
AcDbEntity
  8
0
100
AcDbLine
 10
102.9454861736355
 20
495.3168041871622
 30
0.0
 11
102.9454861736355
 21
544.816780822141
 31
0.0
  0
ARC
  5
268
330
2
100
AcDbEntity
  8
0
100
AcDbCircle
 10
99.94548595756874
 20
548.816785210962
 30
0.0
 40
1.999999999999992
100
AcDbArc
 50
90.0
 51
180.0
  0
ARC
  5
269
330
2
100
AcDbEntity
  8
0
100
AcDbCircle
 10
99.94548595756874
 20
546.816785210962
 30
0.0
 40
2.000000000000028
100
AcDbArc
 50
180.0
 51
270.0
  0
LINE
  5
26A
330
2
100
AcDbEntity
  8
0
100
AcDbLine
 10
173.9454875668941
 20
550.8167929814885
 30
0.0
 11
99.94548614755855
 21
550.8167929814885
 31
0.0
  0
LINE
  5
26B
330
2
100
AcDbEntity
  8
0
100
AcDbLine
 10
99.94548614755855
 20
544.816780822141
 30
0.0
 11
173.9454875668941
 21
544.816780822141
 31
0.0
  0
ARC
  5
26C
330
2
100
AcDbEntity
  8
0
100
AcDbCircle
 10
173.9454859575678
 20
546.816785210962
 30
0.0
 40
2.000000000000028
100
AcDbArc
 50
270.0
 51
0.0
  0
ARC
  5
26D
330
2
100
AcDbEntity
  8
0
100
AcDbCircle
 10
173.9454859575678
 20
548.816785210962
 30
0.0
 40
1.999999999999957
100
AcDbArc
 50
0.0
 51
90.0
  0
LINE
  5
26E
330
2
100
AcDbEntity
  8
0
100
AcDbLine
 10
139.9454857191501
 20
476.556167738302
 30
0.0
 11
139.9454857191501
 21
480.23160529288
 31
0.0
  0
LINE
  5
26F
330
2
100
AcDbEntity
  8
0
100
AcDbLine
 10
133.9454847356735
 20
480.2316059855677
 30
0.0
 11
133.9454847356735
 21
476.556167738302
 31
0.0
  0
CIRCLE
  5
270
330
2
100
AcDbEntity
  8
03-01
100
AcDbCircle
 10
156.9454859575687
 20
476.8167929814892
 30
0.0
 40
3.399999999999999
  0
CIRCLE
  5
271
330
2
100
AcDbEntity
  8
03-01
100
AcDbCircle
 10
156.9454859575687
 20
476.8167929814892
 30
0.0
 40
6.299999999999999
  0
LINE
  5
272
330
2
100
AcDbEntity
  8
05-01
100
AcDbLine
 10
156.9454859575687
 20
469.2667929814891
 30
0.0
 11
156.9454859575687
 21
484.3667929814894
 31
0.0
  0
LINE
  5
273
330
2
100
AcDbEntity
  8
05-01
100
AcDbLine
 10
148.6454859575694
 20
476.8167929814892
 30
0.0
 11
165.245485957568
 21
476.8167929814892
 31
0.0
  0
CIRCLE
  5
274
330
2
100
AcDbEntity
  8
03-01
100
AcDbCircle
 10
116.9454859575687
 20
476.8167929814892
 30
0.0
 40
3.399999999999999
  0
CIRCLE
  5
275
330
2
100
AcDbEntity
  8
03-01
100
AcDbCircle
 10
116.9454859575687
 20
476.8167929814892
 30
0.0
 40
6.299999999999999
  0
LINE
  5
276
330
2
100
AcDbEntity
  8
05-01
100
AcDbLine
 10
116.9454859575687
 20
469.2667929814891
 30
0.0
 11
116.9454859575687
 21
484.3667929814894
 31
0.0
  0
CIRCLE
  5
277
330
2
100
AcDbEntity
  8
03-01
100
AcDbCircle
 10
136.9454859575687
 20
307.8167929814888
 30
0.0
 40
3.399999999999999
  0
CIRCLE
  5
278
330
2
100
AcDbEntity
  8
03-01
100
AcDbCircle
 10
136.9454859575687
 20
307.8167929814888
 30
0.0
 40
6.299999999999999
  0
LINE
  5
279
330
2
100
AcDbEntity
  8
05-01
100
AcDbLine
 10
136.9454859575687
 20
299.5167929814886
 30
0.0
 11
136.9454859575687
 21
316.116792981489
 31
0.0
  0
LINE
  5
27A
330
2
100
AcDbEntity
  8
05-01
100
AcDbLine
 10
145.245485957568
 20
307.8167929814888
 30
0.0
 11
128.6454859575694
 21
307.8167929814888
 31
0.0
  0
INSERT
  5
27B
330
2
100
AcDbEntity
  8
0
100
AcDbBlockReference
 66
     1
  2
Wagner-A3
 10
2515.233777749851
 20
0.0
 30
0.0
 41
2.5
 42
2.5
 43
2.5
  0
ATTRIB
  5
2D2
330
27B
100
AcDbEntity
  8
01-99
100
AcDbText
 10
460.9999999999541
 20
67.99999999999329
 30
0.0
 40
5.999999999999403
  1
.
 41
0.9
  7
ROMANS8
100
AcDbAttribute
280
     0
  2
COM
 70
     0
280
     0
  0
ATTRIB
  5
2D3
330
27B
100
AcDbEntity
  8
01-99
100
AcDbText
 10
640.9999999999363
 20
87.99999999999124
 30
0.0
 40
5.999999999999403
  1
.
 41
0.9
  7
ROMANS8
100
AcDbAttribute
280
     0
  2
PROJ
 70
     0
280
     0
  0
ATTRIB
  5
2D4
330
27B
100
AcDbEntity
  8
01-99
100
AcDbText
 10
640.9999999999363
 20
67.99999999999329
 30
0.0
 40
5.999999999999403
  1
.
 41
0.9
  7
ROMANS8
100
AcDbAttribute
280
     0
  2
POS
 70
     0
280
     0
  0
ATTRIB
  5
2D5
330
27B
100
AcDbEntity
  8
01-99
100
AcDbText
 10
694.9999999999304
 20
17.99999999999818
 30
0.0
 40
6.999999999999304
  1
727120
  7
ROMANS8
100
AcDbAttribute
280
     0
  2
E:M1
 70
     0
280
     0
  0
ATTRIB
  5
2D6
330
27B
100
AcDbEntity
  8
07-99
100
AcDbText
 10
825.9428571427749
 20
13.99999999999863
 30
0.0
 40
0.1999999999999801
  1
.
  7
ROMANS8
 72
     2
 11
825.9999999999177
 21
13.99999999999863
 31
0.0
100
AcDbAttribute
280
     0
  2
E:M2
 70
     0
280
     0
  0
ATTRIB
  5
2D7
330
27B
100
AcDbEntity
  8
01-99
100
AcDbText
 10
460.9999999999541
 20
17.99999999999818
 30
0.0
 40
5.999999999999403
  1
Desinfektionsmittelsp. WP 120 mit Schale
 41
0.9
  7
ROMANS8
100
AcDbAttribute
280
     0
  2
E:M3
 70
     0
280
     0
  0
ATTRIB
  5
2D8
330
27B
100
AcDbEntity
  8
01-99
100
AcDbText
 10
460.9999999999541
 20
87.99999999999124
 30
0.0
 40
5.999999999999403
  1
.
 41
0.9
  7
ROMANS8
100
AcDbAttribute
280
     0
  2
E:M4
 70
     0
280
     0
  0
ATTRIB
  5
2D9
330
27B
100
AcDbEntity
  8
06-99
100
AcDbText
 10
591.9999999999409
 20
37.99999999999341
 30
0.0
 40
4.999999999999503
  1
Pfrepper
 41
0.9
  7
ROMANS8
100
AcDbAttribute
280
     0
  2
E:M5
 70
     0
280
     0
  0
ATTRIB
  5
2DA
330
27B
100
AcDbEntity
  8
06-99
100
AcDbText
 10
525.9999999999477
 20
37.99999999999625
 30
0.0
 40
4.999999999999503
  1
07.11.2008
 41
0.8305084745762677
  7
ROMANS8
 72
     5
 11
560.999999999944
 21
37.99999999999625
 31
0.0
100
AcDbAttribute
280
     0
  2
E:M6
 70
     0
280
     0
  0
ATTRIB
  5
2DB
330
27B
100
AcDbEntity
  8
01-99
100
AcDbText
 10
661.4285714285057
 20
17.99999999999818
 30
0.0
 40
5.999999999999403
  1
1:2
  7
ROMANS8
 72
     1
 11
668.9999999999336
 21
17.99999999999818
 31
0.0
100
AcDbAttribute
280
     0
  2
E:MA
 70
     0
280
     0
  0
ATTRIB
  5
2DC
330
27B
100
AcDbEntity
  8
02-99
100
AcDbText
 10
752.9999999999249
 20
17.99999999999818
 30
0.0
 40
4.999999999999503
  1
.
  7
ROMANS8
100
AcDbAttribute
280
     0
  2
E:DOS
 70
     0
280
     0
  0
SEQEND
  5
2DD
330
27B
100
AcDbEntity
  8
0
  0
ENDSEC
  0
SECTION
  2
OBJECTS
  0
DICTIONARY
  5
B
330
0
100
AcDbDictionary
281
     1
  3
ACAD_COLOR
350
49
  3
ACAD_GROUP
350
36
  3
ACAD_LAYOUT
350
18
  3
ACAD_MATERIAL
350
D
  3
ACAD_MLEADERSTYLE
350
4C
  3
ACAD_MLINESTYLE
350
37
  3
ACAD_PLOTSETTINGS
350
38
  3
ACAD_PLOTSTYLENAME
350
A
  3
ACAD_SCALELIST
350
4A
  3
ACAD_TABLESTYLE
350
4B
  3
ACAD_VISUALSTYLE
350
2C
  3
ACDB_RECOMPOSE_DATA
350
2EA
  3
AcDbVariableDictionary
350
2E0
  0
DICTIONARY
  5
2D
330
29
100
AcDbDictionary
280
     1
281
     1
  0
DICTIONARY
  5
1F
330
1E
100
AcDbDictionary
280
     1
281
     1
  3
ACAD_LAYERSTATES
360
20
  0
DICTIONARY
  5
7
330
6
100
AcDbDictionary
280
     1
281
     1
  3
ADSK_XREC_LAYER_RECONCILED
360
8
  0
DICTIONARY
  5
282
330
281
100
AcDbDictionary
280
     1
281
     1
  3
ADSK_XREC_LAYER_RECONCILED
360
283
  0
DICTIONARY
  5
2B8
330
2B7
100
AcDbDictionary
280
     1
281
     1
  3
ADSK_XREC_LAYER_RECONCILED
360
2B9
  0
DICTIONARY
  5
296
330
295
100
AcDbDictionary
280
     1
281
     1
  3
ADSK_XREC_LAYER_RECONCILED
360
297
  0
DICTIONARY
  5
289
330
288
100
AcDbDictionary
280
     1
281
     1
  3
ADSK_XREC_LAYER_RECONCILED
360
28A
  0
DICTIONARY
  5
2BF
330
2BE
100
AcDbDictionary
280
     1
281
     1
  3
ADSK_XREC_LAYER_RECONCILED
360
2C0
  0
DICTIONARY
  5
2B2
330
2B1
100
AcDbDictionary
280
     1
281
     1
  3
ADSK_XREC_LAYER_RECONCILED
360
2B3
  0
DICTIONARY
  5
136
330
135
100
AcDbDictionary
280
     1
281
     1
  0
DICTIONARY
  5
175
330
174
100
AcDbDictionary
280
     1
281
     1
  0
DICTIONARY
  5
3
330
2
100
AcDbDictionary
280
     1
281
     1
  3
ACAD_SORTENTS
360
2DF
  0
DICTIONARY
  5
27D
330
27C
100
AcDbDictionary
280
     1
281
     1
  3
ACAD_SORTENTS
360
2DE
  0
DICTIONARY
  5
49
102
{ACAD_REACTORS
330
B
102
}
330
B
100
AcDbDictionary
281
     1
  0
DICTIONARY
  5
36
102
{ACAD_REACTORS
330
B
102
}
330
B
100
AcDbDictionary
281
     1
  0
DICTIONARY
  5
18
102
{ACAD_REACTORS
330
B
102
}
330
B
100
AcDbDictionary
281
     1
  3
Layout1
350
1D
  3
Model
350
17
  0
DICTIONARY
  5
D
102
{ACAD_REACTORS
330
B
102
}
330
B
100
AcDbDictionary
281
     1
  3
ByBlock
350
41
  3
ByLayer
350
39
  3
Global
350
C
  0
DICTIONARY
  5
4C
102
{ACAD_REACTORS
330
B
102
}
330
B
100
AcDbDictionary
281
     1
  0
DICTIONARY
  5
37
102
{ACAD_REACTORS
330
B
102
}
330
B
100
AcDbDictionary
281
     1
  3
Standard
350
4D
  0
DICTIONARY
  5
38
102
{ACAD_REACTORS
330
B
102
}
330
B
100
AcDbDictionary
281
     1
  0
ACDBDICTIONARYWDFLT
  5
A
102
{ACAD_REACTORS
330
B
102
}
330
B
100
AcDbDictionary
281
     1
  3
Normal
350
9
100
AcDbDictionaryWithDefault
340
9
  0
DICTIONARY
  5
4A
102
{ACAD_REACTORS
330
B
102
}
330
B
100
AcDbDictionary
281
     1
  3
A0
350
52
  3
A1
350
53
  3
A2
350
54
  3
A3
350
55
  3
A4
350
56
  3
A5
350
57
  3
A6
350
58
  3
A7
350
59
  3
A8
350
5A
  3
A9
350
5B
  3
B0
350
5C
  3
B1
350
5D
  3
B2
350
5E
  3
B3
350
5F
  3
B4
350
60
  3
B5
350
61
  3
B6
350
62
  3
B7
350
63
  3
B8
350
64
  3
B9
350
65
  3
C0
350
66
  3
C1
350
67
  3
C2
350
68
  3
C3
350
69
  3
C4
350
6A
  3
C5
350
6B
  3
C6
350
6C
  3
C7
350
6D
  3
C8
350
6E
  3
C9
350
6F
  3
D0
350
70
  3
D1
350
71
  3
D2
350
72
  0
DICTIONARY
  5
4B
102
{ACAD_REACTORS
330
B
102
}
330
B
100
AcDbDictionary
281
     1
  3
Standard
350
4E
  0
DICTIONARY
  5
2C
102
{ACAD_REACTORS
330
B
102
}
330
B
100
AcDbDictionary
281
     1
  3
2dWireframe
350
2B
  3
3dWireframe
350
51
  3
Realistic
350
50
  0
XRECORD
  5
2EA
102
{ACAD_REACTORS
330
B
102
}
330
B
100
AcDbXrecord
280
     1
 90
        1
330
4E
  0
DICTIONARY
  5
2E0
102
{ACAD_REACTORS
330
B
102
}
330
B
100
AcDbDictionary
281
     1
  3
CANNOSCALE
350
2E4
  3
CMLEADERSTYLE
350
2E2
  3
CTABLESTYLE
350
2E1
  3
LAYEREVAL
350
2E6
  3
LAYERNOTIFY
350
2E7
  3
LIGHTINGUNITS
350
2E5
  3
MSLTSCALE
350
2E3
  0
DICTIONARY
  5
20
102
{ACAD_REACTORS
330
1F
102
}
330
1F
100
AcDbDictionary
281
     1
  0
XRECORD
  5
8
102
{ACAD_REACTORS
330
7
102
}
330
7
100
AcDbXrecord
280
     1
290
     1
  0
XRECORD
  5
283
102
{ACAD_REACTORS
330
282
102
}
330
282
100
AcDbXrecord
280
     1
290
     1
  0
XRECORD
  5
2B9
102
{ACAD_REACTORS
330
2B8
102
}
330
2B8
100
AcDbXrecord
280
     1
290
     1
  0
XRECORD
  5
297
102
{ACAD_REACTORS
330
296
102
}
330
296
100
AcDbXrecord
280
     1
290
     1
  0
XRECORD
  5
28A
102
{ACAD_REACTORS
330
289
102
}
330
289
100
AcDbXrecord
280
     1
290
     1
  0
XRECORD
  5
2C0
102
{ACAD_REACTORS
330
2BF
102
}
330
2BF
100
AcDbXrecord
280
     1
290
     1
  0
XRECORD
  5
2B3
102
{ACAD_REACTORS
330
2B2
102
}
330
2B2
100
AcDbXrecord
280
     1
290
     1
  0
SORTENTSTABLE
  5
2DF
102
{ACAD_REACTORS
330
3
102
}
330
3
100
AcDbSortentsTable
330
2
331
B7
  5
246
331
B3
  5
24A
331
AF
  5
24E
331
AB
  5
252
331
21D
  5
E0
331
219
  5
F0
331
215
  5
124
331
254
  5
A9
331
1DA
  5
1E2
331
211
  5
187
331
250
  5
AD
331
73
  5
27B
331
A7
  5
256
331
E2
  5
21B
331
A3
  5
25A
331
9F
  5
25E
331
DE
  5
21F
331
9B
  5
262
331
DA
  5
223
331
20D
  5
1AF
331
24C
  5
B1
331
248
  5
B5
331
244
  5
B9
331
240
  5
BD
331
279
  5
84
331
97
  5
266
331
D6
  5
227
331
D2
  5
22B
331
93
  5
26A
331
8F
  5
26E
331
CE
  5
22F
331
8B
  5
272
331
CA
  5
233
331
187
  5
211
331
23C
  5
C1
331
1BE
  5
1FE
331
238
  5
C5
331
275
  5
88
331
234
  5
C9
331
1F1
  5
1CB
331
271
  5
8C
331
230
  5
CD
331
26D
  5
90
331
269
  5
94
331
87
  5
276
331
C6
  5
237
331
C2
  5
23B
331
FD
  5
218
331
BE
  5
23F
331
BA
  5
243
331
177
  5
213
331
22C
  5
D1
331
173
  5
214
331
1AE
  5
20E
331
228
  5
D5
331
224
  5
D9
331
265
  5
98
331
1E1
  5
1DB
331
261
  5
9C
331
220
  5
DD
331
25D
  5
A0
331
259
  5
A4
331
B6
  5
247
331
B2
  5
24B
331
AE
  5
24F
331
AA
  5
253
331
124
  5
215
331
21C
  5
E1
331
257
  5
A6
331
1DD
  5
1DF
331
218
  5
FD
331
214
  5
173
331
253
  5
AA
331
1D9
  5
1E3
331
210
  5
194
331
A6
  5
257
331
E1
  5
21C
331
A2
  5
25B
331
9E
  5
25F
331
DD
  5
220
331
9A
  5
263
331
D9
  5
224
331
24F
  5
AE
331
20C
  5
1B0
331
24B
  5
B2
331
247
  5
B6
331
243
  5
BA
331
278
  5
85
331
96
  5
267
331
D5
  5
228
331
D1
  5
22C
331
92
  5
26B
331
8E
  5
26F
331
CD
  5
230
331
8A
  5
273
331
C9
  5
234
331
23F
  5
BE
331
23B
  5
C2
331
237
  5
C6
331
274
  5
89
331
233
  5
CA
331
270
  5
8D
331
26C
  5
91
331
268
  5
95
331
86
  5
277
331
C5
  5
238
331
C1
  5
23C
331
BD
  5
240
331
B9
  5
244
331
22F
  5
CE
331
F0
  5
219
331
1B1
  5
20B
331
22B
  5
D2
331
227
  5
D6
331
223
  5
DA
331
264
  5
99
331
1E4
  5
1D8
331
1E0
  5
1DC
331
260
  5
9D
331
25C
  5
A1
331
258
  5
A5
331
B5
  5
248
331
B1
  5
24C
331
AD
  5
250
331
A9
  5
254
331
21F
  5
DE
331
1A1
  5
20F
331
21B
  5
E2
331
256
  5
A7
331
1DC
  5
1E0
331
217
  5
10A
331
1D8
  5
1E4
331
213
  5
177
331
252
  5
AB
331
75
  5
27A
331
A5
  5
258
331
E0
  5
21D
331
A1
  5
25C
331
9D
  5
260
331
DC
  5
221
331
117
  5
216
331
99
  5
264
331
D8
  5
225
331
20F
  5
1A1
331
24E
  5
AF
331
20B
  5
1B1
331
24A
  5
B3
331
246
  5
B7
331
242
  5
BB
331
27B
  5
73
331
95
  5
268
331
D4
  5
229
331
D0
  5
22D
331
91
  5
26C
331
8D
  5
270
331
CC
  5
231
331
89
  5
274
331
C8
  5
235
331
23E
  5
BF
331
23A
  5
C3
331
236
  5
C7
331
277
  5
86
331
273
  5
8A
331
232
  5
CB
331
26F
  5
8E
331
26B
  5
92
331
85
  5
278
331
C4
  5
239
331
C0
  5
23D
331
BC
  5
241
331
B8
  5
245
331
22E
  5
CF
331
1B0
  5
20C
331
22A
  5
D3
331
226
  5
D7
331
267
  5
96
331
222
  5
DB
331
263
  5
9A
331
1E3
  5
1D9
331
25F
  5
9E
331
25B
  5
A2
331
B4
  5
249
331
B0
  5
24D
331
AC
  5
251
331
A8
  5
255
331
21E
  5
DF
331
1DF
  5
1DD
331
21A
  5
E3
331
255
  5
A8
331
1DB
  5
1E1
331
216
  5
117
331
212
  5
178
331
251
  5
AC
331
E3
  5
21A
331
A4
  5
259
331
A0
  5
25D
331
DF
  5
21E
331
9C
  5
261
331
DB
  5
222
331
98
  5
265
331
194
  5
210
331
20E
  5
1AE
331
24D
  5
B0
331
249
  5
B4
331
245
  5
B8
331
1CB
  5
1F1
331
241
  5
BC
331
27A
  5
75
331
D7
  5
226
331
D3
  5
22A
331
94
  5
269
331
CF
  5
22E
331
10A
  5
217
331
90
  5
26D
331
8C
  5
271
331
CB
  5
232
331
88
  5
275
331
1FE
  5
1BE
331
23D
  5
C0
331
239
  5
C4
331
235
  5
C8
331
276
  5
87
331
272
  5
8B
331
231
  5
CC
331
178
  5
212
331
26E
  5
8F
331
26A
  5
93
331
C7
  5
236
331
84
  5
279
331
C3
  5
23A
331
BF
  5
23E
331
BB
  5
242
331
22D
  5
D0
331
1AF
  5
20D
331
229
  5
D4
331
225
  5
D8
331
266
  5
97
331
1E2
  5
1DA
331
262
  5
9B
331
221
  5
DC
331
25E
  5
9F
331
25A
  5
A3
  0
SORTENTSTABLE
  5
2DE
102
{ACAD_REACTORS
330
27D
102
}
330
27D
100
AcDbSortentsTable
330
27C
  0
LAYOUT
  5
1D
102
{ACAD_REACTORS
330
18
102
}
330
18
100
AcDbPlotSettings
  1

  2

  4

  6

 40
0.0
 41
0.0
 42
0.0
 43
0.0
 44
0.0
 45
0.0
 46
0.0
 47
0.0
 48
0.0
 49
0.0
140
0.0
141
0.0
142
1.0
143
1.0
 70
   688
 72
     0
 73
     0
 74
     5
  7

 75
    16
147
1.0
 76
     0
 77
     2
 78
   300
148
0.0
149
0.0
100
AcDbLayout
  1
Layout1
 70
     1
 71
     1
 10
0.0
 20
0.0
 11
420.0
 21
297.0
 12
0.0
 22
0.0
 32
0.0
 14
1.000000000000000E+20
 24
1.000000000000000E+20
 34
1.000000000000000E+20
 15
-1.000000000000000E+20
 25
-1.000000000000000E+20
 35
-1.000000000000000E+20
146
0.0
 13
0.0
 23
0.0
 33
0.0
 16
1.0
 26
0.0
 36
0.0
 17
0.0
 27
1.0
 37
0.0
 76
     0
330
1A
  0
LAYOUT
  5
17
102
{ACAD_REACTORS
330
18
102
}
330
18
100
AcDbPlotSettings
  1

  2
HP LJ 9040 PS
  4
A4
  6

 40
3.174999952316284
 41
3.174999952316284
 42
3.175003051757812
 43
3.17498779296875
 44
209.8886566162109
 45
297.0530090332031
 46
0.0
 47
0.0
 48
0.0
 49
0.0
140
0.0
141
0.0
142
1.0
143
10.2109273001746
 70
 11952
 72
     1
 73
     1
 74
     0
  7

 75
     0
147
0.0979342982867874
 76
     0
 77
     2
 78
   300
148
1107.63023951181
149
110.5217944986215
100
AcDbLayout
  1
Model
 70
     1
 71
     0
 10
0.0
 20
0.0
 11
0.0
 21
0.0
 12
0.0
 22
0.0
 32
0.0
 14
0.0
 24
0.0
 34
0.0
 15
297.0
 25
210.0
 35
0.0
146
0.0
 13
0.0
 23
0.0
 33
0.0
 16
1.0
 26
0.0
 36
0.0
 17
0.0
 27
1.0
 37
0.0
 76
     0
330
2
331
2A
1001
ACAD_PSEXT
1000
HP LJ 9040 PS
1000
HP LaserJet 9040 PS
1000
LPT1:
1000

1070
     0
  0
MATERIAL
  5
41
102
{ACAD_XDICTIONARY
360
42
102
}
102
{ACAD_REACTORS
330
D
102
}
330
D
100
AcDbMaterial
  1
ByBlock
 72
     0
 43
0.0008202099737533
 43
0.0
 43
0.0
 43
0.0
 43
0.0
 43
0.0008202099737533
 43
0.0
 43
0.0
 43
0.0
 43
0.0
 43
1.0
 43
0.0
 43
0.0
 43
0.0
 43
0.0
 43
1.0
 77
     0
 47
0.0008202099737533
 47
0.0
 47
0.0
 47
0.0
 47
0.0
 47
0.0008202099737533
 47
0.0
 47
0.0
 47
0.0
 47
0.0
 47
1.0
 47
0.0
 47
0.0
 47
0.0
 47
0.0
 47
1.0
171
     0
 49
0.0008202099737533
 49
0.0
 49
0.0
 49
0.0
 49
0.0
 49
0.0008202099737533
 49
0.0
 49
0.0
 49
0.0
 49
0.0
 49
1.0
 49
0.0
 49
0.0
 49
0.0
 49
0.0
 49
1.0
175
     0
142
0.0008202099737533
142
0.0
142
0.0
142
0.0
142
0.0
142
0.0008202099737533
142
0.0
142
0.0
142
0.0
142
0.0
142
1.0
142
0.0
142
0.0
142
0.0
142
0.0
142
1.0
179
     0
144
0.0008202099737533
144
0.0
144
0.0
144
0.0
144
0.0
144
0.0008202099737533
144
0.0
144
0.0
144
0.0
144
0.0
144
1.0
144
0.0
144
0.0
144
0.0
144
0.0
144
1.0
147
0.0008202099737533
147
0.0
147
0.0
147
0.0
147
0.0
147
0.0008202099737533
147
0.0
147
0.0
147
0.0
147
0.0
147
1.0
147
0.0
147
0.0
147
0.0
147
0.0
147
1.0
  0
MATERIAL
  5
39
102
{ACAD_XDICTIONARY
360
3A
102
}
102
{ACAD_REACTORS
330
D
102
}
330
D
100
AcDbMaterial
  1
ByLayer
 72
     0
 43
0.0008202099737533
 43
0.0
 43
0.0
 43
0.0
 43
0.0
 43
0.0008202099737533
 43
0.0
 43
0.0
 43
0.0
 43
0.0
 43
1.0
 43
0.0
 43
0.0
 43
0.0
 43
0.0
 43
1.0
 77
     0
 47
0.0008202099737533
 47
0.0
 47
0.0
 47
0.0
 47
0.0
 47
0.0008202099737533
 47
0.0
 47
0.0
 47
0.0
 47
0.0
 47
1.0
 47
0.0
 47
0.0
 47
0.0
 47
0.0
 47
1.0
171
     0
 49
0.0008202099737533
 49
0.0
 49
0.0
 49
0.0
 49
0.0
 49
0.0008202099737533
 49
0.0
 49
0.0
 49
0.0
 49
0.0
 49
1.0
 49
0.0
 49
0.0
 49
0.0
 49
0.0
 49
1.0
175
     0
142
0.0008202099737533
142
0.0
142
0.0
142
0.0
142
0.0
142
0.0008202099737533
142
0.0
142
0.0
142
0.0
142
0.0
142
1.0
142
0.0
142
0.0
142
0.0
142
0.0
142
1.0
179
     0
144
0.0008202099737533
144
0.0
144
0.0
144
0.0
144
0.0
144
0.0008202099737533
144
0.0
144
0.0
144
0.0
144
0.0
144
1.0
144
0.0
144
0.0
144
0.0
144
0.0
144
1.0
147
0.0008202099737533
147
0.0
147
0.0
147
0.0
147
0.0
147
0.0008202099737533
147
0.0
147
0.0
147
0.0
147
0.0
147
1.0
147
0.0
147
0.0
147
0.0
147
0.0
147
1.0
  0
MATERIAL
  5
C
102
{ACAD_XDICTIONARY
360
E
102
}
102
{ACAD_REACTORS
330
D
102
}
330
D
100
AcDbMaterial
  1
Global
 72
     0
 43
0.0008202099737533
 43
0.0
 43
0.0
 43
0.0
 43
0.0
 43
0.0008202099737533
 43
0.0
 43
0.0
 43
0.0
 43
0.0
 43
1.0
 43
0.0
 43
0.0
 43
0.0
 43
0.0
 43
1.0
 77
     0
 47
0.0008202099737533
 47
0.0
 47
0.0
 47
0.0
 47
0.0
 47
0.0008202099737533
 47
0.0
 47
0.0
 47
0.0
 47
0.0
 47
1.0
 47
0.0
 47
0.0
 47
0.0
 47
0.0
 47
1.0
171
     0
 49
0.0008202099737533
 49
0.0
 49
0.0
 49
0.0
 49
0.0
 49
0.0008202099737533
 49
0.0
 49
0.0
 49
0.0
 49
0.0
 49
1.0
 49
0.0
 49
0.0
 49
0.0
 49
0.0
 49
1.0
175
     0
142
0.0008202099737533
142
0.0
142
0.0
142
0.0
142
0.0
142
0.0008202099737533
142
0.0
142
0.0
142
0.0
142
0.0
142
1.0
142
0.0
142
0.0
142
0.0
142
0.0
142
1.0
179
     0
144
0.0008202099737533
144
0.0
144
0.0
144
0.0
144
0.0
144
0.0008202099737533
144
0.0
144
0.0
144
0.0
144
0.0
144
1.0
144
0.0
144
0.0
144
0.0
144
0.0
144
1.0
147
0.0008202099737533
147
0.0
147
0.0
147
0.0
147
0.0
147
0.0008202099737533
147
0.0
147
0.0
147
0.0
147
0.0
147
1.0
147
0.0
147
0.0
147
0.0
147
0.0
147
1.0
  0
MLINESTYLE
  5
4D
102
{ACAD_REACTORS
330
37
102
}
330
37
100
AcDbMlineStyle
  2
STANDARD
 70
     0
  3

 62
   256
 51
90.0
 52
90.0
 71
     2
 49
0.5
 62
   256
  6
BYLAYER
 49
-0.5
 62
   256
  6
BYLAYER
  0
ACDBPLACEHOLDER
  5
9
102
{ACAD_REACTORS
330
A
102
}
330
A
  0
SCALE
  5
52
102
{ACAD_REACTORS
330
4A
102
}
330
4A
100
AcDbScale
 70
     0
300
1:1
140
1.0
141
1.0
290
     1
  0
SCALE
  5
53
102
{ACAD_REACTORS
330
4A
102
}
330
4A
100
AcDbScale
 70
     0
300
1:2
140
1.0
141
2.0
290
     0
  0
SCALE
  5
54
102
{ACAD_REACTORS
330
4A
102
}
330
4A
100
AcDbScale
 70
     0
300
1:4
140
1.0
141
4.0
290
     0
  0
SCALE
  5
55
102
{ACAD_REACTORS
330
4A
102
}
330
4A
100
AcDbScale
 70
     0
300
1:5
140
1.0
141
5.0
290
     0
  0
SCALE
  5
56
102
{ACAD_REACTORS
330
4A
102
}
330
4A
100
AcDbScale
 70
     0
300
1:8
140
1.0
141
8.0
290
     0
  0
SCALE
  5
57
102
{ACAD_REACTORS
330
4A
102
}
330
4A
100
AcDbScale
 70
     0
300
1:10
140
1.0
141
10.0
290
     0
  0
SCALE
  5
58
102
{ACAD_REACTORS
330
4A
102
}
330
4A
100
AcDbScale
 70
     0
300
1:16
140
1.0
141
16.0
290
     0
  0
SCALE
  5
59
102
{ACAD_REACTORS
330
4A
102
}
330
4A
100
AcDbScale
 70
     0
300
1:20
140
1.0
141
20.0
290
     0
  0
SCALE
  5
5A
102
{ACAD_REACTORS
330
4A
102
}
330
4A
100
AcDbScale
 70
     0
300
1:30
140
1.0
141
30.0
290
     0
  0
SCALE
  5
5B
102
{ACAD_REACTORS
330
4A
102
}
330
4A
100
AcDbScale
 70
     0
300
1:40
140
1.0
141
40.0
290
     0
  0
SCALE
  5
5C
102
{ACAD_REACTORS
330
4A
102
}
330
4A
100
AcDbScale
 70
     0
300
1:50
140
1.0
141
50.0
290
     0
  0
SCALE
  5
5D
102
{ACAD_REACTORS
330
4A
102
}
330
4A
100
AcDbScale
 70
     0
300
1:100
140
1.0
141
100.0
290
     0
  0
SCALE
  5
5E
102
{ACAD_REACTORS
330
4A
102
}
330
4A
100
AcDbScale
 70
     0
300
2:1
140
2.0
141
1.0
290
     0
  0
SCALE
  5
5F
102
{ACAD_REACTORS
330
4A
102
}
330
4A
100
AcDbScale
 70
     0
300
4:1
140
4.0
141
1.0
290
     0
  0
SCALE
  5
60
102
{ACAD_REACTORS
330
4A
102
}
330
4A
100
AcDbScale
 70
     0
300
8:1
140
8.0
141
1.0
290
     0
  0
SCALE
  5
61
102
{ACAD_REACTORS
330
4A
102
}
330
4A
100
AcDbScale
 70
     0
300
10:1
140
10.0
141
1.0
290
     0
  0
SCALE
  5
62
102
{ACAD_REACTORS
330
4A
102
}
330
4A
100
AcDbScale
 70
     0
300
100:1
140
100.0
141
1.0
290
     0
  0
SCALE
  5
63
102
{ACAD_REACTORS
330
4A
102
}
330
4A
100
AcDbScale
 70
     0
300
1/128" = 1'-0"
140
0.0078125
141
12.0
290
     0
  0
SCALE
  5
64
102
{ACAD_REACTORS
330
4A
102
}
330
4A
100
AcDbScale
 70
     0
300
1/64" = 1'-0"
140
0.015625
141
12.0
290
     0
  0
SCALE
  5
65
102
{ACAD_REACTORS
330
4A
102
}
330
4A
100
AcDbScale
 70
     0
300
1/32" = 1'-0"
140
0.03125
141
12.0
290
     0
  0
SCALE
  5
66
102
{ACAD_REACTORS
330
4A
102
}
330
4A
100
AcDbScale
 70
     0
300
1/16" = 1'-0"
140
0.0625
141
12.0
290
     0
  0
SCALE
  5
67
102
{ACAD_REACTORS
330
4A
102
}
330
4A
100
AcDbScale
 70
     0
300
3/32" = 1'-0"
140
0.09375
141
12.0
290
     0
  0
SCALE
  5
68
102
{ACAD_REACTORS
330
4A
102
}
330
4A
100
AcDbScale
 70
     0
300
1/8" = 1'-0"
140
0.125
141
12.0
290
     0
  0
SCALE
  5
69
102
{ACAD_REACTORS
330
4A
102
}
330
4A
100
AcDbScale
 70
     0
300
3/16" = 1'-0"
140
0.1875
141
12.0
290
     0
  0
SCALE
  5
6A
102
{ACAD_REACTORS
330
4A
102
}
330
4A
100
AcDbScale
 70
     0
300
1/4" = 1'-0"
140
0.25
141
12.0
290
     0
  0
SCALE
  5
6B
102
{ACAD_REACTORS
330
4A
102
}
330
4A
100
AcDbScale
 70
     0
300
3/8" = 1'-0"
140
0.375
141
12.0
290
     0
  0
SCALE
  5
6C
102
{ACAD_REACTORS
330
4A
102
}
330
4A
100
AcDbScale
 70
     0
300
1/2" = 1'-0"
140
0.5
141
12.0
290
     0
  0
SCALE
  5
6D
102
{ACAD_REACTORS
330
4A
102
}
330
4A
100
AcDbScale
 70
     0
300
3/4" = 1'-0"
140
0.75
141
12.0
290
     0
  0
SCALE
  5
6E
102
{ACAD_REACTORS
330
4A
102
}
330
4A
100
AcDbScale
 70
     0
300
1" = 1'-0"
140
1.0
141
12.0
290
     0
  0
SCALE
  5
6F
102
{ACAD_REACTORS
330
4A
102
}
330
4A
100
AcDbScale
 70
     0
300
1-1/2" = 1'-0"
140
1.5
141
12.0
290
     0
  0
SCALE
  5
70
102
{ACAD_REACTORS
330
4A
102
}
330
4A
100
AcDbScale
 70
     0
300
3" = 1'-0"
140
3.0
141
12.0
290
     0
  0
SCALE
  5
71
102
{ACAD_REACTORS
330
4A
102
}
330
4A
100
AcDbScale
 70
     0
300
6" = 1'-0"
140
6.0
141
12.0
290
     0
  0
SCALE
  5
72
102
{ACAD_REACTORS
330
4A
102
}
330
4A
100
AcDbScale
 70
     0
300
1'-0" = 1'-0"
140
12.0
141
12.0
290
     0
  0
TABLESTYLE
  5
4E
102
{ACAD_XDICTIONARY
360
4F
102
}
102
{ACAD_REACTORS
330
4B
102
}
330
4B
100
AcDbTableStyle
280
     0
  3
Standard
 70
     0
 71
     0
 40
1.5
 41
1.5
280
     0
281
     0
  7
Standard
140
4.5
170
     2
 62
     0
 63
     7
283
     0
 90
      512
 91
        0
  1

274
    -2
284
     1
 64
     0
275
    -2
285
     1
 65
     0
276
    -2
286
     1
 66
     0
277
    -2
287
     1
 67
     0
278
    -2
288
     1
 68
     0
279
    -2
289
     1
 69
     0
  7
Standard
140
6.0
170
     5
 62
     0
 63
     7
283
     0
 90
      512
 91
        0
  1

274
    -2
284
     1
 64
     0
275
    -2
285
     1
 65
     0
276
    -2
286
     1
 66
     0
277
    -2
287
     1
 67
     0
278
    -2
288
     1
 68
     0
279
    -2
289
     1
 69
     0
  7
Standard
140
4.5
170
     5
 62
     0
 63
     7
283
     0
 90
      512
 91
        0
  1

274
    -2
284
     1
 64
     0
275
    -2
285
     1
 65
     0
276
    -2
286
     1
 66
     0
277
    -2
287
     1
 67
     0
278
    -2
288
     1
 68
     0
279
    -2
289
     1
 69
     0
  0
VISUALSTYLE
  5
2B
102
{ACAD_REACTORS
330
2C
102
}
330
2C
100
AcDbVisualStyle
  2
2dWireframe
 70
     4
177
     2
291
     0
 71
     0
176
     1
 72
     2
176
     1
 73
     0
176
     1
 90
        0
176
     1
 40
0.6
176
     1
 41
30.0
176
     1
 63
     7
176
     1
 74
     1
176
     1
 91
        4
176
     1
 64
     7
176
     1
 65
   257
176
     1
 75
     1
176
     1
175
     1
176
     1
 42
1.0
176
     1
 92
        0
176
     1
 66
   257
176
     1
 43
1.0
176
     1
 76
     1
176
     1
 77
     6
176
     1
 78
     2
176
     1
 67
     7
176
     1
 79
     5
176
     1
170
     0
176
     1
171
     0
176
     1
290
     0
176
     1
 93
        1
176
     1
 44
0.0
176
     1
173
     0
176
     1
  0
VISUALSTYLE
  5
51
102
{ACAD_REACTORS
330
2C
102
}
330
2C
100
AcDbVisualStyle
  2
3dWireframe
 70
     5
177
     2
291
     0
 71
     0
176
     1
 72
     2
176
     1
 73
     0
176
     1
 90
        0
176
     1
 40
0.6
176
     1
 41
30.0
176
     1
 63
     7
176
     1
 74
     1
176
     1
 91
        4
176
     1
 64
     7
176
     1
 65
   257
176
     1
 75
     1
176
     1
175
     1
176
     1
 42
1.0
176
     1
 92
        0
176
     1
 66
   257
176
     1
 43
1.0
176
     1
 76
     1
176
     1
 77
     6
176
     1
 78
     2
176
     1
 67
     7
176
     1
 79
     5
176
     1
170
     0
176
     1
171
     0
176
     1
290
     0
176
     1
 93
        1
176
     1
 44
0.0
176
     1
173
     0
176
     1
  0
VISUALSTYLE
  5
50
102
{ACAD_REACTORS
330
2C
102
}
330
2C
100
AcDbVisualStyle
  2
Realistic
 70
     8
177
     2
291
     0
 71
     2
176
     1
 72
     2
176
     1
 73
     0
176
     1
 90
        0
176
     1
 40
0.6
176
     1
 41
30.0
176
     1
 63
     7
176
     1
 74
     1
176
     1
 91
        0
176
     1
 64
     7
176
     1
 65
   257
176
     1
 75
     1
176
     1
175
     1
176
     1
 42
1.0
176
     1
 92
        8
176
     1
 66
     8
176
     1
 43
1.0
176
     1
 76
     1
176
     1
 77
     6
176
     1
 78
     2
176
     1
 67
     7
176
     1
 79
     5
176
     1
170
     0
176
     1
171
     0
176
     1
290
     0
176
     1
 93
       13
176
     1
 44
0.0
176
     1
173
     0
176
     1
  0
DICTIONARYVAR
  5
2E4
102
{ACAD_REACTORS
330
2E0
102
}
330
2E0
100
DictionaryVariables
280
     0
  1
1:1
  0
DICTIONARYVAR
  5
2E2
102
{ACAD_REACTORS
330
2E0
102
}
330
2E0
100
DictionaryVariables
280
     0
  1
STANDARD
  0
DICTIONARYVAR
  5
2E1
102
{ACAD_REACTORS
330
2E0
102
}
330
2E0
100
DictionaryVariables
280
     0
  1
STANDARD
  0
DICTIONARYVAR
  5
2E6
102
{ACAD_REACTORS
330
2E0
102
}
330
2E0
100
DictionaryVariables
280
     0
  1
1
  0
DICTIONARYVAR
  5
2E7
102
{ACAD_REACTORS
330
2E0
102
}
330
2E0
100
DictionaryVariables
280
     0
  1
15
  0
DICTIONARYVAR
  5
2E5
102
{ACAD_REACTORS
330
2E0
102
}
330
2E0
100
DictionaryVariables
280
     0
  1
0
  0
DICTIONARYVAR
  5
2E3
102
{ACAD_REACTORS
330
2E0
102
}
330
2E0
100
DictionaryVariables
280
     0
  1
0
  0
DICTIONARY
  5
42
330
41
100
AcDbDictionary
280
     1
281
     1
  3
BUMPTILE
360
43
  3
DIFFUSETILE
360
44
  3
OPACITYTILE
360
45
  3
REFLECTIONTILE
360
46
  3
REFRACTIONTILE
360
47
  3
SPECULARTILE
360
48
  0
DICTIONARY
  5
3A
330
39
100
AcDbDictionary
280
     1
281
     1
  3
BUMPTILE
360
3B
  3
DIFFUSETILE
360
3C
  3
OPACITYTILE
360
3D
  3
REFLECTIONTILE
360
3E
  3
REFRACTIONTILE
360
3F
  3
SPECULARTILE
360
40
  0
DICTIONARY
  5
E
330
C
100
AcDbDictionary
280
     1
281
     1
  3
BUMPTILE
360
F
  3
DIFFUSETILE
360
10
  3
OPACITYTILE
360
11
  3
REFLECTIONTILE
360
12
  3
REFRACTIONTILE
360
13
  3
SPECULARTILE
360
14
  0
DICTIONARY
  5
4F
330
4E
100
AcDbDictionary
280
     1
281
     1
  3
ACAD_ROUNDTRIP_2008_TABLESTYLE_CELLSTYLEMAP
360
2E8
  0
XRECORD
  5
43
102
{ACAD_REACTORS
330
42
102
}
330
42
100
AcDbXrecord
280
     1
270
     1
271
     1
  0
XRECORD
  5
44
102
{ACAD_REACTORS
330
42
102
}
330
42
100
AcDbXrecord
280
     1
270
     1
271
     1
  0
XRECORD
  5
45
102
{ACAD_REACTORS
330
42
102
}
330
42
100
AcDbXrecord
280
     1
270
     1
271
     1
  0
XRECORD
  5
46
102
{ACAD_REACTORS
330
42
102
}
330
42
100
AcDbXrecord
280
     1
270
     1
271
     1
  0
XRECORD
  5
47
102
{ACAD_REACTORS
330
42
102
}
330
42
100
AcDbXrecord
280
     1
270
     1
271
     1
  0
XRECORD
  5
48
102
{ACAD_REACTORS
330
42
102
}
330
42
100
AcDbXrecord
280
     1
270
     1
271
     1
  0
XRECORD
  5
3B
102
{ACAD_REACTORS
330
3A
102
}
330
3A
100
AcDbXrecord
280
     1
270
     1
271
     1
  0
XRECORD
  5
3C
102
{ACAD_REACTORS
330
3A
102
}
330
3A
100
AcDbXrecord
280
     1
270
     1
271
     1
  0
XRECORD
  5
3D
102
{ACAD_REACTORS
330
3A
102
}
330
3A
100
AcDbXrecord
280
     1
270
     1
271
     1
  0
XRECORD
  5
3E
102
{ACAD_REACTORS
330
3A
102
}
330
3A
100
AcDbXrecord
280
     1
270
     1
271
     1
  0
XRECORD
  5
3F
102
{ACAD_REACTORS
330
3A
102
}
330
3A
100
AcDbXrecord
280
     1
270
     1
271
     1
  0
XRECORD
  5
40
102
{ACAD_REACTORS
330
3A
102
}
330
3A
100
AcDbXrecord
280
     1
270
     1
271
     1
  0
XRECORD
  5
F
102
{ACAD_REACTORS
330
E
102
}
330
E
100
AcDbXrecord
280
     1
270
     1
271
     1
  0
XRECORD
  5
10
102
{ACAD_REACTORS
330
E
102
}
330
E
100
AcDbXrecord
280
     1
270
     1
271
     1
  0
XRECORD
  5
11
102
{ACAD_REACTORS
330
E
102
}
330
E
100
AcDbXrecord
280
     1
270
     1
271
     1
  0
XRECORD
  5
12
102
{ACAD_REACTORS
330
E
102
}
330
E
100
AcDbXrecord
280
     1
270
     1
271
     1
  0
XRECORD
  5
13
102
{ACAD_REACTORS
330
E
102
}
330
E
100
AcDbXrecord
280
     1
270
     1
271
     1
  0
XRECORD
  5
14
102
{ACAD_REACTORS
330
E
102
}
330
E
100
AcDbXrecord
280
     1
270
     1
271
     1
  0
CELLSTYLEMAP
  5
2E8
102
{ACAD_REACTORS
330
4F
102
}
330
4F
100
AcDbCellStyleMap
 90
        3
300
CELLSTYLE
  1
TABLEFORMAT_BEGIN
 90
        5
170
     1
 91
        0
 92
    32768
 62
   257
 93
        1
300
CONTENTFORMAT
  1
CONTENTFORMAT_BEGIN
 90
        0
 91
        0
 92
      512
 93
        0
300

 40
0.0
140
1.0
 94
        5
 62
     0
340
22
144
6.0
309
CONTENTFORMAT_END
171
     1
301
MARGIN
  1
CELLMARGIN_BEGIN
 40
1.5
 40
1.5
 40
1.5
 40
1.5
 40
4.5
 40
4.5
309
CELLMARGIN_END
 94
        6
 95
        1
302
GRIDFORMAT
  1
GRIDFORMAT_BEGIN
 90
        0
 91
        1
 62
     0
 92
       -2
340
0
 93
        0
 40
1.125
309
GRIDFORMAT_END
 95
        2
302
GRIDFORMAT
  1
GRIDFORMAT_BEGIN
 90
        0
 91
        1
 62
     0
 92
       -2
340
0
 93
        0
 40
1.125
309
GRIDFORMAT_END
 95
        4
302
GRIDFORMAT
  1
GRIDFORMAT_BEGIN
 90
        0
 91
        1
 62
     0
 92
       -2
340
0
 93
        0
 40
1.125
309
GRIDFORMAT_END
 95
        8
302
GRIDFORMAT
  1
GRIDFORMAT_BEGIN
 90
        0
 91
        1
 62
     0
 92
       -2
340
0
 93
        0
 40
1.125
309
GRIDFORMAT_END
 95
       16
302
GRIDFORMAT
  1
GRIDFORMAT_BEGIN
 90
        0
 91
        1
 62
     0
 92
       -2
340
0
 93
        0
 40
1.125
309
GRIDFORMAT_END
 95
       32
302
GRIDFORMAT
  1
GRIDFORMAT_BEGIN
 90
        0
 91
        1
 62
     0
 92
       -2
340
0
 93
        0
 40
1.125
309
GRIDFORMAT_END
309
TABLEFORMAT_END
  1
CELLSTYLE_BEGIN
 90
        1
 91
        1
300
_TITLE
309
CELLSTYLE_END
300
CELLSTYLE
  1
TABLEFORMAT_BEGIN
 90
        5
170
     1
 91
        0
 92
        0
 62
   257
 93
        1
300
CONTENTFORMAT
  1
CONTENTFORMAT_BEGIN
 90
        0
 91
        0
 92
      512
 93
        0
300

 40
0.0
140
1.0
 94
        5
 62
     0
340
22
144
4.5
309
CONTENTFORMAT_END
171
     1
301
MARGIN
  1
CELLMARGIN_BEGIN
 40
1.5
 40
1.5
 40
1.5
 40
1.5
 40
4.5
 40
4.5
309
CELLMARGIN_END
 94
        6
 95
        1
302
GRIDFORMAT
  1
GRIDFORMAT_BEGIN
 90
        0
 91
        1
 62
     0
 92
       -2
340
0
 93
        0
 40
1.125
309
GRIDFORMAT_END
 95
        2
302
GRIDFORMAT
  1
GRIDFORMAT_BEGIN
 90
        0
 91
        1
 62
     0
 92
       -2
340
0
 93
        0
 40
1.125
309
GRIDFORMAT_END
 95
        4
302
GRIDFORMAT
  1
GRIDFORMAT_BEGIN
 90
        0
 91
        1
 62
     0
 92
       -2
340
0
 93
        0
 40
1.125
309
GRIDFORMAT_END
 95
        8
302
GRIDFORMAT
  1
GRIDFORMAT_BEGIN
 90
        0
 91
        1
 62
     0
 92
       -2
340
0
 93
        0
 40
1.125
309
GRIDFORMAT_END
 95
       16
302
GRIDFORMAT
  1
GRIDFORMAT_BEGIN
 90
        0
 91
        1
 62
     0
 92
       -2
340
0
 93
        0
 40
1.125
309
GRIDFORMAT_END
 95
       32
302
GRIDFORMAT
  1
GRIDFORMAT_BEGIN
 90
        0
 91
        1
 62
     0
 92
       -2
340
0
 93
        0
 40
1.125
309
GRIDFORMAT_END
309
TABLEFORMAT_END
  1
CELLSTYLE_BEGIN
 90
        2
 91
        1
300
_HEADER
309
CELLSTYLE_END
300
CELLSTYLE
  1
TABLEFORMAT_BEGIN
 90
        5
170
     1
 91
        0
 92
        0
 62
   257
 93
        1
300
CONTENTFORMAT
  1
CONTENTFORMAT_BEGIN
 90
        0
 91
        0
 92
      512
 93
        0
300

 40
0.0
140
1.0
 94
        2
 62
     0
340
22
144
4.5
309
CONTENTFORMAT_END
171
     1
301
MARGIN
  1
CELLMARGIN_BEGIN
 40
1.5
 40
1.5
 40
1.5
 40
1.5
 40
4.5
 40
4.5
309
CELLMARGIN_END
 94
        6
 95
        1
302
GRIDFORMAT
  1
GRIDFORMAT_BEGIN
 90
        0
 91
        1
 62
     0
 92
       -2
340
0
 93
        0
 40
1.125
309
GRIDFORMAT_END
 95
        2
302
GRIDFORMAT
  1
GRIDFORMAT_BEGIN
 90
        0
 91
        1
 62
     0
 92
       -2
340
0
 93
        0
 40
1.125
309
GRIDFORMAT_END
 95
        4
302
GRIDFORMAT
  1
GRIDFORMAT_BEGIN
 90
        0
 91
        1
 62
     0
 92
       -2
340
0
 93
        0
 40
1.125
309
GRIDFORMAT_END
 95
        8
302
GRIDFORMAT
  1
GRIDFORMAT_BEGIN
 90
        0
 91
        1
 62
     0
 92
       -2
340
0
 93
        0
 40
1.125
309
GRIDFORMAT_END
 95
       16
302
GRIDFORMAT
  1
GRIDFORMAT_BEGIN
 90
        0
 91
        1
 62
     0
 92
       -2
340
0
 93
        0
 40
1.125
309
GRIDFORMAT_END
 95
       32
302
GRIDFORMAT
  1
GRIDFORMAT_BEGIN
 90
        0
 91
        1
 62
     0
 92
       -2
340
0
 93
        0
 40
1.125
309
GRIDFORMAT_END
309
TABLEFORMAT_END
  1
CELLSTYLE_BEGIN
 90
        3
 91
        2
300
_DATA
309
CELLSTYLE_END
  0
ENDSEC
  0
EOF
