  0
SECTION
  2
HEADER
  9
$ACADVER
  1
AC1024
  9
$ACADMAINTVER
 70
     6
  9
$DWGCODEPAGE
  3
ANSI_1252
  9
$INSBASE
 10
0.0
 20
0.0
 30
0.0
  9
$EXTMIN
 10
0.0
 20
0.0
 30
0.0
  9
$EXTMAX
 10
1049.999999999895
 20
742.499999999926
 30
0.0
  9
$LIMMIN
 10
0.0
 20
0.0
  9
$LIMMAX
 10
1049.999999999895
 20
742.499999999926
  9
$ORTHOMODE
 70
     1
  9
$REGENMODE
 70
     1
  9
$FILLMODE
 70
     1
  9
$QTEXTMODE
 70
     0
  9
$MIRRTEXT
 70
     0
  9
$LTSCALE
 40
20.0
  9
$ATTMODE
 70
     1
  9
$TEXTSIZE
 40
10.0
  9
$TRACEWID
 40
1.0
  9
$TEXTSTYLE
  7
ROMANS
  9
$CLAYER
  8
09-01
  9
$CELTYPE
  6
ByLayer
  9
$CECOLOR
 62
   256
  9
$CELTSCALE
 40
1.0
  9
$DISPSILH
 70
     0
  9
$DIMSCALE
 40
2.5
  9
$DIMASZ
 40
2.5
  9
$DIMEXO
 40
1.0
  9
$DIMDLI
 40
10.0
  9
$DIMRND
 40
0.0
  9
$DIMDLE
 40
0.0
  9
$DIMEXE
 40
1.0
  9
$DIMTP
 40
0.0
  9
$DIMTM
 40
0.0
  9
$DIMTXT
 40
2.5
  9
$DIMCEN
 40
0.0
  9
$DIMTSZ
 40
0.0
  9
$DIMTOL
 70
     0
  9
$DIMLIM
 70
     0
  9
$DIMTIH
 70
     0
  9
$DIMTOH
 70
     0
  9
$DIMSE1
 70
     0
  9
$DIMSE2
 70
     0
  9
$DIMTAD
 70
     1
  9
$DIMZIN
 70
     8
  9
$DIMBLK
  1

  9
$DIMASO
 70
     1
  9
$DIMSHO
 70
     0
  9
$DIMPOST
  1

  9
$DIMAPOST
  1

  9
$DIMALT
 70
     0
  9
$DIMALTD
 70
     3
  9
$DIMALTF
 40
0.03937007874016
  9
$DIMLFAC
 40
1.0
  9
$DIMTOFL
 70
     1
  9
$DIMTVP
 40
0.0
  9
$DIMTIX
 70
     0
  9
$DIMSOXD
 70
     0
  9
$DIMSAH
 70
     0
  9
$DIMBLK1
  1

  9
$DIMBLK2
  1

  9
$DIMSTYLE
  2
Wagner
  9
$DIMCLRD
 70
     4
  9
$DIMCLRE
 70
     4
  9
$DIMCLRT
 70
     1
  9
$DIMTFAC
 40
1.0
  9
$DIMGAP
 40
1.0
  9
$DIMJUST
 70
     0
  9
$DIMSD1
 70
     0
  9
$DIMSD2
 70
     0
  9
$DIMTOLJ
 70
     0
  9
$DIMTZIN
 70
     8
  9
$DIMALTZ
 70
     0
  9
$DIMALTTZ
 70
     0
  9
$DIMUPT
 70
     0
  9
$DIMDEC
 70
     8
  9
$DIMTDEC
 70
     8
  9
$DIMALTU
 70
     2
  9
$DIMALTTD
 70
     3
  9
$DIMTXSTY
  7
STANDARD
  9
$DIMAUNIT
 70
     0
  9
$DIMADEC
 70
     2
  9
$DIMALTRND
 40
0.0
  9
$DIMAZIN
 70
     2
  9
$DIMDSEP
 70
    46
  9
$DIMATFIT
 70
     3
  9
$DIMFRAC
 70
     0
  9
$DIMLDRBLK
  1

  9
$DIMLUNIT
 70
     2
  9
$DIMLWD
 70
    -2
  9
$DIMLWE
 70
    -2
  9
$DIMTMOVE
 70
     0
  9
$DIMFXL
 40
1.0
  9
$DIMFXLON
 70
     0
  9
$DIMJOGANG
 40
0.7853981633974483
  9
$DIMTFILL
 70
     0
  9
$DIMTFILLCLR
 70
     0
  9
$DIMARCSYM
 70
     0
  9
$DIMLTYPE
  6

  9
$DIMLTEX1
  6

  9
$DIMLTEX2
  6

  9
$DIMTXTDIRECTION
 70
     0
  9
$LUNITS
 70
     2
  9
$LUPREC
 70
     2
  9
$SKETCHINC
 40
1.0
  9
$FILLETRAD
 40
0.0
  9
$AUNITS
 70
     0
  9
$AUPREC
 70
     2
  9
$MENU
  1
cncmenue
  9
$ELEVATION
 40
0.0
  9
$PELEVATION
 40
0.0
  9
$THICKNESS
 40
0.0
  9
$LIMCHECK
 70
     0
  9
$CHAMFERA
 40
0.0
  9
$CHAMFERB
 40
0.0
  9
$CHAMFERC
 40
0.0
  9
$CHAMFERD
 40
0.0
  9
$SKPOLY
 70
     0
  9
$TDCREATE
 40
2451493.454888773
  9
$TDUCREATE
 40
2451493.371555440
  9
$TDUPDATE
 40
2456225.706931840
  9
$TDUUPDATE
 40
2456225.623598507
  9
$TDINDWG
 40
0.5186311690
  9
$TDUSRTIMER
 40
0.5186311690
  9
$USRTIMER
 70
     1
  9
$ANGBASE
 50
0.0
  9
$ANGDIR
 70
     0
  9
$PDMODE
 70
     0
  9
$PDSIZE
 40
0.0
  9
$PLINEWID
 40
0.0
  9
$SPLFRAME
 70
     0
  9
$SPLINETYPE
 70
     6
  9
$SPLINESEGS
 70
     8
  9
$HANDSEED
  5
47A
  9
$SURFTAB1
 70
    24
  9
$SURFTAB2
 70
    24
  9
$SURFTYPE
 70
     6
  9
$SURFU
 70
     6
  9
$SURFV
 70
     6
  9
$UCSBASE
  2

  9
$UCSNAME
  2

  9
$UCSORG
 10
0.0
 20
0.0
 30
0.0
  9
$UCSXDIR
 10
1.0
 20
0.0
 30
0.0
  9
$UCSYDIR
 10
0.0
 20
1.0
 30
0.0
  9
$UCSORTHOREF
  2

  9
$UCSORTHOVIEW
 70
     0
  9
$UCSORGTOP
 10
0.0
 20
0.0
 30
0.0
  9
$UCSORGBOTTOM
 10
0.0
 20
0.0
 30
0.0
  9
$UCSORGLEFT
 10
0.0
 20
0.0
 30
0.0
  9
$UCSORGRIGHT
 10
0.0
 20
0.0
 30
0.0
  9
$UCSORGFRONT
 10
0.0
 20
0.0
 30
0.0
  9
$UCSORGBACK
 10
0.0
 20
0.0
 30
0.0
  9
$PUCSBASE
  2

  9
$PUCSNAME
  2

  9
$PUCSORG
 10
0.0
 20
0.0
 30
0.0
  9
$PUCSXDIR
 10
1.0
 20
0.0
 30
0.0
  9
$PUCSYDIR
 10
0.0
 20
1.0
 30
0.0
  9
$PUCSORTHOREF
  2

  9
$PUCSORTHOVIEW
 70
     0
  9
$PUCSORGTOP
 10
0.0
 20
0.0
 30
0.0
  9
$PUCSORGBOTTOM
 10
0.0
 20
0.0
 30
0.0
  9
$PUCSORGLEFT
 10
0.0
 20
0.0
 30
0.0
  9
$PUCSORGRIGHT
 10
0.0
 20
0.0
 30
0.0
  9
$PUCSORGFRONT
 10
0.0
 20
0.0
 30
0.0
  9
$PUCSORGBACK
 10
0.0
 20
0.0
 30
0.0
  9
$USERI1
 70
     0
  9
$USERI2
 70
     0
  9
$USERI3
 70
     0
  9
$USERI4
 70
     0
  9
$USERI5
 70
     0
  9
$USERR1
 40
0.0
  9
$USERR2
 40
0.0
  9
$USERR3
 40
0.0
  9
$USERR4
 40
0.0
  9
$USERR5
 40
0.0
  9
$WORLDVIEW
 70
     1
  9
$SHADEDGE
 70
     3
  9
$SHADEDIF
 70
    70
  9
$TILEMODE
 70
     1
  9
$MAXACTVP
 70
    16
  9
$PINSBASE
 10
0.0
 20
0.0
 30
0.0
  9
$PLIMCHECK
 70
     0
  9
$PEXTMIN
 10
1.000000000000000E+20
 20
1.000000000000000E+20
 30
1.000000000000000E+20
  9
$PEXTMAX
 10
-1.000000000000000E+20
 20
-1.000000000000000E+20
 30
-1.000000000000000E+20
  9
$PLIMMIN
 10
0.0
 20
0.0
  9
$PLIMMAX
 10
12.0
 20
9.0
  9
$UNITMODE
 70
     0
  9
$VISRETAIN
 70
     0
  9
$PLINEGEN
 70
     0
  9
$PSLTSCALE
 70
     0
  9
$TREEDEPTH
 70
  3020
  9
$CMLSTYLE
  2
Standard
  9
$CMLJUST
 70
     0
  9
$CMLSCALE
 40
1.0
  9
$PROXYGRAPHICS
 70
     1
  9
$MEASUREMENT
 70
     0
  9
$CELWEIGHT
370
    -1
  9
$ENDCAPS
280
     0
  9
$JOINSTYLE
280
     0
  9
$LWDISPLAY
290
     0
  9
$INSUNITS
 70
     4
  9
$HYPERLINKBASE
  1

  9
$STYLESHEET
  1

  9
$XEDIT
290
     1
  9
$CEPSNTYPE
380
     0
  9
$PSTYLEMODE
290
     1
  9
$FINGERPRINTGUID
  2
{95DE5112-E71C-4B0A-AF65-F10994EF8E88}
  9
$VERSIONGUID
  2
{2D1E407A-1640-4A3D-810B-5024874D0C13}
  9
$EXTNAMES
290
     1
  9
$PSVPSCALE
 40
0.0
  9
$OLESTARTUP
290
     0
  9
$SORTENTS
280
   127
  9
$INDEXCTL
280
     0
  9
$HIDETEXT
280
     1
  9
$XCLIPFRAME
280
     0
  9
$HALOGAP
280
     0
  9
$OBSCOLOR
 70
   257
  9
$OBSLTYPE
280
     0
  9
$INTERSECTIONDISPLAY
280
     0
  9
$INTERSECTIONCOLOR
 70
   257
  9
$DIMASSOC
280
     1
  9
$PROJECTNAME
  1

  9
$CAMERADISPLAY
290
     0
  9
$LENSLENGTH
 40
50.0
  9
$CAMERAHEIGHT
 40
0.0
  9
$STEPSPERSEC
 40
2.0
  9
$STEPSIZE
 40
6.0
  9
$3DDWFPREC
 40
2.0
  9
$PSOLWIDTH
 40
0.25
  9
$PSOLHEIGHT
 40
4.0
  9
$LOFTANG1
 40
1.570796326794896
  9
$LOFTANG2
 40
1.570796326794896
  9
$LOFTMAG1
 40
0.0
  9
$LOFTMAG2
 40
0.0
  9
$LOFTPARAM
 70
     7
  9
$LOFTNORMALS
280
     1
  9
$LATITUDE
 40
37.795
  9
$LONGITUDE
 40
-122.394
  9
$NORTHDIRECTION
 40
0.0
  9
$TIMEZONE
 70
 -8000
  9
$LIGHTGLYPHDISPLAY
280
     1
  9
$TILEMODELIGHTSYNCH
280
     1
  9
$CMATERIAL
347
3A
  9
$SOLIDHIST
280
     1
  9
$SHOWHIST
280
     1
  9
$DWFFRAME
280
     2
  9
$DGNFRAME
280
     0
  9
$REALWORLDSCALE
290
     1
  9
$INTERFERECOLOR
 62
     1
  9
$INTERFEREOBJVS
345
55
  9
$INTERFEREVPVS
346
56
  9
$CSHADOW
280
     0
  9
$SHADOWPLANELOCATION
 40
0.0
  0
ENDSEC
  0
SECTION
  2
CLASSES
  0
CLASS
  1
ACDBDICTIONARYWDFLT
  2
AcDbDictionaryWithDefault
  3
ObjectDBX Classes
 90
        0
 91
        1
280
     0
281
     0
  0
CLASS
  1
MATERIAL
  2
AcDbMaterial
  3
ObjectDBX Classes
 90
     1153
 91
        3
280
     0
281
     0
  0
CLASS
  1
VISUALSTYLE
  2
AcDbVisualStyle
  3
ObjectDBX Classes
 90
     4095
 91
        3
280
     0
281
     0
  0
CLASS
  1
TABLESTYLE
  2
AcDbTableStyle
  3
ObjectDBX Classes
 90
     4095
 91
        1
280
     0
281
     0
  0
CLASS
  1
SCALE
  2
AcDbScale
  3
ObjectDBX Classes
 90
     1153
 91
       33
280
     0
281
     0
  0
CLASS
  1
MLEADERSTYLE
  2
AcDbMLeaderStyle
  3
ACDB_MLEADERSTYLE_CLASS
 90
     4095
 91
        0
280
     0
281
     0
  0
CLASS
  1
SORTENTSTABLE
  2
AcDbSortentsTable
  3
ObjectDBX Classes
 90
        0
 91
        6
280
     0
281
     0
  0
CLASS
  1
CELLSTYLEMAP
  2
AcDbCellStyleMap
  3
ObjectDBX Classes
 90
     1152
 91
        1
280
     0
281
     0
  0
CLASS
  1
DICTIONARYVAR
  2
AcDbDictionaryVar
  3
ObjectDBX Classes
 90
        0
 91
        6
280
     0
281
     0
  0
CLASS
  1
ACAD_TABLE
  2
AcDbTable
  3
ObjectDBX Classes
 90
     1025
 91
        0
280
     0
281
     1
  0
CLASS
  1
TABLECONTENT
  2
AcDbTableContent
  3
ObjectDBX Classes
 90
     1152
 91
        0
280
     0
281
     0
  0
CLASS
  1
TABLEGEOMETRY
  2
AcDbTableGeometry
  3
ObjectDBX Classes
 90
     1152
 91
        0
280
     0
281
     0
  0
CLASS
  1
ACAD_EVALUATION_GRAPH
  2
AcDbEvalGraph
  3
ObjectDBX Classes
 90
     1153
 91
        0
280
     0
281
     0
  0
CLASS
  1
BLOCKBASEPOINTPARAMETER
  2
AcDbBlockBasepointParameter
  3
ObjectDBX Classes
 90
     1153
 91
        0
280
     0
281
     0
  0
CLASS
  1
ACDB_DYNAMICBLOCKPURGEPREVENTER_VERSION
  2
AcDbDynamicBlockPurgePreventer
  3
ObjectDBX Classes
 90
     1153
 91
        0
280
     0
281
     0
  0
CLASS
  1
DIMASSOC
  2
AcDbDimAssoc
  3
"AcDbDimAssoc|Product Desc:     AcDim ARX App For Dimension|Company:          Autodesk, Inc.|WEB Address:      www.autodesk.com"
 90
        0
 91
        0
280
     0
281
     0
  0
CLASS
  1
IMAGEDEF
  2
AcDbRasterImageDef
  3
ISM
 90
        0
 91
        0
280
     0
281
     0
  0
CLASS
  1
SOLID_BACKGROUND
  2
AcDbSolidBackground
  3
SCENEOE
 90
     4095
 91
        0
280
     0
281
     0
  0
CLASS
  1
NPOCOLLECTION
  2
AcDbImpNonPersistentObjectsCollection
  3
ObjectDBX Classes
 90
     1153
 91
        0
280
     0
281
     0
  0
ENDSEC
  0
SECTION
  2
TABLES
  0
TABLE
  2
VPORT
  5
2B
330
0
100
AcDbSymbolTable
 70
     1
  0
VPORT
  5
2C
330
2B
100
AcDbSymbolTableRecord
100
AcDbViewportTableRecord
  2
*Active
 70
     0
 10
0.0
 20
0.0
 11
1.0
 21
1.0
 12
564.8989758340808
 22
338.026061968449
 13
0.0
 23
0.0
 14
1.0
 24
1.0
 15
100.0
 25
100.0
 16
0.0
 26
0.0
 36
1.0
 17
0.0
 27
0.0
 37
0.0
 40
1195.112671461588
 41
1.937738246505718
 42
50.0
 43
0.0
 44
0.0
 50
0.0
 51
0.0
 71
     0
 72
  1000
 73
     1
 74
     0
 75
     0
 76
     0
 77
     0
 78
     0
281
     0
 65
     1
110
0.0
120
0.0
130
0.0
111
1.0
121
0.0
131
0.0
112
0.0
122
1.0
132
0.0
 79
     0
146
0.0
348
2D
 60
     3
 61
     5
292
     1
282
     1
141
0.0
142
0.0
 63
   250
421
  3355443
  0
ENDTAB
  0
TABLE
  2
LTYPE
  5
26
330
0
100
AcDbSymbolTable
 70
     4
  0
LTYPE
  5
27
330
26
100
AcDbSymbolTableRecord
100
AcDbLinetypeTableRecord
  2
ByBlock
 70
     0
  3

 72
    65
 73
     0
 40
0.0
  0
LTYPE
  5
28
330
26
100
AcDbSymbolTableRecord
100
AcDbLinetypeTableRecord
  2
ByLayer
 70
     0
  3

 72
    65
 73
     0
 40
0.0
  0
LTYPE
  5
15
330
26
100
AcDbSymbolTableRecord
100
AcDbLinetypeTableRecord
  2
CONTINUOUS
 70
     0
  3
Ausgezogene Linie
 72
    65
 73
     0
 40
0.0
  0
LTYPE
  5
93
330
26
100
AcDbSymbolTableRecord
100
AcDbLinetypeTableRecord
  2
VERDECKT
 70
     0
  3
__ __ __ __ __ __ __ __ __ __ __ __ __ __ __ __
 72
    65
 73
     2
 40
0.375
 49
0.25
 74
     0
 49
-0.125
 74
     0
  0
LTYPE
  5
15A
330
26
100
AcDbSymbolTableRecord
100
AcDbLinetypeTableRecord
  2
STRICHPUNKT
 70
     0
  3
__ . __ . __ . __ . __ . __ . __ . __ . __ . __
 72
    65
 73
     4
 40
1.0
 49
0.5
 74
     0
 49
-0.25
 74
     0
 49
0.0
 74
     0
 49
-0.25
 74
     0
  0
LTYPE
  5
1C7
330
26
100
AcDbSymbolTableRecord
100
AcDbLinetypeTableRecord
  2
AUSGEZOGEN
 70
     0
  3
Ausgezogene Linie
 72
    65
 73
     0
 40
0.0
  0
ENDTAB
  0
TABLE
  2
LAYER
  5
1D
102
{ACAD_XDICTIONARY
360
1E
102
}
330
0
100
AcDbSymbolTable
 70
    11
  0
LAYER
  5
6
102
{ACAD_XDICTIONARY
360
7
102
}
330
1D
100
AcDbSymbolTableRecord
100
AcDbLayerTableRecord
  2
0
 70
     0
 62
     7
  6
CONTINUOUS
370
    -3
390
9
347
C
  0
LAYER
  5
79
102
{ACAD_XDICTIONARY
360
7A
102
}
330
1D
100
AcDbSymbolTableRecord
100
AcDbLayerTableRecord
  2
01-01
 70
     0
 62
     2
  6
CONTINUOUS
370
    -3
390
9
347
C
  0
LAYER
  5
B2
102
{ACAD_XDICTIONARY
360
B3
102
}
330
1D
100
AcDbSymbolTableRecord
100
AcDbLayerTableRecord
  2
03-01
 70
     0
 62
     3
  6
VERDECKT
370
    -3
390
9
347
C
  0
LAYER
  5
157
102
{ACAD_XDICTIONARY
360
158
102
}
330
1D
100
AcDbSymbolTableRecord
100
AcDbLayerTableRecord
  2
05-01
 70
     0
 62
     1
  6
STRICHPUNKT
370
    -3
390
9
347
C
  0
LAYER
  5
4E
102
{ACAD_XDICTIONARY
360
4F
102
}
330
1D
100
AcDbSymbolTableRecord
100
AcDbLayerTableRecord
  2
09-01
 70
     0
 62
     7
  6
CONTINUOUS
370
    -3
390
9
347
C
  0
LAYER
  5
186
102
{ACAD_XDICTIONARY
360
187
102
}
330
1D
100
AcDbSymbolTableRecord
100
AcDbLayerTableRecord
  2
01-99
 70
     0
 62
     2
  6
CONTINUOUS
370
    -3
390
9
347
C
  0
LAYER
  5
1C4
102
{ACAD_XDICTIONARY
360
1C5
102
}
330
1D
100
AcDbSymbolTableRecord
100
AcDbLayerTableRecord
  2
06-99
 70
     0
 62
     1
  6
AUSGEZOGEN
370
    -3
390
9
347
C
  0
LAYER
  5
9F
330
1D
100
AcDbSymbolTableRecord
100
AcDbLayerTableRecord
  2
DEFPOINTS
 70
     0
 62
     7
  6
CONTINUOUS
290
     0
370
    -3
390
9
347
C
  0
LAYER
  5
18B
102
{ACAD_XDICTIONARY
360
18C
102
}
330
1D
100
AcDbSymbolTableRecord
100
AcDbLayerTableRecord
  2
02-01
 70
     0
 62
     1
  6
CONTINUOUS
370
    -3
390
9
347
C
  0
LAYER
  5
1B0
330
1D
100
AcDbSymbolTableRecord
100
AcDbLayerTableRecord
  2
08-99
 70
     0
 62
     7
  6
CONTINUOUS
370
    -3
390
9
347
C
  0
LAYER
  5
81
102
{ACAD_XDICTIONARY
360
82
102
}
330
1D
100
AcDbSymbolTableRecord
100
AcDbLayerTableRecord
  2
02TNR-01
 70
     0
 62
     1
  6
CONTINUOUS
370
    -3
390
9
347
C
  0
ENDTAB
  0
TABLE
  2
STYLE
  5
23
330
0
100
AcDbSymbolTable
 70
     4
  0
STYLE
  5
24
330
23
100
AcDbSymbolTableRecord
100
AcDbTextStyleTableRecord
  2
STANDARD
 70
     0
 40
0.0
 41
1.0
 50
0.0
 71
     0
 42
3.5
  3
txt.shx
  4

  0
STYLE
  5
51
330
23
100
AcDbSymbolTableRecord
100
AcDbTextStyleTableRecord
  2
ROMANS
 70
     0
 40
0.0
 41
1.0
 50
0.0
 71
     0
 42
10.0
  3
ROMANS.SHX
  4

  0
STYLE
  5
1B1
330
23
100
AcDbSymbolTableRecord
100
AcDbTextStyleTableRecord
  2
ROMANS8
 70
     0
 40
0.0
 41
1.0
 50
0.0
 71
     0
 42
2.5
  3
ROMANS8
  4

  0
STYLE
  5
309
330
23
100
AcDbSymbolTableRecord
100
AcDbTextStyleTableRecord
  2
ROMAND8
 70
     0
 40
0.0
 41
1.0
 50
0.0
 71
     0
 42
3.5
  3
ROMAND8
  4

  0
ENDTAB
  0
TABLE
  2
VIEW
  5
29
330
0
100
AcDbSymbolTable
 70
     0
  0
ENDTAB
  0
TABLE
  2
UCS
  5
2A
330
0
100
AcDbSymbolTable
 70
     0
  0
ENDTAB
  0
TABLE
  2
APPID
  5
2F
330
0
100
AcDbSymbolTable
 70
     4
  0
APPID
  5
22
330
2F
100
AcDbSymbolTableRecord
100
AcDbRegAppTableRecord
  2
ACAD
 70
     0
  0
APPID
  5
32
330
2F
100
AcDbSymbolTableRecord
100
AcDbRegAppTableRecord
  2
ACAD_DSTYLE_DIMJOGGED_JOGANGLE_SYMBOL
 70
     0
  0
APPID
  5
33
330
2F
100
AcDbSymbolTableRecord
100
AcDbRegAppTableRecord
  2
ACAD_DSTYLE_DIMJAG
 70
     0
  0
APPID
  5
34
330
2F
100
AcDbSymbolTableRecord
100
AcDbRegAppTableRecord
  2
ACAD_DSTYLE_DIMTALN
 70
     0
  0
ENDTAB
  0
TABLE
  2
DIMSTYLE
  5
30
330
0
100
AcDbSymbolTable
 70
     3
100
AcDbDimStyleTable
 71
     2
340
31
340
35
  0
DIMSTYLE
105
35
330
30
100
AcDbSymbolTableRecord
100
AcDbDimStyleTableRecord
  2
Standard
 70
     0
340
24
  0
DIMSTYLE
105
31
330
30
100
AcDbSymbolTableRecord
100
AcDbDimStyleTableRecord
  2
Wagner
 70
     0
 41
2.5
 42
1.0
 43
10.0
 44
1.0
 73
     0
 74
     0
 77
     1
 78
     8
 79
     2
140
2.5
141
0.0
143
0.03937007874016
147
1.0
171
     3
172
     1
176
     4
177
     4
178
     1
179
     2
271
     8
272
     8
274
     3
283
     0
284
     8
340
24
1001
ACAD_DSTYLE_DIMJOGGED_JOGANGLE_SYMBOL
1070
   384
1040
0.7853981633974483
1001
ACAD_DSTYLE_DIMJAG
1070
   388
1040
1.5
1001
ACAD_DSTYLE_DIMTALN
1070
   392
1070
     0
  0
DIMSTYLE
105
A3
102
{ACAD_REACTORS
330
392
330
39F
330
3AC
330
3B9
330
3C6
330
3D5
330
3E4
330
3F1
330
400
330
41E
330
42B
330
438
330
453
330
148
330
13B
330
12C
330
11F
330
110
330
103
330
F6
330
E9
330
DA
330
CB
330
BC
330
A4
330
95
102
}
330
30
100
AcDbSymbolTableRecord
100
AcDbDimStyleTableRecord
  2
Wagner$0
 70
     0
 41
2.5
 42
1.0
 43
10.0
 44
1.0
 73
     0
 74
     0
 77
     1
 78
     8
 79
     2
140
2.5
141
0.0
143
0.03937007874016
147
1.0
171
     3
172
     1
174
     1
176
     4
177
     4
178
     1
179
     2
271
     8
272
     8
274
     3
279
     2
283
     0
284
     8
340
24
1001
ACAD_DSTYLE_DIMJOGGED_JOGANGLE_SYMBOL
1070
   384
1040
0.7853981633974483
1001
ACAD_DSTYLE_DIMJAG
1070
   388
1040
1.5
1001
ACAD_DSTYLE_DIMTALN
1070
   392
1070
     0
  0
ENDTAB
  0
TABLE
  2
BLOCK_RECORD
  5
1
330
0
100
AcDbSymbolTable
 70
    31
  0
BLOCK_RECORD
  5
2
102
{ACAD_XDICTIONARY
360
3
102
}
330
1
100
AcDbSymbolTableRecord
100
AcDbBlockTableRecord
  2
*Model_Space
340
17
 70
     0
280
     1
281
     0
  0
BLOCK_RECORD
  5
19
330
1
100
AcDbSymbolTableRecord
100
AcDbBlockTableRecord
  2
*Paper_Space
340
1C
 70
     0
280
     1
281
     0
  0
BLOCK_RECORD
  5
378
330
1
100
AcDbSymbolTableRecord
100
AcDbBlockTableRecord
  2
Behaelter01-v
340
0
310
2800000020000000200000000100080000000000000400000000000000000000000000000000000000000000000080000080000000808000800000008000800080800000C0C0C000C0DCC000F0CAA6000020400000206000002080000020A0000020C0000020E00000400000004020000040400000406000004080000040A0
310
000040C0000040E00000600000006020000060400000606000006080000060A0000060C0000060E00000800000008020000080400000806000008080000080A0000080C0000080E00000A0000000A0200000A0400000A0600000A0800000A0A00000A0C00000A0E00000C0000000C0200000C0400000C0600000C0800000C0
310
A00000C0C00000C0E00000E0000000E0200000E0400000E0600000E0800000E0A00000E0C00000E0E00040000000400020004000400040006000400080004000A0004000C0004000E00040200000402020004020400040206000402080004020A0004020C0004020E000404000004040200040404000404060004040800040
310
40A0004040C0004040E00040600000406020004060400040606000406080004060A0004060C0004060E00040800000408020004080400040806000408080004080A0004080C0004080E00040A0000040A0200040A0400040A0600040A0800040A0A00040A0C00040A0E00040C0000040C0200040C0400040C0600040C08000
310
40C0A00040C0C00040C0E00040E0000040E0200040E0400040E0600040E0800040E0A00040E0C00040E0E00080000000800020008000400080006000800080008000A0008000C0008000E00080200000802020008020400080206000802080008020A0008020C0008020E00080400000804020008040400080406000804080
310
008040A0008040C0008040E00080600000806020008060400080606000806080008060A0008060C0008060E00080800000808020008080400080806000808080008080A0008080C0008080E00080A0000080A0200080A0400080A0600080A0800080A0A00080A0C00080A0E00080C0000080C0200080C0400080C0600080C0
310
800080C0A00080C0C00080C0E00080E0000080E0200080E0400080E0600080E0800080E0A00080E0C00080E0E000C0000000C0002000C0004000C0006000C0008000C000A000C000C000C000E000C0200000C0202000C0204000C0206000C0208000C020A000C020C000C020E000C0400000C0402000C0404000C0406000C0
310
408000C040A000C040C000C040E000C0600000C0602000C0604000C0606000C0608000C060A000C060C000C060E000C0800000C0802000C0804000C0806000C0808000C080A000C080C000C080E000C0A00000C0A02000C0A04000C0A06000C0A08000C0A0A000C0A0C000C0A0E000C0C00000C0C02000C0C04000C0C06000
310
C0C08000C0C0A000F0FBFF00A4A0A000808080000000FF0000FF000000FFFF00FF000000FF00FF00FFFF0000FFFFFF00000000000000000000000000000000000000000000000000000000000000000000000000000000000000000000000000000000000000000000000000000000000000FFFFFFFFFFFFFFFFFFFFFFFFFF
310
FFFFFFFFFFFFFFFFFFFFFFFFFFFFFF00000000FFFAFAFAFAFAFAFAFAFAFAFAFAFAFAFAFAFAFAFAFAFAFAFAFAFAFAFF00000000FA0000000000000000000000000000000000000000000000000000FA00000000FA0000000000000000000000000000000000000000000000000000FA00000000FA0000000000000000000000
310
000000000000000000000000000000FA00000000FA0000000000000000000000000000000000000000000000000000FA00000000FA0000000000000000000000000000000000000000000000000000FA00000000FA0000000000000000000000000000000000000000000000000000FA00000000FA00000000000000000000
310
00000000000000000000000000000000FA00000000FA0000000000000000000000000000000000000000000000000000FA00000000FA0000000000000000000000000000000000000000000000000000FA00000000FA0000000000000000000000000000000000000000000000000000FA00000000FA000000000000000000
310
0000000000000000000000000000000000FA00000000FA0000000000000000000000000000000000000000000000000000FA00000000FA0000000000000000000000000000000000000000000000000000FA00000000FA0000000000000000000000000000000000000000000000000000FA00000000FA0000000000000000
310
000000000000000000000000000000000000FA00000000FA0000000000000000000000000000000000000000000000000000FA00000000FA0000000000000000000000000000000000000000000000000000FA00000000FA0000000000000000000000000000000000000000000000000000FA00000000FA00000000000000
310
00000000000000000000000000000000000000FA00000000FA0000000000000000000000000000000000000000000000000000FA00000000FA0000000000000000000000000000000000000000000000000000FA00000000FA00000000000000000000FFFFFFFFFFFF00000000000000000000FA000000FFFFFFFFFFFFFFFF
310
FFFFFFFF000000000000FFFFFFFFFFFFFFFFFFFFFFFF0000FFFA00000000000000000000FF0000000000FF000000000000000000FAFF0000FFFA00000000000000000000FFFFFFFFFFFF00000000000000000000FAFF0000FFFFFFFFFFFFFFFFFFFFFFFFFFFFFFFFFFFFFFFFFFFFFFFFFFFFFFFFFFFF000000000000000000
310
0000000000000000000000000000000000000000000000000000000000000000000000000000000000000000000000000000000000000000
102
{BLKREFS
331
377
102
}
 70
     4
280
     1
281
     0
  0
BLOCK_RECORD
  5
366
330
1
100
AcDbSymbolTableRecord
100
AcDbBlockTableRecord
  2
Behaelter01-s
340
0
310
2800000020000000200000000100080000000000000400000000000000000000000000000000000000000000000080000080000000808000800000008000800080800000C0C0C000C0DCC000F0CAA6000020400000206000002080000020A0000020C0000020E00000400000004020000040400000406000004080000040A0
310
000040C0000040E00000600000006020000060400000606000006080000060A0000060C0000060E00000800000008020000080400000806000008080000080A0000080C0000080E00000A0000000A0200000A0400000A0600000A0800000A0A00000A0C00000A0E00000C0000000C0200000C0400000C0600000C0800000C0
310
A00000C0C00000C0E00000E0000000E0200000E0400000E0600000E0800000E0A00000E0C00000E0E00040000000400020004000400040006000400080004000A0004000C0004000E00040200000402020004020400040206000402080004020A0004020C0004020E000404000004040200040404000404060004040800040
310
40A0004040C0004040E00040600000406020004060400040606000406080004060A0004060C0004060E00040800000408020004080400040806000408080004080A0004080C0004080E00040A0000040A0200040A0400040A0600040A0800040A0A00040A0C00040A0E00040C0000040C0200040C0400040C0600040C08000
310
40C0A00040C0C00040C0E00040E0000040E0200040E0400040E0600040E0800040E0A00040E0C00040E0E00080000000800020008000400080006000800080008000A0008000C0008000E00080200000802020008020400080206000802080008020A0008020C0008020E00080400000804020008040400080406000804080
310
008040A0008040C0008040E00080600000806020008060400080606000806080008060A0008060C0008060E00080800000808020008080400080806000808080008080A0008080C0008080E00080A0000080A0200080A0400080A0600080A0800080A0A00080A0C00080A0E00080C0000080C0200080C0400080C0600080C0
310
800080C0A00080C0C00080C0E00080E0000080E0200080E0400080E0600080E0800080E0A00080E0C00080E0E000C0000000C0002000C0004000C0006000C0008000C000A000C000C000C000E000C0200000C0202000C0204000C0206000C0208000C020A000C020C000C020E000C0400000C0402000C0404000C0406000C0
310
408000C040A000C040C000C040E000C0600000C0602000C0604000C0606000C0608000C060A000C060C000C060E000C0800000C0802000C0804000C0806000C0808000C080A000C080C000C080E000C0A00000C0A02000C0A04000C0A06000C0A08000C0A0A000C0A0C000C0A0E000C0C00000C0C02000C0C04000C0C06000
310
C0C08000C0C0A000F0FBFF00A4A0A000808080000000FF0000FF000000FFFF00FF000000FF00FF00FFFF0000FFFFFF00000000000000000000000000000000000000000000000000000000000000000000000000000000000000FFFFFFFFFFFFFFFFFFFFFFFF0000000000000000000000000000000000000000FFFAFAFAFA
310
FAFAFAFAFAFAFF0000000000000000000000000000000000000000FA00000000000000000000FA0000000000000000000000000000000000000000FA00000000000000000000FA0000000000000000000000000000000000000000FA00000000000000000000FA0000000000000000000000000000000000000000FA000000
310
00000000000000FA0000000000000000000000000000000000000000FA00000000000000000000FA0000000000000000000000000000000000000000FA00000000000000000000FA0000000000000000000000000000000000000000FA00000000000000000000FA0000000000000000000000000000000000000000FA0000
310
0000000000000000FA0000000000000000000000000000000000000000FA00000000000000000000FA0000000000000000000000000000000000000000FA00000000000000000000FA0000000000000000000000000000000000000000FA00000000000000000000FA0000000000000000000000000000000000000000FA00
310
000000000000000000FA0000000000000000000000000000000000000000FA00000000000000000000FA0000000000000000000000000000000000000000FA00000000000000000000FA0000000000000000000000000000000000000000FA00000000000000000000FA0000000000000000000000000000000000000000FA
310
00000000000000000000FA0000000000000000000000000000000000000000FA00000000000000000000FA0000000000000000000000000000000000000000FA00000000000000000000FA0000000000000000000000000000000000000000FA00000000000000000000FA0000000000000000000000000000000000000000
310
FA00000000000000000000FA0000000000000000000000000000000000000000FA00000000000000000000FA0000000000000000000000000000000000000000FA00000000000000000000FA0000000000000000000000000000000000000000FA00000000000000000000FA00000000000000000000000000000000000000
310
00FA00000000000000000000FA0000000000000000000000000000000000000000FFFFFFFFFFFFFFFFFFFFFFFF0000000000000000000000000000000000000000FF00000000000000000000FF0000000000000000000000000000000000000000FF00000000000000000000FF000000000000000000000000000000000000
310
0000FFFFFFFFFFFFFFFFFFFFFFFF000000000000000000000000000000000000000000000000000000000000000000000000000000000000
102
{BLKREFS
331
365
102
}
 70
     4
280
     1
281
     0
  0
BLOCK_RECORD
  5
352
330
1
100
AcDbSymbolTableRecord
100
AcDbBlockTableRecord
  2
Behaelter01-d
340
0
310
2800000020000000200000000100080000000000000400000000000000000000000000000000000000000000000080000080000000808000800000008000800080800000C0C0C000C0DCC000F0CAA6000020400000206000002080000020A0000020C0000020E00000400000004020000040400000406000004080000040A0
310
000040C0000040E00000600000006020000060400000606000006080000060A0000060C0000060E00000800000008020000080400000806000008080000080A0000080C0000080E00000A0000000A0200000A0400000A0600000A0800000A0A00000A0C00000A0E00000C0000000C0200000C0400000C0600000C0800000C0
310
A00000C0C00000C0E00000E0000000E0200000E0400000E0600000E0800000E0A00000E0C00000E0E00040000000400020004000400040006000400080004000A0004000C0004000E00040200000402020004020400040206000402080004020A0004020C0004020E000404000004040200040404000404060004040800040
310
40A0004040C0004040E00040600000406020004060400040606000406080004060A0004060C0004060E00040800000408020004080400040806000408080004080A0004080C0004080E00040A0000040A0200040A0400040A0600040A0800040A0A00040A0C00040A0E00040C0000040C0200040C0400040C0600040C08000
310
40C0A00040C0C00040C0E00040E0000040E0200040E0400040E0600040E0800040E0A00040E0C00040E0E00080000000800020008000400080006000800080008000A0008000C0008000E00080200000802020008020400080206000802080008020A0008020C0008020E00080400000804020008040400080406000804080
310
008040A0008040C0008040E00080600000806020008060400080606000806080008060A0008060C0008060E00080800000808020008080400080806000808080008080A0008080C0008080E00080A0000080A0200080A0400080A0600080A0800080A0A00080A0C00080A0E00080C0000080C0200080C0400080C0600080C0
310
800080C0A00080C0C00080C0E00080E0000080E0200080E0400080E0600080E0800080E0A00080E0C00080E0E000C0000000C0002000C0004000C0006000C0008000C000A000C000C000C000E000C0200000C0202000C0204000C0206000C0208000C020A000C020C000C020E000C0400000C0402000C0404000C0406000C0
310
408000C040A000C040C000C040E000C0600000C0602000C0604000C0606000C0608000C060A000C060C000C060E000C0800000C0802000C0804000C0806000C0808000C080A000C080C000C080E000C0A00000C0A02000C0A04000C0A06000C0A08000C0A0A000C0A0C000C0A0E000C0C00000C0C02000C0C04000C0C06000
310
C0C08000C0C0A000F0FBFF00A4A0A000808080000000FF0000FF000000FFFF00FF000000FF00FF00FFFF0000FFFFFF0000000000000000000000000000000000000000000000000000000000000000000000000000000000000000000000000000000000000000000000000000000000000000000000000000000000000000
310
00000000000000000000000000000000000000000000000000000000000000000000000000000000000000000000000000000000000000000000000000000000000000000000000000000000000000000000000000000000000000000000000000000000000000000000000000000000000000000000000000000000000000
310
00000000000000000000000000000000000000000000000000000000000000000000000000000000000000000000000000000000000000000000000000000000000000000000000000000000000000000000000000000000000000000000000000000000000000000000000000000000000000FFFFFFFFFFFFFFFFFFFFFFFF
310
FFFFFFFFFFFFFFFFFFFFFFFFFFFFFFFFFFFF0000FFFFFFFFFFFFFFFFFFFFFFFFFFFFFFFFFFFFFFFFFFFFFFFFFFFFFFFFFFFF0000FFFF0000000000000000000000000000000000000000000000000000FFFF0000FFFF0000000000000000000000000000000000000000000000000000FFFF0000FFFF000000000000000000
310
0000000000000000000000000000000000FFFF0000FFFF0000000000000000000000000000000000000000000000000000FFFF0000FFFF0000000000000000000000000000000000000000000000000000FFFF0000FFFF0000000000000000000000000000000000000000000000000000FFFF0000FFFF0000000000000000
310
000000000000000000000000000000000000FFFF0000FFFF0000000000000000000000000000000000000000000000000000FFFF0000FFFFFFFFFFFFFFFFFFFFFFFFFFFFFFFFFFFFFFFFFFFFFFFFFFFFFFFFFFFF0000FFFFFFFFFFFFFFFFFFFFFFFFFFFFFFFFFFFFFFFFFFFFFFFFFFFFFFFFFFFF0000000000000000000000
310
00000000000000000000000000000000000000000000000000000000000000000000000000000000000000000000000000000000000000000000000000000000000000000000000000000000000000000000000000000000000000000000000000000000000000000000000000000000000000000000000000000000000000
310
00000000000000000000000000000000000000000000000000000000000000000000000000000000000000000000000000000000000000000000000000000000000000000000000000000000000000000000000000000000000000000000000000000000000000000000000000000000000000000000000000000000000000
310
0000000000000000000000000000000000000000000000000000000000000000000000000000000000000000000000000000000000000000
102
{BLKREFS
331
351
102
}
 70
     0
280
     1
281
     0
  0
BLOCK_RECORD
  5
181
102
{ACAD_XDICTIONARY
360
182
102
}
330
1
100
AcDbSymbolTableRecord
100
AcDbBlockTableRecord
  2
DIN A3
340
0
102
{BLKREFS
331
180
102
}
 70
     4
280
     1
281
     0
  0
BLOCK_RECORD
  5
454
330
1
100
AcDbSymbolTableRecord
100
AcDbBlockTableRecord
  2
*D4
340
0
 70
     0
280
     1
281
     0
  0
BLOCK_RECORD
  5
439
330
1
100
AcDbSymbolTableRecord
100
AcDbBlockTableRecord
  2
*D5
340
0
 70
     0
280
     1
281
     0
  0
BLOCK_RECORD
  5
42C
330
1
100
AcDbSymbolTableRecord
100
AcDbBlockTableRecord
  2
*D6
340
0
 70
     0
280
     1
281
     0
  0
BLOCK_RECORD
  5
41F
330
1
100
AcDbSymbolTableRecord
100
AcDbBlockTableRecord
  2
*D7
340
0
 70
     0
280
     1
281
     0
  0
BLOCK_RECORD
  5
401
330
1
100
AcDbSymbolTableRecord
100
AcDbBlockTableRecord
  2
*D8
340
0
 70
     0
280
     1
281
     0
  0
BLOCK_RECORD
  5
3F2
330
1
100
AcDbSymbolTableRecord
100
AcDbBlockTableRecord
  2
*D9
340
0
 70
     0
280
     1
281
     0
  0
BLOCK_RECORD
  5
3E5
330
1
100
AcDbSymbolTableRecord
100
AcDbBlockTableRecord
  2
*D10
340
0
 70
     0
280
     1
281
     0
  0
BLOCK_RECORD
  5
3D6
330
1
100
AcDbSymbolTableRecord
100
AcDbBlockTableRecord
  2
*D11
340
0
 70
     0
280
     1
281
     0
  0
BLOCK_RECORD
  5
3C7
330
1
100
AcDbSymbolTableRecord
100
AcDbBlockTableRecord
  2
*D12
340
0
 70
     0
280
     1
281
     0
  0
BLOCK_RECORD
  5
3BA
330
1
100
AcDbSymbolTableRecord
100
AcDbBlockTableRecord
  2
*D13
340
0
 70
     0
280
     1
281
     0
  0
BLOCK_RECORD
  5
3AD
330
1
100
AcDbSymbolTableRecord
100
AcDbBlockTableRecord
  2
*D14
340
0
 70
     0
280
     1
281
     0
  0
BLOCK_RECORD
  5
3A0
330
1
100
AcDbSymbolTableRecord
100
AcDbBlockTableRecord
  2
*D15
340
0
 70
     0
280
     1
281
     0
  0
BLOCK_RECORD
  5
393
330
1
100
AcDbSymbolTableRecord
100
AcDbBlockTableRecord
  2
*D16
340
0
 70
     0
280
     1
281
     0
  0
BLOCK_RECORD
  5
149
330
1
100
AcDbSymbolTableRecord
100
AcDbBlockTableRecord
  2
*D17
340
0
 70
     0
280
     1
281
     0
  0
BLOCK_RECORD
  5
13C
330
1
100
AcDbSymbolTableRecord
100
AcDbBlockTableRecord
  2
*D18
340
0
 70
     0
280
     1
281
     0
  0
BLOCK_RECORD
  5
12D
330
1
100
AcDbSymbolTableRecord
100
AcDbBlockTableRecord
  2
*D19
340
0
 70
     0
280
     1
281
     0
  0
BLOCK_RECORD
  5
120
330
1
100
AcDbSymbolTableRecord
100
AcDbBlockTableRecord
  2
*D20
340
0
 70
     0
280
     1
281
     0
  0
BLOCK_RECORD
  5
111
330
1
100
AcDbSymbolTableRecord
100
AcDbBlockTableRecord
  2
*D21
340
0
 70
     0
280
     1
281
     0
  0
BLOCK_RECORD
  5
104
330
1
100
AcDbSymbolTableRecord
100
AcDbBlockTableRecord
  2
*D22
340
0
 70
     0
280
     1
281
     0
  0
BLOCK_RECORD
  5
F7
330
1
100
AcDbSymbolTableRecord
100
AcDbBlockTableRecord
  2
*D23
340
0
 70
     0
280
     1
281
     0
  0
BLOCK_RECORD
  5
EA
330
1
100
AcDbSymbolTableRecord
100
AcDbBlockTableRecord
  2
*D24
340
0
 70
     0
280
     1
281
     0
  0
BLOCK_RECORD
  5
DB
330
1
100
AcDbSymbolTableRecord
100
AcDbBlockTableRecord
  2
*D25
340
0
 70
     0
280
     1
281
     0
  0
BLOCK_RECORD
  5
CC
330
1
100
AcDbSymbolTableRecord
100
AcDbBlockTableRecord
  2
*D26
340
0
 70
     0
280
     1
281
     0
  0
BLOCK_RECORD
  5
BD
330
1
100
AcDbSymbolTableRecord
100
AcDbBlockTableRecord
  2
*D27
340
0
 70
     0
280
     1
281
     0
  0
BLOCK_RECORD
  5
7C
102
{ACAD_XDICTIONARY
360
7D
102
}
330
1
100
AcDbSymbolTableRecord
100
AcDbBlockTableRecord
  2
aaaaWagner
340
0
102
{BLKREFS
331
78
102
}
 70
     4
280
     1
281
     0
  0
BLOCK_RECORD
  5
A5
330
1
100
AcDbSymbolTableRecord
100
AcDbBlockTableRecord
  2
*D29
340
0
 70
     0
280
     1
281
     0
  0
BLOCK_RECORD
  5
96
330
1
100
AcDbSymbolTableRecord
100
AcDbBlockTableRecord
  2
*D30
340
0
 70
     0
280
     1
281
     0
  0
ENDTAB
  0
ENDSEC
  0
SECTION
  2
BLOCKS
  0
BLOCK
  5
5
330
2
100
AcDbEntity
  8
0
100
AcDbBlockBegin
  2
*Model_Space
 70
     0
 10
0.0
 20
0.0
 30
0.0
  3
*Model_Space
  1

  0
ENDBLK
  5
16
330
2
100
AcDbEntity
  8
0
100
AcDbBlockEnd
  0
BLOCK
  5
1A
330
19
100
AcDbEntity
 67
     1
  8
0
100
AcDbBlockBegin
  2
*Paper_Space
 70
     0
 10
0.0
 20
0.0
 30
0.0
  3
*Paper_Space
  1

  0
ENDBLK
  5
1B
330
19
100
AcDbEntity
 67
     1
  8
0
100
AcDbBlockEnd
  0
BLOCK
  5
379
330
378
100
AcDbEntity
  8
0
100
AcDbBlockBegin
  2
Behaelter01-v
 70
     0
 10
0.0
 20
0.0
 30
0.0
  3
Behaelter01-v
  1

  0
LINE
  5
37A
330
378
100
AcDbEntity
  8
0
100
AcDbLine
 10
-130.8358287631097
 20
225.0573098744915
 30
0.0
 11
-128.999966130398
 21
2.0
 31
0.0
  0
LINE
  5
37B
330
378
100
AcDbEntity
  8
0
100
AcDbLine
 10
130.8358287631101
 20
225.0573098744915
 30
0.0
 11
128.9999661303982
 21
2.0
 31
0.0
  0
LINE
  5
37C
330
378
100
AcDbEntity
  8
0
100
AcDbLine
 10
-126.999966130398
 20
0.0
 30
0.0
 11
126.9999661303982
 21
0.0
 31
0.0
  0
LINE
  5
37D
330
378
100
AcDbEntity
  8
03-01
100
AcDbLine
 10
-120.999966130398
 20
2.999999999999943
 30
0.0
 11
120.9999661303982
 21
3.0
 31
0.0
  0
LINE
  5
37E
330
378
100
AcDbEntity
  8
03-01
100
AcDbLine
 10
-127.9999661303977
 20
245.0
 30
0.0
 11
-125.999966130398
 21
7.999999999999943
 31
0.0
  0
LINE
  5
37F
330
378
100
AcDbEntity
  8
03-01
100
AcDbLine
 10
127.9999661303982
 20
245.0
 30
0.0
 11
125.9999661303982
 21
8.0
 31
0.0
  0
ARC
  5
380
330
378
100
AcDbEntity
  8
03-01
100
AcDbCircle
 10
-120.999966130398
 20
7.999999999999943
 30
0.0
 40
5.0
100
AcDbArc
 50
180.0
 51
270.0
  0
ARC
  5
381
330
378
100
AcDbEntity
  8
03-01
100
AcDbCircle
 10
120.9999661303982
 20
8.0
 30
0.0
 40
5.0
100
AcDbArc
 50
270.0
 51
0.0
  0
ARC
  5
382
330
378
100
AcDbEntity
  8
0
100
AcDbCircle
 10
-126.999966130398
 20
2.0
 30
0.0
 40
2.0
100
AcDbArc
 50
180.0
 51
270.0
  0
ARC
  5
383
330
378
100
AcDbEntity
  8
0
100
AcDbCircle
 10
126.9999661303982
 20
2.0
 30
0.0
 40
2.0
100
AcDbArc
 50
270.0
 51
0.0
  0
LINE
  5
384
330
378
100
AcDbEntity
  8
0
100
AcDbLine
 10
-30.00003386960179
 20
225.0586700569162
 30
0.0
 11
-30.00003386960179
 21
225.0573098744915
 31
0.0
  0
LINE
  5
385
330
378
100
AcDbEntity
  8
0
100
AcDbLine
 10
29.99996613039821
 20
225.058670056916
 30
0.0
 11
29.99996613039821
 21
225.0573098744915
 31
0.0
  0
ARC
  5
386
330
378
100
AcDbEntity
  8
0
100
AcDbCircle
 10
-20.00003386960179
 20
225.0586700569162
 30
0.0
 40
10.0
100
AcDbArc
 50
90.66822646716598
 51
180.0
  0
ARC
  5
387
330
378
100
AcDbEntity
  8
0
100
AcDbCircle
 10
-20.00003386960179
 20
225.0573098744915
 30
0.0
 40
10.0
100
AcDbArc
 50
180.0
 51
269.331773532834
  0
ARC
  5
388
330
378
100
AcDbEntity
  8
0
100
AcDbCircle
 10
19.99996613039821
 20
225.0573098744915
 30
0.0
 40
10.0
100
AcDbArc
 50
270.668226467166
 51
0.0
  0
ARC
  5
389
330
378
100
AcDbEntity
  8
0
100
AcDbCircle
 10
19.99996613039821
 20
225.058670056916
 30
0.0
 40
10.0
100
AcDbArc
 50
0.0
 51
89.33177353283403
  0
LINE
  5
38A
330
378
100
AcDbEntity
  8
0
100
AcDbLine
 10
-132.0
 20
245.0
 30
0.0
 11
132.0
 21
245.0
 31
0.0
  0
LINE
  5
38B
330
378
100
AcDbEntity
  8
0
100
AcDbLine
 10
-20.11665874568757
 20
235.0579899657039
 30
0.0
 11
20.11659100648444
 21
235.0579899657037
 31
0.0
  0
LINE
  5
38C
330
378
100
AcDbEntity
  8
0
100
AcDbLine
 10
-20.11665874568848
 20
215.0579899657038
 30
0.0
 11
20.11659100648399
 21
215.0579899657038
 31
0.0
  0
LINE
  5
38D
330
378
100
AcDbEntity
  8
0
100
AcDbLine
 10
131.8358626327119
 20
225.0573098744915
 30
0.0
 11
29.99996613039821
 21
225.0573098744915
 31
0.0
  0
LINE
  5
38E
330
378
100
AcDbEntity
  8
0
100
AcDbLine
 10
-30.00003386960179
 20
225.0573098744912
 30
0.0
 11
-131.8358626327117
 21
225.0573098744915
 31
0.0
  0
LINE
  5
38F
330
378
100
AcDbEntity
  8
0
100
AcDbLine
 10
132.0
 20
245.0
 30
0.0
 11
131.8358626327119
 21
225.0573098744915
 31
0.0
  0
LINE
  5
390
330
378
100
AcDbEntity
  8
0
100
AcDbLine
 10
-132.0
 20
245.0
 30
0.0
 11
-131.8358626327117
 21
225.0573098744915
 31
0.0
  0
ENDBLK
  5
391
330
378
100
AcDbEntity
  8
0
100
AcDbBlockEnd
  0
BLOCK
  5
367
330
366
100
AcDbEntity
  8
0
100
AcDbBlockBegin
  2
Behaelter01-s
 70
     0
 10
0.0
 20
0.0
 30
0.0
  3
Behaelter01-s
  1

  0
LINE
  5
368
330
366
100
AcDbEntity
  8
0
100
AcDbLine
 10
-44.99999999999977
 20
0.0
 30
0.0
 11
45.0
 21
-0.0000000000000568
 31
0.0
  0
LINE
  5
369
330
366
100
AcDbEntity
  8
0
100
AcDbLine
 10
-49.99999999999977
 20
245.0
 30
0.0
 11
50.00000000000023
 21
245.0
 31
0.0
  0
LINE
  5
36A
330
366
100
AcDbEntity
  8
0
100
AcDbLine
 10
-48.83586263271149
 20
225.0573098744912
 30
0.0
 11
-46.99999999999977
 21
2.0
 31
0.0
  0
LINE
  5
36B
330
366
100
AcDbEntity
  8
0
100
AcDbLine
 10
48.8358626327124
 20
225.0573098744914
 30
0.0
 11
47.0
 21
1.999999999999943
 31
0.0
  0
LINE
  5
36C
330
366
100
AcDbEntity
  8
03-01
100
AcDbLine
 10
-45.99999999999954
 20
245.0
 30
0.0
 11
-43.99999999999977
 21
7.999999999999943
 31
0.0
  0
LINE
  5
36D
330
366
100
AcDbEntity
  8
03-01
100
AcDbLine
 10
46.00000000000022
 20
244.9999999999999
 30
0.0
 11
44.00000000000022
 21
8.000000000000113
 31
0.0
  0
LINE
  5
36E
330
366
100
AcDbEntity
  8
03-01
100
AcDbLine
 10
-38.99999999999977
 20
2.999999999999943
 30
0.0
 11
39.00000000000023
 21
3.000000000000113
 31
0.0
  0
ARC
  5
36F
330
366
100
AcDbEntity
  8
03-01
100
AcDbCircle
 10
39.00000000000023
 20
8.000000000000113
 30
0.0
 40
5.0
100
AcDbArc
 50
270.0
 51
0.0
  0
ARC
  5
370
330
366
100
AcDbEntity
  8
03-01
100
AcDbCircle
 10
-38.99999999999977
 20
7.999999999999943
 30
0.0
 40
5.0
100
AcDbArc
 50
180.0
 51
270.0
  0
ARC
  5
371
330
366
100
AcDbEntity
  8
0
100
AcDbCircle
 10
-44.99999999999977
 20
2.0
 30
0.0
 40
2.0
100
AcDbArc
 50
180.0
 51
270.0
  0
ARC
  5
372
330
366
100
AcDbEntity
  8
0
100
AcDbCircle
 10
45.0
 20
1.999999999999943
 30
0.0
 40
2.0
100
AcDbArc
 50
270.0
 51
0.0
  0
LINE
  5
373
330
366
100
AcDbEntity
  8
0
100
AcDbLine
 10
-49.99999999999977
 20
245.0
 30
0.0
 11
-49.99999999999954
 21
225.0573098744914
 31
0.0
  0
LINE
  5
374
330
366
100
AcDbEntity
  8
0
100
AcDbLine
 10
50.00000000000023
 20
245.0
 30
0.0
 11
50.00000000000023
 21
225.0573098744914
 31
0.0
  0
LINE
  5
375
330
366
100
AcDbEntity
  8
0
100
AcDbLine
 10
50.00000000000023
 20
225.0573098744914
 30
0.0
 11
-49.99999999999954
 21
225.0573098744914
 31
0.0
  0
ENDBLK
  5
376
330
366
100
AcDbEntity
  8
0
100
AcDbBlockEnd
  0
BLOCK
  5
353
330
352
100
AcDbEntity
  8
0
100
AcDbBlockBegin
  2
Behaelter01-d
 70
     0
 10
0.0
 20
0.0
 30
0.0
  3
Behaelter01-d
  1

  0
LINE
  5
354
330
352
100
AcDbEntity
  8
0
100
AcDbLine
 10
-132.0
 20
-98.00000000000025
 30
0.0
 11
-132.0
 21
-2.000000000000227
 31
0.0
  0
LINE
  5
355
330
352
100
AcDbEntity
  8
0
100
AcDbLine
 10
-130.0
 20
-0.0000000000002274
 30
0.0
 11
130.0
 21
0.0000000000002274
 31
0.0
  0
LINE
  5
356
330
352
100
AcDbEntity
  8
0
100
AcDbLine
 10
-130.0
 20
-100.0000000000002
 30
0.0
 11
130.0
 21
-99.9999999999998
 31
0.0
  0
LINE
  5
357
330
352
100
AcDbEntity
  8
0
100
AcDbLine
 10
132.0
 20
-1.999999999999772
 30
0.0
 11
132.0
 21
-97.99999999999981
 31
0.0
  0
ARC
  5
358
330
352
100
AcDbEntity
  8
0
100
AcDbCircle
 10
-130.0
 20
-2.000000000000227
 30
0.0
 40
2.0
100
AcDbArc
 50
90.0
 51
180.0
  0
ARC
  5
359
330
352
100
AcDbEntity
  8
0
100
AcDbCircle
 10
-130.0
 20
-98.00000000000025
 30
0.0
 40
2.0
100
AcDbArc
 50
180.0
 51
270.0
  0
ARC
  5
35A
330
352
100
AcDbEntity
  8
0
100
AcDbCircle
 10
130.0
 20
-97.99999999999981
 30
0.0
 40
2.0
100
AcDbArc
 50
270.0
 51
0.0
  0
ARC
  5
35B
330
352
100
AcDbEntity
  8
0
100
AcDbCircle
 10
130.0
 20
-1.999999999999772
 30
0.0
 40
2.0
100
AcDbArc
 50
0.0
 51
90.0
  0
LINE
  5
35C
330
352
100
AcDbEntity
  8
0
100
AcDbLine
 10
-128.0
 20
-91.00000000000022
 30
0.0
 11
-128.0
 21
-9.000000000000227
 31
0.0
  0
LINE
  5
35D
330
352
100
AcDbEntity
  8
0
100
AcDbLine
 10
-123.0000000000002
 20
-4.000000000000227
 30
0.0
 11
122.9999999999986
 21
-3.999999999999715
 31
0.0
  0
LINE
  5
35E
330
352
100
AcDbEntity
  8
0
100
AcDbLine
 10
128.0000000000004
 20
-90.99999999999969
 30
0.0
 11
127.9999999999986
 21
-8.999999999999602
 31
0.0
  0
LINE
  5
35F
330
352
100
AcDbEntity
  8
0
100
AcDbLine
 10
-123.0
 20
-96.00000000000022
 30
0.0
 11
123.0000000000004
 21
-95.9999999999998
 31
0.0
  0
ARC
  5
360
330
352
100
AcDbEntity
  8
0
100
AcDbCircle
 10
-123.0
 20
-9.000000000000227
 30
0.0
 40
5.0
100
AcDbArc
 50
90.0
 51
180.0
  0
ARC
  5
361
330
352
100
AcDbEntity
  8
0
100
AcDbCircle
 10
-123.0
 20
-91.00000000000022
 30
0.0
 40
5.0
100
AcDbArc
 50
180.0
 51
270.0
  0
ARC
  5
362
330
352
100
AcDbEntity
  8
0
100
AcDbCircle
 10
122.9999999999986
 20
-8.999999999999715
 30
0.0
 40
5.0
100
AcDbArc
 50
0.0
 51
90.0
  0
ARC
  5
363
330
352
100
AcDbEntity
  8
0
100
AcDbCircle
 10
123.0000000000004
 20
-90.9999999999998
 30
0.0
 40
5.0
100
AcDbArc
 50
270.0
 51
0.0
  0
ENDBLK
  5
364
330
352
100
AcDbEntity
  8
0
100
AcDbBlockEnd
  0
BLOCK
  5
184
330
181
100
AcDbEntity
  8
0
100
AcDbBlockBegin
  2
DIN A3
 70
     2
 10
0.0
 20
0.0
 30
0.0
  3
DIN A3
  1

  0
LINE
  5
185
330
181
100
AcDbEntity
  8
01-99
100
AcDbLine
 10
412.9999997697348
 20
290.0000007613509
 30
0.0
 11
6.999999769775513
 21
290.0000007613508
 31
0.0
  0
LINE
  5
189
330
181
100
AcDbEntity
  8
01-99
100
AcDbLine
 10
6.999999769775286
 20
7.000000761378942
 30
0.0
 11
6.999999769775513
 21
290.0000007613508
 31
0.0
  0
LINE
  5
18A
330
181
100
AcDbEntity
  8
02-01
100
AcDbLine
 10
419.9999997697341
 20
297.0000007613501
 30
0.0
 11
-0.0000002302240318
 21
297.0000007613501
 31
0.0
  0
LINE
  5
18E
330
181
100
AcDbEntity
  8
02-01
100
AcDbLine
 10
-0.0000002302240318
 20
297.0000007613501
 30
0.0
 11
-0.0000002302240318
 21
0.0000007613796242
 31
0.0
  0
LINE
  5
18F
330
181
100
AcDbEntity
  8
02-01
100
AcDbLine
 10
-0.0000002302240318
 20
0.0000007613796242
 30
0.0
 11
419.9999997697341
 21
0.0000007613796242
 31
0.0
  0
LINE
  5
190
330
181
100
AcDbEntity
  8
02-01
100
AcDbLine
 10
419.9999997697341
 20
0.0000007613796242
 30
0.0
 11
419.9999997697341
 21
297.0000007613501
 31
0.0
  0
LINE
  5
191
330
181
100
AcDbEntity
  8
01-99
100
AcDbLine
 10
412.9999997697348
 20
290.0000007613509
 30
0.0
 11
412.9999997697348
 21
7.000000761379055
 31
0.0
  0
LINE
  5
192
330
181
100
AcDbEntity
  8
01-99
100
AcDbLine
 10
412.9999997697348
 20
7.000000761379055
 30
0.0
 11
6.999999769775286
 21
7.000000761378942
 31
0.0
  0
LINE
  5
193
330
181
100
AcDbEntity
  8
01-99
100
AcDbLine
 10
412.9999997697348
 20
53.00000076137905
 30
0.0
 11
228.999999769733
 21
53.00000076137894
 31
0.0
  0
LINE
  5
194
330
181
100
AcDbEntity
  8
01-99
100
AcDbLine
 10
228.999999769733
 20
53.00000076137894
 30
0.0
 11
228.999999769733
 21
7.000000761378942
 31
0.0
  0
LINE
  5
195
330
181
100
AcDbEntity
  8
01-99
100
AcDbLine
 10
278.9999997697348
 20
12.11111187237895
 30
0.0
 11
228.9999997697348
 21
12.11111187237895
 31
0.0
  0
LINE
  5
196
330
181
100
AcDbEntity
  8
01-99
100
AcDbLine
 10
278.9999997697348
 20
17.22222298337897
 30
0.0
 11
228.9999997697348
 21
17.22222298337897
 31
0.0
  0
LINE
  5
197
330
181
100
AcDbEntity
  8
01-99
100
AcDbLine
 10
278.9999997697348
 20
22.33333409437898
 30
0.0
 11
228.9999997697348
 21
22.33333409437893
 31
0.0
  0
LINE
  5
198
330
181
100
AcDbEntity
  8
01-99
100
AcDbLine
 10
323.9999997697348
 20
27.444445205379
 30
0.0
 11
228.9999997697348
 21
27.44444520537894
 31
0.0
  0
LINE
  5
199
330
181
100
AcDbEntity
  8
01-99
100
AcDbLine
 10
323.9999997697348
 20
32.55555631637901
 30
0.0
 11
228.9999997697348
 21
32.55555631637895
 31
0.0
  0
LINE
  5
19A
330
181
100
AcDbEntity
  8
01-99
100
AcDbLine
 10
253.9999997697348
 20
7.000000761378942
 30
0.0
 11
253.9999997697348
 21
12.11111187237895
 31
0.0
  0
LINE
  5
19B
330
181
100
AcDbEntity
  8
01-99
100
AcDbLine
 10
236.9999997697348
 20
12.11111187237895
 30
0.0
 11
236.9999997697348
 21
37.66666742804563
 31
0.0
  0
LINE
  5
19C
330
181
100
AcDbEntity
  8
01-99
100
AcDbLine
 10
278.9999997697348
 20
7.000000761378942
 30
0.0
 11
278.9999997697348
 21
53.00000076137894
 31
0.0
  0
LINE
  5
19D
330
181
100
AcDbEntity
  8
01-99
100
AcDbLine
 10
323.9999997697348
 20
7.000000761378942
 30
0.0
 11
323.9999997697348
 21
53.00000076137894
 31
0.0
  0
LINE
  5
19E
330
181
100
AcDbEntity
  8
01-99
100
AcDbLine
 10
353.4999997697348
 20
7.000000761378942
 30
0.0
 11
353.4999997697348
 21
17.22222298337903
 31
0.0
  0
LINE
  5
19F
330
181
100
AcDbEntity
  8
01-99
100
AcDbLine
 10
385.9999997697348
 20
7.000000761378942
 30
0.0
 11
385.9999997697348
 21
17.22222298337908
 31
0.0
  0
LINE
  5
1A0
330
181
100
AcDbEntity
  8
01-99
100
AcDbLine
 10
357.4999997697348
 20
37.66666742804569
 30
0.0
 11
357.4999997697348
 21
53.00000076137905
 31
0.0
  0
LINE
  5
1A1
330
181
100
AcDbEntity
  8
01-99
100
AcDbLine
 10
390.9999997697348
 20
37.66666742804569
 30
0.0
 11
390.9999997697348
 21
53.00000076137905
 31
0.0
  0
LINE
  5
1A2
330
181
100
AcDbEntity
  8
01-99
100
AcDbLine
 10
286.9999997697348
 20
22.33333409471232
 30
0.0
 11
286.9999997697348
 21
37.66666742804569
 31
0.0
  0
LINE
  5
1A3
330
181
100
AcDbEntity
  8
01-99
100
AcDbLine
 10
269.0031881091643
 20
12.11111187237895
 30
0.0
 11
269.0031881091643
 21
37.66666742804563
 31
0.0
  0
LINE
  5
1A4
330
181
100
AcDbEntity
  8
01-99
100
AcDbLine
 10
257.0031881091643
 20
12.11111187237895
 30
0.0
 11
257.0031881091643
 21
37.66666742804563
 31
0.0
  0
LINE
  5
1A5
330
181
100
AcDbEntity
  8
01-99
100
AcDbLine
 10
323.9999997697348
 20
22.33333409471232
 30
0.0
 11
278.9999997697348
 21
22.33333409471232
 31
0.0
  0
LINE
  5
1A6
330
181
100
AcDbEntity
  8
01-99
100
AcDbLine
 10
323.9999997697348
 20
37.66666742804569
 30
0.0
 11
228.9999997697348
 21
37.66666742804557
 31
0.0
  0
LINE
  5
1A7
330
181
100
AcDbEntity
  8
01-99
100
AcDbLine
 10
300.9999997697348
 20
22.33333409471232
 30
0.0
 11
300.9999997697348
 21
53.000000761379
 31
0.0
  0
LINE
  5
1A8
330
181
100
AcDbEntity
  8
01-99
100
AcDbLine
 10
278.9999997697348
 20
37.66666742804563
 30
0.0
 11
286.9999997697348
 21
32.55555632804567
 31
0.0
  0
LINE
  5
1A9
330
181
100
AcDbEntity
  8
01-99
100
AcDbLine
 10
278.9999997697348
 20
32.55555632804567
 30
0.0
 11
286.9999997697348
 21
37.66666742804569
 31
0.0
  0
LINE
  5
1AA
330
181
100
AcDbEntity
  8
01-99
100
AcDbLine
 10
412.9999997697348
 20
45.33333409471231
 30
0.0
 11
323.9999997697349
 21
45.33333409471225
 31
0.0
  0
LINE
  5
1AB
330
181
100
AcDbEntity
  8
01-99
100
AcDbLine
 10
323.9999997697348
 20
17.22222298337897
 30
0.0
 11
412.9999997697348
 21
17.22222298337908
 31
0.0
  0
LINE
  5
1AC
330
181
100
AcDbEntity
  8
01-99
100
AcDbLine
 10
323.9999997697348
 20
37.66666742804569
 30
0.0
 11
412.9999997697348
 21
37.66666742804574
 31
0.0
  0
LINE
  5
1AD
330
181
100
AcDbEntity
  8
01-99
100
AcDbLine
 10
300.9999997697348
 20
42.77777853937897
 30
0.0
 11
278.9999997697348
 21
42.77777853937897
 31
0.0
  0
LINE
  5
1AE
330
181
100
AcDbEntity
  8
01-99
100
AcDbLine
 10
300.9999997697348
 20
47.88888965037898
 30
0.0
 11
278.9999997697348
 21
47.88888965037893
 31
0.0
  0
TEXT
  5
1AF
330
181
100
AcDbEntity
  8
08-99
100
AcDbText
 10
325.4997009380411
 20
33.6698744692369
 30
0.0
 40
2.5
  1
Benennung/Teil:
 51
15.0
  7
ROMANS8
100
AcDbText
  0
TEXT
  5
1B2
330
181
100
AcDbEntity
  8
08-99
100
AcDbText
 10
387.5028272173022
 20
13.01760345560962
 30
0.0
 40
2.7
  1
Ident-Nr.
 51
15.0
  7
ROMANS8
100
AcDbText
  0
TEXT
  5
1B3
330
181
100
AcDbEntity
  8
08-99
100
AcDbText
 10
302.5000215029029
 20
34.05557772316138
 30
0.0
 40
2.5
  1
Name:
 51
15.0
  7
ROMANS8
100
AcDbText
  0
TEXT
  5
1B4
330
181
100
AcDbEntity
  8
08-99
100
AcDbText
 10
288.5077689122797
 20
34.04841872238342
 30
0.0
 40
2.5
  1
Datum:
 50
0.102528160689452
 41
0.8933771909280748
 51
15.0
  7
ROMANS8
 72
     5
 11
299.6749659193617
 21
34.0684019288434
 31
0.0
100
AcDbText
  0
TEXT
  5
1B5
330
181
100
AcDbEntity
  8
08-99
100
AcDbText
 10
238.5000078514702
 20
34.05597786035884
 30
0.0
 40
1.6
  1
Änderung:
 51
15.0
  7
ROMANS8
100
AcDbText
  0
TEXT
  5
1B6
330
181
100
AcDbEntity
  8
08-99
100
AcDbText
 10
255.4999378454877
 20
10.11112006054139
 30
0.0
 40
1.0
  1
ERSETZT.DURCH:
 51
15.0
  7
ROMANS8
100
AcDbText
  0
TEXT
  5
1B7
330
181
100
AcDbEntity
  8
08-99
100
AcDbText
 10
230.4993605854065
 20
10.11085496431519
 30
0.0
 40
1.0
  1
ERSETZT.FÜR:
 51
15.0
  7
ROMANS8
100
AcDbText
  0
TEXT
  5
1B8
330
181
100
AcDbEntity
  8
08-99
100
AcDbText
 10
354.990906611889
 20
13.61295762544273
 30
0.0
 40
2.112
  1
AUFTRAGS.NR.:
 51
15.0
  7
ROMANS8
100
AcDbText
  0
TEXT
  5
1B9
330
181
100
AcDbEntity
  8
08-99
100
AcDbText
 10
325.5034639747472
 20
13.61092941740929
 30
0.0
 40
2.112
  1
Sonder-Nr:
 51
15.0
  7
ROMANS8
100
AcDbText
  0
TEXT
  5
1BA
330
181
100
AcDbEntity
  8
08-99
100
AcDbText
 10
308.6963072648131
 20
50.92370926842125
 30
0.0
 40
1.349999999999999
  1
Format
 51
15.0
  7
ROMANS8
100
AcDbText
  0
TEXT
  5
1BB
330
181
100
AcDbEntity
  8
08-99
100
AcDbText
 10
307.3043795165026
 20
45.64161955447966
 30
0.0
 40
1.822499999999999
  1
Normen
 51
15.0
  7
ROMANS8
100
AcDbText
  0
TEXT
  5
1BC
330
181
100
AcDbEntity
  8
08-99
100
AcDbText
 10
230.5000293736364
 20
34.05556859693707
 30
0.0
 40
1.6
  1
Zust.
 51
15.0
  7
ROMANS8
100
AcDbText
  0
TEXT
  5
1BD
330
181
100
AcDbEntity
  8
08-99
100
AcDbText
 10
258.503180470904
 20
34.0555600128755
 30
0.0
 40
1.6
  1
Datum:
 51
15.0
  7
ROMANS8
100
AcDbText
  0
TEXT
  5
1BE
330
181
100
AcDbEntity
  8
08-99
100
AcDbText
 10
270.5032133866668
 20
34.05556481932439
 30
0.0
 40
1.6
  1
Name:
 51
15.0
  7
ROMANS8
100
AcDbText
  0
TEXT
  5
1BF
330
181
100
AcDbEntity
  8
08-99
100
AcDbText
 10
280.154554215326
 20
29.0381403293278
 30
0.0
 40
1.6
  1
Erst.
 51
15.0
  7
ROMANS8
100
AcDbText
  0
TEXT
  5
1C0
330
181
100
AcDbEntity
  8
08-99
100
AcDbText
 10
279.5171801320455
 20
24.19745182079998
 30
0.0
 40
1.6
  1
Bearb.
 51
15.0
  7
ROMANS8
100
AcDbText
  0
TEXT
  5
1C1
330
181
100
AcDbEntity
  8
08-99
100
AcDbText
 10
358.4308046815029
 20
42.61949825408586
 30
0.0
 40
2.0
  1
Zuschnittsbreite:
 51
15.0
  7
ROMANS8
100
AcDbText
  0
TEXT
  5
1C2
330
181
100
AcDbEntity
  8
08-99
100
AcDbText
 10
324.984994543767
 20
42.73762438949257
 30
0.0
 40
2.0
  1
Zuschnittslänge:
 51
15.0
  7
ROMANS8
100
AcDbText
  0
LINE
  5
1C3
330
181
100
AcDbEntity
  8
06-99
100
AcDbLine
 10
302.7675395817348
 20
19.87656561071236
 30
0.0
 11
303.0090469137349
 21
20.08724790671238
 31
0.0
  0
LINE
  5
1C8
330
181
100
AcDbEntity
  8
06-99
100
AcDbLine
 10
303.0090469137349
 20
20.08724790671238
 30
0.0
 11
302.9228515737349
 21
20.22625816271227
 31
0.0
  0
LINE
  5
1C9
330
181
100
AcDbEntity
  8
06-99
100
AcDbLine
 10
302.9228515737349
 20
20.22625816271227
 30
0.0
 11
302.8242642057348
 21
20.35180719071241
 31
0.0
  0
LINE
  5
1CA
330
181
100
AcDbEntity
  8
06-99
100
AcDbLine
 10
302.8242642057348
 20
20.35180719071241
 30
0.0
 11
302.713626953735
 21
20.4639413227124
 31
0.0
  0
LINE
  5
1CB
330
181
100
AcDbEntity
  8
06-99
100
AcDbLine
 10
302.713626953735
 20
20.4639413227124
 30
0.0
 11
302.5912962177348
 21
20.56271401871226
 31
0.0
  0
LINE
  5
1CC
330
181
100
AcDbEntity
  8
06-99
100
AcDbLine
 10
302.5912962177348
 20
20.56271401871226
 30
0.0
 11
302.4576141417349
 21
20.64816448271233
 31
0.0
  0
LINE
  5
1CD
330
181
100
AcDbEntity
  8
06-99
100
AcDbLine
 10
302.4576141417349
 20
20.64816448271233
 30
0.0
 11
302.3129264337349
 21
20.7203390467123
 31
0.0
  0
LINE
  5
1CE
330
181
100
AcDbEntity
  8
06-99
100
AcDbLine
 10
302.3129264337349
 20
20.7203390467123
 30
0.0
 11
302.1575859297349
 21
20.77929117071233
 31
0.0
  0
LINE
  5
1CF
330
181
100
AcDbEntity
  8
06-99
100
AcDbLine
 10
302.1575859297349
 20
20.77929117071233
 30
0.0
 11
301.991934773735
 21
20.82506005871232
 31
0.0
  0
LINE
  5
1D0
330
181
100
AcDbEntity
  8
06-99
100
AcDbLine
 10
301.991934773735
 20
20.82506005871232
 30
0.0
 11
301.8163222377349
 21
20.85769204271242
 31
0.0
  0
LINE
  5
1D1
330
181
100
AcDbEntity
  8
06-99
100
AcDbLine
 10
301.8163222377349
 20
20.85769204271242
 30
0.0
 11
301.631097593735
 21
20.87724058271238
 31
0.0
  0
LINE
  5
1D2
330
181
100
AcDbEntity
  8
06-99
100
AcDbLine
 10
301.631097593735
 20
20.87724058271238
 30
0.0
 11
301.436606549735
 21
20.88374488271234
 31
0.0
  0
LINE
  5
1D3
330
181
100
AcDbEntity
  8
06-99
100
AcDbLine
 10
301.436606549735
 20
20.88374488271234
 30
0.0
 11
301.2756812577348
 21
20.87768251871233
 31
0.0
  0
LINE
  5
1D4
330
181
100
AcDbEntity
  8
06-99
100
AcDbLine
 10
301.2756812577348
 20
20.87768251871233
 30
0.0
 11
301.1199415857348
 21
20.85975916271229
 31
0.0
  0
LINE
  5
1D5
330
181
100
AcDbEntity
  8
06-99
100
AcDbLine
 10
301.1199415857348
 20
20.85975916271229
 30
0.0
 11
300.969718985735
 21
20.83036329071246
 31
0.0
  0
LINE
  5
1D6
330
181
100
AcDbEntity
  8
06-99
100
AcDbLine
 10
300.969718985735
 20
20.83036329071246
 30
0.0
 11
300.825348473735
 21
20.78989050671231
 31
0.0
  0
LINE
  5
1D7
330
181
100
AcDbEntity
  8
06-99
100
AcDbLine
 10
300.825348473735
 20
20.78989050671231
 30
0.0
 11
300.6871615017349
 21
20.73873641471243
 31
0.0
  0
LINE
  5
1D8
330
181
100
AcDbEntity
  8
06-99
100
AcDbLine
 10
300.6871615017349
 20
20.73873641471243
 30
0.0
 11
300.5554823937349
 21
20.67729305471232
 31
0.0
  0
LINE
  5
1D9
330
181
100
AcDbEntity
  8
06-99
100
AcDbLine
 10
300.5554823937349
 20
20.67729305471232
 30
0.0
 11
300.4306532937349
 21
20.60595246671232
 31
0.0
  0
LINE
  5
1DA
330
181
100
AcDbEntity
  8
06-99
100
AcDbLine
 10
300.4306532937349
 20
20.60595246671232
 30
0.0
 11
300.3129985257349
 21
20.52510669071228
 31
0.0
  0
LINE
  5
1DB
330
181
100
AcDbEntity
  8
06-99
100
AcDbLine
 10
300.3129985257349
 20
20.52510669071228
 30
0.0
 11
300.2028495417349
 21
20.43514776671236
 31
0.0
  0
LINE
  5
1DC
330
181
100
AcDbEntity
  8
06-99
100
AcDbLine
 10
300.2028495417349
 20
20.43514776671236
 30
0.0
 11
300.1005449217349
 21
20.33647486271235
 31
0.0
  0
LINE
  5
1DD
330
181
100
AcDbEntity
  8
06-99
100
AcDbLine
 10
300.1005449217349
 20
20.33647486271235
 30
0.0
 11
300.006405425735
 21
20.22947289071237
 31
0.0
  0
LINE
  5
1DE
330
181
100
AcDbEntity
  8
06-99
100
AcDbLine
 10
300.006405425735
 20
20.22947289071237
 30
0.0
 11
299.920769633735
 21
20.11454458271237
 31
0.0
  0
LINE
  5
1DF
330
181
100
AcDbEntity
  8
06-99
100
AcDbLine
 10
299.920769633735
 20
20.11454458271237
 30
0.0
 11
299.8439689977349
 21
19.99207485071235
 31
0.0
  0
LINE
  5
1E0
330
181
100
AcDbEntity
  8
06-99
100
AcDbLine
 10
299.8439689977349
 20
19.99207485071235
 30
0.0
 11
299.7763314057349
 21
19.86245929871239
 31
0.0
  0
LINE
  5
1E1
330
181
100
AcDbEntity
  8
06-99
100
AcDbLine
 10
299.7763314057349
 20
19.86245929871239
 30
0.0
 11
299.7181918737349
 21
19.72608996671232
 31
0.0
  0
LINE
  5
1E2
330
181
100
AcDbEntity
  8
06-99
100
AcDbLine
 10
299.7181918737349
 20
19.72608996671232
 30
0.0
 11
299.6698782897349
 21
19.58336602271231
 31
0.0
  0
LINE
  5
1E3
330
181
100
AcDbEntity
  8
06-99
100
AcDbLine
 10
299.6698782897349
 20
19.58336602271231
 30
0.0
 11
299.631722105735
 21
19.43467237871232
 31
0.0
  0
LINE
  5
1E4
330
181
100
AcDbEntity
  8
06-99
100
AcDbLine
 10
299.631722105735
 20
19.43467237871232
 30
0.0
 11
299.6040619017348
 21
19.28040820271229
 31
0.0
  0
LINE
  5
1E5
330
181
100
AcDbEntity
  8
06-99
100
AcDbLine
 10
299.6040619017348
 20
19.28040820271229
 30
0.0
 11
299.5872184377349
 21
19.12096197071235
 31
0.0
  0
LINE
  5
1E6
330
181
100
AcDbEntity
  8
06-99
100
AcDbLine
 10
299.5872184377349
 20
19.12096197071235
 30
0.0
 11
299.5815338577349
 21
18.95672928671234
 31
0.0
  0
LINE
  5
1E7
330
181
100
AcDbEntity
  8
06-99
100
AcDbLine
 10
299.5815338577349
 20
18.95672928671234
 30
0.0
 11
299.5871471577349
 21
18.7876246147124
 31
0.0
  0
LINE
  5
1E8
330
181
100
AcDbEntity
  8
06-99
100
AcDbLine
 10
299.5871471577349
 20
18.7876246147124
 30
0.0
 11
299.603798165735
 21
18.62429005871234
 31
0.0
  0
LINE
  5
1E9
330
181
100
AcDbEntity
  8
06-99
100
AcDbLine
 10
299.603798165735
 20
18.62429005871234
 30
0.0
 11
299.6311875057347
 21
18.46704281471233
 31
0.0
  0
LINE
  5
1EA
330
181
100
AcDbEntity
  8
06-99
100
AcDbLine
 10
299.6311875057347
 20
18.46704281471233
 30
0.0
 11
299.6690158017348
 21
18.31619651471226
 31
0.0
  0
LINE
  5
1EB
330
181
100
AcDbEntity
  8
06-99
100
AcDbLine
 10
299.6690158017348
 20
18.31619651471226
 30
0.0
 11
299.7169872417348
 21
18.17206479071234
 31
0.0
  0
LINE
  5
1EC
330
181
100
AcDbEntity
  8
06-99
100
AcDbLine
 10
299.7169872417348
 20
18.17206479071234
 30
0.0
 11
299.774806013735
 21
18.03496127471237
 31
0.0
  0
LINE
  5
1ED
330
181
100
AcDbEntity
  8
06-99
100
AcDbLine
 10
299.774806013735
 20
18.03496127471237
 30
0.0
 11
299.8421763057349
 21
17.90519603471233
 31
0.0
  0
LINE
  5
1EE
330
181
100
AcDbEntity
  8
06-99
100
AcDbLine
 10
299.8421763057349
 20
17.90519603471233
 30
0.0
 11
299.9187987417349
 21
17.7830862667123
 31
0.0
  0
LINE
  5
1EF
330
181
100
AcDbEntity
  8
06-99
100
AcDbLine
 10
299.9187987417349
 20
17.7830862667123
 30
0.0
 11
300.0043775097349
 21
17.66894203871231
 31
0.0
  0
LINE
  5
1F0
330
181
100
AcDbEntity
  8
06-99
100
AcDbLine
 10
300.0043775097349
 20
17.66894203871231
 30
0.0
 11
300.0986203617349
 21
17.56308054671234
 31
0.0
  0
LINE
  5
1F1
330
181
100
AcDbEntity
  8
06-99
100
AcDbLine
 10
300.0986203617349
 20
17.56308054671234
 30
0.0
 11
300.2012207937348
 21
17.46581185871235
 31
0.0
  0
LINE
  5
1F2
330
181
100
AcDbEntity
  8
06-99
100
AcDbLine
 10
300.2012207937348
 20
17.46581185871235
 30
0.0
 11
300.3118936857348
 21
17.37745317071227
 31
0.0
  0
LINE
  5
1F3
330
181
100
AcDbEntity
  8
06-99
100
AcDbLine
 10
300.3118936857348
 20
17.37745317071227
 30
0.0
 11
300.430332533735
 21
17.2983145507124
 31
0.0
  0
LINE
  5
1F4
330
181
100
AcDbEntity
  8
06-99
100
AcDbLine
 10
300.430332533735
 20
17.2983145507124
 30
0.0
 11
300.5562450897348
 21
17.22870963071239
 31
0.0
  0
LINE
  5
1F5
330
181
100
AcDbEntity
  8
06-99
100
AcDbLine
 10
300.5562450897348
 20
17.22870963071239
 30
0.0
 11
300.6893319777348
 21
17.1689556067123
 31
0.0
  0
LINE
  5
1F6
330
181
100
AcDbEntity
  8
06-99
100
AcDbLine
 10
300.6893319777348
 20
17.1689556067123
 30
0.0
 11
300.8293009497348
 21
17.11936254671235
 31
0.0
  0
LINE
  5
1F7
330
181
100
AcDbEntity
  8
06-99
100
AcDbLine
 10
300.8293009497348
 20
17.11936254671235
 30
0.0
 11
300.975849065735
 21
17.0802440827124
 31
0.0
  0
LINE
  5
1F8
330
181
100
AcDbEntity
  8
06-99
100
AcDbLine
 10
300.975849065735
 20
17.0802440827124
 30
0.0
 11
301.1286876417348
 21
17.05191384671241
 31
0.0
  0
LINE
  5
1F9
330
181
100
AcDbEntity
  8
06-99
100
AcDbLine
 10
301.1286876417348
 20
17.05191384671241
 30
0.0
 11
301.2875101737348
 21
17.03468547071236
 31
0.0
  0
LINE
  5
1FA
330
181
100
AcDbEntity
  8
06-99
100
AcDbLine
 10
301.2875101737348
 20
17.03468547071236
 30
0.0
 11
301.4520279777349
 21
17.02887258671239
 31
0.0
  0
LINE
  5
1FB
330
181
100
AcDbEntity
  8
06-99
100
AcDbLine
 10
301.4520279777349
 20
17.02887258671239
 30
0.0
 11
301.616025437735
 21
17.03412592271235
 31
0.0
  0
LINE
  5
1FC
330
181
100
AcDbEntity
  8
06-99
100
AcDbLine
 10
301.616025437735
 20
17.03412592271235
 30
0.0
 11
301.7733582177349
 21
17.04976475471238
 31
0.0
  0
LINE
  5
1FD
330
181
100
AcDbEntity
  8
06-99
100
AcDbLine
 10
301.7733582177349
 20
17.04976475471238
 30
0.0
 11
301.9238374257349
 21
17.07559662671235
 31
0.0
  0
LINE
  5
1FE
330
181
100
AcDbEntity
  8
06-99
100
AcDbLine
 10
301.9238374257349
 20
17.07559662671235
 30
0.0
 11
302.0672741697348
 21
17.11142908271239
 31
0.0
  0
LINE
  5
1FF
330
181
100
AcDbEntity
  8
06-99
100
AcDbLine
 10
302.0672741697348
 20
17.11142908271239
 30
0.0
 11
302.203483121735
 21
17.15707323071234
 31
0.0
  0
LINE
  5
200
330
181
100
AcDbEntity
  8
06-99
100
AcDbLine
 10
302.203483121735
 20
17.15707323071234
 30
0.0
 11
302.3322718257348
 21
17.21234017871234
 31
0.0
  0
LINE
  5
201
330
181
100
AcDbEntity
  8
06-99
100
AcDbLine
 10
302.3322718257348
 20
17.21234017871234
 30
0.0
 11
302.4534549537349
 21
17.27703747071234
 31
0.0
  0
LINE
  5
202
330
181
100
AcDbEntity
  8
06-99
100
AcDbLine
 10
302.4534549537349
 20
17.27703747071234
 30
0.0
 11
302.5668364857349
 21
17.35097977871237
 31
0.0
  0
LINE
  5
203
330
181
100
AcDbEntity
  8
06-99
100
AcDbLine
 10
302.5668364857349
 20
17.35097977871237
 30
0.0
 11
302.6722382217349
 21
17.43397464671233
 31
0.0
  0
LINE
  5
204
330
181
100
AcDbEntity
  8
06-99
100
AcDbLine
 10
302.6722382217349
 20
17.43397464671233
 30
0.0
 11
302.7694605777349
 21
17.52582605471235
 31
0.0
  0
LINE
  5
205
330
181
100
AcDbEntity
  8
06-99
100
AcDbLine
 10
302.7694605777349
 20
17.52582605471235
 30
0.0
 11
302.8583217897349
 21
17.62635580271234
 31
0.0
  0
LINE
  5
206
330
181
100
AcDbEntity
  8
06-99
100
AcDbLine
 10
302.8583217897349
 20
17.62635580271234
 30
0.0
 11
302.938632965735
 21
17.73536074271232
 31
0.0
  0
LINE
  5
207
330
181
100
AcDbEntity
  8
06-99
100
AcDbLine
 10
302.938632965735
 20
17.73536074271232
 30
0.0
 11
303.0102016497349
 21
17.85266267471235
 31
0.0
  0
LINE
  5
208
330
181
100
AcDbEntity
  8
06-99
100
AcDbLine
 10
303.0102016497349
 20
17.85266267471235
 30
0.0
 11
303.0728389497349
 21
17.97806201471235
 31
0.0
  0
LINE
  5
209
330
181
100
AcDbEntity
  8
06-99
100
AcDbLine
 10
303.0728389497349
 20
17.97806201471235
 30
0.0
 11
303.126359537735
 21
18.11137343471228
 31
0.0
  0
LINE
  5
20A
330
181
100
AcDbEntity
  8
06-99
100
AcDbLine
 10
303.126359537735
 20
18.11137343471228
 30
0.0
 11
303.1705745217348
 21
18.25240447871232
 31
0.0
  0
LINE
  5
20B
330
181
100
AcDbEntity
  8
06-99
100
AcDbLine
 10
303.1705745217348
 20
18.25240447871232
 30
0.0
 11
303.2052878817349
 21
18.40096625471233
 31
0.0
  0
LINE
  5
20C
330
181
100
AcDbEntity
  8
06-99
100
AcDbLine
 10
303.2052878817349
 20
18.40096625471233
 30
0.0
 11
303.2303214177349
 21
18.55686987071237
 31
0.0
  0
LINE
  5
20D
330
181
100
AcDbEntity
  8
06-99
100
AcDbLine
 10
303.2303214177349
 20
18.55686987071237
 30
0.0
 11
303.245479109735
 21
18.7199264347123
 31
0.0
  0
LINE
  5
20E
330
181
100
AcDbEntity
  8
06-99
100
AcDbLine
 10
303.245479109735
 20
18.7199264347123
 30
0.0
 11
303.2505720657348
 21
18.88993992671231
 31
0.0
  0
LINE
  5
20F
330
181
100
AcDbEntity
  8
06-99
100
AcDbLine
 10
303.2505720657348
 20
18.88993992671231
 30
0.0
 11
303.2505720657348
 21
18.88993992671231
 31
0.0
  0
LINE
  5
210
330
181
100
AcDbEntity
  8
06-99
100
AcDbLine
 10
303.2505720657348
 20
18.88993992671231
 30
0.0
 11
303.2505720657348
 21
18.94132211471236
 31
0.0
  0
LINE
  5
211
330
181
100
AcDbEntity
  8
06-99
100
AcDbLine
 10
303.2505720657348
 20
18.94132211471236
 30
0.0
 11
301.6164638097349
 21
18.94132211471236
 31
0.0
  0
LINE
  5
212
330
181
100
AcDbEntity
  8
06-99
100
AcDbLine
 10
301.6164638097349
 20
18.94132211471236
 30
0.0
 11
301.6164638097349
 21
18.65355049871232
 31
0.0
  0
LINE
  5
213
330
181
100
AcDbEntity
  8
06-99
100
AcDbLine
 10
301.6164638097349
 20
18.65355049871232
 30
0.0
 11
302.8857253857347
 21
18.65355049871232
 31
0.0
  0
LINE
  5
214
330
181
100
AcDbEntity
  8
06-99
100
AcDbLine
 10
302.8857253857347
 20
18.65355049871232
 30
0.0
 11
302.8749870537348
 21
18.49100715071233
 31
0.0
  0
LINE
  5
215
330
181
100
AcDbEntity
  8
06-99
100
AcDbLine
 10
302.8749870537348
 20
18.49100715071233
 30
0.0
 11
302.8476547377348
 21
18.33636162671234
 31
0.0
  0
LINE
  5
216
330
181
100
AcDbEntity
  8
06-99
100
AcDbLine
 10
302.8476547377348
 20
18.33636162671234
 30
0.0
 11
302.804434109735
 21
18.19027683071238
 31
0.0
  0
LINE
  5
217
330
181
100
AcDbEntity
  8
06-99
100
AcDbLine
 10
302.804434109735
 20
18.19027683071238
 30
0.0
 11
302.7460308417349
 21
18.05341923071233
 31
0.0
  0
LINE
  5
218
330
181
100
AcDbEntity
  8
06-99
100
AcDbLine
 10
302.7460308417349
 20
18.05341923071233
 30
0.0
 11
302.673157733735
 21
17.92644460271236
 31
0.0
  0
LINE
  5
219
330
181
100
AcDbEntity
  8
06-99
100
AcDbLine
 10
302.673157733735
 20
17.92644460271236
 30
0.0
 11
302.586524021735
 21
17.81002654271236
 31
0.0
  0
LINE
  5
21A
330
181
100
AcDbEntity
  8
06-99
100
AcDbLine
 10
302.586524021735
 20
17.81002654271236
 30
0.0
 11
302.4868282497349
 21
17.70481726271237
 31
0.0
  0
LINE
  5
21B
330
181
100
AcDbEntity
  8
06-99
100
AcDbLine
 10
302.4868282497349
 20
17.70481726271237
 30
0.0
 11
302.3747867817349
 21
17.61149035871233
 31
0.0
  0
LINE
  5
21C
330
181
100
AcDbEntity
  8
06-99
100
AcDbLine
 10
302.3747867817349
 20
17.61149035871233
 30
0.0
 11
302.2511052897348
 21
17.53069804271234
 31
0.0
  0
LINE
  5
21D
330
181
100
AcDbEntity
  8
06-99
100
AcDbLine
 10
302.2511052897348
 20
17.53069804271234
 30
0.0
 11
302.116489445735
 21
17.46311034671237
 31
0.0
  0
LINE
  5
21E
330
181
100
AcDbEntity
  8
06-99
100
AcDbLine
 10
302.116489445735
 20
17.46311034671237
 30
0.0
 11
301.9716484857348
 21
17.40938661071232
 31
0.0
  0
LINE
  5
21F
330
181
100
AcDbEntity
  8
06-99
100
AcDbLine
 10
301.9716484857348
 20
17.40938661071232
 30
0.0
 11
301.8172916457349
 21
17.37019330271244
 31
0.0
  0
LINE
  5
220
330
181
100
AcDbEntity
  8
06-99
100
AcDbLine
 10
301.8172916457349
 20
17.37019330271244
 30
0.0
 11
301.654124597735
 21
17.3461897627123
 31
0.0
  0
LINE
  5
221
330
181
100
AcDbEntity
  8
06-99
100
AcDbLine
 10
301.654124597735
 20
17.3461897627123
 30
0.0
 11
301.482856577735
 21
17.33804245871238
 31
0.0
  0
LINE
  5
222
330
181
100
AcDbEntity
  8
06-99
100
AcDbLine
 10
301.482856577735
 20
17.33804245871238
 30
0.0
 11
301.318196213735
 21
17.34599374271232
 31
0.0
  0
LINE
  5
223
330
181
100
AcDbEntity
  8
06-99
100
AcDbLine
 10
301.318196213735
 20
17.34599374271232
 30
0.0
 11
301.1599011537348
 21
17.36937714671228
 31
0.0
  0
LINE
  5
224
330
181
100
AcDbEntity
  8
06-99
100
AcDbLine
 10
301.1599011537348
 20
17.36937714671228
 30
0.0
 11
301.0085630217349
 21
17.40748343471233
 31
0.0
  0
LINE
  5
225
330
181
100
AcDbEntity
  8
06-99
100
AcDbLine
 10
301.0085630217349
 20
17.40748343471233
 30
0.0
 11
300.8647698777347
 21
17.45960693471232
 31
0.0
  0
LINE
  5
226
330
181
100
AcDbEntity
  8
06-99
100
AcDbLine
 10
300.8647698777347
 20
17.45960693471232
 30
0.0
 11
300.7291026537349
 21
17.52503841071234
 31
0.0
  0
LINE
  5
227
330
181
100
AcDbEntity
  8
06-99
100
AcDbLine
 10
300.7291026537349
 20
17.52503841071234
 30
0.0
 11
300.6021529737349
 21
17.6030686267124
 31
0.0
  0
LINE
  5
228
330
181
100
AcDbEntity
  8
06-99
100
AcDbLine
 10
300.6021529737349
 20
17.6030686267124
 30
0.0
 11
300.4845053337349
 21
17.69299547471234
 31
0.0
  0
LINE
  5
229
330
181
100
AcDbEntity
  8
06-99
100
AcDbLine
 10
300.4845053337349
 20
17.69299547471234
 30
0.0
 11
300.3767513577348
 21
17.79410615471244
 31
0.0
  0
LINE
  5
22A
330
181
100
AcDbEntity
  8
06-99
100
AcDbLine
 10
300.3767513577348
 20
17.79410615471244
 30
0.0
 11
300.279475541735
 21
17.90569499471235
 31
0.0
  0
LINE
  5
22B
330
181
100
AcDbEntity
  8
06-99
100
AcDbLine
 10
300.279475541735
 20
17.90569499471235
 30
0.0
 11
300.1932623817348
 21
18.02705632271232
 31
0.0
  0
LINE
  5
22C
330
181
100
AcDbEntity
  8
06-99
100
AcDbLine
 10
300.1932623817348
 20
18.02705632271232
 30
0.0
 11
300.1187035017349
 21
18.15747733871234
 31
0.0
  0
LINE
  5
22D
330
181
100
AcDbEntity
  8
06-99
100
AcDbLine
 10
300.1187035017349
 20
18.15747733871234
 30
0.0
 11
300.0563833977349
 21
18.29625593471235
 31
0.0
  0
LINE
  5
22E
330
181
100
AcDbEntity
  8
06-99
100
AcDbLine
 10
300.0563833977349
 20
18.29625593471235
 30
0.0
 11
300.0068901297349
 21
18.44268287471232
 31
0.0
  0
LINE
  5
22F
330
181
100
AcDbEntity
  8
06-99
100
AcDbLine
 10
300.0068901297349
 20
18.44268287471232
 30
0.0
 11
299.9708117577347
 21
18.59604535871239
 31
0.0
  0
LINE
  5
230
330
181
100
AcDbEntity
  8
06-99
100
AcDbLine
 10
299.9708117577347
 20
18.59604535871239
 30
0.0
 11
299.9487327777348
 21
18.75564484271246
 31
0.0
  0
LINE
  5
231
330
181
100
AcDbEntity
  8
06-99
100
AcDbLine
 10
299.9487327777348
 20
18.75564484271246
 30
0.0
 11
299.9412448137349
 21
18.92076852671226
 31
0.0
  0
LINE
  5
232
330
181
100
AcDbEntity
  8
06-99
100
AcDbLine
 10
299.9412448137349
 20
18.92076852671226
 30
0.0
 11
299.947631501735
 21
19.08914257871237
 31
0.0
  0
LINE
  5
233
330
181
100
AcDbEntity
  8
06-99
100
AcDbLine
 10
299.947631501735
 20
19.08914257871237
 30
0.0
 11
299.9665349577349
 21
19.25115489071231
 31
0.0
  0
LINE
  5
234
330
181
100
AcDbEntity
  8
06-99
100
AcDbLine
 10
299.9665349577349
 20
19.25115489071231
 30
0.0
 11
299.997556013735
 21
19.40630650271231
 31
0.0
  0
LINE
  5
235
330
181
100
AcDbEntity
  8
06-99
100
AcDbLine
 10
299.997556013735
 20
19.40630650271231
 30
0.0
 11
300.0402990657349
 21
19.55410201871234
 31
0.0
  0
LINE
  5
236
330
181
100
AcDbEntity
  8
06-99
100
AcDbLine
 10
300.0402990657349
 20
19.55410201871234
 30
0.0
 11
300.0943720737348
 21
19.69404604271233
 31
0.0
  0
LINE
  5
237
330
181
100
AcDbEntity
  8
06-99
100
AcDbLine
 10
300.0943720737348
 20
19.69404604271233
 30
0.0
 11
300.1593758697349
 21
19.82564674271236
 31
0.0
  0
LINE
  5
238
330
181
100
AcDbEntity
  8
06-99
100
AcDbLine
 10
300.1593758697349
 20
19.82564674271236
 30
0.0
 11
300.2349148497349
 21
19.94840159471238
 31
0.0
  0
LINE
  5
239
330
181
100
AcDbEntity
  8
06-99
100
AcDbLine
 10
300.2349148497349
 20
19.94840159471238
 30
0.0
 11
300.3205969737349
 21
20.06182233071235
 31
0.0
  0
LINE
  5
23A
330
181
100
AcDbEntity
  8
06-99
100
AcDbLine
 10
300.3205969737349
 20
20.06182233071235
 30
0.0
 11
300.4160230737348
 21
20.16540642671242
 31
0.0
  0
LINE
  5
23B
330
181
100
AcDbEntity
  8
06-99
100
AcDbLine
 10
300.4160230737348
 20
20.16540642671242
 30
0.0
 11
300.5208046737348
 21
20.2586620507123
 31
0.0
  0
LINE
  5
23C
330
181
100
AcDbEntity
  8
06-99
100
AcDbLine
 10
300.5208046737348
 20
20.2586620507123
 30
0.0
 11
300.634535477735
 21
20.34109024271237
 31
0.0
  0
LINE
  5
23D
330
181
100
AcDbEntity
  8
06-99
100
AcDbLine
 10
300.634535477735
 20
20.34109024271237
 30
0.0
 11
300.756830573735
 21
20.41219917071237
 31
0.0
  0
LINE
  5
23E
330
181
100
AcDbEntity
  8
06-99
100
AcDbLine
 10
300.756830573735
 20
20.41219917071237
 30
0.0
 11
300.8872872297347
 21
20.47148987471235
 31
0.0
  0
LINE
  5
23F
330
181
100
AcDbEntity
  8
06-99
100
AcDbLine
 10
300.8872872297347
 20
20.47148987471235
 30
0.0
 11
301.025513405735
 21
20.51846695871234
 31
0.0
  0
LINE
  5
240
330
181
100
AcDbEntity
  8
06-99
100
AcDbLine
 10
301.025513405735
 20
20.51846695871234
 30
0.0
 11
301.171117061735
 21
20.55263502671232
 31
0.0
  0
LINE
  5
241
330
181
100
AcDbEntity
  8
06-99
100
AcDbLine
 10
301.171117061735
 20
20.55263502671232
 30
0.0
 11
301.323695465735
 21
20.57350224671234
 31
0.0
  0
LINE
  5
242
330
181
100
AcDbEntity
  8
06-99
100
AcDbLine
 10
301.323695465735
 20
20.57350224671234
 30
0.0
 11
301.482856577735
 21
20.58056609471237
 31
0.0
  0
LINE
  5
243
330
181
100
AcDbEntity
  8
06-99
100
AcDbLine
 10
301.482856577735
 20
20.58056609471237
 30
0.0
 11
301.6605611817349
 21
20.57164896671236
 31
0.0
  0
LINE
  5
244
330
181
100
AcDbEntity
  8
06-99
100
AcDbLine
 10
301.6605611817349
 20
20.57164896671236
 30
0.0
 11
301.830314501735
 21
20.54501163071234
 31
0.0
  0
LINE
  5
245
330
181
100
AcDbEntity
  8
06-99
100
AcDbLine
 10
301.830314501735
 20
20.54501163071234
 30
0.0
 11
301.9917779577349
 21
20.50082159471236
 31
0.0
  0
LINE
  5
246
330
181
100
AcDbEntity
  8
06-99
100
AcDbLine
 10
301.9917779577349
 20
20.50082159471236
 30
0.0
 11
302.1446129697349
 21
20.43924636671233
 31
0.0
  0
LINE
  5
247
330
181
100
AcDbEntity
  8
06-99
100
AcDbLine
 10
302.1446129697349
 20
20.43924636671233
 30
0.0
 11
302.2884809577349
 21
20.36046058271233
 31
0.0
  0
LINE
  5
248
330
181
100
AcDbEntity
  8
06-99
100
AcDbLine
 10
302.2884809577349
 20
20.36046058271233
 30
0.0
 11
302.423046905735
 21
20.2646281867124
 31
0.0
  0
LINE
  5
249
330
181
100
AcDbEntity
  8
06-99
100
AcDbLine
 10
302.423046905735
 20
20.2646281867124
 30
0.0
 11
302.5479722337349
 21
20.15192381471235
 31
0.0
  0
LINE
  5
24A
330
181
100
AcDbEntity
  8
06-99
100
AcDbLine
 10
302.5479722337349
 20
20.15192381471235
 30
0.0
 11
302.662914797735
 21
20.02251141071241
 31
0.0
  0
LINE
  5
24B
330
181
100
AcDbEntity
  8
06-99
100
AcDbLine
 10
302.662914797735
 20
20.02251141071241
 30
0.0
 11
302.7675395817348
 21
19.87656561071236
 31
0.0
  0
LINE
  5
24C
330
181
100
AcDbEntity
  8
06-99
100
AcDbLine
 10
299.4389952417348
 20
13.25281458671242
 30
0.0
 11
301.3222627377349
 21
13.25281458671242
 31
0.0
  0
LINE
  5
24D
330
181
100
AcDbEntity
  8
06-99
100
AcDbLine
 10
301.3222627377349
 20
13.25281458671242
 30
0.0
 11
301.4675990937349
 21
14.00768047871236
 31
0.0
  0
LINE
  5
24E
330
181
100
AcDbEntity
  8
06-99
100
AcDbLine
 10
301.4675990937349
 20
14.00768047871236
 30
0.0
 11
300.5648699697349
 21
14.00768047871236
 31
0.0
  0
LINE
  5
24F
330
181
100
AcDbEntity
  8
06-99
100
AcDbLine
 10
300.5648699697349
 20
14.00768047871236
 30
0.0
 11
300.6210528657348
 21
14.29950792671229
 31
0.0
  0
LINE
  5
250
330
181
100
AcDbEntity
  8
06-99
100
AcDbLine
 10
300.6210528657348
 20
14.29950792671229
 30
0.0
 11
301.4187152697349
 21
14.29950792671229
 31
0.0
  0
LINE
  5
251
330
181
100
AcDbEntity
  8
06-99
100
AcDbLine
 10
301.4187152697349
 20
14.29950792671229
 30
0.0
 11
301.5558009657348
 21
15.01156305071231
 31
0.0
  0
LINE
  5
252
330
181
100
AcDbEntity
  8
06-99
100
AcDbLine
 10
301.5558009657348
 20
15.01156305071231
 30
0.0
 11
300.7581385617348
 21
15.01156305071231
 31
0.0
  0
LINE
  5
253
330
181
100
AcDbEntity
  8
06-99
100
AcDbLine
 10
300.7581385617348
 20
15.01156305071231
 30
0.0
 11
300.8098450737348
 21
15.28005699071229
 31
0.0
  0
LINE
  5
254
330
181
100
AcDbEntity
  8
06-99
100
AcDbLine
 10
300.8098450737348
 20
15.28005699071229
 30
0.0
 11
301.6892264337348
 21
15.28005699071229
 31
0.0
  0
LINE
  5
255
330
181
100
AcDbEntity
  8
06-99
100
AcDbLine
 10
301.6892264337348
 20
15.28005699071229
 30
0.0
 11
301.8345520977349
 21
16.03490862671236
 31
0.0
  0
LINE
  5
256
330
181
100
AcDbEntity
  8
06-99
100
AcDbLine
 10
301.8345520977349
 20
16.03490862671236
 30
0.0
 11
299.9746323657349
 21
16.03490862671236
 31
0.0
  0
LINE
  5
257
330
181
100
AcDbEntity
  8
06-99
100
AcDbLine
 10
299.9746323657349
 20
16.03490862671236
 30
0.0
 11
299.4389952417348
 21
13.25281458671242
 31
0.0
  0
LINE
  5
258
330
181
100
AcDbEntity
  8
06-99
100
AcDbLine
 10
285.6086116857349
 20
13.88042785871232
 30
0.0
 11
298.0658608857348
 21
13.88042785871232
 31
0.0
  0
LINE
  5
259
330
181
100
AcDbEntity
  8
06-99
100
AcDbLine
 10
298.0658608857348
 20
13.88042785871232
 30
0.0
 11
297.9422827497349
 21
13.25209822271233
 31
0.0
  0
LINE
  5
25A
330
181
100
AcDbEntity
  8
06-99
100
AcDbLine
 10
297.9422827497349
 20
13.25209822271233
 30
0.0
 11
285.4850371137349
 21
13.25209822271233
 31
0.0
  0
LINE
  5
25B
330
181
100
AcDbEntity
  8
06-99
100
AcDbLine
 10
285.4850371137349
 20
13.25209822271233
 30
0.0
 11
285.6086116857349
 21
13.88042785871232
 31
0.0
  0
LINE
  5
25C
330
181
100
AcDbEntity
  8
06-99
100
AcDbLine
 10
291.3458426577349
 20
17.02887258671239
 30
0.0
 11
292.3221826377348
 21
20.10266933471235
 31
0.0
  0
LINE
  5
25D
330
181
100
AcDbEntity
  8
06-99
100
AcDbLine
 10
292.3221826377348
 20
20.10266933471235
 30
0.0
 11
293.3396476137348
 21
17.02887258671239
 31
0.0
  0
LINE
  5
25E
330
181
100
AcDbEntity
  8
06-99
100
AcDbLine
 10
293.3396476137348
 20
17.02887258671239
 30
0.0
 11
294.5677984497349
 21
20.80153409471234
 31
0.0
  0
LINE
  5
25F
330
181
100
AcDbEntity
  8
06-99
100
AcDbLine
 10
294.5677984497349
 20
20.80153409471234
 30
0.0
 11
294.2235089217348
 21
20.80153409471234
 31
0.0
  0
LINE
  5
260
330
181
100
AcDbEntity
  8
06-99
100
AcDbLine
 10
294.2235089217348
 20
20.80153409471234
 30
0.0
 11
293.3396476137348
 21
17.89303210271231
 31
0.0
  0
LINE
  5
261
330
181
100
AcDbEntity
  8
06-99
100
AcDbLine
 10
293.3396476137348
 20
17.89303210271231
 30
0.0
 11
292.3221826377348
 21
20.94541277471228
 31
0.0
  0
LINE
  5
262
330
181
100
AcDbEntity
  8
06-99
100
AcDbLine
 10
292.3221826377348
 20
20.94541277471228
 30
0.0
 11
291.3458426577349
 21
17.86733922671237
 31
0.0
  0
LINE
  5
263
330
181
100
AcDbEntity
  8
06-99
100
AcDbLine
 10
291.3458426577349
 20
17.86733922671237
 30
0.0
 11
290.426009897735
 21
20.80153409471234
 31
0.0
  0
LINE
  5
264
330
181
100
AcDbEntity
  8
06-99
100
AcDbLine
 10
290.426009897735
 20
20.80153409471234
 30
0.0
 11
290.0765810817349
 21
20.80153409471234
 31
0.0
  0
LINE
  5
265
330
181
100
AcDbEntity
  8
06-99
100
AcDbLine
 10
290.0765810817349
 20
20.80153409471234
 30
0.0
 11
291.3458426577349
 21
17.02887258671239
 31
0.0
  0
LINE
  5
266
330
181
100
AcDbEntity
  8
06-99
100
AcDbLine
 10
296.324415641735
 20
18.65868622271239
 30
0.0
 11
296.9770339377348
 21
20.2568337187123
 31
0.0
  0
LINE
  5
267
330
181
100
AcDbEntity
  8
06-99
100
AcDbLine
 10
296.9770339377348
 20
20.2568337187123
 30
0.0
 11
297.6039629217348
 21
18.65868622271239
 31
0.0
  0
LINE
  5
268
330
181
100
AcDbEntity
  8
06-99
100
AcDbLine
 10
297.6039629217348
 20
18.65868622271239
 30
0.0
 11
296.324415641735
 21
18.65868622271239
 31
0.0
  0
LINE
  5
269
330
181
100
AcDbEntity
  8
06-99
100
AcDbLine
 10
295.3831810617349
 20
17.12736016271231
 30
0.0
 11
295.7231937897349
 21
17.12736016271231
 31
0.0
  0
LINE
  5
26A
330
181
100
AcDbEntity
  8
06-99
100
AcDbLine
 10
295.7231937897349
 20
17.12736016271231
 30
0.0
 11
296.2113619977348
 21
18.37092886271233
 31
0.0
  0
LINE
  5
26B
330
181
100
AcDbEntity
  8
06-99
100
AcDbLine
 10
296.2113619977348
 20
18.37092886271233
 30
0.0
 11
297.711863021735
 21
18.37092886271233
 31
0.0
  0
LINE
  5
26C
330
181
100
AcDbEntity
  8
06-99
100
AcDbLine
 10
297.711863021735
 20
18.37092886271233
 30
0.0
 11
298.1794918977348
 21
17.12736016271231
 31
0.0
  0
LINE
  5
26D
330
181
100
AcDbEntity
  8
06-99
100
AcDbLine
 10
298.1794918977348
 20
17.12736016271231
 30
0.0
 11
298.5443385777348
 21
17.12736016271231
 31
0.0
  0
LINE
  5
26E
330
181
100
AcDbEntity
  8
06-99
100
AcDbLine
 10
298.5443385777348
 20
17.12736016271231
 30
0.0
 11
296.9975910897349
 21
20.94541277471228
 31
0.0
  0
LINE
  5
26F
330
181
100
AcDbEntity
  8
06-99
100
AcDbLine
 10
296.9975910897349
 20
20.94541277471228
 30
0.0
 11
295.3831810617349
 21
17.12736016271231
 31
0.0
  0
LINE
  5
270
330
181
100
AcDbEntity
  8
06-99
100
AcDbLine
 10
307.9298046897347
 20
13.25281458671242
 30
0.0
 11
309.0043792017348
 21
13.25281458671242
 31
0.0
  0
LINE
  5
271
330
181
100
AcDbEntity
  8
06-99
100
AcDbLine
 10
309.0043792017348
 20
13.25281458671242
 30
0.0
 11
309.1574066697349
 21
13.60301322671233
 31
0.0
  0
LINE
  5
272
330
181
100
AcDbEntity
  8
06-99
100
AcDbLine
 10
309.1574066697349
 20
13.60301322671233
 30
0.0
 11
309.9122725617349
 21
13.60301322671233
 31
0.0
  0
LINE
  5
273
330
181
100
AcDbEntity
  8
06-99
100
AcDbLine
 10
309.9122725617349
 20
13.60301322671233
 30
0.0
 11
309.9343444137348
 21
13.25281458671242
 31
0.0
  0
LINE
  5
274
330
181
100
AcDbEntity
  8
06-99
100
AcDbLine
 10
309.9343444137348
 20
13.25281458671242
 30
0.0
 11
311.0082738417347
 21
13.25281458671242
 31
0.0
  0
LINE
  5
275
330
181
100
AcDbEntity
  8
06-99
100
AcDbLine
 10
311.0082738417347
 20
13.25281458671242
 30
0.0
 11
310.5711492417348
 21
16.03490862671236
 31
0.0
  0
LINE
  5
276
330
181
100
AcDbEntity
  8
06-99
100
AcDbLine
 10
310.5711492417348
 20
16.03490862671236
 30
0.0
 11
309.4583116257348
 21
16.03490862671236
 31
0.0
  0
LINE
  5
277
330
181
100
AcDbEntity
  8
06-99
100
AcDbLine
 10
309.4583116257348
 20
16.03490862671236
 30
0.0
 11
307.9298046897347
 21
13.25281458671242
 31
0.0
  0
LINE
  5
278
330
181
100
AcDbEntity
  8
06-99
100
AcDbLine
 10
305.0434565217349
 20
14.66137866671232
 30
0.0
 11
305.0784799497348
 21
14.66137866671232
 31
0.0
  0
LINE
  5
279
330
181
100
AcDbEntity
  8
06-99
100
AcDbLine
 10
305.0784799497348
 20
14.66137866671232
 30
0.0
 11
305.0642239497349
 21
14.48699927471239
 31
0.0
  0
LINE
  5
27A
330
181
100
AcDbEntity
  8
06-99
100
AcDbLine
 10
305.0642239497349
 20
14.48699927471239
 30
0.0
 11
305.0637998337348
 21
14.33510159471234
 31
0.0
  0
LINE
  5
27B
330
181
100
AcDbEntity
  8
06-99
100
AcDbLine
 10
305.0637998337348
 20
14.33510159471234
 30
0.0
 11
305.0678984337348
 21
14.20222854671237
 31
0.0
  0
LINE
  5
27C
330
181
100
AcDbEntity
  8
06-99
100
AcDbLine
 10
305.0678984337348
 20
14.20222854671237
 30
0.0
 11
305.0952307497349
 21
13.25281458671242
 31
0.0
  0
LINE
  5
27D
330
181
100
AcDbEntity
  8
06-99
100
AcDbLine
 10
305.0952307497349
 20
13.25281458671242
 30
0.0
 11
305.9668283337347
 21
13.25281458671242
 31
0.0
  0
LINE
  5
27E
330
181
100
AcDbEntity
  8
06-99
100
AcDbLine
 10
305.9668283337347
 20
13.25281458671242
 30
0.0
 11
307.3156882857347
 21
16.03490862671236
 31
0.0
  0
LINE
  5
27F
330
181
100
AcDbEntity
  8
06-99
100
AcDbLine
 10
307.3156882857347
 20
16.03490862671236
 30
0.0
 11
306.3118057137349
 21
16.03490862671236
 31
0.0
  0
LINE
  5
280
330
181
100
AcDbEntity
  8
06-99
100
AcDbLine
 10
306.3118057137349
 20
16.03490862671236
 30
0.0
 11
305.8579124937348
 21
14.8092312067123
 31
0.0
  0
LINE
  5
281
330
181
100
AcDbEntity
  8
06-99
100
AcDbLine
 10
305.8579124937348
 20
14.8092312067123
 30
0.0
 11
305.8078097817349
 21
14.66872763471229
 31
0.0
  0
LINE
  5
282
330
181
100
AcDbEntity
  8
06-99
100
AcDbLine
 10
305.8078097817349
 20
14.66872763471229
 30
0.0
 11
305.7488398377348
 21
14.48671415471227
 31
0.0
  0
LINE
  5
283
330
181
100
AcDbEntity
  8
06-99
100
AcDbLine
 10
305.7488398377348
 20
14.48671415471227
 30
0.0
 11
305.6900267097347
 21
14.26059973871241
 31
0.0
  0
LINE
  5
284
330
181
100
AcDbEntity
  8
06-99
100
AcDbLine
 10
305.6900267097347
 20
14.26059973871241
 30
0.0
 11
305.6666932017348
 21
14.26059973871241
 31
0.0
  0
LINE
  5
285
330
181
100
AcDbEntity
  8
06-99
100
AcDbLine
 10
305.6666932017348
 20
14.26059973871241
 30
0.0
 11
305.6884193457348
 21
14.45803464671235
 31
0.0
  0
LINE
  5
286
330
181
100
AcDbEntity
  8
06-99
100
AcDbLine
 10
305.6884193457348
 20
14.45803464671235
 30
0.0
 11
305.6929777017349
 21
14.6156953147123
 31
0.0
  0
LINE
  5
287
330
181
100
AcDbEntity
  8
06-99
100
AcDbLine
 10
305.6929777017349
 20
14.6156953147123
 30
0.0
 11
305.6919370137348
 21
14.73531384671236
 31
0.0
  0
LINE
  5
288
330
181
100
AcDbEntity
  8
06-99
100
AcDbLine
 10
305.6919370137348
 20
14.73531384671236
 30
0.0
 11
305.6775527097348
 21
16.03490862671236
 31
0.0
  0
LINE
  5
289
330
181
100
AcDbEntity
  8
06-99
100
AcDbLine
 10
305.6775527097348
 20
16.03490862671236
 30
0.0
 11
304.9732849257348
 21
16.03490862671236
 31
0.0
  0
LINE
  5
28A
330
181
100
AcDbEntity
  8
06-99
100
AcDbLine
 10
304.9732849257348
 20
16.03490862671236
 30
0.0
 11
304.4584829457349
 21
14.73531384671236
 31
0.0
  0
LINE
  5
28B
330
181
100
AcDbEntity
  8
06-99
100
AcDbLine
 10
304.4584829457349
 20
14.73531384671236
 30
0.0
 11
304.4113811217347
 21
14.6156953147123
 31
0.0
  0
LINE
  5
28C
330
181
100
AcDbEntity
  8
06-99
100
AcDbLine
 10
304.4113811217347
 20
14.6156953147123
 30
0.0
 11
304.355226737735
 21
14.45803464671235
 31
0.0
  0
LINE
  5
28D
330
181
100
AcDbEntity
  8
06-99
100
AcDbLine
 10
304.355226737735
 20
14.45803464671235
 30
0.0
 11
304.3009220697348
 21
14.26059973871241
 31
0.0
  0
LINE
  5
28E
330
181
100
AcDbEntity
  8
06-99
100
AcDbLine
 10
304.3009220697348
 20
14.26059973871241
 30
0.0
 11
304.2775885617348
 21
14.26059973871241
 31
0.0
  0
LINE
  5
28F
330
181
100
AcDbEntity
  8
06-99
100
AcDbLine
 10
304.2775885617348
 20
14.26059973871241
 30
0.0
 11
304.3058439537349
 21
14.48671415471227
 31
0.0
  0
LINE
  5
290
330
181
100
AcDbEntity
  8
06-99
100
AcDbLine
 10
304.3058439537349
 20
14.48671415471227
 30
0.0
 11
304.3169636337349
 21
14.66872763471229
 31
0.0
  0
LINE
  5
291
330
181
100
AcDbEntity
  8
06-99
100
AcDbLine
 10
304.3169636337349
 20
14.66872763471229
 30
0.0
 11
304.3209588777348
 21
14.8092312067123
 31
0.0
  0
LINE
  5
292
330
181
100
AcDbEntity
  8
06-99
100
AcDbLine
 10
304.3209588777348
 20
14.8092312067123
 30
0.0
 11
304.3390319217348
 21
16.03490862671236
 31
0.0
  0
LINE
  5
293
330
181
100
AcDbEntity
  8
06-99
100
AcDbLine
 10
304.3390319217348
 20
16.03490862671236
 30
0.0
 11
303.3345042657348
 21
16.03490862671236
 31
0.0
  0
LINE
  5
294
330
181
100
AcDbEntity
  8
06-99
100
AcDbLine
 10
303.3345042657348
 20
16.03490862671236
 30
0.0
 11
303.6127350537349
 21
13.25281458671242
 31
0.0
  0
LINE
  5
295
330
181
100
AcDbEntity
  8
06-99
100
AcDbLine
 10
303.6127350537349
 20
13.25281458671242
 30
0.0
 11
304.4843290737348
 21
13.25281458671242
 31
0.0
  0
LINE
  5
296
330
181
100
AcDbEntity
  8
06-99
100
AcDbLine
 10
304.4843290737348
 20
13.25281458671242
 30
0.0
 11
304.8772386897349
 21
14.20222854671237
 31
0.0
  0
LINE
  5
297
330
181
100
AcDbEntity
  8
06-99
100
AcDbLine
 10
304.8772386897349
 20
14.20222854671237
 30
0.0
 11
304.9325127657348
 21
14.33510159471234
 31
0.0
  0
LINE
  5
298
330
181
100
AcDbEntity
  8
06-99
100
AcDbLine
 10
304.9325127657348
 20
14.33510159471234
 30
0.0
 11
304.9905774537349
 21
14.48699927471239
 31
0.0
  0
LINE
  5
299
330
181
100
AcDbEntity
  8
06-99
100
AcDbLine
 10
304.9905774537349
 20
14.48699927471239
 30
0.0
 11
305.0434565217349
 21
14.66137866671232
 31
0.0
  0
LINE
  5
29A
330
181
100
AcDbEntity
  8
06-99
100
AcDbLine
 10
309.4520674977348
 20
14.26448449871236
 30
0.0
 11
309.5983590057348
 21
14.57965971071235
 31
0.0
  0
LINE
  5
29B
330
181
100
AcDbEntity
  8
06-99
100
AcDbLine
 10
309.5983590057348
 20
14.57965971071235
 30
0.0
 11
309.6731103417349
 21
14.74409554271244
 31
0.0
  0
LINE
  5
29C
330
181
100
AcDbEntity
  8
06-99
100
AcDbLine
 10
309.6731103417349
 20
14.74409554271244
 30
0.0
 11
309.7541521377349
 21
14.94571102271237
 31
0.0
  0
LINE
  5
29D
330
181
100
AcDbEntity
  8
06-99
100
AcDbLine
 10
309.7541521377349
 20
14.94571102271237
 30
0.0
 11
309.8288286297349
 21
15.19056495071243
 31
0.0
  0
LINE
  5
29E
330
181
100
AcDbEntity
  8
06-99
100
AcDbLine
 10
309.8288286297349
 20
15.19056495071243
 30
0.0
 11
309.8482880697349
 21
15.19056495071243
 31
0.0
  0
LINE
  5
29F
330
181
100
AcDbEntity
  8
06-99
100
AcDbLine
 10
309.8482880697349
 20
15.19056495071243
 30
0.0
 11
309.8286646857348
 21
14.94571102271237
 31
0.0
  0
LINE
  5
2A0
330
181
100
AcDbEntity
  8
06-99
100
AcDbLine
 10
309.8286646857348
 20
14.94571102271237
 30
0.0
 11
309.8320718697348
 21
14.74409554271244
 31
0.0
  0
LINE
  5
2A1
330
181
100
AcDbEntity
  8
06-99
100
AcDbLine
 10
309.8320718697348
 20
14.74409554271244
 30
0.0
 11
309.8435051817348
 21
14.57965971071235
 31
0.0
  0
LINE
  5
2A2
330
181
100
AcDbEntity
  8
06-99
100
AcDbLine
 10
309.8435051817348
 20
14.57965971071235
 30
0.0
 11
309.868410413735
 21
14.26448449871236
 31
0.0
  0
LINE
  5
2A3
330
181
100
AcDbEntity
  8
06-99
100
AcDbLine
 10
309.868410413735
 20
14.26448449871236
 30
0.0
 11
309.4520674977348
 21
14.26448449871236
 31
0.0
  0
LINE
  5
2A4
330
181
100
AcDbEntity
  8
06-99
100
AcDbLine
 10
312.586705289735
 20
13.25281458671242
 30
0.0
 11
313.5672400977347
 21
13.25281458671242
 31
0.0
  0
LINE
  5
2A5
330
181
100
AcDbEntity
  8
06-99
100
AcDbLine
 10
313.5672400977347
 20
13.25281458671242
 30
0.0
 11
313.7440358817348
 21
14.17110413471232
 31
0.0
  0
LINE
  5
2A6
330
181
100
AcDbEntity
  8
06-99
100
AcDbLine
 10
313.7440358817348
 20
14.17110413471232
 30
0.0
 11
314.053626305735
 21
13.25281458671242
 31
0.0
  0
LINE
  5
2A7
330
181
100
AcDbEntity
  8
06-99
100
AcDbLine
 10
314.053626305735
 20
13.25281458671242
 30
0.0
 11
315.1742370057348
 21
13.25281458671242
 31
0.0
  0
LINE
  5
2A8
330
181
100
AcDbEntity
  8
06-99
100
AcDbLine
 10
315.1742370057348
 20
13.25281458671242
 30
0.0
 11
314.6490673497349
 21
14.38511520671233
 31
0.0
  0
LINE
  5
2A9
330
181
100
AcDbEntity
  8
06-99
100
AcDbLine
 10
314.6490673497349
 20
14.38511520671233
 30
0.0
 11
314.8084280457349
 21
14.42380955471236
 31
0.0
  0
LINE
  5
2AA
330
181
100
AcDbEntity
  8
06-99
100
AcDbLine
 10
314.8084280457349
 20
14.42380955471236
 30
0.0
 11
314.9537002497348
 21
14.49881749871235
 31
0.0
  0
LINE
  5
2AB
330
181
100
AcDbEntity
  8
06-99
100
AcDbLine
 10
314.9537002497348
 20
14.49881749871235
 30
0.0
 11
315.0813484737348
 21
14.60690292671233
 31
0.0
  0
LINE
  5
2AC
330
181
100
AcDbEntity
  8
06-99
100
AcDbLine
 10
315.0813484737348
 20
14.60690292671233
 30
0.0
 11
315.1878301017348
 21
14.74481903471235
 31
0.0
  0
LINE
  5
2AD
330
181
100
AcDbEntity
  8
06-99
100
AcDbLine
 10
315.1878301017348
 20
14.74481903471235
 30
0.0
 11
315.2695989537348
 21
14.90932258271232
 31
0.0
  0
LINE
  5
2AE
330
181
100
AcDbEntity
  8
06-99
100
AcDbLine
 10
315.2695989537348
 20
14.90932258271232
 30
0.0
 11
315.3231124137347
 21
15.09717033071234
 31
0.0
  0
LINE
  5
2AF
330
181
100
AcDbEntity
  8
06-99
100
AcDbLine
 10
315.3231124137347
 20
15.09717033071234
 30
0.0
 11
315.3445997697348
 21
15.26809264271236
 31
0.0
  0
LINE
  5
2B0
330
181
100
AcDbEntity
  8
06-99
100
AcDbLine
 10
315.3445997697348
 20
15.26809264271236
 30
0.0
 11
315.3403015857348
 21
15.42330127871241
 31
0.0
  0
LINE
  5
2B1
330
181
100
AcDbEntity
  8
06-99
100
AcDbLine
 10
315.3403015857348
 20
15.42330127871241
 30
0.0
 11
315.3102285537349
 21
15.56226163871236
 31
0.0
  0
LINE
  5
2B2
330
181
100
AcDbEntity
  8
06-99
100
AcDbLine
 10
315.3102285537349
 20
15.56226163871236
 30
0.0
 11
315.2543913657347
 21
15.68443555871226
 31
0.0
  0
LINE
  5
2B3
330
181
100
AcDbEntity
  8
06-99
100
AcDbLine
 10
315.2543913657347
 20
15.68443555871226
 30
0.0
 11
315.1728078417348
 21
15.78928843871239
 31
0.0
  0
LINE
  5
2B4
330
181
100
AcDbEntity
  8
06-99
100
AcDbLine
 10
315.1728078417348
 20
15.78928843871239
 30
0.0
 11
315.0654922377348
 21
15.87627855071235
 31
0.0
  0
LINE
  5
2B5
330
181
100
AcDbEntity
  8
06-99
100
AcDbLine
 10
315.0654922377348
 20
15.87627855071235
 30
0.0
 11
314.9324516817348
 21
15.94487485871235
 31
0.0
  0
LINE
  5
2B6
330
181
100
AcDbEntity
  8
06-99
100
AcDbLine
 10
314.9324516817348
 20
15.94487485871235
 30
0.0
 11
314.7737075577347
 21
15.9945356347124
 31
0.0
  0
LINE
  5
2B7
330
181
100
AcDbEntity
  8
06-99
100
AcDbLine
 10
314.7737075577347
 20
15.9945356347124
 30
0.0
 11
314.5892634297348
 21
16.02472627871236
 31
0.0
  0
LINE
  5
2B8
330
181
100
AcDbEntity
  8
06-99
100
AcDbLine
 10
314.5892634297348
 20
16.02472627871236
 30
0.0
 11
314.3791442457348
 21
16.03490862671236
 31
0.0
  0
LINE
  5
2B9
330
181
100
AcDbEntity
  8
06-99
100
AcDbLine
 10
314.3791442457348
 20
16.03490862671236
 30
0.0
 11
313.1223424137348
 21
16.03490862671236
 31
0.0
  0
LINE
  5
2BA
330
181
100
AcDbEntity
  8
06-99
100
AcDbLine
 10
313.1223424137348
 20
16.03490862671236
 30
0.0
 11
312.586705289735
 21
13.25281458671242
 31
0.0
  0
LINE
  5
2BB
330
181
100
AcDbEntity
  8
06-99
100
AcDbLine
 10
313.9650323937349
 20
15.31896517871234
 30
0.0
 11
314.1206829657349
 21
15.31896517871234
 31
0.0
  0
LINE
  5
2BC
330
181
100
AcDbEntity
  8
06-99
100
AcDbLine
 10
314.1206829657349
 20
15.31896517871234
 30
0.0
 11
314.2773528417349
 21
15.28538517071229
 31
0.0
  0
LINE
  5
2BD
330
181
100
AcDbEntity
  8
06-99
100
AcDbLine
 10
314.2773528417349
 20
15.28538517071229
 30
0.0
 11
314.3582200017347
 21
15.19041169871241
 31
0.0
  0
LINE
  5
2BE
330
181
100
AcDbEntity
  8
06-99
100
AcDbLine
 10
314.3582200017347
 20
15.19041169871241
 30
0.0
 11
314.3632167297349
 21
15.04270171871235
 31
0.0
  0
LINE
  5
2BF
330
181
100
AcDbEntity
  8
06-99
100
AcDbLine
 10
314.3632167297349
 20
15.04270171871235
 30
0.0
 11
314.3008645497348
 21
14.8970018347124
 31
0.0
  0
LINE
  5
2C0
330
181
100
AcDbEntity
  8
06-99
100
AcDbLine
 10
314.3008645497348
 20
14.8970018347124
 30
0.0
 11
314.1832917537348
 21
14.80578125471237
 31
0.0
  0
LINE
  5
2C1
330
181
100
AcDbEntity
  8
06-99
100
AcDbLine
 10
314.1832917537348
 20
14.80578125471237
 30
0.0
 11
314.0158122657348
 21
14.77422203471229
 31
0.0
  0
LINE
  5
2C2
330
181
100
AcDbEntity
  8
06-99
100
AcDbLine
 10
314.0158122657348
 20
14.77422203471229
 30
0.0
 11
313.8601616937349
 21
14.77422203471229
 31
0.0
  0
LINE
  5
2C3
330
181
100
AcDbEntity
  8
06-99
100
AcDbLine
 10
313.8601616937349
 20
14.77422203471229
 30
0.0
 11
313.9650323937349
 21
15.31896517871234
 31
0.0
  0
LINE
  5
2C4
330
181
100
AcDbEntity
  8
06-99
100
AcDbLine
 10
309.579801257735
 20
17.12736016271231
 30
0.0
 11
311.3988989337349
 21
17.12736016271231
 31
0.0
  0
LINE
  5
2C5
330
181
100
AcDbEntity
  8
06-99
100
AcDbLine
 10
311.3988989337349
 20
17.12736016271231
 30
0.0
 11
311.3988989337349
 21
17.44082465471229
 31
0.0
  0
LINE
  5
2C6
330
181
100
AcDbEntity
  8
06-99
100
AcDbLine
 10
311.3988989337349
 20
17.44082465471229
 30
0.0
 11
309.913819337735
 21
17.44082465471229
 31
0.0
  0
LINE
  5
2C7
330
181
100
AcDbEntity
  8
06-99
100
AcDbLine
 10
309.913819337735
 20
17.44082465471229
 30
0.0
 11
309.913819337735
 21
19.02353290271242
 31
0.0
  0
LINE
  5
2C8
330
181
100
AcDbEntity
  8
06-99
100
AcDbLine
 10
309.913819337735
 20
19.02353290271242
 30
0.0
 11
311.3988989337349
 21
19.02353290271242
 31
0.0
  0
LINE
  5
2C9
330
181
100
AcDbEntity
  8
06-99
100
AcDbLine
 10
311.3988989337349
 20
19.02353290271242
 30
0.0
 11
311.3988989337349
 21
19.3369973947124
 31
0.0
  0
LINE
  5
2CA
330
181
100
AcDbEntity
  8
06-99
100
AcDbLine
 10
311.3988989337349
 20
19.3369973947124
 30
0.0
 11
309.913819337735
 21
19.3369973947124
 31
0.0
  0
LINE
  5
2CB
330
181
100
AcDbEntity
  8
06-99
100
AcDbLine
 10
309.913819337735
 20
19.3369973947124
 30
0.0
 11
309.913819337735
 21
20.48806960271236
 31
0.0
  0
LINE
  5
2CC
330
181
100
AcDbEntity
  8
06-99
100
AcDbLine
 10
309.913819337735
 20
20.48806960271236
 30
0.0
 11
311.3988989337349
 21
20.48806960271236
 31
0.0
  0
LINE
  5
2CD
330
181
100
AcDbEntity
  8
06-99
100
AcDbLine
 10
311.3988989337349
 20
20.48806960271236
 30
0.0
 11
311.3988989337349
 21
20.80153409471234
 31
0.0
  0
LINE
  5
2CE
330
181
100
AcDbEntity
  8
06-99
100
AcDbLine
 10
311.3988989337349
 20
20.80153409471234
 30
0.0
 11
309.579801257735
 21
20.80153409471234
 31
0.0
  0
LINE
  5
2CF
330
181
100
AcDbEntity
  8
06-99
100
AcDbLine
 10
309.579801257735
 20
20.80153409471234
 30
0.0
 11
309.579801257735
 21
17.12736016271231
 31
0.0
  0
LINE
  5
2D0
330
181
100
AcDbEntity
  8
06-99
100
AcDbLine
 10
304.853024873735
 20
17.12736016271231
 30
0.0
 11
305.1870465177349
 21
17.12736016271231
 31
0.0
  0
LINE
  5
2D1
330
181
100
AcDbEntity
  8
06-99
100
AcDbLine
 10
305.1870465177349
 20
17.12736016271231
 30
0.0
 11
305.1870465177349
 21
20.09753361071233
 31
0.0
  0
LINE
  5
2D2
330
181
100
AcDbEntity
  8
06-99
100
AcDbLine
 10
305.1870465177349
 20
20.09753361071233
 30
0.0
 11
307.7666661537348
 21
17.01858688271232
 31
0.0
  0
LINE
  5
2D3
330
181
100
AcDbEntity
  8
06-99
100
AcDbLine
 10
307.7666661537348
 20
17.01858688271232
 30
0.0
 11
307.7666661537348
 21
20.80153409471234
 31
0.0
  0
LINE
  5
2D4
330
181
100
AcDbEntity
  8
06-99
100
AcDbLine
 10
307.7666661537348
 20
20.80153409471234
 30
0.0
 11
307.4326587657349
 21
20.80153409471234
 31
0.0
  0
LINE
  5
2D5
330
181
100
AcDbEntity
  8
06-99
100
AcDbLine
 10
307.4326587657349
 20
20.80153409471234
 30
0.0
 11
307.4326587657349
 21
17.88274639871235
 31
0.0
  0
LINE
  5
2D6
330
181
100
AcDbEntity
  8
06-99
100
AcDbLine
 10
307.4326587657349
 20
17.88274639871235
 30
0.0
 11
304.853024873735
 21
20.95568422271231
 31
0.0
  0
LINE
  5
2D7
330
181
100
AcDbEntity
  8
06-99
100
AcDbLine
 10
304.853024873735
 20
20.95568422271231
 30
0.0
 11
304.853024873735
 21
17.12736016271231
 31
0.0
  0
LINE
  5
2D8
330
181
100
AcDbEntity
  8
06-99
100
AcDbLine
 10
313.448423465735
 20
20.50862675471228
 30
0.0
 11
313.7824308537349
 21
20.50862675471228
 31
0.0
  0
LINE
  5
2D9
330
181
100
AcDbEntity
  8
06-99
100
AcDbLine
 10
313.7824308537349
 20
20.50862675471228
 30
0.0
 11
313.9866159777348
 21
20.50030837871236
 31
0.0
  0
LINE
  5
2DA
330
181
100
AcDbEntity
  8
06-99
100
AcDbLine
 10
313.9866159777348
 20
20.50030837871236
 30
0.0
 11
314.1604465137349
 21
20.47385993471232
 31
0.0
  0
LINE
  5
2DB
330
181
100
AcDbEntity
  8
06-99
100
AcDbLine
 10
314.1604465137349
 20
20.47385993471232
 30
0.0
 11
314.3048954337349
 21
20.42705748671227
 31
0.0
  0
LINE
  5
2DC
330
181
100
AcDbEntity
  8
06-99
100
AcDbLine
 10
314.3048954337349
 20
20.42705748671227
 30
0.0
 11
314.4209178897349
 21
20.35767353471232
 31
0.0
  0
LINE
  5
2DD
330
181
100
AcDbEntity
  8
06-99
100
AcDbLine
 10
314.4209178897349
 20
20.35767353471232
 30
0.0
 11
314.509479725735
 21
20.26348057871229
 31
0.0
  0
LINE
  5
2DE
330
181
100
AcDbEntity
  8
06-99
100
AcDbLine
 10
314.509479725735
 20
20.26348057871229
 30
0.0
 11
314.5715432217348
 21
20.14225111871241
 31
0.0
  0
LINE
  5
2DF
330
181
100
AcDbEntity
  8
06-99
100
AcDbLine
 10
314.5715432217348
 20
20.14225111871241
 30
0.0
 11
314.6080777857349
 21
19.99175052671228
 31
0.0
  0
LINE
  5
2E0
330
181
100
AcDbEntity
  8
06-99
100
AcDbLine
 10
314.6080777857349
 20
19.99175052671228
 30
0.0
 11
314.6200421337348
 21
19.80976199471234
 31
0.0
  0
LINE
  5
2E1
330
181
100
AcDbEntity
  8
06-99
100
AcDbLine
 10
314.6200421337348
 20
19.80976199471234
 30
0.0
 11
314.6074469577349
 21
19.63100957471232
 31
0.0
  0
LINE
  5
2E2
330
181
100
AcDbEntity
  8
06-99
100
AcDbLine
 10
314.6074469577349
 20
19.63100957471232
 30
0.0
 11
314.5693763097349
 21
19.48586211071233
 31
0.0
  0
LINE
  5
2E3
330
181
100
AcDbEntity
  8
06-99
100
AcDbLine
 10
314.5693763097349
 20
19.48586211071233
 30
0.0
 11
314.5054167657349
 21
19.37130445871241
 31
0.0
  0
LINE
  5
2E4
330
181
100
AcDbEntity
  8
06-99
100
AcDbLine
 10
314.5054167657349
 20
19.37130445871241
 30
0.0
 11
314.4151370817349
 21
19.28432860271238
 31
0.0
  0
LINE
  5
2E5
330
181
100
AcDbEntity
  8
06-99
100
AcDbLine
 10
314.4151370817349
 20
19.28432860271238
 30
0.0
 11
314.298123833735
 21
19.22192296271237
 31
0.0
  0
LINE
  5
2E6
330
181
100
AcDbEntity
  8
06-99
100
AcDbLine
 10
314.298123833735
 20
19.22192296271237
 30
0.0
 11
314.1539493417349
 21
19.18107239471232
 31
0.0
  0
LINE
  5
2E7
330
181
100
AcDbEntity
  8
06-99
100
AcDbLine
 10
314.1539493417349
 20
19.18107239471232
 30
0.0
 11
313.9821894897348
 21
19.15877244671242
 31
0.0
  0
LINE
  5
2E8
330
181
100
AcDbEntity
  8
06-99
100
AcDbLine
 10
313.9821894897348
 20
19.15877244671242
 30
0.0
 11
313.7824308537349
 21
19.15200797471237
 31
0.0
  0
LINE
  5
2E9
330
181
100
AcDbEntity
  8
06-99
100
AcDbLine
 10
313.7824308537349
 20
19.15200797471237
 30
0.0
 11
313.448423465735
 21
19.15200797471237
 31
0.0
  0
LINE
  5
2EA
330
181
100
AcDbEntity
  8
06-99
100
AcDbLine
 10
313.448423465735
 20
19.15200797471237
 30
0.0
 11
313.448423465735
 21
20.50862675471228
 31
0.0
  0
LINE
  5
2EB
330
181
100
AcDbEntity
  8
06-99
100
AcDbLine
 10
315.3445997697348
 20
17.12736016271231
 30
0.0
 11
314.0239560057348
 21
18.87965422271236
 31
0.0
  0
LINE
  5
2EC
330
181
100
AcDbEntity
  8
06-99
100
AcDbLine
 10
314.0239560057348
 20
18.87965422271236
 30
0.0
 11
314.212373993735
 21
18.8922529627124
 31
0.0
  0
LINE
  5
2ED
330
181
100
AcDbEntity
  8
06-99
100
AcDbLine
 10
314.212373993735
 20
18.8922529627124
 30
0.0
 11
314.3829007017349
 21
18.92942191871231
 31
0.0
  0
LINE
  5
2EE
330
181
100
AcDbEntity
  8
06-99
100
AcDbLine
 10
314.3829007017349
 20
18.92942191871231
 30
0.0
 11
314.5343992137349
 21
18.99023088671242
 31
0.0
  0
LINE
  5
2EF
330
181
100
AcDbEntity
  8
06-99
100
AcDbLine
 10
314.5343992137349
 20
18.99023088671242
 30
0.0
 11
314.6657219217349
 21
19.07375679071236
 31
0.0
  0
LINE
  5
2F0
330
181
100
AcDbEntity
  8
06-99
100
AcDbLine
 10
314.6657219217349
 20
19.07375679071236
 30
0.0
 11
314.7757283457349
 21
19.17905873471233
 31
0.0
  0
LINE
  5
2F1
330
181
100
AcDbEntity
  8
06-99
100
AcDbLine
 10
314.7757283457349
 20
19.17905873471233
 30
0.0
 11
314.8632744417348
 21
19.30521720671237
 31
0.0
  0
LINE
  5
2F2
330
181
100
AcDbEntity
  8
06-99
100
AcDbLine
 10
314.8632744417348
 20
19.30521720671237
 30
0.0
 11
314.9272232937349
 21
19.4512948747124
 31
0.0
  0
LINE
  5
2F3
330
181
100
AcDbEntity
  8
06-99
100
AcDbLine
 10
314.9272232937349
 20
19.4512948747124
 30
0.0
 11
314.9664308577349
 21
19.61636153471238
 31
0.0
  0
LINE
  5
2F4
330
181
100
AcDbEntity
  8
06-99
100
AcDbLine
 10
314.9664308577349
 20
19.61636153471238
 30
0.0
 11
314.9797530897347
 21
19.79949054671237
 31
0.0
  0
LINE
  5
2F5
330
181
100
AcDbEntity
  8
06-99
100
AcDbLine
 10
314.9797530897347
 20
19.79949054671237
 30
0.0
 11
314.969937833735
 21
19.97455422671237
 31
0.0
  0
LINE
  5
2F6
330
181
100
AcDbEntity
  8
06-99
100
AcDbLine
 10
314.969937833735
 20
19.97455422671237
 30
0.0
 11
314.940481373735
 21
20.13261762671238
 31
0.0
  0
LINE
  5
2F7
330
181
100
AcDbEntity
  8
06-99
100
AcDbLine
 10
314.940481373735
 20
20.13261762671238
 30
0.0
 11
314.8913551977349
 21
20.27374846271237
 31
0.0
  0
LINE
  5
2F8
330
181
100
AcDbEntity
  8
06-99
100
AcDbLine
 10
314.8913551977349
 20
20.27374846271237
 30
0.0
 11
314.822541485735
 21
20.39801445071225
 31
0.0
  0
LINE
  5
2F9
330
181
100
AcDbEntity
  8
06-99
100
AcDbLine
 10
314.822541485735
 20
20.39801445071225
 30
0.0
 11
314.7340152897349
 21
20.50548687071239
 31
0.0
  0
LINE
  5
2FA
330
181
100
AcDbEntity
  8
06-99
100
AcDbLine
 10
314.7340152897349
 20
20.50548687071239
 30
0.0
 11
314.625751661735
 21
20.59623700271237
 31
0.0
  0
LINE
  5
2FB
330
181
100
AcDbEntity
  8
06-99
100
AcDbLine
 10
314.625751661735
 20
20.59623700271237
 30
0.0
 11
314.4977292177349
 21
20.67032899871231
 31
0.0
  0
LINE
  5
2FC
330
181
100
AcDbEntity
  8
06-99
100
AcDbLine
 10
314.4977292177349
 20
20.67032899871231
 30
0.0
 11
314.3499230097348
 21
20.72783413871235
 31
0.0
  0
LINE
  5
2FD
330
181
100
AcDbEntity
  8
06-99
100
AcDbLine
 10
314.3499230097348
 20
20.72783413871235
 30
0.0
 11
314.1823116537348
 21
20.76882726671238
 31
0.0
  0
LINE
  5
2FE
330
181
100
AcDbEntity
  8
06-99
100
AcDbLine
 10
314.1823116537348
 20
20.76882726671238
 30
0.0
 11
313.9948737657348
 21
20.79336897071238
 31
0.0
  0
LINE
  5
2FF
330
181
100
AcDbEntity
  8
06-99
100
AcDbLine
 10
313.9948737657348
 20
20.79336897071238
 30
0.0
 11
313.7875808337349
 21
20.80153409471234
 31
0.0
  0
LINE
  5
300
330
181
100
AcDbEntity
  8
06-99
100
AcDbLine
 10
313.7875808337349
 20
20.80153409471234
 30
0.0
 11
313.7875808337349
 21
20.80153409471234
 31
0.0
  0
LINE
  5
301
330
181
100
AcDbEntity
  8
06-99
100
AcDbLine
 10
313.7875808337349
 20
20.80153409471234
 30
0.0
 11
313.1144053857349
 21
20.80153409471234
 31
0.0
  0
LINE
  5
302
330
181
100
AcDbEntity
  8
06-99
100
AcDbLine
 10
313.1144053857349
 20
20.80153409471234
 30
0.0
 11
313.1144053857349
 21
17.12736016271231
 31
0.0
  0
LINE
  5
303
330
181
100
AcDbEntity
  8
06-99
100
AcDbLine
 10
313.1144053857349
 20
17.12736016271231
 30
0.0
 11
313.448423465735
 21
17.12736016271231
 31
0.0
  0
LINE
  5
304
330
181
100
AcDbEntity
  8
06-99
100
AcDbLine
 10
313.448423465735
 20
17.12736016271231
 30
0.0
 11
313.448423465735
 21
18.87965422271236
 31
0.0
  0
LINE
  5
305
330
181
100
AcDbEntity
  8
06-99
100
AcDbLine
 10
313.448423465735
 20
18.87965422271236
 30
0.0
 11
313.6488378777349
 21
18.87965422271236
 31
0.0
  0
LINE
  5
306
330
181
100
AcDbEntity
  8
06-99
100
AcDbLine
 10
313.6488378777349
 20
18.87965422271236
 30
0.0
 11
314.9386387857348
 21
17.12736016271231
 31
0.0
  0
LINE
  5
307
330
181
100
AcDbEntity
  8
06-99
100
AcDbLine
 10
314.9386387857348
 20
17.12736016271231
 30
0.0
 11
315.3445997697348
 21
17.12736016271231
 31
0.0
  0
TEXT
  5
308
330
181
100
AcDbEntity
  8
06-99
100
AcDbText
 10
294.6083578687944
 20
10.63320974709819
 30
0.0
 40
1.4256
  1
GmbH & Co KG
 41
1.199203187251
 51
15.0
  7
ROMAND8
 72
     5
 11
315.0419578687945
 21
10.63320974709819
 31
0.0
100
AcDbText
  0
TEXT
  5
30A
330
181
100
AcDbEntity
  8
06-99
100
AcDbText
 10
294.7098146233783
 20
8.391016474674643
 30
0.0
 40
1.4256
  1
72774 Reutlingen
 50
0.5663244663116128
 41
1.087840993687879
 51
15.0
  7
ROMAND8
 72
     5
 11
314.9434146233783
 21
8.591016474674631
 31
0.0
100
AcDbText
  0
TEXT
  5
30B
330
181
100
AcDbEntity
  8
08-99
100
AcDbText
 10
282.4141179695723
 20
49.4500923918223
 30
0.0
 40
2.25
  1
Zul. Abw.
 51
15.0
  7
ROMANS8
100
AcDbText
  0
TEXT
  5
30C
330
181
100
AcDbEntity
  8
08-99
100
AcDbText
 10
332.2099260900184
 20
50.28616492075241
 30
0.0
 40
2.0
  1
Mat. Art.
 51
15.0
  7
ROMANS8
100
AcDbText
  0
TEXT
  5
30D
330
181
100
AcDbEntity
  8
08-99
100
AcDbText
 10
364.4865307401076
 20
50.40431414472369
 30
0.0
 40
2.0
  1
Oberfläche:
 51
15.0
  7
ROMANS8
100
AcDbText
  0
TEXT
  5
30E
330
181
100
AcDbEntity
  8
08-99
100
AcDbText
 10
393.7625376083154
 20
42.73764747805694
 30
0.0
 40
2.0
  1
Blech Dicke:
 51
15.0
  7
ROMANS8
100
AcDbText
  0
TEXT
  5
30F
330
181
100
AcDbEntity
  8
08-99
100
AcDbText
 10
396.4380277982925
 20
50.28616492075252
 30
0.0
 40
2.0
  1
Maßstab:
 51
15.0
  7
ROMANS8
100
AcDbText
  0
LINE
  5
310
330
181
100
AcDbEntity
  8
01-99
100
AcDbLine
 10
323.9999997697348
 20
47.88888965037898
 30
0.0
 11
300.9999997697348
 21
47.88888965037898
 31
0.0
  0
LINE
  5
311
330
181
100
AcDbEntity
  8
01-99
100
AcDbLine
 10
323.9999997697348
 20
45.33333409471225
 30
0.0
 11
300.9999997697348
 21
45.33333409471227
 31
0.0
  0
LINE
  5
312
330
181
100
AcDbEntity
  8
01-99
100
AcDbLine
 10
323.9999997697349
 20
41.50000076137892
 30
0.0
 11
300.9999997697347
 21
41.50000076137897
 31
0.0
  0
ATTDEF
  5
313
330
181
100
AcDbEntity
  8
06-99
100
AcDbText
 10
325.495446508912
 20
27.18783945866119
 30
0.0
 40
4.5
  1

 41
0.9
  7
ROMANS8
100
AcDbAttributeDefinition
280
     0
  3
Benennung/Teil
  2
TEILE
 70
     0
280
     0
  0
ATTDEF
  5
314
330
181
100
AcDbEntity
  8
06-99
100
AcDbText
 10
301.9970675691022
 20
28.44168622941026
 30
0.0
 40
2.5
  1

 41
0.9
  7
ROMANS8
100
AcDbAttributeDefinition
280
     0
  3
Name
  2
NAME
 70
     0
280
     0
  0
ATTDEF
  5
315
330
181
100
AcDbEntity
  8
06-99
100
AcDbText
 10
288.4931462216289
 20
28.46123593549021
 30
0.0
 40
2.5
  1

 50
359.9144597696142
 41
0.9542572414211148
  7
ROMANS8
 72
     5
 11
299.7397368901736
 21
28.44444522804565
 31
0.0
100
AcDbAttributeDefinition
280
     0
  3
Datum
  2
DATUM
 70
     0
280
     0
  0
ATTDEF
  5
316
330
181
100
AcDbEntity
  8
06-99
100
AcDbText
 10
400.3473859814493
 20
46.33333409471231
 30
0.0
 40
3.375
  1

  7
ROMANS8
100
AcDbAttributeDefinition
280
     0
  3
Maßstab
  2
:
 70
     0
280
     0
  0
ATTDEF
  5
317
330
181
100
AcDbEntity
  8
06-99
100
AcDbText
 10
387.5063437368931
 20
8.492900561667681
 30
0.0
 40
2.99376
  1

  7
ROMANS8
100
AcDbAttributeDefinition
280
     0
  3
Ident-Nummer
  2
ID.NR
 70
     0
280
     0
  0
ATTDEF
  5
318
330
181
100
AcDbEntity
  8
06-99
100
AcDbText
 10
325.4999997697348
 20
8.500000761378998
 30
0.0
 40
3.168
  1

 41
0.9
  7
ROMANS8
100
AcDbAttributeDefinition
280
     0
  3
Sonder-NR,WPS
  2
SONDER-NR
 70
     0
280
     0
  0
ATTDEF
  5
319
330
181
100
AcDbEntity
  8
06-99
100
AcDbText
 10
355.0006336566149
 20
8.504397365733609
 30
0.0
 40
3.168
  1

 41
0.9
  7
ROMANS8
100
AcDbAttributeDefinition
280
     0
  3
Auftrags Nr.
  2
AUFTRAGS.NR.
 70
     0
280
     0
  0
ATTDEF
  5
31A
330
181
100
AcDbEntity
  8
06-99
100
AcDbText
 10
325.7312660254454
 20
38.66666740582343
 30
0.0
 40
3.0
  1

 41
0.9
  7
ROMANS8
100
AcDbAttributeDefinition
280
     0
  3
Zuschnitts.Länge
  2
LÄNGE
 70
     0
280
     0
  0
ATTDEF
  5
31B
330
181
100
AcDbEntity
  8
06-99
100
AcDbText
 10
359.1808046815046
 20
38.67810463182379
 30
0.0
 40
3.0
  1

 41
0.9
  7
ROMANS8
100
AcDbAttributeDefinition
280
     0
  3
Zuschnitts Breite
  2
BREITE
 70
     0
280
     0
  0
ATTDEF
  5
31C
330
181
100
AcDbEntity
  8
06-99
100
AcDbText
 10
399.6090918964667
 20
38.66666742804574
 30
0.0
 40
3.09375
  1

  7
ROMANS8
100
AcDbAttributeDefinition
280
     0
  3
Blech.Dicke
  2
1.0
 70
     0
280
     0
  0
ATTDEF
  5
31D
330
181
100
AcDbEntity
  8
06-99
100
AcDbText
 10
373.1277853711375
 20
46.33333409471243
 30
0.0
 40
3.0
  1

  7
ROMANS8
 72
     1
 11
373.1277853711375
 21
46.33333409471243
 31
0.0
100
AcDbAttributeDefinition
280
     0
  3
Oberfläche
  2
IV
 70
     0
280
     0
  0
ATTDEF
  5
31E
330
181
100
AcDbEntity
  8
06-99
100
AcDbText
 10
230.4994675499334
 20
7.597457159251405
 30
0.0
 40
1.5
  1

 41
0.9
  7
ROMANS8
100
AcDbAttributeDefinition
280
     0
  3
ERSETZT.Für
  2
ERSETZT.FÜR
 70
     0
280
     0
  0
ATTDEF
  5
31F
330
181
100
AcDbEntity
  8
06-99
100
AcDbText
 10
255.4997507647431
 20
7.601810830638839
 30
0.0
 40
1.5
  1

 41
0.9
  7
ROMANS8
100
AcDbAttributeDefinition
280
     0
  3
ERSETZT.Durch
  2
ERSETZT.DURCH
 70
     0
280
     0
  0
ATTDEF
  5
320
330
181
100
AcDbEntity
  8
06-99
100
AcDbText
 10
332.2747403058506
 20
46.33333409471219
 30
0.0
 40
3.375
  1
1.4301
  7
ROMANS8
100
AcDbAttributeDefinition
280
     0
  3
Mat.Art
  2
1.4301
 70
     0
280
     0
  0
ATTDEF
  5
321
330
181
100
AcDbEntity
  8
06-99
100
AcDbText
 10
309.0037152733153
 20
48.66851190138698
 30
0.0
 40
1.287
  1
DIN A3
  7
ROMANS8
 72
     1
 11
312.2518581304581
 21
48.66851190138698
 31
0.0
100
AcDbAttributeDefinition
280
     0
  3
Format
  2
FORMAT
 70
     0
280
     0
  0
ATTDEF
  5
322
330
181
100
AcDbEntity
  8
06-99
100
AcDbText
 10
301.8157140554491
 20
42.23000076137897
 30
0.0
 40
2.34
  1
DIN 6930-M
  7
ROMANS8
 72
     1
 11
312.5128569125919
 21
42.23000076137897
 31
0.0
100
AcDbAttributeDefinition
280
     0
  3
Norm / Fräsen
  2
NORM1
 70
     0
280
     0
  0
ATTDEF
  5
323
330
181
100
AcDbEntity
  8
06-99
100
AcDbText
 10
304.9914283411633
 20
38.39666742804566
 30
0.0
 40
2.34
  1
DIN 2768
  7
ROMANS8
 72
     1
 11
313.0142854840205
 21
38.39666742804566
 31
0.0
100
AcDbAttributeDefinition
280
     0
  3
Norm / Kanten
  2
NORM2
 70
     0
280
     0
  0
ATTDEF
  5
324
330
181
100
AcDbEntity
  8
06-99
100
AcDbText
 10
325.495446508912
 20
19.89177436492207
 30
0.0
 40
4.5
  1

 41
0.9
  7
ROMANS8
100
AcDbAttributeDefinition
280
     0
  3
Benennung/Teil2
  2
TEILE2
 70
     0
280
     0
  0
ENDBLK
  5
325
330
181
100
AcDbEntity
  8
0
100
AcDbBlockEnd
  0
BLOCK
  5
455
330
454
100
AcDbEntity
  8
0
100
AcDbBlockBegin
  2
*D4
 70
     1
 10
0.0
 20
0.0
 30
0.0
  3
*D4
  1

  0
LINE
  5
456
330
454
100
AcDbEntity
  8
09-01
 62
     4
370
    -2
100
AcDbLine
 10
757.3117548064457
 20
671.4842923554571
 30
0.0
 11
757.3117548064457
 21
684.104963728051
 31
0.0
  0
LINE
  5
457
330
454
100
AcDbEntity
  8
09-01
 62
     4
370
    -2
100
AcDbLine
 10
782.3117548064458
 20
671.4842923554571
 30
0.0
 11
782.3117548064458
 21
684.104963728051
 31
0.0
  0
LINE
  5
458
330
454
100
AcDbEntity
  8
09-01
 62
     4
370
    -2
100
AcDbLine
 10
763.5617548064457
 20
681.604963728051
 30
0.0
 11
776.0617548064458
 21
681.604963728051
 31
0.0
  0
SOLID
  5
459
330
454
100
AcDbEntity
  8
09-01
 62
     4
100
AcDbTrace
 10
763.5617548064457
 20
682.6466303947177
 30
0.0
 11
763.5617548064457
 21
680.5632970613844
 31
0.0
 12
757.3117548064457
 22
681.604963728051
 32
0.0
 13
757.3117548064457
 23
681.604963728051
 33
0.0
  0
SOLID
  5
45A
330
454
100
AcDbEntity
  8
09-01
 62
     4
100
AcDbTrace
 10
776.0617548064458
 20
682.6466303947177
 30
0.0
 11
776.0617548064458
 21
680.5632970613844
 31
0.0
 12
782.3117548064458
 22
681.604963728051
 32
0.0
 13
782.3117548064458
 23
681.604963728051
 33
0.0
  0
MTEXT
  5
45B
330
454
100
AcDbEntity
  8
09-01
 62
     1
100
AcDbMText
 10
769.8117548064458
 20
687.229963728051
 30
0.0
 40
6.25
 41
0.0
 46
0.0
 71
     5
 72
     1
  1
25
 73
     1
 44
1.0
  0
POINT
  5
45C
330
454
100
AcDbEntity
  8
DEFPOINTS
 62
     0
100
AcDbPoint
 10
757.3117548064457
 20
668.9842923554571
 30
0.0
  0
POINT
  5
45D
330
454
100
AcDbEntity
  8
DEFPOINTS
 62
     0
100
AcDbPoint
 10
782.3117548064458
 20
668.9842923554571
 30
0.0
  0
POINT
  5
45E
330
454
100
AcDbEntity
  8
DEFPOINTS
 62
     0
100
AcDbPoint
 10
782.3117548064458
 20
681.604963728051
 30
0.0
  0
ENDBLK
  5
45F
330
454
100
AcDbEntity
  8
0
100
AcDbBlockEnd
  0
BLOCK
  5
43A
330
439
100
AcDbEntity
  8
0
100
AcDbBlockBegin
  2
*D5
 70
     1
 10
0.0
 20
0.0
 30
0.0
  3
*D5
  1

  0
LINE
  5
43B
330
439
100
AcDbEntity
  8
01-01
 62
     4
370
    -2
100
AcDbLine
 10
431.000000230224
 20
671.4842923554571
 30
0.0
 11
431.000000230224
 21
697.0081060382678
 31
0.0
  0
LINE
  5
43C
330
439
100
AcDbEntity
  8
01-01
 62
     4
370
    -2
100
AcDbLine
 10
133.000000230224
 20
671.4842923554571
 30
0.0
 11
133.000000230224
 21
697.0081060382678
 31
0.0
  0
LINE
  5
43D
330
439
100
AcDbEntity
  8
01-01
 62
     4
370
    -2
100
AcDbLine
 10
424.750000230224
 20
694.5081060382679
 30
0.0
 11
139.250000230224
 21
694.5081060382679
 31
0.0
  0
SOLID
  5
43E
330
439
100
AcDbEntity
  8
01-01
 62
     4
100
AcDbTrace
 10
424.750000230224
 20
695.5497727049345
 30
0.0
 11
424.750000230224
 21
693.4664393716012
 31
0.0
 12
431.000000230224
 22
694.5081060382679
 32
0.0
 13
431.000000230224
 23
694.5081060382679
 33
0.0
  0
SOLID
  5
43F
330
439
100
AcDbEntity
  8
01-01
 62
     4
100
AcDbTrace
 10
139.250000230224
 20
695.5497727049345
 30
0.0
 11
139.250000230224
 21
693.4664393716012
 31
0.0
 12
133.000000230224
 22
694.5081060382679
 32
0.0
 13
133.000000230224
 23
694.5081060382679
 33
0.0
  0
MTEXT
  5
440
330
439
100
AcDbEntity
  8
01-01
 62
     1
100
AcDbMText
 10
282.000000230224
 20
700.1331060382678
 30
0.0
 40
6.25
 41
0.0
 46
0.0
 71
     5
 72
     1
  1
298
 73
     1
 44
1.0
  0
POINT
  5
441
330
439
100
AcDbEntity
  8
DEFPOINTS
 62
     0
100
AcDbPoint
 10
431.000000230224
 20
668.9842923554571
 30
0.0
  0
POINT
  5
442
330
439
100
AcDbEntity
  8
DEFPOINTS
 62
     0
100
AcDbPoint
 10
133.000000230224
 20
668.9842923554571
 30
0.0
  0
POINT
  5
443
330
439
100
AcDbEntity
  8
DEFPOINTS
 62
     0
100
AcDbPoint
 10
133.000000230224
 20
694.5081060382679
 30
0.0
  0
ENDBLK
  5
444
330
439
100
AcDbEntity
  8
0
100
AcDbBlockEnd
  0
BLOCK
  5
42D
330
42C
100
AcDbEntity
  8
0
100
AcDbBlockBegin
  2
*D6
 70
     1
 10
0.0
 20
0.0
 30
0.0
  3
*D6
  1

  0
LINE
  5
42E
330
42C
100
AcDbEntity
  8
09-01
 62
     4
370
    -2
100
AcDbLine
 10
672.3117548064458
 20
671.4842923554571
 30
0.0
 11
672.3117548064458
 21
697.1085648610199
 31
0.0
  0
LINE
  5
42F
330
42C
100
AcDbEntity
  8
09-01
 62
     4
370
    -2
100
AcDbLine
 10
782.3117548064458
 20
671.4842923554571
 30
0.0
 11
782.3117548064458
 21
697.1085648610199
 31
0.0
  0
LINE
  5
430
330
42C
100
AcDbEntity
  8
09-01
 62
     4
370
    -2
100
AcDbLine
 10
678.5617548064458
 20
694.60856486102
 30
0.0
 11
776.0617548064458
 21
694.60856486102
 31
0.0
  0
SOLID
  5
431
330
42C
100
AcDbEntity
  8
09-01
 62
     4
100
AcDbTrace
 10
678.5617548064458
 20
695.6502315276866
 30
0.0
 11
678.5617548064458
 21
693.5668981943534
 31
0.0
 12
672.3117548064458
 22
694.60856486102
 32
0.0
 13
672.3117548064458
 23
694.60856486102
 33
0.0
  0
SOLID
  5
432
330
42C
100
AcDbEntity
  8
09-01
 62
     4
100
AcDbTrace
 10
776.0617548064458
 20
695.6502315276866
 30
0.0
 11
776.0617548064458
 21
693.5668981943534
 31
0.0
 12
782.3117548064458
 22
694.60856486102
 32
0.0
 13
782.3117548064458
 23
694.60856486102
 33
0.0
  0
MTEXT
  5
433
330
42C
100
AcDbEntity
  8
09-01
 62
     1
100
AcDbMText
 10
727.3117548064458
 20
700.2335648610199
 30
0.0
 40
6.25
 41
0.0
 46
0.0
 71
     5
 72
     1
  1
110
 73
     1
 44
1.0
  0
POINT
  5
434
330
42C
100
AcDbEntity
  8
DEFPOINTS
 62
     0
100
AcDbPoint
 10
672.3117548064458
 20
668.9842923554571
 30
0.0
  0
POINT
  5
435
330
42C
100
AcDbEntity
  8
DEFPOINTS
 62
     0
100
AcDbPoint
 10
782.3117548064458
 20
668.9842923554571
 30
0.0
  0
POINT
  5
436
330
42C
100
AcDbEntity
  8
DEFPOINTS
 62
     0
100
AcDbPoint
 10
782.3117548064458
 20
694.60856486102
 30
0.0
  0
ENDBLK
  5
437
330
42C
100
AcDbEntity
  8
0
100
AcDbBlockEnd
  0
BLOCK
  5
420
330
41F
100
AcDbEntity
  8
0
100
AcDbBlockBegin
  2
*D7
 70
     1
 10
0.0
 20
0.0
 30
0.0
  3
*D7
  1

  0
LINE
  5
421
330
41F
100
AcDbEntity
  8
09-01
 62
     4
370
    -2
100
AcDbLine
 10
757.3117548064457
 20
673.984292355457
 30
0.0
 11
757.3117548064457
 21
684.104963728051
 31
0.0
  0
LINE
  5
422
330
41F
100
AcDbEntity
  8
09-01
 62
     4
370
    -2
100
AcDbLine
 10
672.3117548064458
 20
673.984292355457
 30
0.0
 11
672.3117548064458
 21
684.104963728051
 31
0.0
  0
LINE
  5
423
330
41F
100
AcDbEntity
  8
09-01
 62
     4
370
    -2
100
AcDbLine
 10
751.0617548064457
 20
681.604963728051
 30
0.0
 11
678.5617548064458
 21
681.604963728051
 31
0.0
  0
SOLID
  5
424
330
41F
100
AcDbEntity
  8
09-01
 62
     4
100
AcDbTrace
 10
751.0617548064457
 20
682.6466303947177
 30
0.0
 11
751.0617548064457
 21
680.5632970613844
 31
0.0
 12
757.3117548064457
 22
681.604963728051
 32
0.0
 13
757.3117548064457
 23
681.604963728051
 33
0.0
  0
SOLID
  5
425
330
41F
100
AcDbEntity
  8
09-01
 62
     4
100
AcDbTrace
 10
678.5617548064458
 20
682.6466303947177
 30
0.0
 11
678.5617548064458
 21
680.5632970613844
 31
0.0
 12
672.3117548064458
 22
681.604963728051
 32
0.0
 13
672.3117548064458
 23
681.604963728051
 33
0.0
  0
MTEXT
  5
426
330
41F
100
AcDbEntity
  8
09-01
 62
     1
100
AcDbMText
 10
714.8117548064458
 20
687.229963728051
 30
0.0
 40
6.25
 41
0.0
 46
0.0
 71
     5
 72
     1
  1
85
 73
     1
 44
1.0
  0
POINT
  5
427
330
41F
100
AcDbEntity
  8
DEFPOINTS
 62
     0
100
AcDbPoint
 10
757.3117548064457
 20
671.4842923554571
 30
0.0
  0
POINT
  5
428
330
41F
100
AcDbEntity
  8
DEFPOINTS
 62
     0
100
AcDbPoint
 10
672.3117548064458
 20
671.4842923554571
 30
0.0
  0
POINT
  5
429
330
41F
100
AcDbEntity
  8
DEFPOINTS
 62
     0
100
AcDbPoint
 10
672.3117548064458
 20
681.604963728051
 30
0.0
  0
ENDBLK
  5
42A
330
41F
100
AcDbEntity
  8
0
100
AcDbBlockEnd
  0
BLOCK
  5
402
330
401
100
AcDbEntity
  8
0
100
AcDbBlockBegin
  2
*D8
 70
     1
 10
0.0
 20
0.0
 30
0.0
  3
*D8
  1

  0
LINE
  5
403
330
401
100
AcDbEntity
  8
01-01
 62
     4
370
    -2
100
AcDbLine
 10
784.8117548064458
 20
220.9842923554572
 30
0.0
 11
834.8103523096536
 21
220.9842923554571
 31
0.0
  0
LINE
  5
404
330
401
100
AcDbEntity
  8
01-01
 62
     4
370
    -2
100
AcDbLine
 10
784.8117548064458
 20
668.9842923554571
 30
0.0
 11
834.8103523096536
 21
668.9842923554571
 31
0.0
  0
LINE
  5
405
330
401
100
AcDbEntity
  8
01-01
 62
     4
370
    -2
100
AcDbLine
 10
832.3103523096536
 20
227.2342923554571
 30
0.0
 11
832.3103523096536
 21
662.7342923554571
 31
0.0
  0
SOLID
  5
406
330
401
100
AcDbEntity
  8
01-01
 62
     4
100
AcDbTrace
 10
831.268685642987
 20
227.2342923554572
 30
0.0
 11
833.3520189763202
 21
227.2342923554571
 31
0.0
 12
832.3103523096536
 22
220.9842923554571
 32
0.0
 13
832.3103523096536
 23
220.9842923554571
 33
0.0
  0
SOLID
  5
407
330
401
100
AcDbEntity
  8
01-01
 62
     4
100
AcDbTrace
 10
831.268685642987
 20
662.7342923554571
 30
0.0
 11
833.3520189763202
 21
662.7342923554571
 31
0.0
 12
832.3103523096536
 22
668.9842923554571
 32
0.0
 13
832.3103523096536
 23
668.9842923554571
 33
0.0
  0
MTEXT
  5
408
330
401
100
AcDbEntity
  8
01-01
 62
     1
100
AcDbMText
 10
826.6853523096536
 20
444.9842923554572
 30
0.0
 40
6.25
 41
0.0
 46
0.0
 71
     5
 72
     1
  1
448
 11
0.0000000000000001
 21
1.0
 31
0.0
 73
     1
 44
1.0
  0
POINT
  5
409
330
401
100
AcDbEntity
  8
DEFPOINTS
 62
     0
100
AcDbPoint
 10
782.3117548064458
 20
220.9842923554572
 30
0.0
  0
POINT
  5
40A
330
401
100
AcDbEntity
  8
DEFPOINTS
 62
     0
100
AcDbPoint
 10
782.3117548064458
 20
668.9842923554571
 30
0.0
  0
POINT
  5
40B
330
401
100
AcDbEntity
  8
DEFPOINTS
 62
     0
100
AcDbPoint
 10
832.3103523096536
 20
668.9842923554571
 30
0.0
  0
ENDBLK
  5
40C
330
401
100
AcDbEntity
  8
0
100
AcDbBlockEnd
  0
BLOCK
  5
3F3
330
3F2
100
AcDbEntity
  8
0
100
AcDbBlockBegin
  2
*D9
 70
     1
 10
0.0
 20
0.0
 30
0.0
  3
*D9
  1

  0
LINE
  5
3F4
330
3F2
100
AcDbEntity
  8
09-01
 62
     4
370
    -2
100
AcDbLine
 10
794.8117548064458
 20
221.9842923554575
 30
0.0
 11
818.8436189724475
 21
221.9842923554575
 31
0.0
  0
LINE
  5
3F5
330
3F2
100
AcDbEntity
  8
09-01
 62
     4
370
    -2
100
AcDbLine
 10
787.3117548064458
 20
220.9842923554572
 30
0.0
 11
818.8436189724475
 21
220.9842923554572
 31
0.0
  0
LINE
  5
3F6
330
3F2
100
AcDbEntity
  8
09-01
 62
     4
370
    -2
100
AcDbLine
 10
816.3436189724475
 20
228.2342923554575
 30
0.0
 11
816.3436189724475
 21
234.4842923554575
 31
0.0
  0
LINE
  5
3F7
330
3F2
100
AcDbEntity
  8
09-01
 62
     4
370
    -2
100
AcDbLine
 10
816.3436189724475
 20
214.7342923554572
 30
0.0
 11
816.3436189724475
 21
208.4842923554572
 31
0.0
  0
MTEXT
  5
3F8
330
3F2
100
AcDbEntity
  8
09-01
 62
     1
100
AcDbMText
 10
809.7162399605741
 20
210.8508337446945
 30
0.0
 40
6.25
 41
0.0
 46
0.0
 71
     5
 72
     1
  1
1
 11
0.0000000000000001
 21
1.0
 31
0.0
 73
     1
 44
1.0
  0
LINE
  5
3F9
330
3F2
100
AcDbEntity
  8
09-01
 62
     4
370
    -2
100
AcDbLine
 10
816.3436189724475
 20
221.9842923554575
 30
0.0
 11
816.3436189724475
 21
220.9842923554572
 31
0.0
  0
SOLID
  5
3FA
330
3F2
100
AcDbEntity
  8
09-01
 62
     4
100
AcDbTrace
 10
815.3019523057809
 20
228.2342923554575
 30
0.0
 11
817.3852856391141
 21
228.2342923554575
 31
0.0
 12
816.3436189724475
 22
221.9842923554575
 32
0.0
 13
816.3436189724475
 23
221.9842923554575
 33
0.0
  0
SOLID
  5
3FB
330
3F2
100
AcDbEntity
  8
09-01
 62
     4
100
AcDbTrace
 10
815.3019523057809
 20
214.7342923554572
 30
0.0
 11
817.3852856391141
 21
214.7342923554572
 31
0.0
 12
816.3436189724475
 22
220.9842923554572
 32
0.0
 13
816.3436189724475
 23
220.9842923554572
 33
0.0
  0
POINT
  5
3FC
330
3F2
100
AcDbEntity
  8
DEFPOINTS
 62
     0
100
AcDbPoint
 10
792.3117548064458
 20
221.9842923554575
 30
0.0
  0
POINT
  5
3FD
330
3F2
100
AcDbEntity
  8
DEFPOINTS
 62
     0
100
AcDbPoint
 10
784.8117548064458
 20
220.9842923554572
 30
0.0
  0
POINT
  5
3FE
330
3F2
100
AcDbEntity
  8
DEFPOINTS
 62
     0
100
AcDbPoint
 10
816.3436189724475
 20
220.9842923554572
 30
0.0
  0
ENDBLK
  5
3FF
330
3F2
100
AcDbEntity
  8
0
100
AcDbBlockEnd
  0
BLOCK
  5
3E6
330
3E5
100
AcDbEntity
  8
0
100
AcDbBlockBegin
  2
*D10
 70
     1
 10
0.0
 20
0.0
 30
0.0
  3
*D10
  1

  0
LINE
  5
3E7
330
3E5
100
AcDbEntity
  8
09-01
 62
     4
370
    -2
100
AcDbLine
 10
797.3117548064458
 20
221.9842923554575
 30
0.0
 11
818.8436189724473
 21
221.9842923554575
 31
0.0
  0
LINE
  5
3E8
330
3E5
100
AcDbEntity
  8
09-01
 62
     4
370
    -2
100
AcDbLine
 10
794.8117548064457
 20
667.9842923554572
 30
0.0
 11
818.8436189724475
 21
667.9842923554572
 31
0.0
  0
LINE
  5
3E9
330
3E5
100
AcDbEntity
  8
09-01
 62
     4
370
    -2
100
AcDbLine
 10
816.3436189724475
 20
228.2342923554575
 30
0.0
 11
816.3436189724475
 21
661.7342923554572
 31
0.0
  0
SOLID
  5
3EA
330
3E5
100
AcDbEntity
  8
09-01
 62
     4
100
AcDbTrace
 10
815.3019523057807
 20
228.2342923554575
 30
0.0
 11
817.3852856391141
 21
228.2342923554575
 31
0.0
 12
816.3436189724475
 22
221.9842923554575
 32
0.0
 13
816.3436189724475
 23
221.9842923554575
 33
0.0
  0
SOLID
  5
3EB
330
3E5
100
AcDbEntity
  8
09-01
 62
     4
100
AcDbTrace
 10
815.3019523057809
 20
661.7342923554572
 30
0.0
 11
817.3852856391141
 21
661.7342923554572
 31
0.0
 12
816.3436189724475
 22
667.9842923554572
 32
0.0
 13
816.3436189724475
 23
667.9842923554572
 33
0.0
  0
MTEXT
  5
3EC
330
3E5
100
AcDbEntity
  8
09-01
 62
     1
100
AcDbMText
 10
810.7186189724474
 20
444.9842923554575
 30
0.0
 40
6.25
 41
0.0
 46
0.0
 71
     5
 72
     1
  1
446
 11
0.0000000000000001
 21
1.0
 31
0.0
 73
     1
 44
1.0
  0
POINT
  5
3ED
330
3E5
100
AcDbEntity
  8
DEFPOINTS
 62
     0
100
AcDbPoint
 10
794.8117548064458
 20
221.9842923554575
 30
0.0
  0
POINT
  5
3EE
330
3E5
100
AcDbEntity
  8
DEFPOINTS
 62
     0
100
AcDbPoint
 10
792.3117548064457
 20
667.9842923554572
 30
0.0
  0
POINT
  5
3EF
330
3E5
100
AcDbEntity
  8
DEFPOINTS
 62
     0
100
AcDbPoint
 10
816.3436189724475
 20
667.9842923554572
 30
0.0
  0
ENDBLK
  5
3F0
330
3E5
100
AcDbEntity
  8
0
100
AcDbBlockEnd
  0
BLOCK
  5
3D7
330
3D6
100
AcDbEntity
  8
0
100
AcDbBlockBegin
  2
*D11
 70
     1
 10
0.0
 20
0.0
 30
0.0
  3
*D11
  1

  0
LINE
  5
3D8
330
3D6
100
AcDbEntity
  8
09-01
 62
     4
370
    -2
100
AcDbLine
 10
797.3117548064457
 20
667.9842923554572
 30
0.0
 11
818.8436189724475
 21
667.9842923554572
 31
0.0
  0
LINE
  5
3D9
330
3D6
100
AcDbEntity
  8
09-01
 62
     4
370
    -2
100
AcDbLine
 10
787.3117548064458
 20
668.9842923554571
 30
0.0
 11
818.8436189724475
 21
668.9842923554571
 31
0.0
  0
LINE
  5
3DA
330
3D6
100
AcDbEntity
  8
09-01
 62
     4
370
    -2
100
AcDbLine
 10
816.3436189724475
 20
661.7342923554572
 30
0.0
 11
816.3436189724475
 21
655.4842923554572
 31
0.0
  0
LINE
  5
3DB
330
3D6
100
AcDbEntity
  8
09-01
 62
     4
370
    -2
100
AcDbLine
 10
816.3436189724475
 20
675.2342923554571
 30
0.0
 11
816.3436189724475
 21
681.4842923554571
 31
0.0
  0
MTEXT
  5
3DC
330
3D6
100
AcDbEntity
  8
09-01
 62
     1
100
AcDbMText
 10
809.7162399605741
 20
677.775210216587
 30
0.0
 40
6.25
 41
0.0
 46
0.0
 71
     5
 72
     1
  1
1
 11
0.0000000000000001
 21
1.0
 31
0.0
 73
     1
 44
1.0
  0
LINE
  5
3DD
330
3D6
100
AcDbEntity
  8
09-01
 62
     4
370
    -2
100
AcDbLine
 10
816.3436189724475
 20
667.9842923554572
 30
0.0
 11
816.3436189724475
 21
668.9842923554571
 31
0.0
  0
SOLID
  5
3DE
330
3D6
100
AcDbEntity
  8
09-01
 62
     4
100
AcDbTrace
 10
815.3019523057809
 20
661.7342923554572
 30
0.0
 11
817.3852856391141
 21
661.7342923554572
 31
0.0
 12
816.3436189724475
 22
667.9842923554572
 32
0.0
 13
816.3436189724475
 23
667.9842923554572
 33
0.0
  0
SOLID
  5
3DF
330
3D6
100
AcDbEntity
  8
09-01
 62
     4
100
AcDbTrace
 10
815.3019523057809
 20
675.2342923554571
 30
0.0
 11
817.3852856391141
 21
675.2342923554571
 31
0.0
 12
816.3436189724475
 22
668.9842923554571
 32
0.0
 13
816.3436189724475
 23
668.9842923554571
 33
0.0
  0
POINT
  5
3E0
330
3D6
100
AcDbEntity
  8
DEFPOINTS
 62
     0
100
AcDbPoint
 10
794.8117548064457
 20
667.9842923554572
 30
0.0
  0
POINT
  5
3E1
330
3D6
100
AcDbEntity
  8
DEFPOINTS
 62
     0
100
AcDbPoint
 10
784.8117548064458
 20
668.9842923554571
 30
0.0
  0
POINT
  5
3E2
330
3D6
100
AcDbEntity
  8
DEFPOINTS
 62
     0
100
AcDbPoint
 10
816.3436189724475
 20
668.9842923554571
 30
0.0
  0
ENDBLK
  5
3E3
330
3D6
100
AcDbEntity
  8
0
100
AcDbBlockEnd
  0
BLOCK
  5
3C8
330
3C7
100
AcDbEntity
  8
0
100
AcDbBlockBegin
  2
*D12
 70
     1
 10
0.0
 20
0.0
 30
0.0
  3
*D12
  1

  0
LINE
  5
3C9
330
3C7
100
AcDbEntity
  8
09-01
 62
     4
370
    -2
100
AcDbLine
 10
782.3117548064458
 20
671.4842923554571
 30
0.0
 11
782.3117548064458
 21
697.1085648610199
 31
0.0
  0
LINE
  5
3CA
330
3C7
100
AcDbEntity
  8
09-01
 62
     4
370
    -2
100
AcDbLine
 10
792.3117548064457
 20
670.4842923554572
 30
0.0
 11
792.3117548064457
 21
697.1085648610199
 31
0.0
  0
LINE
  5
3CB
330
3C7
100
AcDbEntity
  8
09-01
 62
     4
370
    -2
100
AcDbLine
 10
776.0617548064458
 20
694.60856486102
 30
0.0
 11
769.8117548064458
 21
694.60856486102
 31
0.0
  0
LINE
  5
3CC
330
3C7
100
AcDbEntity
  8
09-01
 62
     4
370
    -2
100
AcDbLine
 10
798.5617548064457
 20
694.60856486102
 30
0.0
 11
804.8117548064457
 21
694.60856486102
 31
0.0
  0
LINE
  5
3CD
330
3C7
100
AcDbEntity
  8
09-01
 62
     4
370
    -2
100
AcDbLine
 10
782.3117548064458
 20
694.60856486102
 30
0.0
 11
792.3117548064457
 21
694.60856486102
 31
0.0
  0
SOLID
  5
3CE
330
3C7
100
AcDbEntity
  8
09-01
 62
     4
100
AcDbTrace
 10
776.0617548064458
 20
695.6502315276866
 30
0.0
 11
776.0617548064458
 21
693.5668981943534
 31
0.0
 12
782.3117548064458
 22
694.60856486102
 32
0.0
 13
782.3117548064458
 23
694.60856486102
 33
0.0
  0
SOLID
  5
3CF
330
3C7
100
AcDbEntity
  8
09-01
 62
     4
100
AcDbTrace
 10
798.5617548064457
 20
695.6502315276866
 30
0.0
 11
798.5617548064457
 21
693.5668981943534
 31
0.0
 12
792.3117548064457
 22
694.60856486102
 32
0.0
 13
792.3117548064457
 23
694.60856486102
 33
0.0
  0
MTEXT
  5
3D0
330
3C7
100
AcDbEntity
  8
09-01
 62
     1
100
AcDbMText
 10
787.3117548064458
 20
700.2335648610199
 30
0.0
 40
6.25
 41
0.0
 46
0.0
 71
     5
 72
     1
  1
10
 73
     1
 44
1.0
  0
POINT
  5
3D1
330
3C7
100
AcDbEntity
  8
DEFPOINTS
 62
     0
100
AcDbPoint
 10
782.3117548064458
 20
668.9842923554571
 30
0.0
  0
POINT
  5
3D2
330
3C7
100
AcDbEntity
  8
DEFPOINTS
 62
     0
100
AcDbPoint
 10
792.3117548064457
 20
667.9842923554572
 30
0.0
  0
POINT
  5
3D3
330
3C7
100
AcDbEntity
  8
DEFPOINTS
 62
     0
100
AcDbPoint
 10
792.3117548064457
 20
694.60856486102
 30
0.0
  0
ENDBLK
  5
3D4
330
3C7
100
AcDbEntity
  8
0
100
AcDbBlockEnd
  0
BLOCK
  5
3BB
330
3BA
100
AcDbEntity
  8
0
100
AcDbBlockBegin
  2
*D13
 70
     1
 10
0.0
 20
0.0
 30
0.0
  3
*D13
  1

  0
LINE
  5
3BC
330
3BA
100
AcDbEntity
  8
01-01
 62
     4
370
    -2
100
AcDbLine
 10
433.500000230224
 20
191.0742615091384
 30
0.0
 11
459.9149902705874
 21
191.0742615091384
 31
0.0
  0
LINE
  5
3BD
330
3BA
100
AcDbEntity
  8
01-01
 62
     4
370
    -2
100
AcDbLine
 10
432.500000230224
 20
71.07426150913832
 30
0.0
 11
459.9149902705873
 21
71.07426150913832
 31
0.0
  0
LINE
  5
3BE
330
3BA
100
AcDbEntity
  8
01-01
 62
     4
370
    -2
100
AcDbLine
 10
457.4149902705873
 20
184.8242615091384
 30
0.0
 11
457.4149902705873
 21
77.32426150913832
 31
0.0
  0
SOLID
  5
3BF
330
3BA
100
AcDbEntity
  8
01-01
 62
     4
100
AcDbTrace
 10
456.3733236039206
 20
184.8242615091384
 30
0.0
 11
458.456656937254
 21
184.8242615091384
 31
0.0
 12
457.4149902705873
 22
191.0742615091384
 32
0.0
 13
457.4149902705873
 23
191.0742615091384
 33
0.0
  0
SOLID
  5
3C0
330
3BA
100
AcDbEntity
  8
01-01
 62
     4
100
AcDbTrace
 10
456.3733236039206
 20
77.32426150913832
 30
0.0
 11
458.4566569372539
 21
77.32426150913832
 31
0.0
 12
457.4149902705873
 22
71.07426150913832
 32
0.0
 13
457.4149902705873
 23
71.07426150913832
 33
0.0
  0
MTEXT
  5
3C1
330
3BA
100
AcDbEntity
  8
01-01
 62
     1
100
AcDbMText
 10
451.7899902705873
 20
131.0742615091384
 30
0.0
 40
6.25
 41
0.0
 46
0.0
 71
     5
 72
     1
  1
120
 11
0.0000000000000001
 21
1.0
 31
0.0
 73
     1
 44
1.0
  0
POINT
  5
3C2
330
3BA
100
AcDbEntity
  8
DEFPOINTS
 62
     0
100
AcDbPoint
 10
431.000000230224
 20
191.0742615091384
 30
0.0
  0
POINT
  5
3C3
330
3BA
100
AcDbEntity
  8
DEFPOINTS
 62
     0
100
AcDbPoint
 10
430.0000002302239
 20
71.07426150913832
 30
0.0
  0
POINT
  5
3C4
330
3BA
100
AcDbEntity
  8
DEFPOINTS
 62
     0
100
AcDbPoint
 10
457.4149902705873
 20
71.07426150913832
 30
0.0
  0
ENDBLK
  5
3C5
330
3BA
100
AcDbEntity
  8
0
100
AcDbBlockEnd
  0
BLOCK
  5
3AE
330
3AD
100
AcDbEntity
  8
0
100
AcDbBlockBegin
  2
*D14
 70
     1
 10
0.0
 20
0.0
 30
0.0
  3
*D14
  1

  0
LINE
  5
3AF
330
3AD
100
AcDbEntity
  8
09-01
 62
     4
370
    -2
100
AcDbLine
 10
133.000000230224
 20
673.984292355457
 30
0.0
 11
133.000000230224
 21
683.3565606473711
 31
0.0
  0
LINE
  5
3B0
330
3AD
100
AcDbEntity
  8
09-01
 62
     4
370
    -2
100
AcDbLine
 10
159.500000230224
 20
649.4842923554572
 30
0.0
 11
159.500000230224
 21
683.3565606473711
 31
0.0
  0
LINE
  5
3B1
330
3AD
100
AcDbEntity
  8
09-01
 62
     4
370
    -2
100
AcDbLine
 10
139.250000230224
 20
680.8565606473711
 30
0.0
 11
153.250000230224
 21
680.8565606473711
 31
0.0
  0
SOLID
  5
3B2
330
3AD
100
AcDbEntity
  8
09-01
 62
     4
100
AcDbTrace
 10
139.250000230224
 20
681.8982273140377
 30
0.0
 11
139.250000230224
 21
679.8148939807044
 31
0.0
 12
133.000000230224
 22
680.8565606473711
 32
0.0
 13
133.000000230224
 23
680.8565606473711
 33
0.0
  0
SOLID
  5
3B3
330
3AD
100
AcDbEntity
  8
09-01
 62
     4
100
AcDbTrace
 10
153.250000230224
 20
681.8982273140377
 30
0.0
 11
153.250000230224
 21
679.8148939807044
 31
0.0
 12
159.500000230224
 22
680.8565606473711
 32
0.0
 13
159.500000230224
 23
680.8565606473711
 33
0.0
  0
MTEXT
  5
3B4
330
3AD
100
AcDbEntity
  8
09-01
 62
     1
100
AcDbMText
 10
146.250000230224
 20
686.4815606473711
 30
0.0
 40
6.25
 41
0.0
 46
0.0
 71
     5
 72
     1
  1
26.5
 73
     1
 44
1.0
  0
POINT
  5
3B5
330
3AD
100
AcDbEntity
  8
DEFPOINTS
 62
     0
100
AcDbPoint
 10
133.000000230224
 20
671.4842923554571
 30
0.0
  0
POINT
  5
3B6
330
3AD
100
AcDbEntity
  8
DEFPOINTS
 62
     0
100
AcDbPoint
 10
159.500000230224
 20
646.9842923554572
 30
0.0
  0
POINT
  5
3B7
330
3AD
100
AcDbEntity
  8
DEFPOINTS
 62
     0
100
AcDbPoint
 10
159.500000230224
 20
680.8565606473711
 30
0.0
  0
ENDBLK
  5
3B8
330
3AD
100
AcDbEntity
  8
0
100
AcDbBlockEnd
  0
BLOCK
  5
3A1
330
3A0
100
AcDbEntity
  8
0
100
AcDbBlockBegin
  2
*D15
 70
     1
 10
0.0
 20
0.0
 30
0.0
  3
*D15
  1

  0
LINE
  5
3A2
330
3A0
100
AcDbEntity
  8
09-01
 62
     4
370
    -2
100
AcDbLine
 10
159.500000230224
 20
649.4842923554572
 30
0.0
 11
159.500000230224
 21
683.3565606473711
 31
0.0
  0
LINE
  5
3A3
330
3A0
100
AcDbEntity
  8
09-01
 62
     4
370
    -2
100
AcDbLine
 10
404.500000230224
 20
649.4842923554572
 30
0.0
 11
404.500000230224
 21
683.3565606473711
 31
0.0
  0
LINE
  5
3A4
330
3A0
100
AcDbEntity
  8
09-01
 62
     4
370
    -2
100
AcDbLine
 10
165.750000230224
 20
680.8565606473711
 30
0.0
 11
398.250000230224
 21
680.8565606473711
 31
0.0
  0
SOLID
  5
3A5
330
3A0
100
AcDbEntity
  8
09-01
 62
     4
100
AcDbTrace
 10
165.750000230224
 20
681.8982273140377
 30
0.0
 11
165.750000230224
 21
679.8148939807044
 31
0.0
 12
159.500000230224
 22
680.8565606473711
 32
0.0
 13
159.500000230224
 23
680.8565606473711
 33
0.0
  0
SOLID
  5
3A6
330
3A0
100
AcDbEntity
  8
09-01
 62
     4
100
AcDbTrace
 10
398.250000230224
 20
681.8982273140377
 30
0.0
 11
398.250000230224
 21
679.8148939807044
 31
0.0
 12
404.500000230224
 22
680.8565606473711
 32
0.0
 13
404.500000230224
 23
680.8565606473711
 33
0.0
  0
MTEXT
  5
3A7
330
3A0
100
AcDbEntity
  8
09-01
 62
     1
100
AcDbMText
 10
282.000000230224
 20
686.4815606473711
 30
0.0
 40
6.25
 41
0.0
 46
0.0
 71
     5
 72
     1
  1
245
 73
     1
 44
1.0
  0
POINT
  5
3A8
330
3A0
100
AcDbEntity
  8
DEFPOINTS
 62
     0
100
AcDbPoint
 10
159.500000230224
 20
646.9842923554572
 30
0.0
  0
POINT
  5
3A9
330
3A0
100
AcDbEntity
  8
DEFPOINTS
 62
     0
100
AcDbPoint
 10
404.500000230224
 20
646.9842923554572
 30
0.0
  0
POINT
  5
3AA
330
3A0
100
AcDbEntity
  8
DEFPOINTS
 62
     0
100
AcDbPoint
 10
404.500000230224
 20
680.8565606473711
 30
0.0
  0
ENDBLK
  5
3AB
330
3A0
100
AcDbEntity
  8
0
100
AcDbBlockEnd
  0
BLOCK
  5
394
330
393
100
AcDbEntity
  8
0
100
AcDbBlockBegin
  2
*D16
 70
     1
 10
0.0
 20
0.0
 30
0.0
  3
*D16
  1

  0
LINE
  5
395
330
393
100
AcDbEntity
  8
09-01
 62
     4
370
    -2
100
AcDbLine
 10
404.500000230224
 20
649.4842923554572
 30
0.0
 11
404.500000230224
 21
683.3565606473711
 31
0.0
  0
LINE
  5
396
330
393
100
AcDbEntity
  8
09-01
 62
     4
370
    -2
100
AcDbLine
 10
431.000000230224
 20
673.984292355457
 30
0.0
 11
431.000000230224
 21
683.3565606473711
 31
0.0
  0
LINE
  5
397
330
393
100
AcDbEntity
  8
09-01
 62
     4
370
    -2
100
AcDbLine
 10
410.750000230224
 20
680.8565606473711
 30
0.0
 11
424.750000230224
 21
680.8565606473711
 31
0.0
  0
SOLID
  5
398
330
393
100
AcDbEntity
  8
09-01
 62
     4
100
AcDbTrace
 10
410.750000230224
 20
681.8982273140377
 30
0.0
 11
410.750000230224
 21
679.8148939807044
 31
0.0
 12
404.500000230224
 22
680.8565606473711
 32
0.0
 13
404.500000230224
 23
680.8565606473711
 33
0.0
  0
SOLID
  5
399
330
393
100
AcDbEntity
  8
09-01
 62
     4
100
AcDbTrace
 10
424.750000230224
 20
681.8982273140377
 30
0.0
 11
424.750000230224
 21
679.8148939807044
 31
0.0
 12
431.000000230224
 22
680.8565606473711
 32
0.0
 13
431.000000230224
 23
680.8565606473711
 33
0.0
  0
MTEXT
  5
39A
330
393
100
AcDbEntity
  8
09-01
 62
     1
100
AcDbMText
 10
417.750000230224
 20
686.4815606473711
 30
0.0
 40
6.25
 41
0.0
 46
0.0
 71
     5
 72
     1
  1
26.5
 73
     1
 44
1.0
  0
POINT
  5
39B
330
393
100
AcDbEntity
  8
DEFPOINTS
 62
     0
100
AcDbPoint
 10
404.500000230224
 20
646.9842923554572
 30
0.0
  0
POINT
  5
39C
330
393
100
AcDbEntity
  8
DEFPOINTS
 62
     0
100
AcDbPoint
 10
431.000000230224
 20
671.4842923554571
 30
0.0
  0
POINT
  5
39D
330
393
100
AcDbEntity
  8
DEFPOINTS
 62
     0
100
AcDbPoint
 10
431.000000230224
 20
680.8565606473711
 30
0.0
  0
ENDBLK
  5
39E
330
393
100
AcDbEntity
  8
0
100
AcDbBlockEnd
  0
BLOCK
  5
14A
330
149
100
AcDbEntity
  8
0
100
AcDbBlockBegin
  2
*D17
 70
     1
 10
0.0
 20
0.0
 30
0.0
  3
*D17
  1

  0
LINE
  5
14B
330
149
100
AcDbEntity
  8
09-01
 62
     4
370
    -2
100
AcDbLine
 10
433.500000230224
 20
668.9842923554571
 30
0.0
 11
455.6776732970866
 21
668.9842923554571
 31
0.0
  0
LINE
  5
14C
330
149
100
AcDbEntity
  8
09-01
 62
     4
370
    -2
100
AcDbLine
 10
407.000000230224
 20
646.9842923554572
 30
0.0
 11
455.6776732970866
 21
646.9842923554572
 31
0.0
  0
LINE
  5
14D
330
149
100
AcDbEntity
  8
09-01
 62
     4
370
    -2
100
AcDbLine
 10
453.1776732970866
 20
662.7342923554571
 30
0.0
 11
453.1776732970866
 21
653.2342923554572
 31
0.0
  0
SOLID
  5
14E
330
149
100
AcDbEntity
  8
09-01
 62
     4
100
AcDbTrace
 10
452.1360066304199
 20
662.7342923554571
 30
0.0
 11
454.2193399637532
 21
662.7342923554571
 31
0.0
 12
453.1776732970866
 22
668.9842923554571
 32
0.0
 13
453.1776732970866
 23
668.9842923554571
 33
0.0
  0
SOLID
  5
14F
330
149
100
AcDbEntity
  8
09-01
 62
     4
100
AcDbTrace
 10
452.1360066304199
 20
653.2342923554572
 30
0.0
 11
454.2193399637532
 21
653.2342923554572
 31
0.0
 12
453.1776732970866
 22
646.9842923554572
 32
0.0
 13
453.1776732970866
 23
646.9842923554572
 33
0.0
  0
MTEXT
  5
150
330
149
100
AcDbEntity
  8
09-01
 62
     1
100
AcDbMText
 10
447.5526732970864
 20
657.9842923554573
 30
0.0
 40
6.25
 41
0.0
 46
0.0
 71
     5
 72
     1
  1
22
 11
0.0000000000000001
 21
1.0
 31
0.0
 73
     1
 44
1.0
  0
POINT
  5
151
330
149
100
AcDbEntity
  8
DEFPOINTS
 62
     0
100
AcDbPoint
 10
431.000000230224
 20
668.9842923554571
 30
0.0
  0
POINT
  5
152
330
149
100
AcDbEntity
  8
DEFPOINTS
 62
     0
100
AcDbPoint
 10
404.500000230224
 20
646.9842923554572
 30
0.0
  0
POINT
  5
153
330
149
100
AcDbEntity
  8
DEFPOINTS
 62
     0
100
AcDbPoint
 10
453.1776732970866
 20
646.9842923554572
 30
0.0
  0
ENDBLK
  5
154
330
149
100
AcDbEntity
  8
0
100
AcDbBlockEnd
  0
BLOCK
  5
13D
330
13C
100
AcDbEntity
  8
0
100
AcDbBlockBegin
  2
*D18
 70
     1
 10
0.0
 20
0.0
 30
0.0
  3
*D18
  1

  0
LINE
  5
13E
330
13C
100
AcDbEntity
  8
09-01
 62
     4
370
    -2
100
AcDbLine
 10
407.000000230224
 20
646.9842923554572
 30
0.0
 11
455.6776732970866
 21
646.9842923554572
 31
0.0
  0
LINE
  5
13F
330
13C
100
AcDbEntity
  8
09-01
 62
     4
370
    -2
100
AcDbLine
 10
407.0000002302239
 20
523.9842923554572
 30
0.0
 11
455.6776732970865
 21
523.9842923554572
 31
0.0
  0
LINE
  5
140
330
13C
100
AcDbEntity
  8
09-01
 62
     4
370
    -2
100
AcDbLine
 10
453.1776732970866
 20
640.7342923554572
 30
0.0
 11
453.1776732970865
 21
530.2342923554572
 31
0.0
  0
SOLID
  5
141
330
13C
100
AcDbEntity
  8
09-01
 62
     4
100
AcDbTrace
 10
452.1360066304199
 20
640.7342923554572
 30
0.0
 11
454.2193399637532
 21
640.7342923554572
 31
0.0
 12
453.1776732970866
 22
646.9842923554572
 32
0.0
 13
453.1776732970866
 23
646.9842923554572
 33
0.0
  0
SOLID
  5
142
330
13C
100
AcDbEntity
  8
09-01
 62
     4
100
AcDbTrace
 10
452.1360066304198
 20
530.2342923554572
 30
0.0
 11
454.2193399637532
 21
530.2342923554572
 31
0.0
 12
453.1776732970865
 22
523.9842923554572
 32
0.0
 13
453.1776732970865
 23
523.9842923554572
 33
0.0
  0
MTEXT
  5
143
330
13C
100
AcDbEntity
  8
09-01
 62
     1
100
AcDbMText
 10
447.5526732970864
 20
585.4842923554573
 30
0.0
 40
6.25
 41
0.0
 46
0.0
 71
     5
 72
     1
  1
123
 11
0.0000000000000001
 21
1.0
 31
0.0
 73
     1
 44
1.0
  0
POINT
  5
144
330
13C
100
AcDbEntity
  8
DEFPOINTS
 62
     0
100
AcDbPoint
 10
404.500000230224
 20
646.9842923554572
 30
0.0
  0
POINT
  5
145
330
13C
100
AcDbEntity
  8
DEFPOINTS
 62
     0
100
AcDbPoint
 10
404.500000230224
 20
523.9842923554572
 30
0.0
  0
POINT
  5
146
330
13C
100
AcDbEntity
  8
DEFPOINTS
 62
     0
100
AcDbPoint
 10
453.1776732970865
 20
523.9842923554572
 30
0.0
  0
ENDBLK
  5
147
330
13C
100
AcDbEntity
  8
0
100
AcDbBlockEnd
  0
BLOCK
  5
12E
330
12D
100
AcDbEntity
  8
0
100
AcDbBlockBegin
  2
*D19
 70
     1
 10
0.0
 20
0.0
 30
0.0
  3
*D19
  1

  0
LINE
  5
12F
330
12D
100
AcDbEntity
  8
09-01
 62
     4
370
    -2
100
AcDbLine
 10
133.000000230224
 20
78.57426150913842
 30
0.0
 11
133.000000230224
 21
54.05426834759672
 31
0.0
  0
LINE
  5
130
330
12D
100
AcDbEntity
  8
09-01
 62
     4
370
    -2
100
AcDbLine
 10
134.000000230224
 20
68.57426150913832
 30
0.0
 11
134.000000230224
 21
54.05426834759672
 31
0.0
  0
LINE
  5
131
330
12D
100
AcDbEntity
  8
09-01
 62
     4
370
    -2
100
AcDbLine
 10
126.750000230224
 20
56.55426834759672
 30
0.0
 11
120.500000230224
 21
56.55426834759672
 31
0.0
  0
LINE
  5
132
330
12D
100
AcDbEntity
  8
09-01
 62
     4
370
    -2
100
AcDbLine
 10
140.250000230224
 20
56.55426834759672
 30
0.0
 11
146.500000230224
 21
56.55426834759672
 31
0.0
  0
MTEXT
  5
133
330
12D
100
AcDbEntity
  8
09-01
 62
     1
100
AcDbMText
 10
124.08376182756
 20
61.05971112860314
 30
0.0
 40
6.25
 41
0.0
 46
0.0
 71
     5
 72
     1
  1
1
 73
     1
 44
1.0
  0
LINE
  5
134
330
12D
100
AcDbEntity
  8
09-01
 62
     4
370
    -2
100
AcDbLine
 10
133.000000230224
 20
56.55426834759672
 30
0.0
 11
134.000000230224
 21
56.55426834759672
 31
0.0
  0
SOLID
  5
135
330
12D
100
AcDbEntity
  8
09-01
 62
     4
100
AcDbTrace
 10
126.750000230224
 20
57.59593501426338
 30
0.0
 11
126.750000230224
 21
55.51260168093005
 31
0.0
 12
133.000000230224
 22
56.55426834759672
 32
0.0
 13
133.000000230224
 23
56.55426834759672
 33
0.0
  0
SOLID
  5
136
330
12D
100
AcDbEntity
  8
09-01
 62
     4
100
AcDbTrace
 10
140.250000230224
 20
57.59593501426338
 30
0.0
 11
140.250000230224
 21
55.51260168093005
 31
0.0
 12
134.000000230224
 22
56.55426834759672
 32
0.0
 13
134.000000230224
 23
56.55426834759672
 33
0.0
  0
POINT
  5
137
330
12D
100
AcDbEntity
  8
DEFPOINTS
 62
     0
100
AcDbPoint
 10
133.000000230224
 20
81.07426150913843
 30
0.0
  0
POINT
  5
138
330
12D
100
AcDbEntity
  8
DEFPOINTS
 62
     0
100
AcDbPoint
 10
134.000000230224
 20
71.07426150913832
 30
0.0
  0
POINT
  5
139
330
12D
100
AcDbEntity
  8
DEFPOINTS
 62
     0
100
AcDbPoint
 10
134.000000230224
 20
56.55426834759672
 30
0.0
  0
ENDBLK
  5
13A
330
12D
100
AcDbEntity
  8
0
100
AcDbBlockEnd
  0
BLOCK
  5
121
330
120
100
AcDbEntity
  8
0
100
AcDbBlockBegin
  2
*D20
 70
     1
 10
0.0
 20
0.0
 30
0.0
  3
*D20
  1

  0
LINE
  5
122
330
120
100
AcDbEntity
  8
09-01
 62
     4
370
    -2
100
AcDbLine
 10
134.000000230224
 20
68.57426150913832
 30
0.0
 11
134.000000230224
 21
54.05426834759672
 31
0.0
  0
LINE
  5
123
330
120
100
AcDbEntity
  8
09-01
 62
     4
370
    -2
100
AcDbLine
 10
430.0000002302239
 20
68.57426150913832
 30
0.0
 11
430.0000002302239
 21
54.05426834759672
 31
0.0
  0
LINE
  5
124
330
120
100
AcDbEntity
  8
09-01
 62
     4
370
    -2
100
AcDbLine
 10
140.250000230224
 20
56.55426834759672
 30
0.0
 11
423.7500002302239
 21
56.55426834759672
 31
0.0
  0
SOLID
  5
125
330
120
100
AcDbEntity
  8
09-01
 62
     4
100
AcDbTrace
 10
140.250000230224
 20
57.59593501426338
 30
0.0
 11
140.250000230224
 21
55.51260168093005
 31
0.0
 12
134.000000230224
 22
56.55426834759672
 32
0.0
 13
134.000000230224
 23
56.55426834759672
 33
0.0
  0
SOLID
  5
126
330
120
100
AcDbEntity
  8
09-01
 62
     4
100
AcDbTrace
 10
423.7500002302239
 20
57.59593501426338
 30
0.0
 11
423.7500002302239
 21
55.51260168093005
 31
0.0
 12
430.0000002302239
 22
56.55426834759672
 32
0.0
 13
430.0000002302239
 23
56.55426834759672
 33
0.0
  0
MTEXT
  5
127
330
120
100
AcDbEntity
  8
09-01
 62
     1
100
AcDbMText
 10
282.000000230224
 20
62.17926834759672
 30
0.0
 40
6.25
 41
0.0
 46
0.0
 71
     5
 72
     1
  1
296
 73
     1
 44
1.0
  0
POINT
  5
128
330
120
100
AcDbEntity
  8
DEFPOINTS
 62
     0
100
AcDbPoint
 10
134.000000230224
 20
71.07426150913832
 30
0.0
  0
POINT
  5
129
330
120
100
AcDbEntity
  8
DEFPOINTS
 62
     0
100
AcDbPoint
 10
430.0000002302239
 20
71.07426150913832
 30
0.0
  0
POINT
  5
12A
330
120
100
AcDbEntity
  8
DEFPOINTS
 62
     0
100
AcDbPoint
 10
430.0000002302239
 20
56.55426834759672
 30
0.0
  0
ENDBLK
  5
12B
330
120
100
AcDbEntity
  8
0
100
AcDbBlockEnd
  0
BLOCK
  5
112
330
111
100
AcDbEntity
  8
0
100
AcDbBlockBegin
  2
*D21
 70
     1
 10
0.0
 20
0.0
 30
0.0
  3
*D21
  1

  0
LINE
  5
113
330
111
100
AcDbEntity
  8
09-01
 62
     4
370
    -2
100
AcDbLine
 10
430.0000002302239
 20
68.57426150913832
 30
0.0
 11
430.0000002302239
 21
54.05426834759672
 31
0.0
  0
LINE
  5
114
330
111
100
AcDbEntity
  8
09-01
 62
     4
370
    -2
100
AcDbLine
 10
431.000000230224
 20
78.57426150913842
 30
0.0
 11
431.000000230224
 21
54.05426834759672
 31
0.0
  0
LINE
  5
115
330
111
100
AcDbEntity
  8
09-01
 62
     4
370
    -2
100
AcDbLine
 10
423.7500002302239
 20
56.55426834759672
 30
0.0
 11
417.5000002302239
 21
56.55426834759672
 31
0.0
  0
LINE
  5
116
330
111
100
AcDbEntity
  8
09-01
 62
     4
370
    -2
100
AcDbLine
 10
437.250000230224
 20
56.55426834759672
 30
0.0
 11
443.500000230224
 21
56.55426834759672
 31
0.0
  0
MTEXT
  5
117
330
111
100
AcDbEntity
  8
09-01
 62
     1
100
AcDbMText
 10
440.4442444802371
 20
61.51580441870081
 30
0.0
 40
6.25
 41
0.0
 46
0.0
 71
     5
 72
     1
  1
1
 73
     1
 44
1.0
  0
LINE
  5
118
330
111
100
AcDbEntity
  8
09-01
 62
     4
370
    -2
100
AcDbLine
 10
430.0000002302239
 20
56.55426834759672
 30
0.0
 11
431.000000230224
 21
56.55426834759672
 31
0.0
  0
SOLID
  5
119
330
111
100
AcDbEntity
  8
09-01
 62
     4
100
AcDbTrace
 10
423.7500002302239
 20
57.59593501426338
 30
0.0
 11
423.7500002302239
 21
55.51260168093005
 31
0.0
 12
430.0000002302239
 22
56.55426834759672
 32
0.0
 13
430.0000002302239
 23
56.55426834759672
 33
0.0
  0
SOLID
  5
11A
330
111
100
AcDbEntity
  8
09-01
 62
     4
100
AcDbTrace
 10
437.250000230224
 20
57.59593501426338
 30
0.0
 11
437.250000230224
 21
55.51260168093005
 31
0.0
 12
431.000000230224
 22
56.55426834759672
 32
0.0
 13
431.000000230224
 23
56.55426834759672
 33
0.0
  0
POINT
  5
11B
330
111
100
AcDbEntity
  8
DEFPOINTS
 62
     0
100
AcDbPoint
 10
430.0000002302239
 20
71.07426150913832
 30
0.0
  0
POINT
  5
11C
330
111
100
AcDbEntity
  8
DEFPOINTS
 62
     0
100
AcDbPoint
 10
431.000000230224
 20
81.07426150913843
 30
0.0
  0
POINT
  5
11D
330
111
100
AcDbEntity
  8
DEFPOINTS
 62
     0
100
AcDbPoint
 10
431.000000230224
 20
56.55426834759672
 30
0.0
  0
ENDBLK
  5
11E
330
111
100
AcDbEntity
  8
0
100
AcDbBlockEnd
  0
BLOCK
  5
105
330
104
100
AcDbEntity
  8
0
100
AcDbBlockBegin
  2
*D22
 70
     1
 10
0.0
 20
0.0
 30
0.0
  3
*D22
  1

  0
LINE
  5
106
330
104
100
AcDbEntity
  8
09-01
 62
     4
370
    -2
100
AcDbLine
 10
130.500000230224
 20
220.9842923554572
 30
0.0
 11
115.9846896182425
 21
220.9842923554572
 31
0.0
  0
LINE
  5
107
330
104
100
AcDbEntity
  8
09-01
 62
     4
370
    -2
100
AcDbLine
 10
152.000000230224
 20
270.9842923554577
 30
0.0
 11
115.9846896182425
 21
270.9842923554577
 31
0.0
  0
LINE
  5
108
330
104
100
AcDbEntity
  8
09-01
 62
     4
370
    -2
100
AcDbLine
 10
118.4846896182425
 20
227.2342923554572
 30
0.0
 11
118.4846896182425
 21
264.7342923554577
 31
0.0
  0
SOLID
  5
109
330
104
100
AcDbEntity
  8
09-01
 62
     4
100
AcDbTrace
 10
117.4430229515759
 20
227.2342923554572
 30
0.0
 11
119.5263562849092
 21
227.2342923554572
 31
0.0
 12
118.4846896182425
 22
220.9842923554572
 32
0.0
 13
118.4846896182425
 23
220.9842923554572
 33
0.0
  0
SOLID
  5
10A
330
104
100
AcDbEntity
  8
09-01
 62
     4
100
AcDbTrace
 10
117.4430229515759
 20
264.7342923554577
 30
0.0
 11
119.5263562849092
 21
264.7342923554577
 31
0.0
 12
118.4846896182425
 22
270.9842923554577
 32
0.0
 13
118.4846896182425
 23
270.9842923554577
 33
0.0
  0
MTEXT
  5
10B
330
104
100
AcDbEntity
  8
09-01
 62
     1
100
AcDbMText
 10
112.8596896182425
 20
245.9842923554575
 30
0.0
 40
6.25
 41
0.0
 46
0.0
 71
     5
 72
     1
  1
50
 11
0.0000000000000001
 21
1.0
 31
0.0
 73
     1
 44
1.0
  0
POINT
  5
10C
330
104
100
AcDbEntity
  8
DEFPOINTS
 62
     0
100
AcDbPoint
 10
133.000000230224
 20
220.9842923554572
 30
0.0
  0
POINT
  5
10D
330
104
100
AcDbEntity
  8
DEFPOINTS
 62
     0
100
AcDbPoint
 10
154.500000230224
 20
270.9842923554577
 30
0.0
  0
POINT
  5
10E
330
104
100
AcDbEntity
  8
DEFPOINTS
 62
     0
100
AcDbPoint
 10
118.4846896182425
 20
270.9842923554577
 30
0.0
  0
ENDBLK
  5
10F
330
104
100
AcDbEntity
  8
0
100
AcDbBlockEnd
  0
BLOCK
  5
F8
330
F7
100
AcDbEntity
  8
0
100
AcDbBlockBegin
  2
*D23
 70
     1
 10
0.0
 20
0.0
 30
0.0
  3
*D23
  1

  0
LINE
  5
F9
330
F7
100
AcDbEntity
  8
09-01
 62
     4
370
    -2
100
AcDbLine
 10
152.000000230224
 20
270.9842923554577
 30
0.0
 11
115.9846896182425
 21
270.9842923554577
 31
0.0
  0
LINE
  5
FA
330
F7
100
AcDbEntity
  8
09-01
 62
     4
370
    -2
100
AcDbLine
 10
152.0000002302249
 20
540.9842923554572
 30
0.0
 11
115.9846896182426
 21
540.9842923554572
 31
0.0
  0
LINE
  5
FB
330
F7
100
AcDbEntity
  8
09-01
 62
     4
370
    -2
100
AcDbLine
 10
118.4846896182425
 20
277.2342923554577
 30
0.0
 11
118.4846896182426
 21
534.7342923554572
 31
0.0
  0
SOLID
  5
FC
330
F7
100
AcDbEntity
  8
09-01
 62
     4
100
AcDbTrace
 10
117.4430229515759
 20
277.2342923554577
 30
0.0
 11
119.5263562849092
 21
277.2342923554577
 31
0.0
 12
118.4846896182425
 22
270.9842923554577
 32
0.0
 13
118.4846896182425
 23
270.9842923554577
 33
0.0
  0
SOLID
  5
FD
330
F7
100
AcDbEntity
  8
09-01
 62
     4
100
AcDbTrace
 10
117.4430229515759
 20
534.7342923554572
 30
0.0
 11
119.5263562849093
 21
534.7342923554572
 31
0.0
 12
118.4846896182426
 22
540.9842923554572
 32
0.0
 13
118.4846896182426
 23
540.9842923554572
 33
0.0
  0
MTEXT
  5
FE
330
F7
100
AcDbEntity
  8
09-01
 62
     1
100
AcDbMText
 10
112.8596896182425
 20
405.9842923554574
 30
0.0
 40
6.25
 41
0.0
 46
0.0
 71
     5
 72
     1
  1
270
 11
0.0000000000000001
 21
1.0
 31
0.0
 73
     1
 44
1.0
  0
POINT
  5
FF
330
F7
100
AcDbEntity
  8
DEFPOINTS
 62
     0
100
AcDbPoint
 10
154.500000230224
 20
270.9842923554577
 30
0.0
  0
POINT
  5
100
330
F7
100
AcDbEntity
  8
DEFPOINTS
 62
     0
100
AcDbPoint
 10
154.5000002302249
 20
540.9842923554572
 30
0.0
  0
POINT
  5
101
330
F7
100
AcDbEntity
  8
DEFPOINTS
 62
     0
100
AcDbPoint
 10
118.4846896182426
 20
540.9842923554572
 30
0.0
  0
ENDBLK
  5
102
330
F7
100
AcDbEntity
  8
0
100
AcDbBlockEnd
  0
BLOCK
  5
EB
330
EA
100
AcDbEntity
  8
0
100
AcDbBlockBegin
  2
*D24
 70
     1
 10
0.0
 20
0.0
 30
0.0
  3
*D24
  1

  0
LINE
  5
EC
330
EA
100
AcDbEntity
  8
09-01
 62
     4
370
    -2
100
AcDbLine
 10
158.000000230224
 20
276.9842923554577
 30
0.0
 11
158.000000230224
 21
288.8436403242329
 31
0.0
  0
LINE
  5
ED
330
EA
100
AcDbEntity
  8
09-01
 62
     4
370
    -2
100
AcDbLine
 10
406.0000002302245
 20
276.4842923554568
 30
0.0
 11
406.0000002302245
 21
288.8436403242329
 31
0.0
  0
LINE
  5
EE
330
EA
100
AcDbEntity
  8
09-01
 62
     4
370
    -2
100
AcDbLine
 10
164.250000230224
 20
286.3436403242328
 30
0.0
 11
399.7500002302245
 21
286.3436403242328
 31
0.0
  0
SOLID
  5
EF
330
EA
100
AcDbEntity
  8
09-01
 62
     4
100
AcDbTrace
 10
164.250000230224
 20
287.3853069908996
 30
0.0
 11
164.250000230224
 21
285.3019736575662
 31
0.0
 12
158.000000230224
 22
286.3436403242328
 32
0.0
 13
158.000000230224
 23
286.3436403242328
 33
0.0
  0
SOLID
  5
F0
330
EA
100
AcDbEntity
  8
09-01
 62
     4
100
AcDbTrace
 10
399.7500002302245
 20
287.3853069908996
 30
0.0
 11
399.7500002302245
 21
285.3019736575662
 31
0.0
 12
406.0000002302245
 22
286.3436403242328
 32
0.0
 13
406.0000002302245
 23
286.3436403242328
 33
0.0
  0
MTEXT
  5
F1
330
EA
100
AcDbEntity
  8
09-01
 62
     1
100
AcDbMText
 10
282.0000002302243
 20
291.9686403242329
 30
0.0
 40
6.25
 41
0.0
 46
0.0
 71
     5
 72
     1
  1
248
 73
     1
 44
1.0
  0
POINT
  5
F2
330
EA
100
AcDbEntity
  8
DEFPOINTS
 62
     0
100
AcDbPoint
 10
158.000000230224
 20
274.4842923554577
 30
0.0
  0
POINT
  5
F3
330
EA
100
AcDbEntity
  8
DEFPOINTS
 62
     0
100
AcDbPoint
 10
406.0000002302245
 20
273.9842923554568
 30
0.0
  0
POINT
  5
F4
330
EA
100
AcDbEntity
  8
DEFPOINTS
 62
     0
100
AcDbPoint
 10
406.0000002302245
 20
286.3436403242328
 30
0.0
  0
ENDBLK
  5
F5
330
EA
100
AcDbEntity
  8
0
100
AcDbBlockEnd
  0
BLOCK
  5
DC
330
DB
100
AcDbEntity
  8
0
100
AcDbBlockBegin
  2
*D25
 70
     1
 10
0.0
 20
0.0
 30
0.0
  3
*D25
  1

  0
LINE
  5
DD
330
DB
100
AcDbEntity
  8
09-01
 62
     4
370
    -2
100
AcDbLine
 10
155.5000002302249
 20
543.4842923554572
 30
0.0
 11
155.5000002302249
 21
550.5576421535768
 31
0.0
  0
LINE
  5
DE
330
DB
100
AcDbEntity
  8
09-01
 62
     4
370
    -2
100
AcDbLine
 10
160.5000002302249
 20
543.4842923554572
 30
0.0
 11
160.5000002302249
 21
550.5576421535768
 31
0.0
  0
LINE
  5
DF
330
DB
100
AcDbEntity
  8
09-01
 62
     4
370
    -2
100
AcDbLine
 10
149.2500002302249
 20
548.0576421535768
 30
0.0
 11
143.0000002302249
 21
548.0576421535768
 31
0.0
  0
LINE
  5
E0
330
DB
100
AcDbEntity
  8
09-01
 62
     4
370
    -2
100
AcDbLine
 10
166.7500002302249
 20
548.0576421535768
 30
0.0
 11
173.0000002302249
 21
548.0576421535768
 31
0.0
  0
MTEXT
  5
E1
330
DB
100
AcDbEntity
  8
09-01
 62
     1
100
AcDbMText
 10
170.0729757891677
 20
553.5973455903929
 30
0.0
 40
6.25
 41
0.0
 46
0.0
 71
     5
 72
     1
  1
5
 73
     1
 44
1.0
  0
LINE
  5
E2
330
DB
100
AcDbEntity
  8
09-01
 62
     4
370
    -2
100
AcDbLine
 10
155.5000002302249
 20
548.0576421535768
 30
0.0
 11
160.5000002302249
 21
548.0576421535768
 31
0.0
  0
SOLID
  5
E3
330
DB
100
AcDbEntity
  8
09-01
 62
     4
100
AcDbTrace
 10
149.2500002302249
 20
549.0993088202434
 30
0.0
 11
149.2500002302249
 21
547.0159754869102
 31
0.0
 12
155.5000002302249
 22
548.0576421535768
 32
0.0
 13
155.5000002302249
 23
548.0576421535768
 33
0.0
  0
SOLID
  5
E4
330
DB
100
AcDbEntity
  8
09-01
 62
     4
100
AcDbTrace
 10
166.7500002302249
 20
549.0993088202434
 30
0.0
 11
166.7500002302249
 21
547.0159754869102
 31
0.0
 12
160.5000002302249
 22
548.0576421535768
 32
0.0
 13
160.5000002302249
 23
548.0576421535768
 33
0.0
  0
POINT
  5
E5
330
DB
100
AcDbEntity
  8
DEFPOINTS
 62
     0
100
AcDbPoint
 10
155.5000002302249
 20
540.9842923554572
 30
0.0
  0
POINT
  5
E6
330
DB
100
AcDbEntity
  8
DEFPOINTS
 62
     0
100
AcDbPoint
 10
160.5000002302249
 20
540.9842923554572
 30
0.0
  0
POINT
  5
E7
330
DB
100
AcDbEntity
  8
DEFPOINTS
 62
     0
100
AcDbPoint
 10
160.5000002302249
 20
548.0576421535768
 30
0.0
  0
ENDBLK
  5
E8
330
DB
100
AcDbEntity
  8
0
100
AcDbBlockEnd
  0
BLOCK
  5
CD
330
CC
100
AcDbEntity
  8
0
100
AcDbBlockBegin
  2
*D26
 70
     1
 10
0.0
 20
0.0
 30
0.0
  3
*D26
  1

  0
LINE
  5
CE
330
CC
100
AcDbEntity
  8
09-01
 62
     4
370
    -2
100
AcDbLine
 10
164.0000002302249
 20
540.9842923554572
 30
0.0
 11
189.769745220743
 21
540.9842923554572
 31
0.0
  0
LINE
  5
CF
330
CC
100
AcDbEntity
  8
09-01
 62
     4
370
    -2
100
AcDbLine
 10
167.7500002302249
 20
528.9842923554572
 30
0.0
 11
189.769745220743
 21
528.9842923554572
 31
0.0
  0
LINE
  5
D0
330
CC
100
AcDbEntity
  8
09-01
 62
     4
370
    -2
100
AcDbLine
 10
187.269745220743
 20
547.2342923554572
 30
0.0
 11
187.269745220743
 21
553.4842923554572
 31
0.0
  0
LINE
  5
D1
330
CC
100
AcDbEntity
  8
09-01
 62
     4
370
    -2
100
AcDbLine
 10
187.269745220743
 20
522.7342923554572
 30
0.0
 11
187.269745220743
 21
516.4842923554572
 31
0.0
  0
MTEXT
  5
D2
330
CC
100
AcDbEntity
  8
09-01
 62
     1
100
AcDbMText
 10
181.5416552266124
 20
549.545917641363
 30
0.0
 40
6.25
 41
0.0
 46
0.0
 71
     5
 72
     1
  1
12
 11
0.0000000000000001
 21
1.0
 31
0.0
 73
     1
 44
1.0
  0
LINE
  5
D3
330
CC
100
AcDbEntity
  8
09-01
 62
     4
370
    -2
100
AcDbLine
 10
187.269745220743
 20
540.9842923554572
 30
0.0
 11
187.269745220743
 21
528.9842923554572
 31
0.0
  0
SOLID
  5
D4
330
CC
100
AcDbEntity
  8
09-01
 62
     4
100
AcDbTrace
 10
186.2280785540764
 20
547.2342923554572
 30
0.0
 11
188.3114118874097
 21
547.2342923554572
 31
0.0
 12
187.269745220743
 22
540.9842923554572
 32
0.0
 13
187.269745220743
 23
540.9842923554572
 33
0.0
  0
SOLID
  5
D5
330
CC
100
AcDbEntity
  8
09-01
 62
     4
100
AcDbTrace
 10
186.2280785540764
 20
522.7342923554572
 30
0.0
 11
188.3114118874097
 21
522.7342923554572
 31
0.0
 12
187.269745220743
 22
528.9842923554572
 32
0.0
 13
187.269745220743
 23
528.9842923554572
 33
0.0
  0
POINT
  5
D6
330
CC
100
AcDbEntity
  8
DEFPOINTS
 62
     0
100
AcDbPoint
 10
161.5000002302249
 20
540.9842923554572
 30
0.0
  0
POINT
  5
D7
330
CC
100
AcDbEntity
  8
DEFPOINTS
 62
     0
100
AcDbPoint
 10
165.2500002302249
 20
528.9842923554572
 30
0.0
  0
POINT
  5
D8
330
CC
100
AcDbEntity
  8
DEFPOINTS
 62
     0
100
AcDbPoint
 10
187.269745220743
 20
528.9842923554572
 30
0.0
  0
ENDBLK
  5
D9
330
CC
100
AcDbEntity
  8
0
100
AcDbBlockEnd
  0
BLOCK
  5
BE
330
BD
100
AcDbEntity
  8
0
100
AcDbBlockBegin
  2
*D27
 70
     1
 10
0.0
 20
0.0
 30
0.0
  3
*D27
  1

  0
LINE
  5
BF
330
BD
100
AcDbEntity
  8
09-01
 62
     4
370
    -2
100
AcDbLine
 10
151.7500002302249
 20
526.4842923554572
 30
0.0
 11
151.7500002302249
 21
505.2854061793302
 31
0.0
  0
LINE
  5
C0
330
BD
100
AcDbEntity
  8
09-01
 62
     4
370
    -2
100
AcDbLine
 10
164.2500002302249
 20
526.4842923554572
 30
0.0
 11
164.2500002302249
 21
505.2854061793302
 31
0.0
  0
LINE
  5
C1
330
BD
100
AcDbEntity
  8
09-01
 62
     4
370
    -2
100
AcDbLine
 10
145.5000002302249
 20
507.7854061793302
 30
0.0
 11
139.2500002302249
 21
507.7854061793302
 31
0.0
  0
LINE
  5
C2
330
BD
100
AcDbEntity
  8
09-01
 62
     4
370
    -2
100
AcDbLine
 10
170.5000002302249
 20
507.7854061793302
 30
0.0
 11
176.7500002302249
 21
507.7854061793302
 31
0.0
  0
MTEXT
  5
C3
330
BD
100
AcDbEntity
  8
09-01
 62
     1
100
AcDbMText
 10
180.3540189620562
 20
512.7806268840702
 30
0.0
 40
6.25
 41
0.0
 46
0.0
 71
     5
 72
     1
  1
12.5
 73
     1
 44
1.0
  0
LINE
  5
C4
330
BD
100
AcDbEntity
  8
09-01
 62
     4
370
    -2
100
AcDbLine
 10
151.7500002302249
 20
507.7854061793302
 30
0.0
 11
164.2500002302249
 21
507.7854061793302
 31
0.0
  0
SOLID
  5
C5
330
BD
100
AcDbEntity
  8
09-01
 62
     4
100
AcDbTrace
 10
145.5000002302249
 20
508.8270728459969
 30
0.0
 11
145.5000002302249
 21
506.7437395126636
 31
0.0
 12
151.7500002302249
 22
507.7854061793302
 32
0.0
 13
151.7500002302249
 23
507.7854061793302
 33
0.0
  0
SOLID
  5
C6
330
BD
100
AcDbEntity
  8
09-01
 62
     4
100
AcDbTrace
 10
170.5000002302249
 20
508.8270728459969
 30
0.0
 11
170.5000002302249
 21
506.7437395126636
 31
0.0
 12
164.2500002302249
 22
507.7854061793302
 32
0.0
 13
164.2500002302249
 23
507.7854061793302
 33
0.0
  0
POINT
  5
C7
330
BD
100
AcDbEntity
  8
DEFPOINTS
 62
     0
100
AcDbPoint
 10
151.7500002302249
 20
528.9842923554572
 30
0.0
  0
POINT
  5
C8
330
BD
100
AcDbEntity
  8
DEFPOINTS
 62
     0
100
AcDbPoint
 10
164.2500002302249
 20
528.9842923554572
 30
0.0
  0
POINT
  5
C9
330
BD
100
AcDbEntity
  8
DEFPOINTS
 62
     0
100
AcDbPoint
 10
164.2500002302249
 20
507.7854061793302
 30
0.0
  0
ENDBLK
  5
CA
330
BD
100
AcDbEntity
  8
0
100
AcDbBlockEnd
  0
BLOCK
  5
7F
330
7C
100
AcDbEntity
  8
0
100
AcDbBlockBegin
  2
aaaaWagner
 70
     0
 10
0.0
 20
0.0
 30
0.0
  3
aaaaWagner
  1

  0
LWPOLYLINE
  5
80
330
7C
100
AcDbEntity
  8
02TNR-01
100
AcDbPolyline
 90
      133
 70
     1
 43
0.0135
 10
2.64276749999999
 20
8.613321999999925
 10
2.947701000000051
 20
8.879334999999969
 10
2.838868499999989
 20
9.054852999999866
 10
2.714389500000038
 20
9.213374499999986
 10
2.57469600000013
 20
9.35495800000001
 10
2.420237999999926
 20
9.479670999999882
 10
2.25144750000004
 20
9.587562999999931
 10
2.068760999999994
 20
9.678692499999897
 10
1.872623999999973
 20
9.753126999999949
 10
1.663468500000135
 20
9.810915999999906
 10
1.441735500000049
 20
9.852118000000018
 10
1.20786600000008
 20
9.876800499999944
 10
0.9622965000000931
 20
9.885012999999958
 10
0.759108000000083
 20
9.8773584999999
 10
0.5624669999999697
 20
9.854727999999909
 10
0.372792000000004
 20
9.817611999999996
 10
0.1905060000001413
 20
9.766509999999925
 10
0.0160275000000638
 20
9.701921499999969
 10
-0.1502339999999549
 20
9.6243414999999
 10
-0.3078464999999824
 20
9.534264999999891
 10
-0.4564004999999725
 20
9.432186999999885
 10
-0.5954774999999018
 20
9.318602499999997
 10
-0.7246499999999969
 20
9.194015499999977
 10
-0.8435129999999162
 20
9.058911999999963
 10
-0.9516390000000001
 20
8.913800499999979
 10
-1.048609499999884
 20
8.759166999999933
 10
-1.134010499999931
 20
8.595510999999987
 10
-1.207418999999958
 20
8.42332749999997
 10
-1.268420999999875
 20
8.243120499999918
 10
-1.316597999999885
 20
8.05537599999991
 10
-1.351522499999987
 20
7.860597999999868
 10
-1.372789499999953
 20
7.659276999999974
 10
-1.379966999999965
 20
7.451912499999991
 10
-1.372879499999953
 20
7.238396500000021
 10
-1.351855499999942
 20
7.032165999999961
 10
-1.317273
 20
6.833621499999935
 10
-1.269509999999968
 20
6.643158999999855
 10
-1.208939999999984
 20
6.46117449999997
 10
-1.135936499999957
 20
6.288063999999963
 10
-1.050873000000024
 20
6.124218999999925
 10
-0.9541274999999131
 20
5.970039999999926
 10
-0.8460734999999885
 20
5.825918499999943
 10
-0.7270800000000009
 20
5.692254999999931
 10
-0.5975339999999961
 20
5.569440999999983
 10
-0.4577954999999747
 20
5.457876999999882
 10
-0.308251499999983
 20
5.357954499999948
 10
-0.1492709999999988
 20
5.270069499999976
 10
0.0187680000000228
 20
5.194622499999979
 10
0.1954964999999902
 20
5.132004999999992
 10
0.3805320000001302
 20
5.082613000000037
 10
0.5735100000000557
 20
5.046842500000025
 10
0.7740435000000617
 20
5.025089499999921
 10
0.9817679999999882
 20
5.017749999999921
 10
1.188835500000095
 20
5.024382999999943
 10
1.387488000000075
 20
5.044128999999998
 10
1.577487000000019
 20
5.076744999999959
 10
1.758594000000016
 20
5.121987999999987
 10
1.930574999999976
 20
5.179619500000001
 10
2.093186999999943
 20
5.24940099999992
 10
2.246196000000054
 20
5.331089499999961
 10
2.389354500000081
 20
5.424450999999976
 10
2.522437500000023
 20
5.529242499999895
 10
2.645193000000062
 20
5.645216499999946
 10
2.757391500000039
 20
5.772147999999901
 10
2.858794500000044
 20
5.909780499999897
 10
2.949159000000122
 20
6.057888999999931
 10
3.028246500000022
 20
6.21622149999996
 10
3.095823000000109
 20
6.384543999999891
 10
3.151650000000017
 20
6.562613499999883
 10
3.195480000000088
 20
6.750191499999914
 10
3.227088000000094
 20
6.947039499999959
 10
3.246226500000034
 20
7.152918999999883
 10
3.252657000000112
 20
7.367582499999912
 10
3.252657000000112
 20
7.367582499999912
 10
3.252657000000112
 20
7.432458999999994
 10
1.189389000000005
 20
7.432458999999994
 10
1.189389000000005
 20
7.069110999999907
 10
2.79199200000005
 20
7.069110999999907
 10
2.778433500000005
 20
6.863879499999995
 10
2.743922999999995
 20
6.668619999999918
 10
2.689351500000043
 20
6.48416949999995
 10
2.61561000000006
 20
6.311369499999955
 10
2.523598500000048
 20
6.151047999999946
 10
2.414212500000076
 20
6.004055499999935
 10
2.288334000000077
 20
5.871215499999948
 10
2.146867500000098
 20
5.753378499999939
 10
1.99070400000005
 20
5.651367999999933
 10
1.820734500000071
 20
5.566030000000012
 10
1.637854500000003
 20
5.49819699999989
 10
1.442959500000142
 20
5.448710500000004
 10
1.236940500000059
 20
5.418402999999898
 10
1.020693000000051
 20
5.408115999999949
 10
0.8127885000001242
 20
5.418155499999897
 10
0.6129210000000285
 20
5.447679999999877
 10
0.4218375000000379
 20
5.495793999999932
 10
0.2402805000000399
 20
5.561606499999925
 10
0.0689835000000585
 20
5.644221999999899
 10
-0.0913064999998596
 20
5.742744999999956
 10
-0.2398514999999861
 20
5.856288999999947
 10
-0.3759045000000469
 20
5.983954000000039
 10
-0.4987274999999727
 20
6.124848999999926
 10
-0.6075824999999213
 20
6.27808299999998
 10
-0.7017224999999599
 20
6.442755999999917
 10
-0.7804095000000189
 20
6.617981499999928
 10
-0.8429009999998697
 20
6.802863999999885
 10
-0.8884544999999661
 20
6.996503500000017
 10
-0.9163320000000112
 20
7.19801799999999
 10
-0.9257864999999583
 20
7.406507499999861
 10
-0.9177224999998543
 20
7.619100999999943
 10
-0.8938544999999749
 20
7.823661999999899
 10
-0.854686499999957
 20
8.019560499999897
 10
-0.8007179999999607
 20
8.206170999999926
 10
-0.7324439999999868
 20
8.382867999999916
 10
-0.6503685000000133
 20
8.549030499999958
 10
-0.5549909999999727
 20
8.704024000000003
 10
-0.446806499999866
 20
8.847231999999962
 10
-0.3263190000000122
 20
8.978020000000014
 10
-0.194018999999912
 20
9.095766999999909
 10
-0.0504194999998617
 20
9.199842999999987
 10
0.1039935000001151
 20
9.289626999999995
 10
0.2687114999999949
 20
9.364488999999935
 10
0.443239500000118
 20
9.423803499999962
 10
0.6270825000000287
 20
9.466944999999896
 10
0.8197320000000445
 20
9.493292499999938
 10
1.020693000000051
 20
9.50221149999993
 10
1.245067500000004
 20
9.490952499999934
 10
1.45940250000001
 20
9.457319499999925
 10
1.663270500000066
 20
9.401523999999994
 10
1.85624400000006
 20
9.323777499999891
 10
2.037895500000104
 20
9.224300499999912
 10
2.207802000000015
 20
9.10329999999999
 10
2.365536000000133
 20
8.960996499999964
 10
2.510665500000072
 20
8.797596999999939
  0
LWPOLYLINE
  5
83
330
7C
100
AcDbEntity
  8
02TNR-01
100
AcDbPolyline
 90
       12
 70
     1
 43
0.0135
 10
-1.117729499999995
 20
0.25
 10
1.260133500000165
 20
0.25
 10
1.443639000000075
 20
1.203113499999972
 10
0.3038295000001199
 20
1.203113499999972
 10
0.3747675000000754
 20
1.571582499999863
 10
1.381917000000157
 20
1.571582499999863
 10
1.555004999999937
 20
2.470641999999884
 10
0.5478555000000825
 20
2.470641999999884
 10
0.6131415000000971
 20
2.809649499999864
 10
1.723471500000073
 20
2.809649499999864
 10
1.906963500000074
 20
3.762744999999995
 10
-0.4414199999999937
 20
3.762744999999995
  0
LWPOLYLINE
  5
84
330
7C
100
AcDbEntity
  8
02TNR-01
100
AcDbPolyline
 90
        4
 70
     1
 43
0.0135
 10
-18.58033499999988
 20
1.042440999999939
 10
-2.851485000000025
 20
1.042440999999939
 10
-3.007518000000004
 20
0.2490954999999531
 10
-18.73636349999992
 20
0.2490954999999531
  0
SOLID
  5
85
330
7C
100
AcDbEntity
  8
02TNR-01
100
AcDbTrace
 10
-18.58033499999988
 20
1.042440999999939
 30
0.0
 11
-2.851485000000025
 21
1.042440999999939
 31
0.0
 12
-18.73636349999992
 22
0.2490954999999531
 32
0.0
 13
-3.007518000000004
 23
0.2490954999999531
 33
0.0
  0
LWPOLYLINE
  5
86
330
7C
100
AcDbEntity
  8
02TNR-01
100
AcDbPolyline
 90
       10
 70
     1
 43
0.0135
 10
-11.77856699999995
 20
5.017749999999921
 10
-10.54581449999989
 20
8.898806499999977
 10
-9.261136499999906
 20
5.017749999999921
 10
-7.710440999999946
 20
9.781211499999926
 10
-8.145149999999944
 20
9.781211499999926
 10
-9.261136499999906
 20
6.108860499999877
 10
-10.54581449999989
 20
9.962876499999879
 10
-11.77856699999995
 20
6.076419999999984
 10
-12.93997200000001
 20
9.781211499999926
 10
-13.38116999999988
 20
9.781211499999926
  0
LWPOLYLINE
  5
87
330
7C
100
AcDbEntity
  8
02TNR-01
100
AcDbPolyline
 90
        3
 70
     1
 43
0.0135
 10
-5.492489999999861
 20
7.075595499999963
 10
-4.668476999999938
 20
9.093458499999883
 10
-3.876899999999977
 20
7.075595499999963
  0
LWPOLYLINE
  5
88
330
7C
100
AcDbEntity
  8
02TNR-01
100
AcDbPolyline
 90
        7
 70
     1
 43
0.0135
 10
-6.68091749999985
 20
5.142102999999906
 10
-6.251608499999974
 20
5.142102999999906
 10
-5.63523449999991
 20
6.712265499999944
 10
-3.740662499999871
 20
6.712265499999944
 10
-3.150221999999985
 20
5.142102999999906
 10
-2.689556999999922
 20
5.142102999999906
 10
-4.642520999999987
 20
9.962876499999879
  0
LWPOLYLINE
  5
89
330
7C
100
AcDbEntity
  8
02TNR-01
100
AcDbPolyline
 90
        8
 70
     1
 43
0.0135
 10
9.602989500000035
 20
0.25
 10
10.95977550000009
 20
0.25
 10
11.15299200000004
 20
0.6921699999999192
 10
12.10610550000001
 20
0.6921699999999192
 10
12.13397400000008
 20
0.25
 10
13.48994549999998
 20
0.25
 10
12.93802049999999
 20
3.762744999999995
 10
11.53292250000004
 20
3.762744999999995
  0
LWPOLYLINE
  5
8A
330
7C
100
AcDbEntity
  8
02TNR-01
100
AcDbPolyline
 90
       34
 70
     1
 43
0.0135
 10
5.958610500000077
 20
2.028489999999919
 10
6.002832000000012
 20
2.028489999999919
 10
5.984831999999983
 20
1.808313999999995
 10
5.984296500000141
 20
1.616523999999913
 10
5.989471500000036
 20
1.448755000000005
 10
6.023982000000046
 20
0.25
 10
7.124483999999938
 20
0.25
 10
8.827589999999986
 20
3.762744999999995
 10
7.560061500000074
 20
3.762744999999995
 10
6.986964000000057
 20
2.215172499999937
 10
6.923703000000045
 20
2.037768999999912
 10
6.849245999999993
 20
1.807953999999881
 10
6.77498700000001
 20
1.522456000000033
 10
6.745525500000098
 20
1.522456000000033
 10
6.772957500000075
 20
1.771742499999959
 10
6.778713000000038
 20
1.970808999999917
 10
6.777399000000059
 20
2.121842499999956
 10
6.759236999999984
 20
3.762744999999995
 10
5.870010000000092
 20
3.762744999999995
 10
5.220007500000065
 20
2.121842499999956
 10
5.160535500000037
 20
1.970808999999917
 10
5.089633500000104
 20
1.771742499999959
 10
5.021067000000016
 20
1.522456000000033
 10
4.991605499999991
 20
1.522456000000033
 10
5.027281500000071
 20
1.807953999999881
 10
5.041321500000094
 20
2.037768999999912
 10
5.046366000000034
 20
2.215172499999937
 10
5.069185500000003
 20
3.762744999999995
 10
3.800842500000044
 20
3.762744999999995
 10
4.152144000000021
 20
0.25
 10
5.252641499999981
 20
0.25
 10
5.748739500000056
 20
1.448755000000005
 10
5.818530000000009
 20
1.616523999999913
 10
5.891844000000105
 20
1.808313999999995
  0
LWPOLYLINE
  5
8B
330
7C
100
AcDbEntity
  8
02TNR-01
100
AcDbPolyline
 90
       10
 70
     1
 43
0.0135
 10
11.52503850000005
 20
1.527360999999928
 10
11.7097500000001
 20
1.925309499999912
 10
11.80413300000009
 20
2.132930500000043
 10
11.9064585000001
 20
2.387495499999999
 10
12.00074700000004
 20
2.696654500000022
 10
12.02531700000008
 20
2.696654500000022
 10
12.00054
 20
2.387495499999999
 10
12.00484200000005
 20
2.132930500000043
 10
12.0192780000001
 20
1.925309499999912
 10
12.05072400000006
 20
1.527360999999928
  0
LWPOLYLINE
  5
8C
330
7C
100
AcDbEntity
  8
02TNR-01
100
AcDbPolyline
 90
       23
 70
     1
 43
0.0135
 10
15.4829145000001
 20
0.25
 10
16.72096350000004
 20
0.25
 10
16.9441905000001
 20
1.409456499999919
 10
17.33508749999998
 20
0.25
 10
18.75
 20
0.25
 10
18.08690700000011
 20
1.679672499999924
 10
18.28812000000016
 20
1.72852899999998
 10
18.47154450000005
 20
1.823235999999951
 10
18.63271650000001
 20
1.959707499999922
 10
18.76716300000009
 20
2.133843999999953
 10
18.87040650000006
 20
2.341550499999925
 10
18.93797400000005
 20
2.578731999999945
 10
18.96510450000016
 20
2.794542999999976
 10
18.9596775
 20
2.99051350000002
 10
18.92170650000003
 20
3.165968499999962
 10
18.85120500000005
 20
3.320228499999871
 10
18.74819550000006
 20
3.452618499999971
 10
18.61269600000003
 20
3.562454499999944
 10
18.44471550000003
 20
3.649065999999947
 10
18.244281
 20
3.711769000000003
 10
18.0113970000001
 20
3.74988849999994
 10
17.74609500000008
 20
3.762744999999995
 10
16.15922399999999
 20
3.762744999999995
  0
LWPOLYLINE
  5
8D
330
7C
100
AcDbEntity
  8
02TNR-01
100
AcDbPolyline
 90
        9
 70
     1
 43
0.0135
 10
17.22322650000001
 20
2.85877599999992
 10
17.41975500000012
 20
2.85877599999992
 10
17.61757050000005
 20
2.816376999999931
 10
17.71967549999999
 20
2.696460999999999
 10
17.72598450000009
 20
2.509958499999925
 10
17.64725700000008
 20
2.32599399999998
 10
17.4988065
 20
2.210816499999964
 10
17.28734250000002
 20
2.1709689999999
 10
17.09081400000002
 20
2.1709689999999
  0
LWPOLYLINE
  5
8E
330
7C
100
AcDbEntity
  8
02TNR-01
100
AcDbPolyline
 90
       12
 70
     1
 43
0.0135
 10
11.24410800000009
 20
5.142102999999906
 10
13.54094850000001
 20
5.142102999999906
 10
13.54094850000001
 20
5.537891499999943
 10
11.66584800000009
 20
5.537891499999943
 10
11.66584800000009
 20
7.536260500000025
 10
13.54094850000001
 20
7.536260500000025
 10
13.54094850000001
 20
7.932049000000006
 10
11.66584800000009
 20
7.932049000000006
 10
11.66584800000009
 20
9.385422999999946
 10
13.54094850000001
 20
9.385422999999946
 10
13.54094850000001
 20
9.781211499999926
 10
11.24410800000009
 20
9.781211499999926
  0
LWPOLYLINE
  5
8F
330
7C
100
AcDbEntity
  8
02TNR-01
100
AcDbPolyline
 90
        8
 70
     1
 43
0.0135
 10
5.275956000000064
 20
5.142102999999906
 10
5.697700499999996
 20
5.142102999999906
 10
5.697700499999996
 20
8.892321999999921
 10
8.954796000000101
 20
5.004762999999968
 10
8.954796000000101
 20
9.781211499999926
 10
8.53306950000001
 20
9.781211499999926
 10
8.53306950000001
 20
6.095873499999925
 10
5.275956000000064
 20
9.975845499999877
  0
LWPOLYLINE
  5
90
330
7C
100
AcDbEntity
  8
02TNR-01
100
AcDbPolyline
 90
       19
 70
     1
 43
0.0135
 10
16.12873200000001
 20
9.411378999999897
 10
16.55045849999999
 20
9.411378999999897
 10
16.80826800000011
 20
9.400875999999925
 10
17.02775099999996
 20
9.367481499999939
 10
17.21013600000015
 20
9.308387499999867
 10
17.35662900000011
 20
9.22078149999993
 10
17.46844950000002
 20
9.101850999999896
 10
17.5468125000001
 20
8.94878349999999
 10
17.59294199999999
 20
8.758757499999887
 10
17.60804850000011
 20
8.528973999999948
 10
17.59214550000013
 20
8.303276499999924
 10
17.54407650000007
 20
8.120009499999923
 10
17.46331950000012
 20
7.975366000000008
 10
17.34933000000001
 20
7.865547999999989
 10
17.20158600000002
 20
7.786752999999976
 10
17.01954750000004
 20
7.735173999999915
 10
16.80267900000001
 20
7.707017500000006
 10
16.55045849999999
 20
7.698476499999969
 10
16.12873200000001
 20
7.698476499999969
  0
LWPOLYLINE
  5
91
330
7C
100
AcDbEntity
  8
02TNR-01
100
AcDbPolyline
 90
       29
 70
     1
 43
0.0135
 10
18.52289400000006
 20
5.142102999999906
 10
16.85541450000005
 20
7.354595499999959
 10
17.09331600000007
 20
7.370502999999985
 10
17.30862750000006
 20
7.417433499999901
 10
17.49991350000005
 20
7.494212500000003
 10
17.66572500000006
 20
7.599674499999991
 10
17.80462199999999
 20
7.732631499999911
 10
17.91516000000001
 20
7.891922499999964
 10
17.99590350000005
 20
8.076364000000012
 10
18.04540800000006
 20
8.284781500000008
 10
18.062229
 20
8.51600499999995
 10
18.04983600000014
 20
8.737044999999966
 10
18.01264350000008
 20
8.936619999999891
 10
17.95061550000002
 20
9.114815499999963
 10
17.86372950000009
 20
9.271716999999853
 10
17.75195399999995
 20
9.407414499999958
 10
17.6152575000001
 20
9.521997999999939
 10
17.45361300000002
 20
9.615548499999931
 10
17.26698900000008
 20
9.688155999999935
 10
17.05535850000001
 20
9.739914999999996
 10
16.81869449999999
 20
9.770901999999978
 10
16.55696100000011
 20
9.781211499999926
 10
16.55696100000011
 20
9.781211499999926
 10
15.70699200000001
 20
9.781211499999926
 10
15.70699200000001
 20
5.142102999999906
 10
16.12873200000001
 20
5.142102999999906
 10
16.12873200000001
 20
7.354595499999959
 10
16.3817805000001
 20
7.354595499999959
 10
18.0103170000001
 20
5.142102999999906
  0
LWPOLYLINE
  5
92
330
7C
100
AcDbEntity
  8
02TNR-01
  6
VERDECKT
100
AcDbPolyline
 90
        4
 70
     1
 43
0.0
 10
-19.0
 20
0.0
 10
19.0
 20
0.0
 10
19.0
 20
10.0
 10
-19.0
 20
10.0
  0
ENDBLK
  5
94
330
7C
100
AcDbEntity
  8
0
100
AcDbBlockEnd
  0
BLOCK
  5
A6
330
A5
100
AcDbEntity
  8
0
100
AcDbBlockBegin
  2
*D29
 70
     1
 10
0.0
 20
0.0
 30
0.0
  3
*D29
  1

  0
LINE
  5
A7
330
A5
100
AcDbEntity
  8
09-01
 62
     4
370
    -2
100
AcDbLine
 10
158.000000230224
 20
276.9842923554577
 30
0.0
 11
158.000000230224
 21
288.8436403242329
 31
0.0
  0
LINE
  5
A8
330
A5
100
AcDbEntity
  8
09-01
 62
     4
370
    -2
100
AcDbLine
 10
133.000000230224
 20
273.4842923554577
 30
0.0
 11
133.000000230224
 21
288.8436403242329
 31
0.0
  0
LINE
  5
A9
330
A5
100
AcDbEntity
  8
09-01
 62
     4
370
    -2
100
AcDbLine
 10
151.750000230224
 20
286.3436403242328
 30
0.0
 11
139.250000230224
 21
286.3436403242328
 31
0.0
  0
SOLID
  5
AA
330
A5
100
AcDbEntity
  8
09-01
 62
     4
100
AcDbTrace
 10
151.750000230224
 20
287.3853069908996
 30
0.0
 11
151.750000230224
 21
285.3019736575662
 31
0.0
 12
158.000000230224
 22
286.3436403242328
 32
0.0
 13
158.000000230224
 23
286.3436403242328
 33
0.0
  0
SOLID
  5
AB
330
A5
100
AcDbEntity
  8
09-01
 62
     4
100
AcDbTrace
 10
139.250000230224
 20
287.3853069908996
 30
0.0
 11
139.250000230224
 21
285.3019736575662
 31
0.0
 12
133.000000230224
 22
286.3436403242328
 32
0.0
 13
133.000000230224
 23
286.3436403242328
 33
0.0
  0
MTEXT
  5
AC
330
A5
100
AcDbEntity
  8
09-01
 62
     1
100
AcDbMText
 10
145.500000230224
 20
291.9686403242329
 30
0.0
 40
6.25
 41
0.0
 46
0.0
 71
     5
 72
     1
  1
25
 73
     1
 44
1.0
  0
POINT
  5
AD
330
A5
100
AcDbEntity
  8
DEFPOINTS
 62
     0
100
AcDbPoint
 10
158.000000230224
 20
274.4842923554577
 30
0.0
  0
POINT
  5
AE
330
A5
100
AcDbEntity
  8
DEFPOINTS
 62
     0
100
AcDbPoint
 10
133.000000230224
 20
270.9842923554577
 30
0.0
  0
POINT
  5
AF
330
A5
100
AcDbEntity
  8
DEFPOINTS
 62
     0
100
AcDbPoint
 10
133.000000230224
 20
286.3436403242328
 30
0.0
  0
ENDBLK
  5
B0
330
A5
100
AcDbEntity
  8
0
100
AcDbBlockEnd
  0
BLOCK
  5
97
330
96
100
AcDbEntity
  8
0
100
AcDbBlockBegin
  2
*D30
 70
     1
 10
0.0
 20
0.0
 30
0.0
  3
*D30
  1

  0
LINE
  5
98
330
96
100
AcDbEntity
  8
09-01
 62
     4
370
    -2
100
AcDbLine
 10
406.0000002302245
 20
276.9842923554572
 30
0.0
 11
406.0000002302245
 21
288.8436403242329
 31
0.0
  0
LINE
  5
99
330
96
100
AcDbEntity
  8
09-01
 62
     4
370
    -2
100
AcDbLine
 10
431.000000230224
 20
279.4419931245379
 30
0.0
 11
431.000000230224
 21
288.8436403242329
 31
0.0
  0
LINE
  5
9A
330
96
100
AcDbEntity
  8
09-01
 62
     4
370
    -2
100
AcDbLine
 10
412.2500002302245
 20
286.3436403242328
 30
0.0
 11
424.750000230224
 21
286.3436403242328
 31
0.0
  0
SOLID
  5
9B
330
96
100
AcDbEntity
  8
09-01
 62
     4
100
AcDbTrace
 10
412.2500002302245
 20
287.3853069908996
 30
0.0
 11
412.2500002302245
 21
285.3019736575662
 31
0.0
 12
406.0000002302245
 22
286.3436403242328
 32
0.0
 13
406.0000002302245
 23
286.3436403242328
 33
0.0
  0
SOLID
  5
9C
330
96
100
AcDbEntity
  8
09-01
 62
     4
100
AcDbTrace
 10
424.750000230224
 20
287.3853069908996
 30
0.0
 11
424.750000230224
 21
285.3019736575662
 31
0.0
 12
431.000000230224
 22
286.3436403242328
 32
0.0
 13
431.000000230224
 23
286.3436403242328
 33
0.0
  0
MTEXT
  5
9D
330
96
100
AcDbEntity
  8
09-01
 62
     1
100
AcDbMText
 10
418.5000002302242
 20
291.9686403242329
 30
0.0
 40
6.25
 41
0.0
 46
0.0
 71
     5
 72
     1
  1
25
 73
     1
 44
1.0
  0
POINT
  5
9E
330
96
100
AcDbEntity
  8
DEFPOINTS
 62
     0
100
AcDbPoint
 10
406.0000002302245
 20
274.4842923554572
 30
0.0
  0
POINT
  5
A0
330
96
100
AcDbEntity
  8
DEFPOINTS
 62
     0
100
AcDbPoint
 10
431.000000230224
 20
276.9419931245379
 30
0.0
  0
POINT
  5
A1
330
96
100
AcDbEntity
  8
DEFPOINTS
 62
     0
100
AcDbPoint
 10
431.000000230224
 20
286.3436403242328
 30
0.0
  0
ENDBLK
  5
A2
330
96
100
AcDbEntity
  8
0
100
AcDbBlockEnd
  0
ENDSEC
  0
SECTION
  2
ENTITIES
  0
INSERT
  5
78
330
2
100
AcDbEntity
  8
01-01
100
AcDbBlockReference
  2
aaaaWagner
 10
282.000000230224
 20
610.9842923554572
 30
0.0
  0
DIMENSION
  5
95
330
2
100
AcDbEntity
  8
09-01
100
AcDbDimension
280
     0
  2
*D30
 10
431.000000230224
 20
286.3436403242328
 30
0.0
 11
418.5000002302242
 21
291.9686403242329
 31
0.0
 71
     5
 42
24.99999999999955
 73
     0
 74
     0
 75
     0
  3
Wagner$0
100
AcDbAlignedDimension
 13
406.0000002302245
 23
274.4842923554572
 33
0.0
 14
431.000000230224
 24
276.9419931245379
 34
0.0
100
AcDbRotatedDimension
1001
ACAD
1000
DSTYLE
1002
{
1070
    40
1040
2.5
1002
}
  0
DIMENSION
  5
A4
330
2
100
AcDbEntity
  8
09-01
100
AcDbDimension
280
     0
  2
*D29
 10
133.000000230224
 20
286.3436403242328
 30
0.0
 11
145.500000230224
 21
291.9686403242329
 31
0.0
 71
     5
 42
25.0
 73
     0
 74
     0
 75
     0
  3
Wagner$0
100
AcDbAlignedDimension
 13
158.000000230224
 23
274.4842923554577
 33
0.0
 14
133.000000230224
 24
270.9842923554577
 34
0.0
100
AcDbRotatedDimension
1001
ACAD
1000
DSTYLE
1002
{
1070
    40
1040
2.5
1002
}
  0
LINE
  5
B1
330
2
100
AcDbEntity
  8
03-01
100
AcDbLine
 10
790.5117548064465
 20
514.4461725708076
 30
0.0
 11
772.444836569243
 21
504.0152324631294
 31
0.0
  0
LINE
  5
B5
330
2
100
AcDbEntity
  8
03-01
100
AcDbLine
 10
772.4448365692394
 20
482.7533522477787
 30
0.0
 11
772.444836569243
 21
504.0152324631285
 31
0.0
  0
LINE
  5
B6
330
2
100
AcDbEntity
  8
03-01
100
AcDbLine
 10
790.4448365692431
 20
482.7533522477787
 30
0.0
 11
772.444836569243
 21
482.7533522477787
 31
0.0
  0
LINE
  5
B7
330
2
100
AcDbEntity
  8
03-01
100
AcDbLine
 10
792.3117548064458
 20
527.7459081212055
 30
0.0
 11
790.3117548064458
 21
523.7459081212055
 31
0.0
  0
LINE
  5
B8
330
2
100
AcDbEntity
  8
03-01
100
AcDbLine
 10
790.3117548064458
 20
523.7459081212055
 30
0.0
 11
790.3117548064458
 21
514.3219412576577
 31
0.0
  0
ARC
  5
B9
330
2
100
AcDbEntity
  8
03-01
100
AcDbCircle
 10
771.2256821798612
 20
528.9069277743715
 30
0.0
 40
1.000000000000178
100
AcDbArc
 50
55.00000000002079
 51
234.9999999999845
  0
LINE
  5
BA
330
2
100
AcDbEntity
  8
03-01
100
AcDbLine
 10
777.5333229262352
 20
525.7110447642035
 30
0.0
 11
771.7992586162124
 21
529.7260798186607
 31
0.0
  0
LINE
  5
BB
330
2
100
AcDbEntity
  8
03-01
100
AcDbLine
 10
790.3117548064458
 20
514.3219412576577
 30
0.0
 11
770.6521057435105
 21
528.0877757300827
 31
0.0
  0
DIMENSION
  5
BC
330
2
100
AcDbEntity
  8
09-01
100
AcDbDimension
280
     0
  2
*D27
 10
164.2500002302249
 20
507.7854061793302
 30
0.0
 11
180.3540189620562
 21
512.7806268840702
 31
0.0
 70
   128
 71
     5
 42
12.5
 73
     0
 74
     0
 75
     0
  3
Wagner$0
100
AcDbAlignedDimension
 13
151.7500002302249
 23
528.9842923554572
 33
0.0
 14
164.2500002302249
 24
528.9842923554572
 34
0.0
100
AcDbRotatedDimension
1001
ACAD
1000
DSTYLE
1002
{
1070
    40
1040
2.5
1002
}
  0
DIMENSION
  5
CB
330
2
100
AcDbEntity
  8
09-01
100
AcDbDimension
280
     0
  2
*D26
 10
187.269745220743
 20
528.9842923554572
 30
0.0
 11
181.5416552266124
 21
549.545917641363
 31
0.0
 70
   128
 71
     5
 42
12.0
 73
     0
 74
     0
 75
     0
  3
Wagner$0
100
AcDbAlignedDimension
 13
161.5000002302249
 23
540.9842923554572
 33
0.0
 14
165.2500002302249
 24
528.9842923554572
 34
0.0
 50
90.0
100
AcDbRotatedDimension
1001
ACAD
1000
DSTYLE
1002
{
1070
    40
1040
2.5
1002
}
  0
DIMENSION
  5
DA
330
2
100
AcDbEntity
  8
09-01
100
AcDbDimension
280
     0
  2
*D25
 10
160.5000002302249
 20
548.0576421535768
 30
0.0
 11
170.0729757891677
 21
553.5973455903929
 31
0.0
 70
   128
 71
     5
 42
5.0
 73
     0
 74
     0
 75
     0
  3
Wagner$0
100
AcDbAlignedDimension
 13
155.5000002302249
 23
540.9842923554572
 33
0.0
 14
160.5000002302249
 24
540.9842923554572
 34
0.0
100
AcDbRotatedDimension
1001
ACAD
1000
DSTYLE
1002
{
1070
    40
1040
2.5
1002
}
  0
DIMENSION
  5
E9
330
2
100
AcDbEntity
  8
09-01
100
AcDbDimension
280
     0
  2
*D24
 10
406.0000002302245
 20
286.3436403242328
 30
0.0
 11
282.0000002302243
 21
291.9686403242329
 31
0.0
 71
     5
 42
248.0000000000004
 73
     0
 74
     0
 75
     0
  3
Wagner$0
100
AcDbAlignedDimension
 13
158.000000230224
 23
274.4842923554577
 33
0.0
 14
406.0000002302245
 24
273.9842923554568
 34
0.0
100
AcDbRotatedDimension
1001
ACAD
1000
DSTYLE
1002
{
1070
    40
1040
2.5
1002
}
  0
DIMENSION
  5
F6
330
2
100
AcDbEntity
  8
09-01
100
AcDbDimension
280
     0
  2
*D23
 10
118.4846896182426
 20
540.9842923554572
 30
0.0
 11
112.8596896182425
 21
405.9842923554574
 31
0.0
 71
     5
 42
269.9999999999995
 73
     0
 74
     0
 75
     0
  3
Wagner$0
100
AcDbAlignedDimension
 13
154.500000230224
 23
270.9842923554577
 33
0.0
 14
154.5000002302249
 24
540.9842923554572
 34
0.0
 50
90.0
100
AcDbRotatedDimension
1001
ACAD
1000
DSTYLE
1002
{
1070
    40
1040
2.5
1002
}
  0
DIMENSION
  5
103
330
2
100
AcDbEntity
  8
09-01
100
AcDbDimension
280
     0
  2
*D22
 10
118.4846896182425
 20
270.9842923554577
 30
0.0
 11
112.8596896182425
 21
245.9842923554575
 31
0.0
 71
     5
 42
50.00000000000056
 73
     0
 74
     0
 75
     0
  3
Wagner$0
100
AcDbAlignedDimension
 13
133.000000230224
 23
220.9842923554572
 33
0.0
 14
154.500000230224
 24
270.9842923554577
 34
0.0
 50
90.0
100
AcDbRotatedDimension
1001
ACAD
1000
DSTYLE
1002
{
1070
    40
1040
2.5
1002
}
  0
DIMENSION
  5
110
330
2
100
AcDbEntity
  8
09-01
100
AcDbDimension
280
     0
  2
*D21
 10
431.000000230224
 20
56.55426834759672
 30
0.0
 11
440.4442444802371
 21
61.51580441870081
 31
0.0
 70
   128
 71
     5
 73
     0
 74
     0
 75
     0
  3
Wagner$0
100
AcDbAlignedDimension
 13
430.0000002302239
 23
71.07426150913832
 33
0.0
 14
431.000000230224
 24
81.07426150913843
 34
0.0
100
AcDbRotatedDimension
1001
ACAD
1000
DSTYLE
1002
{
1070
    40
1040
2.5
1002
}
  0
DIMENSION
  5
11F
330
2
100
AcDbEntity
  8
09-01
100
AcDbDimension
280
     0
  2
*D20
 10
430.0000002302239
 20
56.55426834759672
 30
0.0
 11
282.000000230224
 21
62.17926834759672
 31
0.0
 71
     5
 42
296.0
 73
     0
 74
     0
 75
     0
  3
Wagner$0
100
AcDbAlignedDimension
 13
134.000000230224
 23
71.07426150913832
 33
0.0
 14
430.0000002302239
 24
71.07426150913832
 34
0.0
100
AcDbRotatedDimension
1001
ACAD
1000
DSTYLE
1002
{
1070
    40
1040
2.5
1002
}
  0
DIMENSION
  5
12C
330
2
100
AcDbEntity
  8
09-01
100
AcDbDimension
280
     0
  2
*D19
 10
134.000000230224
 20
56.55426834759672
 30
0.0
 11
124.08376182756
 21
61.05971112860314
 31
0.0
 70
   128
 71
     5
 73
     0
 74
     0
 75
     0
  3
Wagner$0
100
AcDbAlignedDimension
 13
133.000000230224
 23
81.07426150913843
 33
0.0
 14
134.000000230224
 24
71.07426150913832
 34
0.0
100
AcDbRotatedDimension
1001
ACAD
1000
DSTYLE
1002
{
1070
    40
1040
2.5
1002
}
  0
DIMENSION
  5
13B
330
2
100
AcDbEntity
  8
09-01
100
AcDbDimension
280
     0
  2
*D18
 10
453.1776732970865
 20
523.9842923554572
 30
0.0
 11
447.5526732970864
 21
585.4842923554573
 31
0.0
 71
     5
 42
123.0
 73
     0
 74
     0
 75
     0
  3
Wagner$0
100
AcDbAlignedDimension
 13
404.500000230224
 23
646.9842923554572
 33
0.0
 14
404.500000230224
 24
523.9842923554572
 34
0.0
 50
90.0
100
AcDbRotatedDimension
1001
ACAD
1000
DSTYLE
1002
{
1070
    40
1040
2.5
1002
}
  0
DIMENSION
  5
148
330
2
100
AcDbEntity
  8
09-01
100
AcDbDimension
280
     0
  2
*D17
 10
453.1776732970866
 20
646.9842923554572
 30
0.0
 11
447.5526732970864
 21
657.9842923554573
 31
0.0
 71
     5
 42
22.0
 73
     0
 74
     0
 75
     0
  3
Wagner$0
100
AcDbAlignedDimension
 13
431.000000230224
 23
668.9842923554571
 33
0.0
 14
404.500000230224
 24
646.9842923554572
 34
0.0
 50
90.0
100
AcDbRotatedDimension
1001
ACAD
1000
DSTYLE
1002
{
1070
    40
1040
2.5
1002
}
  0
ARC
  5
155
330
2
100
AcDbEntity
  8
03-01
100
AcDbCircle
 10
406.0000002302245
 20
258.9842923554572
 30
0.0
 40
6.25
100
AcDbArc
 50
113.5781784781781
 51
66.42182152182193
  0
LINE
  5
156
330
2
100
AcDbEntity
  8
05-01
100
AcDbLine
 10
413.2500002302244
 20
258.9842923554572
 30
0.0
 11
398.750000230224
 21
258.9842923554572
 31
0.0
  0
LINE
  5
15B
330
2
100
AcDbEntity
  8
05-01
100
AcDbLine
 10
409.5000002302245
 20
270.9842923554572
 30
0.0
 11
402.5000002302244
 21
270.9842923554572
 31
0.0
  0
LINE
  5
15C
330
2
100
AcDbEntity
  8
03-01
100
AcDbLine
 10
408.5000002302244
 20
270.9842923554572
 30
0.0
 11
408.5000002302244
 21
264.7125119741525
 31
0.0
  0
LINE
  5
15D
330
2
100
AcDbEntity
  8
01-01
100
AcDbLine
 10
406.0000002302245
 20
273.4842923554572
 30
0.0
 11
406.0000002302245
 21
273.4842923554572
 31
0.0
  0
ARC
  5
15E
330
2
100
AcDbEntity
  8
03-01
100
AcDbCircle
 10
406.0000002302245
 20
270.9842923554572
 30
0.0
 40
2.5
100
AcDbArc
 50
0.0
 51
180.0
  0
LINE
  5
15F
330
2
100
AcDbEntity
  8
03-01
100
AcDbLine
 10
403.5000002302244
 20
264.712511974152
 30
0.0
 11
403.5000002302244
 21
270.9842923554572
 31
0.0
  0
LINE
  5
160
330
2
100
AcDbEntity
  8
05-01
100
AcDbLine
 10
406.0000002302245
 20
274.4842923554572
 30
0.0
 11
406.0000002302245
 21
251.7342923554573
 31
0.0
  0
LINE
  5
161
330
2
100
AcDbEntity
  8
01-01
100
AcDbLine
 10
406.0000002302245
 20
273.9842923554568
 30
0.0
 11
406.0000002302245
 21
273.9842923554568
 31
0.0
  0
LINE
  5
162
330
2
100
AcDbEntity
  8
01-01
100
AcDbLine
 10
406.0000002302245
 20
258.9842923554568
 30
0.0
 11
406.0000002302245
 21
258.9842923554568
 31
0.0
  0
ARC
  5
163
330
2
100
AcDbEntity
  8
03-01
100
AcDbCircle
 10
158.000000230224
 20
258.9842923554577
 30
0.0
 40
6.25
100
AcDbArc
 50
113.5781784781781
 51
66.42182152182193
  0
LINE
  5
164
330
2
100
AcDbEntity
  8
05-01
100
AcDbLine
 10
150.750000230224
 20
258.9842923554577
 30
0.0
 11
165.250000230224
 21
258.9842923554577
 31
0.0
  0
LINE
  5
165
330
2
100
AcDbEntity
  8
05-01
100
AcDbLine
 10
154.500000230224
 20
270.9842923554577
 30
0.0
 11
161.500000230224
 21
270.9842923554577
 31
0.0
  0
LINE
  5
166
330
2
100
AcDbEntity
  8
03-01
100
AcDbLine
 10
155.500000230224
 20
270.9842923554577
 30
0.0
 11
155.500000230224
 21
264.7125119741529
 31
0.0
  0
ARC
  5
167
330
2
100
AcDbEntity
  8
03-01
100
AcDbCircle
 10
158.000000230224
 20
270.9842923554577
 30
0.0
 40
2.5
100
AcDbArc
 50
0.0
 51
180.0
  0
LINE
  5
168
330
2
100
AcDbEntity
  8
03-01
100
AcDbLine
 10
160.500000230224
 20
264.712511974152
 30
0.0
 11
160.500000230224
 21
270.9842923554577
 31
0.0
  0
LINE
  5
169
330
2
100
AcDbEntity
  8
05-01
100
AcDbLine
 10
158.000000230224
 20
274.4842923554577
 30
0.0
 11
158.000000230224
 21
251.7342923554577
 31
0.0
  0
LINE
  5
16A
330
2
100
AcDbEntity
  8
01-01
100
AcDbLine
 10
158.000000230224
 20
258.9842923554568
 30
0.0
 11
158.000000230224
 21
258.9842923554568
 31
0.0
  0
ARC
  5
16B
330
2
100
AcDbEntity
  8
03-01
100
AcDbCircle
 10
406.0000002302249
 20
528.9842923554568
 30
0.0
 40
6.25
100
AcDbArc
 50
113.5781784781781
 51
66.42182152182193
  0
LINE
  5
16C
330
2
100
AcDbEntity
  8
05-01
100
AcDbLine
 10
413.2500002302249
 20
528.9842923554568
 30
0.0
 11
398.7500002302249
 21
528.9842923554568
 31
0.0
  0
LINE
  5
16D
330
2
100
AcDbEntity
  8
05-01
100
AcDbLine
 10
409.5000002302249
 20
540.9842923554568
 30
0.0
 11
402.5000002302249
 21
540.9842923554568
 31
0.0
  0
LINE
  5
16E
330
2
100
AcDbEntity
  8
03-01
100
AcDbLine
 10
408.5000002302249
 20
540.9842923554568
 30
0.0
 11
408.5000002302249
 21
534.7125119741519
 31
0.0
  0
LINE
  5
16F
330
2
100
AcDbEntity
  8
01-01
100
AcDbLine
 10
406.0000002302249
 20
543.4842923554567
 30
0.0
 11
406.0000002302249
 21
543.4842923554567
 31
0.0
  0
ARC
  5
170
330
2
100
AcDbEntity
  8
03-01
100
AcDbCircle
 10
406.0000002302249
 20
540.9842923554568
 30
0.0
 40
2.5
100
AcDbArc
 50
0.0
 51
180.0
  0
LINE
  5
171
330
2
100
AcDbEntity
  8
03-01
100
AcDbLine
 10
403.5000002302249
 20
534.7125119741515
 30
0.0
 11
403.5000002302249
 21
540.9842923554568
 31
0.0
  0
LINE
  5
172
330
2
100
AcDbEntity
  8
05-01
100
AcDbLine
 10
406.0000002302249
 20
544.4842923554567
 30
0.0
 11
406.0000002302249
 21
521.7342923554567
 31
0.0
  0
LINE
  5
173
330
2
100
AcDbEntity
  8
01-01
100
AcDbLine
 10
406.0000002302249
 20
543.9842923554563
 30
0.0
 11
406.0000002302249
 21
543.9842923554563
 31
0.0
  0
LINE
  5
174
330
2
100
AcDbEntity
  8
01-01
100
AcDbLine
 10
406.0000002302249
 20
528.9842923554563
 30
0.0
 11
406.0000002302249
 21
528.9842923554563
 31
0.0
  0
CIRCLE
  5
175
330
2
100
AcDbEntity
  8
03-01
100
AcDbCircle
 10
282.0000002302249
 20
528.9842923554568
 30
0.0
 40
3.25
  0
LINE
  5
176
330
2
100
AcDbEntity
  8
05-01
100
AcDbLine
 10
282.0000002302249
 20
533.2342923554567
 30
0.0
 11
282.0000002302249
 21
524.7342923554567
 31
0.0
  0
LINE
  5
177
330
2
100
AcDbEntity
  8
05-01
100
AcDbLine
 10
277.7500002302249
 20
528.9842923554568
 30
0.0
 11
286.2500002302249
 21
528.9842923554568
 31
0.0
  0
ARC
  5
178
330
2
100
AcDbEntity
  8
03-01
100
AcDbCircle
 10
158.0000002302249
 20
528.9842923554572
 30
0.0
 40
6.25
100
AcDbArc
 50
113.5781784781781
 51
66.42182152182193
  0
LINE
  5
179
330
2
100
AcDbEntity
  8
05-01
100
AcDbLine
 10
150.7500002302249
 20
528.9842923554572
 30
0.0
 11
165.2500002302249
 21
528.9842923554572
 31
0.0
  0
LINE
  5
17A
330
2
100
AcDbEntity
  8
05-01
100
AcDbLine
 10
154.5000002302249
 20
540.9842923554572
 30
0.0
 11
161.5000002302249
 21
540.9842923554572
 31
0.0
  0
LINE
  5
17B
330
2
100
AcDbEntity
  8
03-01
100
AcDbLine
 10
155.5000002302249
 20
540.9842923554572
 30
0.0
 11
155.5000002302249
 21
534.7125119741524
 31
0.0
  0
ARC
  5
17C
330
2
100
AcDbEntity
  8
03-01
100
AcDbCircle
 10
158.0000002302249
 20
540.9842923554572
 30
0.0
 40
2.5
100
AcDbArc
 50
0.0
 51
180.0
  0
LINE
  5
17D
330
2
100
AcDbEntity
  8
03-01
100
AcDbLine
 10
160.5000002302249
 20
534.7125119741515
 30
0.0
 11
160.5000002302249
 21
540.9842923554572
 31
0.0
  0
LINE
  5
17E
330
2
100
AcDbEntity
  8
05-01
100
AcDbLine
 10
158.0000002302249
 20
544.4842923554572
 30
0.0
 11
158.0000002302249
 21
521.7342923554572
 31
0.0
  0
LINE
  5
17F
330
2
100
AcDbEntity
  8
01-01
100
AcDbLine
 10
158.0000002302249
 20
528.9842923554563
 30
0.0
 11
158.0000002302249
 21
528.9842923554563
 31
0.0
  0
INSERT
  5
180
330
2
100
AcDbEntity
  8
09-01
100
AcDbBlockReference
 66
     1
  2
DIN A3
 10
0.0000005755600796
 20
-0.0000019034490606
 30
0.0
 41
2.5
 42
2.5
 43
2.5
  0
ATTRIB
  5
326
330
180
100
AcDbEntity
  8
06-99
100
AcDbText
 10
813.73861684784
 20
67.9695967432039
 30
0.0
 40
11.25
  1
Hygiene-Abfallbehälter 
 41
0.9
  7
ROMANS8
100
AcDbAttribute
280
     0
  2
TEILE
 70
     0
280
     0
  0
ATTRIB
  5
327
330
180
100
AcDbEntity
  8
06-99
100
AcDbText
 10
754.9926694983156
 20
71.1042136700766
 30
0.0
 40
6.25
  1
Pfrepper
 41
0.9
  7
ROMANS8
100
AcDbAttribute
280
     0
  2
NAME
 70
     0
280
     0
  0
ATTRIB
  5
328
330
180
100
AcDbEntity
  8
06-99
100
AcDbText
 10
721.2328661296322
 20
71.15308793527646
 30
0.0
 40
6.25
  1
17.11.2010
 50
359.9144597696142
 41
0.597920676586648
  7
ROMANS8
 72
     5
 11
749.3493428009941
 21
71.11111116666506
 31
0.0
100
AcDbAttribute
280
     0
  2
DATUM
 70
     0
280
     0
  0
ATTRIB
  5
329
330
180
100
AcDbEntity
  8
06-99
100
AcDbText
 10
1000.868465529183
 20
115.8333333333317
 30
0.0
 40
8.4375
  1
1:2
  7
ROMANS8
100
AcDbAttribute
280
     0
  2
:
 70
     0
280
     0
  0
ATTRIB
  5
32A
330
180
100
AcDbEntity
  8
06-99
100
AcDbText
 10
968.7658599177927
 20
21.23224950072014
 30
0.0
 40
7.4844
  1
728100
  7
ROMANS8
100
AcDbAttribute
280
     0
  2
ID.NR
 70
     0
280
     0
  0
ATTRIB
  5
32B
330
180
100
AcDbEntity
  8
06-99
100
AcDbText
 10
813.749999999897
 20
21.24999999999844
 30
0.0
 40
7.919999999999999
  1

 41
0.9000000000000001
  7
ROMANS8
100
AcDbAttribute
280
     0
  2
SONDER-NR
 70
     0
280
     0
  0
ATTRIB
  5
32C
330
180
100
AcDbEntity
  8
06-99
100
AcDbText
 10
887.5015847170972
 20
21.26099151088496
 30
0.0
 40
7.919999999999999
  1

 41
0.9000000000000001
  7
ROMANS8
100
AcDbAttribute
280
     0
  2
AUFTRAGS.NR.
 70
     0
280
     0
  0
ATTRIB
  5
32D
330
180
100
AcDbEntity
  8
06-99
100
AcDbText
 10
814.3281656391735
 20
96.66666661110951
 30
0.0
 40
7.5
  1

 41
0.9
  7
ROMANS8
100
AcDbAttribute
280
     0
  2
LÄNGE
 70
     0
280
     0
  0
ATTRIB
  5
32E
330
180
100
AcDbEntity
  8
06-99
100
AcDbText
 10
897.9520122793214
 20
96.69525967611043
 30
0.0
 40
7.5
  1

 41
0.9
  7
ROMANS8
100
AcDbAttribute
280
     0
  2
BREITE
 70
     0
280
     0
  0
ATTRIB
  5
32F
330
180
100
AcDbEntity
  8
06-99
100
AcDbText
 10
999.0227303167268
 20
96.66666666666529
 30
0.0
 40
7.734375000000001
  1

  7
ROMANS8
100
AcDbAttribute
280
     0
  2
1.0
 70
     0
280
     0
  0
ATTRIB
  5
330
330
180
100
AcDbEntity
  8
06-99
100
AcDbText
 10
932.8194640034039
 20
115.833333333332
 30
0.0
 40
7.5
  1

  7
ROMANS8
 72
     1
 11
932.8194640034039
 21
115.833333333332
 31
0.0
100
AcDbAttribute
280
     0
  2
IV
 70
     0
280
     0
  0
ATTRIB
  5
331
330
180
100
AcDbEntity
  8
06-99
100
AcDbText
 10
576.2486694503934
 20
18.99364099467945
 30
0.0
 40
3.75
  1

 41
0.9
  7
ROMANS8
100
AcDbAttribute
280
     0
  2
ERSETZT.FÜR
 70
     0
280
     0
  0
ATTRIB
  5
332
330
180
100
AcDbEntity
  8
06-99
100
AcDbText
 10
638.7493774874179
 20
19.00452517314804
 30
0.0
 40
3.75
  1

 41
0.9
  7
ROMANS8
100
AcDbAttribute
280
     0
  2
ERSETZT.DURCH
 70
     0
280
     0
  0
ATTRIB
  5
333
330
180
100
AcDbEntity
  8
06-99
100
AcDbText
 10
830.6868513401866
 20
115.8333333333314
 30
0.0
 40
8.4375
  1
1.4301
  7
ROMANS8
100
AcDbAttribute
280
     0
  2
1.4301
 70
     0
280
     0
  0
ATTRIB
  5
334
330
180
100
AcDbEntity
  8
06-99
100
AcDbText
 10
772.5092887588481
 20
121.6712778500184
 30
0.0
 40
3.2175
  1
DIN A3
  7
ROMANS8
 72
     1
 11
780.6296459017053
 21
121.6712778500184
 31
0.0
100
AcDbAttribute
280
     0
  2
FORMAT
 70
     0
280
     0
  0
ATTRIB
  5
335
330
180
100
AcDbEntity
  8
06-99
100
AcDbText
 10
754.5392857141827
 20
105.5749999999983
 30
0.0
 40
5.85
  1
DIN 6930-M
  7
ROMANS8
 72
     1
 11
781.2821428570398
 21
105.5749999999983
 31
0.0
100
AcDbAttribute
280
     0
  2
NORM1
 70
     0
280
     0
  0
ATTRIB
  5
336
330
180
100
AcDbEntity
  8
06-99
100
AcDbText
 10
762.4785714284684
 20
95.99166666666508
 30
0.0
 40
5.85
  1
DIN 2768
  7
ROMANS8
 72
     1
 11
782.5357142856113
 21
95.99166666666508
 31
0.0
100
AcDbAttribute
280
     0
  2
NORM2
 70
     0
280
     0
  0
ATTRIB
  5
337
330
180
100
AcDbEntity
  8
06-99
100
AcDbText
 10
813.73861684784
 20
49.72943400885611
 30
0.0
 40
11.25
  1
WP 137
 41
0.9
  7
ROMANS8
100
AcDbAttribute
280
     0
  2
TEILE2
 70
     0
280
     0
  0
SEQEND
  5
338
330
180
100
AcDbEntity
  8
09-01
  0
LINE
  5
339
330
2
100
AcDbEntity
  8
0
100
AcDbLine
 10
395.5120073351104
 20
71.07426150913832
 30
0.0
 11
395.5120073351104
 21
69.27426150913834
 31
0.0
  0
LINE
  5
33A
330
2
100
AcDbEntity
  8
0
100
AcDbLine
 10
412.5120073351103
 20
69.27426150913833
 30
0.0
 11
412.5120073351103
 21
71.07426150913832
 31
0.0
  0
LINE
  5
33B
330
2
100
AcDbEntity
  8
0
100
AcDbLine
 10
395.5120073351104
 20
69.27426150913834
 30
0.0
 11
412.5120073351103
 21
69.27426150913833
 31
0.0
  0
LINE
  5
33C
330
2
100
AcDbEntity
  8
0
100
AcDbLine
 10
396.7620073351104
 20
67.77426150913832
 30
0.0
 11
395.5120073351104
 21
69.27426150913834
 31
0.0
  0
LINE
  5
33D
330
2
100
AcDbEntity
  8
0
100
AcDbLine
 10
411.2620073351104
 20
67.77426150913832
 30
0.0
 11
412.5120073351103
 21
69.27426150913833
 31
0.0
  0
LINE
  5
33E
330
2
100
AcDbEntity
  8
0
100
AcDbLine
 10
411.2620073351104
 20
67.77426150913832
 30
0.0
 11
396.7620073351104
 21
67.77426150913832
 31
0.0
  0
LINE
  5
33F
330
2
100
AcDbEntity
  8
0
100
AcDbLine
 10
792.3117548064458
 20
435.4842923554571
 30
0.0
 11
794.1117548064458
 21
435.4842923554571
 31
0.0
  0
LINE
  5
340
330
2
100
AcDbEntity
  8
0
100
AcDbLine
 10
794.1117548064458
 20
452.4842923554571
 30
0.0
 11
792.3117548064458
 21
452.4842923554571
 31
0.0
  0
LINE
  5
341
330
2
100
AcDbEntity
  8
0
100
AcDbLine
 10
794.1117548064458
 20
435.4842923554571
 30
0.0
 11
794.1117548064458
 21
452.4842923554571
 31
0.0
  0
LINE
  5
342
330
2
100
AcDbEntity
  8
0
100
AcDbLine
 10
795.6117548064457
 20
436.7342923554571
 30
0.0
 11
794.1117548064458
 21
435.4842923554571
 31
0.0
  0
LINE
  5
343
330
2
100
AcDbEntity
  8
0
100
AcDbLine
 10
795.6117548064457
 20
451.234292355457
 30
0.0
 11
794.1117548064458
 21
452.4842923554571
 31
0.0
  0
LINE
  5
344
330
2
100
AcDbEntity
  8
0
100
AcDbLine
 10
795.6117548064457
 20
451.234292355457
 30
0.0
 11
795.6117548064457
 21
436.7342923554571
 31
0.0
  0
LINE
  5
345
330
2
100
AcDbEntity
  8
05-01
100
AcDbLine
 10
393.500000230224
 20
443.9842923554571
 30
0.0
 11
414.500000230224
 21
443.9842923554571
 31
0.0
  0
LINE
  5
346
330
2
100
AcDbEntity
  8
05-01
100
AcDbLine
 10
404.000000230224
 20
454.4842923554571
 30
0.0
 11
404.000000230224
 21
433.4842923554571
 31
0.0
  0
CIRCLE
  5
347
330
2
100
AcDbEntity
  8
0
100
AcDbCircle
 10
404.000000230224
 20
443.9842923554571
 30
0.0
 40
8.5
  0
LINE
  5
348
330
2
100
AcDbEntity
  8
0
100
AcDbLine
 10
400.8045720681799
 20
445.2342923554571
 30
0.0
 11
400.8045720681799
 21
442.734292355457
 31
0.0
  0
LINE
  5
349
330
2
100
AcDbEntity
  8
0
100
AcDbLine
 10
408.800000230224
 20
445.2342923554571
 30
0.0
 11
408.800000230224
 21
442.734292355457
 31
0.0
  0
LWPOLYLINE
  5
34A
330
2
100
AcDbEntity
  8
0
100
AcDbPolyline
 90
        2
 70
     0
 43
0.0
 10
406.9986087041099
 20
445.2342923554571
 10
408.800000230224
 20
445.2342923554571
  0
LWPOLYLINE
  5
34B
330
2
100
AcDbEntity
  8
0
100
AcDbPolyline
 90
        2
 70
     0
 43
0.0
 10
400.8045720681799
 20
445.2342923554571
 10
402.6684816851877
 20
445.2342923554571
  0
LWPOLYLINE
  5
34C
330
2
100
AcDbEntity
  8
0
100
AcDbPolyline
 90
        2
 70
     0
 43
0.0
 10
406.9986087041099
 20
442.734292355457
 10
408.800000230224
 20
442.734292355457
  0
LWPOLYLINE
  5
34D
330
2
100
AcDbEntity
  8
0
100
AcDbPolyline
 90
        2
 70
     0
 43
0.0
 10
400.8045720681799
 20
442.734292355457
 10
402.6684816851877
 20
442.734292355457
  0
ARC
  5
34E
330
2
100
AcDbEntity
  8
0
100
AcDbCircle
 10
404.8335451946488
 20
443.9842923554571
 30
0.0
 40
2.5
100
AcDbArc
 50
210.0000000000005
 51
329.9999999999995
  0
ARC
  5
34F
330
2
100
AcDbEntity
  8
0
100
AcDbCircle
 10
404.8335451946488
 20
443.9842923554571
 30
0.0
 40
2.5
100
AcDbArc
 50
30.00000000000055
 51
149.9999999999994
  0
CIRCLE
  5
350
330
2
100
AcDbEntity
  8
0
100
AcDbCircle
 10
404.000000230224
 20
443.9842923554571
 30
0.0
 40
7.25
  0
INSERT
  5
351
330
2
100
AcDbEntity
  8
05-01
100
AcDbBlockReference
  2
Behaelter01-d
 10
282.000000230224
 20
184.0742615091384
 30
0.0
  0
INSERT
  5
365
330
2
100
AcDbEntity
  8
05-01
100
AcDbBlockReference
  2
Behaelter01-s
 10
727.3117548064456
 20
235.9842923554572
 30
0.0
  0
INSERT
  5
377
330
2
100
AcDbEntity
  8
05-01
100
AcDbBlockReference
  2
Behaelter01-v
 10
282.000000230224
 20
235.9842923554571
 30
0.0
  0
DIMENSION
  5
392
330
2
100
AcDbEntity
  8
09-01
100
AcDbDimension
280
     0
  2
*D16
 10
431.000000230224
 20
680.8565606473711
 30
0.0
 11
417.750000230224
 21
686.4815606473711
 31
0.0
 71
     5
 42
26.5
 73
     0
 74
     0
 75
     0
  3
Wagner$0
100
AcDbAlignedDimension
 13
404.500000230224
 23
646.9842923554572
 33
0.0
 14
431.000000230224
 24
671.4842923554571
 34
0.0
100
AcDbRotatedDimension
1001
ACAD
1000
DSTYLE
1002
{
1070
    40
1040
2.5
1002
}
  0
DIMENSION
  5
39F
330
2
100
AcDbEntity
  8
09-01
100
AcDbDimension
280
     0
  2
*D15
 10
404.500000230224
 20
680.8565606473711
 30
0.0
 11
282.000000230224
 21
686.4815606473711
 31
0.0
 71
     5
 42
245.0
 73
     0
 74
     0
 75
     0
  3
Wagner$0
100
AcDbAlignedDimension
 13
159.500000230224
 23
646.9842923554572
 33
0.0
 14
404.500000230224
 24
646.9842923554572
 34
0.0
100
AcDbRotatedDimension
1001
ACAD
1000
DSTYLE
1002
{
1070
    40
1040
2.5
1002
}
  0
DIMENSION
  5
3AC
330
2
100
AcDbEntity
  8
09-01
100
AcDbDimension
280
     0
  2
*D14
 10
159.500000230224
 20
680.8565606473711
 30
0.0
 11
146.250000230224
 21
686.4815606473711
 31
0.0
 71
     5
 42
26.5
 73
     0
 74
     0
 75
     0
  3
Wagner$0
100
AcDbAlignedDimension
 13
133.000000230224
 23
671.4842923554571
 33
0.0
 14
159.500000230224
 24
646.9842923554572
 34
0.0
100
AcDbRotatedDimension
1001
ACAD
1000
DSTYLE
1002
{
1070
    40
1040
2.5
1002
}
  0
DIMENSION
  5
3B9
330
2
100
AcDbEntity
  8
01-01
100
AcDbDimension
280
     0
  2
*D13
 10
457.4149902705873
 20
71.07426150913832
 30
0.0
 11
451.7899902705873
 21
131.0742615091384
 31
0.0
 71
     5
 42
120.0000000000001
 73
     0
 74
     0
 75
     0
  3
Wagner$0
100
AcDbAlignedDimension
 13
431.000000230224
 23
191.0742615091384
 33
0.0
 14
430.0000002302239
 24
71.07426150913832
 34
0.0
 50
90.0
100
AcDbRotatedDimension
1001
ACAD
1000
DSTYLE
1002
{
1070
    40
1040
2.5
1002
}
  0
DIMENSION
  5
3C6
330
2
100
AcDbEntity
  8
09-01
100
AcDbDimension
280
     0
  2
*D12
 10
792.3117548064457
 20
694.60856486102
 30
0.0
 11
787.3117548064458
 21
700.2335648610199
 31
0.0
 71
     5
 42
9.999999999999886
 73
     0
 74
     0
 75
     0
  3
Wagner$0
100
AcDbAlignedDimension
 13
782.3117548064458
 23
668.9842923554571
 33
0.0
 14
792.3117548064457
 24
667.9842923554572
 34
0.0
100
AcDbRotatedDimension
1001
ACAD
1000
DSTYLE
1002
{
1070
    40
1040
2.5
1002
}
  0
DIMENSION
  5
3D5
330
2
100
AcDbEntity
  8
09-01
100
AcDbDimension
280
     0
  2
*D11
 10
816.3436189724475
 20
668.9842923554571
 30
0.0
 11
809.7162399605741
 21
677.775210216587
 31
0.0
 70
   128
 71
     5
 42
0.9999999999998863
 73
     0
 74
     0
 75
     0
  3
Wagner$0
100
AcDbAlignedDimension
 13
794.8117548064457
 23
667.9842923554572
 33
0.0
 14
784.8117548064458
 24
668.9842923554571
 34
0.0
 50
90.0
100
AcDbRotatedDimension
1001
ACAD
1000
DSTYLE
1002
{
1070
    40
1040
2.5
1002
}
  0
DIMENSION
  5
3E4
330
2
100
AcDbEntity
  8
09-01
100
AcDbDimension
280
     0
  2
*D10
 10
816.3436189724475
 20
667.9842923554572
 30
0.0
 11
810.7186189724474
 21
444.9842923554575
 31
0.0
 71
     5
 42
445.9999999999998
 73
     0
 74
     0
 75
     0
  3
Wagner$0
100
AcDbAlignedDimension
 13
794.8117548064458
 23
221.9842923554575
 33
0.0
 14
792.3117548064457
 24
667.9842923554572
 34
0.0
 50
90.0
100
AcDbRotatedDimension
1001
ACAD
1000
DSTYLE
1002
{
1070
    40
1040
2.5
1002
}
  0
DIMENSION
  5
3F1
330
2
100
AcDbEntity
  8
09-01
100
AcDbDimension
280
     0
  2
*D9
 10
816.3436189724475
 20
220.9842923554572
 30
0.0
 11
809.7162399605741
 21
210.8508337446945
 31
0.0
 70
   128
 71
     5
 42
1.000000000000341
 73
     0
 74
     0
 75
     0
  3
Wagner$0
100
AcDbAlignedDimension
 13
792.3117548064458
 23
221.9842923554575
 33
0.0
 14
784.8117548064458
 24
220.9842923554572
 34
0.0
 50
90.0
100
AcDbRotatedDimension
1001
ACAD
1000
DSTYLE
1002
{
1070
    40
1040
2.5
1002
}
  0
DIMENSION
  5
400
330
2
100
AcDbEntity
  8
01-01
100
AcDbDimension
280
     0
  2
*D8
 10
832.3103523096536
 20
668.9842923554571
 30
0.0
 11
826.6853523096536
 21
444.9842923554572
 31
0.0
 71
     5
 42
448.0
 73
     0
 74
     0
 75
     0
  3
Wagner$0
100
AcDbAlignedDimension
 13
782.3117548064458
 23
220.9842923554572
 33
0.0
 14
782.3117548064458
 24
668.9842923554571
 34
0.0
 50
90.0
100
AcDbRotatedDimension
1001
ACAD
1000
DSTYLE
1002
{
1070
    40
1040
2.5
1002
}
  0
LINE
  5
40D
330
2
100
AcDbEntity
  8
03-01
100
AcDbLine
 10
150.000000230224
 20
477.1842923554571
 30
0.0
 11
414.000000230224
 21
477.184292355457
 31
0.0
  0
LINE
  5
40E
330
2
100
AcDbEntity
  8
0
100
AcDbLine
 10
792.3117548064458
 20
667.9842923554573
 30
0.0
 11
792.3117548064458
 21
221.9842923554575
 31
0.0
  0
LINE
  5
40F
330
2
100
AcDbEntity
  8
0
100
AcDbLine
 10
782.3117548064458
 20
221.9842923554575
 30
0.0
 11
792.3117548064458
 21
221.9842923554575
 31
0.0
  0
LINE
  5
410
330
2
100
AcDbEntity
  8
0
100
AcDbLine
 10
782.3117548064458
 20
667.9842923554572
 30
0.0
 11
792.3117548064457
 21
667.9842923554572
 31
0.0
  0
LINE
  5
411
330
2
100
AcDbEntity
  8
0
100
AcDbLine
 10
134.000000230224
 20
221.9842923554571
 30
0.0
 11
430.000000230224
 21
221.9842923554571
 31
0.0
  0
LINE
  5
412
330
2
100
AcDbEntity
  8
0
100
AcDbLine
 10
134.000000230224
 20
667.9842923554572
 30
0.0
 11
134.000000230224
 21
221.9842923554571
 31
0.0
  0
LINE
  5
413
330
2
100
AcDbEntity
  8
0
100
AcDbLine
 10
430.0000002302239
 20
667.9842923554572
 30
0.0
 11
430.000000230224
 21
221.9842923554571
 31
0.0
  0
LINE
  5
414
330
2
100
AcDbEntity
  8
0
100
AcDbLine
 10
159.500000230224
 20
524.9942923554572
 30
0.0
 11
404.500000230224
 21
524.9942923554572
 31
0.0
  0
LINE
  5
415
330
2
100
AcDbEntity
  8
0
100
AcDbLine
 10
404.500000230224
 20
646.9842923554572
 30
0.0
 11
404.500000230224
 21
523.9842923554572
 31
0.0
  0
LINE
  5
416
330
2
100
AcDbEntity
  8
0
100
AcDbLine
 10
159.500000230224
 20
646.9842923554572
 30
0.0
 11
159.500000230224
 21
523.9842923554572
 31
0.0
  0
LINE
  5
417
330
2
100
AcDbEntity
  8
0
100
AcDbLine
 10
133.000000230224
 20
668.9842923554571
 30
0.0
 11
431.000000230224
 21
668.9842923554571
 31
0.0
  0
LINE
  5
418
330
2
100
AcDbEntity
  8
0
100
AcDbLine
 10
159.500000230224
 20
646.9842923554572
 30
0.0
 11
404.500000230224
 21
646.9842923554572
 31
0.0
  0
LINE
  5
419
330
2
100
AcDbEntity
  8
0
100
AcDbLine
 10
159.500000230224
 20
523.9842923554572
 30
0.0
 11
404.500000230224
 21
523.9842923554572
 31
0.0
  0
LINE
  5
41A
330
2
100
AcDbEntity
  8
0
100
AcDbLine
 10
134.000000230224
 20
667.9842923554572
 30
0.0
 11
430.0000002302239
 21
667.9842923554572
 31
0.0
  0
LINE
  5
41B
330
2
100
AcDbEntity
  8
0
100
AcDbLine
 10
134.000000230224
 20
71.07426150913832
 30
0.0
 11
430.0000002302239
 21
71.07426150913832
 31
0.0
  0
LINE
  5
41C
330
2
100
AcDbEntity
  8
0
100
AcDbLine
 10
134.000000230224
 20
81.07426150913832
 30
0.0
 11
134.000000230224
 21
71.07426150913832
 31
0.0
  0
LINE
  5
41D
330
2
100
AcDbEntity
  8
0
100
AcDbLine
 10
430.0000002302239
 20
81.07426150913832
 30
0.0
 11
430.0000002302239
 21
71.07426150913832
 31
0.0
  0
DIMENSION
  5
41E
330
2
100
AcDbEntity
  8
09-01
100
AcDbDimension
280
     0
  2
*D7
 10
672.3117548064458
 20
681.604963728051
 30
0.0
 11
714.8117548064458
 21
687.229963728051
 31
0.0
 71
     5
 42
84.99999999999989
 73
     0
 74
     0
 75
     0
  3
Wagner$0
100
AcDbAlignedDimension
 13
757.3117548064457
 23
671.4842923554571
 33
0.0
 14
672.3117548064458
 24
671.4842923554571
 34
0.0
100
AcDbRotatedDimension
1001
ACAD
1000
DSTYLE
1002
{
1070
    40
1040
2.5
1002
}
  0
DIMENSION
  5
42B
330
2
100
AcDbEntity
  8
09-01
100
AcDbDimension
280
     0
  2
*D6
 10
782.3117548064458
 20
694.60856486102
 30
0.0
 11
727.3117548064458
 21
700.2335648610199
 31
0.0
 71
     5
 42
110.0
 73
     0
 74
     0
 75
     0
  3
Wagner$0
100
AcDbAlignedDimension
 13
672.3117548064458
 23
668.9842923554571
 33
0.0
 14
782.3117548064458
 24
668.9842923554571
 34
0.0
100
AcDbRotatedDimension
1001
ACAD
1000
DSTYLE
1002
{
1070
    40
1040
2.5
1002
}
  0
DIMENSION
  5
438
330
2
100
AcDbEntity
  8
01-01
100
AcDbDimension
280
     0
  2
*D5
 10
133.000000230224
 20
694.5081060382679
 30
0.0
 11
282.000000230224
 21
700.1331060382678
 31
0.0
 71
     5
 42
298.0
 73
     0
 74
     0
 75
     0
  3
Wagner$0
100
AcDbAlignedDimension
 13
431.000000230224
 23
668.9842923554571
 33
0.0
 14
133.000000230224
 24
668.9842923554571
 34
0.0
100
AcDbRotatedDimension
1001
ACAD
1000
DSTYLE
1002
{
1070
    40
1040
2.5
1002
}
  0
LINE
  5
445
330
2
100
AcDbEntity
  8
05-01
100
AcDbLine
 10
406.000000230224
 20
185.2304376530936
 30
0.0
 11
406.000000230224
 21
196.2304376530936
 31
0.0
  0
LINE
  5
446
330
2
100
AcDbEntity
  8
05-01
100
AcDbLine
 10
158.000000230224
 20
185.2304376530936
 30
0.0
 11
158.000000230224
 21
196.2304376530936
 31
0.0
  0
LINE
  5
447
330
2
100
AcDbEntity
  8
0
100
AcDbLine
 10
429.000000230224
 20
152.0742615091384
 30
0.0
 11
135.000000230224
 21
152.0742615091384
 31
0.0
  0
LINE
  5
448
330
2
100
AcDbEntity
  8
0
100
AcDbLine
 10
429.000000230224
 20
106.0742615091384
 30
0.0
 11
429.000000230224
 21
189.0742615091384
 31
0.0
  0
LINE
  5
449
330
2
100
AcDbEntity
  8
0
100
AcDbLine
 10
135.000000230224
 20
189.0742615091384
 30
0.0
 11
135.000000230224
 21
106.0742615091384
 31
0.0
  0
LINE
  5
44A
330
2
100
AcDbEntity
  8
0
100
AcDbLine
 10
429.000000230224
 20
189.0742615091384
 30
0.0
 11
135.000000230224
 21
189.0742615091384
 31
0.0
  0
LINE
  5
44B
330
2
100
AcDbEntity
  8
0
100
AcDbLine
 10
135.000000230224
 20
106.0742615091384
 30
0.0
 11
429.000000230224
 21
106.0742615091384
 31
0.0
  0
LINE
  5
44C
330
2
100
AcDbEntity
  8
0
100
AcDbLine
 10
133.000000230224
 20
191.0742615091384
 30
0.0
 11
133.000000230224
 21
81.07426150913843
 31
0.0
  0
LINE
  5
44D
330
2
100
AcDbEntity
  8
0
100
AcDbLine
 10
431.000000230224
 20
191.0742615091384
 30
0.0
 11
133.000000230224
 21
191.0742615091384
 31
0.0
  0
LINE
  5
44E
330
2
100
AcDbEntity
  8
0
100
AcDbLine
 10
431.000000230224
 20
81.07426150913843
 30
0.0
 11
431.000000230224
 21
191.0742615091384
 31
0.0
  0
LINE
  5
44F
330
2
100
AcDbEntity
  8
0
100
AcDbLine
 10
133.000000230224
 20
81.07426150913843
 30
0.0
 11
431.000000230224
 21
81.07426150913843
 31
0.0
  0
LINE
  5
450
330
2
100
AcDbEntity
  8
05-01
100
AcDbLine
 10
679.1094611313301
 20
540.984292355457
 30
0.0
 11
668.1094611313301
 21
540.984292355457
 31
0.0
  0
LINE
  5
451
330
2
100
AcDbEntity
  8
05-01
100
AcDbLine
 10
679.1094611313301
 20
270.9842923554571
 30
0.0
 11
668.1094611313301
 21
270.9842923554571
 31
0.0
  0
LINE
  5
452
330
2
100
AcDbEntity
  8
03-01
100
AcDbLine
 10
134.000000230224
 20
569.984292355457
 30
0.0
 11
430.000000230224
 21
569.984292355457
 31
0.0
  0
DIMENSION
  5
453
330
2
100
AcDbEntity
  8
09-01
100
AcDbDimension
280
     0
  2
*D4
 10
782.3117548064458
 20
681.604963728051
 30
0.0
 11
769.8117548064458
 21
687.229963728051
 31
0.0
 71
     5
 42
25.00000000000011
 73
     0
 74
     0
 75
     0
  3
Wagner$0
100
AcDbAlignedDimension
 13
757.3117548064457
 23
668.9842923554571
 33
0.0
 14
782.3117548064458
 24
668.9842923554571
 34
0.0
100
AcDbRotatedDimension
1001
ACAD
1000
DSTYLE
1002
{
1070
    40
1040
2.5
1002
}
  0
LINE
  5
460
330
2
100
AcDbEntity
  8
03-01
100
AcDbLine
 10
711.1472966491009
 20
569.984292355457
 30
0.0
 11
673.3117548064458
 21
569.984292355457
 31
0.0
  0
LINE
  5
461
330
2
100
AcDbEntity
  8
03-01
100
AcDbLine
 10
711.1472966491009
 20
569.984292355457
 30
0.0
 11
757.3117548064457
 21
668.9842923554571
 31
0.0
  0
LINE
  5
462
330
2
100
AcDbEntity
  8
0
100
AcDbLine
 10
672.3117548064458
 20
220.9842923554572
 30
0.0
 11
672.3117548064458
 21
668.9842923554571
 31
0.0
  0
LINE
  5
463
330
2
100
AcDbEntity
  8
0
100
AcDbLine
 10
672.3117548064458
 20
220.9842923554572
 30
0.0
 11
782.3117548064458
 21
220.9842923554572
 31
0.0
  0
LINE
  5
464
330
2
100
AcDbEntity
  8
0
100
AcDbLine
 10
782.3117548064458
 20
220.9842923554572
 30
0.0
 11
782.3117548064458
 21
668.9842923554571
 31
0.0
  0
LINE
  5
465
330
2
100
AcDbEntity
  8
0
100
AcDbLine
 10
782.3117548064458
 20
668.9842923554571
 30
0.0
 11
672.3117548064458
 21
668.9842923554571
 31
0.0
  0
LINE
  5
466
330
2
100
AcDbEntity
  8
03-01
100
AcDbLine
 10
673.3117548064458
 20
235.9842923554571
 30
0.0
 11
781.3117548064458
 21
235.9842923554571
 31
0.0
  0
LINE
  5
467
330
2
100
AcDbEntity
  8
03-01
100
AcDbLine
 10
134.000000230224
 20
235.9842923554571
 30
0.0
 11
430.0000002302239
 21
235.9842923554572
 31
0.0
  0
LINE
  5
468
330
2
100
AcDbEntity
  8
03-01
100
AcDbLine
 10
430.0000002302239
 20
667.9842923554571
 30
0.0
 11
134.000000230224
 21
667.9842923554571
 31
0.0
  0
LINE
  5
469
330
2
100
AcDbEntity
  8
0
100
AcDbLine
 10
133.000000230224
 20
668.9842923554571
 30
0.0
 11
133.000000230224
 21
220.9842923554572
 31
0.0
  0
LINE
  5
46A
330
2
100
AcDbEntity
  8
01-01
100
AcDbLine
 10
431.000000230224
 20
668.9842923554571
 30
0.0
 11
133.000000230224
 21
668.9842923554571
 31
0.0
  0
LINE
  5
46B
330
2
100
AcDbEntity
  8
0
100
AcDbLine
 10
431.000000230224
 20
220.9842923554572
 30
0.0
 11
431.000000230224
 21
668.9842923554571
 31
0.0
  0
LINE
  5
46C
330
2
100
AcDbEntity
  8
0
100
AcDbLine
 10
133.000000230224
 20
220.9842923554572
 30
0.0
 11
431.000000230224
 21
220.9842923554572
 31
0.0
  0
ENDSEC
  0
SECTION
  2
OBJECTS
  0
DICTIONARY
  5
B
330
0
100
AcDbDictionary
281
     1
  3
ACAD_COLOR
350
4A
  3
ACAD_GROUP
350
37
  3
ACAD_LAYOUT
350
18
  3
ACAD_MATERIAL
350
D
  3
ACAD_MLEADERSTYLE
350
4D
  3
ACAD_MLINESTYLE
350
38
  3
ACAD_PLOTSETTINGS
350
39
  3
ACAD_PLOTSTYLENAME
350
A
  3
ACAD_SCALELIST
350
4B
  3
ACAD_TABLESTYLE
350
4C
  3
ACAD_VISUALSTYLE
350
2E
  3
ACDB_RECOMPOSE_DATA
350
479
  3
AcDbVariableDictionary
350
470
  0
DICTIONARY
  5
1E
330
1D
100
AcDbDictionary
280
     1
281
     1
  3
ACAD_LAYERFILTERS
360
1F
  3
ACAD_LAYERSTATES
360
20
  3
ACLYDICTIONARY
360
21
  0
DICTIONARY
  5
7
330
6
100
AcDbDictionary
280
     1
281
     1
  3
ADSK_XREC_LAYER_RECONCILED
360
8
  0
DICTIONARY
  5
7A
330
79
100
AcDbDictionary
280
     1
281
     1
  3
ADSK_XREC_LAYER_RECONCILED
360
7B
  0
DICTIONARY
  5
B3
330
B2
100
AcDbDictionary
280
     1
281
     1
  3
ADSK_XREC_LAYER_RECONCILED
360
B4
  0
DICTIONARY
  5
158
330
157
100
AcDbDictionary
280
     1
281
     1
  3
ADSK_XREC_LAYER_RECONCILED
360
159
  0
DICTIONARY
  5
4F
330
4E
100
AcDbDictionary
280
     1
281
     1
  3
ADSK_XREC_LAYER_RECONCILED
360
50
  0
DICTIONARY
  5
187
330
186
100
AcDbDictionary
280
     1
281
     1
  3
ADSK_XREC_LAYER_RECONCILED
360
188
  0
DICTIONARY
  5
1C5
330
1C4
100
AcDbDictionary
280
     1
281
     1
  3
ADSK_XREC_LAYER_RECONCILED
360
1C6
  0
DICTIONARY
  5
18C
330
18B
100
AcDbDictionary
280
     1
281
     1
  3
ADSK_XREC_LAYER_RECONCILED
360
18D
  0
DICTIONARY
  5
82
330
81
100
AcDbDictionary
280
     1
281
     1
  0
DICTIONARY
  5
3
330
2
100
AcDbDictionary
280
     1
281
     1
  3
ACAD_SORTENTS
360
46F
  0
DICTIONARY
  5
182
330
181
100
AcDbDictionary
280
     1
281
     1
  3
ACAD_SORTENTS
360
46D
  0
DICTIONARY
  5
7D
330
7C
100
AcDbDictionary
280
     1
281
     1
  3
ACAD_SORTENTS
360
46E
  0
DICTIONARY
  5
4A
102
{ACAD_REACTORS
330
B
102
}
330
B
100
AcDbDictionary
281
     1
  0
DICTIONARY
  5
37
102
{ACAD_REACTORS
330
B
102
}
330
B
100
AcDbDictionary
281
     1
  0
DICTIONARY
  5
18
102
{ACAD_REACTORS
330
B
102
}
330
B
100
AcDbDictionary
281
     1
  3
Layout1
350
1C
  3
Model
350
17
  0
DICTIONARY
  5
D
102
{ACAD_REACTORS
330
B
102
}
330
B
100
AcDbDictionary
281
     1
  3
ByBlock
350
42
  3
ByLayer
350
3A
  3
Global
350
C
  0
DICTIONARY
  5
4D
102
{ACAD_REACTORS
330
B
102
}
330
B
100
AcDbDictionary
281
     1
  0
DICTIONARY
  5
38
102
{ACAD_REACTORS
330
B
102
}
330
B
100
AcDbDictionary
281
     1
  3
Standard
350
52
  0
DICTIONARY
  5
39
102
{ACAD_REACTORS
330
B
102
}
330
B
100
AcDbDictionary
281
     1
  0
ACDBDICTIONARYWDFLT
  5
A
102
{ACAD_REACTORS
330
B
102
}
330
B
100
AcDbDictionary
281
     1
  3
Normal
350
9
100
AcDbDictionaryWithDefault
340
9
  0
DICTIONARY
  5
4B
102
{ACAD_REACTORS
330
B
102
}
330
B
100
AcDbDictionary
281
     1
  3
A0
350
57
  3
A1
350
58
  3
A2
350
59
  3
A3
350
5A
  3
A4
350
5B
  3
A5
350
5C
  3
A6
350
5D
  3
A7
350
5E
  3
A8
350
5F
  3
A9
350
60
  3
B0
350
61
  3
B1
350
62
  3
B2
350
63
  3
B3
350
64
  3
B4
350
65
  3
B5
350
66
  3
B6
350
67
  3
B7
350
68
  3
B8
350
69
  3
B9
350
6A
  3
C0
350
6B
  3
C1
350
6C
  3
C2
350
6D
  3
C3
350
6E
  3
C4
350
6F
  3
C5
350
70
  3
C6
350
71
  3
C7
350
72
  3
C8
350
73
  3
C9
350
74
  3
D0
350
75
  3
D1
350
76
  3
D2
350
77
  0
DICTIONARY
  5
4C
102
{ACAD_REACTORS
330
B
102
}
330
B
100
AcDbDictionary
281
     1
  3
Standard
350
53
  0
DICTIONARY
  5
2E
102
{ACAD_REACTORS
330
B
102
}
330
B
100
AcDbDictionary
281
     1
  3
2dWireframe
350
2D
  3
3dWireframe
350
56
  3
Realistic
350
55
  0
XRECORD
  5
479
102
{ACAD_REACTORS
330
B
102
}
330
B
100
AcDbXrecord
280
     1
 90
        1
330
53
  0
DICTIONARY
  5
470
102
{ACAD_REACTORS
330
B
102
}
330
B
100
AcDbDictionary
281
     1
  3
CANNOSCALE
350
473
  3
CMLEADERSTYLE
350
472
  3
CTABLESTYLE
350
471
  3
LAYEREVAL
350
475
  3
LAYERNOTIFY
350
476
  3
LIGHTINGUNITS
350
474
  0
DICTIONARY
  5
1F
102
{ACAD_REACTORS
330
1E
102
}
330
1E
100
AcDbDictionary
281
     1
  0
DICTIONARY
  5
20
102
{ACAD_REACTORS
330
1E
102
}
330
1E
100
AcDbDictionary
281
     1
  0
DICTIONARY
  5
21
102
{ACAD_REACTORS
330
1E
102
}
330
1E
100
AcDbDictionary
281
     1
1001
ACAD
1000
<All
  0
XRECORD
  5
8
102
{ACAD_REACTORS
330
7
102
}
330
7
100
AcDbXrecord
280
     1
290
     1
  0
XRECORD
  5
7B
102
{ACAD_REACTORS
330
7A
102
}
330
7A
100
AcDbXrecord
280
     1
290
     1
  0
XRECORD
  5
B4
102
{ACAD_REACTORS
330
B3
102
}
330
B3
100
AcDbXrecord
280
     1
290
     1
  0
XRECORD
  5
159
102
{ACAD_REACTORS
330
158
102
}
330
158
100
AcDbXrecord
280
     1
290
     1
  0
XRECORD
  5
50
102
{ACAD_REACTORS
330
4F
102
}
330
4F
100
AcDbXrecord
280
     1
290
     1
  0
XRECORD
  5
188
102
{ACAD_REACTORS
330
187
102
}
330
187
100
AcDbXrecord
280
     1
290
     1
  0
XRECORD
  5
1C6
102
{ACAD_REACTORS
330
1C5
102
}
330
1C5
100
AcDbXrecord
280
     1
290
     1
  0
XRECORD
  5
18D
102
{ACAD_REACTORS
330
18C
102
}
330
18C
100
AcDbXrecord
280
     1
290
     1
  0
SORTENTSTABLE
  5
46F
102
{ACAD_REACTORS
330
3
102
}
330
3
100
AcDbSortentsTable
330
2
331
46B
  5
95
331
344
  5
343
331
340
  5
347
331
B6
  5
467
331
12C
  5
44D
331
167
  5
418
331
163
  5
41C
331
E9
  5
452
331
467
  5
B6
331
463
  5
BA
331
33C
  5
34B
331
15F
  5
438
331
15B
  5
448
331
110
  5
44F
331
453
  5
DA
331
44F
  5
110
331
44B
  5
148
331
41D
  5
162
331
419
  5
166
331
39F
  5
17A
331
415
  5
16A
331
411
  5
16E
331
17E
  5
351
331
17A
  5
39F
331
447
  5
15C
331
40D
  5
172
331
350
  5
17F
331
34C
  5
33B
331
3C6
  5
177
331
348
  5
33F
331
176
  5
3D5
331
172
  5
40D
331
16E
  5
411
331
16A
  5
415
331
13B
  5
44C
331
B9
  5
464
331
46A
  5
A4
331
347
  5
340
331
343
  5
344
331
3F1
  5
174
331
B5
  5
468
331
B1
  5
469
331
166
  5
419
331
162
  5
41D
331
466
  5
B7
331
462
  5
BB
331
377
  5
17C
331
33F
  5
348
331
33B
  5
34C
331
11F
  5
44E
331
15E
  5
445
331
156
  5
449
331
452
  5
E9
331
44E
  5
11F
331
44A
  5
155
331
41C
  5
163
331
418
  5
167
331
3D5
  5
176
331
414
  5
16B
331
410
  5
16F
331
17D
  5
365
331
179
  5
3AC
331
95
  5
46B
331
103
  5
450
331
446
  5
15D
331
392
  5
17B
331
34F
  5
180
331
34B
  5
33C
331
400
  5
173
331
175
  5
3E4
331
171
  5
40E
331
16D
  5
412
331
169
  5
416
331
BC
  5
461
331
B8
  5
465
331
469
  5
B1
331
346
  5
341
331
3B9
  5
178
331
342
  5
345
331
165
  5
41A
331
161
  5
41E
331
465
  5
B8
331
461
  5
BC
331
33E
  5
349
331
42B
  5
160
331
33A
  5
34D
331
3E4
  5
175
331
15D
  5
446
331
A4
  5
46A
331
155
  5
44A
331
451
  5
F6
331
44D
  5
12C
331
449
  5
156
331
41B
  5
164
331
417
  5
168
331
413
  5
16C
331
180
  5
34F
331
17C
  5
377
331
178
  5
3B9
331
CB
  5
460
331
445
  5
15E
331
40F
  5
170
331
34E
  5
339
331
34A
  5
33D
331
174
  5
3F1
331
170
  5
40F
331
16C
  5
413
331
168
  5
417
331
BB
  5
462
331
F6
  5
451
331
78
  5
46C
331
46C
  5
78
331
468
  5
B5
331
345
  5
342
331
341
  5
346
331
B7
  5
466
331
164
  5
41B
331
160
  5
42B
331
464
  5
B9
331
460
  5
CB
331
33D
  5
34A
331
339
  5
34E
331
3AC
  5
179
331
15C
  5
447
331
DA
  5
453
331
450
  5
103
331
44C
  5
13B
331
448
  5
15B
331
365
  5
17D
331
41E
  5
161
331
41A
  5
165
331
416
  5
169
331
412
  5
16D
331
17F
  5
350
331
17B
  5
392
331
148
  5
44B
331
438
  5
15F
331
40E
  5
171
331
351
  5
17E
331
34D
  5
33A
331
349
  5
33E
331
177
  5
3C6
331
173
  5
400
331
16F
  5
410
331
16B
  5
414
331
BA
  5
463
  0
SORTENTSTABLE
  5
46D
102
{ACAD_REACTORS
330
182
102
}
330
182
100
AcDbSortentsTable
330
181
  0
SORTENTSTABLE
  5
46E
102
{ACAD_REACTORS
330
7D
102
}
330
7D
100
AcDbSortentsTable
330
7C
  0
LAYOUT
  5
1C
102
{ACAD_REACTORS
330
18
102
}
330
18
100
AcDbPlotSettings
  1

  2
HP LaserJet 4 Plus
  4

  6

 40
0.0
 41
0.0
 42
0.0
 43
0.0
 44
0.0
 45
0.0
 46
0.0
 47
0.0
 48
0.0
 49
0.0
140
0.0
141
0.0
142
1.0
143
1.0
 70
   688
 72
     0
 73
     0
 74
     5
  7
CNC-Soft.ctb
 75
    16
147
1.0
 76
     0
 77
     2
 78
   300
148
0.0
149
0.0
100
AcDbLayout
  1
Layout1
 70
     0
 71
     1
 10
0.0
 20
0.0
 11
12.0
 21
9.0
 12
0.0
 22
0.0
 32
0.0
 14
1.000000000000000E+20
 24
1.000000000000000E+20
 34
1.000000000000000E+20
 15
-1.000000000000000E+20
 25
-1.000000000000000E+20
 35
-1.000000000000000E+20
146
0.0
 13
0.0
 23
0.0
 33
0.0
 16
1.0
 26
0.0
 36
0.0
 17
0.0
 27
1.0
 37
0.0
 76
     0
330
19
  0
LAYOUT
  5
17
102
{ACAD_REACTORS
330
18
102
}
330
18
100
AcDbPlotSettings
  1

  2
HP LaserJet 4 Plus.pc3
  4
A4
  6

 40
6.043083190917968
 41
6.762742042541503
 42
7.736419677734375
 43
5.027069091796875
 44
209.9733276367187
 45
296.9683227539062
 46
0.0
 47
0.0
 48
0.0
 49
0.0
140
0.0
141
0.0
142
1.0
143
3.784753773373755
 70
 11952
 72
     1
 73
     1
 74
     1
  7
CNC-Soft.ctb
 75
     0
147
0.2642179808459754
 76
     0
 77
     2
 78
   300
148
0.0320410123467809
149
0.0226575730166587
100
AcDbLayout
  1
Model
 70
     1
 71
     0
 10
0.0
 20
0.0
 11
12.0
 21
9.0
 12
0.0
 22
0.0
 32
0.0
 14
0.0
 24
0.0
 34
0.0
 15
0.0
 25
0.0
 35
0.0
146
0.0
 13
0.0
 23
0.0
 33
0.0
 16
1.0
 26
0.0
 36
0.0
 17
0.0
 27
1.0
 37
0.0
 76
     0
330
2
331
2C
  0
MATERIAL
  5
42
102
{ACAD_XDICTIONARY
360
43
102
}
102
{ACAD_REACTORS
330
D
102
}
330
D
100
AcDbMaterial
  1
ByBlock
 72
     0
 43
0.0208333333333333
 43
0.0
 43
0.0
 43
0.0
 43
0.0
 43
0.0208333333333333
 43
0.0
 43
0.0
 43
0.0
 43
0.0
 43
1.0
 43
0.0
 43
0.0
 43
0.0
 43
0.0
 43
1.0
 77
     0
 47
0.0208333333333333
 47
0.0
 47
0.0
 47
0.0
 47
0.0
 47
0.0208333333333333
 47
0.0
 47
0.0
 47
0.0
 47
0.0
 47
1.0
 47
0.0
 47
0.0
 47
0.0
 47
0.0
 47
1.0
171
     0
 49
0.0208333333333333
 49
0.0
 49
0.0
 49
0.0
 49
0.0
 49
0.0208333333333333
 49
0.0
 49
0.0
 49
0.0
 49
0.0
 49
1.0
 49
0.0
 49
0.0
 49
0.0
 49
0.0
 49
1.0
175
     0
142
0.0208333333333333
142
0.0
142
0.0
142
0.0
142
0.0
142
0.0208333333333333
142
0.0
142
0.0
142
0.0
142
0.0
142
1.0
142
0.0
142
0.0
142
0.0
142
0.0
142
1.0
179
     0
144
0.0208333333333333
144
0.0
144
0.0
144
0.0
144
0.0
144
0.0208333333333333
144
0.0
144
0.0
144
0.0
144
0.0
144
1.0
144
0.0
144
0.0
144
0.0
144
0.0
144
1.0
147
0.0208333333333333
147
0.0
147
0.0
147
0.0
147
0.0
147
0.0208333333333333
147
0.0
147
0.0
147
0.0
147
0.0
147
1.0
147
0.0
147
0.0
147
0.0
147
0.0
147
1.0
  0
MATERIAL
  5
3A
102
{ACAD_XDICTIONARY
360
3B
102
}
102
{ACAD_REACTORS
330
D
102
}
330
D
100
AcDbMaterial
  1
ByLayer
 72
     0
 43
0.0208333333333333
 43
0.0
 43
0.0
 43
0.0
 43
0.0
 43
0.0208333333333333
 43
0.0
 43
0.0
 43
0.0
 43
0.0
 43
1.0
 43
0.0
 43
0.0
 43
0.0
 43
0.0
 43
1.0
 77
     0
 47
0.0208333333333333
 47
0.0
 47
0.0
 47
0.0
 47
0.0
 47
0.0208333333333333
 47
0.0
 47
0.0
 47
0.0
 47
0.0
 47
1.0
 47
0.0
 47
0.0
 47
0.0
 47
0.0
 47
1.0
171
     0
 49
0.0208333333333333
 49
0.0
 49
0.0
 49
0.0
 49
0.0
 49
0.0208333333333333
 49
0.0
 49
0.0
 49
0.0
 49
0.0
 49
1.0
 49
0.0
 49
0.0
 49
0.0
 49
0.0
 49
1.0
175
     0
142
0.0208333333333333
142
0.0
142
0.0
142
0.0
142
0.0
142
0.0208333333333333
142
0.0
142
0.0
142
0.0
142
0.0
142
1.0
142
0.0
142
0.0
142
0.0
142
0.0
142
1.0
179
     0
144
0.0208333333333333
144
0.0
144
0.0
144
0.0
144
0.0
144
0.0208333333333333
144
0.0
144
0.0
144
0.0
144
0.0
144
1.0
144
0.0
144
0.0
144
0.0
144
0.0
144
1.0
147
0.0208333333333333
147
0.0
147
0.0
147
0.0
147
0.0
147
0.0208333333333333
147
0.0
147
0.0
147
0.0
147
0.0
147
1.0
147
0.0
147
0.0
147
0.0
147
0.0
147
1.0
  0
MATERIAL
  5
C
102
{ACAD_XDICTIONARY
360
E
102
}
102
{ACAD_REACTORS
330
D
102
}
330
D
100
AcDbMaterial
  1
Global
 72
     0
 43
0.0208333333333333
 43
0.0
 43
0.0
 43
0.0
 43
0.0
 43
0.0208333333333333
 43
0.0
 43
0.0
 43
0.0
 43
0.0
 43
1.0
 43
0.0
 43
0.0
 43
0.0
 43
0.0
 43
1.0
 77
     0
 47
0.0208333333333333
 47
0.0
 47
0.0
 47
0.0
 47
0.0
 47
0.0208333333333333
 47
0.0
 47
0.0
 47
0.0
 47
0.0
 47
1.0
 47
0.0
 47
0.0
 47
0.0
 47
0.0
 47
1.0
171
     0
 49
0.0208333333333333
 49
0.0
 49
0.0
 49
0.0
 49
0.0
 49
0.0208333333333333
 49
0.0
 49
0.0
 49
0.0
 49
0.0
 49
1.0
 49
0.0
 49
0.0
 49
0.0
 49
0.0
 49
1.0
175
     0
142
0.0208333333333333
142
0.0
142
0.0
142
0.0
142
0.0
142
0.0208333333333333
142
0.0
142
0.0
142
0.0
142
0.0
142
1.0
142
0.0
142
0.0
142
0.0
142
0.0
142
1.0
179
     0
144
0.0208333333333333
144
0.0
144
0.0
144
0.0
144
0.0
144
0.0208333333333333
144
0.0
144
0.0
144
0.0
144
0.0
144
1.0
144
0.0
144
0.0
144
0.0
144
0.0
144
1.0
147
0.0208333333333333
147
0.0
147
0.0
147
0.0
147
0.0
147
0.0208333333333333
147
0.0
147
0.0
147
0.0
147
0.0
147
1.0
147
0.0
147
0.0
147
0.0
147
0.0
147
1.0
  0
MLINESTYLE
  5
52
102
{ACAD_REACTORS
330
38
102
}
330
38
100
AcDbMlineStyle
  2
STANDARD
 70
     0
  3

 62
   256
 51
90.0
 52
90.0
 71
     2
 49
0.5
 62
   256
  6
BYLAYER
 49
-0.5
 62
   256
  6
BYLAYER
  0
ACDBPLACEHOLDER
  5
9
102
{ACAD_REACTORS
330
A
102
}
330
A
  0
SCALE
  5
57
102
{ACAD_REACTORS
330
4B
102
}
330
4B
100
AcDbScale
 70
     0
300
1:1
140
1.0
141
1.0
290
     1
  0
SCALE
  5
58
102
{ACAD_REACTORS
330
4B
102
}
330
4B
100
AcDbScale
 70
     0
300
1:2
140
1.0
141
2.0
290
     0
  0
SCALE
  5
59
102
{ACAD_REACTORS
330
4B
102
}
330
4B
100
AcDbScale
 70
     0
300
1:4
140
1.0
141
4.0
290
     0
  0
SCALE
  5
5A
102
{ACAD_REACTORS
330
4B
102
}
330
4B
100
AcDbScale
 70
     0
300
1:5
140
1.0
141
5.0
290
     0
  0
SCALE
  5
5B
102
{ACAD_REACTORS
330
4B
102
}
330
4B
100
AcDbScale
 70
     0
300
1:8
140
1.0
141
8.0
290
     0
  0
SCALE
  5
5C
102
{ACAD_REACTORS
330
4B
102
}
330
4B
100
AcDbScale
 70
     0
300
1:10
140
1.0
141
10.0
290
     0
  0
SCALE
  5
5D
102
{ACAD_REACTORS
330
4B
102
}
330
4B
100
AcDbScale
 70
     0
300
1:16
140
1.0
141
16.0
290
     0
  0
SCALE
  5
5E
102
{ACAD_REACTORS
330
4B
102
}
330
4B
100
AcDbScale
 70
     0
300
1:20
140
1.0
141
20.0
290
     0
  0
SCALE
  5
5F
102
{ACAD_REACTORS
330
4B
102
}
330
4B
100
AcDbScale
 70
     0
300
1:30
140
1.0
141
30.0
290
     0
  0
SCALE
  5
60
102
{ACAD_REACTORS
330
4B
102
}
330
4B
100
AcDbScale
 70
     0
300
1:40
140
1.0
141
40.0
290
     0
  0
SCALE
  5
61
102
{ACAD_REACTORS
330
4B
102
}
330
4B
100
AcDbScale
 70
     0
300
1:50
140
1.0
141
50.0
290
     0
  0
SCALE
  5
62
102
{ACAD_REACTORS
330
4B
102
}
330
4B
100
AcDbScale
 70
     0
300
1:100
140
1.0
141
100.0
290
     0
  0
SCALE
  5
63
102
{ACAD_REACTORS
330
4B
102
}
330
4B
100
AcDbScale
 70
     0
300
2:1
140
2.0
141
1.0
290
     0
  0
SCALE
  5
64
102
{ACAD_REACTORS
330
4B
102
}
330
4B
100
AcDbScale
 70
     0
300
4:1
140
4.0
141
1.0
290
     0
  0
SCALE
  5
65
102
{ACAD_REACTORS
330
4B
102
}
330
4B
100
AcDbScale
 70
     0
300
8:1
140
8.0
141
1.0
290
     0
  0
SCALE
  5
66
102
{ACAD_REACTORS
330
4B
102
}
330
4B
100
AcDbScale
 70
     0
300
10:1
140
10.0
141
1.0
290
     0
  0
SCALE
  5
67
102
{ACAD_REACTORS
330
4B
102
}
330
4B
100
AcDbScale
 70
     0
300
100:1
140
100.0
141
1.0
290
     0
  0
SCALE
  5
68
102
{ACAD_REACTORS
330
4B
102
}
330
4B
100
AcDbScale
 70
     0
300
1/128" = 1'-0"
140
0.0078125
141
12.0
290
     0
  0
SCALE
  5
69
102
{ACAD_REACTORS
330
4B
102
}
330
4B
100
AcDbScale
 70
     0
300
1/64" = 1'-0"
140
0.015625
141
12.0
290
     0
  0
SCALE
  5
6A
102
{ACAD_REACTORS
330
4B
102
}
330
4B
100
AcDbScale
 70
     0
300
1/32" = 1'-0"
140
0.03125
141
12.0
290
     0
  0
SCALE
  5
6B
102
{ACAD_REACTORS
330
4B
102
}
330
4B
100
AcDbScale
 70
     0
300
1/16" = 1'-0"
140
0.0625
141
12.0
290
     0
  0
SCALE
  5
6C
102
{ACAD_REACTORS
330
4B
102
}
330
4B
100
AcDbScale
 70
     0
300
3/32" = 1'-0"
140
0.09375
141
12.0
290
     0
  0
SCALE
  5
6D
102
{ACAD_REACTORS
330
4B
102
}
330
4B
100
AcDbScale
 70
     0
300
1/8" = 1'-0"
140
0.125
141
12.0
290
     0
  0
SCALE
  5
6E
102
{ACAD_REACTORS
330
4B
102
}
330
4B
100
AcDbScale
 70
     0
300
3/16" = 1'-0"
140
0.1875
141
12.0
290
     0
  0
SCALE
  5
6F
102
{ACAD_REACTORS
330
4B
102
}
330
4B
100
AcDbScale
 70
     0
300
1/4" = 1'-0"
140
0.25
141
12.0
290
     0
  0
SCALE
  5
70
102
{ACAD_REACTORS
330
4B
102
}
330
4B
100
AcDbScale
 70
     0
300
3/8" = 1'-0"
140
0.375
141
12.0
290
     0
  0
SCALE
  5
71
102
{ACAD_REACTORS
330
4B
102
}
330
4B
100
AcDbScale
 70
     0
300
1/2" = 1'-0"
140
0.5
141
12.0
290
     0
  0
SCALE
  5
72
102
{ACAD_REACTORS
330
4B
102
}
330
4B
100
AcDbScale
 70
     0
300
3/4" = 1'-0"
140
0.75
141
12.0
290
     0
  0
SCALE
  5
73
102
{ACAD_REACTORS
330
4B
102
}
330
4B
100
AcDbScale
 70
     0
300
1" = 1'-0"
140
1.0
141
12.0
290
     0
  0
SCALE
  5
74
102
{ACAD_REACTORS
330
4B
102
}
330
4B
100
AcDbScale
 70
     0
300
1-1/2" = 1'-0"
140
1.5
141
12.0
290
     0
  0
SCALE
  5
75
102
{ACAD_REACTORS
330
4B
102
}
330
4B
100
AcDbScale
 70
     0
300
3" = 1'-0"
140
3.0
141
12.0
290
     0
  0
SCALE
  5
76
102
{ACAD_REACTORS
330
4B
102
}
330
4B
100
AcDbScale
 70
     0
300
6" = 1'-0"
140
6.0
141
12.0
290
     0
  0
SCALE
  5
77
102
{ACAD_REACTORS
330
4B
102
}
330
4B
100
AcDbScale
 70
     0
300
1'-0" = 1'-0"
140
12.0
141
12.0
290
     0
  0
TABLESTYLE
  5
53
102
{ACAD_XDICTIONARY
360
54
102
}
102
{ACAD_REACTORS
330
4C
102
}
330
4C
100
AcDbTableStyle
280
     0
  3
Standard
 70
     0
 71
     0
 40
0.06
 41
0.06
280
     0
281
     0
  7
STANDARD
140
0.18
170
     2
 62
     0
 63
     7
283
     0
 90
      512
 91
        0
  1

274
    -2
284
     1
 64
     0
275
    -2
285
     1
 65
     0
276
    -2
286
     1
 66
     0
277
    -2
287
     1
 67
     0
278
    -2
288
     1
 68
     0
279
    -2
289
     1
 69
     0
  7
STANDARD
140
0.25
170
     5
 62
     0
 63
     7
283
     0
 90
      512
 91
        0
  1

274
    -2
284
     1
 64
     0
275
    -2
285
     1
 65
     0
276
    -2
286
     1
 66
     0
277
    -2
287
     1
 67
     0
278
    -2
288
     1
 68
     0
279
    -2
289
     1
 69
     0
  7
STANDARD
140
0.18
170
     5
 62
     0
 63
     7
283
     0
 90
      512
 91
        0
  1

274
    -2
284
     1
 64
     0
275
    -2
285
     1
 65
     0
276
    -2
286
     1
 66
     0
277
    -2
287
     1
 67
     0
278
    -2
288
     1
 68
     0
279
    -2
289
     1
 69
     0
  0
VISUALSTYLE
  5
2D
102
{ACAD_REACTORS
330
2E
102
}
330
2E
100
AcDbVisualStyle
  2
2dWireframe
 70
     4
177
     2
291
     0
 71
     0
176
     1
 72
     2
176
     1
 73
     0
176
     1
 90
        0
176
     1
 40
0.6
176
     1
 41
30.0
176
     1
 63
     7
421
 16777215
176
     1
 74
     1
176
     1
 91
        4
176
     1
 64
     7
176
     1
 65
   257
176
     1
 75
     1
176
     1
175
     1
176
     1
 42
1.0
176
     1
 92
        0
176
     1
 66
   257
176
     1
 43
1.0
176
     1
 76
     1
176
     1
 77
     6
176
     1
 78
     2
176
     1
 67
     7
176
     1
 79
     5
176
     1
170
     0
176
     1
171
     0
176
     1
290
     0
176
     1
 93
        1
176
     1
 44
0.0
176
     1
173
     0
176
     1
  0
VISUALSTYLE
  5
56
102
{ACAD_REACTORS
330
2E
102
}
330
2E
100
AcDbVisualStyle
  2
3dWireframe
 70
     5
177
     2
291
     0
 71
     0
176
     1
 72
     2
176
     1
 73
     0
176
     1
 90
        0
176
     1
 40
0.6
176
     1
 41
30.0
176
     1
 63
     7
421
 16777215
176
     1
 74
     1
176
     1
 91
        4
176
     1
 64
     7
176
     1
 65
   257
176
     1
 75
     1
176
     1
175
     1
176
     1
 42
1.0
176
     1
 92
        0
176
     1
 66
   257
176
     1
 43
1.0
176
     1
 76
     1
176
     1
 77
     6
176
     1
 78
     2
176
     1
 67
     7
176
     1
 79
     5
176
     1
170
     0
176
     1
171
     0
176
     1
290
     0
176
     1
 93
        1
176
     1
 44
0.0
176
     1
173
     0
176
     1
  0
VISUALSTYLE
  5
55
102
{ACAD_REACTORS
330
2E
102
}
330
2E
100
AcDbVisualStyle
  2
Realistic
 70
     8
177
     2
291
     0
 71
     2
176
     1
 72
     2
176
     1
 73
     0
176
     1
 90
        0
176
     1
 40
0.6
176
     1
 41
30.0
176
     1
 63
     7
421
 16777215
176
     1
 74
     1
176
     1
 91
        0
176
     1
 64
     7
176
     1
 65
   257
176
     1
 75
     1
176
     1
175
     1
176
     1
 42
1.0
176
     1
 92
        8
176
     1
 66
     8
424
  7895160
176
     1
 43
1.0
176
     1
 76
     1
176
     1
 77
     6
176
     1
 78
     2
176
     1
 67
     7
176
     1
 79
     5
176
     1
170
     0
176
     1
171
     0
176
     1
290
     0
176
     1
 93
       13
176
     1
 44
0.0
176
     1
173
     0
176
     1
  0
DICTIONARYVAR
  5
473
102
{ACAD_REACTORS
330
470
102
}
330
470
100
DictionaryVariables
280
     0
  1
1:1
  0
DICTIONARYVAR
  5
472
102
{ACAD_REACTORS
330
470
102
}
330
470
100
DictionaryVariables
280
     0
  1
STANDARD
  0
DICTIONARYVAR
  5
471
102
{ACAD_REACTORS
330
470
102
}
330
470
100
DictionaryVariables
280
     0
  1
STANDARD
  0
DICTIONARYVAR
  5
475
102
{ACAD_REACTORS
330
470
102
}
330
470
100
DictionaryVariables
280
     0
  1
1
  0
DICTIONARYVAR
  5
476
102
{ACAD_REACTORS
330
470
102
}
330
470
100
DictionaryVariables
280
     0
  1
15
  0
DICTIONARYVAR
  5
474
102
{ACAD_REACTORS
330
470
102
}
330
470
100
DictionaryVariables
280
     0
  1
0
  0
DICTIONARY
  5
43
330
42
100
AcDbDictionary
280
     1
281
     1
  3
BUMPTILE
360
44
  3
DIFFUSETILE
360
45
  3
OPACITYTILE
360
46
  3
REFLECTIONTILE
360
47
  3
REFRACTIONTILE
360
48
  3
SPECULARTILE
360
49
  0
DICTIONARY
  5
3B
330
3A
100
AcDbDictionary
280
     1
281
     1
  3
BUMPTILE
360
3C
  3
DIFFUSETILE
360
3D
  3
OPACITYTILE
360
3E
  3
REFLECTIONTILE
360
3F
  3
REFRACTIONTILE
360
40
  3
SPECULARTILE
360
41
  0
DICTIONARY
  5
E
330
C
100
AcDbDictionary
280
     1
281
     1
  3
BUMPTILE
360
F
  3
DIFFUSETILE
360
10
  3
OPACITYTILE
360
11
  3
REFLECTIONTILE
360
12
  3
REFRACTIONTILE
360
13
  3
SPECULARTILE
360
14
  0
DICTIONARY
  5
54
330
53
100
AcDbDictionary
280
     1
281
     1
  3
ACAD_ROUNDTRIP_2008_TABLESTYLE_CELLSTYLEMAP
360
477
  0
XRECORD
  5
44
102
{ACAD_REACTORS
330
43
102
}
330
43
100
AcDbXrecord
280
     1
270
     1
271
     1
  0
XRECORD
  5
45
102
{ACAD_REACTORS
330
43
102
}
330
43
100
AcDbXrecord
280
     1
270
     1
271
     1
  0
XRECORD
  5
46
102
{ACAD_REACTORS
330
43
102
}
330
43
100
AcDbXrecord
280
     1
270
     1
271
     1
  0
XRECORD
  5
47
102
{ACAD_REACTORS
330
43
102
}
330
43
100
AcDbXrecord
280
     1
270
     1
271
     1
  0
XRECORD
  5
48
102
{ACAD_REACTORS
330
43
102
}
330
43
100
AcDbXrecord
280
     1
270
     1
271
     1
  0
XRECORD
  5
49
102
{ACAD_REACTORS
330
43
102
}
330
43
100
AcDbXrecord
280
     1
270
     1
271
     1
  0
XRECORD
  5
3C
102
{ACAD_REACTORS
330
3B
102
}
330
3B
100
AcDbXrecord
280
     1
270
     1
271
     1
  0
XRECORD
  5
3D
102
{ACAD_REACTORS
330
3B
102
}
330
3B
100
AcDbXrecord
280
     1
270
     1
271
     1
  0
XRECORD
  5
3E
102
{ACAD_REACTORS
330
3B
102
}
330
3B
100
AcDbXrecord
280
     1
270
     1
271
     1
  0
XRECORD
  5
3F
102
{ACAD_REACTORS
330
3B
102
}
330
3B
100
AcDbXrecord
280
     1
270
     1
271
     1
  0
XRECORD
  5
40
102
{ACAD_REACTORS
330
3B
102
}
330
3B
100
AcDbXrecord
280
     1
270
     1
271
     1
  0
XRECORD
  5
41
102
{ACAD_REACTORS
330
3B
102
}
330
3B
100
AcDbXrecord
280
     1
270
     1
271
     1
  0
XRECORD
  5
F
102
{ACAD_REACTORS
330
E
102
}
330
E
100
AcDbXrecord
280
     1
270
     1
271
     1
  0
XRECORD
  5
10
102
{ACAD_REACTORS
330
E
102
}
330
E
100
AcDbXrecord
280
     1
270
     1
271
     1
  0
XRECORD
  5
11
102
{ACAD_REACTORS
330
E
102
}
330
E
100
AcDbXrecord
280
     1
270
     1
271
     1
  0
XRECORD
  5
12
102
{ACAD_REACTORS
330
E
102
}
330
E
100
AcDbXrecord
280
     1
270
     1
271
     1
  0
XRECORD
  5
13
102
{ACAD_REACTORS
330
E
102
}
330
E
100
AcDbXrecord
280
     1
270
     1
271
     1
  0
XRECORD
  5
14
102
{ACAD_REACTORS
330
E
102
}
330
E
100
AcDbXrecord
280
     1
270
     1
271
     1
  0
CELLSTYLEMAP
  5
477
102
{ACAD_REACTORS
330
54
102
}
330
54
100
AcDbCellStyleMap
 90
        3
300
CELLSTYLE
  1
TABLEFORMAT_BEGIN
 90
        5
170
     1
 91
        0
 92
    32768
 62
   257
 93
        1
300
CONTENTFORMAT
  1
CONTENTFORMAT_BEGIN
 90
        0
 91
        0
 92
      512
 93
        0
300

 40
0.0
140
1.0
 94
        5
 62
     0
340
24
144
0.25
309
CONTENTFORMAT_END
171
     0
 94
        0
309
TABLEFORMAT_END
  1
CELLSTYLE_BEGIN
 90
        1
 91
        1
300
_TITLE
309
CELLSTYLE_END
300
CELLSTYLE
  1
TABLEFORMAT_BEGIN
 90
        5
170
     1
 91
        0
 92
        0
 62
   257
 93
        1
300
CONTENTFORMAT
  1
CONTENTFORMAT_BEGIN
 90
        0
 91
        0
 92
      512
 93
        0
300

 40
0.0
140
1.0
 94
        5
 62
     0
340
24
144
0.18
309
CONTENTFORMAT_END
171
     0
 94
        0
309
TABLEFORMAT_END
  1
CELLSTYLE_BEGIN
 90
        2
 91
        1
300
_HEADER
309
CELLSTYLE_END
300
CELLSTYLE
  1
TABLEFORMAT_BEGIN
 90
        5
170
     1
 91
        0
 92
        0
 62
   257
 93
        1
300
CONTENTFORMAT
  1
CONTENTFORMAT_BEGIN
 90
        0
 91
        0
 92
      512
 93
        0
300

 40
0.0
140
1.0
 94
        2
 62
     0
340
24
144
0.18
309
CONTENTFORMAT_END
171
     0
 94
        0
309
TABLEFORMAT_END
  1
CELLSTYLE_BEGIN
 90
        3
 91
        2
300
_DATA
309
CELLSTYLE_END
  0
ENDSEC
  0
EOF
