  0
SECTION
  2
HEADER
  9
$ACADVER
  1
AC1024
  9
$ACADMAINTVER
 70
     6
  9
$DWGCODEPAGE
  3
ANSI_1252
  9
$INSBASE
 10
0.0
 20
0.0
 30
0.0
  9
$EXTMIN
 10
0.0
 20
0.0
 30
0.0
  9
$EXTMAX
 10
1050.0
 20
1485.0
 30
0.0
  9
$LIMMIN
 10
0.0
 20
0.0
  9
$LIMMAX
 10
1050.0
 20
1485.0
  9
$ORTHOMODE
 70
     1
  9
$REGENMODE
 70
     1
  9
$FILLMODE
 70
     1
  9
$QTEXTMODE
 70
     0
  9
$MIRRTEXT
 70
     0
  9
$LTSCALE
 40
30.0
  9
$ATTMODE
 70
     1
  9
$TEXTSIZE
 40
3.5
  9
$TRACEWID
 40
2.0
  9
$TEXTSTYLE
  7
STANDARD
  9
$CLAYER
  8
09-01
  9
$CELTYPE
  6
ByLayer
  9
$CECOLOR
 62
   256
  9
$CELTSCALE
 40
1.0
  9
$DISPSILH
 70
     0
  9
$DIMSCALE
 40
5.0
  9
$DIMASZ
 40
2.5
  9
$DIMEXO
 40
1.0
  9
$DIMDLI
 40
10.0
  9
$DIMRND
 40
0.0
  9
$DIMDLE
 40
0.0
  9
$DIMEXE
 40
1.0
  9
$DIMTP
 40
0.0
  9
$DIMTM
 40
0.0
  9
$DIMTXT
 40
2.5
  9
$DIMCEN
 40
0.0
  9
$DIMTSZ
 40
0.0
  9
$DIMTOL
 70
     0
  9
$DIMLIM
 70
     0
  9
$DIMTIH
 70
     0
  9
$DIMTOH
 70
     0
  9
$DIMSE1
 70
     0
  9
$DIMSE2
 70
     0
  9
$DIMTAD
 70
     1
  9
$DIMZIN
 70
     8
  9
$DIMBLK
  1

  9
$DIMASO
 70
     1
  9
$DIMSHO
 70
     0
  9
$DIMPOST
  1

  9
$DIMAPOST
  1

  9
$DIMALT
 70
     0
  9
$DIMALTD
 70
     3
  9
$DIMALTF
 40
0.03937007874016
  9
$DIMLFAC
 40
1.0
  9
$DIMTOFL
 70
     1
  9
$DIMTVP
 40
0.0
  9
$DIMTIX
 70
     0
  9
$DIMSOXD
 70
     0
  9
$DIMSAH
 70
     0
  9
$DIMBLK1
  1

  9
$DIMBLK2
  1

  9
$DIMSTYLE
  2
Wagner
  9
$DIMCLRD
 70
     4
  9
$DIMCLRE
 70
     4
  9
$DIMCLRT
 70
     1
  9
$DIMTFAC
 40
1.0
  9
$DIMGAP
 40
1.0
  9
$DIMJUST
 70
     0
  9
$DIMSD1
 70
     0
  9
$DIMSD2
 70
     0
  9
$DIMTOLJ
 70
     0
  9
$DIMTZIN
 70
     8
  9
$DIMALTZ
 70
     0
  9
$DIMALTTZ
 70
     0
  9
$DIMUPT
 70
     0
  9
$DIMDEC
 70
     8
  9
$DIMTDEC
 70
     8
  9
$DIMALTU
 70
     2
  9
$DIMALTTD
 70
     3
  9
$DIMTXSTY
  7
STANDARD
  9
$DIMAUNIT
 70
     0
  9
$DIMADEC
 70
     8
  9
$DIMALTRND
 40
0.0
  9
$DIMAZIN
 70
     2
  9
$DIMDSEP
 70
    46
  9
$DIMATFIT
 70
     3
  9
$DIMFRAC
 70
     0
  9
$DIMLDRBLK
  1

  9
$DIMLUNIT
 70
     2
  9
$DIMLWD
 70
    -2
  9
$DIMLWE
 70
    -2
  9
$DIMTMOVE
 70
     0
  9
$DIMFXL
 40
1.0
  9
$DIMFXLON
 70
     0
  9
$DIMJOGANG
 40
0.7853981633974483
  9
$DIMTFILL
 70
     0
  9
$DIMTFILLCLR
 70
     0
  9
$DIMARCSYM
 70
     0
  9
$DIMLTYPE
  6

  9
$DIMLTEX1
  6

  9
$DIMLTEX2
  6

  9
$DIMTXTDIRECTION
 70
     0
  9
$LUNITS
 70
     2
  9
$LUPREC
 70
     1
  9
$SKETCHINC
 40
1.0
  9
$FILLETRAD
 40
0.0
  9
$AUNITS
 70
     0
  9
$AUPREC
 70
     2
  9
$MENU
  1
cncmenue
  9
$ELEVATION
 40
0.0
  9
$PELEVATION
 40
0.0
  9
$THICKNESS
 40
0.0
  9
$LIMCHECK
 70
     0
  9
$CHAMFERA
 40
0.0
  9
$CHAMFERB
 40
0.0
  9
$CHAMFERC
 40
0.0
  9
$CHAMFERD
 40
0.0
  9
$SKPOLY
 70
     0
  9
$TDCREATE
 40
2451477.706530787
  9
$TDUCREATE
 40
2451477.623197454
  9
$TDUPDATE
 40
2456267.490448542
  9
$TDUUPDATE
 40
2456267.407115209
  9
$TDINDWG
 40
0.6307927662
  9
$TDUSRTIMER
 40
0.6307927662
  9
$USRTIMER
 70
     1
  9
$ANGBASE
 50
0.0
  9
$ANGDIR
 70
     0
  9
$PDMODE
 70
     0
  9
$PDSIZE
 40
0.0
  9
$PLINEWID
 40
0.0
  9
$SPLFRAME
 70
     0
  9
$SPLINETYPE
 70
     6
  9
$SPLINESEGS
 70
     8
  9
$HANDSEED
  5
4EE
  9
$SURFTAB1
 70
    24
  9
$SURFTAB2
 70
    24
  9
$SURFTYPE
 70
     6
  9
$SURFU
 70
     6
  9
$SURFV
 70
     6
  9
$UCSBASE
  2

  9
$UCSNAME
  2

  9
$UCSORG
 10
0.0
 20
0.0
 30
0.0
  9
$UCSXDIR
 10
1.0
 20
0.0
 30
0.0
  9
$UCSYDIR
 10
0.0
 20
1.0
 30
0.0
  9
$UCSORTHOREF
  2

  9
$UCSORTHOVIEW
 70
     0
  9
$UCSORGTOP
 10
0.0
 20
0.0
 30
0.0
  9
$UCSORGBOTTOM
 10
0.0
 20
0.0
 30
0.0
  9
$UCSORGLEFT
 10
0.0
 20
0.0
 30
0.0
  9
$UCSORGRIGHT
 10
0.0
 20
0.0
 30
0.0
  9
$UCSORGFRONT
 10
0.0
 20
0.0
 30
0.0
  9
$UCSORGBACK
 10
0.0
 20
0.0
 30
0.0
  9
$PUCSBASE
  2

  9
$PUCSNAME
  2

  9
$PUCSORG
 10
0.0
 20
0.0
 30
0.0
  9
$PUCSXDIR
 10
1.0
 20
0.0
 30
0.0
  9
$PUCSYDIR
 10
0.0
 20
1.0
 30
0.0
  9
$PUCSORTHOREF
  2

  9
$PUCSORTHOVIEW
 70
     0
  9
$PUCSORGTOP
 10
0.0
 20
0.0
 30
0.0
  9
$PUCSORGBOTTOM
 10
0.0
 20
0.0
 30
0.0
  9
$PUCSORGLEFT
 10
0.0
 20
0.0
 30
0.0
  9
$PUCSORGRIGHT
 10
0.0
 20
0.0
 30
0.0
  9
$PUCSORGFRONT
 10
0.0
 20
0.0
 30
0.0
  9
$PUCSORGBACK
 10
0.0
 20
0.0
 30
0.0
  9
$USERI1
 70
     0
  9
$USERI2
 70
     0
  9
$USERI3
 70
     0
  9
$USERI4
 70
     0
  9
$USERI5
 70
     0
  9
$USERR1
 40
0.0
  9
$USERR2
 40
0.0
  9
$USERR3
 40
0.0
  9
$USERR4
 40
0.0
  9
$USERR5
 40
0.0
  9
$WORLDVIEW
 70
     1
  9
$SHADEDGE
 70
     3
  9
$SHADEDIF
 70
    70
  9
$TILEMODE
 70
     1
  9
$MAXACTVP
 70
    16
  9
$PINSBASE
 10
0.0
 20
0.0
 30
0.0
  9
$PLIMCHECK
 70
     0
  9
$PEXTMIN
 10
1.000000000000000E+20
 20
1.000000000000000E+20
 30
1.000000000000000E+20
  9
$PEXTMAX
 10
-1.000000000000000E+20
 20
-1.000000000000000E+20
 30
-1.000000000000000E+20
  9
$PLIMMIN
 10
0.0
 20
0.0
  9
$PLIMMAX
 10
12.0
 20
9.0
  9
$UNITMODE
 70
     0
  9
$VISRETAIN
 70
     0
  9
$PLINEGEN
 70
     0
  9
$PSLTSCALE
 70
     0
  9
$TREEDEPTH
 70
  3020
  9
$CMLSTYLE
  2
Standard
  9
$CMLJUST
 70
     0
  9
$CMLSCALE
 40
1.0
  9
$PROXYGRAPHICS
 70
     1
  9
$MEASUREMENT
 70
     0
  9
$CELWEIGHT
370
    -1
  9
$ENDCAPS
280
     0
  9
$JOINSTYLE
280
     0
  9
$LWDISPLAY
290
     0
  9
$INSUNITS
 70
     0
  9
$HYPERLINKBASE
  1

  9
$STYLESHEET
  1

  9
$XEDIT
290
     1
  9
$CEPSNTYPE
380
     0
  9
$PSTYLEMODE
290
     1
  9
$FINGERPRINTGUID
  2
{454E67C2-F2AC-4F27-AE3F-9B443D30E7EE}
  9
$VERSIONGUID
  2
{B585D5D0-5AD6-4223-8545-84E81D108822}
  9
$EXTNAMES
290
     1
  9
$PSVPSCALE
 40
0.0
  9
$OLESTARTUP
290
     0
  9
$SORTENTS
280
   127
  9
$INDEXCTL
280
     0
  9
$HIDETEXT
280
     1
  9
$XCLIPFRAME
280
     0
  9
$HALOGAP
280
     0
  9
$OBSCOLOR
 70
   257
  9
$OBSLTYPE
280
     0
  9
$INTERSECTIONDISPLAY
280
     0
  9
$INTERSECTIONCOLOR
 70
   257
  9
$DIMASSOC
280
     1
  9
$PROJECTNAME
  1

  9
$CAMERADISPLAY
290
     0
  9
$LENSLENGTH
 40
50.0
  9
$CAMERAHEIGHT
 40
0.0
  9
$STEPSPERSEC
 40
2.0
  9
$STEPSIZE
 40
6.0
  9
$3DDWFPREC
 40
2.0
  9
$PSOLWIDTH
 40
0.25
  9
$PSOLHEIGHT
 40
4.0
  9
$LOFTANG1
 40
1.570796326794896
  9
$LOFTANG2
 40
1.570796326794896
  9
$LOFTMAG1
 40
0.0
  9
$LOFTMAG2
 40
0.0
  9
$LOFTPARAM
 70
     7
  9
$LOFTNORMALS
280
     1
  9
$LATITUDE
 40
37.795
  9
$LONGITUDE
 40
-122.394
  9
$NORTHDIRECTION
 40
0.0
  9
$TIMEZONE
 70
 -8000
  9
$LIGHTGLYPHDISPLAY
280
     1
  9
$TILEMODELIGHTSYNCH
280
     1
  9
$CMATERIAL
347
3D
  9
$SOLIDHIST
280
     1
  9
$SHOWHIST
280
     1
  9
$DWFFRAME
280
     2
  9
$DGNFRAME
280
     0
  9
$REALWORLDSCALE
290
     1
  9
$INTERFERECOLOR
 62
     1
  9
$INTERFEREOBJVS
345
57
  9
$INTERFEREVPVS
346
5A
  9
$CSHADOW
280
     0
  9
$SHADOWPLANELOCATION
 40
0.0
  0
ENDSEC
  0
SECTION
  2
CLASSES
  0
CLASS
  1
ACDBDICTIONARYWDFLT
  2
AcDbDictionaryWithDefault
  3
ObjectDBX Classes
 90
        0
 91
        1
280
     0
281
     0
  0
CLASS
  1
MATERIAL
  2
AcDbMaterial
  3
ObjectDBX Classes
 90
     1153
 91
        3
280
     0
281
     0
  0
CLASS
  1
VISUALSTYLE
  2
AcDbVisualStyle
  3
ObjectDBX Classes
 90
     4095
 91
        3
280
     0
281
     0
  0
CLASS
  1
TABLESTYLE
  2
AcDbTableStyle
  3
ObjectDBX Classes
 90
     4095
 91
        1
280
     0
281
     0
  0
CLASS
  1
SCALE
  2
AcDbScale
  3
ObjectDBX Classes
 90
     1153
 91
       33
280
     0
281
     0
  0
CLASS
  1
MLEADERSTYLE
  2
AcDbMLeaderStyle
  3
ACDB_MLEADERSTYLE_CLASS
 90
     4095
 91
        0
280
     0
281
     0
  0
CLASS
  1
SORTENTSTABLE
  2
AcDbSortentsTable
  3
ObjectDBX Classes
 90
        0
 91
        4
280
     0
281
     0
  0
CLASS
  1
CELLSTYLEMAP
  2
AcDbCellStyleMap
  3
ObjectDBX Classes
 90
     1152
 91
        1
280
     0
281
     0
  0
CLASS
  1
DICTIONARYVAR
  2
AcDbDictionaryVar
  3
ObjectDBX Classes
 90
        0
 91
        7
280
     0
281
     0
  0
CLASS
  1
DIMASSOC
  2
AcDbDimAssoc
  3
"AcDbDimAssoc|Product Desc:     AcDim ARX App For Dimension|Company:          Autodesk, Inc.|WEB Address:      www.autodesk.com"
 90
        0
 91
        0
280
     0
281
     0
  0
CLASS
  1
IMAGEDEF
  2
AcDbRasterImageDef
  3
ISM
 90
        0
 91
        0
280
     0
281
     0
  0
CLASS
  1
ACAD_TABLE
  2
AcDbTable
  3
ObjectDBX Classes
 90
     1025
 91
        0
280
     0
281
     1
  0
CLASS
  1
TABLECONTENT
  2
AcDbTableContent
  3
ObjectDBX Classes
 90
     1152
 91
        0
280
     0
281
     0
  0
CLASS
  1
TABLEGEOMETRY
  2
AcDbTableGeometry
  3
ObjectDBX Classes
 90
     1152
 91
        0
280
     0
281
     0
  0
CLASS
  1
EXACXREFPANELOBJECT
  2
ExAcXREFPanelObject
  3
EXAC_ESW
 90
     1025
 91
        0
280
     1
281
     0
  0
CLASS
  1
NPOCOLLECTION
  2
AcDbImpNonPersistentObjectsCollection
  3
ObjectDBX Classes
 90
     1153
 91
        0
280
     0
281
     0
  0
CLASS
  1
ACDBASSOCNETWORK
  2
AcDbAssocNetwork
  3
ObjectDBX Classes
 90
     1025
 91
        0
280
     0
281
     0
  0
CLASS
  1
ACDBASSOCVARIABLE
  2
AcDbAssocVariable
  3
ObjectDBX Classes
 90
     1025
 91
        0
280
     0
281
     0
  0
CLASS
  1
ACDBASSOCVALUEDEPENDENCY
  2
AcDbAssocValueDependency
  3
ObjectDBX Classes
 90
     1025
 91
        0
280
     0
281
     0
  0
CLASS
  1
ACDBASSOCDEPENDENCY
  2
AcDbAssocDependency
  3
ObjectDBX Classes
 90
     1025
 91
        0
280
     0
281
     0
  0
CLASS
  1
ASSOCDIMDEPENDENCYBODY
  2
AcDbAssocDimDependencyBody
  3
ObjectDBX Classes
 90
     1025
 91
        0
280
     0
281
     0
  0
CLASS
  1
ACDBASSOC2DCONSTRAINTGROUP
  2
AcDbAssoc2dConstraintGroup
  3
ObjectDBX Classes
 90
     1025
 91
        0
280
     0
281
     0
  0
CLASS
  1
ACDBASSOCGEOMDEPENDENCY
  2
AcDbAssocGeomDependency
  3
ObjectDBX Classes
 90
     1025
 91
        0
280
     0
281
     0
  0
CLASS
  1
SOLID_BACKGROUND
  2
AcDbSolidBackground
  3
SCENEOE
 90
     4095
 91
        0
280
     0
281
     0
  0
CLASS
  1
AEC_REFEDIT_STATUS_TRACKER
  2
AecDbRefEditStatusTracker
  3
AecArchBase60|Product Desc: Autodesk Architectural Desktop 2007 |Company: Autodesk,Inc. |WEB Address: www.autodesk.com
 90
      129
 91
        0
280
     0
281
     0
  0
ENDSEC
  0
SECTION
  2
TABLES
  0
TABLE
  2
VPORT
  5
2B
102
{ACAD_XDICTIONARY
360
31
102
}
330
0
100
AcDbSymbolTable
 70
     1
  0
VPORT
  5
2C
330
2B
100
AcDbSymbolTableRecord
100
AcDbViewportTableRecord
  2
*Active
 70
     0
 10
0.0
 20
0.0
 11
1.0
 21
1.0
 12
756.8022032127255
 22
774.7677779040518
 13
0.0
 23
0.0
 14
1.0
 24
1.0
 15
100.0
 25
100.0
 16
0.0
 26
0.0
 36
1.0
 17
0.0
 27
0.0
 37
0.0
 40
2390.785888892168
 41
1.937738246505718
 42
50.0
 43
0.0
 44
0.0
 50
0.0
 51
0.0
 71
     0
 72
  1000
 73
     1
 74
     0
 75
     0
 76
     0
 77
     0
 78
     0
281
     0
 65
     1
110
0.0
120
0.0
130
0.0
111
1.0
121
0.0
131
0.0
112
0.0
122
1.0
132
0.0
 79
     0
146
0.0
348
2D
 60
     3
 61
     5
292
     1
282
     1
141
0.0
142
0.0
 63
   250
421
  3355443
  0
ENDTAB
  0
TABLE
  2
LTYPE
  5
26
330
0
100
AcDbSymbolTable
 70
     4
  0
LTYPE
  5
27
330
26
100
AcDbSymbolTableRecord
100
AcDbLinetypeTableRecord
  2
ByBlock
 70
     0
  3

 72
    65
 73
     0
 40
0.0
  0
LTYPE
  5
28
330
26
100
AcDbSymbolTableRecord
100
AcDbLinetypeTableRecord
  2
ByLayer
 70
     0
  3

 72
    65
 73
     0
 40
0.0
  0
LTYPE
  5
15
330
26
100
AcDbSymbolTableRecord
100
AcDbLinetypeTableRecord
  2
CONTINUOUS
 70
     0
  3
Ausgezogene Linie
 72
    65
 73
     0
 40
0.0
  0
LTYPE
  5
82
330
26
100
AcDbSymbolTableRecord
100
AcDbLinetypeTableRecord
  2
VERDECKT
 70
     0
  3
__ __ __ __ __ __ __ __ __ __ __ __ __ __ __ __
 72
    65
 73
     2
 40
0.375
 49
0.25
 74
     0
 49
-0.125
 74
     0
  0
LTYPE
  5
217
330
26
100
AcDbSymbolTableRecord
100
AcDbLinetypeTableRecord
  2
STRICHPUNKT
 70
     0
  3
__ . __ . __ . __ . __ . __ . __ . __ . __ . __
 72
    65
 73
     4
 40
1.0
 49
0.5
 74
     0
 49
-0.25
 74
     0
 49
0.0
 74
     0
 49
-0.25
 74
     0
  0
LTYPE
  5
230
330
26
100
AcDbSymbolTableRecord
100
AcDbLinetypeTableRecord
  2
AUSGEZOGEN
 70
     0
  3
Ausgezogene Linie
 72
    65
 73
     0
 40
0.0
  0
ENDTAB
  0
TABLE
  2
LAYER
  5
1F
102
{ACAD_XDICTIONARY
360
20
102
}
330
0
100
AcDbSymbolTable
 70
    10
  0
LAYER
  5
6
102
{ACAD_XDICTIONARY
360
7
102
}
330
1F
100
AcDbSymbolTableRecord
100
AcDbLayerTableRecord
  2
0
 70
     0
 62
     7
  6
CONTINUOUS
370
    -3
390
9
347
C
  0
LAYER
  5
452
102
{ACAD_XDICTIONARY
360
453
102
}
330
1F
100
AcDbSymbolTableRecord
100
AcDbLayerTableRecord
  2
01-01
 70
     0
 62
     2
  6
CONTINUOUS
370
    -3
390
9
347
C
  0
LAYER
  5
7F
102
{ACAD_XDICTIONARY
360
80
102
}
330
1F
100
AcDbSymbolTableRecord
100
AcDbLayerTableRecord
  2
03-01
 70
     0
 62
     3
  6
VERDECKT
370
    -3
390
9
347
C
  0
LAYER
  5
214
102
{ACAD_XDICTIONARY
360
215
102
}
330
1F
100
AcDbSymbolTableRecord
100
AcDbLayerTableRecord
  2
05-01
 70
     0
 62
     1
  6
STRICHPUNKT
370
    -3
390
9
347
C
  0
LAYER
  5
51
102
{ACAD_XDICTIONARY
360
52
102
}
330
1F
100
AcDbSymbolTableRecord
100
AcDbLayerTableRecord
  2
09-01
 70
     0
 62
     7
  6
CONTINUOUS
370
    -3
390
9
347
C
  0
LAYER
  5
227
102
{ACAD_XDICTIONARY
360
228
102
}
330
1F
100
AcDbSymbolTableRecord
100
AcDbLayerTableRecord
  2
01-99
 70
     0
 62
     2
  6
CONTINUOUS
370
    -3
390
9
347
C
  0
LAYER
  5
265
102
{ACAD_XDICTIONARY
360
266
102
}
330
1F
100
AcDbSymbolTableRecord
100
AcDbLayerTableRecord
  2
06-99
 70
     0
 62
     1
  6
AUSGEZOGEN
370
    -3
390
9
347
C
  0
LAYER
  5
22D
102
{ACAD_XDICTIONARY
360
22E
102
}
330
1F
100
AcDbSymbolTableRecord
100
AcDbLayerTableRecord
  2
02-99
 70
     0
 62
     1
  6
AUSGEZOGEN
370
    -3
390
9
347
C
  0
LAYER
  5
2B7
330
1F
100
AcDbSymbolTableRecord
100
AcDbLayerTableRecord
  2
DEFPOINTS
 70
     0
 62
     7
  6
CONTINUOUS
290
     0
370
    -3
390
9
347
C
  0
LAYER
  5
24F
102
{ACAD_XDICTIONARY
360
250
102
}
330
1F
100
AcDbSymbolTableRecord
100
AcDbLayerTableRecord
  2
08-99
 70
     0
 62
     7
  6
CONTINUOUS
370
    -3
390
9
347
C
  0
ENDTAB
  0
TABLE
  2
STYLE
  5
22
330
0
100
AcDbSymbolTable
 70
     3
  0
STYLE
  5
23
330
22
100
AcDbSymbolTableRecord
100
AcDbTextStyleTableRecord
  2
STANDARD
 70
     0
 40
0.0
 41
1.0
 50
0.0
 71
     0
 42
3.5
  3
arial.ttf
  4

1001
ACAD
1000
Arial
1071
       34
  0
STYLE
  5
252
330
22
100
AcDbSymbolTableRecord
100
AcDbTextStyleTableRecord
  2
ROMANS8
 70
     0
 40
0.0
 41
1.0
 50
0.0
 71
     0
 42
2.5
  3
ROMANS8
  4

  0
STYLE
  5
278
330
22
100
AcDbSymbolTableRecord
100
AcDbTextStyleTableRecord
  2
ROMAND8
 70
     0
 40
0.0
 41
1.0
 50
0.0
 71
     0
 42
3.5
  3
ROMAND8
  4

  0
ENDTAB
  0
TABLE
  2
VIEW
  5
29
330
0
100
AcDbSymbolTable
 70
     0
  0
ENDTAB
  0
TABLE
  2
UCS
  5
2A
330
0
100
AcDbSymbolTable
 70
     0
  0
ENDTAB
  0
TABLE
  2
APPID
  5
32
330
0
100
AcDbSymbolTable
 70
     4
  0
APPID
  5
24
330
32
100
AcDbSymbolTableRecord
100
AcDbRegAppTableRecord
  2
ACAD
 70
     0
  0
APPID
  5
35
330
32
100
AcDbSymbolTableRecord
100
AcDbRegAppTableRecord
  2
ACAD_DSTYLE_DIMJOGGED_JOGANGLE_SYMBOL
 70
     0
  0
APPID
  5
36
330
32
100
AcDbSymbolTableRecord
100
AcDbRegAppTableRecord
  2
ACAD_DSTYLE_DIMJAG
 70
     0
  0
APPID
  5
37
330
32
100
AcDbSymbolTableRecord
100
AcDbRegAppTableRecord
  2
ACAD_DSTYLE_DIMTALN
 70
     0
  0
ENDTAB
  0
TABLE
  2
DIMSTYLE
  5
33
330
0
100
AcDbSymbolTable
 70
     3
100
AcDbDimStyleTable
 71
     2
340
34
340
38
  0
DIMSTYLE
105
38
330
33
100
AcDbSymbolTableRecord
100
AcDbDimStyleTableRecord
  2
Standard
 70
     0
340
23
  0
DIMSTYLE
105
34
330
33
100
AcDbSymbolTableRecord
100
AcDbDimStyleTableRecord
  2
Wagner
 70
     0
 41
2.5
 42
1.0
 43
10.0
 44
1.0
 73
     0
 74
     0
 77
     1
 78
     8
 79
     2
140
2.5
141
0.0
143
0.03937007874016
147
1.0
171
     3
172
     1
176
     4
177
     4
178
     1
179
     2
271
     8
272
     8
274
     3
283
     0
284
     8
340
23
1001
ACAD_DSTYLE_DIMJOGGED_JOGANGLE_SYMBOL
1070
   384
1040
0.7853981633974483
1001
ACAD_DSTYLE_DIMJAG
1070
   388
1040
1.5
1001
ACAD_DSTYLE_DIMTALN
1070
   392
1070
     0
  0
DIMSTYLE
105
2BB
102
{ACAD_REACTORS
330
3D0
330
451
330
47D
330
4AA
330
3C3
330
3B4
330
3A5
330
398
330
389
330
37C
330
36F
330
360
330
351
330
344
330
335
330
328
330
31B
330
30E
330
301
330
2F4
330
2E7
330
2DA
330
2CB
330
2BC
330
2AB
102
}
330
33
100
AcDbSymbolTableRecord
100
AcDbDimStyleTableRecord
  2
Wagner$0
 70
     0
 41
2.5
 42
1.0
 43
10.0
 44
1.0
 73
     0
 74
     0
 77
     1
 78
     8
 79
     2
140
2.5
141
0.0
143
0.03937007874016
147
1.0
171
     3
172
     1
174
     1
176
     4
177
     4
178
     1
179
     2
271
     8
272
     8
274
     3
279
     2
283
     0
284
     8
340
23
1001
ACAD_DSTYLE_DIMJOGGED_JOGANGLE_SYMBOL
1070
   384
1040
0.7853981633974483
1001
ACAD_DSTYLE_DIMJAG
1070
   388
1040
1.5
1001
ACAD_DSTYLE_DIMTALN
1070
   392
1070
     0
  0
ENDTAB
  0
TABLE
  2
BLOCK_RECORD
  5
1
330
0
100
AcDbSymbolTable
 70
    29
  0
BLOCK_RECORD
  5
2
102
{ACAD_XDICTIONARY
360
3
102
}
330
1
100
AcDbSymbolTableRecord
100
AcDbBlockTableRecord
  2
*Model_Space
340
17
 70
     0
280
     1
281
     0
  0
BLOCK_RECORD
  5
1B
330
1
100
AcDbSymbolTableRecord
100
AcDbBlockTableRecord
  2
*Paper_Space
340
1E
 70
     0
280
     1
281
     0
  0
BLOCK_RECORD
  5
222
102
{ACAD_XDICTIONARY
360
223
102
}
330
1
100
AcDbSymbolTableRecord
100
AcDbBlockTableRecord
  2
DIN A4
340
0
102
{BLKREFS
331
221
102
}
 70
     4
280
     1
281
     0
  0
BLOCK_RECORD
  5
4AB
330
1
100
AcDbSymbolTableRecord
100
AcDbBlockTableRecord
  2
*D1
340
0
 70
     0
280
     1
281
     0
  0
BLOCK_RECORD
  5
47E
330
1
100
AcDbSymbolTableRecord
100
AcDbBlockTableRecord
  2
*D2
340
0
 70
     0
280
     1
281
     0
  0
BLOCK_RECORD
  5
455
330
1
100
AcDbSymbolTableRecord
100
AcDbBlockTableRecord
  2
*D3
340
0
 70
     0
280
     1
281
     0
  0
BLOCK_RECORD
  5
3E4
330
1
100
AcDbSymbolTableRecord
100
AcDbBlockTableRecord
  2
Drahtkorb 023180-D
340
0
310
2800000020000000200000000100080000000000000400000000000000000000000000000000000000000000000080000080000000808000800000008000800080800000C0C0C000C0DCC000F0CAA6000020400000206000002080000020A0000020C0000020E00000400000004020000040400000406000004080000040A0
310
000040C0000040E00000600000006020000060400000606000006080000060A0000060C0000060E00000800000008020000080400000806000008080000080A0000080C0000080E00000A0000000A0200000A0400000A0600000A0800000A0A00000A0C00000A0E00000C0000000C0200000C0400000C0600000C0800000C0
310
A00000C0C00000C0E00000E0000000E0200000E0400000E0600000E0800000E0A00000E0C00000E0E00040000000400020004000400040006000400080004000A0004000C0004000E00040200000402020004020400040206000402080004020A0004020C0004020E000404000004040200040404000404060004040800040
310
40A0004040C0004040E00040600000406020004060400040606000406080004060A0004060C0004060E00040800000408020004080400040806000408080004080A0004080C0004080E00040A0000040A0200040A0400040A0600040A0800040A0A00040A0C00040A0E00040C0000040C0200040C0400040C0600040C08000
310
40C0A00040C0C00040C0E00040E0000040E0200040E0400040E0600040E0800040E0A00040E0C00040E0E00080000000800020008000400080006000800080008000A0008000C0008000E00080200000802020008020400080206000802080008020A0008020C0008020E00080400000804020008040400080406000804080
310
008040A0008040C0008040E00080600000806020008060400080606000806080008060A0008060C0008060E00080800000808020008080400080806000808080008080A0008080C0008080E00080A0000080A0200080A0400080A0600080A0800080A0A00080A0C00080A0E00080C0000080C0200080C0400080C0600080C0
310
800080C0A00080C0C00080C0E00080E0000080E0200080E0400080E0600080E0800080E0A00080E0C00080E0E000C0000000C0002000C0004000C0006000C0008000C000A000C000C000C000E000C0200000C0202000C0204000C0206000C0208000C020A000C020C000C020E000C0400000C0402000C0404000C0406000C0
310
408000C040A000C040C000C040E000C0600000C0602000C0604000C0606000C0608000C060A000C060C000C060E000C0800000C0802000C0804000C0806000C0808000C080A000C080C000C080E000C0A00000C0A02000C0A04000C0A06000C0A08000C0A0A000C0A0C000C0A0E000C0C00000C0C02000C0C04000C0C06000
310
C0C08000C0C0A000F0FBFF00A4A0A000808080000000FF0000FF000000FFFF00FF000000FF00FF00FFFF0000FFFFFF00000000000000000000000000000000000000000000000000000000000000000000000000000000000000000000000000000000000000000000000000000000000000FFFFFFFFFFFFFFFFFFFFFFFFFF
310
FFFFFFFFFFFFFFFFFFFFFFFFFFFFFF000000FFFFFFFFFFFFFFFFFFFFFFFFFFFFFFFFFFFFFFFFFFFFFFFFFFFFFFFFFFFF0000FFFF0000FFFF000000FFFF000000FFFF000000FFFF000000FFFF0000FFFF0000FFFF0000FFFF000000FFFF000000FFFF000000FFFF000000FFFF0000FFFF0000FFFF0000FFFF000000FFFF0000
310
00FFFF000000FFFF000000FFFF0000FFFF0000FFFF0000FFFF000000FFFF000000FFFF000000FFFF000000FFFF0000FFFF0000FFFFFFFFFFFFFFFFFFFFFFFFFFFFFFFFFFFFFFFFFFFFFFFFFFFFFFFFFFFF0000FFFF0000FFFF000000FFFF000000FFFF000000FFFF000000FFFF0000FFFF0000FFFF0000FFFF000000FFFF00
310
0000FFFF000000FFFF000000FFFF0000FFFF0000FFFF0000FFFF000000FFFF000000FFFF000000FFFF000000FFFF0000FFFF0000FFFF0000FFFF000000FFFF000000FFFF000000FFFF000000FFFF0000FFFF0000FFFFFFFFFFFFFFFFFFFFFFFFFFFFFFFFFFFFFFFFFFFFFFFFFFFFFFFFFFFF0000FFFF0000FFFF000000FFFF
310
000000FFFF000000FFFF000000FFFF0000FFFF0000FFFF0000FFFF000000FFFF000000FFFF000000FFFF000000FFFF0000FFFF0000FFFF0000FFFF000000FFFF000000FFFF000000FFFF000000FFFF0000FFFF0000FFFF0000FFFF000000FFFF000000FFFF000000FFFF000000FFFF0000FFFF0000FFFFFFFFFFFFFFFFFFFF
310
FFFFFFFFFFFFFFFFFFFFFFFFFFFFFFFFFFFFFFFF0000FFFF0000FFFF000000FFFF000000FFFF000000FFFF000000FFFF0000FFFF0000FFFF0000FFFF000000FFFF000000FFFF000000FFFF000000FFFF0000FFFF0000FFFF0000FFFF000000FFFF000000FFFF000000FFFF000000FFFF0000FFFF0000FFFF0000FFFF000000
310
FFFF000000FFFF000000FFFF000000FFFF0000FFFF0000FFFFFFFFFFFFFFFFFFFFFFFFFFFFFFFFFFFFFFFFFFFFFFFFFFFFFFFFFFFF0000FFFF0000FFFF000000FFFF000000FFFF000000FFFF000000FFFF0000FFFF0000FFFF0000FFFF000000FFFF000000FFFF000000FFFF000000FFFF0000FFFF0000FFFF0000FFFF0000
310
00FFFF000000FFFF000000FFFF000000FFFF0000FFFF0000FFFF0000FFFF000000FFFF000000FFFF000000FFFF000000FFFF0000FFFF0000FFFFFFFFFFFFFFFFFFFFFFFFFFFFFFFFFFFFFFFFFFFFFFFFFFFFFFFFFFFF000000FFFFFFFFFFFFFFFFFFFFFFFFFFFFFFFFFFFFFFFFFFFFFFFFFFFFFFFF00000000000000000000
310
0000000000000000000000000000000000000000000000000000000000000000000000000000000000000000000000000000000000000000
102
{BLKREFS
331
3E3
102
}
 70
     4
280
     1
281
     1
  0
BLOCK_RECORD
  5
3D1
330
1
100
AcDbSymbolTableRecord
100
AcDbBlockTableRecord
  2
*D5
340
0
 70
     0
280
     1
281
     0
  0
BLOCK_RECORD
  5
3C4
330
1
100
AcDbSymbolTableRecord
100
AcDbBlockTableRecord
  2
*D6
340
0
 70
     0
280
     1
281
     0
  0
BLOCK_RECORD
  5
3B5
330
1
100
AcDbSymbolTableRecord
100
AcDbBlockTableRecord
  2
*D7
340
0
 70
     0
280
     1
281
     0
  0
BLOCK_RECORD
  5
3A6
330
1
100
AcDbSymbolTableRecord
100
AcDbBlockTableRecord
  2
*D8
340
0
 70
     0
280
     1
281
     0
  0
BLOCK_RECORD
  5
399
330
1
100
AcDbSymbolTableRecord
100
AcDbBlockTableRecord
  2
*D9
340
0
 70
     0
280
     1
281
     0
  0
BLOCK_RECORD
  5
38A
330
1
100
AcDbSymbolTableRecord
100
AcDbBlockTableRecord
  2
*D10
340
0
 70
     0
280
     1
281
     0
  0
BLOCK_RECORD
  5
37D
330
1
100
AcDbSymbolTableRecord
100
AcDbBlockTableRecord
  2
*D11
340
0
 70
     0
280
     1
281
     0
  0
BLOCK_RECORD
  5
370
330
1
100
AcDbSymbolTableRecord
100
AcDbBlockTableRecord
  2
*D12
340
0
 70
     0
280
     1
281
     0
  0
BLOCK_RECORD
  5
361
330
1
100
AcDbSymbolTableRecord
100
AcDbBlockTableRecord
  2
*D13
340
0
 70
     0
280
     1
281
     0
  0
BLOCK_RECORD
  5
352
330
1
100
AcDbSymbolTableRecord
100
AcDbBlockTableRecord
  2
*D14
340
0
 70
     0
280
     1
281
     0
  0
BLOCK_RECORD
  5
345
330
1
100
AcDbSymbolTableRecord
100
AcDbBlockTableRecord
  2
*D15
340
0
 70
     0
280
     1
281
     0
  0
BLOCK_RECORD
  5
336
330
1
100
AcDbSymbolTableRecord
100
AcDbBlockTableRecord
  2
*D16
340
0
 70
     0
280
     1
281
     0
  0
BLOCK_RECORD
  5
329
330
1
100
AcDbSymbolTableRecord
100
AcDbBlockTableRecord
  2
*D17
340
0
 70
     0
280
     1
281
     0
  0
BLOCK_RECORD
  5
31C
330
1
100
AcDbSymbolTableRecord
100
AcDbBlockTableRecord
  2
*D18
340
0
 70
     0
280
     1
281
     0
  0
BLOCK_RECORD
  5
30F
330
1
100
AcDbSymbolTableRecord
100
AcDbBlockTableRecord
  2
*D19
340
0
 70
     0
280
     1
281
     0
  0
BLOCK_RECORD
  5
302
330
1
100
AcDbSymbolTableRecord
100
AcDbBlockTableRecord
  2
*D20
340
0
 70
     0
280
     1
281
     0
  0
BLOCK_RECORD
  5
2F5
330
1
100
AcDbSymbolTableRecord
100
AcDbBlockTableRecord
  2
*D21
340
0
 70
     0
280
     1
281
     0
  0
BLOCK_RECORD
  5
2E8
330
1
100
AcDbSymbolTableRecord
100
AcDbBlockTableRecord
  2
*D22
340
0
 70
     0
280
     1
281
     0
  0
BLOCK_RECORD
  5
2DB
330
1
100
AcDbSymbolTableRecord
100
AcDbBlockTableRecord
  2
*D23
340
0
 70
     0
280
     1
281
     0
  0
BLOCK_RECORD
  5
2CC
330
1
100
AcDbSymbolTableRecord
100
AcDbBlockTableRecord
  2
*D24
340
0
 70
     0
280
     1
281
     0
  0
BLOCK_RECORD
  5
2BD
330
1
100
AcDbSymbolTableRecord
100
AcDbBlockTableRecord
  2
*D25
340
0
 70
     0
280
     1
281
     0
  0
BLOCK_RECORD
  5
2AC
330
1
100
AcDbSymbolTableRecord
100
AcDbBlockTableRecord
  2
*D26
340
0
 70
     0
280
     1
281
     0
  0
BLOCK_RECORD
  5
14B
330
1
100
AcDbSymbolTableRecord
100
AcDbBlockTableRecord
  2
Drahtkorb 023180-V
340
0
310
2800000020000000200000000100080000000000000400000000000000000000000000000000000000000000000080000080000000808000800000008000800080800000C0C0C000C0DCC000F0CAA6000020400000206000002080000020A0000020C0000020E00000400000004020000040400000406000004080000040A0
310
000040C0000040E00000600000006020000060400000606000006080000060A0000060C0000060E00000800000008020000080400000806000008080000080A0000080C0000080E00000A0000000A0200000A0400000A0600000A0800000A0A00000A0C00000A0E00000C0000000C0200000C0400000C0600000C0800000C0
310
A00000C0C00000C0E00000E0000000E0200000E0400000E0600000E0800000E0A00000E0C00000E0E00040000000400020004000400040006000400080004000A0004000C0004000E00040200000402020004020400040206000402080004020A0004020C0004020E000404000004040200040404000404060004040800040
310
40A0004040C0004040E00040600000406020004060400040606000406080004060A0004060C0004060E00040800000408020004080400040806000408080004080A0004080C0004080E00040A0000040A0200040A0400040A0600040A0800040A0A00040A0C00040A0E00040C0000040C0200040C0400040C0600040C08000
310
40C0A00040C0C00040C0E00040E0000040E0200040E0400040E0600040E0800040E0A00040E0C00040E0E00080000000800020008000400080006000800080008000A0008000C0008000E00080200000802020008020400080206000802080008020A0008020C0008020E00080400000804020008040400080406000804080
310
008040A0008040C0008040E00080600000806020008060400080606000806080008060A0008060C0008060E00080800000808020008080400080806000808080008080A0008080C0008080E00080A0000080A0200080A0400080A0600080A0800080A0A00080A0C00080A0E00080C0000080C0200080C0400080C0600080C0
310
800080C0A00080C0C00080C0E00080E0000080E0200080E0400080E0600080E0800080E0A00080E0C00080E0E000C0000000C0002000C0004000C0006000C0008000C000A000C000C000C000E000C0200000C0202000C0204000C0206000C0208000C020A000C020C000C020E000C0400000C0402000C0404000C0406000C0
310
408000C040A000C040C000C040E000C0600000C0602000C0604000C0606000C0608000C060A000C060C000C060E000C0800000C0802000C0804000C0806000C0808000C080A000C080C000C080E000C0A00000C0A02000C0A04000C0A06000C0A08000C0A0A000C0A0C000C0A0E000C0C00000C0C02000C0C04000C0C06000
310
C0C08000C0C0A000F0FBFF00A4A0A000808080000000FF0000FF000000FFFF00FF000000FF00FF00FFFF0000FFFFFF0000000000000000000000000000000000000000000000000000000000000000000000000000000000FFFFFFFFFFFFFFFFFFFFFFFFFFFFFFFF00000000000000000000000000000000FFFFFFFFFFFFFF
310
FFFFFFFFFFFFFFFFFF00000000000000000000000000000000FFFFFFFFFFFFFFFFFFFFFFFFFFFFFFFF00000000000000000000000000000000FFFFFF00FFFF00FFFF00FFFF00FFFFFF00000000000000000000000000000000FFFFFFFFFFFFFFFFFFFFFFFFFFFFFFFF00000000000000000000000000000000FFFFFFFFFFFF
310
FFFFFFFFFFFFFFFFFFFF00000000000000000000000000000000FFFFFF00FFFF00FFFF00FFFF00FFFFFF00000000000000000000000000000000FFFFFFFFFFFFFFFFFFFFFFFFFFFFFFFF00000000000000000000000000000000FFFFFFFFFFFFFFFFFFFFFFFFFFFFFFFF00000000000000000000000000000000FFFFFF00FF
310
FF00FFFF00FFFF00FFFFFF00000000000000000000000000000000FFFFFFFFFFFFFFFFFFFFFFFFFFFFFFFF00000000000000000000000000000000FFFFFF00FFFF00FFFF00FFFF00FFFFFF00000000000000000000000000000000FFFFFF00FFFF00FFFF00FFFF00FFFFFF00000000000000000000000000000000FFFFFFFF
310
FFFFFFFFFFFFFFFFFFFFFFFF00000000000000000000000000000000FFFFFF00FFFF00FFFF00FFFF00FFFFFF00000000000000000000000000000000FFFFFF00FFFF00FFFF00FFFF00FFFFFF00000000000000000000000000000000FFFFFFFFFFFFFFFFFFFFFFFFFFFFFFFF00000000000000000000000000000000FFFFFF
310
FFFFFFFFFFFFFFFFFFFFFFFFFF00000000000000000000000000000000FFFFFF00FFFF00FFFF00FFFF00FFFFFF00000000000000000000000000000000FFFFFFFFFFFFFFFFFFFFFFFFFFFFFFFF00000000000000000000000000000000FFFFFFFFFFFFFFFFFFFFFFFFFFFFFFFF00000000000000000000000000000000FFFF
310
FF00FFFF00FFFF00FFFF00FFFFFF00000000000000000000000000000000FFFFFFFFFFFFFFFFFFFFFFFFFFFFFFFF00000000000000000000000000000000FFFFFFFFFFFFFFFFFFFFFFFFFFFFFFFF00000000000000000000000000000000FFFFFF00FFFF00FFFF00FFFF00FFFFFF00000000000000000000000000000000FF
310
FFFFFFFFFFFFFFFFFFFFFFFFFFFFFF00000000000000000000000000000000FFFFFFFFFFFFFFFFFFFFFFFFFFFFFFFF00000000000000000000000000000000FFFFFF00FFFF00FFFF00FFFF00FFFFFF00000000000000000000000000000000FFFFFFFFFFFFFFFFFFFFFFFFFFFFFFFF00000000000000000000000000000000
310
FFFFFFFFFFFFFFFFFFFFFFFFFFFFFFFF00000000000000000000000000000000000000000000000000000000000000000000000000000000
102
{BLKREFS
331
14A
102
}
 70
     4
280
     1
281
     0
  0
BLOCK_RECORD
  5
83
330
1
100
AcDbSymbolTableRecord
100
AcDbBlockTableRecord
  2
Drahtkorb 023180-S
340
0
310
2800000020000000200000000100080000000000000400000000000000000000000000000000000000000000000080000080000000808000800000008000800080800000C0C0C000C0DCC000F0CAA6000020400000206000002080000020A0000020C0000020E00000400000004020000040400000406000004080000040A0
310
000040C0000040E00000600000006020000060400000606000006080000060A0000060C0000060E00000800000008020000080400000806000008080000080A0000080C0000080E00000A0000000A0200000A0400000A0600000A0800000A0A00000A0C00000A0E00000C0000000C0200000C0400000C0600000C0800000C0
310
A00000C0C00000C0E00000E0000000E0200000E0400000E0600000E0800000E0A00000E0C00000E0E00040000000400020004000400040006000400080004000A0004000C0004000E00040200000402020004020400040206000402080004020A0004020C0004020E000404000004040200040404000404060004040800040
310
40A0004040C0004040E00040600000406020004060400040606000406080004060A0004060C0004060E00040800000408020004080400040806000408080004080A0004080C0004080E00040A0000040A0200040A0400040A0600040A0800040A0A00040A0C00040A0E00040C0000040C0200040C0400040C0600040C08000
310
40C0A00040C0C00040C0E00040E0000040E0200040E0400040E0600040E0800040E0A00040E0C00040E0E00080000000800020008000400080006000800080008000A0008000C0008000E00080200000802020008020400080206000802080008020A0008020C0008020E00080400000804020008040400080406000804080
310
008040A0008040C0008040E00080600000806020008060400080606000806080008060A0008060C0008060E00080800000808020008080400080806000808080008080A0008080C0008080E00080A0000080A0200080A0400080A0600080A0800080A0A00080A0C00080A0E00080C0000080C0200080C0400080C0600080C0
310
800080C0A00080C0C00080C0E00080E0000080E0200080E0400080E0600080E0800080E0A00080E0C00080E0E000C0000000C0002000C0004000C0006000C0008000C000A000C000C000C000E000C0200000C0202000C0204000C0206000C0208000C020A000C020C000C020E000C0400000C0402000C0404000C0406000C0
310
408000C040A000C040C000C040E000C0600000C0602000C0604000C0606000C0608000C060A000C060C000C060E000C0800000C0802000C0804000C0806000C0808000C080A000C080C000C080E000C0A00000C0A02000C0A04000C0A06000C0A08000C0A0A000C0A0C000C0A0E000C0C00000C0C02000C0C04000C0C06000
310
C0C08000C0C0A000F0FBFF00A4A0A000808080000000FF0000FF000000FFFF00FF000000FF00FF00FFFF0000FFFFFF0000000000000000000000000000000000000000000000000000000000000000000000000000000000FFFFFFFFFFFFFFFFFFFFFFFFFFFFFFFF000000000000000000000000000000FFFFFFFFFFFFFFFF
310
FFFFFFFFFFFFFFFFFFFF0000000000000000000000000000FFFFFFFFFFFFFFFFFFFFFFFFFFFFFFFFFFFF0000000000000000000000000000FFFFFFFF00FFFF00FFFF00FFFF00FFFFFFFF0000000000000000000000000000FFFFFFFFFFFFFFFFFFFFFFFFFFFFFFFFFFFF0000000000000000000000000000FFFFFFFFFFFFFF
310
FFFFFFFFFFFFFFFFFFFFFF0000000000000000000000000000FFFFFFFF00FFFF00FFFF00FFFF00FFFFFFFF0000000000000000000000000000FFFFFFFFFFFFFFFFFFFFFFFFFFFFFFFFFFFF0000000000000000000000000000FFFFFFFFFFFFFFFFFFFFFFFFFFFFFFFFFFFF0000000000000000000000000000FFFFFFFF00FF
310
FF00FFFF00FFFF00FFFFFFFF0000000000000000000000000000FFFFFFFFFFFFFFFFFFFFFFFFFFFFFFFFFFFF0000000000000000000000000000FFFFFFFF00FFFF00FFFF00FFFF00FFFFFFFF0000000000000000000000000000FFFFFFFF00FFFF00FFFF00FFFF00FFFFFFFF0000000000000000000000000000FFFFFFFFFF
310
FFFFFFFFFFFFFFFFFFFFFFFFFF0000000000000000000000000000FFFFFFFF00FFFF00FFFF00FFFF00FFFFFFFF0000000000000000000000000000FFFFFFFF00FFFF00FFFF00FFFF00FFFFFFFF0000000000000000000000000000FFFFFFFFFFFFFFFFFFFFFFFFFFFFFFFFFFFF0000000000000000000000000000FFFFFFFF
310
FFFFFFFFFFFFFFFFFFFFFFFFFFFF0000000000000000000000000000FFFFFFFF00FFFF00FFFF00FFFF00FFFFFFFF0000000000000000000000000000FFFFFFFFFFFFFFFFFFFFFFFFFFFFFFFFFFFF0000000000000000000000000000FFFFFFFFFFFFFFFFFFFFFFFFFFFFFFFFFFFF0000000000000000000000000000FFFFFF
310
FF00FFFF00FFFF00FFFF00FFFFFFFF0000000000000000000000000000FFFFFFFFFFFFFFFFFFFFFFFFFFFFFFFFFFFF0000000000000000000000000000FFFFFFFFFFFFFFFFFFFFFFFFFFFFFFFFFFFF0000000000000000000000000000FFFFFFFF00FFFF00FFFF00FFFF00FFFFFFFF0000000000000000000000000000FFFF
310
FFFFFFFFFFFFFFFFFFFFFFFFFFFFFFFF0000000000000000000000000000FFFFFFFFFFFFFFFFFFFFFFFFFFFFFFFFFFFF0000000000000000000000000000FFFFFFFF00FFFF00FFFF00FFFF00FFFFFFFF0000000000000000000000000000FFFFFFFFFFFFFFFFFFFFFFFFFFFFFFFFFFFF0000000000000000000000000000FF
310
FFFFFFFFFFFFFFFFFFFFFFFFFFFFFFFFFF000000000000000000000000000000000000000000000000000000000000000000000000000000
102
{BLKREFS
331
7E
102
}
 70
     4
280
     1
281
     0
  0
ENDTAB
  0
ENDSEC
  0
SECTION
  2
BLOCKS
  0
BLOCK
  5
5
330
2
100
AcDbEntity
  8
0
100
AcDbBlockBegin
  2
*Model_Space
 70
     0
 10
0.0
 20
0.0
 30
0.0
  3
*Model_Space
  1

  0
ENDBLK
  5
16
330
2
100
AcDbEntity
  8
0
100
AcDbBlockEnd
  0
BLOCK
  5
1C
330
1B
100
AcDbEntity
 67
     1
  8
0
100
AcDbBlockBegin
  2
*Paper_Space
 70
     0
 10
0.0
 20
0.0
 30
0.0
  3
*Paper_Space
  1

  0
ENDBLK
  5
1D
330
1B
100
AcDbEntity
 67
     1
  8
0
100
AcDbBlockEnd
  0
BLOCK
  5
225
330
222
100
AcDbEntity
  8
0
100
AcDbBlockBegin
  2
DIN A4
 70
     2
 10
0.0
 20
0.0
 30
0.0
  3
DIN A4
  1

  0
LINE
  5
226
330
222
100
AcDbEntity
  8
01-99
100
AcDbLine
 10
204.0000075739527
 20
290.9999979434973
 30
0.0
 11
20.0000075739529
 21
290.9999979434973
 31
0.0
  0
LINE
  5
22A
330
222
100
AcDbEntity
  8
01-99
100
AcDbLine
 10
204.0000075122353
 20
290.9999979871026
 30
0.0
 11
204.0000075122355
 21
5.999997987102574
 31
0.0
  0
LINE
  5
22B
330
222
100
AcDbEntity
  8
01-99
100
AcDbLine
 10
20.0000075122355
 20
5.99999798710246
 30
0.0
 11
20.0000075122355
 21
290.9999979871026
 31
0.0
  0
LWPOLYLINE
  5
22C
330
222
100
AcDbEntity
  8
02-99
100
AcDbPolyline
 90
        4
 70
     1
 43
0.0
 10
0.0000075122354986
 20
-0.0000020128974256
 10
210.0000075122355
 20
-0.0000020128974256
 10
210.0000075122355
 20
296.9999979871026
 10
0.0000075122354986
 20
296.9999979871026
  0
LINE
  5
231
330
222
100
AcDbEntity
  8
01-99
100
AcDbLine
 10
20.0000075122355
 20
5.99999798710246
 30
0.0
 11
204.0000075122355
 21
5.999997987102631
 31
0.0
  0
LINE
  5
232
330
222
100
AcDbEntity
  8
01-99
100
AcDbLine
 10
70.0000075122355
 20
11.11110909810247
 30
0.0
 11
20.0000075122355
 21
11.11110909810247
 31
0.0
  0
LINE
  5
233
330
222
100
AcDbEntity
  8
01-99
100
AcDbLine
 10
70.0000075122355
 20
16.22222020910249
 30
0.0
 11
20.0000075122355
 21
16.22222020910249
 31
0.0
  0
LINE
  5
234
330
222
100
AcDbEntity
  8
01-99
100
AcDbLine
 10
70.0000075122355
 20
21.3333313201025
 30
0.0
 11
20.0000075122355
 21
21.33333132010244
 31
0.0
  0
LINE
  5
235
330
222
100
AcDbEntity
  8
01-99
100
AcDbLine
 10
115.0000075122355
 20
26.44444243110252
 30
0.0
 11
20.0000075122355
 21
26.44444243110246
 31
0.0
  0
LINE
  5
236
330
222
100
AcDbEntity
  8
01-99
100
AcDbLine
 10
115.0000075122355
 20
31.55555354210253
 30
0.0
 11
20.0000075122355
 21
31.55555354210247
 31
0.0
  0
LINE
  5
237
330
222
100
AcDbEntity
  8
01-99
100
AcDbLine
 10
45.0000075122355
 20
5.99999798710246
 30
0.0
 11
45.0000075122355
 21
11.11110909810247
 31
0.0
  0
LINE
  5
238
330
222
100
AcDbEntity
  8
01-99
100
AcDbLine
 10
28.0000075122355
 20
11.11110909810247
 30
0.0
 11
28.0000075122355
 21
36.66666465376915
 31
0.0
  0
LINE
  5
239
330
222
100
AcDbEntity
  8
01-99
100
AcDbLine
 10
70.0000075122355
 20
5.99999798710246
 30
0.0
 11
70.0000075122355
 21
51.99999798710246
 31
0.0
  0
LINE
  5
23A
330
222
100
AcDbEntity
  8
01-99
100
AcDbLine
 10
115.0000075122355
 20
5.99999798710246
 30
0.0
 11
115.0000075122355
 21
51.99999798710246
 31
0.0
  0
LINE
  5
23B
330
222
100
AcDbEntity
  8
01-99
100
AcDbLine
 10
144.5000075122355
 20
5.99999798710246
 30
0.0
 11
144.5000075122355
 21
16.22222020910254
 31
0.0
  0
LINE
  5
23C
330
222
100
AcDbEntity
  8
01-99
100
AcDbLine
 10
177.0000075122355
 20
5.99999798710246
 30
0.0
 11
177.0000075122355
 21
16.2222202091026
 31
0.0
  0
LINE
  5
23D
330
222
100
AcDbEntity
  8
01-99
100
AcDbLine
 10
148.5000075122355
 20
36.6666646537692
 30
0.0
 11
148.5000075122355
 21
51.99999798710257
 31
0.0
  0
LINE
  5
23E
330
222
100
AcDbEntity
  8
01-99
100
AcDbLine
 10
182.0000075122355
 20
36.6666646537692
 30
0.0
 11
182.0000075122355
 21
51.99999798710257
 31
0.0
  0
LINE
  5
23F
330
222
100
AcDbEntity
  8
01-99
100
AcDbLine
 10
78.00000751223549
 20
21.33333132043583
 30
0.0
 11
78.00000751223549
 21
36.6666646537692
 31
0.0
  0
LINE
  5
240
330
222
100
AcDbEntity
  8
01-99
100
AcDbLine
 10
60.00319585166497
 20
11.11110909810247
 30
0.0
 11
60.00319585166497
 21
36.66666465376915
 31
0.0
  0
LINE
  5
241
330
222
100
AcDbEntity
  8
01-99
100
AcDbLine
 10
48.00319585166497
 20
11.11110909810247
 30
0.0
 11
48.00319585166497
 21
36.66666465376915
 31
0.0
  0
LINE
  5
242
330
222
100
AcDbEntity
  8
01-99
100
AcDbLine
 10
204.0000075122355
 20
51.99999798710257
 30
0.0
 11
20.00000751223368
 21
51.99999798710246
 31
0.0
  0
LINE
  5
243
330
222
100
AcDbEntity
  8
01-99
100
AcDbLine
 10
115.0000075122355
 20
21.33333132043583
 30
0.0
 11
70.0000075122355
 21
21.33333132043583
 31
0.0
  0
LINE
  5
244
330
222
100
AcDbEntity
  8
01-99
100
AcDbLine
 10
115.0000075122355
 20
36.6666646537692
 30
0.0
 11
20.0000075122355
 21
36.66666465376909
 31
0.0
  0
LINE
  5
245
330
222
100
AcDbEntity
  8
01-99
100
AcDbLine
 10
92.0000075122355
 20
21.33333132043583
 30
0.0
 11
92.0000075122355
 21
51.99999798710251
 31
0.0
  0
LINE
  5
246
330
222
100
AcDbEntity
  8
01-99
100
AcDbLine
 10
70.0000075122355
 20
36.66666465376915
 30
0.0
 11
78.00000751223549
 21
31.55555355376919
 31
0.0
  0
LINE
  5
247
330
222
100
AcDbEntity
  8
01-99
100
AcDbLine
 10
70.0000075122355
 20
31.55555355376919
 30
0.0
 11
78.00000751223549
 21
36.6666646537692
 31
0.0
  0
LINE
  5
248
330
222
100
AcDbEntity
  8
01-99
100
AcDbLine
 10
204.0000075122355
 20
44.33333132043583
 30
0.0
 11
115.0000075122355
 21
44.33333132043578
 31
0.0
  0
LINE
  5
249
330
222
100
AcDbEntity
  8
01-99
100
AcDbLine
 10
115.0000075122355
 20
16.22222020910249
 30
0.0
 11
204.0000075122355
 21
16.2222202091026
 31
0.0
  0
LINE
  5
24A
330
222
100
AcDbEntity
  8
01-99
100
AcDbLine
 10
115.0000075122355
 20
36.6666646537692
 30
0.0
 11
204.0000075122355
 21
36.66666465376926
 31
0.0
  0
LINE
  5
24B
330
222
100
AcDbEntity
  8
01-99
100
AcDbLine
 10
92.0000075122355
 20
41.77777576510249
 30
0.0
 11
70.0000075122355
 21
41.77777576510249
 31
0.0
  0
LINE
  5
24C
330
222
100
AcDbEntity
  8
01-99
100
AcDbLine
 10
92.0000075122355
 20
46.8888868761025
 30
0.0
 11
70.0000075122355
 21
46.88888687610244
 31
0.0
  0
LINE
  5
24D
330
222
100
AcDbEntity
  8
01-99
100
AcDbLine
 10
20.00000751223368
 20
51.99999798710246
 30
0.0
 11
20.00000751223368
 21
5.99999798710246
 31
0.0
  0
TEXT
  5
24E
330
222
100
AcDbEntity
  8
08-99
100
AcDbText
 10
116.4997086805418
 20
32.66987169496042
 30
0.0
 40
2.5
  1
Benennung/Teil:
 51
15.0
  7
ROMANS8
100
AcDbText
  0
TEXT
  5
253
330
222
100
AcDbEntity
  8
08-99
100
AcDbText
 10
178.5028349598029
 20
12.01760068133313
 30
0.0
 40
2.7
  1
Ident-Nr.
 51
15.0
  7
ROMANS8
100
AcDbText
  0
TEXT
  5
254
330
222
100
AcDbEntity
  8
08-99
100
AcDbText
 10
93.50002924540357
 20
33.0555749488849
 30
0.0
 40
2.5
  1
Name:
 51
15.0
  7
ROMANS8
100
AcDbText
  0
TEXT
  5
255
330
222
100
AcDbEntity
  8
08-99
100
AcDbText
 10
79.50777665478042
 20
33.04841594810694
 30
0.0
 40
2.5
  1
Datum:
 50
0.102528160689452
 41
0.8933771909280748
 51
15.0
  7
ROMANS8
 72
     5
 11
90.67497366186243
 21
33.06839915456692
 31
0.0
100
AcDbText
  0
TEXT
  5
256
330
222
100
AcDbEntity
  8
08-99
100
AcDbText
 10
29.50001559397086
 20
33.05597508608236
 30
0.0
 40
1.6
  1
Änderung:
 51
15.0
  7
ROMANS8
100
AcDbText
  0
TEXT
  5
257
330
222
100
AcDbEntity
  8
08-99
100
AcDbText
 10
46.49994558798837
 20
9.111117286264914
 30
0.0
 40
1.0
  1
ERSETZT.DURCH:
 51
15.0
  7
ROMANS8
100
AcDbText
  0
TEXT
  5
258
330
222
100
AcDbEntity
  8
08-99
100
AcDbText
 10
21.49936832790721
 20
9.110852190038713
 30
0.0
 40
1.0
  1
ERSETZT.FÜR:
 51
15.0
  7
ROMANS8
100
AcDbText
  0
TEXT
  5
259
330
222
100
AcDbEntity
  8
08-99
100
AcDbText
 10
145.9909143543897
 20
12.61295485116625
 30
0.0
 40
2.112
  1
AUFTRAGS.NR.:
 51
15.0
  7
ROMANS8
100
AcDbText
  0
TEXT
  5
25A
330
222
100
AcDbEntity
  8
08-99
100
AcDbText
 10
116.5034717172479
 20
12.61092664313281
 30
0.0
 40
2.112
  1
Sonder-Nr:
 51
15.0
  7
ROMANS8
100
AcDbText
  0
TEXT
  5
25B
330
222
100
AcDbEntity
  8
08-99
100
AcDbText
 10
99.69631500731376
 20
49.92370649414477
 30
0.0
 40
1.349999999999999
  1
Format
 51
15.0
  7
ROMANS8
100
AcDbText
  0
TEXT
  5
25C
330
222
100
AcDbEntity
  8
08-99
100
AcDbText
 10
98.30438725900334
 20
44.6416167802032
 30
0.0
 40
1.822499999999999
  1
Normen
 51
15.0
  7
ROMANS8
100
AcDbText
  0
TEXT
  5
25D
330
222
100
AcDbEntity
  8
08-99
100
AcDbText
 10
21.50003711613706
 20
33.05556582266059
 30
0.0
 40
1.6
  1
Zust.
 51
15.0
  7
ROMANS8
100
AcDbText
  0
TEXT
  5
25E
330
222
100
AcDbEntity
  8
08-99
100
AcDbText
 10
49.50318821340468
 20
33.05555723859902
 30
0.0
 40
1.6
  1
Datum:
 51
15.0
  7
ROMANS8
100
AcDbText
  0
TEXT
  5
25F
330
222
100
AcDbEntity
  8
08-99
100
AcDbText
 10
61.50322112916754
 20
33.05556204504791
 30
0.0
 40
1.6
  1
Name:
 51
15.0
  7
ROMANS8
100
AcDbText
  0
TEXT
  5
260
330
222
100
AcDbEntity
  8
08-99
100
AcDbText
 10
71.1545619578267
 20
28.03813755505132
 30
0.0
 40
1.6
  1
Erst.
 51
15.0
  7
ROMANS8
100
AcDbText
  0
TEXT
  5
261
330
222
100
AcDbEntity
  8
08-99
100
AcDbText
 10
70.51718787454618
 20
23.1974490465235
 30
0.0
 40
1.6
  1
Bearb.
 51
15.0
  7
ROMANS8
100
AcDbText
  0
TEXT
  5
262
330
222
100
AcDbEntity
  8
08-99
100
AcDbText
 10
149.4308124240035
 20
41.61949547980938
 30
0.0
 40
2.0
  1
Zuschnittsbreite:
 51
15.0
  7
ROMANS8
100
AcDbText
  0
TEXT
  5
263
330
222
100
AcDbEntity
  8
08-99
100
AcDbText
 10
115.9850022862677
 20
41.73762161521608
 30
0.0
 40
2.0
  1
Zuschnittslänge:
 51
15.0
  7
ROMANS8
100
AcDbText
  0
LWPOLYLINE
  5
264
330
222
100
AcDbEntity
  8
06-99
100
AcDbPolyline
 90
      133
 70
     1
 43
0.010692
 10
93.76754732423549
 20
18.87656283643588
 10
94.00905465623557
 20
19.08724513243589
 10
93.92285931623556
 20
19.22625538843579
 10
93.82427194823552
 20
19.35180441643592
 10
93.71363469623569
 20
19.46393854843592
 10
93.59130396023548
 20
19.56271124443577
 10
93.45762188423558
 20
19.64816170843585
 10
93.31293417623559
 20
19.72033627243581
 10
93.15759367223554
 20
19.77928839643584
 10
92.99194251623569
 20
19.82505728443584
 10
92.81632998023557
 20
19.85768926843593
 10
92.63110533623573
 20
19.87723780843589
 10
92.43661429223564
 20
19.88374210843585
 10
92.27568900023554
 20
19.87767974443585
 10
92.11994932823543
 20
19.85975638843581
 10
91.96972672823566
 20
19.83036051643597
 10
91.82535621623562
 20
19.78988773243583
 10
91.68716924423554
 20
19.73873364043595
 10
91.55549013623559
 20
19.67729028043584
 10
91.43066103623565
 20
19.60594969243584
 10
91.31300626823557
 20
19.52510391643579
 10
91.20285728423553
 20
19.43514499243588
 10
91.10055266423561
 20
19.33647208843587
 10
91.00641316823569
 20
19.22947011643589
 10
90.92077737623563
 20
19.11454180843589
 10
90.84397674023561
 20
18.99207207643587
 10
90.77633914823563
 20
18.86245652443591
 10
90.71819961623559
 20
18.72608719243584
 10
90.66988603223562
 20
18.58336324843583
 10
90.63172984823566
 20
18.43466960443584
 10
90.60406964423547
 20
18.28040542843581
 10
90.5872261802356
 20
18.12095919643588
 10
90.58154160023562
 20
17.95672651243586
 10
90.58715490023557
 20
17.78762184043592
 10
90.60380590823573
 20
17.62428728443586
 10
90.63119524823539
 20
17.46704004043585
 10
90.66902354423545
 20
17.31619374043578
 10
90.71699498423553
 20
17.17206201643586
 10
90.77481375623566
 20
17.03495850043589
 10
90.84218404823563
 20
16.90519326043585
 10
90.91880648423559
 20
16.78308349243582
 10
91.00438525223561
 20
16.66893926443583
 10
91.09862810423559
 20
16.56307777243586
 10
91.2012285362355
 20
16.46580908443587
 10
91.31190142823554
 20
16.37745039643579
 10
91.43034027623562
 20
16.29831177643592
 10
91.55625283223551
 20
16.2287068564359
 10
91.6893397202355
 20
16.16895283243582
 10
91.82930869223552
 20
16.11935977243587
 10
91.9758568082357
 20
16.08024130843591
 10
92.1286953842355
 20
16.05191107243593
 10
92.28751791623555
 20
16.03468269643588
 10
92.45203572023561
 20
16.02886981243591
 10
92.61603318023563
 20
16.03412314843587
 10
92.77336596023557
 20
16.0497619804359
 10
92.92384516823554
 20
16.07559385243587
 10
93.06728191223546
 20
16.11142630843591
 10
93.20349086423565
 20
16.15707045643586
 10
93.33227956823547
 20
16.21233740443585
 10
93.45346269623556
 20
16.27703469643586
 10
93.56684422823562
 20
16.35097700443589
 10
93.67224596423559
 20
16.43397187243585
 10
93.76946832023557
 20
16.52582328043587
 10
93.85832953223555
 20
16.62635302843586
 10
93.93864070823568
 20
16.73535796843583
 10
94.01020939223556
 20
16.85265990043587
 10
94.07284669223557
 20
16.97805924043587
 10
94.12636728023565
 20
17.11137066043579
 10
94.17058226423549
 20
17.25240170443584
 10
94.20529562423556
 20
17.40096348043585
 10
94.23032916023558
 20
17.55686709643589
 10
94.2454868522357
 20
17.71992366043582
 10
94.25057980823547
 20
17.88993715243583
 10
94.25057980823547
 20
17.88993715243583
 10
94.25057980823547
 20
17.94131934043588
 10
92.6164715522356
 20
17.94131934043588
 10
92.6164715522356
 20
17.65354772443584
 10
93.88573312823544
 20
17.65354772443584
 10
93.87499479623548
 20
17.49100437643585
 10
93.84766248023552
 20
17.33635885243586
 10
93.80444185223566
 20
17.19027405643589
 10
93.74603858423554
 20
17.05341645643585
 10
93.67316547623572
 20
16.92644182843588
 10
93.58653176423562
 20
16.81002376843588
 10
93.4868359922356
 20
16.70481448843588
 10
93.37479452423556
 20
16.61148758443585
 10
93.2511130322355
 20
16.53069526843586
 10
93.11649718823563
 20
16.46310757243589
 10
92.9716562282355
 20
16.40938383643583
 10
92.81729938823563
 20
16.37019052843595
 10
92.65413234023563
 20
16.34618698843581
 10
92.48286432023567
 20
16.3380396844359
 10
92.31820395623563
 20
16.34599096843584
 10
92.15990889623553
 20
16.3693743724358
 10
92.00857076423554
 20
16.40748066043585
 10
91.86477762023541
 20
16.45960416043584
 10
91.7291103962356
 20
16.52503563643586
 10
91.60216071623555
 20
16.60306585243592
 10
91.48451307623558
 20
16.69299270043586
 10
91.37675910023554
 20
16.79410338043595
 10
91.27948328423569
 20
16.90569222043587
 10
91.19327012423552
 20
17.02705354843584
 10
91.11871124423558
 20
17.15747456443586
 10
91.05639114023555
 20
17.29625316043587
 10
91.00689787223556
 20
17.44268010043583
 10
90.97081950023541
 20
17.5960425844359
 10
90.94874052023547
 20
17.75564206843597
 10
90.94125255623557
 20
17.92076575243578
 10
90.94763924423572
 20
18.08913980443589
 10
90.96654270023558
 20
18.25115211643583
 10
90.99756375623568
 20
18.40630372843583
 10
91.04030680823555
 20
18.55409924443586
 10
91.09437981623548
 20
18.69404326843585
 10
91.15938361223554
 20
18.82564396843588
 10
91.23492259223556
 20
18.9483988204359
 10
91.32060471623564
 20
19.06181955643586
 10
91.41603081623546
 20
19.16540365243594
 10
91.52081241623548
 20
19.25865927643582
 10
91.63454322023566
 20
19.34108746843589
 10
91.75683831623567
 20
19.41219639643589
 10
91.88729497223542
 20
19.47148710043586
 10
92.02552114823564
 20
19.51846418443586
 10
92.17112480423569
 20
19.55263225243584
 10
92.32370320823568
 20
19.57349947243585
 10
92.48286432023567
 20
19.58056332043588
 10
92.66056892423561
 20
19.57164619243588
 10
92.83032224423564
 20
19.54500885643586
 10
92.99178570023562
 20
19.50081882043588
 10
93.14462071223559
 20
19.43924359243584
 10
93.28848870023561
 20
19.36045780843585
 10
93.42305464823565
 20
19.26462541243592
 10
93.54797997623554
 20
19.15192104043586
 10
93.66292254023566
 20
19.02250863643593
  0
LWPOLYLINE
  5
268
330
222
100
AcDbEntity
  8
06-99
100
AcDbPolyline
 90
       12
 70
     1
 43
0.010692
 10
90.43900298423549
 20
12.25281181243593
 10
92.32227048023563
 20
12.25281181243593
 10
92.46760683623554
 20
13.00767770443588
 10
91.56487771223558
 20
13.00767770443588
 10
91.62106060823546
 20
13.29950515243581
 10
92.41872301223557
 20
13.29950515243581
 10
92.55580870823544
 20
14.01156027643583
 10
91.75814630423545
 20
14.01156027643583
 10
91.80985281623547
 20
14.28005421643581
 10
92.68923417623549
 20
14.28005421643581
 10
92.83455984023559
 20
15.03490585243588
 10
90.97464010823561
 20
15.03490585243588
  0
LWPOLYLINE
  5
269
330
222
100
AcDbEntity
  8
06-99
100
AcDbPolyline
 90
        4
 70
     1
 43
0.010692
 10
76.60861942823558
 20
12.88042508443584
 10
89.06586862823544
 20
12.88042508443584
 10
88.94229049223557
 20
12.25209544843585
 10
76.48504485623553
 20
12.25209544843585
  0
SOLID
  5
26A
330
222
100
AcDbEntity
  8
06-99
100
AcDbTrace
 10
76.60861942823558
 20
12.88042508443584
 30
0.0
 11
89.06586862823544
 21
12.88042508443584
 31
0.0
 12
76.48504485623553
 22
12.25209544843585
 32
0.0
 13
88.94229049223557
 23
12.25209544843585
 33
0.0
  0
LWPOLYLINE
  5
26B
330
222
100
AcDbEntity
  8
06-99
100
AcDbPolyline
 90
       10
 70
     1
 43
0.010692
 10
82.3458504002356
 20
16.02886981243591
 10
83.32219038023552
 20
19.10266656043586
 10
84.33965535623546
 20
16.02886981243591
 10
85.56780619223562
 20
19.80153132043585
 10
85.22351666423551
 20
19.80153132043585
 10
84.33965535623546
 20
16.89302932843583
 10
83.32219038023552
 20
19.9454100004358
 10
82.3458504002356
 20
16.86733645243589
 10
81.42601764023565
 20
19.80153132043585
 10
81.07658882423564
 20
19.80153132043585
  0
LWPOLYLINE
  5
26C
330
222
100
AcDbEntity
  8
06-99
100
AcDbPolyline
 90
        3
 70
     1
 43
0.010692
 10
87.32442338423565
 20
17.65868344843591
 10
87.97704168023555
 20
19.25683094443582
 10
88.6039706642355
 20
17.65868344843591
  0
LWPOLYLINE
  5
26D
330
222
100
AcDbEntity
  8
06-99
100
AcDbPolyline
 90
        7
 70
     1
 43
0.010692
 10
86.38318880423563
 20
16.12735738843582
 10
86.72320153223555
 20
16.12735738843582
 10
87.21136974023549
 20
17.37092608843585
 10
88.71187076423566
 20
17.37092608843585
 10
89.17949964023549
 20
16.12735738843582
 10
89.54434632023552
 20
16.12735738843582
 10
87.99759883223558
 20
19.9454100004358
  0
LWPOLYLINE
  5
26E
330
222
100
AcDbEntity
  8
06-99
100
AcDbPolyline
 90
        8
 70
     1
 43
0.010692
 10
98.92981243223543
 20
12.25281181243593
 10
100.0043869442354
 20
12.25281181243593
 10
100.1574144122356
 20
12.60301045243585
 10
100.9122803042355
 20
12.60301045243585
 10
100.9343521562355
 20
12.25281181243593
 10
102.0082815842354
 20
12.25281181243593
 10
101.5711569842355
 20
15.03490585243588
 10
100.4583193682355
 20
15.03490585243588
  0
LWPOLYLINE
  5
26F
330
222
100
AcDbEntity
  8
06-99
100
AcDbPolyline
 90
       34
 70
     1
 43
0.010692
 10
96.0434642642356
 20
13.66137589243584
 10
96.07848769223544
 20
13.66137589243584
 10
96.0642316922356
 20
13.48699650043591
 10
96.06380757623552
 20
13.33509882043586
 10
96.06790617623554
 20
13.20222577243589
 10
96.09523849223561
 20
12.25281181243593
 10
96.9668360762354
 20
12.25281181243593
 10
98.31569602823542
 20
15.03490585243588
 10
97.31181345623557
 20
15.03490585243588
 10
96.85792023623552
 20
13.80922843243581
 10
96.80781752423563
 20
13.66872486043581
 10
96.74884758023544
 20
13.48671138043579
 10
96.69003445223545
 20
13.26059696443593
 10
96.66670094423549
 20
13.26059696443593
 10
96.6884270882355
 20
13.45803187243587
 10
96.69298544423558
 20
13.61569254043581
 10
96.69194475623548
 20
13.73531107243588
 10
96.67756045223544
 20
15.03490585243588
 10
95.97329266823548
 20
15.03490585243588
 10
95.45849068823557
 20
13.73531107243588
 10
95.41138886423542
 20
13.61569254043581
 10
95.35523448023562
 20
13.45803187243587
 10
95.30092981223551
 20
13.26059696443593
 10
95.27759630423545
 20
13.26059696443593
 10
95.30585169623558
 20
13.48671138043579
 10
95.31697137623556
 20
13.66872486043581
 10
95.32096662023551
 20
13.80922843243581
 10
95.33903966423546
 20
15.03490585243588
 10
94.33451200823553
 20
15.03490585243588
 10
94.61274279623561
 20
12.25281181243593
 10
95.48433681623547
 20
12.25281181243593
 10
95.87724643223557
 20
13.20222577243589
 10
95.93252050823551
 20
13.33509882043586
 10
95.99058519623557
 20
13.48699650043591
  0
LWPOLYLINE
  5
270
330
222
100
AcDbEntity
  8
06-99
100
AcDbPolyline
 90
       10
 70
     1
 43
0.010692
 10
100.4520752402354
 20
13.26448172443588
 10
100.5983667482354
 20
13.57965693643587
 10
100.6731180842355
 20
13.74409276843596
 10
100.7541598802355
 20
13.94570824843589
 10
100.8288363722355
 20
14.19056217643595
 10
100.8482958122355
 20
14.19056217643595
 10
100.8286724282354
 20
13.94570824843589
 10
100.8320796122355
 20
13.74409276843596
 10
100.8435129242355
 20
13.57965693643587
 10
100.8684181562356
 20
13.26448172443588
  0
LWPOLYLINE
  5
271
330
222
100
AcDbEntity
  8
06-99
100
AcDbPolyline
 90
       23
 70
     1
 43
0.010692
 10
103.5867130322356
 20
12.25281181243593
 10
104.5672478402354
 20
12.25281181243593
 10
104.7440436242355
 20
13.17110136043584
 10
105.0536340482356
 20
12.25281181243593
 10
106.1742447482354
 20
12.25281181243593
 10
105.6490750922355
 20
13.38511243243585
 10
105.8084357882355
 20
13.42380678043588
 10
105.9537079922354
 20
13.49881472443587
 10
106.0813562162355
 20
13.60690015243585
 10
106.1878378442354
 20
13.74481626043587
 10
106.2696066962354
 20
13.90931980843584
 10
106.3231201562354
 20
14.09716755643586
 10
106.3446075122355
 20
14.26808986843588
 10
106.3403093282354
 20
14.42329850443593
 10
106.3102362962355
 20
14.56225886443587
 10
106.2543991082354
 20
14.68443278443578
 10
106.1728155842354
 20
14.78928566443591
 10
106.0654999802355
 20
14.87627577643587
 10
105.9324594242355
 20
14.94487208443587
 10
105.7737153002354
 20
14.99453286043592
 10
105.5892711722355
 20
15.02472350443588
 10
105.3791519882354
 20
15.03490585243588
 10
104.1223501562355
 20
15.03490585243588
  0
LWPOLYLINE
  5
272
330
222
100
AcDbEntity
  8
06-99
100
AcDbPolyline
 90
        9
 70
     1
 43
0.010692
 10
104.9650401362355
 20
14.31896240443586
 10
105.1206907082355
 20
14.31896240443586
 10
105.2773605842356
 20
14.28538239643581
 10
105.3582277442354
 20
14.19040892443593
 10
105.3632244722355
 20
14.04269894443587
 10
105.3008722922355
 20
13.89699906043591
 10
105.1832994962355
 20
13.80577848043589
 10
105.0158200082354
 20
13.77421926043581
 10
104.8601694362355
 20
13.77421926043581
  0
LWPOLYLINE
  5
273
330
222
100
AcDbEntity
  8
06-99
100
AcDbPolyline
 90
       12
 70
     1
 43
0.010692
 10
100.5798090002356
 20
16.12735738843582
 10
102.3989066762356
 20
16.12735738843582
 10
102.3989066762356
 20
16.4408218804358
 10
100.9138270802356
 20
16.4408218804358
 10
100.9138270802356
 20
18.02353012843594
 10
102.3989066762356
 20
18.02353012843594
 10
102.3989066762356
 20
18.33699462043592
 10
100.9138270802356
 20
18.33699462043592
 10
100.9138270802356
 20
19.48806682843587
 10
102.3989066762356
 20
19.48806682843587
 10
102.3989066762356
 20
19.80153132043585
 10
100.5798090002356
 20
19.80153132043585
  0
LWPOLYLINE
  5
274
330
222
100
AcDbEntity
  8
06-99
100
AcDbPolyline
 90
        8
 70
     1
 43
0.010692
 10
95.85303261623565
 20
16.12735738843582
 10
96.18705426023556
 20
16.12735738843582
 10
96.18705426023556
 20
19.09753083643585
 10
98.76667389623552
 20
16.01858410843584
 10
98.76667389623552
 20
19.80153132043585
 10
98.4326665082356
 20
19.80153132043585
 10
98.4326665082356
 20
16.88274362443587
 10
95.85303261623565
 20
19.95568144843582
  0
LWPOLYLINE
  5
275
330
222
100
AcDbEntity
  8
06-99
100
AcDbPolyline
 90
       19
 70
     1
 43
0.010692
 10
104.4484312082357
 20
19.5086239804358
 10
104.7824385962356
 20
19.5086239804358
 10
104.9866237202355
 20
19.50030560443588
 10
105.1604542562355
 20
19.47385716043584
 10
105.3049031762356
 20
19.42705471243579
 10
105.4209256322356
 20
19.35767076043584
 10
105.5094874682356
 20
19.26347780443581
 10
105.5715509642355
 20
19.14224834443593
 10
105.6080855282355
 20
18.9917477524358
 10
105.6200498762355
 20
18.80975922043586
 10
105.6074547002355
 20
18.63100680043584
 10
105.5693840522356
 20
18.48585933643585
 10
105.5054245082356
 20
18.37130168443593
 10
105.4151448242355
 20
18.28432582843589
 10
105.2981315762356
 20
18.22192018843589
 10
105.1539570842356
 20
18.18106962043583
 10
104.9821972322354
 20
18.15876967243594
 10
104.7824385962356
 20
18.15200520043589
 10
104.4484312082357
 20
18.15200520043589
  0
LWPOLYLINE
  5
276
330
222
100
AcDbEntity
  8
06-99
100
AcDbPolyline
 90
       29
 70
     1
 43
0.010692
 10
106.3446075122355
 20
16.12735738843582
 10
105.0239637482355
 20
17.87965144843588
 10
105.2123817362357
 20
17.89225018843592
 10
105.3829084442356
 20
17.92941914443582
 10
105.5344069562356
 20
17.99022811243594
 10
105.6657296642355
 20
18.07375401643588
 10
105.7757360882356
 20
18.17905596043584
 10
105.8632821842355
 20
18.30521443243589
 10
105.9272310362355
 20
18.45129210043592
 10
105.9664386002355
 20
18.6163587604359
 10
105.9797608322353
 20
18.79948777243589
 10
105.9699455762357
 20
18.97455145243589
 10
105.9404891162357
 20
19.13261485243589
 10
105.8913629402356
 20
19.27374568843589
 10
105.8225492282356
 20
19.39801167643577
 10
105.7340230322356
 20
19.50548409643591
 10
105.6257594042356
 20
19.59623422843589
 10
105.4977369602356
 20
19.67032622443582
 10
105.3499307522354
 20
19.72783136443587
 10
105.1823193962355
 20
19.76882449243589
 10
104.9948815082355
 20
19.79336619643589
 10
104.7875885762355
 20
19.80153132043585
 10
104.7875885762355
 20
19.80153132043585
 10
104.1144131282356
 20
19.80153132043585
 10
104.1144131282356
 20
16.12735738843582
 10
104.4484312082357
 20
16.12735738843582
 10
104.4484312082357
 20
17.87965144843588
 10
104.6488456202355
 20
17.87965144843588
 10
105.9386465282355
 20
16.12735738843582
  0
TEXT
  5
277
330
222
100
AcDbEntity
  8
06-99
100
AcDbText
 10
85.6083656112951
 20
9.63320697282171
 30
0.0
 40
1.4256
  1
GmbH & Co KG
 41
1.199203187251
 51
15.0
  7
ROMAND8
 72
     5
 11
106.0419656112951
 21
9.63320697282171
 31
0.0
100
AcDbText
  0
TEXT
  5
279
330
222
100
AcDbEntity
  8
06-99
100
AcDbText
 10
85.70982236587898
 20
7.391013700398161
 30
0.0
 40
1.4256
  1
72774 Reutlingen
 50
0.5663244663116128
 41
1.087840993687879
 51
15.0
  7
ROMAND8
 72
     5
 11
105.943422365879
 21
7.59101370039815
 31
0.0
100
AcDbText
  0
TEXT
  5
27A
330
222
100
AcDbEntity
  8
08-99
100
AcDbText
 10
73.414125712073
 20
48.45008961754581
 30
0.0
 40
2.25
  1
Zul. Abw.
 51
15.0
  7
ROMANS8
100
AcDbText
  0
TEXT
  5
27B
330
222
100
AcDbEntity
  8
08-99
100
AcDbText
 10
123.2099338325191
 20
49.28616214647601
 30
0.0
 40
2.0
  1
Mat. Art.
 51
15.0
  7
ROMANS8
100
AcDbText
  0
TEXT
  5
27C
330
222
100
AcDbEntity
  8
08-99
100
AcDbText
 10
155.4865384826082
 20
49.4043113704472
 30
0.0
 40
2.0
  1
Oberfläche:
 51
15.0
  7
ROMANS8
100
AcDbText
  0
TEXT
  5
27D
330
222
100
AcDbEntity
  8
08-99
100
AcDbText
 10
184.762545350816
 20
41.73764470378046
 30
0.0
 40
2.0
  1
Blech Dicke:
 51
15.0
  7
ROMANS8
100
AcDbText
  0
TEXT
  5
27E
330
222
100
AcDbEntity
  8
08-99
100
AcDbText
 10
187.4380355407932
 20
49.28616214647604
 30
0.0
 40
2.0
  1
Maßstab:
 51
15.0
  7
ROMANS8
100
AcDbText
  0
LINE
  5
27F
330
222
100
AcDbEntity
  8
01-99
100
AcDbLine
 10
115.0000075122355
 20
46.8888868761025
 30
0.0
 11
92.0000075122355
 21
46.8888868761025
 31
0.0
  0
LINE
  5
280
330
222
100
AcDbEntity
  8
01-99
100
AcDbLine
 10
115.0000075122355
 20
44.33333132043578
 30
0.0
 11
92.0000075122355
 21
44.33333132043578
 31
0.0
  0
LINE
  5
281
330
222
100
AcDbEntity
  8
01-99
100
AcDbLine
 10
115.0000075122355
 20
40.49999798710246
 30
0.0
 11
92.00000751223544
 21
40.49999798710246
 31
0.0
  0
ATTDEF
  5
282
330
222
100
AcDbEntity
  8
06-99
100
AcDbText
 10
116.4954542514127
 20
26.18783668438471
 30
0.0
 40
4.0
  1

 41
0.9
  7
ROMANS8
100
AcDbAttributeDefinition
280
     0
  3
Benennung/Teil
  2
TEILE
 70
     0
280
     0
  0
ATTDEF
  5
283
330
222
100
AcDbEntity
  8
06-99
100
AcDbText
 10
116.4954542514127
 20
19.29547648609889
 30
0.0
 40
4.0
  1

 41
0.9
  7
ROMANS8
100
AcDbAttributeDefinition
280
     0
  3
Benennung/Teil2
  2
TEILE2
 70
     0
280
     0
  0
ATTDEF
  5
284
330
222
100
AcDbEntity
  8
06-99
100
AcDbText
 10
191.3473937239501
 20
45.33333132043583
 30
0.0
 40
3.375
  1

  7
ROMANS8
100
AcDbAttributeDefinition
280
     0
  3
Maßstab
  2
:
 70
     0
280
     0
  0
ATTDEF
  5
285
330
222
100
AcDbEntity
  8
06-99
100
AcDbText
 10
92.99707531160292
 20
27.44168345513378
 30
0.0
 40
2.5
  1

 41
0.9
  7
ROMANS8
100
AcDbAttributeDefinition
280
     0
  3
Name
  2
NAME
 70
     0
280
     0
  0
ATTDEF
  5
286
330
222
100
AcDbEntity
  8
06-99
100
AcDbText
 10
79.49315396412956
 20
27.46123316121373
 30
0.0
 40
2.5
  1

 50
359.9144597696142
 41
0.9542572414211148
  7
ROMANS8
 72
     5
 11
90.73974463267431
 21
27.44444245376917
 31
0.0
100
AcDbAttributeDefinition
280
     0
  3
Datum
  2
DATUM
 70
     0
280
     0
  0
ATTDEF
  5
287
330
222
100
AcDbEntity
  8
06-99
100
AcDbText
 10
178.5063514793938
 20
7.4928977873912
 30
0.0
 40
2.99376
  1

  7
ROMANS8
100
AcDbAttributeDefinition
280
     0
  3
Ident-Nummer
  2
ID.NR
 70
     0
280
     0
  0
ATTDEF
  5
288
330
222
100
AcDbEntity
  8
06-99
100
AcDbText
 10
116.731273767946
 20
37.66666463154695
 30
0.0
 40
3.0
  1

 41
0.9
  7
ROMANS8
100
AcDbAttributeDefinition
280
     0
  3
Zuschnitts.Länge
  2
LÄNGE
 70
     0
280
     0
  0
ATTDEF
  5
289
330
222
100
AcDbEntity
  8
06-99
100
AcDbText
 10
150.1808124240052
 20
37.67810185754732
 30
0.0
 40
3.0
  1

 41
0.9
  7
ROMANS8
100
AcDbAttributeDefinition
280
     0
  3
Zuschnitts Breite
  2
BREITE
 70
     0
280
     0
  0
ATTDEF
  5
28A
330
222
100
AcDbEntity
  8
06-99
100
AcDbText
 10
190.6090996389673
 20
37.66666465376926
 30
0.0
 40
3.09375
  1

  7
ROMANS8
100
AcDbAttributeDefinition
280
     0
  3
Blech.Dicke
  2
1.0
 70
     0
280
     0
  0
ATTDEF
  5
28B
330
222
100
AcDbEntity
  8
06-99
100
AcDbText
 10
164.1277931136382
 20
45.33333132043594
 30
0.0
 40
3.0
  1

  7
ROMANS8
 72
     1
 11
164.1277931136382
 21
45.33333132043594
 31
0.0
100
AcDbAttributeDefinition
280
     0
  3
Oberfläche
  2
IV
 70
     0
280
     0
  0
ATTDEF
  5
28C
330
222
100
AcDbEntity
  8
06-99
100
AcDbText
 10
123.2747480483513
 20
45.3333313204358
 30
0.0
 40
3.375
  1
1.4301
  7
ROMANS8
100
AcDbAttributeDefinition
280
     0
  3
Mat.Art
  2
1.4301
 70
     0
280
     0
  0
ATTDEF
  5
28D
330
222
100
AcDbEntity
  8
06-99
100
AcDbText
 10
146.0006413991156
 20
7.504394591457128
 30
0.0
 40
3.168
  1

 41
0.9
  7
ROMANS8
100
AcDbAttributeDefinition
280
     0
  3
Auftrags Nr.
  2
AUFTRAGS.NR.
 70
     0
280
     0
  0
ATTDEF
  5
28E
330
222
100
AcDbEntity
  8
06-99
100
AcDbText
 10
116.5000075122355
 20
7.499997987102517
 30
0.0
 40
3.168
  1

 41
0.9
  7
ROMANS8
100
AcDbAttributeDefinition
280
     0
  3
Sonder-NR,WPS
  2
SONDER-NR
 70
     0
280
     0
  0
ATTDEF
  5
28F
330
222
100
AcDbEntity
  8
06-99
100
AcDbText
 10
46.4997585072438
 20
6.601808056362358
 30
0.0
 40
1.5
  1

 41
0.9
  7
ROMANS8
100
AcDbAttributeDefinition
280
     0
  3
ERSETZT.Durch
  2
ERSETZT.DURCH
 70
     0
280
     0
  0
ATTDEF
  5
290
330
222
100
AcDbEntity
  8
06-99
100
AcDbText
 10
21.49947529243403
 20
6.597454384974923
 30
0.0
 40
1.5
  1

 41
0.9
  7
ROMANS8
100
AcDbAttributeDefinition
280
     0
  3
ERSETZT.Für
  2
ERSETZT.FÜR
 70
     0
280
     0
  0
ATTDEF
  5
291
330
222
100
AcDbEntity
  8
06-99
100
AcDbText
 10
99.97308015867309
 20
47.66850912711049
 30
0.0
 40
1.287
  1
DIN A4
  7
ROMANS8
 72
     1
 11
103.2518658729588
 21
47.66850912711049
 31
0.0
100
AcDbAttributeDefinition
280
     0
  3
Format
  2
FORMAT
 70
     0
280
     0
  0
ATTDEF
  5
292
330
222
100
AcDbEntity
  8
06-99
100
AcDbText
 10
95.9874465096418
 20
37.19696532096725
 30
0.0
 40
2.34
  1
DIN 2768
  7
ROMANS8
 72
     1
 11
104.0103036524989
 21
37.19696532096725
 31
0.0
100
AcDbAttributeDefinition
280
     0
  3
Norm / Kanten
  2
NORM2
 70
     0
280
     0
  0
ATTDEF
  5
293
330
222
100
AcDbEntity
  8
06-99
100
AcDbText
 10
92.81173222392748
 20
41.03029865430056
 30
0.0
 40
2.34
  1
DIN 6930-M
  7
ROMANS8
 72
     1
 11
103.5088750810703
 21
41.03029865430056
 31
0.0
100
AcDbAttributeDefinition
280
     0
  3
Norm / Fräsen
  2
NORM1
 70
     0
280
     0
  0
ENDBLK
  5
294
330
222
100
AcDbEntity
  8
0
100
AcDbBlockEnd
  0
BLOCK
  5
4AC
330
4AB
100
AcDbEntity
  8
0
100
AcDbBlockBegin
  2
*D1
 70
     1
 10
0.0
 20
0.0
 30
0.0
  3
*D1
  1

  0
LINE
  5
4AD
330
4AB
100
AcDbEntity
  8
01-01
 62
     4
370
    -2
100
AcDbLine
 10
620.7669480691134
 20
1328.821352179449
 30
0.0
 11
601.7170306265406
 21
1328.821352179449
 31
0.0
  0
LINE
  5
4AE
330
4AB
100
AcDbEntity
  8
01-01
 62
     4
370
    -2
100
AcDbLine
 10
620.7669480691134
 20
730.8213521794492
 30
0.0
 11
601.7170306265403
 21
730.8213521794492
 31
0.0
  0
LINE
  5
4AF
330
4AB
100
AcDbEntity
  8
01-01
 62
     4
370
    -2
100
AcDbLine
 10
606.7170306265405
 20
1316.321352179449
 30
0.0
 11
606.7170306265403
 21
743.3213521794492
 31
0.0
  0
SOLID
  5
4B0
330
4AB
100
AcDbEntity
  8
01-01
 62
     4
100
AcDbTrace
 10
604.6336972932071
 20
1316.321352179449
 30
0.0
 11
608.8003639598739
 21
1316.321352179449
 31
0.0
 12
606.7170306265405
 22
1328.821352179449
 32
0.0
 13
606.7170306265405
 23
1328.821352179449
 33
0.0
  0
SOLID
  5
4B1
330
4AB
100
AcDbEntity
  8
01-01
 62
     4
100
AcDbTrace
 10
604.633697293207
 20
743.3213521794492
 30
0.0
 11
608.8003639598737
 21
743.3213521794492
 31
0.0
 12
606.7170306265403
 22
730.8213521794492
 32
0.0
 13
606.7170306265403
 23
730.8213521794492
 33
0.0
  0
MTEXT
  5
4B2
330
4AB
100
AcDbEntity
  8
01-01
 62
     1
100
AcDbMText
 10
595.3348682800192
 20
1029.821352179449
 30
0.0
 40
12.5
 41
0.0
 46
0.0
 71
     5
 72
     1
  1
598
 11
0.0000000000000001
 21
1.0
 31
0.0
 73
     1
 44
1.0
  0
POINT
  5
4B3
330
4AB
100
AcDbEntity
  8
DEFPOINTS
 62
     0
100
AcDbPoint
 10
625.7669480691134
 20
1328.821352179449
 30
0.0
  0
POINT
  5
4B4
330
4AB
100
AcDbEntity
  8
DEFPOINTS
 62
     0
100
AcDbPoint
 10
625.7669480691134
 20
730.8213521794492
 30
0.0
  0
POINT
  5
4B5
330
4AB
100
AcDbEntity
  8
DEFPOINTS
 62
     0
100
AcDbPoint
 10
606.7170306265403
 20
730.8213521794492
 30
0.0
  0
ENDBLK
  5
4B6
330
4AB
100
AcDbEntity
  8
0
100
AcDbBlockEnd
  0
BLOCK
  5
47F
330
47E
100
AcDbEntity
  8
0
100
AcDbBlockBegin
  2
*D2
 70
     1
 10
0.0
 20
0.0
 30
0.0
  3
*D2
  1

  0
LINE
  5
480
330
47E
100
AcDbEntity
  8
01-01
 62
     4
370
    -2
100
AcDbLine
 10
178.1240563300881
 20
1328.821352179449
 30
0.0
 11
153.4195084421632
 21
1328.821352179449
 31
0.0
  0
LINE
  5
481
330
47E
100
AcDbEntity
  8
01-01
 62
     4
370
    -2
100
AcDbLine
 10
178.1240563300881
 20
730.8213521794492
 30
0.0
 11
153.4195084421631
 21
730.8213521794492
 31
0.0
  0
LINE
  5
482
330
47E
100
AcDbEntity
  8
01-01
 62
     4
370
    -2
100
AcDbLine
 10
158.4195084421633
 20
1316.321352179449
 30
0.0
 11
158.4195084421631
 21
743.3213521794492
 31
0.0
  0
SOLID
  5
483
330
47E
100
AcDbEntity
  8
01-01
 62
     4
100
AcDbTrace
 10
156.3361751088299
 20
1316.321352179449
 30
0.0
 11
160.5028417754966
 21
1316.321352179449
 31
0.0
 12
158.4195084421633
 22
1328.821352179449
 32
0.0
 13
158.4195084421633
 23
1328.821352179449
 33
0.0
  0
SOLID
  5
484
330
47E
100
AcDbEntity
  8
01-01
 62
     4
100
AcDbTrace
 10
156.3361751088298
 20
743.3213521794492
 30
0.0
 11
160.5028417754965
 21
743.3213521794492
 31
0.0
 12
158.4195084421631
 22
730.8213521794492
 32
0.0
 13
158.4195084421631
 23
730.8213521794492
 33
0.0
  0
MTEXT
  5
485
330
47E
100
AcDbEntity
  8
01-01
 62
     1
100
AcDbMText
 10
147.0373460956419
 20
1029.821352179449
 30
0.0
 40
12.5
 41
0.0
 46
0.0
 71
     5
 72
     1
  1
598
 11
0.0000000000000001
 21
1.0
 31
0.0
 73
     1
 44
1.0
  0
POINT
  5
486
330
47E
100
AcDbEntity
  8
DEFPOINTS
 62
     0
100
AcDbPoint
 10
183.1240563300881
 20
1328.821352179449
 30
0.0
  0
POINT
  5
487
330
47E
100
AcDbEntity
  8
DEFPOINTS
 62
     0
100
AcDbPoint
 10
183.1240563300881
 20
730.8213521794492
 30
0.0
  0
POINT
  5
488
330
47E
100
AcDbEntity
  8
DEFPOINTS
 62
     0
100
AcDbPoint
 10
158.4195084421631
 20
730.8213521794492
 30
0.0
  0
ENDBLK
  5
489
330
47E
100
AcDbEntity
  8
0
100
AcDbBlockEnd
  0
BLOCK
  5
456
330
455
100
AcDbEntity
  8
0
100
AcDbBlockBegin
  2
*D3
 70
     1
 10
0.0
 20
0.0
 30
0.0
  3
*D3
  1

  0
LINE
  5
457
330
455
100
AcDbEntity
  8
01-01
 62
     4
370
    -2
100
AcDbLine
 10
183.1240563300881
 20
1333.821352179449
 30
0.0
 11
183.1240563300881
 21
1387.898960479401
 31
0.0
  0
LINE
  5
458
330
455
100
AcDbEntity
  8
01-01
 62
     4
370
    -2
100
AcDbLine
 10
481.1240563300881
 20
1333.82135217945
 30
0.0
 11
481.1240563300881
 21
1387.898960479401
 31
0.0
  0
LINE
  5
459
330
455
100
AcDbEntity
  8
01-01
 62
     4
370
    -2
100
AcDbLine
 10
195.6240563300881
 20
1382.898960479401
 30
0.0
 11
468.6240563300881
 21
1382.898960479401
 31
0.0
  0
SOLID
  5
45A
330
455
100
AcDbEntity
  8
01-01
 62
     4
100
AcDbTrace
 10
195.6240563300881
 20
1384.982293812734
 30
0.0
 11
195.6240563300881
 21
1380.815627146068
 31
0.0
 12
183.1240563300881
 22
1382.898960479401
 32
0.0
 13
183.1240563300881
 23
1382.898960479401
 33
0.0
  0
SOLID
  5
45B
330
455
100
AcDbEntity
  8
01-01
 62
     4
100
AcDbTrace
 10
468.6240563300881
 20
1384.982293812734
 30
0.0
 11
468.6240563300881
 21
1380.815627146068
 31
0.0
 12
481.1240563300881
 22
1382.898960479401
 32
0.0
 13
481.1240563300881
 23
1382.898960479401
 33
0.0
  0
MTEXT
  5
45C
330
455
100
AcDbEntity
  8
01-01
 62
     1
100
AcDbMText
 10
332.1240563300881
 20
1394.281122825922
 30
0.0
 40
12.5
 41
0.0
 46
0.0
 71
     5
 72
     1
  1
298
 73
     1
 44
1.0
  0
POINT
  5
45D
330
455
100
AcDbEntity
  8
DEFPOINTS
 62
     0
100
AcDbPoint
 10
183.1240563300881
 20
1328.821352179449
 30
0.0
  0
POINT
  5
45E
330
455
100
AcDbEntity
  8
DEFPOINTS
 62
     0
100
AcDbPoint
 10
481.1240563300881
 20
1328.82135217945
 30
0.0
  0
POINT
  5
45F
330
455
100
AcDbEntity
  8
DEFPOINTS
 62
     0
100
AcDbPoint
 10
481.1240563300881
 20
1382.898960479401
 30
0.0
  0
ENDBLK
  5
460
330
455
100
AcDbEntity
  8
0
100
AcDbBlockEnd
  0
BLOCK
  5
3E5
330
3E4
100
AcDbEntity
  8
0
100
AcDbBlockBegin
  2
Drahtkorb 023180-D
 70
     0
 10
0.0
 20
0.0
 30
0.0
  3
Drahtkorb 023180-D
  1

  0
LINE
  5
3E6
330
3E4
100
AcDbEntity
  8
0
100
AcDbLine
 10
-136.4930582825836
 20
-128.2500000000005
 30
0.0
 11
136.5069417174163
 21
-128.2500000000005
 31
0.0
  0
ARC
  5
3E7
330
3E4
100
AcDbEntity
  8
0
100
AcDbCircle
 10
136.5069417174163
 20
-126.2500000000005
 30
0.0
 40
2.0
100
AcDbArc
 50
270.0
 51
0.0
  0
LINE
  5
3E8
330
3E4
100
AcDbEntity
  8
0
100
AcDbLine
 10
138.5069417174163
 20
-126.2500000000005
 30
0.0
 11
138.5069417174163
 21
125.7499999999996
 31
0.0
  0
ARC
  5
3E9
330
3E4
100
AcDbEntity
  8
0
100
AcDbCircle
 10
136.5069417174163
 20
125.7499999999996
 30
0.0
 40
2.0
100
AcDbArc
 50
0.0
 51
90.0
  0
LINE
  5
3EA
330
3E4
100
AcDbEntity
  8
0
100
AcDbLine
 10
136.5069417174163
 20
127.7499999999996
 30
0.0
 11
-136.4930582825836
 21
127.7499999999996
 31
0.0
  0
ARC
  5
3EB
330
3E4
100
AcDbEntity
  8
0
100
AcDbCircle
 10
-136.4930582825836
 20
125.7499999999996
 30
0.0
 40
2.0
100
AcDbArc
 50
90.0
 51
180.0
  0
LINE
  5
3EC
330
3E4
100
AcDbEntity
  8
0
100
AcDbLine
 10
-138.4930582825836
 20
125.7499999999996
 30
0.0
 11
-138.4930582825836
 21
-126.2500000000003
 31
0.0
  0
ARC
  5
3ED
330
3E4
100
AcDbEntity
  8
0
100
AcDbCircle
 10
-136.4930582825836
 20
-126.2500000000003
 30
0.0
 40
2.0
100
AcDbArc
 50
180.0
 51
270.0
  0
LINE
  5
3EE
330
3E4
100
AcDbEntity
  8
0
100
AcDbLine
 10
-136.4930582825836
 20
-132.2500000000003
 30
0.0
 11
136.5069417174163
 21
-132.2500000000003
 31
0.0
  0
ARC
  5
3EF
330
3E4
100
AcDbEntity
  8
0
100
AcDbCircle
 10
136.5069417174163
 20
-126.2500000000005
 30
0.0
 40
5.999999999999772
100
AcDbArc
 50
270.0
 51
0.0
  0
LINE
  5
3F0
330
3E4
100
AcDbEntity
  8
0
100
AcDbLine
 10
142.5069417174163
 20
-126.2500000000005
 30
0.0
 11
142.5069417174163
 21
125.7499999999996
 31
0.0
  0
ARC
  5
3F1
330
3E4
100
AcDbEntity
  8
0
100
AcDbCircle
 10
136.5069417174163
 20
125.7499999999996
 30
0.0
 40
6.0
100
AcDbArc
 50
0.0
 51
90.0
  0
LINE
  5
3F2
330
3E4
100
AcDbEntity
  8
0
100
AcDbLine
 10
136.5069417174163
 20
131.7499999999996
 30
0.0
 11
-136.4930582825836
 21
131.7499999999996
 31
0.0
  0
ARC
  5
3F3
330
3E4
100
AcDbEntity
  8
0
100
AcDbCircle
 10
-136.4930582825836
 20
125.7499999999996
 30
0.0
 40
6.0
100
AcDbArc
 50
90.0
 51
180.0
  0
LINE
  5
3F4
330
3E4
100
AcDbEntity
  8
0
100
AcDbLine
 10
-142.4930582825836
 20
125.7499999999996
 30
0.0
 11
-142.4930582825836
 21
-126.2500000000003
 31
0.0
  0
ARC
  5
3F5
330
3E4
100
AcDbEntity
  8
0
100
AcDbCircle
 10
-136.4930582825836
 20
-126.2500000000003
 30
0.0
 40
6.0
100
AcDbArc
 50
180.0
 51
270.0
  0
LINE
  5
3F6
330
3E4
100
AcDbEntity
  8
0
100
AcDbLine
 10
-97.99305828258276
 20
-121.7500000000003
 30
0.0
 11
-97.99305828258276
 21
-76.24999999999989
 31
0.0
  0
LINE
  5
3F7
330
3E4
100
AcDbEntity
  8
0
100
AcDbLine
 10
-97.99305828258276
 20
-72.25000000000012
 30
0.0
 11
-97.99305828258276
 21
-26.74999999999943
 31
0.0
  0
LINE
  5
3F8
330
3E4
100
AcDbEntity
  8
0
100
AcDbLine
 10
-97.99305828258276
 20
-22.75000000000011
 30
0.0
 11
-97.99305828258276
 21
22.75000000000011
 31
0.0
  0
LINE
  5
3F9
330
3E4
100
AcDbEntity
  8
0
100
AcDbLine
 10
-97.99305828258276
 20
26.74999999999966
 30
0.0
 11
-97.99305828258276
 21
72.25000000000012
 31
0.0
  0
LINE
  5
3FA
330
3E4
100
AcDbEntity
  8
0
100
AcDbLine
 10
-97.99305828258276
 20
76.25000000000011
 30
0.0
 11
-97.99305828258276
 21
121.7499999999996
 31
0.0
  0
LINE
  5
3FB
330
3E4
100
AcDbEntity
  8
0
100
AcDbLine
 10
-101.9930582825836
 20
-121.7500000000003
 30
0.0
 11
-101.9930582825836
 21
-76.24999999999989
 31
0.0
  0
LINE
  5
3FC
330
3E4
100
AcDbEntity
  8
0
100
AcDbLine
 10
-101.9930582825836
 20
-72.25000000000012
 30
0.0
 11
-101.9930582825836
 21
-26.74999999999943
 31
0.0
  0
LINE
  5
3FD
330
3E4
100
AcDbEntity
  8
0
100
AcDbLine
 10
-101.9930582825836
 20
-22.75000000000011
 30
0.0
 11
-101.9930582825836
 21
22.75000000000011
 31
0.0
  0
LINE
  5
3FE
330
3E4
100
AcDbEntity
  8
0
100
AcDbLine
 10
-101.9930582825836
 20
26.74999999999966
 30
0.0
 11
-101.9930582825846
 21
72.25000000000012
 31
0.0
  0
LINE
  5
3FF
330
3E4
100
AcDbEntity
  8
0
100
AcDbLine
 10
-101.9930582825846
 20
76.25000000000011
 30
0.0
 11
-101.9930582825855
 21
121.7499999999996
 31
0.0
  0
LINE
  5
400
330
3E4
100
AcDbEntity
  8
0
100
AcDbLine
 10
-136.4930582825836
 20
26.74999999999966
 30
0.0
 11
136.5069417174163
 21
26.74999999999966
 31
0.0
  0
LINE
  5
401
330
3E4
100
AcDbEntity
  8
0
100
AcDbLine
 10
-136.4930582825836
 20
22.75000000000011
 30
0.0
 11
136.5069417174163
 21
22.74999999999966
 31
0.0
  0
ARC
  5
402
330
3E4
100
AcDbEntity
  8
0
100
AcDbCircle
 10
-136.4930582825836
 20
24.74999999999966
 30
0.0
 40
2.0
100
AcDbArc
 50
90.0
 51
270.0
  0
ARC
  5
403
330
3E4
100
AcDbEntity
  8
0
100
AcDbCircle
 10
-99.99305828258366
 20
-126.2500000000003
 30
0.0
 40
2.0
100
AcDbArc
 50
165.5224878140387
 51
14.4775121859612
  0
LINE
  5
404
330
3E4
100
AcDbEntity
  8
0
100
AcDbLine
 10
-136.4930582825836
 20
72.24999999999965
 30
0.0
 11
136.5069417174163
 21
72.24999999999965
 31
0.0
  0
LINE
  5
405
330
3E4
100
AcDbEntity
  8
0
100
AcDbLine
 10
-136.4930582825836
 20
76.24999999999966
 30
0.0
 11
136.5069417174163
 21
76.24999999999966
 31
0.0
  0
ARC
  5
406
330
3E4
100
AcDbEntity
  8
0
100
AcDbCircle
 10
-136.4930582825836
 20
74.24999999999966
 30
0.0
 40
2.0
100
AcDbArc
 50
90.0
 51
270.0
  0
LINE
  5
407
330
3E4
100
AcDbEntity
  8
0
100
AcDbLine
 10
-136.4930582825836
 20
125.7499999999996
 30
0.0
 11
136.5069417174163
 21
125.7499999999996
 31
0.0
  0
LINE
  5
408
330
3E4
100
AcDbEntity
  8
0
100
AcDbLine
 10
-136.4930582825836
 20
121.7499999999996
 30
0.0
 11
136.5069417174163
 21
121.7499999999996
 31
0.0
  0
ARC
  5
409
330
3E4
100
AcDbEntity
  8
0
100
AcDbCircle
 10
-136.4930582825836
 20
123.7499999999996
 30
0.0
 40
2.0
100
AcDbArc
 50
90.0
 51
270.0
  0
ARC
  5
40A
330
3E4
100
AcDbEntity
  8
0
100
AcDbCircle
 10
-99.99305828258366
 20
125.7499999999996
 30
0.0
 40
2.0
100
AcDbArc
 50
0.0
 51
180.0
  0
LINE
  5
40B
330
3E4
100
AcDbEntity
  8
0
100
AcDbLine
 10
-51.99305828258275
 20
-121.7500000000003
 30
0.0
 11
-51.99305828258275
 21
-76.24999999999989
 31
0.0
  0
LINE
  5
40C
330
3E4
100
AcDbEntity
  8
0
100
AcDbLine
 10
-51.99305828258275
 20
-72.25000000000012
 30
0.0
 11
-51.99305828258366
 21
-26.74999999999943
 31
0.0
  0
LINE
  5
40D
330
3E4
100
AcDbEntity
  8
0
100
AcDbLine
 10
-51.99305828258275
 20
-22.75000000000011
 30
0.0
 11
-51.99305828258275
 21
22.75000000000011
 31
0.0
  0
LINE
  5
40E
330
3E4
100
AcDbEntity
  8
0
100
AcDbLine
 10
-51.99305828258275
 20
26.74999999999966
 30
0.0
 11
-51.99305828258275
 21
72.25000000000012
 31
0.0
  0
LINE
  5
40F
330
3E4
100
AcDbEntity
  8
0
100
AcDbLine
 10
-51.99305828258275
 20
76.25000000000011
 30
0.0
 11
-51.99305828258275
 21
121.7499999999996
 31
0.0
  0
LINE
  5
410
330
3E4
100
AcDbEntity
  8
0
100
AcDbLine
 10
-47.99305828258275
 20
-121.7500000000003
 30
0.0
 11
-47.99305828258275
 21
-76.24999999999989
 31
0.0
  0
LINE
  5
411
330
3E4
100
AcDbEntity
  8
0
100
AcDbLine
 10
-47.99305828258275
 20
-72.25000000000012
 30
0.0
 11
-47.99305828258366
 21
-26.74999999999943
 31
0.0
  0
LINE
  5
412
330
3E4
100
AcDbEntity
  8
0
100
AcDbLine
 10
-47.99305828258275
 20
-22.75000000000011
 30
0.0
 11
-47.99305828258275
 21
22.75000000000011
 31
0.0
  0
LINE
  5
413
330
3E4
100
AcDbEntity
  8
0
100
AcDbLine
 10
-47.99305828258275
 20
26.74999999999966
 30
0.0
 11
-47.99305828258275
 21
72.25000000000012
 31
0.0
  0
LINE
  5
414
330
3E4
100
AcDbEntity
  8
0
100
AcDbLine
 10
-47.99305828258275
 20
76.25000000000011
 30
0.0
 11
-47.99305828258275
 21
121.7499999999996
 31
0.0
  0
ARC
  5
415
330
3E4
100
AcDbEntity
  8
0
100
AcDbCircle
 10
-49.99305828258366
 20
-126.2500000000003
 30
0.0
 40
2.0
100
AcDbArc
 50
165.5224878140514
 51
14.47751218594858
  0
ARC
  5
416
330
3E4
100
AcDbEntity
  8
0
100
AcDbCircle
 10
-49.99305828258366
 20
125.7499999999996
 30
0.0
 40
2.0
100
AcDbArc
 50
0.0
 51
180.0
  0
LINE
  5
417
330
3E4
100
AcDbEntity
  8
0
100
AcDbLine
 10
48.00694171741724
 20
-121.7500000000003
 30
0.0
 11
48.00694171741724
 21
-76.24999999999966
 31
0.0
  0
LINE
  5
418
330
3E4
100
AcDbEntity
  8
0
100
AcDbLine
 10
48.00694171741724
 20
-72.24999999999988
 30
0.0
 11
48.00694171741634
 21
-26.74999999999989
 31
0.0
  0
LINE
  5
419
330
3E4
100
AcDbEntity
  8
0
100
AcDbLine
 10
48.00694171741543
 20
-22.75000000000011
 30
0.0
 11
48.00694171741634
 21
22.75000000000011
 31
0.0
  0
LINE
  5
41A
330
3E4
100
AcDbEntity
  8
0
100
AcDbLine
 10
48.00694171741634
 20
26.74999999999966
 30
0.0
 11
48.00694171741724
 21
72.25000000000012
 31
0.0
  0
LINE
  5
41B
330
3E4
100
AcDbEntity
  8
0
100
AcDbLine
 10
48.00694171741724
 20
76.25000000000011
 30
0.0
 11
48.00694171741724
 21
121.7499999999996
 31
0.0
  0
LINE
  5
41C
330
3E4
100
AcDbEntity
  8
0
100
AcDbLine
 10
52.00694171741725
 20
-121.7500000000003
 30
0.0
 11
52.00694171741725
 21
-76.24999999999966
 31
0.0
  0
LINE
  5
41D
330
3E4
100
AcDbEntity
  8
0
100
AcDbLine
 10
52.00694171741725
 20
-72.24999999999988
 30
0.0
 11
52.00694171741634
 21
-26.74999999999989
 31
0.0
  0
LINE
  5
41E
330
3E4
100
AcDbEntity
  8
0
100
AcDbLine
 10
52.00694171741543
 20
-22.75000000000011
 30
0.0
 11
52.00694171741634
 21
22.75000000000011
 31
0.0
  0
LINE
  5
41F
330
3E4
100
AcDbEntity
  8
0
100
AcDbLine
 10
52.00694171741634
 20
26.74999999999966
 30
0.0
 11
52.00694171741725
 21
72.25000000000012
 31
0.0
  0
LINE
  5
420
330
3E4
100
AcDbEntity
  8
0
100
AcDbLine
 10
52.00694171741725
 20
76.25000000000011
 30
0.0
 11
52.00694171741725
 21
121.7499999999996
 31
0.0
  0
LINE
  5
421
330
3E4
100
AcDbEntity
  8
0
100
AcDbLine
 10
-1.993058282582751
 20
-121.7500000000003
 30
0.0
 11
-1.993058282582751
 21
-76.24999999999989
 31
0.0
  0
LINE
  5
422
330
3E4
100
AcDbEntity
  8
0
100
AcDbLine
 10
-1.993058282582751
 20
-72.25000000000012
 30
0.0
 11
-1.99305828258366
 21
-26.74999999999943
 31
0.0
  0
LINE
  5
423
330
3E4
100
AcDbEntity
  8
0
100
AcDbLine
 10
-1.99305828258457
 20
-22.75000000000011
 30
0.0
 11
-1.99305828258366
 21
22.75000000000011
 31
0.0
  0
LINE
  5
424
330
3E4
100
AcDbEntity
  8
0
100
AcDbLine
 10
-1.99305828258366
 20
26.74999999999966
 30
0.0
 11
-1.993058282582751
 21
72.25000000000012
 31
0.0
  0
LINE
  5
425
330
3E4
100
AcDbEntity
  8
0
100
AcDbLine
 10
-1.993058282582751
 20
76.25000000000011
 30
0.0
 11
-1.993058282582751
 21
121.7499999999996
 31
0.0
  0
LINE
  5
426
330
3E4
100
AcDbEntity
  8
0
100
AcDbLine
 10
2.006941717418158
 20
-121.7500000000003
 30
0.0
 11
2.006941717417248
 21
-76.24999999999989
 31
0.0
  0
LINE
  5
427
330
3E4
100
AcDbEntity
  8
0
100
AcDbLine
 10
2.006941717417248
 20
-72.25000000000012
 30
0.0
 11
2.006941717417248
 21
-26.74999999999943
 31
0.0
  0
LINE
  5
428
330
3E4
100
AcDbEntity
  8
0
100
AcDbLine
 10
2.006941717418158
 20
-22.75000000000011
 30
0.0
 11
2.006941717419067
 21
22.75000000000011
 31
0.0
  0
LINE
  5
429
330
3E4
100
AcDbEntity
  8
0
100
AcDbLine
 10
2.006941717419067
 20
26.74999999999966
 30
0.0
 11
2.006941717419067
 21
72.25000000000012
 31
0.0
  0
LINE
  5
42A
330
3E4
100
AcDbEntity
  8
0
100
AcDbLine
 10
2.006941717419067
 20
76.25000000000011
 30
0.0
 11
2.006941717417248
 21
121.7499999999996
 31
0.0
  0
ARC
  5
42B
330
3E4
100
AcDbEntity
  8
0
100
AcDbCircle
 10
0.0069417174163391
 20
-126.2500000000003
 30
0.0
 40
2.0
100
AcDbArc
 50
165.5224878140514
 51
14.47751218594858
  0
ARC
  5
42C
330
3E4
100
AcDbEntity
  8
0
100
AcDbCircle
 10
50.00694171741634
 20
-126.2500000000003
 30
0.0
 40
2.0
100
AcDbArc
 50
165.5224878140514
 51
14.47751218594858
  0
ARC
  5
42D
330
3E4
100
AcDbEntity
  8
0
100
AcDbCircle
 10
0.0069417174163391
 20
125.7499999999996
 30
0.0
 40
2.0
100
AcDbArc
 50
0.0
 51
180.0
  0
ARC
  5
42E
330
3E4
100
AcDbEntity
  8
0
100
AcDbCircle
 10
50.00694171741634
 20
125.7499999999996
 30
0.0
 40
2.0
100
AcDbArc
 50
0.0
 51
180.0
  0
LINE
  5
42F
330
3E4
100
AcDbEntity
  8
0
100
AcDbLine
 10
98.00694171741634
 20
-121.7500000000003
 30
0.0
 11
98.00694171741634
 21
-76.24999999999989
 31
0.0
  0
LINE
  5
430
330
3E4
100
AcDbEntity
  8
0
100
AcDbLine
 10
98.00694171741634
 20
-72.24999999999988
 30
0.0
 11
98.00694171741634
 21
-26.74999999999989
 31
0.0
  0
LINE
  5
431
330
3E4
100
AcDbEntity
  8
0
100
AcDbLine
 10
98.00694171741634
 20
-22.75000000000034
 30
0.0
 11
98.00694171741634
 21
22.74999999999966
 31
0.0
  0
LINE
  5
432
330
3E4
100
AcDbEntity
  8
0
100
AcDbLine
 10
98.00694171741634
 20
26.74999999999966
 30
0.0
 11
98.00694171741634
 21
72.25000000000012
 31
0.0
  0
LINE
  5
433
330
3E4
100
AcDbEntity
  8
0
100
AcDbLine
 10
98.00694171741634
 20
76.25000000000011
 30
0.0
 11
98.00694171741634
 21
121.7499999999996
 31
0.0
  0
LINE
  5
434
330
3E4
100
AcDbEntity
  8
0
100
AcDbLine
 10
102.0069417174163
 20
-121.7500000000003
 30
0.0
 11
102.0069417174163
 21
-76.24999999999989
 31
0.0
  0
LINE
  5
435
330
3E4
100
AcDbEntity
  8
0
100
AcDbLine
 10
102.0069417174163
 20
-72.24999999999988
 30
0.0
 11
102.0069417174163
 21
-26.74999999999989
 31
0.0
  0
LINE
  5
436
330
3E4
100
AcDbEntity
  8
0
100
AcDbLine
 10
102.0069417174163
 20
-22.75000000000034
 30
0.0
 11
102.0069417174163
 21
22.74999999999966
 31
0.0
  0
LINE
  5
437
330
3E4
100
AcDbEntity
  8
0
100
AcDbLine
 10
102.0069417174163
 20
26.74999999999966
 30
0.0
 11
102.0069417174163
 21
72.25000000000012
 31
0.0
  0
LINE
  5
438
330
3E4
100
AcDbEntity
  8
0
100
AcDbLine
 10
102.0069417174163
 20
76.25000000000011
 30
0.0
 11
102.0069417174163
 21
121.7499999999996
 31
0.0
  0
ARC
  5
439
330
3E4
100
AcDbEntity
  8
0
100
AcDbCircle
 10
100.0069417174163
 20
-126.2500000000003
 30
0.0
 40
2.0
100
AcDbArc
 50
165.5224878140514
 51
14.47751218594858
  0
ARC
  5
43A
330
3E4
100
AcDbEntity
  8
0
100
AcDbCircle
 10
136.5069417174163
 20
24.74999999999966
 30
0.0
 40
2.0
100
AcDbArc
 50
270.0
 51
90.0
  0
ARC
  5
43B
330
3E4
100
AcDbEntity
  8
0
100
AcDbCircle
 10
136.5069417174163
 20
74.24999999999966
 30
0.0
 40
2.0
100
AcDbArc
 50
270.0
 51
90.0
  0
ARC
  5
43C
330
3E4
100
AcDbEntity
  8
0
100
AcDbCircle
 10
100.0069417174163
 20
125.7499999999996
 30
0.0
 40
2.0
100
AcDbArc
 50
0.0
 51
180.0
  0
ARC
  5
43D
330
3E4
100
AcDbEntity
  8
0
100
AcDbCircle
 10
136.5069417174163
 20
123.7499999999996
 30
0.0
 40
2.0
100
AcDbArc
 50
270.0
 51
90.0
  0
LINE
  5
43E
330
3E4
100
AcDbEntity
  8
0
100
AcDbLine
 10
-136.4930582825836
 20
-22.75000000000034
 30
0.0
 11
136.5069417174163
 21
-22.75000000000034
 31
0.0
  0
LINE
  5
43F
330
3E4
100
AcDbEntity
  8
0
100
AcDbLine
 10
-136.4930582825836
 20
-26.74999999999989
 30
0.0
 11
136.5069417174163
 21
-26.75000000000034
 31
0.0
  0
ARC
  5
440
330
3E4
100
AcDbEntity
  8
0
100
AcDbCircle
 10
-136.4930582825836
 20
-24.75000000000034
 30
0.0
 40
2.0
100
AcDbArc
 50
90.0
 51
270.0
  0
ARC
  5
441
330
3E4
100
AcDbEntity
  8
0
100
AcDbCircle
 10
136.5069417174163
 20
-24.75000000000034
 30
0.0
 40
2.0
100
AcDbArc
 50
270.0
 51
90.0
  0
LINE
  5
442
330
3E4
100
AcDbEntity
  8
0
100
AcDbLine
 10
-136.4930582825836
 20
-72.25000000000034
 30
0.0
 11
136.5069417174163
 21
-72.25000000000034
 31
0.0
  0
LINE
  5
443
330
3E4
100
AcDbEntity
  8
0
100
AcDbLine
 10
-136.4930582825836
 20
-76.24999999999989
 30
0.0
 11
136.5069417174163
 21
-76.25000000000034
 31
0.0
  0
ARC
  5
444
330
3E4
100
AcDbEntity
  8
0
100
AcDbCircle
 10
-136.4930582825836
 20
-74.25000000000034
 30
0.0
 40
2.0
100
AcDbArc
 50
90.0
 51
270.0
  0
ARC
  5
445
330
3E4
100
AcDbEntity
  8
0
100
AcDbCircle
 10
136.5069417174163
 20
-74.25000000000034
 30
0.0
 40
2.0
100
AcDbArc
 50
270.0
 51
90.0
  0
LINE
  5
446
330
3E4
100
AcDbEntity
  8
0
100
AcDbLine
 10
-136.4930582825836
 20
-121.7500000000003
 30
0.0
 11
136.5069417174163
 21
-121.7500000000003
 31
0.0
  0
LINE
  5
447
330
3E4
100
AcDbEntity
  8
0
100
AcDbLine
 10
-136.4930582825836
 20
-125.7499999999999
 30
0.0
 11
136.5069417174163
 21
-125.7500000000003
 31
0.0
  0
ARC
  5
448
330
3E4
100
AcDbEntity
  8
0
100
AcDbCircle
 10
-136.4930582825836
 20
-123.7500000000003
 30
0.0
 40
2.0
100
AcDbArc
 50
90.0
 51
270.0
  0
ARC
  5
449
330
3E4
100
AcDbEntity
  8
0
100
AcDbCircle
 10
136.5069417174163
 20
-123.7500000000003
 30
0.0
 40
2.0
100
AcDbArc
 50
270.0
 51
90.0
  0
ENDBLK
  5
44A
330
3E4
100
AcDbEntity
  8
0
100
AcDbBlockEnd
  0
BLOCK
  5
3D2
330
3D1
100
AcDbEntity
  8
0
100
AcDbBlockBegin
  2
*D5
 70
     1
 10
0.0
 20
0.0
 30
0.0
  3
*D5
  1

  0
LINE
  5
3D3
330
3D1
100
AcDbEntity
  8
09-01
 62
     4
370
    -2
100
AcDbLine
 10
183.1240563300881
 20
1333.821352179449
 30
0.0
 11
183.1240563300881
 21
1359.63039102773
 31
0.0
  0
LINE
  5
3D4
330
3D1
100
AcDbEntity
  8
09-01
 62
     4
370
    -2
100
AcDbLine
 10
213.1240563300881
 20
1333.821352179449
 30
0.0
 11
213.1240563300881
 21
1359.63039102773
 31
0.0
  0
LINE
  5
3D5
330
3D1
100
AcDbEntity
  8
09-01
 62
     4
370
    -2
100
AcDbLine
 10
170.6240563300881
 20
1354.63039102773
 30
0.0
 11
158.1240563300881
 21
1354.63039102773
 31
0.0
  0
LINE
  5
3D6
330
3D1
100
AcDbEntity
  8
09-01
 62
     4
370
    -2
100
AcDbLine
 10
225.6240563300881
 20
1354.63039102773
 30
0.0
 11
238.1240563300881
 21
1354.63039102773
 31
0.0
  0
LINE
  5
3D7
330
3D1
100
AcDbEntity
  8
09-01
 62
     4
370
    -2
100
AcDbLine
 10
183.1240563300881
 20
1354.63039102773
 30
0.0
 11
213.1240563300881
 21
1354.63039102773
 31
0.0
  0
SOLID
  5
3D8
330
3D1
100
AcDbEntity
  8
09-01
 62
     4
100
AcDbTrace
 10
170.6240563300881
 20
1356.713724361064
 30
0.0
 11
170.6240563300881
 21
1352.547057694397
 31
0.0
 12
183.1240563300881
 22
1354.63039102773
 32
0.0
 13
183.1240563300881
 23
1354.63039102773
 33
0.0
  0
SOLID
  5
3D9
330
3D1
100
AcDbEntity
  8
09-01
 62
     4
100
AcDbTrace
 10
225.6240563300881
 20
1356.713724361064
 30
0.0
 11
225.6240563300881
 21
1352.547057694397
 31
0.0
 12
213.1240563300881
 22
1354.63039102773
 32
0.0
 13
213.1240563300881
 23
1354.63039102773
 33
0.0
  0
MTEXT
  5
3DA
330
3D1
100
AcDbEntity
  8
09-01
 62
     1
100
AcDbMText
 10
198.1240563300881
 20
1366.016816675752
 30
0.0
 40
12.5
 41
0.0
 46
0.0
 71
     5
 72
     1
  1
30
 73
     1
 44
1.0
  0
POINT
  5
3DB
330
3D1
100
AcDbEntity
  8
DEFPOINTS
 62
     0
100
AcDbPoint
 10
183.1240563300881
 20
1328.821352179449
 30
0.0
  0
POINT
  5
3DC
330
3D1
100
AcDbEntity
  8
DEFPOINTS
 62
     0
100
AcDbPoint
 10
213.1240563300881
 20
1328.821352179449
 30
0.0
  0
POINT
  5
3DD
330
3D1
100
AcDbEntity
  8
DEFPOINTS
 62
     0
100
AcDbPoint
 10
213.1240563300881
 20
1354.63039102773
 30
0.0
  0
ENDBLK
  5
3DE
330
3D1
100
AcDbEntity
  8
0
100
AcDbBlockEnd
  0
BLOCK
  5
3C5
330
3C4
100
AcDbEntity
  8
0
100
AcDbBlockBegin
  2
*D6
 70
     1
 10
0.0
 20
0.0
 30
0.0
  3
*D6
  1

  0
LINE
  5
3C6
330
3C4
100
AcDbEntity
  8
09-01
 62
     4
370
    -2
100
AcDbLine
 10
213.1240563300881
 20
1333.821352179449
 30
0.0
 11
213.1240563300881
 21
1359.63039102773
 31
0.0
  0
LINE
  5
3C7
330
3C4
100
AcDbEntity
  8
09-01
 62
     4
370
    -2
100
AcDbLine
 10
451.1240563300881
 20
1333.82135217945
 30
0.0
 11
451.1240563300881
 21
1359.63039102773
 31
0.0
  0
LINE
  5
3C8
330
3C4
100
AcDbEntity
  8
09-01
 62
     4
370
    -2
100
AcDbLine
 10
225.6240563300881
 20
1354.63039102773
 30
0.0
 11
438.6240563300881
 21
1354.63039102773
 31
0.0
  0
SOLID
  5
3C9
330
3C4
100
AcDbEntity
  8
09-01
 62
     4
100
AcDbTrace
 10
225.6240563300881
 20
1356.713724361064
 30
0.0
 11
225.6240563300881
 21
1352.547057694397
 31
0.0
 12
213.1240563300881
 22
1354.63039102773
 32
0.0
 13
213.1240563300881
 23
1354.63039102773
 33
0.0
  0
SOLID
  5
3CA
330
3C4
100
AcDbEntity
  8
09-01
 62
     4
100
AcDbTrace
 10
438.6240563300881
 20
1356.713724361064
 30
0.0
 11
438.6240563300881
 21
1352.547057694397
 31
0.0
 12
451.1240563300881
 22
1354.63039102773
 32
0.0
 13
451.1240563300881
 23
1354.63039102773
 33
0.0
  0
MTEXT
  5
3CB
330
3C4
100
AcDbEntity
  8
09-01
 62
     1
100
AcDbMText
 10
332.1240563300881
 20
1366.016816675752
 30
0.0
 40
12.5
 41
0.0
 46
0.0
 71
     5
 72
     1
  1
238
 73
     1
 44
1.0
  0
POINT
  5
3CC
330
3C4
100
AcDbEntity
  8
DEFPOINTS
 62
     0
100
AcDbPoint
 10
213.1240563300881
 20
1328.821352179449
 30
0.0
  0
POINT
  5
3CD
330
3C4
100
AcDbEntity
  8
DEFPOINTS
 62
     0
100
AcDbPoint
 10
451.1240563300881
 20
1328.82135217945
 30
0.0
  0
POINT
  5
3CE
330
3C4
100
AcDbEntity
  8
DEFPOINTS
 62
     0
100
AcDbPoint
 10
451.1240563300881
 20
1354.63039102773
 30
0.0
  0
ENDBLK
  5
3CF
330
3C4
100
AcDbEntity
  8
0
100
AcDbBlockEnd
  0
BLOCK
  5
3B6
330
3B5
100
AcDbEntity
  8
0
100
AcDbBlockBegin
  2
*D7
 70
     1
 10
0.0
 20
0.0
 30
0.0
  3
*D7
  1

  0
LINE
  5
3B7
330
3B5
100
AcDbEntity
  8
09-01
 62
     4
370
    -2
100
AcDbLine
 10
451.1240563300881
 20
1333.82135217945
 30
0.0
 11
451.1240563300881
 21
1359.63039102773
 31
0.0
  0
LINE
  5
3B8
330
3B5
100
AcDbEntity
  8
09-01
 62
     4
370
    -2
100
AcDbLine
 10
481.1240563300881
 20
1333.821352179449
 30
0.0
 11
481.1240563300881
 21
1359.63039102773
 31
0.0
  0
LINE
  5
3B9
330
3B5
100
AcDbEntity
  8
09-01
 62
     4
370
    -2
100
AcDbLine
 10
438.6240563300881
 20
1354.63039102773
 30
0.0
 11
426.1240563300881
 21
1354.63039102773
 31
0.0
  0
LINE
  5
3BA
330
3B5
100
AcDbEntity
  8
09-01
 62
     4
370
    -2
100
AcDbLine
 10
493.6240563300881
 20
1354.63039102773
 30
0.0
 11
506.1240563300881
 21
1354.63039102773
 31
0.0
  0
LINE
  5
3BB
330
3B5
100
AcDbEntity
  8
09-01
 62
     4
370
    -2
100
AcDbLine
 10
451.1240563300881
 20
1354.63039102773
 30
0.0
 11
481.1240563300881
 21
1354.63039102773
 31
0.0
  0
SOLID
  5
3BC
330
3B5
100
AcDbEntity
  8
09-01
 62
     4
100
AcDbTrace
 10
438.6240563300881
 20
1356.713724361064
 30
0.0
 11
438.6240563300881
 21
1352.547057694397
 31
0.0
 12
451.1240563300881
 22
1354.63039102773
 32
0.0
 13
451.1240563300881
 23
1354.63039102773
 33
0.0
  0
SOLID
  5
3BD
330
3B5
100
AcDbEntity
  8
09-01
 62
     4
100
AcDbTrace
 10
493.6240563300881
 20
1356.713724361064
 30
0.0
 11
493.6240563300881
 21
1352.547057694397
 31
0.0
 12
481.1240563300881
 22
1354.63039102773
 32
0.0
 13
481.1240563300881
 23
1354.63039102773
 33
0.0
  0
MTEXT
  5
3BE
330
3B5
100
AcDbEntity
  8
09-01
 62
     1
100
AcDbMText
 10
466.1240563300881
 20
1366.016816675752
 30
0.0
 40
12.5
 41
0.0
 46
0.0
 71
     5
 72
     1
  1
30
 73
     1
 44
1.0
  0
POINT
  5
3BF
330
3B5
100
AcDbEntity
  8
DEFPOINTS
 62
     0
100
AcDbPoint
 10
451.1240563300881
 20
1328.82135217945
 30
0.0
  0
POINT
  5
3C0
330
3B5
100
AcDbEntity
  8
DEFPOINTS
 62
     0
100
AcDbPoint
 10
481.1240563300881
 20
1328.821352179449
 30
0.0
  0
POINT
  5
3C1
330
3B5
100
AcDbEntity
  8
DEFPOINTS
 62
     0
100
AcDbPoint
 10
481.1240563300881
 20
1354.63039102773
 30
0.0
  0
ENDBLK
  5
3C2
330
3B5
100
AcDbEntity
  8
0
100
AcDbBlockEnd
  0
BLOCK
  5
3A7
330
3A6
100
AcDbEntity
  8
0
100
AcDbBlockBegin
  2
*D8
 70
     1
 10
0.0
 20
0.0
 30
0.0
  3
*D8
  1

  0
LINE
  5
3A8
330
3A6
100
AcDbEntity
  8
09-01
 62
     4
370
    -2
100
AcDbLine
 10
625.7669480691134
 20
1333.821352179449
 30
0.0
 11
625.7669480691134
 21
1352.735158883149
 31
0.0
  0
LINE
  5
3A9
330
3A6
100
AcDbEntity
  8
09-01
 62
     4
370
    -2
100
AcDbLine
 10
655.7669480691134
 20
1333.821352179449
 30
0.0
 11
655.7669480691134
 21
1352.735158883149
 31
0.0
  0
LINE
  5
3AA
330
3A6
100
AcDbEntity
  8
09-01
 62
     4
370
    -2
100
AcDbLine
 10
613.2669480691134
 20
1347.735158883149
 30
0.0
 11
600.7669480691134
 21
1347.735158883149
 31
0.0
  0
LINE
  5
3AB
330
3A6
100
AcDbEntity
  8
09-01
 62
     4
370
    -2
100
AcDbLine
 10
668.2669480691134
 20
1347.735158883149
 30
0.0
 11
680.7669480691134
 21
1347.735158883149
 31
0.0
  0
LINE
  5
3AC
330
3A6
100
AcDbEntity
  8
09-01
 62
     4
370
    -2
100
AcDbLine
 10
625.7669480691134
 20
1347.735158883149
 30
0.0
 11
655.7669480691134
 21
1347.735158883149
 31
0.0
  0
SOLID
  5
3AD
330
3A6
100
AcDbEntity
  8
09-01
 62
     4
100
AcDbTrace
 10
613.2669480691134
 20
1349.818492216482
 30
0.0
 11
613.2669480691134
 21
1345.651825549816
 31
0.0
 12
625.7669480691134
 22
1347.735158883149
 32
0.0
 13
625.7669480691134
 23
1347.735158883149
 33
0.0
  0
SOLID
  5
3AE
330
3A6
100
AcDbEntity
  8
09-01
 62
     4
100
AcDbTrace
 10
668.2669480691134
 20
1349.818492216482
 30
0.0
 11
668.2669480691134
 21
1345.651825549816
 31
0.0
 12
655.7669480691134
 22
1347.735158883149
 32
0.0
 13
655.7669480691134
 23
1347.735158883149
 33
0.0
  0
MTEXT
  5
3AF
330
3A6
100
AcDbEntity
  8
09-01
 62
     1
100
AcDbMText
 10
640.7669480691135
 20
1359.121584531171
 30
0.0
 40
12.5
 41
0.0
 46
0.0
 71
     5
 72
     1
  1
30
 73
     1
 44
1.0
  0
POINT
  5
3B0
330
3A6
100
AcDbEntity
  8
DEFPOINTS
 62
     0
100
AcDbPoint
 10
625.7669480691134
 20
1328.821352179449
 30
0.0
  0
POINT
  5
3B1
330
3A6
100
AcDbEntity
  8
DEFPOINTS
 62
     0
100
AcDbPoint
 10
655.7669480691134
 20
1328.821352179449
 30
0.0
  0
POINT
  5
3B2
330
3A6
100
AcDbEntity
  8
DEFPOINTS
 62
     0
100
AcDbPoint
 10
655.7669480691134
 20
1347.735158883149
 30
0.0
  0
ENDBLK
  5
3B3
330
3A6
100
AcDbEntity
  8
0
100
AcDbBlockEnd
  0
BLOCK
  5
39A
330
399
100
AcDbEntity
  8
0
100
AcDbBlockBegin
  2
*D9
 70
     1
 10
0.0
 20
0.0
 30
0.0
  3
*D9
  1

  0
LINE
  5
39B
330
399
100
AcDbEntity
  8
09-01
 62
     4
370
    -2
100
AcDbLine
 10
655.7669480691134
 20
1333.821352179449
 30
0.0
 11
655.7669480691134
 21
1352.735158883149
 31
0.0
  0
LINE
  5
39C
330
399
100
AcDbEntity
  8
09-01
 62
     4
370
    -2
100
AcDbLine
 10
905.7669480691135
 20
1333.821352179449
 30
0.0
 11
905.7669480691135
 21
1352.735158883149
 31
0.0
  0
LINE
  5
39D
330
399
100
AcDbEntity
  8
09-01
 62
     4
370
    -2
100
AcDbLine
 10
668.2669480691134
 20
1347.735158883149
 30
0.0
 11
893.2669480691135
 21
1347.735158883149
 31
0.0
  0
SOLID
  5
39E
330
399
100
AcDbEntity
  8
09-01
 62
     4
100
AcDbTrace
 10
668.2669480691134
 20
1349.818492216482
 30
0.0
 11
668.2669480691134
 21
1345.651825549816
 31
0.0
 12
655.7669480691134
 22
1347.735158883149
 32
0.0
 13
655.7669480691134
 23
1347.735158883149
 33
0.0
  0
SOLID
  5
39F
330
399
100
AcDbEntity
  8
09-01
 62
     4
100
AcDbTrace
 10
893.2669480691135
 20
1349.818492216482
 30
0.0
 11
893.2669480691135
 21
1345.651825549816
 31
0.0
 12
905.7669480691135
 22
1347.735158883149
 32
0.0
 13
905.7669480691135
 23
1347.735158883149
 33
0.0
  0
MTEXT
  5
3A0
330
399
100
AcDbEntity
  8
09-01
 62
     1
100
AcDbMText
 10
780.7669480691134
 20
1359.11732122967
 30
0.0
 40
12.5
 41
0.0
 46
0.0
 71
     5
 72
     1
  1
250
 73
     1
 44
1.0
  0
POINT
  5
3A1
330
399
100
AcDbEntity
  8
DEFPOINTS
 62
     0
100
AcDbPoint
 10
655.7669480691134
 20
1328.821352179449
 30
0.0
  0
POINT
  5
3A2
330
399
100
AcDbEntity
  8
DEFPOINTS
 62
     0
100
AcDbPoint
 10
905.7669480691135
 20
1328.821352179449
 30
0.0
  0
POINT
  5
3A3
330
399
100
AcDbEntity
  8
DEFPOINTS
 62
     0
100
AcDbPoint
 10
905.7669480691135
 20
1347.735158883149
 30
0.0
  0
ENDBLK
  5
3A4
330
399
100
AcDbEntity
  8
0
100
AcDbBlockEnd
  0
BLOCK
  5
38B
330
38A
100
AcDbEntity
  8
0
100
AcDbBlockBegin
  2
*D10
 70
     1
 10
0.0
 20
0.0
 30
0.0
  3
*D10
  1

  0
LINE
  5
38C
330
38A
100
AcDbEntity
  8
09-01
 62
     4
370
    -2
100
AcDbLine
 10
905.7669480691135
 20
1333.821352179449
 30
0.0
 11
905.7669480691135
 21
1352.735158883149
 31
0.0
  0
LINE
  5
38D
330
38A
100
AcDbEntity
  8
09-01
 62
     4
370
    -2
100
AcDbLine
 10
935.7669480691134
 20
1333.821352179449
 30
0.0
 11
935.7669480691134
 21
1352.735158883149
 31
0.0
  0
LINE
  5
38E
330
38A
100
AcDbEntity
  8
09-01
 62
     4
370
    -2
100
AcDbLine
 10
893.2669480691135
 20
1347.735158883149
 30
0.0
 11
880.7669480691135
 21
1347.735158883149
 31
0.0
  0
LINE
  5
38F
330
38A
100
AcDbEntity
  8
09-01
 62
     4
370
    -2
100
AcDbLine
 10
948.2669480691134
 20
1347.735158883149
 30
0.0
 11
960.7669480691134
 21
1347.735158883149
 31
0.0
  0
LINE
  5
390
330
38A
100
AcDbEntity
  8
09-01
 62
     4
370
    -2
100
AcDbLine
 10
905.7669480691135
 20
1347.735158883149
 30
0.0
 11
935.7669480691134
 21
1347.735158883149
 31
0.0
  0
SOLID
  5
391
330
38A
100
AcDbEntity
  8
09-01
 62
     4
100
AcDbTrace
 10
893.2669480691135
 20
1349.818492216482
 30
0.0
 11
893.2669480691135
 21
1345.651825549816
 31
0.0
 12
905.7669480691135
 22
1347.735158883149
 32
0.0
 13
905.7669480691135
 23
1347.735158883149
 33
0.0
  0
SOLID
  5
392
330
38A
100
AcDbEntity
  8
09-01
 62
     4
100
AcDbTrace
 10
948.2669480691134
 20
1349.818492216482
 30
0.0
 11
948.2669480691134
 21
1345.651825549816
 31
0.0
 12
935.7669480691134
 22
1347.735158883149
 32
0.0
 13
935.7669480691134
 23
1347.735158883149
 33
0.0
  0
MTEXT
  5
393
330
38A
100
AcDbEntity
  8
09-01
 62
     1
100
AcDbMText
 10
920.7669480691135
 20
1359.121584531171
 30
0.0
 40
12.5
 41
0.0
 46
0.0
 71
     5
 72
     1
  1
30
 73
     1
 44
1.0
  0
POINT
  5
394
330
38A
100
AcDbEntity
  8
DEFPOINTS
 62
     0
100
AcDbPoint
 10
905.7669480691135
 20
1328.821352179449
 30
0.0
  0
POINT
  5
395
330
38A
100
AcDbEntity
  8
DEFPOINTS
 62
     0
100
AcDbPoint
 10
935.7669480691134
 20
1328.821352179449
 30
0.0
  0
POINT
  5
396
330
38A
100
AcDbEntity
  8
DEFPOINTS
 62
     0
100
AcDbPoint
 10
935.7669480691134
 20
1347.735158883149
 30
0.0
  0
ENDBLK
  5
397
330
38A
100
AcDbEntity
  8
0
100
AcDbBlockEnd
  0
BLOCK
  5
37E
330
37D
100
AcDbEntity
  8
0
100
AcDbBlockBegin
  2
*D11
 70
     1
 10
0.0
 20
0.0
 30
0.0
  3
*D11
  1

  0
LINE
  5
37F
330
37D
100
AcDbEntity
  8
09-01
 62
     4
370
    -2
100
AcDbLine
 10
625.7669480691134
 20
1333.821352179449
 30
0.0
 11
625.7669480691134
 21
1379.162080891366
 31
0.0
  0
LINE
  5
380
330
37D
100
AcDbEntity
  8
09-01
 62
     4
370
    -2
100
AcDbLine
 10
935.7669480691134
 20
1333.821352179449
 30
0.0
 11
935.7669480691134
 21
1379.162080891366
 31
0.0
  0
LINE
  5
381
330
37D
100
AcDbEntity
  8
09-01
 62
     4
370
    -2
100
AcDbLine
 10
638.2669480691134
 20
1374.162080891366
 30
0.0
 11
923.2669480691134
 21
1374.162080891366
 31
0.0
  0
SOLID
  5
382
330
37D
100
AcDbEntity
  8
09-01
 62
     4
100
AcDbTrace
 10
638.2669480691134
 20
1376.245414224699
 30
0.0
 11
638.2669480691134
 21
1372.078747558033
 31
0.0
 12
625.7669480691134
 22
1374.162080891366
 32
0.0
 13
625.7669480691134
 23
1374.162080891366
 33
0.0
  0
SOLID
  5
383
330
37D
100
AcDbEntity
  8
09-01
 62
     4
100
AcDbTrace
 10
923.2669480691134
 20
1376.245414224699
 30
0.0
 11
923.2669480691134
 21
1372.078747558033
 31
0.0
 12
935.7669480691134
 22
1374.162080891366
 32
0.0
 13
935.7669480691134
 23
1374.162080891366
 33
0.0
  0
MTEXT
  5
384
330
37D
100
AcDbEntity
  8
09-01
 62
     1
100
AcDbMText
 10
780.7669480691134
 20
1385.548506539388
 30
0.0
 40
12.5
 41
0.0
 46
0.0
 71
     5
 72
     1
  1
310
 73
     1
 44
1.0
  0
POINT
  5
385
330
37D
100
AcDbEntity
  8
DEFPOINTS
 62
     0
100
AcDbPoint
 10
625.7669480691134
 20
1328.821352179449
 30
0.0
  0
POINT
  5
386
330
37D
100
AcDbEntity
  8
DEFPOINTS
 62
     0
100
AcDbPoint
 10
935.7669480691134
 20
1328.821352179449
 30
0.0
  0
POINT
  5
387
330
37D
100
AcDbEntity
  8
DEFPOINTS
 62
     0
100
AcDbPoint
 10
935.7669480691134
 20
1374.162080891366
 30
0.0
  0
ENDBLK
  5
388
330
37D
100
AcDbEntity
  8
0
100
AcDbBlockEnd
  0
BLOCK
  5
371
330
370
100
AcDbEntity
  8
0
100
AcDbBlockBegin
  2
*D12
 70
     1
 10
0.0
 20
0.0
 30
0.0
  3
*D12
  1

  0
LINE
  5
372
330
370
100
AcDbEntity
  8
09-01
 62
     4
370
    -2
100
AcDbLine
 10
625.7669480691134
 20
725.8213521794492
 30
0.0
 11
625.7669480691134
 21
696.7636879994548
 31
0.0
  0
LINE
  5
373
330
370
100
AcDbEntity
  8
09-01
 62
     4
370
    -2
100
AcDbLine
 10
925.7669480691134
 20
725.8213521794492
 30
0.0
 11
925.7669480691134
 21
696.7636879994548
 31
0.0
  0
LINE
  5
374
330
370
100
AcDbEntity
  8
09-01
 62
     4
370
    -2
100
AcDbLine
 10
638.2669480691134
 20
701.7636879994548
 30
0.0
 11
913.2669480691134
 21
701.7636879994548
 31
0.0
  0
SOLID
  5
375
330
370
100
AcDbEntity
  8
09-01
 62
     4
100
AcDbTrace
 10
638.2669480691134
 20
703.8470213327882
 30
0.0
 11
638.2669480691134
 21
699.6803546661214
 31
0.0
 12
625.7669480691134
 22
701.7636879994548
 32
0.0
 13
625.7669480691134
 23
701.7636879994548
 33
0.0
  0
SOLID
  5
376
330
370
100
AcDbEntity
  8
09-01
 62
     4
100
AcDbTrace
 10
913.2669480691134
 20
703.8470213327882
 30
0.0
 11
913.2669480691134
 21
699.6803546661214
 31
0.0
 12
925.7669480691134
 22
701.7636879994548
 32
0.0
 13
925.7669480691134
 23
701.7636879994548
 33
0.0
  0
MTEXT
  5
377
330
370
100
AcDbEntity
  8
09-01
 62
     1
100
AcDbMText
 10
775.7669480691134
 20
713.1501136474767
 30
0.0
 40
12.5
 41
0.0
 46
0.0
 71
     5
 72
     1
  1
300
 73
     1
 44
1.0
  0
POINT
  5
378
330
370
100
AcDbEntity
  8
DEFPOINTS
 62
     0
100
AcDbPoint
 10
625.7669480691134
 20
730.8213521794492
 30
0.0
  0
POINT
  5
379
330
370
100
AcDbEntity
  8
DEFPOINTS
 62
     0
100
AcDbPoint
 10
925.7669480691134
 20
730.8213521794492
 30
0.0
  0
POINT
  5
37A
330
370
100
AcDbEntity
  8
DEFPOINTS
 62
     0
100
AcDbPoint
 10
925.7669480691134
 20
701.7636879994548
 30
0.0
  0
ENDBLK
  5
37B
330
370
100
AcDbEntity
  8
0
100
AcDbBlockEnd
  0
BLOCK
  5
362
330
361
100
AcDbEntity
  8
0
100
AcDbBlockBegin
  2
*D13
 70
     1
 10
0.0
 20
0.0
 30
0.0
  3
*D13
  1

  0
LINE
  5
363
330
361
100
AcDbEntity
  8
09-01
 62
     4
370
    -2
100
AcDbLine
 10
925.7669480691134
 20
725.8213521794492
 30
0.0
 11
925.7669480691134
 21
696.7636879994548
 31
0.0
  0
LINE
  5
364
330
361
100
AcDbEntity
  8
09-01
 62
     4
370
    -2
100
AcDbLine
 10
935.7669480691138
 20
735.8213521794497
 30
0.0
 11
935.7669480691138
 21
696.7636879994548
 31
0.0
  0
LINE
  5
365
330
361
100
AcDbEntity
  8
09-01
 62
     4
370
    -2
100
AcDbLine
 10
913.2669480691134
 20
701.7636879994548
 30
0.0
 11
900.7669480691134
 21
701.7636879994548
 31
0.0
  0
LINE
  5
366
330
361
100
AcDbEntity
  8
09-01
 62
     4
370
    -2
100
AcDbLine
 10
948.2669480691138
 20
701.7636879994548
 30
0.0
 11
960.7669480691138
 21
701.7636879994548
 31
0.0
  0
MTEXT
  5
367
330
361
100
AcDbEntity
  8
09-01
 62
     1
100
AcDbMText
 10
959.5332635686359
 20
711.9363677639536
 30
0.0
 40
12.5
 41
0.0
 46
0.0
 71
     5
 72
     1
  1
10
 73
     1
 44
1.0
  0
LINE
  5
368
330
361
100
AcDbEntity
  8
09-01
 62
     4
370
    -2
100
AcDbLine
 10
925.7669480691134
 20
701.7636879994548
 30
0.0
 11
935.7669480691138
 21
701.7636879994548
 31
0.0
  0
SOLID
  5
369
330
361
100
AcDbEntity
  8
09-01
 62
     4
100
AcDbTrace
 10
913.2669480691134
 20
703.8470213327882
 30
0.0
 11
913.2669480691134
 21
699.6803546661214
 31
0.0
 12
925.7669480691134
 22
701.7636879994548
 32
0.0
 13
925.7669480691134
 23
701.7636879994548
 33
0.0
  0
SOLID
  5
36A
330
361
100
AcDbEntity
  8
09-01
 62
     4
100
AcDbTrace
 10
948.2669480691138
 20
703.8470213327882
 30
0.0
 11
948.2669480691138
 21
699.6803546661214
 31
0.0
 12
935.7669480691138
 22
701.7636879994548
 32
0.0
 13
935.7669480691138
 23
701.7636879994548
 33
0.0
  0
POINT
  5
36B
330
361
100
AcDbEntity
  8
DEFPOINTS
 62
     0
100
AcDbPoint
 10
925.7669480691134
 20
730.8213521794492
 30
0.0
  0
POINT
  5
36C
330
361
100
AcDbEntity
  8
DEFPOINTS
 62
     0
100
AcDbPoint
 10
935.7669480691138
 20
740.8213521794497
 30
0.0
  0
POINT
  5
36D
330
361
100
AcDbEntity
  8
DEFPOINTS
 62
     0
100
AcDbPoint
 10
935.7669480691138
 20
701.7636879994548
 30
0.0
  0
ENDBLK
  5
36E
330
361
100
AcDbEntity
  8
0
100
AcDbBlockEnd
  0
BLOCK
  5
353
330
352
100
AcDbEntity
  8
0
100
AcDbBlockBegin
  2
*D14
 70
     1
 10
0.0
 20
0.0
 30
0.0
  3
*D14
  1

  0
LINE
  5
354
330
352
100
AcDbEntity
  8
09-01
 62
     4
370
    -2
100
AcDbLine
 10
929.7669480691135
 20
730.8213521794492
 30
0.0
 11
993.9702430301046
 21
730.8213521794492
 31
0.0
  0
LINE
  5
355
330
352
100
AcDbEntity
  8
09-01
 62
     4
370
    -2
100
AcDbLine
 10
940.7669480691136
 20
740.8213521794497
 30
0.0
 11
993.9702430301046
 21
740.8213521794497
 31
0.0
  0
LINE
  5
356
330
352
100
AcDbEntity
  8
09-01
 62
     4
370
    -2
100
AcDbLine
 10
988.9702430301046
 20
718.3213521794492
 30
0.0
 11
988.9702430301046
 21
705.8213521794492
 31
0.0
  0
LINE
  5
357
330
352
100
AcDbEntity
  8
09-01
 62
     4
370
    -2
100
AcDbLine
 10
988.9702430301046
 20
753.3213521794497
 30
0.0
 11
988.9702430301046
 21
765.8213521794497
 31
0.0
  0
MTEXT
  5
358
330
352
100
AcDbEntity
  8
09-01
 62
     1
100
AcDbMText
 10
976.9189438542786
 20
756.4976738780184
 30
0.0
 40
12.5
 41
0.0
 46
0.0
 71
     5
 72
     1
  1
10
 11
0.0000000000000001
 21
1.0
 31
0.0
 73
     1
 44
1.0
  0
LINE
  5
359
330
352
100
AcDbEntity
  8
09-01
 62
     4
370
    -2
100
AcDbLine
 10
988.9702430301046
 20
730.8213521794492
 30
0.0
 11
988.9702430301046
 21
740.8213521794497
 31
0.0
  0
SOLID
  5
35A
330
352
100
AcDbEntity
  8
09-01
 62
     4
100
AcDbTrace
 10
986.8869096967712
 20
718.3213521794492
 30
0.0
 11
991.053576363438
 21
718.3213521794492
 31
0.0
 12
988.9702430301046
 22
730.8213521794492
 32
0.0
 13
988.9702430301046
 23
730.8213521794492
 33
0.0
  0
SOLID
  5
35B
330
352
100
AcDbEntity
  8
09-01
 62
     4
100
AcDbTrace
 10
986.8869096967712
 20
753.3213521794497
 30
0.0
 11
991.053576363438
 21
753.3213521794497
 31
0.0
 12
988.9702430301046
 22
740.8213521794497
 32
0.0
 13
988.9702430301046
 23
740.8213521794497
 33
0.0
  0
POINT
  5
35C
330
352
100
AcDbEntity
  8
DEFPOINTS
 62
     0
100
AcDbPoint
 10
924.7669480691135
 20
730.8213521794492
 30
0.0
  0
POINT
  5
35D
330
352
100
AcDbEntity
  8
DEFPOINTS
 62
     0
100
AcDbPoint
 10
935.7669480691138
 20
740.8213521794497
 30
0.0
  0
POINT
  5
35E
330
352
100
AcDbEntity
  8
DEFPOINTS
 62
     0
100
AcDbPoint
 10
988.9702430301046
 20
740.8213521794497
 30
0.0
  0
ENDBLK
  5
35F
330
352
100
AcDbEntity
  8
0
100
AcDbBlockEnd
  0
BLOCK
  5
346
330
345
100
AcDbEntity
  8
0
100
AcDbBlockBegin
  2
*D15
 70
     1
 10
0.0
 20
0.0
 30
0.0
  3
*D15
  1

  0
LINE
  5
347
330
345
100
AcDbEntity
  8
09-01
 62
     4
370
    -2
100
AcDbLine
 10
940.7669480691136
 20
740.8213521794497
 30
0.0
 11
993.9702430301046
 21
740.8213521794497
 31
0.0
  0
LINE
  5
348
330
345
100
AcDbEntity
  8
09-01
 62
     4
370
    -2
100
AcDbLine
 10
940.7669480691136
 20
1286.82135217945
 30
0.0
 11
993.9702430301048
 21
1286.82135217945
 31
0.0
  0
LINE
  5
349
330
345
100
AcDbEntity
  8
09-01
 62
     4
370
    -2
100
AcDbLine
 10
988.9702430301046
 20
753.3213521794497
 30
0.0
 11
988.9702430301047
 21
1274.321352179449
 31
0.0
  0
SOLID
  5
34A
330
345
100
AcDbEntity
  8
09-01
 62
     4
100
AcDbTrace
 10
986.8869096967712
 20
753.3213521794497
 30
0.0
 11
991.053576363438
 21
753.3213521794497
 31
0.0
 12
988.9702430301046
 22
740.8213521794497
 32
0.0
 13
988.9702430301046
 23
740.8213521794497
 33
0.0
  0
SOLID
  5
34B
330
345
100
AcDbEntity
  8
09-01
 62
     4
100
AcDbTrace
 10
986.8869096967713
 20
1274.321352179449
 30
0.0
 11
991.0535763634381
 21
1274.321352179449
 31
0.0
 12
988.9702430301047
 22
1286.82135217945
 32
0.0
 13
988.9702430301047
 23
1286.82135217945
 33
0.0
  0
MTEXT
  5
34C
330
345
100
AcDbEntity
  8
09-01
 62
     1
100
AcDbMText
 10
977.5880806835834
 20
1013.82135217945
 30
0.0
 40
12.5
 41
0.0
 46
0.0
 71
     5
 72
     1
  1
546
 11
0.0000000000000001
 21
1.0
 31
0.0
 73
     1
 44
1.0
  0
POINT
  5
34D
330
345
100
AcDbEntity
  8
DEFPOINTS
 62
     0
100
AcDbPoint
 10
935.7669480691138
 20
740.8213521794497
 30
0.0
  0
POINT
  5
34E
330
345
100
AcDbEntity
  8
DEFPOINTS
 62
     0
100
AcDbPoint
 10
935.7669480691138
 20
1286.82135217945
 30
0.0
  0
POINT
  5
34F
330
345
100
AcDbEntity
  8
DEFPOINTS
 62
     0
100
AcDbPoint
 10
988.9702430301047
 20
1286.82135217945
 30
0.0
  0
ENDBLK
  5
350
330
345
100
AcDbEntity
  8
0
100
AcDbBlockEnd
  0
BLOCK
  5
337
330
336
100
AcDbEntity
  8
0
100
AcDbBlockBegin
  2
*D16
 70
     1
 10
0.0
 20
0.0
 30
0.0
  3
*D16
  1

  0
LINE
  5
338
330
336
100
AcDbEntity
  8
09-01
 62
     4
370
    -2
100
AcDbLine
 10
940.7669480691136
 20
1286.82135217945
 30
0.0
 11
993.9702430301048
 21
1286.82135217945
 31
0.0
  0
LINE
  5
339
330
336
100
AcDbEntity
  8
09-01
 62
     4
370
    -2
100
AcDbLine
 10
940.7669480691144
 20
1288.821352179449
 30
0.0
 11
993.9702430301048
 21
1288.821352179449
 31
0.0
  0
LINE
  5
33A
330
336
100
AcDbEntity
  8
09-01
 62
     4
370
    -2
100
AcDbLine
 10
988.9702430301047
 20
1274.321352179449
 30
0.0
 11
988.9702430301047
 21
1261.821352179449
 31
0.0
  0
LINE
  5
33B
330
336
100
AcDbEntity
  8
09-01
 62
     4
370
    -2
100
AcDbLine
 10
988.9702430301047
 20
1301.321352179449
 30
0.0
 11
988.9702430301047
 21
1313.821352179449
 31
0.0
  0
MTEXT
  5
33C
330
336
100
AcDbEntity
  8
09-01
 62
     1
100
AcDbMText
 10
978.7104597420007
 20
1267.997850187732
 30
0.0
 40
12.5
 41
0.0
 46
0.0
 71
     5
 72
     1
  1
2
 11
0.0000000000000001
 21
1.0
 31
0.0
 73
     1
 44
1.0
  0
LINE
  5
33D
330
336
100
AcDbEntity
  8
09-01
 62
     4
370
    -2
100
AcDbLine
 10
988.9702430301047
 20
1286.82135217945
 30
0.0
 11
988.9702430301047
 21
1288.821352179449
 31
0.0
  0
SOLID
  5
33E
330
336
100
AcDbEntity
  8
09-01
 62
     4
100
AcDbTrace
 10
986.8869096967713
 20
1274.321352179449
 30
0.0
 11
991.0535763634381
 21
1274.321352179449
 31
0.0
 12
988.9702430301047
 22
1286.82135217945
 32
0.0
 13
988.9702430301047
 23
1286.82135217945
 33
0.0
  0
SOLID
  5
33F
330
336
100
AcDbEntity
  8
09-01
 62
     4
100
AcDbTrace
 10
986.8869096967713
 20
1301.321352179449
 30
0.0
 11
991.0535763634381
 21
1301.321352179449
 31
0.0
 12
988.9702430301047
 22
1288.821352179449
 32
0.0
 13
988.9702430301047
 23
1288.821352179449
 33
0.0
  0
POINT
  5
340
330
336
100
AcDbEntity
  8
DEFPOINTS
 62
     0
100
AcDbPoint
 10
935.7669480691138
 20
1286.82135217945
 30
0.0
  0
POINT
  5
341
330
336
100
AcDbEntity
  8
DEFPOINTS
 62
     0
100
AcDbPoint
 10
935.7669480691143
 20
1288.821352179449
 30
0.0
  0
POINT
  5
342
330
336
100
AcDbEntity
  8
DEFPOINTS
 62
     0
100
AcDbPoint
 10
988.9702430301047
 20
1288.821352179449
 30
0.0
  0
ENDBLK
  5
343
330
336
100
AcDbEntity
  8
0
100
AcDbBlockEnd
  0
BLOCK
  5
32A
330
329
100
AcDbEntity
  8
0
100
AcDbBlockBegin
  2
*D17
 70
     1
 10
0.0
 20
0.0
 30
0.0
  3
*D17
  1

  0
LINE
  5
32B
330
329
100
AcDbEntity
  8
09-01
 62
     4
370
    -2
100
AcDbLine
 10
940.7669480691144
 20
1288.821352179449
 30
0.0
 11
993.9702430301048
 21
1288.821352179449
 31
0.0
  0
LINE
  5
32C
330
329
100
AcDbEntity
  8
09-01
 62
     4
370
    -2
100
AcDbLine
 10
940.7669480691135
 20
1328.821352179449
 30
0.0
 11
993.9702430301048
 21
1328.821352179449
 31
0.0
  0
LINE
  5
32D
330
329
100
AcDbEntity
  8
09-01
 62
     4
370
    -2
100
AcDbLine
 10
988.9702430301047
 20
1301.321352179449
 30
0.0
 11
988.9702430301047
 21
1316.321352179449
 31
0.0
  0
SOLID
  5
32E
330
329
100
AcDbEntity
  8
09-01
 62
     4
100
AcDbTrace
 10
986.8869096967713
 20
1301.321352179449
 30
0.0
 11
991.0535763634381
 21
1301.321352179449
 31
0.0
 12
988.9702430301047
 22
1288.821352179449
 32
0.0
 13
988.9702430301047
 23
1288.821352179449
 33
0.0
  0
SOLID
  5
32F
330
329
100
AcDbEntity
  8
09-01
 62
     4
100
AcDbTrace
 10
986.8869096967713
 20
1316.321352179449
 30
0.0
 11
991.0535763634381
 21
1316.321352179449
 31
0.0
 12
988.9702430301047
 22
1328.821352179449
 32
0.0
 13
988.9702430301047
 23
1328.821352179449
 33
0.0
  0
MTEXT
  5
330
330
329
100
AcDbEntity
  8
09-01
 62
     1
100
AcDbMText
 10
977.5880806835834
 20
1308.821352179449
 30
0.0
 40
12.5
 41
0.0
 46
0.0
 71
     5
 72
     1
  1
40
 11
0.0000000000000001
 21
1.0
 31
0.0
 73
     1
 44
1.0
  0
POINT
  5
331
330
329
100
AcDbEntity
  8
DEFPOINTS
 62
     0
100
AcDbPoint
 10
935.7669480691143
 20
1288.821352179449
 30
0.0
  0
POINT
  5
332
330
329
100
AcDbEntity
  8
DEFPOINTS
 62
     0
100
AcDbPoint
 10
935.7669480691134
 20
1328.821352179449
 30
0.0
  0
POINT
  5
333
330
329
100
AcDbEntity
  8
DEFPOINTS
 62
     0
100
AcDbPoint
 10
988.9702430301047
 20
1328.821352179449
 30
0.0
  0
ENDBLK
  5
334
330
329
100
AcDbEntity
  8
0
100
AcDbBlockEnd
  0
BLOCK
  5
31D
330
31C
100
AcDbEntity
  8
0
100
AcDbBlockBegin
  2
*D18
 70
     1
 10
0.0
 20
0.0
 30
0.0
  3
*D18
  1

  0
LINE
  5
31E
330
31C
100
AcDbEntity
  8
09-01
 62
     4
370
    -2
100
AcDbLine
 10
486.1240563300881
 20
730.8213521794492
 30
0.0
 11
529.1811387099373
 21
730.8213521794492
 31
0.0
  0
LINE
  5
31F
330
31C
100
AcDbEntity
  8
09-01
 62
     4
370
    -2
100
AcDbLine
 10
469.372769362399
 20
1013.821352179449
 30
0.0
 11
529.1811387099374
 21
1013.821352179449
 31
0.0
  0
LINE
  5
320
330
31C
100
AcDbEntity
  8
09-01
 62
     4
370
    -2
100
AcDbLine
 10
524.1811387099374
 20
743.3213521794492
 30
0.0
 11
524.1811387099374
 21
1001.321352179449
 31
0.0
  0
SOLID
  5
321
330
31C
100
AcDbEntity
  8
09-01
 62
     4
100
AcDbTrace
 10
522.097805376604
 20
743.3213521794492
 30
0.0
 11
526.2644720432708
 21
743.3213521794492
 31
0.0
 12
524.1811387099374
 22
730.8213521794492
 32
0.0
 13
524.1811387099374
 23
730.8213521794492
 33
0.0
  0
SOLID
  5
322
330
31C
100
AcDbEntity
  8
09-01
 62
     4
100
AcDbTrace
 10
522.0978053766041
 20
1001.321352179449
 30
0.0
 11
526.2644720432708
 21
1001.321352179449
 31
0.0
 12
524.1811387099374
 22
1013.821352179449
 32
0.0
 13
524.1811387099374
 23
1013.821352179449
 33
0.0
  0
MTEXT
  5
323
330
31C
100
AcDbEntity
  8
09-01
 62
     1
100
AcDbMText
 10
512.7947130619154
 20
872.3213521794493
 30
0.0
 40
12.5
 41
0.0
 46
0.0
 71
     5
 72
     1
  1
283
 11
0.0000000000000001
 21
1.0
 31
0.0
 73
     1
 44
1.0
  0
POINT
  5
324
330
31C
100
AcDbEntity
  8
DEFPOINTS
 62
     0
100
AcDbPoint
 10
481.1240563300881
 20
730.8213521794492
 30
0.0
  0
POINT
  5
325
330
31C
100
AcDbEntity
  8
DEFPOINTS
 62
     0
100
AcDbPoint
 10
464.372769362399
 20
1013.821352179449
 30
0.0
  0
POINT
  5
326
330
31C
100
AcDbEntity
  8
DEFPOINTS
 62
     0
100
AcDbPoint
 10
524.1811387099374
 20
1013.821352179449
 30
0.0
  0
ENDBLK
  5
327
330
31C
100
AcDbEntity
  8
0
100
AcDbBlockEnd
  0
BLOCK
  5
310
330
30F
100
AcDbEntity
  8
0
100
AcDbBlockBegin
  2
*D19
 70
     1
 10
0.0
 20
0.0
 30
0.0
  3
*D19
  1

  0
LINE
  5
311
330
30F
100
AcDbEntity
  8
09-01
 62
     4
370
    -2
100
AcDbLine
 10
183.1240563300881
 20
1233.766257092408
 30
0.0
 11
183.1240563300881
 21
1249.457670872744
 31
0.0
  0
LINE
  5
312
330
30F
100
AcDbEntity
  8
09-01
 62
     4
370
    -2
100
AcDbLine
 10
244.1240563300883
 20
1236.321352179449
 30
0.0
 11
244.1240563300883
 21
1249.457670872744
 31
0.0
  0
LINE
  5
313
330
30F
100
AcDbEntity
  8
09-01
 62
     4
370
    -2
100
AcDbLine
 10
195.6240563300881
 20
1244.457670872744
 30
0.0
 11
231.6240563300883
 21
1244.457670872744
 31
0.0
  0
SOLID
  5
314
330
30F
100
AcDbEntity
  8
09-01
 62
     4
100
AcDbTrace
 10
195.6240563300881
 20
1246.541004206077
 30
0.0
 11
195.6240563300881
 21
1242.374337539411
 31
0.0
 12
183.1240563300881
 22
1244.457670872744
 32
0.0
 13
183.1240563300881
 23
1244.457670872744
 33
0.0
  0
SOLID
  5
315
330
30F
100
AcDbEntity
  8
09-01
 62
     4
100
AcDbTrace
 10
231.6240563300883
 20
1246.541004206077
 30
0.0
 11
231.6240563300883
 21
1242.374337539411
 31
0.0
 12
244.1240563300883
 22
1244.457670872744
 32
0.0
 13
244.1240563300883
 23
1244.457670872744
 33
0.0
  0
MTEXT
  5
316
330
30F
100
AcDbEntity
  8
09-01
 62
     1
100
AcDbMText
 10
213.6240563300882
 20
1255.839833219265
 30
0.0
 40
12.5
 41
0.0
 46
0.0
 71
     5
 72
     1
  1
61
 73
     1
 44
1.0
  0
POINT
  5
317
330
30F
100
AcDbEntity
  8
DEFPOINTS
 62
     0
100
AcDbPoint
 10
183.1240563300881
 20
1228.766257092408
 30
0.0
  0
POINT
  5
318
330
30F
100
AcDbEntity
  8
DEFPOINTS
 62
     0
100
AcDbPoint
 10
244.1240563300883
 20
1231.321352179449
 30
0.0
  0
POINT
  5
319
330
30F
100
AcDbEntity
  8
DEFPOINTS
 62
     0
100
AcDbPoint
 10
244.1240563300883
 20
1244.457670872744
 30
0.0
  0
ENDBLK
  5
31A
330
30F
100
AcDbEntity
  8
0
100
AcDbBlockEnd
  0
BLOCK
  5
303
330
302
100
AcDbEntity
  8
0
100
AcDbBlockBegin
  2
*D20
 70
     1
 10
0.0
 20
0.0
 30
0.0
  3
*D20
  1

  0
LINE
  5
304
330
302
100
AcDbEntity
  8
09-01
 62
     4
370
    -2
100
AcDbLine
 10
244.1240563300883
 20
1236.321352179449
 30
0.0
 11
244.1240563300883
 21
1249.457670872744
 31
0.0
  0
LINE
  5
305
330
302
100
AcDbEntity
  8
09-01
 62
     4
370
    -2
100
AcDbLine
 10
420.1240563300883
 20
1236.321352179449
 30
0.0
 11
420.1240563300883
 21
1249.457670872744
 31
0.0
  0
LINE
  5
306
330
302
100
AcDbEntity
  8
09-01
 62
     4
370
    -2
100
AcDbLine
 10
256.6240563300884
 20
1244.457670872744
 30
0.0
 11
407.6240563300883
 21
1244.457670872744
 31
0.0
  0
SOLID
  5
307
330
302
100
AcDbEntity
  8
09-01
 62
     4
100
AcDbTrace
 10
256.6240563300884
 20
1246.541004206077
 30
0.0
 11
256.6240563300884
 21
1242.374337539411
 31
0.0
 12
244.1240563300883
 22
1244.457670872744
 32
0.0
 13
244.1240563300883
 23
1244.457670872744
 33
0.0
  0
SOLID
  5
308
330
302
100
AcDbEntity
  8
09-01
 62
     4
100
AcDbTrace
 10
407.6240563300883
 20
1246.541004206077
 30
0.0
 11
407.6240563300883
 21
1242.374337539411
 31
0.0
 12
420.1240563300883
 22
1244.457670872744
 32
0.0
 13
420.1240563300883
 23
1244.457670872744
 33
0.0
  0
MTEXT
  5
309
330
302
100
AcDbEntity
  8
09-01
 62
     1
100
AcDbMText
 10
332.1240563300884
 20
1255.839833219265
 30
0.0
 40
12.5
 41
0.0
 46
0.0
 71
     5
 72
     1
  1
176
 73
     1
 44
1.0
  0
POINT
  5
30A
330
302
100
AcDbEntity
  8
DEFPOINTS
 62
     0
100
AcDbPoint
 10
244.1240563300883
 20
1231.321352179449
 30
0.0
  0
POINT
  5
30B
330
302
100
AcDbEntity
  8
DEFPOINTS
 62
     0
100
AcDbPoint
 10
420.1240563300883
 20
1231.321352179449
 30
0.0
  0
POINT
  5
30C
330
302
100
AcDbEntity
  8
DEFPOINTS
 62
     0
100
AcDbPoint
 10
420.1240563300883
 20
1244.457670872744
 30
0.0
  0
ENDBLK
  5
30D
330
302
100
AcDbEntity
  8
0
100
AcDbBlockEnd
  0
BLOCK
  5
2F6
330
2F5
100
AcDbEntity
  8
0
100
AcDbBlockBegin
  2
*D21
 70
     1
 10
0.0
 20
0.0
 30
0.0
  3
*D21
  1

  0
LINE
  5
2F7
330
2F5
100
AcDbEntity
  8
09-01
 62
     4
370
    -2
100
AcDbLine
 10
420.1240563300883
 20
1236.321352179449
 30
0.0
 11
420.1240563300883
 21
1249.457670872744
 31
0.0
  0
LINE
  5
2F8
330
2F5
100
AcDbEntity
  8
09-01
 62
     4
370
    -2
100
AcDbLine
 10
481.1240563300881
 20
1246.131538812355
 30
0.0
 11
481.1240563300881
 21
1249.457670872744
 31
0.0
  0
LINE
  5
2F9
330
2F5
100
AcDbEntity
  8
09-01
 62
     4
370
    -2
100
AcDbLine
 10
432.6240563300883
 20
1244.457670872744
 30
0.0
 11
468.6240563300881
 21
1244.457670872744
 31
0.0
  0
SOLID
  5
2FA
330
2F5
100
AcDbEntity
  8
09-01
 62
     4
100
AcDbTrace
 10
432.6240563300883
 20
1246.541004206077
 30
0.0
 11
432.6240563300883
 21
1242.374337539411
 31
0.0
 12
420.1240563300883
 22
1244.457670872744
 32
0.0
 13
420.1240563300883
 23
1244.457670872744
 33
0.0
  0
SOLID
  5
2FB
330
2F5
100
AcDbEntity
  8
09-01
 62
     4
100
AcDbTrace
 10
468.6240563300881
 20
1246.541004206077
 30
0.0
 11
468.6240563300881
 21
1242.374337539411
 31
0.0
 12
481.1240563300881
 22
1244.457670872744
 32
0.0
 13
481.1240563300881
 23
1244.457670872744
 33
0.0
  0
MTEXT
  5
2FC
330
2F5
100
AcDbEntity
  8
09-01
 62
     1
100
AcDbMText
 10
450.6240563300882
 20
1255.839833219265
 30
0.0
 40
12.5
 41
0.0
 46
0.0
 71
     5
 72
     1
  1
61
 73
     1
 44
1.0
  0
POINT
  5
2FD
330
2F5
100
AcDbEntity
  8
DEFPOINTS
 62
     0
100
AcDbPoint
 10
420.1240563300883
 20
1231.321352179449
 30
0.0
  0
POINT
  5
2FE
330
2F5
100
AcDbEntity
  8
DEFPOINTS
 62
     0
100
AcDbPoint
 10
481.1240563300881
 20
1241.131538812355
 30
0.0
  0
POINT
  5
2FF
330
2F5
100
AcDbEntity
  8
DEFPOINTS
 62
     0
100
AcDbPoint
 10
481.1240563300881
 20
1244.457670872744
 30
0.0
  0
ENDBLK
  5
300
330
2F5
100
AcDbEntity
  8
0
100
AcDbBlockEnd
  0
BLOCK
  5
2E9
330
2E8
100
AcDbEntity
  8
0
100
AcDbBlockBegin
  2
*D22
 70
     1
 10
0.0
 20
0.0
 30
0.0
  3
*D22
  1

  0
LINE
  5
2EA
330
2E8
100
AcDbEntity
  8
09-01
 62
     4
370
    -2
100
AcDbLine
 10
252.6240563300883
 20
1227.821352179449
 30
0.0
 11
277.1986633746861
 21
1227.821352179449
 31
0.0
  0
LINE
  5
2EB
330
2E8
100
AcDbEntity
  8
09-01
 62
     4
370
    -2
100
AcDbLine
 10
252.57296444945
 20
1328.82135217945
 30
0.0
 11
277.1986633746861
 21
1328.82135217945
 31
0.0
  0
LINE
  5
2EC
330
2E8
100
AcDbEntity
  8
09-01
 62
     4
370
    -2
100
AcDbLine
 10
272.1986633746861
 20
1240.321352179449
 30
0.0
 11
272.1986633746861
 21
1316.32135217945
 31
0.0
  0
MTEXT
  5
2ED
330
2E8
100
AcDbEntity
  8
09-01
 62
     1
100
AcDbMText
 10
260.7344670748286
 20
1270.90228688392
 30
0.0
 40
12.5
 41
0.0
 46
0.0
 71
     5
 72
     1
  1
101
 11
0.0000000000000001
 21
1.0
 31
0.0
 73
     1
 44
1.0
  0
SOLID
  5
2EE
330
2E8
100
AcDbEntity
  8
09-01
 62
     4
100
AcDbTrace
 10
270.1153300413528
 20
1240.321352179449
 30
0.0
 11
274.2819967080194
 21
1240.321352179449
 31
0.0
 12
272.1986633746861
 22
1227.821352179449
 32
0.0
 13
272.1986633746861
 23
1227.821352179449
 33
0.0
  0
SOLID
  5
2EF
330
2E8
100
AcDbEntity
  8
09-01
 62
     4
100
AcDbTrace
 10
270.1153300413528
 20
1316.32135217945
 30
0.0
 11
274.2819967080194
 21
1316.32135217945
 31
0.0
 12
272.1986633746861
 22
1328.82135217945
 32
0.0
 13
272.1986633746861
 23
1328.82135217945
 33
0.0
  0
POINT
  5
2F0
330
2E8
100
AcDbEntity
  8
DEFPOINTS
 62
     0
100
AcDbPoint
 10
247.6240563300883
 20
1227.821352179449
 30
0.0
  0
POINT
  5
2F1
330
2E8
100
AcDbEntity
  8
DEFPOINTS
 62
     0
100
AcDbPoint
 10
247.57296444945
 20
1328.82135217945
 30
0.0
  0
POINT
  5
2F2
330
2E8
100
AcDbEntity
  8
DEFPOINTS
 62
     0
100
AcDbPoint
 10
272.1986633746861
 20
1328.82135217945
 30
0.0
  0
ENDBLK
  5
2F3
330
2E8
100
AcDbEntity
  8
0
100
AcDbBlockEnd
  0
BLOCK
  5
2DC
330
2DB
100
AcDbEntity
  8
0
100
AcDbBlockBegin
  2
*D23
 70
     1
 10
0.0
 20
0.0
 30
0.0
  3
*D23
  1

  0
LINE
  5
2DD
330
2DB
100
AcDbEntity
  8
09-01
 62
     4
370
    -2
100
AcDbLine
 10
252.6240563300883
 20
1227.821352179449
 30
0.0
 11
277.1986633746861
 21
1227.821352179449
 31
0.0
  0
LINE
  5
2DE
330
2DB
100
AcDbEntity
  8
09-01
 62
     4
370
    -2
100
AcDbLine
 10
252.6240563300879
 20
830.8213521794492
 30
0.0
 11
277.198663374686
 21
830.8213521794492
 31
0.0
  0
LINE
  5
2DF
330
2DB
100
AcDbEntity
  8
09-01
 62
     4
370
    -2
100
AcDbLine
 10
272.1986633746861
 20
1215.321352179449
 30
0.0
 11
272.198663374686
 21
843.3213521794492
 31
0.0
  0
MTEXT
  5
2E0
330
2DB
100
AcDbEntity
  8
09-01
 62
     1
100
AcDbMText
 10
259.9499139266996
 20
1036.735162131045
 30
0.0
 40
12.5
 41
0.0
 46
0.0
 71
     5
 72
     1
  1
397
 11
0.0000000000000001
 21
1.0
 31
0.0
 73
     1
 44
1.0
  0
SOLID
  5
2E1
330
2DB
100
AcDbEntity
  8
09-01
 62
     4
100
AcDbTrace
 10
270.1153300413528
 20
1215.321352179449
 30
0.0
 11
274.2819967080194
 21
1215.321352179449
 31
0.0
 12
272.1986633746861
 22
1227.821352179449
 32
0.0
 13
272.1986633746861
 23
1227.821352179449
 33
0.0
  0
SOLID
  5
2E2
330
2DB
100
AcDbEntity
  8
09-01
 62
     4
100
AcDbTrace
 10
270.1153300413527
 20
843.3213521794492
 30
0.0
 11
274.2819967080194
 21
843.3213521794492
 31
0.0
 12
272.198663374686
 22
830.8213521794492
 32
0.0
 13
272.198663374686
 23
830.8213521794492
 33
0.0
  0
POINT
  5
2E3
330
2DB
100
AcDbEntity
  8
DEFPOINTS
 62
     0
100
AcDbPoint
 10
247.6240563300883
 20
1227.821352179449
 30
0.0
  0
POINT
  5
2E4
330
2DB
100
AcDbEntity
  8
DEFPOINTS
 62
     0
100
AcDbPoint
 10
247.6240563300879
 20
830.8213521794492
 30
0.0
  0
POINT
  5
2E5
330
2DB
100
AcDbEntity
  8
DEFPOINTS
 62
     0
100
AcDbPoint
 10
272.198663374686
 20
830.8213521794492
 30
0.0
  0
ENDBLK
  5
2E6
330
2DB
100
AcDbEntity
  8
0
100
AcDbBlockEnd
  0
BLOCK
  5
2CD
330
2CC
100
AcDbEntity
  8
0
100
AcDbBlockBegin
  2
*D24
 70
     1
 10
0.0
 20
0.0
 30
0.0
  3
*D24
  1

  0
LINE
  5
2CE
330
2CC
100
AcDbEntity
  8
09-01
 62
     4
370
    -2
100
AcDbLine
 10
411.6240563300883
 20
1227.821352179449
 30
0.0
 11
398.542757799493
 21
1227.821352179449
 31
0.0
  0
LINE
  5
2CF
330
2CC
100
AcDbEntity
  8
09-01
 62
     4
370
    -2
100
AcDbLine
 10
407.8740563300883
 20
1215.821352179449
 30
0.0
 11
398.542757799493
 21
1215.821352179449
 31
0.0
  0
LINE
  5
2D0
330
2CC
100
AcDbEntity
  8
09-01
 62
     4
370
    -2
100
AcDbLine
 10
403.5427577994929
 20
1240.321352179449
 30
0.0
 11
403.5427577994929
 21
1252.821352179449
 31
0.0
  0
LINE
  5
2D1
330
2CC
100
AcDbEntity
  8
09-01
 62
     4
370
    -2
100
AcDbLine
 10
403.5427577994929
 20
1203.321352179449
 30
0.0
 11
403.5427577994929
 21
1190.821352179449
 31
0.0
  0
MTEXT
  5
2D2
330
2CC
100
AcDbEntity
  8
09-01
 62
     1
100
AcDbMText
 10
394.4335825016102
 20
1192.805003845271
 30
0.0
 40
12.5
 41
0.0
 46
0.0
 71
     5
 72
     1
  1
12
 11
0.0000000000000001
 21
1.0
 31
0.0
 73
     1
 44
1.0
  0
LINE
  5
2D3
330
2CC
100
AcDbEntity
  8
09-01
 62
     4
370
    -2
100
AcDbLine
 10
403.5427577994929
 20
1227.821352179449
 30
0.0
 11
403.5427577994929
 21
1215.821352179449
 31
0.0
  0
SOLID
  5
2D4
330
2CC
100
AcDbEntity
  8
09-01
 62
     4
100
AcDbTrace
 10
401.4594244661596
 20
1240.321352179449
 30
0.0
 11
405.6260911328262
 21
1240.321352179449
 31
0.0
 12
403.5427577994929
 22
1227.821352179449
 32
0.0
 13
403.5427577994929
 23
1227.821352179449
 33
0.0
  0
SOLID
  5
2D5
330
2CC
100
AcDbEntity
  8
09-01
 62
     4
100
AcDbTrace
 10
401.4594244661596
 20
1203.321352179449
 30
0.0
 11
405.6260911328262
 21
1203.321352179449
 31
0.0
 12
403.5427577994929
 22
1215.821352179449
 32
0.0
 13
403.5427577994929
 23
1215.821352179449
 33
0.0
  0
POINT
  5
2D6
330
2CC
100
AcDbEntity
  8
DEFPOINTS
 62
     0
100
AcDbPoint
 10
416.6240563300883
 20
1227.821352179449
 30
0.0
  0
POINT
  5
2D7
330
2CC
100
AcDbEntity
  8
DEFPOINTS
 62
     0
100
AcDbPoint
 10
412.8740563300883
 20
1215.821352179449
 30
0.0
  0
POINT
  5
2D8
330
2CC
100
AcDbEntity
  8
DEFPOINTS
 62
     0
100
AcDbPoint
 10
403.5427577994929
 20
1215.821352179449
 30
0.0
  0
ENDBLK
  5
2D9
330
2CC
100
AcDbEntity
  8
0
100
AcDbBlockEnd
  0
BLOCK
  5
2BE
330
2BD
100
AcDbEntity
  8
0
100
AcDbBlockBegin
  2
*D25
 70
     1
 10
0.0
 20
0.0
 30
0.0
  3
*D25
  1

  0
LINE
  5
2BF
330
2BD
100
AcDbEntity
  8
09-01
 62
     4
370
    -2
100
AcDbLine
 10
417.6240563300878
 20
835.8213521794493
 30
0.0
 11
417.6240563300878
 21
848.8806023111362
 31
0.0
  0
LINE
  5
2C0
330
2BD
100
AcDbEntity
  8
09-01
 62
     4
370
    -2
100
AcDbLine
 10
422.6240563300879
 20
835.8213521794493
 30
0.0
 11
422.6240563300879
 21
848.8806023111362
 31
0.0
  0
LINE
  5
2C1
330
2BD
100
AcDbEntity
  8
09-01
 62
     4
370
    -2
100
AcDbLine
 10
405.1240563300878
 20
843.8806023111361
 30
0.0
 11
392.6240563300879
 21
843.8806023111361
 31
0.0
  0
LINE
  5
2C2
330
2BD
100
AcDbEntity
  8
09-01
 62
     4
370
    -2
100
AcDbLine
 10
435.1240563300879
 20
843.8806023111361
 30
0.0
 11
447.6240563300879
 21
843.8806023111361
 31
0.0
  0
MTEXT
  5
2C3
330
2BD
100
AcDbEntity
  8
09-01
 62
     1
100
AcDbMText
 10
399.6310029156381
 20
852.511938548189
 30
0.0
 40
12.5
 41
0.0
 46
0.0
 71
     5
 72
     1
  1
5
 73
     1
 44
1.0
  0
LINE
  5
2C4
330
2BD
100
AcDbEntity
  8
09-01
 62
     4
370
    -2
100
AcDbLine
 10
417.6240563300878
 20
843.8806023111361
 30
0.0
 11
422.6240563300879
 21
843.8806023111361
 31
0.0
  0
SOLID
  5
2C5
330
2BD
100
AcDbEntity
  8
09-01
 62
     4
100
AcDbTrace
 10
405.1240563300878
 20
845.9639356444695
 30
0.0
 11
405.1240563300878
 21
841.7972689778027
 31
0.0
 12
417.6240563300878
 22
843.8806023111361
 32
0.0
 13
417.6240563300878
 23
843.8806023111361
 33
0.0
  0
SOLID
  5
2C6
330
2BD
100
AcDbEntity
  8
09-01
 62
     4
100
AcDbTrace
 10
435.1240563300879
 20
845.9639356444695
 30
0.0
 11
435.1240563300879
 21
841.7972689778027
 31
0.0
 12
422.6240563300879
 22
843.8806023111361
 32
0.0
 13
422.6240563300879
 23
843.8806023111361
 33
0.0
  0
POINT
  5
2C7
330
2BD
100
AcDbEntity
  8
DEFPOINTS
 62
     0
100
AcDbPoint
 10
417.6240563300878
 20
830.8213521794492
 30
0.0
  0
POINT
  5
2C8
330
2BD
100
AcDbEntity
  8
DEFPOINTS
 62
     0
100
AcDbPoint
 10
422.6240563300879
 20
830.8213521794492
 30
0.0
  0
POINT
  5
2C9
330
2BD
100
AcDbEntity
  8
DEFPOINTS
 62
     0
100
AcDbPoint
 10
422.6240563300879
 20
843.8806023111361
 30
0.0
  0
ENDBLK
  5
2CA
330
2BD
100
AcDbEntity
  8
0
100
AcDbBlockEnd
  0
BLOCK
  5
2AD
330
2AC
100
AcDbEntity
  8
0
100
AcDbBlockBegin
  2
*D26
 70
     1
 10
0.0
 20
0.0
 30
0.0
  3
*D26
  1

  0
LINE
  5
2AE
330
2AC
100
AcDbEntity
  8
09-01
 62
     4
370
    -2
100
AcDbLine
 10
413.8740563300879
 20
813.8213521794492
 30
0.0
 11
413.8740563300879
 21
782.1297809142785
 31
0.0
  0
LINE
  5
2AF
330
2AC
100
AcDbEntity
  8
09-01
 62
     4
370
    -2
100
AcDbLine
 10
426.3740563300879
 20
813.8213521794492
 30
0.0
 11
426.3740563300879
 21
782.1297809142785
 31
0.0
  0
LINE
  5
2B0
330
2AC
100
AcDbEntity
  8
09-01
 62
     4
370
    -2
100
AcDbLine
 10
401.3740563300879
 20
787.1297809142784
 30
0.0
 11
388.8740563300879
 21
787.1297809142784
 31
0.0
  0
LINE
  5
2B1
330
2AC
100
AcDbEntity
  8
09-01
 62
     4
370
    -2
100
AcDbLine
 10
438.8740563300879
 20
787.1297809142784
 30
0.0
 11
451.3740563300879
 21
787.1297809142784
 31
0.0
  0
MTEXT
  5
2B2
330
2AC
100
AcDbEntity
  8
09-01
 62
     1
100
AcDbMText
 10
395.5333066269456
 20
799.0522674734498
 30
0.0
 40
12.5
 41
0.0
 46
0.0
 71
     5
 72
     1
  1
12.5
 73
     1
 44
1.0
  0
LINE
  5
2B3
330
2AC
100
AcDbEntity
  8
09-01
 62
     4
370
    -2
100
AcDbLine
 10
413.8740563300879
 20
787.1297809142784
 30
0.0
 11
426.3740563300879
 21
787.1297809142784
 31
0.0
  0
SOLID
  5
2B4
330
2AC
100
AcDbEntity
  8
09-01
 62
     4
100
AcDbTrace
 10
401.3740563300879
 20
789.2131142476118
 30
0.0
 11
401.3740563300879
 21
785.0464475809451
 31
0.0
 12
413.8740563300879
 22
787.1297809142784
 32
0.0
 13
413.8740563300879
 23
787.1297809142784
 33
0.0
  0
SOLID
  5
2B5
330
2AC
100
AcDbEntity
  8
09-01
 62
     4
100
AcDbTrace
 10
438.8740563300879
 20
789.2131142476118
 30
0.0
 11
438.8740563300879
 21
785.0464475809451
 31
0.0
 12
426.3740563300879
 22
787.1297809142784
 32
0.0
 13
426.3740563300879
 23
787.1297809142784
 33
0.0
  0
POINT
  5
2B6
330
2AC
100
AcDbEntity
  8
DEFPOINTS
 62
     0
100
AcDbPoint
 10
413.8740563300879
 20
818.8213521794493
 30
0.0
  0
POINT
  5
2B8
330
2AC
100
AcDbEntity
  8
DEFPOINTS
 62
     0
100
AcDbPoint
 10
426.3740563300879
 20
818.8213521794493
 30
0.0
  0
POINT
  5
2B9
330
2AC
100
AcDbEntity
  8
DEFPOINTS
 62
     0
100
AcDbPoint
 10
426.3740563300879
 20
787.1297809142784
 30
0.0
  0
ENDBLK
  5
2BA
330
2AC
100
AcDbEntity
  8
0
100
AcDbBlockEnd
  0
BLOCK
  5
14C
330
14B
100
AcDbEntity
  8
0
100
AcDbBlockBegin
  2
Drahtkorb 023180-V
 70
     0
 10
0.0
 20
0.0
 30
0.0
  3
Drahtkorb 023180-V
  1

  0
LINE
  5
14D
330
14B
100
AcDbEntity
  8
0
100
AcDbLine
 10
-130.0000000000041
 20
19.99999999999977
 30
0.0
 11
129.9999999999959
 21
19.99999999999977
 31
0.0
  0
LINE
  5
14E
330
14B
100
AcDbEntity
  8
0
100
AcDbLine
 10
-130.0000000000041
 20
15.99999999999977
 30
0.0
 11
129.9999999999959
 21
15.99999999999977
 31
0.0
  0
LINE
  5
14F
330
14B
100
AcDbEntity
  8
0
100
AcDbLine
 10
-130.0
 20
69.99999999999977
 30
0.0
 11
130.0
 21
69.99999999999977
 31
0.0
  0
LINE
  5
150
330
14B
100
AcDbEntity
  8
0
100
AcDbLine
 10
-130.0
 20
65.99999999999977
 30
0.0
 11
130.0
 21
65.99999999999977
 31
0.0
  0
LINE
  5
151
330
14B
100
AcDbEntity
  8
0
100
AcDbLine
 10
-130.0
 20
119.9999999999997
 30
0.0
 11
130.0
 21
119.9999999999997
 31
0.0
  0
LINE
  5
152
330
14B
100
AcDbEntity
  8
0
100
AcDbLine
 10
-130.0
 20
115.9999999999997
 30
0.0
 11
130.0
 21
115.9999999999997
 31
0.0
  0
LINE
  5
153
330
14B
100
AcDbEntity
  8
0
100
AcDbLine
 10
-130.0
 20
170.0
 30
0.0
 11
130.0
 21
170.0
 31
0.0
  0
LINE
  5
154
330
14B
100
AcDbEntity
  8
0
100
AcDbLine
 10
-130.0
 20
166.0
 30
0.0
 11
130.0
 21
166.0
 31
0.0
  0
LINE
  5
155
330
14B
100
AcDbEntity
  8
0
100
AcDbLine
 10
-130.0
 20
221.0
 30
0.0
 11
130.0
 21
221.0
 31
0.0
  0
LINE
  5
156
330
14B
100
AcDbEntity
  8
0
100
AcDbLine
 10
-130.0
 20
217.0
 30
0.0
 11
130.0
 21
217.0
 31
0.0
  0
LINE
  5
157
330
14B
100
AcDbEntity
  8
0
100
AcDbLine
 10
-122.0
 20
3.999999999999772
 30
0.0
 11
122.0
 21
4.0
 31
0.0
  0
LINE
  5
158
330
14B
100
AcDbEntity
  8
0
100
AcDbLine
 10
-122.0
 20
0.0
 30
0.0
 11
122.0
 21
0.0
 31
0.0
  0
ARC
  5
159
330
14B
100
AcDbEntity
  8
0
100
AcDbCircle
 10
-130.0000000000041
 20
17.99999999999977
 30
0.0
 40
2.0
100
AcDbArc
 50
90.0
 51
270.0
  0
ARC
  5
15A
330
14B
100
AcDbEntity
  8
0
100
AcDbCircle
 10
-122.0
 20
6.0
 30
0.0
 40
6.0
100
AcDbArc
 50
180.0
 51
270.0
  0
LINE
  5
15B
330
14B
100
AcDbEntity
  8
0
100
AcDbLine
 10
-128.0
 20
6.0
 30
0.0
 11
-127.9999999999991
 21
15.99999999999988
 31
0.0
  0
LINE
  5
15C
330
14B
100
AcDbEntity
  8
0
100
AcDbLine
 10
-127.9999999999991
 20
19.99999999999988
 30
0.0
 11
-127.9999999999995
 21
65.99999999999977
 31
0.0
  0
LINE
  5
15D
330
14B
100
AcDbEntity
  8
0
100
AcDbLine
 10
-127.9999999999995
 20
69.99999999999977
 30
0.0
 11
-127.9999999999995
 21
115.9999999999999
 31
0.0
  0
LINE
  5
15E
330
14B
100
AcDbEntity
  8
0
100
AcDbLine
 10
-127.9999999999995
 20
119.9999999999999
 30
0.0
 11
-127.9999999999995
 21
166.0
 31
0.0
  0
LINE
  5
15F
330
14B
100
AcDbEntity
  8
0
100
AcDbLine
 10
-127.9999999999995
 20
170.0
 30
0.0
 11
-128.0
 21
217.0000000000001
 31
0.0
  0
LINE
  5
160
330
14B
100
AcDbEntity
  8
0
100
AcDbLine
 10
-128.0
 20
221.0000000000001
 30
0.0
 11
-128.0000000000004
 21
268.0
 31
0.0
  0
LINE
  5
161
330
14B
100
AcDbEntity
  8
0
100
AcDbLine
 10
-128.0000000000004
 20
272.0
 30
0.0
 11
-128.0000000000009
 21
319.0
 31
0.0
  0
LINE
  5
162
330
14B
100
AcDbEntity
  8
0
100
AcDbLine
 10
-128.0000000000004
 20
323.0
 30
0.0
 11
-128.0000000000004
 21
370.0
 31
0.0
  0
LINE
  5
163
330
14B
100
AcDbEntity
  8
0
100
AcDbLine
 10
-128.0
 20
374.0
 30
0.0
 11
-127.9999999999995
 21
421.0
 31
0.0
  0
LINE
  5
164
330
14B
100
AcDbEntity
  8
0
100
AcDbLine
 10
-127.9999999999995
 20
425.0
 30
0.0
 11
-127.9999999999995
 21
472.0
 31
0.0
  0
ARC
  5
165
330
14B
100
AcDbEntity
  8
0
100
AcDbCircle
 10
-122.0
 20
5.999999999999772
 30
0.0
 40
2.0
100
AcDbArc
 50
180.0
 51
270.0
  0
LINE
  5
166
330
14B
100
AcDbEntity
  8
0
100
AcDbLine
 10
-124.0
 20
5.999999999999772
 30
0.0
 11
-123.9999999999995
 21
15.99999999999988
 31
0.0
  0
LINE
  5
167
330
14B
100
AcDbEntity
  8
0
100
AcDbLine
 10
-123.9999999999995
 20
19.99999999999988
 30
0.0
 11
-124.0
 21
65.99999999999977
 31
0.0
  0
LINE
  5
168
330
14B
100
AcDbEntity
  8
0
100
AcDbLine
 10
-124.0
 20
69.99999999999977
 30
0.0
 11
-124.0
 21
115.9999999999999
 31
0.0
  0
LINE
  5
169
330
14B
100
AcDbEntity
  8
0
100
AcDbLine
 10
-124.0
 20
119.9999999999999
 30
0.0
 11
-124.0
 21
166.0
 31
0.0
  0
LINE
  5
16A
330
14B
100
AcDbEntity
  8
0
100
AcDbLine
 10
-124.0
 20
170.0
 30
0.0
 11
-124.0
 21
217.0000000000001
 31
0.0
  0
LINE
  5
16B
330
14B
100
AcDbEntity
  8
0
100
AcDbLine
 10
-124.0
 20
221.0000000000001
 30
0.0
 11
-124.0000000000004
 21
268.0
 31
0.0
  0
LINE
  5
16C
330
14B
100
AcDbEntity
  8
0
100
AcDbLine
 10
-124.0000000000004
 20
272.0
 30
0.0
 11
-124.0000000000009
 21
319.0
 31
0.0
  0
LINE
  5
16D
330
14B
100
AcDbEntity
  8
0
100
AcDbLine
 10
-124.0000000000009
 20
323.0
 30
0.0
 11
-124.0000000000013
 21
370.0
 31
0.0
  0
LINE
  5
16E
330
14B
100
AcDbEntity
  8
0
100
AcDbLine
 10
-124.0000000000009
 20
374.0
 30
0.0
 11
-124.0000000000004
 21
421.0
 31
0.0
  0
LINE
  5
16F
330
14B
100
AcDbEntity
  8
0
100
AcDbLine
 10
-124.0000000000004
 20
425.0
 30
0.0
 11
-124.0
 21
472.0
 31
0.0
  0
LINE
  5
170
330
14B
100
AcDbEntity
  8
0
100
AcDbLine
 10
-98.0
 20
6.0
 30
0.0
 11
-97.9999999999991
 21
15.99999999999988
 31
0.0
  0
LINE
  5
171
330
14B
100
AcDbEntity
  8
0
100
AcDbLine
 10
-97.9999999999991
 20
19.99999999999988
 30
0.0
 11
-97.99999999999954
 21
65.99999999999977
 31
0.0
  0
LINE
  5
172
330
14B
100
AcDbEntity
  8
0
100
AcDbLine
 10
-97.99999999999954
 20
69.99999999999977
 30
0.0
 11
-97.99999999999954
 21
115.9999999999999
 31
0.0
  0
LINE
  5
173
330
14B
100
AcDbEntity
  8
0
100
AcDbLine
 10
-97.99999999999954
 20
119.9999999999999
 30
0.0
 11
-97.99999999999954
 21
166.0
 31
0.0
  0
LINE
  5
174
330
14B
100
AcDbEntity
  8
0
100
AcDbLine
 10
-97.99999999999954
 20
170.0
 30
0.0
 11
-98.0
 21
217.0
 31
0.0
  0
LINE
  5
175
330
14B
100
AcDbEntity
  8
0
100
AcDbLine
 10
-98.0
 20
221.0
 30
0.0
 11
-98.0
 21
268.0
 31
0.0
  0
LINE
  5
176
330
14B
100
AcDbEntity
  8
0
100
AcDbLine
 10
-98.0
 20
272.0
 30
0.0
 11
-98.00000000000046
 21
319.0
 31
0.0
  0
LINE
  5
177
330
14B
100
AcDbEntity
  8
0
100
AcDbLine
 10
-98.00000000000046
 20
323.0
 30
0.0
 11
-98.00000000000046
 21
370.0
 31
0.0
  0
LINE
  5
178
330
14B
100
AcDbEntity
  8
0
100
AcDbLine
 10
-98.00000000000046
 20
374.0
 30
0.0
 11
-98.0
 21
421.0
 31
0.0
  0
LINE
  5
179
330
14B
100
AcDbEntity
  8
0
100
AcDbLine
 10
-98.0
 20
425.0
 30
0.0
 11
-97.99999999999954
 21
472.0
 31
0.0
  0
LINE
  5
17A
330
14B
100
AcDbEntity
  8
0
100
AcDbLine
 10
-102.0
 20
6.0
 30
0.0
 11
-101.9999999999991
 21
15.99999999999988
 31
0.0
  0
LINE
  5
17B
330
14B
100
AcDbEntity
  8
0
100
AcDbLine
 10
-101.9999999999991
 20
19.99999999999988
 30
0.0
 11
-101.9999999999995
 21
65.99999999999977
 31
0.0
  0
LINE
  5
17C
330
14B
100
AcDbEntity
  8
0
100
AcDbLine
 10
-101.9999999999995
 20
69.99999999999977
 30
0.0
 11
-101.9999999999995
 21
115.9999999999999
 31
0.0
  0
LINE
  5
17D
330
14B
100
AcDbEntity
  8
0
100
AcDbLine
 10
-101.9999999999995
 20
119.9999999999999
 30
0.0
 11
-101.9999999999995
 21
166.0
 31
0.0
  0
LINE
  5
17E
330
14B
100
AcDbEntity
  8
0
100
AcDbLine
 10
-101.9999999999995
 20
170.0
 30
0.0
 11
-102.0
 21
217.0
 31
0.0
  0
LINE
  5
17F
330
14B
100
AcDbEntity
  8
0
100
AcDbLine
 10
-102.0
 20
221.0
 30
0.0
 11
-102.0
 21
268.0
 31
0.0
  0
LINE
  5
180
330
14B
100
AcDbEntity
  8
0
100
AcDbLine
 10
-102.0
 20
272.0
 30
0.0
 11
-102.0000000000004
 21
319.0
 31
0.0
  0
LINE
  5
181
330
14B
100
AcDbEntity
  8
0
100
AcDbLine
 10
-102.0000000000004
 20
323.0
 30
0.0
 11
-102.0000000000004
 21
370.0
 31
0.0
  0
LINE
  5
182
330
14B
100
AcDbEntity
  8
0
100
AcDbLine
 10
-102.0000000000004
 20
374.0
 30
0.0
 11
-102.0
 21
421.0
 31
0.0
  0
LINE
  5
183
330
14B
100
AcDbEntity
  8
0
100
AcDbLine
 10
-102.0
 20
425.0
 30
0.0
 11
-101.9999999999995
 21
472.0
 31
0.0
  0
LINE
  5
184
330
14B
100
AcDbEntity
  8
0
100
AcDbLine
 10
-102.0
 20
4.0
 30
0.0
 11
-98.0
 21
4.0
 31
0.0
  0
ARC
  5
185
330
14B
100
AcDbEntity
  8
0
100
AcDbCircle
 10
-100.0
 20
6.0
 30
0.0
 40
2.0
100
AcDbArc
 50
180.0
 51
0.0
  0
ARC
  5
186
330
14B
100
AcDbEntity
  8
0
100
AcDbCircle
 10
-130.0
 20
67.99999999999977
 30
0.0
 40
2.0
100
AcDbArc
 50
90.0
 51
270.0
  0
LINE
  5
187
330
14B
100
AcDbEntity
  8
0
100
AcDbLine
 10
-48.0
 20
6.0
 30
0.0
 11
-48.0
 21
15.99999999999988
 31
0.0
  0
LINE
  5
188
330
14B
100
AcDbEntity
  8
0
100
AcDbLine
 10
-48.0
 20
19.99999999999988
 30
0.0
 11
-48.0
 21
65.99999999999977
 31
0.0
  0
LINE
  5
189
330
14B
100
AcDbEntity
  8
0
100
AcDbLine
 10
-48.0
 20
69.99999999999977
 30
0.0
 11
-48.0
 21
115.9999999999999
 31
0.0
  0
LINE
  5
18A
330
14B
100
AcDbEntity
  8
0
100
AcDbLine
 10
-48.0
 20
119.9999999999999
 30
0.0
 11
-48.0
 21
166.0
 31
0.0
  0
LINE
  5
18B
330
14B
100
AcDbEntity
  8
0
100
AcDbLine
 10
-48.0
 20
170.0
 30
0.0
 11
-48.0
 21
217.0000000000001
 31
0.0
  0
LINE
  5
18C
330
14B
100
AcDbEntity
  8
0
100
AcDbLine
 10
-48.0
 20
221.0000000000001
 30
0.0
 11
-48.00000000000046
 21
268.0
 31
0.0
  0
LINE
  5
18D
330
14B
100
AcDbEntity
  8
0
100
AcDbLine
 10
-48.00000000000046
 20
272.0
 30
0.0
 11
-48.00000000000046
 21
319.0
 31
0.0
  0
LINE
  5
18E
330
14B
100
AcDbEntity
  8
0
100
AcDbLine
 10
-48.00000000000046
 20
323.0
 30
0.0
 11
-48.00000000000091
 21
370.0
 31
0.0
  0
LINE
  5
18F
330
14B
100
AcDbEntity
  8
0
100
AcDbLine
 10
-48.00000000000091
 20
374.0
 30
0.0
 11
-48.00000000000046
 21
421.0
 31
0.0
  0
LINE
  5
190
330
14B
100
AcDbEntity
  8
0
100
AcDbLine
 10
-48.00000000000046
 20
425.0
 30
0.0
 11
-48.0
 21
472.0
 31
0.0
  0
LINE
  5
191
330
14B
100
AcDbEntity
  8
0
100
AcDbLine
 10
-52.0
 20
6.0
 30
0.0
 11
-52.0
 21
15.99999999999988
 31
0.0
  0
LINE
  5
192
330
14B
100
AcDbEntity
  8
0
100
AcDbLine
 10
-52.0
 20
19.99999999999988
 30
0.0
 11
-52.0
 21
65.99999999999977
 31
0.0
  0
LINE
  5
193
330
14B
100
AcDbEntity
  8
0
100
AcDbLine
 10
-52.0
 20
69.99999999999977
 30
0.0
 11
-52.0
 21
115.9999999999999
 31
0.0
  0
LINE
  5
194
330
14B
100
AcDbEntity
  8
0
100
AcDbLine
 10
-52.0
 20
119.9999999999999
 30
0.0
 11
-52.0
 21
166.0
 31
0.0
  0
LINE
  5
195
330
14B
100
AcDbEntity
  8
0
100
AcDbLine
 10
-52.0
 20
170.0
 30
0.0
 11
-52.0
 21
217.0000000000001
 31
0.0
  0
LINE
  5
196
330
14B
100
AcDbEntity
  8
0
100
AcDbLine
 10
-52.0
 20
221.0000000000001
 30
0.0
 11
-52.00000000000045
 21
268.0
 31
0.0
  0
LINE
  5
197
330
14B
100
AcDbEntity
  8
0
100
AcDbLine
 10
-52.00000000000045
 20
272.0
 30
0.0
 11
-52.0
 21
319.0
 31
0.0
  0
LINE
  5
198
330
14B
100
AcDbEntity
  8
0
100
AcDbLine
 10
-52.00000000000045
 20
323.0
 30
0.0
 11
-52.00000000000091
 21
370.0
 31
0.0
  0
LINE
  5
199
330
14B
100
AcDbEntity
  8
0
100
AcDbLine
 10
-52.00000000000091
 20
374.0
 30
0.0
 11
-52.00000000000045
 21
421.0
 31
0.0
  0
LINE
  5
19A
330
14B
100
AcDbEntity
  8
0
100
AcDbLine
 10
-52.00000000000045
 20
425.0
 30
0.0
 11
-52.0
 21
472.0
 31
0.0
  0
LINE
  5
19B
330
14B
100
AcDbEntity
  8
0
100
AcDbLine
 10
-52.0
 20
4.0
 30
0.0
 11
-48.0
 21
4.0
 31
0.0
  0
ARC
  5
19C
330
14B
100
AcDbEntity
  8
0
100
AcDbCircle
 10
-50.0
 20
6.0
 30
0.0
 40
2.0
100
AcDbArc
 50
180.0
 51
0.0
  0
ARC
  5
19D
330
14B
100
AcDbEntity
  8
0
100
AcDbCircle
 10
-130.0
 20
117.9999999999997
 30
0.0
 40
2.0
100
AcDbArc
 50
90.0
 51
270.0
  0
ARC
  5
19E
330
14B
100
AcDbEntity
  8
0
100
AcDbCircle
 10
-130.0
 20
168.0
 30
0.0
 40
2.0
100
AcDbArc
 50
90.0
 51
270.0
  0
LINE
  5
19F
330
14B
100
AcDbEntity
  8
0
100
AcDbLine
 10
2.0
 20
6.0
 30
0.0
 11
2.0
 21
15.99999999999988
 31
0.0
  0
LINE
  5
1A0
330
14B
100
AcDbEntity
  8
0
100
AcDbLine
 10
2.0
 20
19.99999999999988
 30
0.0
 11
2.0
 21
65.99999999999977
 31
0.0
  0
LINE
  5
1A1
330
14B
100
AcDbEntity
  8
0
100
AcDbLine
 10
2.0
 20
69.99999999999977
 30
0.0
 11
2.0
 21
115.9999999999999
 31
0.0
  0
LINE
  5
1A2
330
14B
100
AcDbEntity
  8
0
100
AcDbLine
 10
2.0
 20
119.9999999999999
 30
0.0
 11
2.0
 21
166.0
 31
0.0
  0
LINE
  5
1A3
330
14B
100
AcDbEntity
  8
0
100
AcDbLine
 10
2.0
 20
170.0
 30
0.0
 11
2.0
 21
217.0000000000001
 31
0.0
  0
LINE
  5
1A4
330
14B
100
AcDbEntity
  8
0
100
AcDbLine
 10
2.0
 20
221.0000000000001
 30
0.0
 11
1.999999999999545
 21
268.0
 31
0.0
  0
LINE
  5
1A5
330
14B
100
AcDbEntity
  8
0
100
AcDbLine
 10
1.999999999999545
 20
272.0
 30
0.0
 11
1.999999999999545
 21
319.0
 31
0.0
  0
LINE
  5
1A6
330
14B
100
AcDbEntity
  8
0
100
AcDbLine
 10
1.99999999999909
 20
323.0
 30
0.0
 11
1.99999999999909
 21
370.0
 31
0.0
  0
LINE
  5
1A7
330
14B
100
AcDbEntity
  8
0
100
AcDbLine
 10
1.99999999999909
 20
374.0
 30
0.0
 11
1.999999999999545
 21
421.0
 31
0.0
  0
LINE
  5
1A8
330
14B
100
AcDbEntity
  8
0
100
AcDbLine
 10
1.999999999999545
 20
425.0
 30
0.0
 11
2.0
 21
472.0
 31
0.0
  0
LINE
  5
1A9
330
14B
100
AcDbEntity
  8
0
100
AcDbLine
 10
-2.0
 20
6.0
 30
0.0
 11
-1.99999999999909
 21
15.99999999999988
 31
0.0
  0
LINE
  5
1AA
330
14B
100
AcDbEntity
  8
0
100
AcDbLine
 10
-1.99999999999909
 20
19.99999999999988
 30
0.0
 11
-1.999999999999545
 21
65.99999999999977
 31
0.0
  0
LINE
  5
1AB
330
14B
100
AcDbEntity
  8
0
100
AcDbLine
 10
-1.999999999999545
 20
69.99999999999977
 30
0.0
 11
-1.999999999999545
 21
115.9999999999999
 31
0.0
  0
LINE
  5
1AC
330
14B
100
AcDbEntity
  8
0
100
AcDbLine
 10
-1.999999999999545
 20
119.9999999999999
 30
0.0
 11
-1.99999999999909
 21
166.0
 31
0.0
  0
LINE
  5
1AD
330
14B
100
AcDbEntity
  8
0
100
AcDbLine
 10
-1.99999999999909
 20
170.0
 30
0.0
 11
-1.99999999999909
 21
217.0000000000001
 31
0.0
  0
LINE
  5
1AE
330
14B
100
AcDbEntity
  8
0
100
AcDbLine
 10
-1.99999999999909
 20
221.0000000000001
 30
0.0
 11
-1.999999999999545
 21
268.0
 31
0.0
  0
LINE
  5
1AF
330
14B
100
AcDbEntity
  8
0
100
AcDbLine
 10
-1.999999999999545
 20
272.0
 30
0.0
 11
-1.999999999999545
 21
319.0
 31
0.0
  0
LINE
  5
1B0
330
14B
100
AcDbEntity
  8
0
100
AcDbLine
 10
-1.999999999999545
 20
323.0
 30
0.0
 11
-1.99999999999909
 21
370.0
 31
0.0
  0
LINE
  5
1B1
330
14B
100
AcDbEntity
  8
0
100
AcDbLine
 10
-1.99999999999909
 20
374.0
 30
0.0
 11
-1.999999999998635
 21
421.0
 31
0.0
  0
LINE
  5
1B2
330
14B
100
AcDbEntity
  8
0
100
AcDbLine
 10
-1.999999999998635
 20
425.0
 30
0.0
 11
-1.999999999999545
 21
472.0
 31
0.0
  0
LINE
  5
1B3
330
14B
100
AcDbEntity
  8
0
100
AcDbLine
 10
-2.0
 20
4.0
 30
0.0
 11
2.0
 21
4.0
 31
0.0
  0
ARC
  5
1B4
330
14B
100
AcDbEntity
  8
0
100
AcDbCircle
 10
0.0
 20
6.0
 30
0.0
 40
2.0
100
AcDbArc
 50
180.0
 51
0.0
  0
LINE
  5
1B5
330
14B
100
AcDbEntity
  8
0
100
AcDbLine
 10
52.0
 20
6.0
 30
0.0
 11
52.0
 21
15.99999999999988
 31
0.0
  0
LINE
  5
1B6
330
14B
100
AcDbEntity
  8
0
100
AcDbLine
 10
52.0
 20
19.99999999999988
 30
0.0
 11
52.0
 21
65.99999999999977
 31
0.0
  0
LINE
  5
1B7
330
14B
100
AcDbEntity
  8
0
100
AcDbLine
 10
52.0
 20
69.99999999999977
 30
0.0
 11
52.0
 21
115.9999999999999
 31
0.0
  0
LINE
  5
1B8
330
14B
100
AcDbEntity
  8
0
100
AcDbLine
 10
52.0
 20
119.9999999999999
 30
0.0
 11
52.0
 21
166.0
 31
0.0
  0
LINE
  5
1B9
330
14B
100
AcDbEntity
  8
0
100
AcDbLine
 10
52.0
 20
170.0
 30
0.0
 11
52.0
 21
217.0000000000001
 31
0.0
  0
LINE
  5
1BA
330
14B
100
AcDbEntity
  8
0
100
AcDbLine
 10
52.0
 20
221.0000000000001
 30
0.0
 11
52.0
 21
268.0
 31
0.0
  0
LINE
  5
1BB
330
14B
100
AcDbEntity
  8
0
100
AcDbLine
 10
52.0
 20
272.0
 30
0.0
 11
52.0
 21
319.0000000000005
 31
0.0
  0
LINE
  5
1BC
330
14B
100
AcDbEntity
  8
0
100
AcDbLine
 10
51.99999999999954
 20
323.0
 30
0.0
 11
51.99999999999954
 21
370.0
 31
0.0
  0
LINE
  5
1BD
330
14B
100
AcDbEntity
  8
0
100
AcDbLine
 10
51.99999999999954
 20
374.0
 30
0.0
 11
51.99999999999954
 21
421.0
 31
0.0
  0
LINE
  5
1BE
330
14B
100
AcDbEntity
  8
0
100
AcDbLine
 10
51.99999999999954
 20
425.0
 30
0.0
 11
52.0
 21
472.0
 31
0.0
  0
LINE
  5
1BF
330
14B
100
AcDbEntity
  8
0
100
AcDbLine
 10
48.0
 20
6.0
 30
0.0
 11
48.0
 21
15.99999999999988
 31
0.0
  0
LINE
  5
1C0
330
14B
100
AcDbEntity
  8
0
100
AcDbLine
 10
48.0
 20
19.99999999999988
 30
0.0
 11
48.0
 21
65.99999999999977
 31
0.0
  0
LINE
  5
1C1
330
14B
100
AcDbEntity
  8
0
100
AcDbLine
 10
48.0
 20
69.99999999999977
 30
0.0
 11
48.0
 21
115.9999999999999
 31
0.0
  0
LINE
  5
1C2
330
14B
100
AcDbEntity
  8
0
100
AcDbLine
 10
48.0
 20
119.9999999999999
 30
0.0
 11
48.0
 21
166.0
 31
0.0
  0
LINE
  5
1C3
330
14B
100
AcDbEntity
  8
0
100
AcDbLine
 10
48.0
 20
170.0
 30
0.0
 11
48.0
 21
217.0000000000001
 31
0.0
  0
LINE
  5
1C4
330
14B
100
AcDbEntity
  8
0
100
AcDbLine
 10
48.0
 20
221.0000000000001
 30
0.0
 11
48.0
 21
268.0
 31
0.0
  0
LINE
  5
1C5
330
14B
100
AcDbEntity
  8
0
100
AcDbLine
 10
48.0
 20
272.0
 30
0.0
 11
48.0
 21
319.0000000000005
 31
0.0
  0
LINE
  5
1C6
330
14B
100
AcDbEntity
  8
0
100
AcDbLine
 10
47.99999999999954
 20
323.0
 30
0.0
 11
47.99999999999954
 21
370.0
 31
0.0
  0
LINE
  5
1C7
330
14B
100
AcDbEntity
  8
0
100
AcDbLine
 10
47.99999999999954
 20
374.0
 30
0.0
 11
47.99999999999954
 21
421.0
 31
0.0
  0
LINE
  5
1C8
330
14B
100
AcDbEntity
  8
0
100
AcDbLine
 10
47.99999999999954
 20
425.0
 30
0.0
 11
48.0
 21
472.0
 31
0.0
  0
LINE
  5
1C9
330
14B
100
AcDbEntity
  8
0
100
AcDbLine
 10
48.0
 20
4.0
 30
0.0
 11
52.0
 21
4.0
 31
0.0
  0
ARC
  5
1CA
330
14B
100
AcDbEntity
  8
0
100
AcDbCircle
 10
50.0
 20
6.0
 30
0.0
 40
2.0
100
AcDbArc
 50
180.0
 51
0.0
  0
ARC
  5
1CB
330
14B
100
AcDbEntity
  8
0
100
AcDbCircle
 10
100.0
 20
6.0
 30
0.0
 40
2.0
100
AcDbArc
 50
180.0
 51
0.0
  0
LINE
  5
1CC
330
14B
100
AcDbEntity
  8
0
100
AcDbLine
 10
98.0
 20
4.0
 30
0.0
 11
102.0
 21
4.0
 31
0.0
  0
LINE
  5
1CD
330
14B
100
AcDbEntity
  8
0
100
AcDbLine
 10
98.0
 20
6.0
 30
0.0
 11
97.99999999999954
 21
15.99999999999988
 31
0.0
  0
LINE
  5
1CE
330
14B
100
AcDbEntity
  8
0
100
AcDbLine
 10
97.99999999999954
 20
19.99999999999988
 30
0.0
 11
97.99999999999954
 21
65.99999999999977
 31
0.0
  0
LINE
  5
1CF
330
14B
100
AcDbEntity
  8
0
100
AcDbLine
 10
97.99999999999954
 20
69.99999999999977
 30
0.0
 11
97.9999999999991
 21
115.9999999999999
 31
0.0
  0
LINE
  5
1D0
330
14B
100
AcDbEntity
  8
0
100
AcDbLine
 10
97.9999999999991
 20
119.9999999999999
 30
0.0
 11
97.99999999999863
 21
166.0
 31
0.0
  0
LINE
  5
1D1
330
14B
100
AcDbEntity
  8
0
100
AcDbLine
 10
97.99999999999863
 20
170.0
 30
0.0
 11
97.9999999999991
 21
217.0000000000001
 31
0.0
  0
LINE
  5
1D2
330
14B
100
AcDbEntity
  8
0
100
AcDbLine
 10
97.9999999999991
 20
221.0000000000001
 30
0.0
 11
97.9999999999991
 21
268.0
 31
0.0
  0
LINE
  5
1D3
330
14B
100
AcDbEntity
  8
0
100
AcDbLine
 10
97.9999999999991
 20
272.0
 30
0.0
 11
97.99999999999954
 21
319.0000000000002
 31
0.0
  0
LINE
  5
1D4
330
14B
100
AcDbEntity
  8
0
100
AcDbLine
 10
97.9999999999991
 20
323.0
 30
0.0
 11
97.9999999999991
 21
370.0
 31
0.0
  0
LINE
  5
1D5
330
14B
100
AcDbEntity
  8
0
100
AcDbLine
 10
97.9999999999991
 20
374.0
 30
0.0
 11
97.9999999999991
 21
421.0
 31
0.0
  0
LINE
  5
1D6
330
14B
100
AcDbEntity
  8
0
100
AcDbLine
 10
97.9999999999991
 20
425.0
 30
0.0
 11
97.99999999999954
 21
472.0
 31
0.0
  0
LINE
  5
1D7
330
14B
100
AcDbEntity
  8
0
100
AcDbLine
 10
102.0
 20
6.0
 30
0.0
 11
101.9999999999995
 21
15.99999999999988
 31
0.0
  0
LINE
  5
1D8
330
14B
100
AcDbEntity
  8
0
100
AcDbLine
 10
101.9999999999995
 20
19.99999999999988
 30
0.0
 11
101.9999999999995
 21
65.99999999999977
 31
0.0
  0
LINE
  5
1D9
330
14B
100
AcDbEntity
  8
0
100
AcDbLine
 10
101.9999999999995
 20
69.99999999999977
 30
0.0
 11
101.9999999999991
 21
115.9999999999999
 31
0.0
  0
LINE
  5
1DA
330
14B
100
AcDbEntity
  8
0
100
AcDbLine
 10
101.9999999999991
 20
119.9999999999999
 30
0.0
 11
101.9999999999986
 21
166.0
 31
0.0
  0
LINE
  5
1DB
330
14B
100
AcDbEntity
  8
0
100
AcDbLine
 10
101.9999999999986
 20
170.0
 30
0.0
 11
101.9999999999991
 21
217.0000000000001
 31
0.0
  0
LINE
  5
1DC
330
14B
100
AcDbEntity
  8
0
100
AcDbLine
 10
101.9999999999991
 20
221.0000000000001
 30
0.0
 11
101.9999999999991
 21
268.0
 31
0.0
  0
LINE
  5
1DD
330
14B
100
AcDbEntity
  8
0
100
AcDbLine
 10
101.9999999999991
 20
272.0
 30
0.0
 11
101.9999999999995
 21
319.0000000000002
 31
0.0
  0
LINE
  5
1DE
330
14B
100
AcDbEntity
  8
0
100
AcDbLine
 10
101.9999999999991
 20
323.0
 30
0.0
 11
101.9999999999991
 21
370.0
 31
0.0
  0
LINE
  5
1DF
330
14B
100
AcDbEntity
  8
0
100
AcDbLine
 10
101.9999999999991
 20
374.0
 30
0.0
 11
101.9999999999991
 21
421.0
 31
0.0
  0
LINE
  5
1E0
330
14B
100
AcDbEntity
  8
0
100
AcDbLine
 10
101.9999999999991
 20
425.0
 30
0.0
 11
101.9999999999995
 21
472.0
 31
0.0
  0
ARC
  5
1E1
330
14B
100
AcDbEntity
  8
0
100
AcDbCircle
 10
129.9999999999959
 20
17.99999999999977
 30
0.0
 40
2.0
100
AcDbArc
 50
270.0
 51
90.0
  0
ARC
  5
1E2
330
14B
100
AcDbEntity
  8
0
100
AcDbCircle
 10
122.0
 20
6.0
 30
0.0
 40
2.0
100
AcDbArc
 50
270.0
 51
0.0
  0
ARC
  5
1E3
330
14B
100
AcDbEntity
  8
0
100
AcDbCircle
 10
122.0
 20
6.0
 30
0.0
 40
6.0
100
AcDbArc
 50
270.0
 51
0.0
  0
LINE
  5
1E4
330
14B
100
AcDbEntity
  8
0
100
AcDbLine
 10
124.0
 20
6.0
 30
0.0
 11
124.0000000000009
 21
15.99999999999988
 31
0.0
  0
LINE
  5
1E5
330
14B
100
AcDbEntity
  8
0
100
AcDbLine
 10
124.0000000000009
 20
19.99999999999988
 30
0.0
 11
124.0000000000004
 21
65.99999999999977
 31
0.0
  0
LINE
  5
1E6
330
14B
100
AcDbEntity
  8
0
100
AcDbLine
 10
124.0000000000004
 20
69.99999999999977
 30
0.0
 11
124.0000000000004
 21
115.9999999999999
 31
0.0
  0
LINE
  5
1E7
330
14B
100
AcDbEntity
  8
0
100
AcDbLine
 10
124.0000000000004
 20
119.9999999999999
 30
0.0
 11
124.0
 21
166.0
 31
0.0
  0
LINE
  5
1E8
330
14B
100
AcDbEntity
  8
0
100
AcDbLine
 10
124.0
 20
170.0
 30
0.0
 11
124.0000000000004
 21
217.0
 31
0.0
  0
LINE
  5
1E9
330
14B
100
AcDbEntity
  8
0
100
AcDbLine
 10
124.0000000000004
 20
221.0
 30
0.0
 11
124.0000000000004
 21
268.0
 31
0.0
  0
LINE
  5
1EA
330
14B
100
AcDbEntity
  8
0
100
AcDbLine
 10
124.0000000000004
 20
272.0
 30
0.0
 11
124.0
 21
319.0
 31
0.0
  0
LINE
  5
1EB
330
14B
100
AcDbEntity
  8
0
100
AcDbLine
 10
124.0
 20
323.0
 30
0.0
 11
124.0
 21
370.0
 31
0.0
  0
LINE
  5
1EC
330
14B
100
AcDbEntity
  8
0
100
AcDbLine
 10
124.0
 20
374.0
 30
0.0
 11
123.9999999999995
 21
421.0
 31
0.0
  0
LINE
  5
1ED
330
14B
100
AcDbEntity
  8
0
100
AcDbLine
 10
123.9999999999995
 20
425.0
 30
0.0
 11
124.0000000000004
 21
472.0
 31
0.0
  0
LINE
  5
1EE
330
14B
100
AcDbEntity
  8
0
100
AcDbLine
 10
128.0
 20
6.0
 30
0.0
 11
128.0000000000009
 21
15.99999999999988
 31
0.0
  0
LINE
  5
1EF
330
14B
100
AcDbEntity
  8
0
100
AcDbLine
 10
128.0000000000009
 20
19.99999999999988
 30
0.0
 11
128.0000000000004
 21
65.99999999999977
 31
0.0
  0
LINE
  5
1F0
330
14B
100
AcDbEntity
  8
0
100
AcDbLine
 10
128.0000000000004
 20
69.99999999999977
 30
0.0
 11
128.0000000000004
 21
115.9999999999999
 31
0.0
  0
LINE
  5
1F1
330
14B
100
AcDbEntity
  8
0
100
AcDbLine
 10
128.0000000000004
 20
119.9999999999999
 30
0.0
 11
128.0
 21
166.0
 31
0.0
  0
LINE
  5
1F2
330
14B
100
AcDbEntity
  8
0
100
AcDbLine
 10
128.0
 20
170.0
 30
0.0
 11
128.0000000000004
 21
217.0
 31
0.0
  0
LINE
  5
1F3
330
14B
100
AcDbEntity
  8
0
100
AcDbLine
 10
128.0000000000004
 20
221.0
 30
0.0
 11
128.0000000000004
 21
268.0
 31
0.0
  0
LINE
  5
1F4
330
14B
100
AcDbEntity
  8
0
100
AcDbLine
 10
128.0000000000004
 20
272.0
 30
0.0
 11
127.9999999999995
 21
319.0
 31
0.0
  0
LINE
  5
1F5
330
14B
100
AcDbEntity
  8
0
100
AcDbLine
 10
128.0
 20
323.0
 30
0.0
 11
128.0
 21
370.0
 31
0.0
  0
LINE
  5
1F6
330
14B
100
AcDbEntity
  8
0
100
AcDbLine
 10
128.0
 20
374.0
 30
0.0
 11
127.9999999999995
 21
421.0
 31
0.0
  0
LINE
  5
1F7
330
14B
100
AcDbEntity
  8
0
100
AcDbLine
 10
127.9999999999995
 20
425.0
 30
0.0
 11
128.0000000000004
 21
472.0
 31
0.0
  0
ARC
  5
1F8
330
14B
100
AcDbEntity
  8
0
100
AcDbCircle
 10
130.0
 20
67.99999999999977
 30
0.0
 40
2.0
100
AcDbArc
 50
270.0
 51
90.0
  0
ARC
  5
1F9
330
14B
100
AcDbEntity
  8
0
100
AcDbCircle
 10
130.0
 20
117.9999999999997
 30
0.0
 40
2.0
100
AcDbArc
 50
270.0
 51
90.0
  0
ARC
  5
1FA
330
14B
100
AcDbEntity
  8
0
100
AcDbCircle
 10
130.0
 20
168.0
 30
0.0
 40
2.0
100
AcDbArc
 50
270.0
 51
90.0
  0
ARC
  5
1FB
330
14B
100
AcDbEntity
  8
0
100
AcDbCircle
 10
-130.0
 20
219.0
 30
0.0
 40
2.0
100
AcDbArc
 50
90.0
 51
270.0
  0
ARC
  5
1FC
330
14B
100
AcDbEntity
  8
0
100
AcDbCircle
 10
130.0
 20
219.0
 30
0.0
 40
2.0
100
AcDbArc
 50
270.0
 51
90.0
  0
LINE
  5
1FD
330
14B
100
AcDbEntity
  8
0
100
AcDbLine
 10
-130.0
 20
272.0
 30
0.0
 11
130.0
 21
272.0
 31
0.0
  0
LINE
  5
1FE
330
14B
100
AcDbEntity
  8
0
100
AcDbLine
 10
-130.0
 20
268.0
 30
0.0
 11
130.0
 21
268.0
 31
0.0
  0
ARC
  5
1FF
330
14B
100
AcDbEntity
  8
0
100
AcDbCircle
 10
-130.0
 20
270.0
 30
0.0
 40
2.0
100
AcDbArc
 50
90.0
 51
270.0
  0
ARC
  5
200
330
14B
100
AcDbEntity
  8
0
100
AcDbCircle
 10
130.0
 20
270.0
 30
0.0
 40
2.0
100
AcDbArc
 50
270.0
 51
90.0
  0
LINE
  5
201
330
14B
100
AcDbEntity
  8
0
100
AcDbLine
 10
-130.0
 20
323.0
 30
0.0
 11
130.0
 21
323.0
 31
0.0
  0
LINE
  5
202
330
14B
100
AcDbEntity
  8
0
100
AcDbLine
 10
-130.0
 20
319.0
 30
0.0
 11
-52.0
 21
319.0
 31
0.0
  0
LINE
  5
203
330
14B
100
AcDbEntity
  8
0
100
AcDbLine
 10
-52.00000000000045
 20
319.0000000000002
 30
0.0
 11
130.0
 21
319.0
 31
0.0
  0
ARC
  5
204
330
14B
100
AcDbEntity
  8
0
100
AcDbCircle
 10
-130.0
 20
321.0
 30
0.0
 40
2.0
100
AcDbArc
 50
90.0
 51
270.0
  0
ARC
  5
205
330
14B
100
AcDbEntity
  8
0
100
AcDbCircle
 10
130.0
 20
321.0
 30
0.0
 40
2.0
100
AcDbArc
 50
270.0
 51
90.0
  0
LINE
  5
206
330
14B
100
AcDbEntity
  8
0
100
AcDbLine
 10
-130.0
 20
374.0
 30
0.0
 11
130.0
 21
374.0
 31
0.0
  0
LINE
  5
207
330
14B
100
AcDbEntity
  8
0
100
AcDbLine
 10
-130.0
 20
370.0
 30
0.0
 11
130.0
 21
370.0
 31
0.0
  0
ARC
  5
208
330
14B
100
AcDbEntity
  8
0
100
AcDbCircle
 10
-130.0
 20
372.0
 30
0.0
 40
2.0
100
AcDbArc
 50
90.0
 51
270.0
  0
ARC
  5
209
330
14B
100
AcDbEntity
  8
0
100
AcDbCircle
 10
130.0
 20
372.0
 30
0.0
 40
2.0
100
AcDbArc
 50
270.0
 51
90.0
  0
LINE
  5
20A
330
14B
100
AcDbEntity
  8
0
100
AcDbLine
 10
-130.0
 20
425.0
 30
0.0
 11
130.0
 21
425.0
 31
0.0
  0
LINE
  5
20B
330
14B
100
AcDbEntity
  8
0
100
AcDbLine
 10
-130.0
 20
421.0
 30
0.0
 11
130.0
 21
421.0
 31
0.0
  0
ARC
  5
20C
330
14B
100
AcDbEntity
  8
0
100
AcDbCircle
 10
-130.0
 20
423.0
 30
0.0
 40
2.0
100
AcDbArc
 50
90.0
 51
270.0
  0
ARC
  5
20D
330
14B
100
AcDbEntity
  8
0
100
AcDbCircle
 10
130.0
 20
423.0
 30
0.0
 40
2.0
100
AcDbArc
 50
270.0
 51
90.0
  0
LINE
  5
20E
330
14B
100
AcDbEntity
  8
0
100
AcDbLine
 10
-130.0
 20
476.0
 30
0.0
 11
130.0
 21
476.0
 31
0.0
  0
LINE
  5
20F
330
14B
100
AcDbEntity
  8
0
100
AcDbLine
 10
-130.0
 20
472.0
 30
0.0
 11
130.0
 21
472.0
 31
0.0
  0
ARC
  5
210
330
14B
100
AcDbEntity
  8
0
100
AcDbCircle
 10
-130.0
 20
474.0
 30
0.0
 40
2.0
100
AcDbArc
 50
90.0
 51
270.0
  0
ARC
  5
211
330
14B
100
AcDbEntity
  8
0
100
AcDbCircle
 10
130.0
 20
474.0
 30
0.0
 40
2.0
100
AcDbArc
 50
270.0
 51
90.0
  0
ENDBLK
  5
212
330
14B
100
AcDbEntity
  8
0
100
AcDbBlockEnd
  0
BLOCK
  5
84
330
83
100
AcDbEntity
  8
0
100
AcDbBlockBegin
  2
Drahtkorb 023180-S
 70
     0
 10
0.0
 20
0.0
 30
0.0
  3
Drahtkorb 023180-S
  1

  0
LINE
  5
85
330
83
100
AcDbEntity
  8
0
100
AcDbLine
 10
-140.5000000000041
 20
19.99999999999977
 30
0.0
 11
140.5
 21
19.99999999999977
 31
0.0
  0
LINE
  5
86
330
83
100
AcDbEntity
  8
0
100
AcDbLine
 10
-140.5000000000041
 20
15.99999999999977
 30
0.0
 11
140.5
 21
15.99999999999977
 31
0.0
  0
LINE
  5
87
330
83
100
AcDbEntity
  8
0
100
AcDbLine
 10
-140.5
 20
69.99999999999977
 30
0.0
 11
140.5000000000041
 21
69.99999999999977
 31
0.0
  0
LINE
  5
88
330
83
100
AcDbEntity
  8
0
100
AcDbLine
 10
-140.5
 20
65.99999999999977
 30
0.0
 11
140.5000000000041
 21
65.99999999999977
 31
0.0
  0
LINE
  5
89
330
83
100
AcDbEntity
  8
0
100
AcDbLine
 10
-140.5
 20
119.9999999999997
 30
0.0
 11
140.5000000000041
 21
119.9999999999997
 31
0.0
  0
LINE
  5
8A
330
83
100
AcDbEntity
  8
0
100
AcDbLine
 10
-140.5
 20
115.9999999999997
 30
0.0
 11
140.5000000000041
 21
115.9999999999997
 31
0.0
  0
LINE
  5
8B
330
83
100
AcDbEntity
  8
0
100
AcDbLine
 10
-140.5
 20
170.0
 30
0.0
 11
140.5000000000041
 21
170.0
 31
0.0
  0
LINE
  5
8C
330
83
100
AcDbEntity
  8
0
100
AcDbLine
 10
-140.5
 20
166.0
 30
0.0
 11
140.5000000000041
 21
166.0
 31
0.0
  0
LINE
  5
8D
330
83
100
AcDbEntity
  8
0
100
AcDbLine
 10
-140.5
 20
221.0
 30
0.0
 11
140.5000000000041
 21
221.0
 31
0.0
  0
LINE
  5
8E
330
83
100
AcDbEntity
  8
0
100
AcDbLine
 10
-140.5
 20
217.0
 30
0.0
 11
140.5000000000041
 21
217.0
 31
0.0
  0
LINE
  5
8F
330
83
100
AcDbEntity
  8
0
100
AcDbLine
 10
-132.5
 20
3.999999999999772
 30
0.0
 11
132.5
 21
4.0
 31
0.0
  0
LINE
  5
90
330
83
100
AcDbEntity
  8
0
100
AcDbLine
 10
-132.5
 20
0.0
 30
0.0
 11
132.5
 21
0.0
 31
0.0
  0
ARC
  5
91
330
83
100
AcDbEntity
  8
0
100
AcDbCircle
 10
-140.5000000000041
 20
17.99999999999977
 30
0.0
 40
2.0
100
AcDbArc
 50
90.0
 51
270.0
  0
ARC
  5
92
330
83
100
AcDbEntity
  8
0
100
AcDbCircle
 10
-132.5
 20
6.0
 30
0.0
 40
6.0
100
AcDbArc
 50
180.0
 51
270.0
  0
LINE
  5
93
330
83
100
AcDbEntity
  8
0
100
AcDbLine
 10
-138.5
 20
6.0
 30
0.0
 11
-138.4999999999991
 21
15.99999999999988
 31
0.0
  0
LINE
  5
94
330
83
100
AcDbEntity
  8
0
100
AcDbLine
 10
-138.4999999999991
 20
19.99999999999988
 30
0.0
 11
-138.4999999999995
 21
65.99999999999977
 31
0.0
  0
LINE
  5
95
330
83
100
AcDbEntity
  8
0
100
AcDbLine
 10
-138.4999999999995
 20
69.99999999999977
 30
0.0
 11
-138.4999999999995
 21
115.9999999999999
 31
0.0
  0
LINE
  5
96
330
83
100
AcDbEntity
  8
0
100
AcDbLine
 10
-138.4999999999995
 20
119.9999999999999
 30
0.0
 11
-138.4999999999995
 21
166.0
 31
0.0
  0
LINE
  5
97
330
83
100
AcDbEntity
  8
0
100
AcDbLine
 10
-138.4999999999995
 20
170.0
 30
0.0
 11
-138.5
 21
217.0000000000001
 31
0.0
  0
LINE
  5
98
330
83
100
AcDbEntity
  8
0
100
AcDbLine
 10
-138.5
 20
221.0000000000001
 30
0.0
 11
-138.5000000000004
 21
268.0
 31
0.0
  0
LINE
  5
99
330
83
100
AcDbEntity
  8
0
100
AcDbLine
 10
-138.5000000000004
 20
272.0
 30
0.0
 11
-138.5000000000009
 21
319.0
 31
0.0
  0
LINE
  5
9A
330
83
100
AcDbEntity
  8
0
100
AcDbLine
 10
-138.5000000000004
 20
323.0
 30
0.0
 11
-138.5000000000009
 21
369.9999999999998
 31
0.0
  0
LINE
  5
9B
330
83
100
AcDbEntity
  8
0
100
AcDbLine
 10
-138.5000000000009
 20
374.0
 30
0.0
 11
-138.5000000000004
 21
421.0
 31
0.0
  0
LINE
  5
9C
330
83
100
AcDbEntity
  8
0
100
AcDbLine
 10
-138.5000000000004
 20
425.0
 30
0.0
 11
-138.4999999999995
 21
472.0
 31
0.0
  0
ARC
  5
9D
330
83
100
AcDbEntity
  8
0
100
AcDbCircle
 10
-132.5
 20
5.999999999999772
 30
0.0
 40
2.0
100
AcDbArc
 50
180.0
 51
270.0
  0
LINE
  5
9E
330
83
100
AcDbEntity
  8
0
100
AcDbLine
 10
-134.5
 20
5.999999999999772
 30
0.0
 11
-134.4999999999995
 21
15.99999999999988
 31
0.0
  0
LINE
  5
9F
330
83
100
AcDbEntity
  8
0
100
AcDbLine
 10
-134.4999999999995
 20
19.99999999999988
 30
0.0
 11
-134.5
 21
65.99999999999977
 31
0.0
  0
LINE
  5
A0
330
83
100
AcDbEntity
  8
0
100
AcDbLine
 10
-134.5
 20
69.99999999999977
 30
0.0
 11
-134.5
 21
115.9999999999999
 31
0.0
  0
LINE
  5
A1
330
83
100
AcDbEntity
  8
0
100
AcDbLine
 10
-134.5
 20
119.9999999999999
 30
0.0
 11
-134.5
 21
166.0
 31
0.0
  0
LINE
  5
A2
330
83
100
AcDbEntity
  8
0
100
AcDbLine
 10
-134.5
 20
170.0
 30
0.0
 11
-134.5
 21
217.0000000000001
 31
0.0
  0
LINE
  5
A3
330
83
100
AcDbEntity
  8
0
100
AcDbLine
 10
-134.5
 20
221.0000000000001
 30
0.0
 11
-134.5000000000004
 21
268.0
 31
0.0
  0
LINE
  5
A4
330
83
100
AcDbEntity
  8
0
100
AcDbLine
 10
-134.5000000000004
 20
272.0
 30
0.0
 11
-134.5000000000009
 21
319.0
 31
0.0
  0
LINE
  5
A5
330
83
100
AcDbEntity
  8
0
100
AcDbLine
 10
-134.5000000000009
 20
323.0
 30
0.0
 11
-134.5000000000009
 21
369.9999999999998
 31
0.0
  0
LINE
  5
A6
330
83
100
AcDbEntity
  8
0
100
AcDbLine
 10
-134.5000000000009
 20
374.0
 30
0.0
 11
-134.5000000000009
 21
421.0
 31
0.0
  0
LINE
  5
A7
330
83
100
AcDbEntity
  8
0
100
AcDbLine
 10
-134.5000000000009
 20
425.0
 30
0.0
 11
-134.5
 21
472.0
 31
0.0
  0
LINE
  5
A8
330
83
100
AcDbEntity
  8
0
100
AcDbLine
 10
-98.0
 20
6.0
 30
0.0
 11
-97.9999999999991
 21
15.99999999999988
 31
0.0
  0
LINE
  5
A9
330
83
100
AcDbEntity
  8
0
100
AcDbLine
 10
-97.9999999999991
 20
19.99999999999988
 30
0.0
 11
-97.99999999999954
 21
65.99999999999977
 31
0.0
  0
LINE
  5
AA
330
83
100
AcDbEntity
  8
0
100
AcDbLine
 10
-97.99999999999954
 20
69.99999999999977
 30
0.0
 11
-97.99999999999954
 21
115.9999999999999
 31
0.0
  0
LINE
  5
AB
330
83
100
AcDbEntity
  8
0
100
AcDbLine
 10
-97.99999999999954
 20
119.9999999999999
 30
0.0
 11
-97.99999999999954
 21
166.0
 31
0.0
  0
LINE
  5
AC
330
83
100
AcDbEntity
  8
0
100
AcDbLine
 10
-97.99999999999954
 20
170.0
 30
0.0
 11
-98.0
 21
217.0
 31
0.0
  0
LINE
  5
AD
330
83
100
AcDbEntity
  8
0
100
AcDbLine
 10
-98.0
 20
221.0
 30
0.0
 11
-98.0
 21
268.0
 31
0.0
  0
LINE
  5
AE
330
83
100
AcDbEntity
  8
0
100
AcDbLine
 10
-98.0
 20
272.0
 30
0.0
 11
-98.00000000000046
 21
319.0
 31
0.0
  0
LINE
  5
AF
330
83
100
AcDbEntity
  8
0
100
AcDbLine
 10
-98.00000000000046
 20
323.0
 30
0.0
 11
-98.00000000000046
 21
370.0
 31
0.0
  0
LINE
  5
B0
330
83
100
AcDbEntity
  8
0
100
AcDbLine
 10
-98.00000000000046
 20
374.0
 30
0.0
 11
-98.0
 21
421.0
 31
0.0
  0
LINE
  5
B1
330
83
100
AcDbEntity
  8
0
100
AcDbLine
 10
-98.0
 20
425.0
 30
0.0
 11
-97.99999999999954
 21
472.0
 31
0.0
  0
LINE
  5
B2
330
83
100
AcDbEntity
  8
0
100
AcDbLine
 10
-102.0
 20
6.0
 30
0.0
 11
-101.9999999999991
 21
15.99999999999988
 31
0.0
  0
LINE
  5
B3
330
83
100
AcDbEntity
  8
0
100
AcDbLine
 10
-101.9999999999991
 20
19.99999999999988
 30
0.0
 11
-101.9999999999995
 21
65.99999999999977
 31
0.0
  0
LINE
  5
B4
330
83
100
AcDbEntity
  8
0
100
AcDbLine
 10
-101.9999999999995
 20
69.99999999999977
 30
0.0
 11
-101.9999999999995
 21
115.9999999999999
 31
0.0
  0
LINE
  5
B5
330
83
100
AcDbEntity
  8
0
100
AcDbLine
 10
-101.9999999999995
 20
119.9999999999999
 30
0.0
 11
-101.9999999999995
 21
166.0
 31
0.0
  0
LINE
  5
B6
330
83
100
AcDbEntity
  8
0
100
AcDbLine
 10
-101.9999999999995
 20
170.0
 30
0.0
 11
-102.0
 21
217.0
 31
0.0
  0
LINE
  5
B7
330
83
100
AcDbEntity
  8
0
100
AcDbLine
 10
-102.0
 20
221.0
 30
0.0
 11
-102.0
 21
268.0
 31
0.0
  0
LINE
  5
B8
330
83
100
AcDbEntity
  8
0
100
AcDbLine
 10
-102.0
 20
272.0
 30
0.0
 11
-102.0000000000004
 21
319.0
 31
0.0
  0
LINE
  5
B9
330
83
100
AcDbEntity
  8
0
100
AcDbLine
 10
-102.0000000000004
 20
323.0
 30
0.0
 11
-102.0000000000004
 21
370.0
 31
0.0
  0
LINE
  5
BA
330
83
100
AcDbEntity
  8
0
100
AcDbLine
 10
-102.0000000000004
 20
374.0
 30
0.0
 11
-102.0
 21
421.0
 31
0.0
  0
LINE
  5
BB
330
83
100
AcDbEntity
  8
0
100
AcDbLine
 10
-102.0
 20
425.0
 30
0.0
 11
-101.9999999999995
 21
472.0
 31
0.0
  0
LINE
  5
BC
330
83
100
AcDbEntity
  8
0
100
AcDbLine
 10
-112.5
 20
4.0
 30
0.0
 11
-108.5
 21
4.0
 31
0.0
  0
ARC
  5
BD
330
83
100
AcDbEntity
  8
0
100
AcDbCircle
 10
-100.0
 20
6.0
 30
0.0
 40
2.0
100
AcDbArc
 50
180.0
 51
0.0
  0
ARC
  5
BE
330
83
100
AcDbEntity
  8
0
100
AcDbCircle
 10
-140.5
 20
67.99999999999977
 30
0.0
 40
2.0
100
AcDbArc
 50
90.0
 51
270.0
  0
LINE
  5
BF
330
83
100
AcDbEntity
  8
0
100
AcDbLine
 10
-48.0
 20
6.0
 30
0.0
 11
-48.0
 21
15.99999999999988
 31
0.0
  0
LINE
  5
C0
330
83
100
AcDbEntity
  8
0
100
AcDbLine
 10
-48.0
 20
19.99999999999988
 30
0.0
 11
-48.0
 21
65.99999999999977
 31
0.0
  0
LINE
  5
C1
330
83
100
AcDbEntity
  8
0
100
AcDbLine
 10
-48.0
 20
69.99999999999977
 30
0.0
 11
-48.0
 21
115.9999999999999
 31
0.0
  0
LINE
  5
C2
330
83
100
AcDbEntity
  8
0
100
AcDbLine
 10
-48.0
 20
119.9999999999999
 30
0.0
 11
-48.0
 21
166.0
 31
0.0
  0
LINE
  5
C3
330
83
100
AcDbEntity
  8
0
100
AcDbLine
 10
-48.0
 20
170.0
 30
0.0
 11
-48.0
 21
217.0000000000001
 31
0.0
  0
LINE
  5
C4
330
83
100
AcDbEntity
  8
0
100
AcDbLine
 10
-48.0
 20
221.0000000000001
 30
0.0
 11
-48.00000000000046
 21
268.0
 31
0.0
  0
LINE
  5
C5
330
83
100
AcDbEntity
  8
0
100
AcDbLine
 10
-48.00000000000046
 20
272.0
 30
0.0
 11
-48.00000000000046
 21
319.0
 31
0.0
  0
LINE
  5
C6
330
83
100
AcDbEntity
  8
0
100
AcDbLine
 10
-48.00000000000046
 20
323.0
 30
0.0
 11
-48.00000000000091
 21
370.0
 31
0.0
  0
LINE
  5
C7
330
83
100
AcDbEntity
  8
0
100
AcDbLine
 10
-48.00000000000091
 20
374.0
 30
0.0
 11
-48.00000000000046
 21
421.0
 31
0.0
  0
LINE
  5
C8
330
83
100
AcDbEntity
  8
0
100
AcDbLine
 10
-48.00000000000046
 20
425.0
 30
0.0
 11
-48.0
 21
472.0
 31
0.0
  0
LINE
  5
C9
330
83
100
AcDbEntity
  8
0
100
AcDbLine
 10
-52.0
 20
6.0
 30
0.0
 11
-52.0
 21
15.99999999999988
 31
0.0
  0
LINE
  5
CA
330
83
100
AcDbEntity
  8
0
100
AcDbLine
 10
-52.0
 20
19.99999999999988
 30
0.0
 11
-52.0
 21
65.99999999999977
 31
0.0
  0
LINE
  5
CB
330
83
100
AcDbEntity
  8
0
100
AcDbLine
 10
-52.0
 20
69.99999999999977
 30
0.0
 11
-52.0
 21
115.9999999999999
 31
0.0
  0
LINE
  5
CC
330
83
100
AcDbEntity
  8
0
100
AcDbLine
 10
-52.0
 20
119.9999999999999
 30
0.0
 11
-52.0
 21
166.0
 31
0.0
  0
LINE
  5
CD
330
83
100
AcDbEntity
  8
0
100
AcDbLine
 10
-52.0
 20
170.0
 30
0.0
 11
-52.0
 21
217.0000000000001
 31
0.0
  0
LINE
  5
CE
330
83
100
AcDbEntity
  8
0
100
AcDbLine
 10
-52.0
 20
221.0000000000001
 30
0.0
 11
-52.00000000000045
 21
268.0
 31
0.0
  0
LINE
  5
CF
330
83
100
AcDbEntity
  8
0
100
AcDbLine
 10
-52.00000000000045
 20
272.0
 30
0.0
 11
-52.0
 21
319.0
 31
0.0
  0
LINE
  5
D0
330
83
100
AcDbEntity
  8
0
100
AcDbLine
 10
-52.00000000000045
 20
323.0
 30
0.0
 11
-52.00000000000091
 21
370.0
 31
0.0
  0
LINE
  5
D1
330
83
100
AcDbEntity
  8
0
100
AcDbLine
 10
-52.00000000000091
 20
374.0
 30
0.0
 11
-52.00000000000045
 21
421.0
 31
0.0
  0
LINE
  5
D2
330
83
100
AcDbEntity
  8
0
100
AcDbLine
 10
-52.00000000000045
 20
425.0
 30
0.0
 11
-52.0
 21
472.0
 31
0.0
  0
LINE
  5
D3
330
83
100
AcDbEntity
  8
0
100
AcDbLine
 10
-62.5
 20
4.0
 30
0.0
 11
-58.5
 21
4.0
 31
0.0
  0
ARC
  5
D4
330
83
100
AcDbEntity
  8
0
100
AcDbCircle
 10
-50.0
 20
6.0
 30
0.0
 40
2.0
100
AcDbArc
 50
180.0
 51
0.0
  0
ARC
  5
D5
330
83
100
AcDbEntity
  8
0
100
AcDbCircle
 10
-140.5
 20
117.9999999999997
 30
0.0
 40
2.0
100
AcDbArc
 50
90.0
 51
270.0
  0
ARC
  5
D6
330
83
100
AcDbEntity
  8
0
100
AcDbCircle
 10
-140.5
 20
168.0
 30
0.0
 40
2.0
100
AcDbArc
 50
90.0
 51
270.0
  0
LINE
  5
D7
330
83
100
AcDbEntity
  8
0
100
AcDbLine
 10
2.0
 20
6.0
 30
0.0
 11
2.0
 21
15.99999999999988
 31
0.0
  0
LINE
  5
D8
330
83
100
AcDbEntity
  8
0
100
AcDbLine
 10
2.0
 20
19.99999999999988
 30
0.0
 11
2.0
 21
65.99999999999977
 31
0.0
  0
LINE
  5
D9
330
83
100
AcDbEntity
  8
0
100
AcDbLine
 10
2.0
 20
69.99999999999977
 30
0.0
 11
2.0
 21
115.9999999999999
 31
0.0
  0
LINE
  5
DA
330
83
100
AcDbEntity
  8
0
100
AcDbLine
 10
2.0
 20
119.9999999999999
 30
0.0
 11
2.0
 21
166.0
 31
0.0
  0
LINE
  5
DB
330
83
100
AcDbEntity
  8
0
100
AcDbLine
 10
2.0
 20
170.0
 30
0.0
 11
2.0
 21
217.0000000000001
 31
0.0
  0
LINE
  5
DC
330
83
100
AcDbEntity
  8
0
100
AcDbLine
 10
2.0
 20
221.0000000000001
 30
0.0
 11
1.999999999999545
 21
268.0
 31
0.0
  0
LINE
  5
DD
330
83
100
AcDbEntity
  8
0
100
AcDbLine
 10
1.999999999999545
 20
272.0
 30
0.0
 11
1.999999999999545
 21
319.0
 31
0.0
  0
LINE
  5
DE
330
83
100
AcDbEntity
  8
0
100
AcDbLine
 10
1.99999999999909
 20
323.0
 30
0.0
 11
1.99999999999909
 21
370.0
 31
0.0
  0
LINE
  5
DF
330
83
100
AcDbEntity
  8
0
100
AcDbLine
 10
1.99999999999909
 20
374.0
 30
0.0
 11
1.999999999999545
 21
421.0
 31
0.0
  0
LINE
  5
E0
330
83
100
AcDbEntity
  8
0
100
AcDbLine
 10
1.999999999999545
 20
425.0
 30
0.0
 11
2.0
 21
472.0
 31
0.0
  0
LINE
  5
E1
330
83
100
AcDbEntity
  8
0
100
AcDbLine
 10
-2.0
 20
6.0
 30
0.0
 11
-1.99999999999909
 21
15.99999999999988
 31
0.0
  0
LINE
  5
E2
330
83
100
AcDbEntity
  8
0
100
AcDbLine
 10
-1.99999999999909
 20
19.99999999999988
 30
0.0
 11
-1.999999999999545
 21
65.99999999999977
 31
0.0
  0
LINE
  5
E3
330
83
100
AcDbEntity
  8
0
100
AcDbLine
 10
-1.999999999999545
 20
69.99999999999977
 30
0.0
 11
-1.999999999999545
 21
115.9999999999999
 31
0.0
  0
LINE
  5
E4
330
83
100
AcDbEntity
  8
0
100
AcDbLine
 10
-1.999999999999545
 20
119.9999999999999
 30
0.0
 11
-1.99999999999909
 21
166.0
 31
0.0
  0
LINE
  5
E5
330
83
100
AcDbEntity
  8
0
100
AcDbLine
 10
-1.99999999999909
 20
170.0
 30
0.0
 11
-1.99999999999909
 21
217.0000000000001
 31
0.0
  0
LINE
  5
E6
330
83
100
AcDbEntity
  8
0
100
AcDbLine
 10
-1.99999999999909
 20
221.0000000000001
 30
0.0
 11
-1.999999999999545
 21
268.0
 31
0.0
  0
LINE
  5
E7
330
83
100
AcDbEntity
  8
0
100
AcDbLine
 10
-1.999999999999545
 20
272.0
 30
0.0
 11
-1.999999999999545
 21
319.0
 31
0.0
  0
LINE
  5
E8
330
83
100
AcDbEntity
  8
0
100
AcDbLine
 10
-1.999999999999545
 20
323.0
 30
0.0
 11
-1.99999999999909
 21
370.0
 31
0.0
  0
LINE
  5
E9
330
83
100
AcDbEntity
  8
0
100
AcDbLine
 10
-1.99999999999909
 20
374.0
 30
0.0
 11
-1.999999999998635
 21
421.0
 31
0.0
  0
LINE
  5
EA
330
83
100
AcDbEntity
  8
0
100
AcDbLine
 10
-1.999999999998635
 20
425.0
 30
0.0
 11
-1.999999999999545
 21
472.0
 31
0.0
  0
LINE
  5
EB
330
83
100
AcDbEntity
  8
0
100
AcDbLine
 10
-12.5
 20
4.0
 30
0.0
 11
-8.5
 21
4.0
 31
0.0
  0
ARC
  5
EC
330
83
100
AcDbEntity
  8
0
100
AcDbCircle
 10
0.0
 20
6.0
 30
0.0
 40
2.0
100
AcDbArc
 50
180.0
 51
0.0
  0
LINE
  5
ED
330
83
100
AcDbEntity
  8
0
100
AcDbLine
 10
52.0
 20
6.0
 30
0.0
 11
52.0
 21
15.99999999999988
 31
0.0
  0
LINE
  5
EE
330
83
100
AcDbEntity
  8
0
100
AcDbLine
 10
52.0
 20
19.99999999999988
 30
0.0
 11
52.0
 21
65.99999999999977
 31
0.0
  0
LINE
  5
EF
330
83
100
AcDbEntity
  8
0
100
AcDbLine
 10
52.0
 20
69.99999999999977
 30
0.0
 11
52.0
 21
115.9999999999999
 31
0.0
  0
LINE
  5
F0
330
83
100
AcDbEntity
  8
0
100
AcDbLine
 10
52.0
 20
119.9999999999999
 30
0.0
 11
52.0
 21
166.0
 31
0.0
  0
LINE
  5
F1
330
83
100
AcDbEntity
  8
0
100
AcDbLine
 10
52.0
 20
170.0
 30
0.0
 11
52.0
 21
217.0000000000001
 31
0.0
  0
LINE
  5
F2
330
83
100
AcDbEntity
  8
0
100
AcDbLine
 10
52.0
 20
221.0000000000001
 30
0.0
 11
52.0
 21
268.0
 31
0.0
  0
LINE
  5
F3
330
83
100
AcDbEntity
  8
0
100
AcDbLine
 10
52.0
 20
272.0
 30
0.0
 11
52.0
 21
319.0000000000005
 31
0.0
  0
LINE
  5
F4
330
83
100
AcDbEntity
  8
0
100
AcDbLine
 10
51.99999999999954
 20
323.0
 30
0.0
 11
51.99999999999954
 21
370.0
 31
0.0
  0
LINE
  5
F5
330
83
100
AcDbEntity
  8
0
100
AcDbLine
 10
51.99999999999954
 20
374.0
 30
0.0
 11
51.99999999999954
 21
421.0
 31
0.0
  0
LINE
  5
F6
330
83
100
AcDbEntity
  8
0
100
AcDbLine
 10
51.99999999999954
 20
425.0
 30
0.0
 11
52.0
 21
472.0
 31
0.0
  0
LINE
  5
F7
330
83
100
AcDbEntity
  8
0
100
AcDbLine
 10
48.0
 20
6.0
 30
0.0
 11
48.0
 21
15.99999999999988
 31
0.0
  0
LINE
  5
F8
330
83
100
AcDbEntity
  8
0
100
AcDbLine
 10
48.0
 20
19.99999999999988
 30
0.0
 11
48.0
 21
65.99999999999977
 31
0.0
  0
LINE
  5
F9
330
83
100
AcDbEntity
  8
0
100
AcDbLine
 10
48.0
 20
69.99999999999977
 30
0.0
 11
48.0
 21
115.9999999999999
 31
0.0
  0
LINE
  5
FA
330
83
100
AcDbEntity
  8
0
100
AcDbLine
 10
48.0
 20
119.9999999999999
 30
0.0
 11
48.0
 21
166.0
 31
0.0
  0
LINE
  5
FB
330
83
100
AcDbEntity
  8
0
100
AcDbLine
 10
48.0
 20
170.0
 30
0.0
 11
48.0
 21
217.0000000000001
 31
0.0
  0
LINE
  5
FC
330
83
100
AcDbEntity
  8
0
100
AcDbLine
 10
48.0
 20
221.0000000000001
 30
0.0
 11
48.0
 21
268.0
 31
0.0
  0
LINE
  5
FD
330
83
100
AcDbEntity
  8
0
100
AcDbLine
 10
48.0
 20
272.0
 30
0.0
 11
48.0
 21
319.0000000000005
 31
0.0
  0
LINE
  5
FE
330
83
100
AcDbEntity
  8
0
100
AcDbLine
 10
47.99999999999954
 20
323.0
 30
0.0
 11
47.99999999999954
 21
370.0
 31
0.0
  0
LINE
  5
FF
330
83
100
AcDbEntity
  8
0
100
AcDbLine
 10
47.99999999999954
 20
374.0
 30
0.0
 11
47.99999999999954
 21
421.0
 31
0.0
  0
LINE
  5
100
330
83
100
AcDbEntity
  8
0
100
AcDbLine
 10
47.99999999999954
 20
425.0
 30
0.0
 11
48.0
 21
472.0
 31
0.0
  0
LINE
  5
101
330
83
100
AcDbEntity
  8
0
100
AcDbLine
 10
37.5
 20
4.0
 30
0.0
 11
41.5
 21
4.0
 31
0.0
  0
ARC
  5
102
330
83
100
AcDbEntity
  8
0
100
AcDbCircle
 10
50.0
 20
6.0
 30
0.0
 40
2.0
100
AcDbArc
 50
180.0
 51
0.0
  0
ARC
  5
103
330
83
100
AcDbEntity
  8
0
100
AcDbCircle
 10
100.0
 20
6.0
 30
0.0
 40
2.0
100
AcDbArc
 50
180.0
 51
0.0
  0
LINE
  5
104
330
83
100
AcDbEntity
  8
0
100
AcDbLine
 10
87.5
 20
4.0
 30
0.0
 11
91.5
 21
4.0
 31
0.0
  0
LINE
  5
105
330
83
100
AcDbEntity
  8
0
100
AcDbLine
 10
98.0
 20
6.0
 30
0.0
 11
97.99999999999954
 21
15.99999999999988
 31
0.0
  0
LINE
  5
106
330
83
100
AcDbEntity
  8
0
100
AcDbLine
 10
97.99999999999954
 20
19.99999999999988
 30
0.0
 11
97.99999999999954
 21
65.99999999999977
 31
0.0
  0
LINE
  5
107
330
83
100
AcDbEntity
  8
0
100
AcDbLine
 10
97.99999999999954
 20
69.99999999999977
 30
0.0
 11
97.9999999999991
 21
115.9999999999999
 31
0.0
  0
LINE
  5
108
330
83
100
AcDbEntity
  8
0
100
AcDbLine
 10
97.9999999999991
 20
119.9999999999999
 30
0.0
 11
97.99999999999863
 21
166.0
 31
0.0
  0
LINE
  5
109
330
83
100
AcDbEntity
  8
0
100
AcDbLine
 10
97.99999999999863
 20
170.0
 30
0.0
 11
97.9999999999991
 21
217.0000000000001
 31
0.0
  0
LINE
  5
10A
330
83
100
AcDbEntity
  8
0
100
AcDbLine
 10
97.9999999999991
 20
221.0000000000001
 30
0.0
 11
97.9999999999991
 21
268.0
 31
0.0
  0
LINE
  5
10B
330
83
100
AcDbEntity
  8
0
100
AcDbLine
 10
97.9999999999991
 20
272.0
 30
0.0
 11
97.99999999999954
 21
319.0000000000002
 31
0.0
  0
LINE
  5
10C
330
83
100
AcDbEntity
  8
0
100
AcDbLine
 10
97.9999999999991
 20
323.0
 30
0.0
 11
97.9999999999991
 21
370.0
 31
0.0
  0
LINE
  5
10D
330
83
100
AcDbEntity
  8
0
100
AcDbLine
 10
97.9999999999991
 20
374.0
 30
0.0
 11
97.9999999999991
 21
421.0
 31
0.0
  0
LINE
  5
10E
330
83
100
AcDbEntity
  8
0
100
AcDbLine
 10
97.9999999999991
 20
425.0
 30
0.0
 11
97.99999999999954
 21
472.0
 31
0.0
  0
LINE
  5
10F
330
83
100
AcDbEntity
  8
0
100
AcDbLine
 10
102.0
 20
6.0
 30
0.0
 11
101.9999999999995
 21
15.99999999999988
 31
0.0
  0
LINE
  5
110
330
83
100
AcDbEntity
  8
0
100
AcDbLine
 10
101.9999999999995
 20
19.99999999999988
 30
0.0
 11
101.9999999999995
 21
65.99999999999977
 31
0.0
  0
LINE
  5
111
330
83
100
AcDbEntity
  8
0
100
AcDbLine
 10
101.9999999999995
 20
69.99999999999977
 30
0.0
 11
101.9999999999991
 21
115.9999999999999
 31
0.0
  0
LINE
  5
112
330
83
100
AcDbEntity
  8
0
100
AcDbLine
 10
101.9999999999991
 20
119.9999999999999
 30
0.0
 11
101.9999999999986
 21
166.0
 31
0.0
  0
LINE
  5
113
330
83
100
AcDbEntity
  8
0
100
AcDbLine
 10
101.9999999999986
 20
170.0
 30
0.0
 11
101.9999999999991
 21
217.0000000000001
 31
0.0
  0
LINE
  5
114
330
83
100
AcDbEntity
  8
0
100
AcDbLine
 10
101.9999999999991
 20
221.0000000000001
 30
0.0
 11
101.9999999999991
 21
268.0
 31
0.0
  0
LINE
  5
115
330
83
100
AcDbEntity
  8
0
100
AcDbLine
 10
101.9999999999991
 20
272.0
 30
0.0
 11
101.9999999999995
 21
319.0000000000002
 31
0.0
  0
LINE
  5
116
330
83
100
AcDbEntity
  8
0
100
AcDbLine
 10
101.9999999999991
 20
323.0
 30
0.0
 11
101.9999999999991
 21
370.0
 31
0.0
  0
LINE
  5
117
330
83
100
AcDbEntity
  8
0
100
AcDbLine
 10
101.9999999999991
 20
374.0
 30
0.0
 11
101.9999999999991
 21
421.0
 31
0.0
  0
LINE
  5
118
330
83
100
AcDbEntity
  8
0
100
AcDbLine
 10
101.9999999999991
 20
425.0
 30
0.0
 11
101.9999999999995
 21
472.0
 31
0.0
  0
ARC
  5
119
330
83
100
AcDbEntity
  8
0
100
AcDbCircle
 10
140.5
 20
17.99999999999977
 30
0.0
 40
2.0
100
AcDbArc
 50
270.0
 51
90.0
  0
ARC
  5
11A
330
83
100
AcDbEntity
  8
0
100
AcDbCircle
 10
132.5
 20
6.0
 30
0.0
 40
2.0
100
AcDbArc
 50
270.0
 51
0.0
  0
ARC
  5
11B
330
83
100
AcDbEntity
  8
0
100
AcDbCircle
 10
132.5
 20
6.0
 30
0.0
 40
6.0
100
AcDbArc
 50
270.0
 51
0.0
  0
LINE
  5
11C
330
83
100
AcDbEntity
  8
0
100
AcDbLine
 10
134.5
 20
6.0
 30
0.0
 11
134.5000000000009
 21
15.99999999999988
 31
0.0
  0
LINE
  5
11D
330
83
100
AcDbEntity
  8
0
100
AcDbLine
 10
134.5000000000009
 20
19.99999999999988
 30
0.0
 11
134.5000000000004
 21
65.99999999999977
 31
0.0
  0
LINE
  5
11E
330
83
100
AcDbEntity
  8
0
100
AcDbLine
 10
134.5000000000004
 20
69.99999999999977
 30
0.0
 11
134.5000000000004
 21
115.9999999999999
 31
0.0
  0
LINE
  5
11F
330
83
100
AcDbEntity
  8
0
100
AcDbLine
 10
134.5000000000004
 20
119.9999999999999
 30
0.0
 11
134.5
 21
166.0
 31
0.0
  0
LINE
  5
120
330
83
100
AcDbEntity
  8
0
100
AcDbLine
 10
134.5
 20
170.0
 30
0.0
 11
134.5
 21
217.0
 31
0.0
  0
LINE
  5
121
330
83
100
AcDbEntity
  8
0
100
AcDbLine
 10
134.5
 20
221.0
 30
0.0
 11
134.5
 21
268.0000000000001
 31
0.0
  0
LINE
  5
122
330
83
100
AcDbEntity
  8
0
100
AcDbLine
 10
134.5
 20
272.0
 30
0.0
 11
134.5
 21
319.0
 31
0.0
  0
LINE
  5
123
330
83
100
AcDbEntity
  8
0
100
AcDbLine
 10
134.5
 20
323.0
 30
0.0
 11
134.5
 21
370.0
 31
0.0
  0
LINE
  5
124
330
83
100
AcDbEntity
  8
0
100
AcDbLine
 10
134.5
 20
374.0
 30
0.0
 11
134.4999999999995
 21
421.0
 31
0.0
  0
LINE
  5
125
330
83
100
AcDbEntity
  8
0
100
AcDbLine
 10
134.4999999999995
 20
425.0
 30
0.0
 11
134.5000000000004
 21
472.0
 31
0.0
  0
LINE
  5
126
330
83
100
AcDbEntity
  8
0
100
AcDbLine
 10
138.5
 20
6.0
 30
0.0
 11
138.5000000000009
 21
15.99999999999988
 31
0.0
  0
LINE
  5
127
330
83
100
AcDbEntity
  8
0
100
AcDbLine
 10
138.5000000000009
 20
19.99999999999988
 30
0.0
 11
138.5000000000004
 21
65.99999999999977
 31
0.0
  0
LINE
  5
128
330
83
100
AcDbEntity
  8
0
100
AcDbLine
 10
138.5000000000004
 20
69.99999999999977
 30
0.0
 11
138.5000000000004
 21
115.9999999999999
 31
0.0
  0
LINE
  5
129
330
83
100
AcDbEntity
  8
0
100
AcDbLine
 10
138.5000000000004
 20
119.9999999999999
 30
0.0
 11
138.5
 21
166.0
 31
0.0
  0
LINE
  5
12A
330
83
100
AcDbEntity
  8
0
100
AcDbLine
 10
138.5
 20
170.0
 30
0.0
 11
138.5
 21
217.0
 31
0.0
  0
LINE
  5
12B
330
83
100
AcDbEntity
  8
0
100
AcDbLine
 10
138.5
 20
221.0
 30
0.0
 11
138.4999999999995
 21
268.0000000000001
 31
0.0
  0
LINE
  5
12C
330
83
100
AcDbEntity
  8
0
100
AcDbLine
 10
138.4999999999995
 20
272.0
 30
0.0
 11
138.4999999999995
 21
319.0
 31
0.0
  0
LINE
  5
12D
330
83
100
AcDbEntity
  8
0
100
AcDbLine
 10
138.5
 20
323.0
 30
0.0
 11
138.5
 21
370.0
 31
0.0
  0
LINE
  5
12E
330
83
100
AcDbEntity
  8
0
100
AcDbLine
 10
138.5
 20
374.0
 30
0.0
 11
138.4999999999995
 21
421.0
 31
0.0
  0
LINE
  5
12F
330
83
100
AcDbEntity
  8
0
100
AcDbLine
 10
138.4999999999995
 20
425.0
 30
0.0
 11
138.5000000000004
 21
472.0
 31
0.0
  0
ARC
  5
130
330
83
100
AcDbEntity
  8
0
100
AcDbCircle
 10
140.5000000000041
 20
67.99999999999977
 30
0.0
 40
2.0
100
AcDbArc
 50
270.0
 51
90.0
  0
ARC
  5
131
330
83
100
AcDbEntity
  8
0
100
AcDbCircle
 10
140.5000000000041
 20
117.9999999999997
 30
0.0
 40
2.0
100
AcDbArc
 50
270.0
 51
90.0
  0
ARC
  5
132
330
83
100
AcDbEntity
  8
0
100
AcDbCircle
 10
140.5000000000041
 20
168.0
 30
0.0
 40
2.0
100
AcDbArc
 50
270.0
 51
90.0
  0
ARC
  5
133
330
83
100
AcDbEntity
  8
0
100
AcDbCircle
 10
-140.5
 20
219.0
 30
0.0
 40
2.0
100
AcDbArc
 50
90.0
 51
270.0
  0
ARC
  5
134
330
83
100
AcDbEntity
  8
0
100
AcDbCircle
 10
140.5000000000041
 20
219.0
 30
0.0
 40
2.0
100
AcDbArc
 50
270.0
 51
90.0
  0
LINE
  5
135
330
83
100
AcDbEntity
  8
0
100
AcDbLine
 10
-140.5
 20
272.0
 30
0.0
 11
140.5000000000041
 21
272.0
 31
0.0
  0
LINE
  5
136
330
83
100
AcDbEntity
  8
0
100
AcDbLine
 10
-140.5
 20
268.0
 30
0.0
 11
140.5000000000041
 21
268.0
 31
0.0
  0
ARC
  5
137
330
83
100
AcDbEntity
  8
0
100
AcDbCircle
 10
-140.5
 20
270.0
 30
0.0
 40
2.0
100
AcDbArc
 50
90.0
 51
270.0
  0
ARC
  5
138
330
83
100
AcDbEntity
  8
0
100
AcDbCircle
 10
140.5000000000041
 20
270.0
 30
0.0
 40
2.0
100
AcDbArc
 50
270.0
 51
90.0
  0
LINE
  5
139
330
83
100
AcDbEntity
  8
0
100
AcDbLine
 10
-140.5
 20
323.0
 30
0.0
 11
140.5000000000041
 21
323.0
 31
0.0
  0
LINE
  5
13A
330
83
100
AcDbEntity
  8
0
100
AcDbLine
 10
-140.5
 20
319.0000000000003
 30
0.0
 11
140.5000000000041
 21
319.0000000000002
 31
0.0
  0
ARC
  5
13B
330
83
100
AcDbEntity
  8
0
100
AcDbCircle
 10
-140.5
 20
321.0
 30
0.0
 40
2.0
100
AcDbArc
 50
90.0
 51
270.0
  0
ARC
  5
13C
330
83
100
AcDbEntity
  8
0
100
AcDbCircle
 10
140.5000000000041
 20
321.0
 30
0.0
 40
2.0
100
AcDbArc
 50
270.0
 51
90.0
  0
LINE
  5
13D
330
83
100
AcDbEntity
  8
0
100
AcDbLine
 10
-140.5
 20
374.0
 30
0.0
 11
140.5000000000041
 21
374.0
 31
0.0
  0
LINE
  5
13E
330
83
100
AcDbEntity
  8
0
100
AcDbLine
 10
-140.5
 20
370.0
 30
0.0
 11
140.5000000000041
 21
370.0
 31
0.0
  0
ARC
  5
13F
330
83
100
AcDbEntity
  8
0
100
AcDbCircle
 10
-140.5
 20
372.0
 30
0.0
 40
2.0
100
AcDbArc
 50
90.0
 51
270.0
  0
ARC
  5
140
330
83
100
AcDbEntity
  8
0
100
AcDbCircle
 10
140.5000000000041
 20
372.0
 30
0.0
 40
2.0
100
AcDbArc
 50
270.0
 51
90.0
  0
LINE
  5
141
330
83
100
AcDbEntity
  8
0
100
AcDbLine
 10
-140.5
 20
425.0
 30
0.0
 11
140.5000000000041
 21
425.0
 31
0.0
  0
LINE
  5
142
330
83
100
AcDbEntity
  8
0
100
AcDbLine
 10
-140.5
 20
421.0
 30
0.0
 11
140.5000000000041
 21
421.0
 31
0.0
  0
ARC
  5
143
330
83
100
AcDbEntity
  8
0
100
AcDbCircle
 10
-140.5
 20
423.0
 30
0.0
 40
2.0
100
AcDbArc
 50
90.0
 51
270.0
  0
ARC
  5
144
330
83
100
AcDbEntity
  8
0
100
AcDbCircle
 10
140.5000000000041
 20
423.0
 30
0.0
 40
2.0
100
AcDbArc
 50
270.0
 51
90.0
  0
LINE
  5
145
330
83
100
AcDbEntity
  8
0
100
AcDbLine
 10
-140.5
 20
476.0
 30
0.0
 11
140.5000000000041
 21
476.0
 31
0.0
  0
LINE
  5
146
330
83
100
AcDbEntity
  8
0
100
AcDbLine
 10
-140.5
 20
472.0
 30
0.0
 11
140.5000000000041
 21
472.0
 31
0.0
  0
ARC
  5
147
330
83
100
AcDbEntity
  8
0
100
AcDbCircle
 10
-140.5
 20
474.0
 30
0.0
 40
2.0
100
AcDbArc
 50
90.0
 51
270.0
  0
ARC
  5
148
330
83
100
AcDbEntity
  8
0
100
AcDbCircle
 10
140.5000000000041
 20
474.0
 30
0.0
 40
2.0
100
AcDbArc
 50
270.0
 51
90.0
  0
ENDBLK
  5
149
330
83
100
AcDbEntity
  8
0
100
AcDbBlockEnd
  0
ENDSEC
  0
SECTION
  2
ENTITIES
  0
INSERT
  5
7E
330
2
100
AcDbEntity
  8
03-01
100
AcDbBlockReference
  2
Drahtkorb 023180-S
 10
775.7669480691138
 20
745.8213521794492
 30
0.0
  0
INSERT
  5
14A
330
2
100
AcDbEntity
  8
03-01
100
AcDbBlockReference
  2
Drahtkorb 023180-V
 10
332.124056330088
 20
745.8213521794492
 30
0.0
  0
LINE
  5
213
330
2
100
AcDbEntity
  8
05-01
100
AcDbLine
 10
875.7669480691133
 20
1308.621352179449
 30
0.0
 11
875.7669480691133
 21
1317.021352179449
 31
0.0
  0
LINE
  5
218
330
2
100
AcDbEntity
  8
05-01
100
AcDbLine
 10
871.5669480691135
 20
1312.821352179449
 30
0.0
 11
879.9669480691131
 21
1312.821352179449
 31
0.0
  0
CIRCLE
  5
219
330
2
100
AcDbEntity
  8
03-01
100
AcDbCircle
 10
875.7669480691133
 20
1312.821352179449
 30
0.0
 40
3.2
  0
LINE
  5
21A
330
2
100
AcDbEntity
  8
03-01
100
AcDbLine
 10
905.0953723201459
 20
1328.121352179449
 30
0.0
 11
861.7616260710441
 21
1328.121352179449
 31
0.0
  0
LINE
  5
21B
330
2
100
AcDbEntity
  8
03-01
100
AcDbLine
 10
861.7616260710441
 20
1328.121352179449
 30
0.0
 11
782.3573824946992
 21
1306.845049237563
 31
0.0
  0
ARC
  5
21C
330
2
100
AcDbEntity
  8
03-01
100
AcDbCircle
 10
782.7197291578426
 20
1305.492753080758
 30
0.0
 40
1.4000000000001
100
AcDbArc
 50
104.9999999999944
 51
284.9999999999945
  0
LINE
  5
21D
330
2
100
AcDbEntity
  8
03-01
100
AcDbLine
 10
783.082075820986
 20
1304.140456923954
 30
0.0
 11
789.1466034203707
 21
1307.007773613177
 31
0.0
  0
LINE
  5
21E
330
2
100
AcDbEntity
  8
05-01
100
AcDbLine
 10
869.5169480691133
 20
1312.821352179449
 30
0.0
 11
882.0169480691133
 21
1312.821352179449
 31
0.0
  0
LINE
  5
21F
330
2
100
AcDbEntity
  8
05-01
100
AcDbLine
 10
875.7669480691133
 20
1319.071352179449
 30
0.0
 11
875.7669480691133
 21
1306.571352179449
 31
0.0
  0
LINE
  5
220
330
2
100
AcDbEntity
  8
09-01
100
AcDbLine
 10
213.1240563300881
 20
484.3244554779628
 30
0.0
 11
451.1240563300881
 21
484.3244554779629
 31
0.0
  0
INSERT
  5
221
330
2
100
AcDbEntity
  8
09-01
100
AcDbBlockReference
 66
     1
  2
DIN A4
 10
-0.0000375611774928
 20
0.0000100644871281
 30
0.0
 41
5.0
 42
5.0
 43
5.0
  0
ATTRIB
  5
295
330
221
100
AcDbEntity
  8
06-99
100
AcDbText
 10
582.4772336958858
 20
130.9391934864106
 30
0.0
 40
20.0
  1
Abfallbehälter WP 180
 41
0.9
  7
ROMANS8
100
AcDbAttribute
280
     0
  2
TEILE
 70
     0
280
     0
  0
ATTRIB
  5
296
330
221
100
AcDbEntity
  8
06-99
100
AcDbText
 10
582.4772336958858
 20
96.47739249498158
 30
0.0
 40
20.0
  1

 41
0.9
  7
ROMANS8
100
AcDbAttribute
280
     0
  2
TEILE2
 70
     0
280
     0
  0
ATTRIB
  5
297
330
221
100
AcDbEntity
  8
06-99
100
AcDbText
 10
956.736931058573
 20
226.6666666666663
 30
0.0
 40
16.875
  1
1:5
  7
ROMANS8
100
AcDbAttribute
280
     0
  2
:
 70
     0
280
     0
  0
ATTRIB
  5
298
330
221
100
AcDbEntity
  8
06-99
100
AcDbText
 10
464.985338996837
 20
137.208427340156
 30
0.0
 40
12.5
  1
Pfrepper
 41
0.9
  7
ROMANS8
100
AcDbAttribute
280
     0
  2
NAME
 70
     0
280
     0
  0
ATTRIB
  5
299
330
221
100
AcDbEntity
  8
06-99
100
AcDbText
 10
397.4657322594703
 20
137.3061758705557
 30
0.0
 40
12.5
  1
18.10.2012
 50
359.9144597696142
 41
0.5831572030906816
  7
ROMANS8
 72
     5
 11
453.698685602194
 21
137.222222333333
 31
0.0
100
AcDbAttribute
280
     0
  2
DATUM
 70
     0
280
     0
  0
ATTRIB
  5
29A
330
221
100
AcDbEntity
  8
06-99
100
AcDbText
 10
892.5317198357914
 20
37.46449900144313
 30
0.0
 40
14.9688
  1
769048
  7
ROMANS8
100
AcDbAttribute
280
     0
  2
ID.NR
 70
     0
280
     0
  0
ATTRIB
  5
29B
330
221
100
AcDbEntity
  8
06-99
100
AcDbText
 10
583.6563312785528
 20
188.3333332222218
 30
0.0
 40
15.0
  1

 41
0.9
  7
ROMANS8
100
AcDbAttribute
280
     0
  2
LÄNGE
 70
     0
280
     0
  0
ATTRIB
  5
29C
330
221
100
AcDbEntity
  8
06-99
100
AcDbText
 10
750.9040245588488
 20
188.3905193522237
 30
0.0
 40
15.0
  1

 41
0.9
  7
ROMANS8
100
AcDbAttribute
280
     0
  2
BREITE
 70
     0
280
     0
  0
ATTRIB
  5
29D
330
221
100
AcDbEntity
  8
06-99
100
AcDbText
 10
953.0454606336594
 20
188.3333333333334
 30
0.0
 40
15.46875
  1

  7
ROMANS8
100
AcDbAttribute
280
     0
  2
1.0
 70
     0
280
     0
  0
ATTRIB
  5
29E
330
221
100
AcDbEntity
  8
06-99
100
AcDbText
 10
820.6389280070135
 20
226.6666666666669
 30
0.0
 40
15.0
  1

  7
ROMANS8
 72
     1
 11
820.6389280070135
 21
226.6666666666669
 31
0.0
100
AcDbAttribute
280
     0
  2
IV
 70
     0
280
     0
  0
ATTRIB
  5
29F
330
221
100
AcDbEntity
  8
06-99
100
AcDbText
 10
616.3737026805794
 20
226.6666666666662
 30
0.0
 40
16.875
  1
1.4301
  7
ROMANS8
100
AcDbAttribute
280
     0
  2
1.4301
 70
     0
280
     0
  0
ATTRIB
  5
2A0
330
221
100
AcDbEntity
  8
06-99
100
AcDbText
 10
730.0031694344006
 20
37.52198302177277
 30
0.0
 40
15.84
  1

 41
0.9000000000000001
  7
ROMANS8
100
AcDbAttribute
280
     0
  2
AUFTRAGS.NR.
 70
     0
280
     0
  0
ATTRIB
  5
2A1
330
221
100
AcDbEntity
  8
06-99
100
AcDbText
 10
582.5
 20
37.49999999999972
 30
0.0
 40
15.84
  1

 41
0.9000000000000001
  7
ROMANS8
100
AcDbAttribute
280
     0
  2
SONDER-NR
 70
     0
280
     0
  0
ATTRIB
  5
2A2
330
221
100
AcDbEntity
  8
06-99
100
AcDbText
 10
232.4987549750415
 20
33.00905034629892
 30
0.0
 40
7.5
  1

 41
0.9
  7
ROMANS8
100
AcDbAttribute
280
     0
  2
ERSETZT.DURCH
 70
     0
280
     0
  0
ATTRIB
  5
2A3
330
221
100
AcDbEntity
  8
06-99
100
AcDbText
 10
107.4973389009926
 20
32.98728198936175
 30
0.0
 40
7.5
  1

 41
0.9
  7
ROMANS8
100
AcDbAttribute
280
     0
  2
ERSETZT.FÜR
 70
     0
280
     0
  0
ATTRIB
  5
2A4
330
221
100
AcDbEntity
  8
06-99
100
AcDbText
 10
499.865363232188
 20
238.3425557000396
 30
0.0
 40
6.435
  1
DIN A4
  7
ROMANS8
 72
     1
 11
516.2592918036165
 21
238.3425557000396
 31
0.0
100
AcDbAttribute
280
     0
  2
FORMAT
 70
     0
280
     0
  0
ATTRIB
  5
2A5
330
221
100
AcDbEntity
  8
06-99
100
AcDbText
 10
479.9371949870315
 20
185.9848366693234
 30
0.0
 40
11.7
  1
DIN 2768
  7
ROMANS8
 72
     1
 11
520.0514807013172
 21
185.9848366693234
 31
0.0
100
AcDbAttribute
280
     0
  2
NORM2
 70
     0
280
     0
  0
ATTRIB
  5
2A6
330
221
100
AcDbEntity
  8
06-99
100
AcDbText
 10
464.0586235584598
 20
205.1515033359899
 30
0.0
 40
11.7
  1
DIN 6930-M
  7
ROMANS8
 72
     1
 11
517.5443378441741
 21
205.1515033359899
 31
0.0
100
AcDbAttribute
280
     0
  2
NORM1
 70
     0
280
     0
  0
SEQEND
  5
2A7
330
221
100
AcDbEntity
  8
09-01
  0
CIRCLE
  5
2A8
330
2
100
AcDbEntity
  8
03-01
100
AcDbCircle
 10
332.1240563300881
 20
850.8213521794493
 30
0.0
 40
3.25
  0
LINE
  5
2A9
330
2
100
AcDbEntity
  8
05-01
100
AcDbLine
 10
332.1240563300881
 20
855.0713521794492
 30
0.0
 11
332.1240563300881
 21
846.5713521794492
 31
0.0
  0
LINE
  5
2AA
330
2
100
AcDbEntity
  8
05-01
100
AcDbLine
 10
327.8740563300881
 20
850.8213521794493
 30
0.0
 11
336.3740563300881
 21
850.8213521794493
 31
0.0
  0
DIMENSION
  5
2AB
330
2
100
AcDbEntity
  8
09-01
100
AcDbDimension
280
     0
  2
*D26
 10
426.3740563300879
 20
787.1297809142784
 30
0.0
 11
395.5333066269456
 21
799.0522674734498
 31
0.0
 70
   128
 71
     5
 42
12.5
 73
     0
 74
     0
 75
     0
  3
Wagner$0
100
AcDbAlignedDimension
 13
413.8740563300879
 23
818.8213521794493
 33
0.0
 14
426.3740563300879
 24
818.8213521794493
 34
0.0
100
AcDbRotatedDimension
1001
ACAD
1000
DSTYLE
1002
{
1070
    40
1040
5.0
1070
   179
1070
     8
1002
}
  0
DIMENSION
  5
2BC
330
2
100
AcDbEntity
  8
09-01
100
AcDbDimension
280
     0
  2
*D25
 10
422.6240563300879
 20
843.8806023111361
 30
0.0
 11
399.6310029156381
 21
852.511938548189
 31
0.0
 70
   128
 71
     5
 42
5.0
 73
     0
 74
     0
 75
     0
  3
Wagner$0
100
AcDbAlignedDimension
 13
417.6240563300878
 23
830.8213521794492
 33
0.0
 14
422.6240563300879
 24
830.8213521794492
 34
0.0
100
AcDbRotatedDimension
1001
ACAD
1000
DSTYLE
1002
{
1070
    40
1040
5.0
1070
   179
1070
     8
1002
}
  0
DIMENSION
  5
2CB
330
2
100
AcDbEntity
  8
09-01
100
AcDbDimension
280
     0
  2
*D24
 10
403.5427577994929
 20
1215.821352179449
 30
0.0
 11
394.4335825016102
 21
1192.805003845271
 31
0.0
 70
   128
 71
     5
 42
12.0
 73
     0
 74
     0
 75
     0
  3
Wagner$0
100
AcDbAlignedDimension
 13
416.6240563300883
 23
1227.821352179449
 33
0.0
 14
412.8740563300883
 24
1215.821352179449
 34
0.0
 50
90.0
100
AcDbRotatedDimension
1001
ACAD
1000
DSTYLE
1002
{
1070
    40
1040
5.0
1070
   179
1070
     8
1002
}
  0
DIMENSION
  5
2DA
330
2
100
AcDbEntity
  8
09-01
100
AcDbDimension
280
     0
  2
*D23
 10
272.198663374686
 20
830.8213521794492
 30
0.0
 11
259.9499139266996
 21
1036.735162131045
 31
0.0
 70
   128
 71
     5
 42
396.9999999999999
 73
     0
 74
     0
 75
     0
  3
Wagner$0
100
AcDbAlignedDimension
 13
247.6240563300883
 23
1227.821352179449
 33
0.0
 14
247.6240563300879
 24
830.8213521794492
 34
0.0
 50
90.0
100
AcDbRotatedDimension
1001
ACAD
1000
DSTYLE
1002
{
1070
    40
1040
5.0
1070
   179
1070
     8
1002
}
  0
DIMENSION
  5
2E7
330
2
100
AcDbEntity
  8
09-01
100
AcDbDimension
280
     0
  2
*D22
 10
272.1986633746861
 20
1328.82135217945
 30
0.0
 11
260.7344670748286
 21
1270.90228688392
 31
0.0
 70
   128
 71
     5
 42
101.0000000000009
 73
     0
 74
     0
 75
     0
  3
Wagner$0
100
AcDbAlignedDimension
 13
247.6240563300883
 23
1227.821352179449
 33
0.0
 14
247.57296444945
 24
1328.82135217945
 34
0.0
 50
90.0
100
AcDbRotatedDimension
1001
ACAD
1000
DSTYLE
1002
{
1070
    40
1040
5.0
1070
   179
1070
     8
1002
}
  0
DIMENSION
  5
2F4
330
2
100
AcDbEntity
  8
09-01
100
AcDbDimension
280
     0
  2
*D21
 10
481.1240563300881
 20
1244.457670872744
 30
0.0
 11
450.6240563300882
 21
1255.839833219265
 31
0.0
 71
     5
 42
60.99999999999977
 73
     0
 74
     0
 75
     0
  3
Wagner$0
100
AcDbAlignedDimension
 13
420.1240563300883
 23
1231.321352179449
 33
0.0
 14
481.1240563300881
 24
1241.131538812355
 34
0.0
100
AcDbRotatedDimension
1001
ACAD
1000
DSTYLE
1002
{
1070
    40
1040
5.0
1070
   179
1070
     8
1002
}
  0
DIMENSION
  5
301
330
2
100
AcDbEntity
  8
09-01
100
AcDbDimension
280
     0
  2
*D20
 10
420.1240563300883
 20
1244.457670872744
 30
0.0
 11
332.1240563300884
 21
1255.839833219265
 31
0.0
 71
     5
 42
176.0
 73
     0
 74
     0
 75
     0
  3
Wagner$0
100
AcDbAlignedDimension
 13
244.1240563300883
 23
1231.321352179449
 33
0.0
 14
420.1240563300883
 24
1231.321352179449
 34
0.0
100
AcDbRotatedDimension
1001
ACAD
1000
DSTYLE
1002
{
1070
    40
1040
5.0
1070
   179
1070
     8
1002
}
  0
DIMENSION
  5
30E
330
2
100
AcDbEntity
  8
09-01
100
AcDbDimension
280
     0
  2
*D19
 10
244.1240563300883
 20
1244.457670872744
 30
0.0
 11
213.6240563300882
 21
1255.839833219265
 31
0.0
 71
     5
 42
61.00000000000022
 73
     0
 74
     0
 75
     0
  3
Wagner$0
100
AcDbAlignedDimension
 13
183.1240563300881
 23
1228.766257092408
 33
0.0
 14
244.1240563300883
 24
1231.321352179449
 34
0.0
100
AcDbRotatedDimension
1001
ACAD
1000
DSTYLE
1002
{
1070
    40
1040
5.0
1070
   179
1070
     8
1002
}
  0
DIMENSION
  5
31B
330
2
100
AcDbEntity
  8
09-01
100
AcDbDimension
280
     0
  2
*D18
 10
524.1811387099374
 20
1013.821352179449
 30
0.0
 11
512.7947130619154
 21
872.3213521794493
 31
0.0
 71
     5
 42
283.0
 73
     0
 74
     0
 75
     0
  3
Wagner$0
100
AcDbAlignedDimension
 13
481.1240563300881
 23
730.8213521794492
 33
0.0
 14
464.372769362399
 24
1013.821352179449
 34
0.0
 50
90.0
100
AcDbRotatedDimension
1001
ACAD
1000
DSTYLE
1002
{
1070
    40
1040
5.0
1070
   179
1070
     8
1002
}
  0
DIMENSION
  5
328
330
2
100
AcDbEntity
  8
09-01
100
AcDbDimension
280
     0
  2
*D17
 10
988.9702430301047
 20
1328.821352179449
 30
0.0
 11
977.5880806835834
 21
1308.821352179449
 31
0.0
 71
     5
 42
40.0
 73
     0
 74
     0
 75
     0
  3
Wagner$0
100
AcDbAlignedDimension
 13
935.7669480691143
 23
1288.821352179449
 33
0.0
 14
935.7669480691134
 24
1328.821352179449
 34
0.0
 50
90.0
100
AcDbRotatedDimension
1001
ACAD
1000
DSTYLE
1002
{
1070
    40
1040
5.0
1070
   179
1070
     8
1002
}
  0
DIMENSION
  5
335
330
2
100
AcDbEntity
  8
09-01
100
AcDbDimension
280
     0
  2
*D16
 10
988.9702430301047
 20
1288.821352179449
 30
0.0
 11
978.7104597420007
 21
1267.997850187732
 31
0.0
 70
   128
 71
     5
 42
1.999999999999545
 73
     0
 74
     0
 75
     0
  3
Wagner$0
100
AcDbAlignedDimension
 13
935.7669480691138
 23
1286.82135217945
 33
0.0
 14
935.7669480691143
 24
1288.821352179449
 34
0.0
 50
90.0
100
AcDbRotatedDimension
1001
ACAD
1000
DSTYLE
1002
{
1070
    40
1040
5.0
1070
   179
1070
     8
1002
}
  0
DIMENSION
  5
344
330
2
100
AcDbEntity
  8
09-01
100
AcDbDimension
280
     0
  2
*D15
 10
988.9702430301047
 20
1286.82135217945
 30
0.0
 11
977.5880806835834
 21
1013.82135217945
 31
0.0
 71
     5
 42
545.9999999999999
 73
     0
 74
     0
 75
     0
  3
Wagner$0
100
AcDbAlignedDimension
 13
935.7669480691138
 23
740.8213521794497
 33
0.0
 14
935.7669480691138
 24
1286.82135217945
 34
0.0
 50
90.0
100
AcDbRotatedDimension
1001
ACAD
1000
DSTYLE
1002
{
1070
    40
1040
5.0
1070
   179
1070
     8
1002
}
  0
DIMENSION
  5
351
330
2
100
AcDbEntity
  8
09-01
100
AcDbDimension
280
     0
  2
*D14
 10
988.9702430301046
 20
740.8213521794497
 30
0.0
 11
976.9189438542786
 21
756.4976738780184
 31
0.0
 70
   128
 71
     5
 42
10.00000000000045
 73
     0
 74
     0
 75
     0
  3
Wagner$0
100
AcDbAlignedDimension
 13
924.7669480691135
 23
730.8213521794492
 33
0.0
 14
935.7669480691138
 24
740.8213521794497
 34
0.0
 50
90.0
100
AcDbRotatedDimension
1001
ACAD
1000
DSTYLE
1002
{
1070
    40
1040
5.0
1070
   179
1070
     8
1002
}
  0
DIMENSION
  5
360
330
2
100
AcDbEntity
  8
09-01
100
AcDbDimension
280
     0
  2
*D13
 10
935.7669480691138
 20
701.7636879994548
 30
0.0
 11
959.5332635686359
 21
711.9363677639536
 31
0.0
 70
   128
 71
     5
 42
10.00000000000023
 73
     0
 74
     0
 75
     0
  3
Wagner$0
100
AcDbAlignedDimension
 13
925.7669480691134
 23
730.8213521794492
 33
0.0
 14
935.7669480691138
 24
740.8213521794497
 34
0.0
100
AcDbRotatedDimension
1001
ACAD
1000
DSTYLE
1002
{
1070
    40
1040
5.0
1070
   179
1070
     8
1002
}
  0
DIMENSION
  5
36F
330
2
100
AcDbEntity
  8
09-01
100
AcDbDimension
280
     0
  2
*D12
 10
925.7669480691134
 20
701.7636879994548
 30
0.0
 11
775.7669480691134
 21
713.1501136474767
 31
0.0
 71
     5
 42
300.0
 73
     0
 74
     0
 75
     0
  3
Wagner$0
100
AcDbAlignedDimension
 13
625.7669480691134
 23
730.8213521794492
 33
0.0
 14
925.7669480691134
 24
730.8213521794492
 34
0.0
100
AcDbRotatedDimension
1001
ACAD
1000
DSTYLE
1002
{
1070
    40
1040
5.0
1070
   179
1070
     8
1002
}
  0
DIMENSION
  5
37C
330
2
100
AcDbEntity
  8
09-01
100
AcDbDimension
280
     0
  2
*D11
 10
935.7669480691134
 20
1374.162080891366
 30
0.0
 11
780.7669480691134
 21
1385.548506539388
 31
0.0
 71
     5
 42
310.0
 73
     0
 74
     0
 75
     0
  3
Wagner$0
100
AcDbAlignedDimension
 13
625.7669480691134
 23
1328.821352179449
 33
0.0
 14
935.7669480691134
 24
1328.821352179449
 34
0.0
100
AcDbRotatedDimension
1001
ACAD
1000
DSTYLE
1002
{
1070
    40
1040
5.0
1070
   179
1070
     8
1002
}
  0
DIMENSION
  5
389
330
2
100
AcDbEntity
  8
09-01
100
AcDbDimension
280
     0
  2
*D10
 10
935.7669480691134
 20
1347.735158883149
 30
0.0
 11
920.7669480691135
 21
1359.121584531171
 31
0.0
 71
     5
 42
30.0
 73
     0
 74
     0
 75
     0
  3
Wagner$0
100
AcDbAlignedDimension
 13
905.7669480691135
 23
1328.821352179449
 33
0.0
 14
935.7669480691134
 24
1328.821352179449
 34
0.0
100
AcDbRotatedDimension
1001
ACAD
1000
DSTYLE
1002
{
1070
    40
1040
5.0
1070
   179
1070
     8
1002
}
  0
DIMENSION
  5
398
330
2
100
AcDbEntity
  8
09-01
100
AcDbDimension
280
     0
  2
*D9
 10
905.7669480691135
 20
1347.735158883149
 30
0.0
 11
780.7669480691134
 21
1359.11732122967
 31
0.0
 71
     5
 42
250.0
 73
     0
 74
     0
 75
     0
  3
Wagner$0
100
AcDbAlignedDimension
 13
655.7669480691134
 23
1328.821352179449
 33
0.0
 14
905.7669480691135
 24
1328.821352179449
 34
0.0
100
AcDbRotatedDimension
1001
ACAD
1000
DSTYLE
1002
{
1070
    40
1040
5.0
1070
   179
1070
     8
1002
}
  0
DIMENSION
  5
3A5
330
2
100
AcDbEntity
  8
09-01
100
AcDbDimension
280
     0
  2
*D8
 10
655.7669480691134
 20
1347.735158883149
 30
0.0
 11
640.7669480691135
 21
1359.121584531171
 31
0.0
 71
     5
 42
30.0
 73
     0
 74
     0
 75
     0
  3
Wagner$0
100
AcDbAlignedDimension
 13
625.7669480691134
 23
1328.821352179449
 33
0.0
 14
655.7669480691134
 24
1328.821352179449
 34
0.0
100
AcDbRotatedDimension
1001
ACAD
1000
DSTYLE
1002
{
1070
    40
1040
5.0
1070
   179
1070
     8
1002
}
  0
DIMENSION
  5
3B4
330
2
100
AcDbEntity
  8
09-01
100
AcDbDimension
280
     0
  2
*D7
 10
481.1240563300881
 20
1354.63039102773
 30
0.0
 11
466.1240563300881
 21
1366.016816675752
 31
0.0
 71
     5
 42
30.0
 73
     0
 74
     0
 75
     0
  3
Wagner$0
100
AcDbAlignedDimension
 13
451.1240563300881
 23
1328.82135217945
 33
0.0
 14
481.1240563300881
 24
1328.821352179449
 34
0.0
100
AcDbRotatedDimension
1001
ACAD
1000
DSTYLE
1002
{
1070
    40
1040
5.0
1070
   179
1070
     8
1002
}
  0
DIMENSION
  5
3C3
330
2
100
AcDbEntity
  8
09-01
100
AcDbDimension
280
     0
  2
*D6
 10
451.1240563300881
 20
1354.63039102773
 30
0.0
 11
332.1240563300881
 21
1366.016816675752
 31
0.0
 71
     5
 42
238.0
 73
     0
 74
     0
 75
     0
  3
Wagner$0
100
AcDbAlignedDimension
 13
213.1240563300881
 23
1328.821352179449
 33
0.0
 14
451.1240563300881
 24
1328.82135217945
 34
0.0
100
AcDbRotatedDimension
1001
ACAD
1000
DSTYLE
1002
{
1070
    40
1040
5.0
1070
   179
1070
     8
1002
}
  0
DIMENSION
  5
3D0
330
2
100
AcDbEntity
  8
09-01
100
AcDbDimension
280
     0
  2
*D5
 10
213.1240563300881
 20
1354.63039102773
 30
0.0
 11
198.1240563300881
 21
1366.016816675752
 31
0.0
 71
     5
 42
30.0
 73
     0
 74
     0
 75
     0
  3
Wagner$0
100
AcDbAlignedDimension
 13
183.1240563300881
 23
1328.821352179449
 33
0.0
 14
213.1240563300881
 24
1328.821352179449
 34
0.0
100
AcDbRotatedDimension
1001
ACAD
1000
DSTYLE
1002
{
1070
    40
1040
5.0
1070
   179
1070
     8
1002
}
  0
LINE
  5
3DF
330
2
100
AcDbEntity
  8
03-01
100
AcDbLine
 10
449.1240563300881
 20
1328.32135217945
 30
0.0
 11
449.1240563300881
 21
1264.372804312536
 31
0.0
  0
LINE
  5
3E0
330
2
100
AcDbEntity
  8
03-01
100
AcDbLine
 10
215.1240563300881
 20
1328.321352179449
 30
0.0
 11
215.1240563300881
 21
1264.372804312536
 31
0.0
  0
LINE
  5
3E1
330
2
100
AcDbEntity
  8
03-01
100
AcDbLine
 10
449.1240563300881
 20
1293.645521575283
 30
0.0
 11
215.1240563300881
 21
1293.645521575283
 31
0.0
  0
LINE
  5
3E2
330
2
100
AcDbEntity
  8
03-01
100
AcDbLine
 10
449.1240563300881
 20
1264.372804312536
 30
0.0
 11
215.1240563300881
 21
1264.372804312536
 31
0.0
  0
INSERT
  5
3E3
330
2
100
AcDbEntity
  8
03-01
100
AcDbBlockReference
  2
Drahtkorb 023180-D
 10
332.3740563300884
 20
489.331397195379
 30
0.0
 50
270.0
  0
LINE
  5
44B
330
2
100
AcDbEntity
  8
0
100
AcDbLine
 10
935.7669480691134
 20
1005.121352179449
 30
0.0
 11
937.5669480691135
 21
1005.121352179449
 31
0.0
  0
LINE
  5
44C
330
2
100
AcDbEntity
  8
0
100
AcDbLine
 10
937.5669480691135
 20
1022.121352179449
 30
0.0
 11
935.7669480691134
 21
1022.121352179449
 31
0.0
  0
LINE
  5
44D
330
2
100
AcDbEntity
  8
0
100
AcDbLine
 10
937.5669480691135
 20
1005.121352179449
 30
0.0
 11
937.5669480691135
 21
1022.121352179449
 31
0.0
  0
LINE
  5
44E
330
2
100
AcDbEntity
  8
0
100
AcDbLine
 10
939.0669480691133
 20
1006.371352179449
 30
0.0
 11
937.5669480691135
 21
1005.121352179449
 31
0.0
  0
LINE
  5
44F
330
2
100
AcDbEntity
  8
0
100
AcDbLine
 10
939.0669480691133
 20
1020.871352179449
 30
0.0
 11
937.5669480691135
 21
1022.121352179449
 31
0.0
  0
LINE
  5
450
330
2
100
AcDbEntity
  8
0
100
AcDbLine
 10
939.0669480691133
 20
1020.871352179449
 30
0.0
 11
939.0669480691133
 21
1006.371352179449
 31
0.0
  0
DIMENSION
  5
451
330
2
100
AcDbEntity
  8
01-01
100
AcDbDimension
280
     0
  2
*D3
 10
481.1240563300881
 20
1382.898960479401
 30
0.0
 11
332.1240563300881
 21
1394.281122825922
 31
0.0
 71
     5
 42
298.0
 73
     0
 74
     0
 75
     0
  3
Wagner$0
100
AcDbAlignedDimension
 13
183.1240563300881
 23
1328.821352179449
 33
0.0
 14
481.1240563300881
 24
1328.82135217945
 34
0.0
100
AcDbRotatedDimension
1001
ACAD
1000
DSTYLE
1002
{
1070
    40
1040
5.0
1070
   179
1070
     8
1002
}
  0
LINE
  5
461
330
2
100
AcDbEntity
  8
05-01
100
AcDbLine
 10
463.1240563300881
 20
389.3244554779625
 30
0.0
 11
201.124056330088
 21
389.3244554779627
 31
0.0
  0
LINE
  5
462
330
2
100
AcDbEntity
  8
0
100
AcDbLine
 10
442.8240563300877
 20
329.3244554779627
 30
0.0
 11
442.8240563300877
 21
327.5244554779628
 31
0.0
  0
LINE
  5
463
330
2
100
AcDbEntity
  8
0
100
AcDbLine
 10
459.8240563300877
 20
327.5244554779628
 30
0.0
 11
459.8240563300877
 21
329.3244554779627
 31
0.0
  0
LINE
  5
464
330
2
100
AcDbEntity
  8
0
100
AcDbLine
 10
442.8240563300877
 20
327.5244554779628
 30
0.0
 11
459.8240563300877
 21
327.5244554779628
 31
0.0
  0
LINE
  5
465
330
2
100
AcDbEntity
  8
0
100
AcDbLine
 10
444.0740563300876
 20
326.0244554779628
 30
0.0
 11
442.8240563300877
 21
327.5244554779628
 31
0.0
  0
LINE
  5
466
330
2
100
AcDbEntity
  8
0
100
AcDbLine
 10
458.5740563300877
 20
326.0244554779628
 30
0.0
 11
459.8240563300877
 21
327.5244554779628
 31
0.0
  0
LINE
  5
467
330
2
100
AcDbEntity
  8
0
100
AcDbLine
 10
458.5740563300877
 20
326.0244554779628
 30
0.0
 11
444.0740563300876
 21
326.0244554779628
 31
0.0
  0
LINE
  5
468
330
2
100
AcDbEntity
  8
0
100
AcDbLine
 10
183.1240563300881
 20
329.3244554779628
 30
0.0
 11
481.1240563300881
 21
329.3244554779628
 31
0.0
  0
LINE
  5
469
330
2
100
AcDbEntity
  8
03-01
100
AcDbLine
 10
183.124056330088
 20
339.3244554779627
 30
0.0
 11
481.1240563300881
 21
339.3244554779623
 31
0.0
  0
CIRCLE
  5
46A
330
2
100
AcDbEntity
  8
0
100
AcDbCircle
 10
452.124056330089
 20
1013.821352179449
 30
0.0
 40
8.5
  0
CIRCLE
  5
46B
330
2
100
AcDbEntity
  8
0
100
AcDbCircle
 10
452.124056330089
 20
1013.821352179449
 30
0.0
 40
5.799999999999999
  0
LINE
  5
46C
330
2
100
AcDbEntity
  8
0
100
AcDbLine
 10
448.9286281680449
 20
1015.071352179449
 30
0.0
 11
448.9286281680449
 21
1012.571352179449
 31
0.0
  0
LINE
  5
46D
330
2
100
AcDbEntity
  8
0
100
AcDbLine
 10
456.924056330089
 20
1015.071352179449
 30
0.0
 11
456.924056330089
 21
1012.571352179449
 31
0.0
  0
LWPOLYLINE
  5
46E
330
2
100
AcDbEntity
  8
0
100
AcDbPolyline
 90
        2
 70
     0
 43
0.0
 10
455.1226648039748
 20
1015.071352179449
 10
456.924056330089
 20
1015.071352179449
  0
LWPOLYLINE
  5
46F
330
2
100
AcDbEntity
  8
0
100
AcDbPolyline
 90
        2
 70
     0
 43
0.0
 10
448.9286281680449
 20
1015.071352179449
 10
450.7925377850527
 20
1015.071352179449
  0
LWPOLYLINE
  5
470
330
2
100
AcDbEntity
  8
0
100
AcDbPolyline
 90
        2
 70
     0
 43
0.0
 10
455.1226648039748
 20
1012.571352179449
 10
456.924056330089
 20
1012.571352179449
  0
LWPOLYLINE
  5
471
330
2
100
AcDbEntity
  8
0
100
AcDbPolyline
 90
        2
 70
     0
 43
0.0
 10
448.9286281680449
 20
1012.571352179449
 10
450.7925377850527
 20
1012.571352179449
  0
ARC
  5
472
330
2
100
AcDbEntity
  8
0
100
AcDbCircle
 10
452.9576012945137
 20
1013.821352179449
 30
0.0
 40
2.5
100
AcDbArc
 50
210.0000000000005
 51
329.9999999999995
  0
ARC
  5
473
330
2
100
AcDbEntity
  8
0
100
AcDbCircle
 10
452.9576012945137
 20
1013.821352179449
 30
0.0
 40
2.5
100
AcDbArc
 50
30.00000000000055
 51
149.9999999999994
  0
CIRCLE
  5
474
330
2
100
AcDbEntity
  8
0
100
AcDbCircle
 10
452.124056330089
 20
1013.821352179449
 30
0.0
 40
7.25
  0
LINE
  5
475
330
2
100
AcDbEntity
  8
0
100
AcDbLine
 10
184.124056330089
 20
1286.82135217945
 30
0.0
 11
480.1240563300882
 21
1286.82135217945
 31
0.0
  0
LINE
  5
476
330
2
100
AcDbEntity
  8
0
100
AcDbLine
 10
480.1240563300888
 20
740.8213521794484
 30
0.0
 11
184.1240563300881
 21
740.8213521794497
 31
0.0
  0
LINE
  5
477
330
2
100
AcDbEntity
  8
0
100
AcDbLine
 10
925.7669480691134
 20
1286.82135217945
 30
0.0
 11
935.7669480691138
 21
1286.82135217945
 31
0.0
  0
LINE
  5
478
330
2
100
AcDbEntity
  8
0
100
AcDbLine
 10
925.7669480691136
 20
740.8213521794497
 30
0.0
 11
935.7669480691138
 21
740.8213521794497
 31
0.0
  0
LINE
  5
479
330
2
100
AcDbEntity
  8
0
100
AcDbLine
 10
935.7669480691138
 20
1286.82135217945
 30
0.0
 11
935.7669480691138
 21
740.8213521794497
 31
0.0
  0
LINE
  5
47A
330
2
100
AcDbEntity
  8
0
100
AcDbLine
 10
925.7669480691136
 20
741.8213521794497
 30
0.0
 11
925.7669480691136
 21
740.8213521794497
 31
0.0
  0
LINE
  5
47B
330
2
100
AcDbEntity
  8
0
100
AcDbLine
 10
480.1240563300888
 20
740.8213521794484
 30
0.0
 11
480.1240563300882
 21
1286.82135217945
 31
0.0
  0
LINE
  5
47C
330
2
100
AcDbEntity
  8
0
100
AcDbLine
 10
184.1240563300881
 20
740.8213521794497
 30
0.0
 11
184.124056330089
 21
1286.82135217945
 31
0.0
  0
DIMENSION
  5
47D
330
2
100
AcDbEntity
  8
01-01
100
AcDbDimension
280
     0
  2
*D2
 10
158.4195084421631
 20
730.8213521794492
 30
0.0
 11
147.0373460956419
 21
1029.821352179449
 31
0.0
 71
     5
 42
598.0000000000003
 73
     0
 74
     0
 75
     0
  3
Wagner$0
100
AcDbAlignedDimension
 13
183.1240563300881
 23
1328.821352179449
 33
0.0
 14
183.1240563300881
 24
730.8213521794492
 34
0.0
 50
90.0
100
AcDbRotatedDimension
1001
ACAD
1000
DSTYLE
1002
{
1070
    40
1040
5.0
1070
   179
1070
     8
1002
}
  0
LINE
  5
48A
330
2
100
AcDbEntity
  8
03-01
100
AcDbLine
 10
213.1240563300881
 20
1303.821352179449
 30
0.0
 11
451.1240563300881
 21
1303.821352179449
 31
0.0
  0
LINE
  5
48B
330
2
100
AcDbEntity
  8
05-01
100
AcDbLine
 10
463.1240563301092
 20
1312.82135217945
 30
0.0
 11
201.1240563301091
 21
1312.82135217945
 31
0.0
  0
ARC
  5
48C
330
2
100
AcDbEntity
  8
03-01
100
AcDbCircle
 10
420.1240563300879
 20
818.8213521794493
 30
0.0
 40
6.25
100
AcDbArc
 50
113.5781784781773
 51
66.42182152182269
  0
LINE
  5
48D
330
2
100
AcDbEntity
  8
05-01
100
AcDbLine
 10
412.8740563300879
 20
818.8213521794493
 30
0.0
 11
427.3740563300878
 21
818.8213521794493
 31
0.0
  0
LINE
  5
48E
330
2
100
AcDbEntity
  8
05-01
100
AcDbLine
 10
416.6240563300878
 20
830.8213521794492
 30
0.0
 11
423.6240563300879
 21
830.8213521794492
 31
0.0
  0
LINE
  5
48F
330
2
100
AcDbEntity
  8
03-01
100
AcDbLine
 10
417.6240563300878
 20
830.8213521794492
 30
0.0
 11
417.6240563300878
 21
824.5495717981444
 31
0.0
  0
ARC
  5
490
330
2
100
AcDbEntity
  8
03-01
100
AcDbCircle
 10
420.1240563300879
 20
830.8213521794492
 30
0.0
 40
2.5
100
AcDbArc
 50
0.0
 51
180.0
  0
LINE
  5
491
330
2
100
AcDbEntity
  8
03-01
100
AcDbLine
 10
422.6240563300879
 20
824.5495717981439
 30
0.0
 11
422.6240563300879
 21
830.8213521794492
 31
0.0
  0
LINE
  5
492
330
2
100
AcDbEntity
  8
05-01
100
AcDbLine
 10
420.1240563300879
 20
834.3213521794492
 30
0.0
 11
420.1240563300879
 21
811.5713521794493
 31
0.0
  0
ARC
  5
493
330
2
100
AcDbEntity
  8
03-01
100
AcDbCircle
 10
244.1240563300879
 20
818.8213521794493
 30
0.0
 40
6.25
100
AcDbArc
 50
113.5781784781773
 51
66.42182152182269
  0
LINE
  5
494
330
2
100
AcDbEntity
  8
05-01
100
AcDbLine
 10
236.8740563300879
 20
818.8213521794493
 30
0.0
 11
251.3740563300879
 21
818.8213521794493
 31
0.0
  0
LINE
  5
495
330
2
100
AcDbEntity
  8
05-01
100
AcDbLine
 10
240.6240563300879
 20
830.8213521794492
 30
0.0
 11
247.6240563300879
 21
830.8213521794492
 31
0.0
  0
LINE
  5
496
330
2
100
AcDbEntity
  8
03-01
100
AcDbLine
 10
241.6240563300879
 20
830.8213521794492
 30
0.0
 11
241.6240563300879
 21
824.5495717981444
 31
0.0
  0
ARC
  5
497
330
2
100
AcDbEntity
  8
03-01
100
AcDbCircle
 10
244.1240563300879
 20
830.8213521794492
 30
0.0
 40
2.5
100
AcDbArc
 50
0.0
 51
180.0
  0
LINE
  5
498
330
2
100
AcDbEntity
  8
03-01
100
AcDbLine
 10
246.6240563300879
 20
824.5495717981439
 30
0.0
 11
246.6240563300879
 21
830.8213521794492
 31
0.0
  0
LINE
  5
499
330
2
100
AcDbEntity
  8
05-01
100
AcDbLine
 10
244.1240563300879
 20
834.3213521794492
 30
0.0
 11
244.1240563300879
 21
811.5713521794493
 31
0.0
  0
ARC
  5
49A
330
2
100
AcDbEntity
  8
03-01
100
AcDbCircle
 10
420.1240563300883
 20
1215.821352179449
 30
0.0
 40
6.25
100
AcDbArc
 50
113.5781784781773
 51
66.42182152182269
  0
LINE
  5
49B
330
2
100
AcDbEntity
  8
05-01
100
AcDbLine
 10
412.8740563300883
 20
1215.821352179449
 30
0.0
 11
427.3740563300883
 21
1215.821352179449
 31
0.0
  0
LINE
  5
49C
330
2
100
AcDbEntity
  8
05-01
100
AcDbLine
 10
416.6240563300883
 20
1227.821352179449
 30
0.0
 11
423.6240563300883
 21
1227.821352179449
 31
0.0
  0
LINE
  5
49D
330
2
100
AcDbEntity
  8
03-01
100
AcDbLine
 10
417.6240563300884
 20
1227.821352179449
 30
0.0
 11
417.6240563300884
 21
1221.549571798144
 31
0.0
  0
ARC
  5
49E
330
2
100
AcDbEntity
  8
03-01
100
AcDbCircle
 10
420.1240563300883
 20
1227.821352179449
 30
0.0
 40
2.5
100
AcDbArc
 50
0.0
 51
180.0
  0
LINE
  5
49F
330
2
100
AcDbEntity
  8
03-01
100
AcDbLine
 10
422.6240563300883
 20
1221.549571798144
 30
0.0
 11
422.6240563300883
 21
1227.821352179449
 31
0.0
  0
LINE
  5
4A0
330
2
100
AcDbEntity
  8
05-01
100
AcDbLine
 10
420.1240563300883
 20
1231.321352179449
 30
0.0
 11
420.1240563300883
 21
1208.571352179449
 31
0.0
  0
ARC
  5
4A1
330
2
100
AcDbEntity
  8
03-01
100
AcDbCircle
 10
244.1240563300883
 20
1215.821352179449
 30
0.0
 40
6.25
100
AcDbArc
 50
113.5781784781773
 51
66.42182152182269
  0
LINE
  5
4A2
330
2
100
AcDbEntity
  8
05-01
100
AcDbLine
 10
236.8740563300884
 20
1215.821352179449
 30
0.0
 11
251.3740563300884
 21
1215.821352179449
 31
0.0
  0
LINE
  5
4A3
330
2
100
AcDbEntity
  8
05-01
100
AcDbLine
 10
240.6240563300883
 20
1227.821352179449
 30
0.0
 11
247.6240563300883
 21
1227.821352179449
 31
0.0
  0
LINE
  5
4A4
330
2
100
AcDbEntity
  8
03-01
100
AcDbLine
 10
241.6240563300883
 20
1227.821352179449
 30
0.0
 11
241.6240563300883
 21
1221.549571798144
 31
0.0
  0
ARC
  5
4A5
330
2
100
AcDbEntity
  8
03-01
100
AcDbCircle
 10
244.1240563300883
 20
1227.821352179449
 30
0.0
 40
2.5
100
AcDbArc
 50
0.0
 51
180.0
  0
LINE
  5
4A6
330
2
100
AcDbEntity
  8
03-01
100
AcDbLine
 10
246.6240563300883
 20
1221.549571798144
 30
0.0
 11
246.6240563300883
 21
1227.821352179449
 31
0.0
  0
LINE
  5
4A7
330
2
100
AcDbEntity
  8
05-01
100
AcDbLine
 10
244.1240563300883
 20
1231.321352179449
 30
0.0
 11
244.1240563300883
 21
1208.571352179449
 31
0.0
  0
LINE
  5
4A8
330
2
100
AcDbEntity
  8
0
100
AcDbLine
 10
935.7669480691143
 20
1288.821352179449
 30
0.0
 11
935.7669480691143
 21
1327.821352179449
 31
0.0
  0
LINE
  5
4A9
330
2
100
AcDbEntity
  8
0
100
AcDbLine
 10
925.7669480691134
 20
1288.821352179449
 30
0.0
 11
935.7669480691143
 21
1288.821352179449
 31
0.0
  0
DIMENSION
  5
4AA
330
2
100
AcDbEntity
  8
01-01
100
AcDbDimension
280
     0
  2
*D1
 10
606.7170306265403
 20
730.8213521794492
 30
0.0
 11
595.3348682800192
 21
1029.821352179449
 31
0.0
 71
     5
 42
598.0
 73
     0
 74
     0
 75
     0
  3
Wagner$0
100
AcDbAlignedDimension
 13
625.7669480691134
 23
1328.821352179449
 33
0.0
 14
625.7669480691134
 24
730.8213521794492
 34
0.0
 50
90.0
100
AcDbRotatedDimension
1001
ACAD
1000
DSTYLE
1002
{
1070
    40
1040
5.0
1070
   179
1070
     8
1002
}
  0
LINE
  5
4B7
330
2
100
AcDbEntity
  8
03-01
100
AcDbLine
 10
215.1240563300881
 20
1328.321352179449
 30
0.0
 11
449.1240563300881
 21
1328.32135217945
 31
0.0
  0
LINE
  5
4B8
330
2
100
AcDbEntity
  8
03-01
100
AcDbLine
 10
451.1240563300881
 20
1328.821352179449
 30
0.0
 11
451.1240563300881
 21
1303.821352179449
 31
0.0
  0
LINE
  5
4B9
330
2
100
AcDbEntity
  8
0
100
AcDbLine
 10
481.1240563300881
 20
730.8213521794492
 30
0.0
 11
481.1240563300881
 21
1328.821352179449
 31
0.0
  0
LINE
  5
4BA
330
2
100
AcDbEntity
  8
03-01
100
AcDbLine
 10
479.924056330088
 20
745.8213521794492
 30
0.0
 11
184.3240563300881
 21
745.8213521794492
 31
0.0
  0
LINE
  5
4BB
330
2
100
AcDbEntity
  8
0
100
AcDbLine
 10
481.1240563300881
 20
730.8213521794492
 30
0.0
 11
183.1240563300881
 21
730.8213521794492
 31
0.0
  0
LINE
  5
4BC
330
2
100
AcDbEntity
  8
05-01
100
AcDbLine
 10
209.0615385399261
 20
1312.821352179449
 30
0.0
 11
215.9605893792296
 21
1312.821352179449
 31
0.0
  0
LINE
  5
4BD
330
2
100
AcDbEntity
  8
03-01
100
AcDbLine
 10
213.1240563300881
 20
1328.821352179449
 30
0.0
 11
213.1240563300881
 21
1303.821352179449
 31
0.0
  0
LINE
  5
4BE
330
2
100
AcDbEntity
  8
0
100
AcDbLine
 10
184.1240563300881
 20
1288.82135217945
 30
0.0
 11
481.1240563300881
 21
1288.82135217945
 31
0.0
  0
LINE
  5
4BF
330
2
100
AcDbEntity
  8
0
100
AcDbLine
 10
183.1240563300881
 20
1328.821352179449
 30
0.0
 11
481.1240563300881
 21
1328.82135217945
 31
0.0
  0
LINE
  5
4C0
330
2
100
AcDbEntity
  8
0
100
AcDbLine
 10
183.1240563300881
 20
730.8213521794492
 30
0.0
 11
183.1240563300881
 21
1328.821352179449
 31
0.0
  0
LINE
  5
4C1
330
2
100
AcDbEntity
  8
0
100
AcDbLine
 10
183.1240563300881
 20
1288.821352179449
 30
0.0
 11
184.1240563300881
 21
1288.821352179449
 31
0.0
  0
LINE
  5
4C2
330
2
100
AcDbEntity
  8
0
100
AcDbLine
 10
213.1240563300881
 20
359.3244554779627
 30
0.0
 11
451.1240563300881
 21
359.3244554779627
 31
0.0
  0
LINE
  5
4C3
330
2
100
AcDbEntity
  8
0
100
AcDbLine
 10
184.1240563300881
 20
329.3244554779627
 30
0.0
 11
480.1240563300881
 21
329.3244554779627
 31
0.0
  0
LINE
  5
4C4
330
2
100
AcDbEntity
  8
0
100
AcDbLine
 10
451.1240563300881
 20
359.3244554779627
 30
0.0
 11
451.1240563300881
 21
609.3244554779627
 31
0.0
  0
LINE
  5
4C5
330
2
100
AcDbEntity
  8
05-01
100
AcDbLine
 10
463.1240563300881
 20
579.3244554779627
 30
0.0
 11
201.1240563300881
 21
579.3244554779627
 31
0.0
  0
LINE
  5
4C6
330
2
100
AcDbEntity
  8
0
100
AcDbLine
 10
451.1240563300881
 20
609.3244554779627
 30
0.0
 11
213.1240563300881
 21
609.3244554779626
 31
0.0
  0
LINE
  5
4C7
330
2
100
AcDbEntity
  8
0
100
AcDbLine
 10
213.1240563300881
 20
609.3244554779626
 30
0.0
 11
213.1240563300881
 21
359.3244554779627
 31
0.0
  0
LINE
  5
4C8
330
2
100
AcDbEntity
  8
0
100
AcDbLine
 10
183.1240563300881
 20
639.3244554779627
 30
0.0
 11
183.1240563300881
 21
329.3244554779628
 31
0.0
  0
LINE
  5
4C9
330
2
100
AcDbEntity
  8
0
100
AcDbLine
 10
481.1240563300881
 20
639.3244554779627
 30
0.0
 11
183.1240563300881
 21
639.3244554779627
 31
0.0
  0
LINE
  5
4CA
330
2
100
AcDbEntity
  8
0
100
AcDbLine
 10
481.1240563300881
 20
329.3244554779628
 30
0.0
 11
481.1240563300881
 21
639.3244554779627
 31
0.0
  0
LINE
  5
4CB
330
2
100
AcDbEntity
  8
03-01
100
AcDbLine
 10
626.9669480691136
 20
745.8213521794492
 30
0.0
 11
924.5669480691134
 21
745.8213521794492
 31
0.0
  0
LINE
  5
4CC
330
2
100
AcDbEntity
  8
0
100
AcDbLine
 10
626.7669480691134
 20
730.8213521794492
 30
0.0
 11
924.7669480691135
 21
730.8213521794492
 31
0.0
  0
LINE
  5
4CD
330
2
100
AcDbEntity
  8
0
100
AcDbLine
 10
925.7669480691134
 20
1288.821352179449
 30
0.0
 11
935.7669480691134
 21
1288.821352179449
 31
0.0
  0
LINE
  5
4CE
330
2
100
AcDbEntity
  8
0
100
AcDbLine
 10
935.7669480691134
 20
1288.821352179449
 30
0.0
 11
935.7669480691134
 21
1328.821352179449
 31
0.0
  0
LINE
  5
4CF
330
2
100
AcDbEntity
  8
05-01
100
AcDbLine
 10
685.7669480691135
 20
1308.621352179449
 30
0.0
 11
685.7669480691135
 21
1317.021352179449
 31
0.0
  0
LINE
  5
4D0
330
2
100
AcDbEntity
  8
05-01
100
AcDbLine
 10
689.9669480691133
 20
1312.821352179449
 30
0.0
 11
681.5669480691136
 21
1312.821352179449
 31
0.0
  0
CIRCLE
  5
4D1
330
2
100
AcDbEntity
  8
03-01
100
AcDbCircle
 10
685.7669480691135
 20
1312.821352179449
 30
0.0
 40
3.2
  0
LINE
  5
4D2
330
2
100
AcDbEntity
  8
03-01
100
AcDbLine
 10
656.4385238180808
 20
1328.121352179449
 30
0.0
 11
699.7722700671825
 21
1328.121352179449
 31
0.0
  0
LINE
  5
4D3
330
2
100
AcDbEntity
  8
03-01
100
AcDbLine
 10
699.7722700671825
 20
1328.121352179449
 30
0.0
 11
779.1765136435275
 21
1306.845049237563
 31
0.0
  0
ARC
  5
4D4
330
2
100
AcDbEntity
  8
03-01
100
AcDbCircle
 10
778.8141669803841
 20
1305.492753080758
 30
0.0
 40
1.4000000000001
100
AcDbArc
 50
255.0000000000056
 51
75.00000000000555
  0
LINE
  5
4D5
330
2
100
AcDbEntity
  8
03-01
100
AcDbLine
 10
778.4518203172407
 20
1304.140456923954
 30
0.0
 11
772.3872927178559
 21
1307.007773613177
 31
0.0
  0
LINE
  5
4D6
330
2
100
AcDbEntity
  8
09-01
100
AcDbLine
 10
655.7669480691134
 20
1328.821352179449
 30
0.0
 11
905.7669480691135
 21
1328.821352179449
 31
0.0
  0
LINE
  5
4D7
330
2
100
AcDbEntity
  8
03-01
100
AcDbLine
 10
905.7669480691133
 20
1303.821352179449
 30
0.0
 11
655.7669480691133
 21
1303.821352179449
 31
0.0
  0
LINE
  5
4D8
330
2
100
AcDbEntity
  8
05-01
100
AcDbLine
 10
692.0169480691135
 20
1312.821352179449
 30
0.0
 11
679.5169480691135
 21
1312.821352179449
 31
0.0
  0
LINE
  5
4D9
330
2
100
AcDbEntity
  8
05-01
100
AcDbLine
 10
685.7669480691135
 20
1319.071352179449
 30
0.0
 11
685.7669480691135
 21
1306.571352179449
 31
0.0
  0
LINE
  5
4DA
330
2
100
AcDbEntity
  8
03-01
100
AcDbLine
 10
655.7669480691134
 20
1328.821352179449
 30
0.0
 11
655.7669480691133
 21
1303.821352179449
 31
0.0
  0
LINE
  5
4DB
330
2
100
AcDbEntity
  8
0
100
AcDbLine
 10
625.7669480691134
 20
1328.821352179449
 30
0.0
 11
655.7669480691134
 21
1328.821352179449
 31
0.0
  0
LINE
  5
4DC
330
2
100
AcDbEntity
  8
0
100
AcDbLine
 10
625.7669480691134
 20
1328.821352179449
 30
0.0
 11
625.7669480691134
 21
730.8213521794492
 31
0.0
  0
LINE
  5
4DD
330
2
100
AcDbEntity
  8
0
100
AcDbLine
 10
924.7669480691135
 20
730.8213521794492
 30
0.0
 11
925.7669480691134
 21
730.8213521794492
 31
0.0
  0
LINE
  5
4DE
330
2
100
AcDbEntity
  8
03-01
100
AcDbLine
 10
905.7669480691135
 20
1328.821352179449
 30
0.0
 11
905.7669480691133
 21
1303.821352179449
 31
0.0
  0
LINE
  5
4DF
330
2
100
AcDbEntity
  8
0
100
AcDbLine
 10
935.7669480691134
 20
1328.821352179449
 30
0.0
 11
905.7669480691135
 21
1328.821352179449
 31
0.0
  0
LINE
  5
4E0
330
2
100
AcDbEntity
  8
0
100
AcDbLine
 10
925.7669480691134
 20
1288.821352179449
 30
0.0
 11
925.7669480691134
 21
730.8213521794492
 31
0.0
  0
ENDSEC
  0
SECTION
  2
OBJECTS
  0
DICTIONARY
  5
B
330
0
100
AcDbDictionary
281
     1
  3
ACAD_COLOR
350
4D
  3
ACAD_GROUP
350
3A
  3
ACAD_LAYOUT
350
18
  3
ACAD_MATERIAL
350
D
  3
ACAD_MLEADERSTYLE
350
50
  3
ACAD_MLINESTYLE
350
3B
  3
ACAD_PLOTSETTINGS
350
3C
  3
ACAD_PLOTSTYLENAME
350
A
  3
ACAD_SCALELIST
350
4E
  3
ACAD_TABLESTYLE
350
4F
  3
ACAD_VISUALSTYLE
350
2E
  3
ACDB_RECOMPOSE_DATA
350
4ED
  3
AcDbVariableDictionary
350
4E3
  0
DICTIONARY
  5
31
330
2B
100
AcDbDictionary
280
     1
281
     1
  0
DICTIONARY
  5
20
330
1F
100
AcDbDictionary
280
     1
281
     1
  3
ACAD_LAYERSTATES
360
21
  0
DICTIONARY
  5
7
330
6
100
AcDbDictionary
280
     1
281
     1
  3
ADSK_XREC_LAYER_RECONCILED
360
8
  0
DICTIONARY
  5
453
330
452
100
AcDbDictionary
280
     1
281
     1
  3
ADSK_XREC_LAYER_RECONCILED
360
454
  0
DICTIONARY
  5
80
330
7F
100
AcDbDictionary
280
     1
281
     1
  3
ADSK_XREC_LAYER_RECONCILED
360
81
  0
DICTIONARY
  5
215
330
214
100
AcDbDictionary
280
     1
281
     1
  3
ADSK_XREC_LAYER_RECONCILED
360
216
  0
DICTIONARY
  5
52
330
51
100
AcDbDictionary
280
     1
281
     1
  3
ADSK_XREC_LAYER_RECONCILED
360
53
  0
DICTIONARY
  5
228
330
227
100
AcDbDictionary
280
     1
281
     1
  3
ADSK_XREC_LAYER_RECONCILED
360
229
  0
DICTIONARY
  5
266
330
265
100
AcDbDictionary
280
     1
281
     1
  3
ADSK_XREC_LAYER_RECONCILED
360
267
  0
DICTIONARY
  5
22E
330
22D
100
AcDbDictionary
280
     1
281
     1
  3
ADSK_XREC_LAYER_RECONCILED
360
22F
  0
DICTIONARY
  5
250
330
24F
100
AcDbDictionary
280
     1
281
     1
  3
ADSK_XREC_LAYER_RECONCILED
360
251
  0
DICTIONARY
  5
3
330
2
100
AcDbDictionary
280
     1
281
     1
  3
ACAD_SORTENTS
360
4E2
  0
DICTIONARY
  5
223
330
222
100
AcDbDictionary
280
     1
281
     1
  3
ACAD_SORTENTS
360
4E1
  0
DICTIONARY
  5
4D
102
{ACAD_REACTORS
330
B
102
}
330
B
100
AcDbDictionary
281
     1
  0
DICTIONARY
  5
3A
102
{ACAD_REACTORS
330
B
102
}
330
B
100
AcDbDictionary
281
     1
  0
DICTIONARY
  5
18
102
{ACAD_REACTORS
330
B
102
}
330
B
100
AcDbDictionary
281
     1
  3
Layout1
350
1E
  3
Model
350
17
  0
DICTIONARY
  5
D
102
{ACAD_REACTORS
330
B
102
}
330
B
100
AcDbDictionary
281
     1
  3
ByBlock
350
45
  3
ByLayer
350
3D
  3
Global
350
C
  0
DICTIONARY
  5
50
102
{ACAD_REACTORS
330
B
102
}
330
B
100
AcDbDictionary
281
     1
  0
DICTIONARY
  5
3B
102
{ACAD_REACTORS
330
B
102
}
330
B
100
AcDbDictionary
281
     1
  3
Standard
350
54
  0
DICTIONARY
  5
3C
102
{ACAD_REACTORS
330
B
102
}
330
B
100
AcDbDictionary
281
     1
  0
ACDBDICTIONARYWDFLT
  5
A
102
{ACAD_REACTORS
330
B
102
}
330
B
100
AcDbDictionary
281
     1
  3
Normal
350
9
100
AcDbDictionaryWithDefault
340
9
  0
DICTIONARY
  5
4E
102
{ACAD_REACTORS
330
B
102
}
330
B
100
AcDbDictionary
281
     1
  3
A0
350
5D
  3
A1
350
5E
  3
A2
350
5F
  3
A3
350
60
  3
A4
350
61
  3
A5
350
62
  3
A6
350
63
  3
A7
350
64
  3
A8
350
65
  3
A9
350
66
  3
B0
350
67
  3
B1
350
68
  3
B2
350
69
  3
B3
350
6A
  3
B4
350
6B
  3
B5
350
6C
  3
B6
350
6D
  3
B7
350
6E
  3
B8
350
6F
  3
B9
350
70
  3
C0
350
71
  3
C1
350
72
  3
C2
350
73
  3
C3
350
74
  3
C4
350
75
  3
C5
350
76
  3
C6
350
77
  3
C7
350
78
  3
C8
350
79
  3
C9
350
7A
  3
D0
350
7B
  3
D1
350
7C
  3
D2
350
7D
  0
DICTIONARY
  5
4F
102
{ACAD_REACTORS
330
B
102
}
330
B
100
AcDbDictionary
281
     1
  3
Standard
350
55
  0
DICTIONARY
  5
2E
102
{ACAD_REACTORS
330
B
102
}
330
B
100
AcDbDictionary
281
     1
  3
2dWireframe
350
2D
  3
3dWireframe
350
5A
  3
Realistic
350
57
  0
XRECORD
  5
4ED
102
{ACAD_REACTORS
330
B
102
}
330
B
100
AcDbXrecord
280
     1
 90
        1
330
55
  0
DICTIONARY
  5
4E3
102
{ACAD_REACTORS
330
B
102
}
330
B
100
AcDbDictionary
281
     1
  3
CANNOSCALE
350
4E7
  3
CMLEADERSTYLE
350
4E5
  3
CTABLESTYLE
350
4E4
  3
LAYEREVAL
350
4E9
  3
LAYERNOTIFY
350
4EA
  3
LIGHTINGUNITS
350
4E8
  3
MSLTSCALE
350
4E6
  0
DICTIONARY
  5
21
102
{ACAD_REACTORS
330
20
102
}
330
20
100
AcDbDictionary
281
     1
  0
XRECORD
  5
8
102
{ACAD_REACTORS
330
7
102
}
330
7
100
AcDbXrecord
280
     1
290
     1
  0
XRECORD
  5
454
102
{ACAD_REACTORS
330
453
102
}
330
453
100
AcDbXrecord
280
     1
290
     1
  0
XRECORD
  5
81
102
{ACAD_REACTORS
330
80
102
}
330
80
100
AcDbXrecord
280
     1
290
     1
  0
XRECORD
  5
216
102
{ACAD_REACTORS
330
215
102
}
330
215
100
AcDbXrecord
280
     1
290
     1
  0
XRECORD
  5
53
102
{ACAD_REACTORS
330
52
102
}
330
52
100
AcDbXrecord
280
     1
290
     1
  0
XRECORD
  5
229
102
{ACAD_REACTORS
330
228
102
}
330
228
100
AcDbXrecord
280
     1
290
     1
  0
XRECORD
  5
267
102
{ACAD_REACTORS
330
266
102
}
330
266
100
AcDbXrecord
280
     1
290
     1
  0
XRECORD
  5
22F
102
{ACAD_REACTORS
330
22E
102
}
330
22E
100
AcDbXrecord
280
     1
290
     1
  0
XRECORD
  5
251
102
{ACAD_REACTORS
330
250
102
}
330
250
100
AcDbXrecord
280
     1
290
     1
  0
SORTENTSTABLE
  5
4E2
102
{ACAD_REACTORS
330
3
102
}
330
3
100
AcDbSortentsTable
330
2
331
21E
  5
4D7
331
21A
  5
4DB
331
475
  5
48E
331
471
  5
492
331
46D
  5
496
331
469
  5
49A
331
4A8
  5
44C
331
465
  5
49E
331
4A4
  5
450
331
4DF
  5
14A
331
4A0
  5
463
331
4DB
  5
21A
331
461
  5
4A2
331
49C
  5
467
331
4D7
  5
21E
331
498
  5
46B
331
4D3
  5
2A8
331
3B4
  5
4BD
331
2F4
  5
4CB
331
3E3
  5
4AA
331
494
  5
46F
331
4CF
  5
2BC
331
490
  5
473
331
4CB
  5
2F4
331
451
  5
4A3
331
48C
  5
477
331
4C7
  5
328
331
44D
  5
4A7
331
4C3
  5
360
331
3DF
  5
4BA
331
2A9
  5
4D2
331
398
  5
4BF
331
4BF
  5
398
331
4BB
  5
3D0
331
221
  5
4D4
331
47C
  5
47B
331
4B7
  5
3E2
331
7E
  5
4E0
331
478
  5
48B
331
31B
  5
4C8
331
351
  5
4C4
331
3C3
  5
4BC
331
21D
  5
4D8
331
219
  5
4DC
331
474
  5
48F
331
470
  5
493
331
46C
  5
497
331
468
  5
49B
331
37C
  5
4C1
331
4A7
  5
44D
331
4DE
  5
213
331
464
  5
49F
331
4A3
  5
451
331
49F
  5
464
331
4DA
  5
21B
331
49B
  5
468
331
4D6
  5
21F
331
4D2
  5
2A9
331
2BC
  5
4CF
331
3E2
  5
4B7
331
497
  5
46C
331
493
  5
470
331
4CE
  5
2CB
331
48F
  5
474
331
4CA
  5
301
331
450
  5
4A4
331
14A
  5
4DF
331
44C
  5
4A8
331
48B
  5
478
331
4C6
  5
335
331
4C2
  5
36F
331
2E7
  5
4CC
331
360
  5
4C3
331
2A8
  5
4D3
331
4BE
  5
3A5
331
4BA
  5
3DF
331
220
  5
4D5
331
47B
  5
47C
331
21C
  5
4D9
331
477
  5
48C
331
218
  5
4DD
331
473
  5
490
331
46F
  5
494
331
46B
  5
498
331
30E
  5
4C9
331
4AA
  5
3E3
331
2CB
  5
4CE
331
467
  5
49C
331
4A6
  5
44E
331
4DD
  5
218
331
463
  5
4A0
331
4A2
  5
461
331
49E
  5
465
331
4D9
  5
21C
331
49A
  5
469
331
4D5
  5
220
331
4D1
  5
2AA
331
335
  5
4C6
331
36F
  5
4C2
331
3E1
  5
4B8
331
496
  5
46D
331
4CD
  5
2DA
331
492
  5
471
331
48E
  5
475
331
4C9
  5
30E
331
44F
  5
4A5
331
44B
  5
4A9
331
48A
  5
479
331
4C5
  5
344
331
4C1
  5
37C
331
2AB
  5
4D0
331
4BD
  5
3B4
331
4B9
  5
3E0
331
47A
  5
47D
331
2DA
  5
4CD
331
21F
  5
4D6
331
21B
  5
4DA
331
476
  5
48D
331
472
  5
491
331
213
  5
4DE
331
46E
  5
495
331
46A
  5
499
331
4A9
  5
44B
331
4E0
  5
7E
331
344
  5
4C5
331
301
  5
4CA
331
466
  5
49D
331
4A5
  5
44F
331
4A1
  5
462
331
4DC
  5
219
331
462
  5
4A1
331
49D
  5
466
331
4D8
  5
21D
331
499
  5
46A
331
4D4
  5
221
331
4D0
  5
2AB
331
3E0
  5
4B9
331
495
  5
46E
331
4CC
  5
2E7
331
491
  5
472
331
48D
  5
476
331
4C8
  5
31B
331
44E
  5
4A6
331
4C4
  5
351
331
4C0
  5
389
331
328
  5
4C7
331
3A5
  5
4BE
331
2AA
  5
4D1
331
3D0
  5
4BB
331
4BC
  5
3C3
331
47D
  5
47A
331
4B8
  5
3E1
331
479
  5
48A
331
389
  5
4C0
  0
SORTENTSTABLE
  5
4E1
102
{ACAD_REACTORS
330
223
102
}
330
223
100
AcDbSortentsTable
330
222
  0
LAYOUT
  5
1E
102
{ACAD_REACTORS
330
18
102
}
330
18
100
AcDbPlotSettings
  1

  2
HP LaserJet 4 Plus
  4

  6

 40
0.0
 41
0.0
 42
0.0
 43
0.0
 44
0.0
 45
0.0
 46
0.0
 47
0.0
 48
0.0
 49
0.0
140
0.0
141
0.0
142
1.0
143
1.0
 70
   688
 72
     0
 73
     0
 74
     5
  7
CNC-Soft.ctb
 75
    16
147
1.0
 76
     0
 77
     2
 78
   300
148
0.0
149
0.0
100
AcDbLayout
  1
Layout1
 70
     0
 71
     1
 10
0.0
 20
0.0
 11
12.0
 21
9.0
 12
0.0
 22
0.0
 32
0.0
 14
1.000000000000000E+20
 24
1.000000000000000E+20
 34
1.000000000000000E+20
 15
-1.000000000000000E+20
 25
-1.000000000000000E+20
 35
-1.000000000000000E+20
146
0.0
 13
0.0
 23
0.0
 33
0.0
 16
1.0
 26
0.0
 36
0.0
 17
0.0
 27
1.0
 37
0.0
 76
     0
330
1B
  0
LAYOUT
  5
17
102
{ACAD_XDICTIONARY
360
19
102
}
102
{ACAD_REACTORS
330
18
102
}
330
18
100
AcDbPlotSettings
  1

  2
HP LaserJet 4 Plus.pc3
  4
A4
  6

 40
6.043083190917968
 41
6.762742042541503
 42
7.736419677734375
 43
5.027069091796875
 44
209.9733276367187
 45
296.9683227539062
 46
0.0
 47
0.0
 48
0.0
 49
0.0
140
0.0
141
0.0
142
1.0
143
4.997419952486215
 70
 11952
 72
     1
 73
     0
 74
     1
  7
CNC-Soft.ctb
 75
     0
147
0.200103255181206
 76
     0
 77
     2
 78
   300
148
-52.99988043610937
149
0.0453151460337722
100
AcDbLayout
  1
Model
 70
     1
 71
     0
 10
0.0
 20
0.0
 11
12.0
 21
9.0
 12
0.0
 22
0.0
 32
0.0
 14
0.0
 24
0.0
 34
0.0
 15
0.0
 25
0.0
 35
0.0
146
0.0
 13
0.0
 23
0.0
 33
0.0
 16
1.0
 26
0.0
 36
0.0
 17
0.0
 27
1.0
 37
0.0
 76
     0
330
2
331
2C
  0
MATERIAL
  5
45
102
{ACAD_XDICTIONARY
360
46
102
}
102
{ACAD_REACTORS
330
D
102
}
330
D
100
AcDbMaterial
  1
ByBlock
 72
     0
 43
0.0208333333333333
 43
0.0
 43
0.0
 43
0.0
 43
0.0
 43
0.0208333333333333
 43
0.0
 43
0.0
 43
0.0
 43
0.0
 43
1.0
 43
0.0
 43
0.0
 43
0.0
 43
0.0
 43
1.0
 77
     0
 47
0.0208333333333333
 47
0.0
 47
0.0
 47
0.0
 47
0.0
 47
0.0208333333333333
 47
0.0
 47
0.0
 47
0.0
 47
0.0
 47
1.0
 47
0.0
 47
0.0
 47
0.0
 47
0.0
 47
1.0
171
     0
 49
0.0208333333333333
 49
0.0
 49
0.0
 49
0.0
 49
0.0
 49
0.0208333333333333
 49
0.0
 49
0.0
 49
0.0
 49
0.0
 49
1.0
 49
0.0
 49
0.0
 49
0.0
 49
0.0
 49
1.0
175
     0
142
0.0208333333333333
142
0.0
142
0.0
142
0.0
142
0.0
142
0.0208333333333333
142
0.0
142
0.0
142
0.0
142
0.0
142
1.0
142
0.0
142
0.0
142
0.0
142
0.0
142
1.0
179
     0
144
0.0208333333333333
144
0.0
144
0.0
144
0.0
144
0.0
144
0.0208333333333333
144
0.0
144
0.0
144
0.0
144
0.0
144
1.0
144
0.0
144
0.0
144
0.0
144
0.0
144
1.0
147
0.0208333333333333
147
0.0
147
0.0
147
0.0
147
0.0
147
0.0208333333333333
147
0.0
147
0.0
147
0.0
147
0.0
147
1.0
147
0.0
147
0.0
147
0.0
147
0.0
147
1.0
  0
MATERIAL
  5
3D
102
{ACAD_XDICTIONARY
360
3E
102
}
102
{ACAD_REACTORS
330
D
102
}
330
D
100
AcDbMaterial
  1
ByLayer
 72
     0
 43
0.0208333333333333
 43
0.0
 43
0.0
 43
0.0
 43
0.0
 43
0.0208333333333333
 43
0.0
 43
0.0
 43
0.0
 43
0.0
 43
1.0
 43
0.0
 43
0.0
 43
0.0
 43
0.0
 43
1.0
 77
     0
 47
0.0208333333333333
 47
0.0
 47
0.0
 47
0.0
 47
0.0
 47
0.0208333333333333
 47
0.0
 47
0.0
 47
0.0
 47
0.0
 47
1.0
 47
0.0
 47
0.0
 47
0.0
 47
0.0
 47
1.0
171
     0
 49
0.0208333333333333
 49
0.0
 49
0.0
 49
0.0
 49
0.0
 49
0.0208333333333333
 49
0.0
 49
0.0
 49
0.0
 49
0.0
 49
1.0
 49
0.0
 49
0.0
 49
0.0
 49
0.0
 49
1.0
175
     0
142
0.0208333333333333
142
0.0
142
0.0
142
0.0
142
0.0
142
0.0208333333333333
142
0.0
142
0.0
142
0.0
142
0.0
142
1.0
142
0.0
142
0.0
142
0.0
142
0.0
142
1.0
179
     0
144
0.0208333333333333
144
0.0
144
0.0
144
0.0
144
0.0
144
0.0208333333333333
144
0.0
144
0.0
144
0.0
144
0.0
144
1.0
144
0.0
144
0.0
144
0.0
144
0.0
144
1.0
147
0.0208333333333333
147
0.0
147
0.0
147
0.0
147
0.0
147
0.0208333333333333
147
0.0
147
0.0
147
0.0
147
0.0
147
1.0
147
0.0
147
0.0
147
0.0
147
0.0
147
1.0
  0
MATERIAL
  5
C
102
{ACAD_XDICTIONARY
360
E
102
}
102
{ACAD_REACTORS
330
D
102
}
330
D
100
AcDbMaterial
  1
Global
 72
     0
 43
0.0208333333333333
 43
0.0
 43
0.0
 43
0.0
 43
0.0
 43
0.0208333333333333
 43
0.0
 43
0.0
 43
0.0
 43
0.0
 43
1.0
 43
0.0
 43
0.0
 43
0.0
 43
0.0
 43
1.0
 77
     0
 47
0.0208333333333333
 47
0.0
 47
0.0
 47
0.0
 47
0.0
 47
0.0208333333333333
 47
0.0
 47
0.0
 47
0.0
 47
0.0
 47
1.0
 47
0.0
 47
0.0
 47
0.0
 47
0.0
 47
1.0
171
     0
 49
0.0208333333333333
 49
0.0
 49
0.0
 49
0.0
 49
0.0
 49
0.0208333333333333
 49
0.0
 49
0.0
 49
0.0
 49
0.0
 49
1.0
 49
0.0
 49
0.0
 49
0.0
 49
0.0
 49
1.0
175
     0
142
0.0208333333333333
142
0.0
142
0.0
142
0.0
142
0.0
142
0.0208333333333333
142
0.0
142
0.0
142
0.0
142
0.0
142
1.0
142
0.0
142
0.0
142
0.0
142
0.0
142
1.0
179
     0
144
0.0208333333333333
144
0.0
144
0.0
144
0.0
144
0.0
144
0.0208333333333333
144
0.0
144
0.0
144
0.0
144
0.0
144
1.0
144
0.0
144
0.0
144
0.0
144
0.0
144
1.0
147
0.0208333333333333
147
0.0
147
0.0
147
0.0
147
0.0
147
0.0208333333333333
147
0.0
147
0.0
147
0.0
147
0.0
147
1.0
147
0.0
147
0.0
147
0.0
147
0.0
147
1.0
  0
MLINESTYLE
  5
54
102
{ACAD_REACTORS
330
3B
102
}
330
3B
100
AcDbMlineStyle
  2
STANDARD
 70
     0
  3

 62
   256
 51
90.0
 52
90.0
 71
     2
 49
0.5
 62
   256
  6
BYLAYER
 49
-0.5
 62
   256
  6
BYLAYER
  0
ACDBPLACEHOLDER
  5
9
102
{ACAD_REACTORS
330
A
102
}
330
A
  0
SCALE
  5
5D
102
{ACAD_REACTORS
330
4E
102
}
330
4E
100
AcDbScale
 70
     0
300
1:1
140
1.0
141
1.0
290
     1
  0
SCALE
  5
5E
102
{ACAD_REACTORS
330
4E
102
}
330
4E
100
AcDbScale
 70
     0
300
1:2
140
1.0
141
2.0
290
     0
  0
SCALE
  5
5F
102
{ACAD_REACTORS
330
4E
102
}
330
4E
100
AcDbScale
 70
     0
300
1:4
140
1.0
141
4.0
290
     0
  0
SCALE
  5
60
102
{ACAD_REACTORS
330
4E
102
}
330
4E
100
AcDbScale
 70
     0
300
1:5
140
1.0
141
5.0
290
     0
  0
SCALE
  5
61
102
{ACAD_REACTORS
330
4E
102
}
330
4E
100
AcDbScale
 70
     0
300
1:8
140
1.0
141
8.0
290
     0
  0
SCALE
  5
62
102
{ACAD_REACTORS
330
4E
102
}
330
4E
100
AcDbScale
 70
     0
300
1:10
140
1.0
141
10.0
290
     0
  0
SCALE
  5
63
102
{ACAD_REACTORS
330
4E
102
}
330
4E
100
AcDbScale
 70
     0
300
1:16
140
1.0
141
16.0
290
     0
  0
SCALE
  5
64
102
{ACAD_REACTORS
330
4E
102
}
330
4E
100
AcDbScale
 70
     0
300
1:20
140
1.0
141
20.0
290
     0
  0
SCALE
  5
65
102
{ACAD_REACTORS
330
4E
102
}
330
4E
100
AcDbScale
 70
     0
300
1:30
140
1.0
141
30.0
290
     0
  0
SCALE
  5
66
102
{ACAD_REACTORS
330
4E
102
}
330
4E
100
AcDbScale
 70
     0
300
1:40
140
1.0
141
40.0
290
     0
  0
SCALE
  5
67
102
{ACAD_REACTORS
330
4E
102
}
330
4E
100
AcDbScale
 70
     0
300
1:50
140
1.0
141
50.0
290
     0
  0
SCALE
  5
68
102
{ACAD_REACTORS
330
4E
102
}
330
4E
100
AcDbScale
 70
     0
300
1:100
140
1.0
141
100.0
290
     0
  0
SCALE
  5
69
102
{ACAD_REACTORS
330
4E
102
}
330
4E
100
AcDbScale
 70
     0
300
2:1
140
2.0
141
1.0
290
     0
  0
SCALE
  5
6A
102
{ACAD_REACTORS
330
4E
102
}
330
4E
100
AcDbScale
 70
     0
300
4:1
140
4.0
141
1.0
290
     0
  0
SCALE
  5
6B
102
{ACAD_REACTORS
330
4E
102
}
330
4E
100
AcDbScale
 70
     0
300
8:1
140
8.0
141
1.0
290
     0
  0
SCALE
  5
6C
102
{ACAD_REACTORS
330
4E
102
}
330
4E
100
AcDbScale
 70
     0
300
10:1
140
10.0
141
1.0
290
     0
  0
SCALE
  5
6D
102
{ACAD_REACTORS
330
4E
102
}
330
4E
100
AcDbScale
 70
     0
300
100:1
140
100.0
141
1.0
290
     0
  0
SCALE
  5
6E
102
{ACAD_REACTORS
330
4E
102
}
330
4E
100
AcDbScale
 70
     0
300
1/128" = 1'-0"
140
0.0078125
141
12.0
290
     0
  0
SCALE
  5
6F
102
{ACAD_REACTORS
330
4E
102
}
330
4E
100
AcDbScale
 70
     0
300
1/64" = 1'-0"
140
0.015625
141
12.0
290
     0
  0
SCALE
  5
70
102
{ACAD_REACTORS
330
4E
102
}
330
4E
100
AcDbScale
 70
     0
300
1/32" = 1'-0"
140
0.03125
141
12.0
290
     0
  0
SCALE
  5
71
102
{ACAD_REACTORS
330
4E
102
}
330
4E
100
AcDbScale
 70
     0
300
1/16" = 1'-0"
140
0.0625
141
12.0
290
     0
  0
SCALE
  5
72
102
{ACAD_REACTORS
330
4E
102
}
330
4E
100
AcDbScale
 70
     0
300
3/32" = 1'-0"
140
0.09375
141
12.0
290
     0
  0
SCALE
  5
73
102
{ACAD_REACTORS
330
4E
102
}
330
4E
100
AcDbScale
 70
     0
300
1/8" = 1'-0"
140
0.125
141
12.0
290
     0
  0
SCALE
  5
74
102
{ACAD_REACTORS
330
4E
102
}
330
4E
100
AcDbScale
 70
     0
300
3/16" = 1'-0"
140
0.1875
141
12.0
290
     0
  0
SCALE
  5
75
102
{ACAD_REACTORS
330
4E
102
}
330
4E
100
AcDbScale
 70
     0
300
1/4" = 1'-0"
140
0.25
141
12.0
290
     0
  0
SCALE
  5
76
102
{ACAD_REACTORS
330
4E
102
}
330
4E
100
AcDbScale
 70
     0
300
3/8" = 1'-0"
140
0.375
141
12.0
290
     0
  0
SCALE
  5
77
102
{ACAD_REACTORS
330
4E
102
}
330
4E
100
AcDbScale
 70
     0
300
1/2" = 1'-0"
140
0.5
141
12.0
290
     0
  0
SCALE
  5
78
102
{ACAD_REACTORS
330
4E
102
}
330
4E
100
AcDbScale
 70
     0
300
3/4" = 1'-0"
140
0.75
141
12.0
290
     0
  0
SCALE
  5
79
102
{ACAD_REACTORS
330
4E
102
}
330
4E
100
AcDbScale
 70
     0
300
1" = 1'-0"
140
1.0
141
12.0
290
     0
  0
SCALE
  5
7A
102
{ACAD_REACTORS
330
4E
102
}
330
4E
100
AcDbScale
 70
     0
300
1-1/2" = 1'-0"
140
1.5
141
12.0
290
     0
  0
SCALE
  5
7B
102
{ACAD_REACTORS
330
4E
102
}
330
4E
100
AcDbScale
 70
     0
300
3" = 1'-0"
140
3.0
141
12.0
290
     0
  0
SCALE
  5
7C
102
{ACAD_REACTORS
330
4E
102
}
330
4E
100
AcDbScale
 70
     0
300
6" = 1'-0"
140
6.0
141
12.0
290
     0
  0
SCALE
  5
7D
102
{ACAD_REACTORS
330
4E
102
}
330
4E
100
AcDbScale
 70
     0
300
1'-0" = 1'-0"
140
12.0
141
12.0
290
     0
  0
TABLESTYLE
  5
55
102
{ACAD_XDICTIONARY
360
56
102
}
102
{ACAD_REACTORS
330
4F
102
}
330
4F
100
AcDbTableStyle
280
     0
  3
Standard
 70
     0
 71
     0
 40
0.06
 41
0.06
280
     0
281
     0
  7
STANDARD
140
0.18
170
     2
 62
     0
 63
     7
283
     0
 90
      512
 91
        0
  1

274
    -2
284
     1
 64
     0
275
    -2
285
     1
 65
     0
276
    -2
286
     1
 66
     0
277
    -2
287
     1
 67
     0
278
    -2
288
     1
 68
     0
279
    -2
289
     1
 69
     0
  7
STANDARD
140
0.25
170
     5
 62
     0
 63
     7
283
     0
 90
      512
 91
        0
  1

274
    -2
284
     1
 64
     0
275
    -2
285
     1
 65
     0
276
    -2
286
     1
 66
     0
277
    -2
287
     1
 67
     0
278
    -2
288
     1
 68
     0
279
    -2
289
     1
 69
     0
  7
STANDARD
140
0.18
170
     5
 62
     0
 63
     7
283
     0
 90
      512
 91
        0
  1

274
    -2
284
     1
 64
     0
275
    -2
285
     1
 65
     0
276
    -2
286
     1
 66
     0
277
    -2
287
     1
 67
     0
278
    -2
288
     1
 68
     0
279
    -2
289
     1
 69
     0
  0
VISUALSTYLE
  5
2D
102
{ACAD_XDICTIONARY
360
2F
102
}
102
{ACAD_REACTORS
330
2E
102
}
330
2E
100
AcDbVisualStyle
  2
2dWireframe
 70
     4
177
     2
291
     0
 71
     0
176
     1
 72
     2
176
     1
 73
     0
176
     1
 90
        0
176
     1
 40
0.6
176
     1
 41
30.0
176
     1
 63
     7
176
     1
 74
     1
176
     1
 91
        4
176
     1
 64
     7
176
     1
 65
   257
176
     1
 75
     1
176
     1
175
     1
176
     1
 42
1.0
176
     1
 92
        0
176
     1
 66
   257
176
     1
 43
1.0
176
     1
 76
     1
176
     1
 77
     6
176
     1
 78
     2
176
     1
 67
     7
176
     1
 79
     5
176
     1
170
     0
176
     1
171
     0
176
     1
290
     0
176
     1
 93
        1
176
     1
 44
0.0
176
     1
173
     0
176
     1
  0
VISUALSTYLE
  5
5A
102
{ACAD_XDICTIONARY
360
5B
102
}
102
{ACAD_REACTORS
330
2E
102
}
330
2E
100
AcDbVisualStyle
  2
3dWireframe
 70
     5
177
     2
291
     0
 71
     0
176
     1
 72
     2
176
     1
 73
     0
176
     1
 90
        0
176
     1
 40
0.6
176
     1
 41
30.0
176
     1
 63
     7
176
     1
 74
     1
176
     1
 91
        4
176
     1
 64
     7
176
     1
 65
   257
176
     1
 75
     1
176
     1
175
     1
176
     1
 42
1.0
176
     1
 92
        0
176
     1
 66
   257
176
     1
 43
1.0
176
     1
 76
     1
176
     1
 77
     6
176
     1
 78
     2
176
     1
 67
     7
176
     1
 79
     5
176
     1
170
     0
176
     1
171
     0
176
     1
290
     0
176
     1
 93
        1
176
     1
 44
0.0
176
     1
173
     0
176
     1
  0
VISUALSTYLE
  5
57
102
{ACAD_XDICTIONARY
360
58
102
}
102
{ACAD_REACTORS
330
2E
102
}
330
2E
100
AcDbVisualStyle
  2
Realistic
 70
     8
177
     2
291
     0
 71
     2
176
     1
 72
     2
176
     1
 73
     0
176
     1
 90
        0
176
     1
 40
0.6
176
     1
 41
30.0
176
     1
 63
     7
176
     1
 74
     1
176
     1
 91
        0
176
     1
 64
     7
176
     1
 65
   257
176
     1
 75
     1
176
     1
175
     1
176
     1
 42
1.0
176
     1
 92
        8
176
     1
 66
     8
176
     1
 43
1.0
176
     1
 76
     1
176
     1
 77
     6
176
     1
 78
     2
176
     1
 67
     7
176
     1
 79
     5
176
     1
170
     0
176
     1
171
     0
176
     1
290
     0
176
     1
 93
       13
176
     1
 44
0.0
176
     1
173
     0
176
     1
  0
DICTIONARYVAR
  5
4E7
102
{ACAD_REACTORS
330
4E3
102
}
330
4E3
100
DictionaryVariables
280
     0
  1
1:1
  0
DICTIONARYVAR
  5
4E5
102
{ACAD_REACTORS
330
4E3
102
}
330
4E3
100
DictionaryVariables
280
     0
  1
STANDARD
  0
DICTIONARYVAR
  5
4E4
102
{ACAD_REACTORS
330
4E3
102
}
330
4E3
100
DictionaryVariables
280
     0
  1
STANDARD
  0
DICTIONARYVAR
  5
4E9
102
{ACAD_REACTORS
330
4E3
102
}
330
4E3
100
DictionaryVariables
280
     0
  1
1
  0
DICTIONARYVAR
  5
4EA
102
{ACAD_REACTORS
330
4E3
102
}
330
4E3
100
DictionaryVariables
280
     0
  1
15
  0
DICTIONARYVAR
  5
4E8
102
{ACAD_REACTORS
330
4E3
102
}
330
4E3
100
DictionaryVariables
280
     0
  1
0
  0
DICTIONARYVAR
  5
4E6
102
{ACAD_REACTORS
330
4E3
102
}
330
4E3
100
DictionaryVariables
280
     0
  1
0
  0
DICTIONARY
  5
19
330
17
100
AcDbDictionary
280
     1
281
     1
  3
ADSK_XREC_LAYOUTTHUMBNAIL
360
1A
  0
DICTIONARY
  5
46
330
45
100
AcDbDictionary
280
     1
281
     1
  3
BUMPTILE
360
47
  3
DIFFUSETILE
360
48
  3
OPACITYTILE
360
49
  3
REFLECTIONTILE
360
4A
  3
REFRACTIONTILE
360
4B
  3
SPECULARTILE
360
4C
  0
DICTIONARY
  5
3E
330
3D
100
AcDbDictionary
280
     1
281
     1
  3
BUMPTILE
360
3F
  3
DIFFUSETILE
360
40
  3
OPACITYTILE
360
41
  3
REFLECTIONTILE
360
42
  3
REFRACTIONTILE
360
43
  3
SPECULARTILE
360
44
  0
DICTIONARY
  5
E
330
C
100
AcDbDictionary
280
     1
281
     1
  3
BUMPTILE
360
F
  3
DIFFUSETILE
360
10
  3
OPACITYTILE
360
11
  3
REFLECTIONTILE
360
12
  3
REFRACTIONTILE
360
13
  3
SPECULARTILE
360
14
  0
DICTIONARY
  5
56
330
55
100
AcDbDictionary
280
     1
281
     1
  3
ACAD_ROUNDTRIP_2008_TABLESTYLE_CELLSTYLEMAP
360
4EB
  0
DICTIONARY
  5
2F
330
2D
100
AcDbDictionary
280
     1
281
     1
  3
ACAD_XREC_ROUNDTRIP
360
30
  0
DICTIONARY
  5
5B
330
5A
100
AcDbDictionary
280
     1
281
     1
  3
ACAD_XREC_ROUNDTRIP
360
5C
  0
DICTIONARY
  5
58
330
57
100
AcDbDictionary
280
     1
281
     1
  3
ACAD_XREC_ROUNDTRIP
360
59
  0
XRECORD
  5
1A
102
{ACAD_REACTORS
330
19
102
}
330
19
100
AcDbXrecord
280
     1
310
280000000001000076000000010008000000000000760000000000000000000000010000000000000000000000000000FFFFFF000000000000000000000000000000000000000000000000000000000000000000330000006600000099000000CC000000FF00000000330000333300006633000099330000CC330000FF3300
310
0000660000336600006666000099660000CC660000FF66000000990000339900006699000099990000CC990000FF99000000CC000033CC000066CC000099CC0000CCCC0000FFCC000000FF000033FF000066FF000099FF0000CCFF0000FFFF000000003300330033006600330099003300CC003300FF003300003333003333
310
33006633330099333300CC333300FF33330000663300336633006666330099663300CC663300FF66330000993300339933006699330099993300CC993300FF99330000CC330033CC330066CC330099CC3300CCCC3300FFCC330000FF330033FF330066FF330099FF3300CCFF3300FFFF330000006600330066006600660099
310
006600CC006600FF00660000336600333366006633660099336600CC336600FF33660000666600336666006666660099666600CC666600FF66660000996600339966006699660099996600CC996600FF99660000CC660033CC660066CC660099CC6600CCCC6600FFCC660000FF660033FF660066FF660099FF6600CCFF6600
310
FFFF660000009900330099006600990099009900CC009900FF00990000339900333399006633990099339900CC339900FF33990000669900336699006666990099669900CC669900FF66990000999900339999006699990099999900CC999900FF99990000CC990033CC990066CC990099CC9900CCCC9900FFCC990000FF99
310
0033FF990066FF990099FF9900CCFF9900FFFF99000000CC003300CC006600CC009900CC00CC00CC00FF00CC000033CC003333CC006633CC009933CC00CC33CC00FF33CC000066CC003366CC006666CC009966CC00CC66CC00FF66CC000099CC003399CC006699CC009999CC00CC99CC00FF99CC0000CCCC0033CCCC0066CC
310
CC0099CCCC00CCCCCC00FFCCCC0000FFCC0033FFCC0066FFCC0099FFCC00CCFFCC00FFFFCC000000FF003300FF006600FF009900FF00CC00FF00FF00FF000033FF003333FF006633FF009933FF00CC33FF00FF33FF000066FF003366FF006666FF009966FF00CC66FF00FF66FF000099FF003399FF006699FF009999FF00CC
310
99FF00FF99FF0000CCFF0033CCFF0066CCFF0099CCFF00CCCCFF00FFCCFF0000FFFF0033FFFF0066FFFF0099FFFF00CCFFFF00FFFFFF00000000000D0D0D001A1A1A00282828003535350043434300505050005D5D5D006B6B6B00787878008686860093939300A1A1A100AEAEAE00BBBBBB00C9C9C900D6D6D600E4E4E400
310
F1F1F100FFFFFF000000000000000000000000000000000000000000000000000000000000000000000000000000000000000000000000000000000000000000000000000000000000000000000000000000000000000000000000000000000000000000000000000000000000000000000000000000000000000000000000
310
00000000000000000000000000000000000000000000000000000000000000000000000000000000000000000000000000000000000000000000000000000000000000000000000000000000000000000000000000000000000000000000000000000000000000000000000000000000000000000000000000000000000000
310
00000000000000000000000000000000000000000000000000000000000000000000000000000000000000000000000000000000000000000000000000000000000000000000000000000000000000000000000000000000000000000000000000000000000000000000000000000000000000000000000000000000000000
310
000000000000000000BEBEBEBEBEBEBEBEBEBEBEBEBEBEBEBEBEBEBEBEBEBEBEBEBEBEBEBEBEBEBEBEBEBEBEBEBEBEBEBEBEBEBEBEBEBEBEBEBEBEBEBEBEBEBEBEBEBEBEBEBEBEBEBEBEBEBEBEBEBEBEBEBEBEBEBEBEBEBEBEBEBEBEBE00000000000000000000000000000000000000000000000000000000000000000000
310
00000000000000000000000000000000000000000000000000000000000000000000000000000000000000000000000000000000000000000000000000000000000000000000000000000000000000000000000000000000000000000000000000000000000000000000000000000000000000000000000000000000000000
310
0000000000000000000000BE00000000000000000000000000000000000000000000000000000000000000000000000000000000000000000000000000000000000000000000000000000000000000000000000000000000000000000000BE0000000000000000000000000000000000000000000000000000000000000000
310
00000000000000000000000000000000000000000000000000000000000000000000000000000000000000000000000000000000000000000000000000000000000000000000000000000000000000000000000000000000000000000000000000000000000000000000000000000000000000000000000000000000000000
310
00000000000000000000000000BE00000000000000DCDCDCDCDCDCDCDCDCDCDCDCDCDCDCDCDCDCDCDCDCDCDCDCDCDCBEBEBEBEBEBEBEBEBEDCDCDCDCDCDCDCDCDCDCDCDCDCDCDCDCDCDCDCDCDCDCDCDCDCDCDCDCBEBEBEBEBEBEBEDCDCDC0000BE000000000000000000000000000000000000000000000000000000000000
310
00000000000000000000000000000000000000000000000000000000000000000000000000000000000000000000000000000000000000000000000000000000000000000000000000000000000000000000000000000000000000000000000000000000000000000000000000000000000000000000000000000000000000
310
000000000000000000000000000000BE00000000000000DCF5F5F5F5F500000000DCF5F5F5F5F500000000DC0000000000BEBEBEBEBEBEBEBEBE0000DC0000000000000000000000DC000000000000000000000000DCBEBEBEBEBEBEBE0000DC0000BE00000000000000000000000000000000000000000000000000000000
310
00000000000000000000000000000000000000000000000000000000000000000000000000000000000000000000000000000000000000000000000000000000000000000000000000000000000000000000000000000000000000000000000000000000000000000000000000000000000000000000000000000000000000
310
0000000000000000000000000000000000BE00000000000000DCDCDCDCF5DCDCDCDCDCDCDCDCDCDCDCDCDCDCDCDC00BEBEBEBEBEBEBEBEBEBEBEBEBE0000DCF5F5F5F5F5F5F5F5000000DCF5F5F5F5F5F5F5F5F5F50000BEBEBEBEBEBEBEBEF500DC0000BE0000000000000000000000000000000000000000000000000000
310
00000000000000000000000000000000000000000000000000000000000000000000000000000000000000000000000000000000000000000000000000000000000000000000000000000000000000000000000000000000000000000000000000000000000000000000000000000000000000000000000000000000000000
310
00000000000000000000000000000000000000BE00000000000000DC0000DC00000000000000DC00000000DC000000DC00BEBEBEBEBEBEBEBEBEBEBEBEBE0000DCF5F5F5F5F5F5F5F5000000DCF5F5F5F5F5F5F5F5F5F50000DCF5F5F5F5F5F5F50000DC0000BE000000000000000000000000000000000000000000000000
310
00000000000000000000000000000000000000000000000000000000000000000000000000000000000000000000000000000000000000000000000000000000000000000000000000000000000000000000000000000000000000000000000000000000000000000000000000000000000000000000000000000000000000
310
000000000000000000000000000000000000000000BE00000000000000DCDCDCDCDCDCDCDCDCDCDCDCDCDCDCDCDCDCDCDCDC00000000BEBEBEBEBEBEBEBEBEBE0000DCDCDCDCDCDCDCDCDCDCDCDCDCDCDCDCDCDCDCDCDCDCDCDCDCDCDCDCDCDCDCDCDCDCDCDC0000BE00000000000000000000000000000000000000000000
310
00000000000000000000000000000000000000000000000000000000000000000000000000000000000000000000000000000000000000000000000000000000000000000000000000000000000000000000000000000000000000000000000000000000000000000000000000000000000000000000000000000000000000
310
0000000000000000000000000000000000000000000000BE00000000000000DC0000DC00000000000000DC00000000DC000000DC000000BEBEBEBEBEBEBEBEBEBEBE0000DC00000000000000000000000000000000000000000000000000000000000000000000DC0000BE0000000000000000000000000000000000000000
310
00000000000000000000000000000000000000000000000000000000000000000000000000000000000000000000000000000000000000000000000000000000000000000000000000000000000000000000000000000000000000000000000000000000000000000000000000000000000000000000000000000000000000
310
00000000000000000000000000000000000000000000000000BE00000000000000DCDCDCDCDCDCDCDCDCDCDCDCDCDCDCDCDCDCDCDCDCDCDCDCDCDCDCDCDCDCDCDCDCDCDCDCDCDC00000000000000000000000000000000000000000000000000000000000000000000DC0000BE000000000000000000000000000000000000
310
00000000000000000000000000000000000000000000000000000000000000000000000000000000000000000000000000000000000000000000000000000000000000000000000000000000000000000000000000000000000000000000000000000000000000000000000000000000000000000000000000000000000000
310
000000000000000000000000000000000000000000000000000000BE00000000000000DC0000DC00000000000000DC00000000DC000000F5F5F5F500000000DC0000000000000000DC00000000000000000000000000000000000000000000000000000000000000000000DC0000BE00000000000000000000000000000000
310
00000000000000000000000000000000000000000000000000000000000000000000000000000000000000000000000000000000000000000000000000000000000000000000000000000000000000000000000000000000000000000000000000000000000000000000000000000000000000000000000000000000000000
310
0000000000000000000000000000000000000000000000000000000000BE00000000000000DCDCDCDCDCDCDCDCDCDCDCDCDCDCDCDCDCDCDCDCF5F5F5DCBEBEBEBEBEBEBEBEBEBEBEDCDCDCBEBEBEBEBEBEBEBEBEBEBEBEBEBEBE00BEBEBE0000BEBEBEBE000000000000000000DC0000BE0000000000000000000000000000
310
00000000000000000000000000000000000000000000000000000000000000000000000000000000000000000000000000000000000000000000000000000000000000000000000000000000000000000000000000000000000000000000000000000000000000000000000000000000000000000000000000000000000000
310
00000000000000000000000000000000000000000000000000000000000000BE00000000000000DC0000DC00000000000000DC00000000DC000000F5F5F5BEBEBEBEBEBEBEBEBEBEBEBE0000DC00BEBEBEBEBEBEBEBEBEBEBEBEBEBE00BEBEBE00BEBEBEBEBE000000000000000000DC0000BE000000000000000000000000
310
00000000000000000000000000000000000000000000000000000000000000000000000000000000000000000000000000000000000000000000000000000000000000000000000000000000000000000000000000000000000000000000000000000000000000000000000000000000000000000000000000000000000000
310
000000000000000000000000000000000000000000000000000000000000000000BE00000000000000DCF5F5F5F5F5F5F5F5DCDCDCF5F5F5F5F5F5F5F5DCDCDCF5F5F5F5F5F5F5F5F5F5F5DCDCDCDCF5F5F5F5F5F5F5F5F5F5F5F5F5000000000000000000000000000000000000000000DC0000BE00000000000000000000
310
00000000000000000000000000000000000000000000000000000000000000000000000000000000000000000000000000000000000000000000000000000000000000000000000000000000000000000000000000000000000000000000000000000000000000000000000000000000000000000000000000000000000000
310
0000000000000000000000000000000000000000000000000000000000000000000000BE00000000000000DCF5F5F5F5F5F5F5F50000DCF5F5F5F5DCF5F5F5DCDCDCDCF5F5F5F5F5F5F5F5F5F5000000DCF5F5F5F5F5F5F5F5F5F5F5F5F5000000000000000000000000000000000000000000DC0000BE0000000000000000
310
00000000000000000000000000000000000000000000000000000000000000000000000000000000000000000000000000000000000000000000000000000000000000000000000000000000000000000000000000000000000000000000000000000000000000000000000000000000000000000000000000000000000000
310
00000000000000000000000000000000000000000000000000000000000000000000000000BE00000000000000DCDCDCDCDCDCDCDCDCDCDCDCDCDCDCDCDCDCDCDCDCDCDCDCDCDCDCDCDCDCBEBEBEBEBEBEBEDCDCDCDCDCDCDCDCDCDCDCDCDCDCDCDCDCDCDCDCDCDCDCDCDCDCDCDCDCDCDCDCDCDCDCDC0000BE000000000000
310
00000000000000000000000000000000000000000000000000000000000000000000000000000000000000000000000000000000000000000000000000000000000000000000000000000000000000000000000000000000000000000000000000000000000000000000000000000000000000000000000000000000000000
310
000000000000000000000000000000000000000000000000000000000000000000000000000000BE00000000000000DC00000000000000000000000000000000000000DC00000000000000DCDCBEBEBEBEBEBEBEDC00000000000000000000000000DC000000000000000000000000DC00000000000000DC0000BE00000000
310
00000000000000000000000000000000000000000000000000000000000000000000000000000000000000000000000000000000000000000000000000000000000000000000000000000000000000000000000000000000000000000000000000000000000000000000000000000000000000000000000000000000000000
310
0000000000000000000000000000000000000000000000000000000000000000000000000000000000BE00000000000000DC00000000000000000000000000000000000000DCDCDCDCDCDCDCDCDCBEBEBEBEBEBEBEBEBEF5F5F5F5F5F5F5F5F5F5000000F5F5F5F5F5F5F5F5F5F5F50000DCF5F5F5F5F5F5F5F50000BE0000
310
00000000000000000000000000000000000000000000000000000000000000000000000000000000000000000000000000000000000000000000000000000000000000000000000000000000000000000000000000000000000000000000000000000000000000000000000000000000000000000000000000000000000000
310
00000000000000000000000000000000000000000000000000000000000000000000000000000000000000BE00000000000000DC00000000000000000000000000000000000000DC00000000000000DCDCDCDCDCDCDCDCDCDCF5F5DCBEBEBEBEBEBEDCDCDCDCF5F5DCF5F5F5F5DCF5F5DCDCDCDCF5F5DCBEBEBEF5DC0000BE
310
00000000000000000000000000000000000000000000000000000000000000000000000000000000000000000000000000000000000000000000000000000000000000000000000000000000000000000000000000000000000000000000000000000000000000000000000000000000000000000000000000000000000000
310
000000000000000000000000000000000000000000000000000000000000000000000000000000000000000000BE00000000000000DC00000000000000000000000000000000000000DCF5F5F5F5F5F5F5DCDCDCDCBEBEBEDCDCDC000000BEBEBEBEBEBE00000000DC000000000000000000000000DC0000BEBEBEBE00DC00
310
00BE0000000000000000000000000000000000000000000000000000000000000000000000000000000000000000000000000000000000000000000000000000000000000000000000000000000000000000000000000000000000000000000000000000000000000000000000000000000000000000000000000000000000
310
0000000000000000000000000000000000000000000000000000000000000000000000000000000000000000000000BE00000000000000DC00000000000000000000000000000000000000DCF5F5F5F5F5F5F5DC0000F5BEBEBE0000DC000000BEF5BEBEBEBE00000000DC00F5F5F5F5F5F5F5F5000000DC00F5F5BEF5BEF5
310
DC0000BE000000000000000000000000000000000000000000000000000000000000000000000000000000000000000000000000000000000000000000000000000000000000000000000000000000000000000000000000000000000000000000000000000000000000000000000000000000000000000000000000000000
310
00000000000000000000000000000000000000000000000000000000000000000000000000000000000000000000000000BE00000000000000DCDCDCDCDCDCDCDCDCDCDCDCDCDCDCDCDCDCDCDCDCDCDCDCDCDCDCDCDCDCDCDCF5DCF5DCDCDCDCDCDCF5DCF5F5DCF5DCDCDCDCDCDCDCF5DCF5F5F5DCDCDCDCDCDCDCF5F5F5F5
310
F5DCDC0000BE00000000000000000000000000000000000000000000000000000000000000000000000000000000000000000000000000000000000000000000000000000000000000000000000000000000000000000000000000000000000000000000000000000000000000000000000000000000000000000000000000
310
000000000000000000000000000000000000000000000000000000000000000000000000000000000000000000000000000000BE00000000000000DC00000000000000000000000000000000000000000000000000000000000000000000000000000000000000000000000000000000000000000000000000000000000000
310
00000000DC0000BE0000000000000000000000000000000000000000000000000000000000000000000000000000000000000000000000000000000000000000000000000000000000000000000000000000000000000000000000000000000000000000000000000000000000000000000000000000000000000000000000
310
0000000000000000000000000000000000000000000000000000000000000000000000000000000000000000000000000000000000BE00000000000000DC0000000000000000000000000000000000000000000000000000000000000000000000000000000000000000000000000000000000000000000000000000000000
310
000000000000DC0000BE000000000000000000000000000000000000000000000000000000000000000000000000000000000000000000000000000000000000000000000000000000000000000000000000000000000000000000000000000000000000000000000000000000000000000000000000000000000000000000
310
00000000000000000000000000000000000000000000000000000000000000000000000000000000000000000000000000000000000000BE00000000000000DC000000000000000000000000000000000000000000000000000000000000000000000000000000000000000000000000000000000000000000000000000000
310
0000000000000000DC0000BE00000000000000000000000000000000000000000000000000000000000000000000000000000000000000000000000000000000000000000000000000000000000000000000000000000000000000000000000000000000000000000000000000000000000000000000000000000000000000
310
000000000000000000000000000000000000000000000000000000000000000000000000000000000000000000000000000000000000000000BE00000000000000DC00000000000000000000000000000000000000000000000000000000000000000000000000000000000000000000000000000000000000000000000000
310
00000000000000000000DC0000BE0000000000000000000000000000000000000000000000000000000000000000000000000000000000000000000000000000000000000000000000000000000000000000000000000000000000000000000000000000000000000000000000000000000000000000000000000000000000
310
0000000000000000000000000000000000000000000000000000000000000000000000000000000000000000000000000000000000000000000000BE00000000000000DC000000000000F5F5F5F5F5F5F5F5F5F5F5F5F5F5F5F5F5F5F5F5F5F5F5F50000000000000000000000000000000000000000000000000000000000
310
000000000000000000000000DC0000BE000000000000000000000000000000000000000000000000000000000000000000000000000000000000000000000000000000000000000000000000000000000000000000000000000000000000000000000000000000000000000000000000000000000000000000000000000000
310
00000000000000000000000000000000000000000000000000000000000000000000000000000000000000000000000000000000000000000000000000BE00000000000000DC000000000000F528282828282828282828282828282828282828282828F5000000000000000000000000000000000000000000000000000000
310
0000000000000000000000000000DC0000BE00000000000000000000000000000000000000000000000000000000000000000000000000000000000000000000000000000000000000000000000000000000000000000000000000000000000000000000000000000000000000000000000000000000000000000000000000
310
000000000000000000000000000000000000000000000000000000000000000000000000000000000000000000000000000000000000000000000000000000BE00000000000000DC000000000000F528282828282828282828282828282828282828282828F500000000000000000000000000000000000000000000000000
310
00000000000000000000000000000000DC0000BE0000000000000000000000000000000000000000000000000000000000000000000000000000000000000000000000000000000000000000000000000000000000000000000000000000000000000000000000000000000000000000000000000000000000000000000000
310
0000000000000000000000000000000000000000000000000000000000000000000000000000000000000000000000000000000000000000000000000000000000BE00000000000000DC000000000000F528F5F5F5F5F5F5F5F5F5F5F5F5F5F5F5F5F5F5F5F528F50000000000000000000000000000000000000000000000
310
000000000000000000000000000000000000DC0000BE000000000000000000000000000000000000000000000000000000000000000000000000000000000000000000000000000000000000000000000000000000000000000000000000000000000000000000000000000000000000000000000000000000000000000000
310
00000000000000000000000000000000000000000000000000000000000000000000000000000000000000000000000000000000000000000000000000000000000000BE00000000000000DC000000000000F528F5000028280000282800002800000028000000F528F5000000000000000000000000000000000000000000
310
0000000000000000000000000000000000000000DC0000BE00000000000000000000000000000000000000000000000000000000000000000000000000000000000000000000000000000000000000000000000000000000000000000000000000000000000000000000000000000000000000000000000000000000000000
310
000000000000000000000000000000000000000000000000000000000000000000000000000000000000000000000000000000000000000000000000000000000000000000BE00000000000000DC000000000000F5BEF5BEBEBEBEBEBEBEBEBEBEBEBEBEBEBEBEBEBEF5BEF500000000000000000000000000000000000000
310
00000000000000000000000000000000000000000000DC0000BE0000000000000000000000000000000000000000000000000000000000000000000000000000000000000000000000000000000000000000000000000000000000000000000000000000000000000000000000000000000000000000000000000000000000
310
0000000000000000000000000000000000000000000000000000000000000000000000000000000000000000000000000000000000000000000000000000000000000000000000BE00000000000000DC000000000000F528F5000028280000282800002800000028000000F528F50000000000000000000000000000000000
310
000000000000000000000000000000000000000000000000DC0000BE000000000000000000000000000000000000000000000000000000000000000000000000000000000000000000000000000000000000000000000000000000000000000000000000000000000000000000000000000000000000000000000000000000
310
00000000000000000000000000000000000000000000000000000000000000000000000000000000000000000000000000000000000000000000000000000000000000000000000000BE00000000000000DC000000000000F528F5000028280000282800002800000028000000F528F5000000000000000000000000000000
310
0000000000000000000000000000000000000000000000000000DC0000BE00000000000000000000000000000000000000000000000000000000000000000000000000000000000000000000000000000000000000000000000000000000000000000000000000000000000000000000000000000000000000000000000000
310
000000000000000000000000000000000000000000000000000000000000000000000000000000000000000000000000000000000000000000000000000000000000000000000000000000BE00000000000000DC000000000000F528F5000028280000282800002800000028000000F528F500000000000000000000000000
310
00000000000000000000000000000000000000000000000000000000DC0000BE0000000000000000000000000000000000000000000000000000000000000000000000000000000000000000000000000000000000000000000000000000000000000000000000000000000000000000000000000000000000000000000000
310
0000000000000000000000000000000000000000000000000000000000000000000000000000000000000000000000000000000000000000000000000000000000000000000000000000000000BE00000000000000DC000000000000F528F5282828282828282828282828282828282828F528F50000000000000000000000
310
000000000000000000000000000000000000000000000000000000000000DC0000BE000000000000000000000000000000000000000000000000000000000000000000000000000000000000000000000000000000000000000000000000000000000000000000000000000000000000000000000000000000000000000000
310
00000000000000000000000000000000000000000000000000000000000000000000000000000000000000000000000000000000000000000000000000000000000000000000000000000000000000BE00000000000000DC000000000000F528F5000028280000282800002800000028000000F528F5000000000000000000
310
0000000000000000000000000000000000000000000000000000000000000000DC0000BE00000000000000000000000000000000000000000000000000000000000000000000000000000000000000000000000000000000000000000000000000000000000000000000000000000000000000000000000000000000000000
310
000000000000000000000000000000000000000000000000000000000000000000000000000000000000000000000000000000000000000000000000000000000000000000000000000000000000000000BE00000000000000DC000000000000F528F5000028280000282800002800000028000000F528F500000000000000
310
00000000000000000000000000000000000000000000000000000000000000000000DC0000BE0000000000000000000000000000000000000000000000000000000000000000000000000000000000000000000000000000000000000000000000000000000000000000000000000000000000000000000000000000000000
310
0000000000000000000000000000000000000000000000000000000000000000000000000000000000000000000000000000000000000000000000000000000000000000000000000000000000000000000000BE00000000000000DC000000000000F528F5F5F5F5F5F5F5F5F5F5F5F5F5F5F5F5F5F5F5F528F50000000000
310
000000000000000000000000000000000000000000000000000000000000000000000000DC0000BE000000000000000000000000000000000000000000000000000000000000000000000000000000000000000000000000000000000000000000000000000000000000000000000000000000000000000000000000000000
310
00000000000000000000000000000000000000000000000000000000000000000000000000000000000000000000000000000000000000000000000000000000000000000000000000000000000000000000000000BE00000000000000DC000000000000F528F5282828282828282828282828282828282828F528F5000000
310
0000000000000000000000000000000000000000000000000000000000000000000000000000DC0000BE00000000000000000000000000000000000000000000000000000000000000000000000000000000000000000000000000000000000000000000000000000000000000000000000000000000000000000000000000
310
000000000000000000000000000000000000000000000000000000000000000000000000000000000000000000000000000000000000000000000000000000000000000000000000000000000000000000000000000000BE00000000000000DC000000000000F528F5000028280000282800002800000028000000F528F500
310
00000000000000000000000000000000000000000000000000000000000000000000000000000000DC0000BE0000000000000000000000000000000000000000000000000000000000000000000000000000000000000000000000000000000000000000000000000000000000000000000000000000000000000000000000
310
0000000000000000000000000000000000000000000000000000000000000000000000000000000000000000000000000000000000000000000000000000000000000000000000000000000000000000000000000000000000BE00000000000000DC000000000000F528F5000028280000282800002800000028000000F528
310
F50000000000000000000000000000000000000000000000000000000000000000000000000000000000DC0000BE000000000000000000000000000000000000000000000000000000000000000000000000000000000000000000000000000000000000000000000000000000000000000000000000000000000000000000
310
00000000000000000000000000000000000000000000000000000000000000000000000000000000000000000000000000000000000000000000000000000000000000000000000000000000000000000000000000000000000000BE00000000000000DC000000000000F528F5282828282828282828282828282828282828
310
F528F50000000000000000000000000000000000000000000000000000000000000000000000000000000000DC0000BE00000000000000000000000000000000000000000000000000000000000000000000000000000000000000000000000000000000000000000000000000000000000000000000000000000000000000
310
000000000000000000000000000000000000000000000000000000000000000000000000000000000000000000000000000000000000000000000000000000000000000000000000000000000000000000000000000000000000000000BE00000000000000DC000000000000F528F528282828282828282828282828282828
310
2828F528F50000000000000000000000000000000000000000000000000000000000000000000000000000000000DC0000BE0000000000000000000000000000000000000000000000000000000000000000000000000000000000000000000000000000000000000000000000000000000000000000000000000000000000
310
0000000000000000000000000000000000000000000000000000000000000000000000000000000000000000000000000000000000000000000000000000000000000000000000000000000000000000000000000000000000000000000000BE00000000000000DC000000000000F528F50000282800002828000028000000
310
28000000F528F50000000000000000000000000000000000000000000000000000000000000000000000000000000000DC0000BE000000000000000000000000000000000000000000000000000000000000000000000000000000000000000000000000000000000000000000000000000000000000000000000000000000
310
00000000000000000000000000000000000000000000000000000000000000000000000000000000000000000000000000000000000000000000000000000000000000000000000000000000000000000000000000000000000000000000000000BE00000000000000DC000000000000F528F5000028280000282800002800
310
000028000000F528F50000000000000000000000000000000000000000000000000000000000000000000000000000000000DC0000BE00000000000000000000000000000000000000000000000000000000000000000000000000000000000000000000000000000000000000000000000000000000000000000000000000
310
000000000000000000000000000000000000000000000000000000000000000000000000000000000000000000000000000000000000000000000000000000000000000000000000000000000000000000000000000000000000000000000000000000BE00000000000000DC000000000000F5BEBEBEBEBEBEBEBEBEBEBEBE
310
BEBEBEBEBEBEBEBEF5BEF50000000000000000000000000000000000000000000000000000000000000000000000000000000000DC0000BE0000000000000000000000000000000000000000000000000000000000000000000000000000000000000000000000000000000000000000000000000000000000000000000000
310
0000000000000000000000000000000000000000000000000000000000000000000000000000000000000000000000000000000000000000000000000000000000000000000000000000000000000000000000000000000000000000000000000000000000BE00000000000000DC000000000000F528F52828282828282828
310
28282828282828282828F528F50000000000000000000000000000000000000000000000000000000000000000000000000000000000DC0000BE000000000000000000000000000000000000000000000000000000000000000000000000000000000000000000000000000000000000000000000000000000000000000000
310
00000000000000000000000000000000000000000000000000000000000000000000000000000000000000000000000000000000000000000000000000000000000000000000000000000000000000000000000000000000000000000000000000000000000000BE00000000000000DC000000000000F528F5F5F5F5F5F5F5
310
F5F5F5F5F5F5F5F5F5F5F5F5F528F50000000000000000000000000000000000000000000000000000000000000000000000000000000000DC0000BE00000000000000000000000000000000000000000000000000000000000000000000000000000000000000000000000000000000000000000000000000000000000000
310
000000000000000000000000000000000000000000000000000000000000000000000000000000000000000000000000000000000000000000000000000000000000000000000000000000000000000000000000000000000000000000000000000000000000000000BE00000000000000DC000000000000F5282800002828
310
00002828000028000000280000002828F50000000000000000000000000000000000000000000000000000000000000000000000000000000000DC0000BE0000000000000000000000000000000000000000000000000000000000000000000000000000000000000000000000000000000000000000000000000000000000
310
0000000000000000000000000000000000000000000000000000000000000000000000000000000000000000000000000000000000000000000000000000000000000000000000000000000000000000000000000000000000000000000000000000000000000000000000BE00000000000000DC000000000000F5F5F5F5F5
310
F5F5F5F5F5F5F5F5F5F5F5F5F5F5F5F5F5F5F50000000000000000000000000000000000000000000000000000000000000000000000000000000000DC0000BE000000000000000000000000000000000000000000000000000000000000000000000000000000000000000000000000000000000000000000000000000000
310
00000000000000000000000000000000000000000000000000000000000000000000000000000000000000000000000000000000000000000000000000000000000000000000000000000000000000000000000000000000000000000000000000000000000000000000000000BE00000000000000DC000000000000000000
310
0000000000000000000000000000000000000000000000000000000000000000000000000000000000000000000000000000000000000000000000000000DC0000BE00000000000000000000000000000000000000000000000000000000000000000000000000000000000000000000000000000000000000000000000000
310
000000000000000000000000000000000000000000000000000000000000000000000000000000000000000000000000000000000000000000000000000000000000000000000000000000000000000000000000000000000000000000000000000000000000000000000000000000BE00000000000000DC00000000000000
310
00000000000000000000000000000000000000000000000000000000000000000000000000000000000000000000000000000000000000000000000000000000DC0000BE0000000000000000000000000000000000000000000000000000000000000000000000000000000000000000000000000000000000000000000000
310
0000000000000000000000000000000000000000000000000000000000000000000000000000000000000000000000000000000000000000000000000000000000000000000000000000000000000000000000000000000000000000000000000000000000000000000000000000000000BE00000000000000DC0000000000
310
000000000000000000000000000000000000000000000000000000000000000000000000000000000000000000000000000000000000000000000000000000000000DC0000BE000000000000000000000000000000000000000000000000000000000000000000000000000000000000000000000000000000000000000000
310
00000000000000000000000000000000000000000000000000000000000000000000000000000000000000000000000000000000000000000000000000000000000000000000000000000000000000000000000000000000000000000000000000000000000000000000000000000000000000BE00000000000000DC000000
310
0000000000000000000000000000000000000000000000000000000000000000000000000000000000000000000000000000000000000000000000000000000000000000DC0000BE00000000000000000000000000000000000000000000000000000000000000000000000000000000000000000000000000000000000000
310
000000000000000000000000000000000000000000000000000000000000000000000000000000000000000000000000000000000000000000000000000000000000000000000000000000000000000000000000000000000000000000000000000000000000000000000000000000000000000000BE00000000000000DC00
310
0000000000000000000000000000000000000000000000000000000000000000000000000000002D2D2D2D2D2D2D2D2D2D2DBEBE2D2D2D2D2D2D2D2D2D2D2D2DF52D2D000000DC0000BE0000000000000000000000000000000000000000000000000000000000000000000000000000000000000000000000000000000000
310
0000000000000000000000000000000000000000000000000000000000000000000000000000000000000000000000000000000000000000000000000000000000000000000000000000000000000000000000000000000000000000000000000000000000000000000000000000000000000000000000BE00000000000000
310
DC000000000000000000000000000000000000000000000000000000000000000000000000000000002D00000000000000000000BEBE00000000000000000000002D2DBE00002D00DC0000BE000000000000000000000000000000000000000000000000000000000000000000000000000000000000000000000000000000
310
00000000000000000000000000000000000000000000000000000000000000000000000000000000000000000000000000000000000000000000000000000000000000000000000000000000000000000000000000000000000000000000000000000000000000000000000000000000000000000000000000BE0000000000
310
0000DC000000000000000000000000000000000000000000000000000000000000000000000000000000002D00000000000000000000000000000000000000000000002D2D0000002D00DC0000BE00000000000000000000000000000000000000000000000000000000000000000000000000000000000000000000000000
310
000000000000000000000000000000000000000000000000000000000000000000000000000000000000000000000000000000000000000000000000000000000000000000000000000000000000000000000000000000000000000000000000000000000000000000000000000000000000000000000000000000BE000000
310
00000000DC0000002DDC2DF5F5F5F5F5F5F5F5F5F5F5F5F5F5F5F5F5F5F5F5F5F5F5F52D2D2D2D0000000000DCF5F5F5F5F5F5F5F5F5F5F5F5F5F5F5F5F5F5F5F5F5F5F5F5F5F52D2D2D2D00DC0000BE0000000000000000000000000000000000000000000000000000000000000000000000000000000000000000000000
310
0000000000000000000000000000000000000000000000000000000000000000000000000000000000000000000000000000000000000000000000000000000000000000000000000000000000000000000000000000000000000000000000000000000000000000000000000000000000000000000000000000000000BE00
310
000000000000DC000000002D00F528282828282828282828282828282828282828282828F500002D2D00000000002DF5282828282828282828282828282828282828282828282828F500BEBE2D00DC0000BE000000000000000000000000000000000000000000000000000000000000000000000000000000000000000000
310
00000000000000000000000000000000000000000000000000000000000000000000000000000000000000000000000000000000000000000000000000000000000000000000000000000000000000000000000000000000000000000000000000000000000000000000000000000000000000000000000000000000000000
310
BE00000000000000DC000000002D00F528282828282828282828282828282828282828282828F500002D0000000000002DF52828282828282828282828282828282828282828282828F5F50000002D00DC0000BE00000000000000000000000000000000000000000000000000000000000000000000000000000000000000
310
00000000000000000000000000000000000000000000000000000000000000000000000000000000000000000000000000000000000000000000000000000000000000000000000000000000000000000000000000000000000000000000000000000000000000000000000000000000000000000000000000000000000000
310
0000BE00000000000000DC000000002D00F528282828000028280000280000002800000028002800F500002D0000000000002DF52828002828000028000000280000002800000028000028F5F50000002D00DC0000BE0000000000000000000000000000000000000000000000000000000000000000000000000000000000
310
00000000000000000000000000000000000000000000000000000000000000000000000000000000000000000000000000000000000000000000000000000000000000000000000000000000000000000000000000000000000000000000000000000000000000000000000000000000000000000000000000000000000000
310
00000000BE00000000000000DC000000002D00F52828282800002828000028000000BEBE2D2DF52D2D00F500002D0000000000002DF52828002828000028000000280000002800000028000028F5F50000002D00DC0000BE000000000000000000000000000000000000000000000000000000000000000000000000000000
310
00000000000000000000000000000000000000000000000000000000000000000000000000000000000000000000000000000000000000000000000000000000000000000000000000000000000000000000000000000000000000000000000000000000000000000000000000000000000000000000000000000000000000
310
000000000000BE00000000000000DC000000002D00F52828282800002828000028000000BEBEBE2D2D002800F500002D0000000000002DF52828002828000028000000280000002800000028000028F5F50000002D00DC0000BE00000000000000000000000000000000000000000000000000000000000000000000000000
310
00000000000000000000000000000000000000000000000000000000000000000000000000000000000000000000000000000000000000000000000000000000000000000000000000000000000000000000000000000000000000000000000000000000000000000000000000000000000000000000000000000000000000
310
0000000000000000BE00000000000000DC000000002D00F528282828282828282828282828282828282828282828F500002D0000000000002DF52828282828282828282828282828282828282828282828F5F50000002D00DC0000BE0000000000000000000000000000000000000000000000000000000000000000000000
310
00000000000000000000000000000000000000000000000000000000000000000000000000000000000000000000000000000000000000000000000000000000000000000000000000000000000000000000000000000000000000000000000000000000000000000000000000000000000000000000000000000000000000
310
00000000000000000000BE00000000000000DC000000002D00F528282828282DF52D0000280000002800002828002800F500002D0000000000002DF52828002828000028000000280000002800000028000028F5F50000002D00DC0000BE000000000000000000000000000000000000000000000000000000000000000000
310
00000000000000000000000000000000000000000000000000000000000000000000000000000000000000000000000000000000000000000000000000000000000000000000000000000000000000000000000000000000000000000000000000000000000000000000000000000000000000000000000000000000000000
310
000000000000000000000000BE00000000000000DC000000002D00F52828282828002D2D00002800000028BE2D282D2D2800F500002D0000000000002DF52828002828000028000000280000002800000028000028F5F50000002D00DC0000BE00000000000000000000000000000000000000000000000000000000000000
310
00000000000000000000000000000000000000000000000000000000000000000000000000000000000000000000000000000000000000000000000000000000000000000000000000000000000000000000000000000000000000000000000000000000000000000000000000000000000000000000000000000000000000
310
0000000000000000000000000000BE00000000000000DC000000002D00F52828282800002D2800002828000028BE2D2D2D002800F500002D0000000000002DF52828002828000028000000280000002800000028000028F5F50000002D00DC0000BE0000000000000000000000000000000000000000000000000000000000
310
00000000000000000000000000000000000000000000000000000000000000000000000000000000000000000000000000000000000000000000000000000000000000000000000000000000000000000000000000000000000000000000000000000000000000000000000000000000000000000000000000000000000000
310
00000000000000000000000000000000BE00000000000000DC000000002D00F52828282828282D282828282828282828282828282828F500BE2D0000000000002DF52828282828282828282828282828282828282828282828F5F50000002D00DC0000BE000000000000000000000000000000000000000000000000000000
310
00000000000000000000000000000000000000000000000000000000000000000000000000000000000000000000000000000000000000000000000000000000000000000000000000000000000000000000000000000000000000000000000000000000000000000000000000000000000000000000000000000000000000
310
000000000000000000000000000000000000BE00000000000000DC000000002D00F52828282800002D280000280000002800000028002800F500BE2D0000000000002DF52828002828000028000000280000002800000028000028F5F50000002D00DC0000BE00000000000000000000000000000000000000000000000000
310
00000000000000000000000000000000000000000000000000000000000000000000000000000000000000000000000000000000000000000000000000000000000000000000000000000000000000000000000000000000000000000000000000000000000000000000000000000000000000000000000000000000000000
310
0000000000000000000000000000000000000000BE00000000000000DC000000002D00F52828282800002D280000280000002800000028002800F500002D0000000000002DF52828002828000028000000280000002800000028000028F5F50000002D00DC0000BE0000000000000000000000000000000000000000000000
310
00000000000000000000000000000000000000000000000000000000000000000000000000000000000000000000000000000000000000000000000000000000000000000000000000000000000000000000000000000000000000000000000000000000000000000000000000000000000000000000000000000000000000
310
00000000000000000000000000000000000000000000BE00000000000000DC000000002D00F52828282800002D280000280000002800000028002800F500002D0000000000002DF52828002828000028000000280000002800000028000028F5F50000002D00DC0000BE000000000000000000000000000000000000000000
310
00000000000000000000000000000000000000000000000000000000000000000000000000000000000000000000000000000000000000000000000000000000000000000000000000000000000000000000000000000000000000000000000000000000000000000000000000000000000000000000000000000000000000
310
000000000000000000000000000000000000000000000000BE00000000000000DC000000002D00F52828282828282D282828282828282828282828282828F500002D0000000000002DF52828282828282828282828282828282828282828282828F5F50000002D00DC0000BE00000000000000000000000000000000000000
310
00000000000000000000000000000000000000000000000000000000000000000000000000000000000000000000000000000000000000000000000000000000000000000000000000000000000000000000000000000000000000000000000000000000000000000000000000000000000000000000000000000000000000
310
0000000000000000000000000000000000000000000000000000BE00000000000000DC000000002D00F52828282800002D280000280000002800000028002800F500002D0000000000002DF52828002828000028000000280000002800000028000028F5F50000002D00DC0000BE0000000000000000000000000000000000
310
00000000000000000000000000000000000000000000000000000000000000000000000000000000000000000000000000000000000000000000000000000000000000000000000000000000000000000000000000000000000000000000000000000000000000000000000000000000000000000000000000000000000000
310
00000000000000000000000000000000000000000000000000000000BE00000000000000DC000000002D00F52828282800002D280000280000002800000028002800F500002D0000000000002DF52828002828000028000000280000002800000028000028F5F50000002D00DC0000BE000000000000000000000000000000
310
00000000000000000000000000000000000000000000000000000000000000000000000000000000000000000000000000000000000000000000000000000000000000000000000000000000000000000000000000000000000000000000000000000000000000000000000000000000000000000000000000000000000000
310
000000000000000000000000000000000000000000000000000000000000BE00000000000000DC000000002D00F52828282800002D280000280000002800000028002800F500002D0000000000002DF52828002828000028000000280000002800000028000028F5F50000002D00DC0000BE00000000000000000000000000
310
00000000000000000000000000000000000000000000000000000000000000000000000000000000000000000000000000000000000000000000000000000000000000000000000000000000000000000000000000000000000000000000000000000000000000000000000000000000000000000000000000000000000000
310
0000000000000000000000000000000000000000000000000000000000000000BE00000000000000DC000000002D00F52828282828282D282828282828282828282828282828F500002D0000000000002DF52828282828282828282828282828282828282828282828F5F50000002D00DC0000BE0000000000000000000000
310
00000000000000000000000000000000000000000000000000000000000000000000000000000000000000000000000000000000000000000000000000000000000000000000000000000000000000000000000000000000000000000000000000000000000000000000000000000000000000000000000000000000000000
310
00000000000000000000000000000000000000000000000000000000000000000000BE00000000000000DC000000002D00F52828282800002D280000280000002800000028002800F500002D0000000000002DF52828002828000028000000280000002800000028000028F5F50000002D00DC0000BE000000000000000000
310
00000000000000000000000000000000000000000000000000000000000000000000000000000000000000000000000000000000000000000000000000000000000000000000000000000000000000000000000000000000000000000000000000000000000000000000000000000000000000000000000000000000000000
310
000000000000000000000000000000000000000000000000000000000000000000000000BE00000000000000DC000000002D00F52828282800002D280000280000002800000028002800F500002D0000000000002DF52828002828000028000000280000002800000028000028F5F50000002D00DC0000BE00000000000000
310
00000000000000000000000000000000000000000000000000000000000000000000000000000000000000000000000000000000000000000000000000000000000000000000000000000000000000000000000000000000000000000000000000000000000000000000000000000000000000000000000000000000000000
310
0000000000000000000000000000000000000000000000000000000000000000000000000000BE00000000000000DC000000002D00F52828282800002D280000280000002800000028F5F500F500002D2D00000000002DF52828002828000028000000280000002800000028000028F5F500BEBE2D00DC0000BE0000000000
310
00000000000000000000000000000000000000000000000000000000000000000000000000000000000000000000000000000000000000000000000000000000000000000000000000000000000000000000000000000000000000000000000000000000000000000000000000000000000000000000000000000000000000
310
00000000000000000000000000000000000000000000000000000000000000000000000000000000BE00000000000000DC0000BEBE2D00F52828282828BE2D282828282828282828282828F5F5F5F52D2DF52D000000BEBE2DF52828282828282828282828282828282828282828282828F5F500BEBE2D00DC0000BE000000
310
00000000000000000000000000000000000000000000000000000000000000000000000000000000000000000000000000000000000000000000000000000000000000000000000000000000000000000000000000000000000000000000000000000000000000000000000000000000000000000000000000000000000000
310
000000000000000000000000000000000000000000000000000000000000000000000000000000000000BE00000000000000DC0000BEBE2D00F52828282800BE2D280000280000002800000028002800F500000000000000BEBE2DF52828002828000028000000280000002800000028000028F5F50000002D00DC0000BE00
310
00000000000000000000000000000000000000000000000000000000000000000000000000000000000000000000000000000000000000000000000000000000000000000000000000000000000000000000000000000000000000000000000000000000000000000000000000000000000000000000000000000000000000
310
0000000000000000000000000000000000000000000000000000000000000000000000000000000000000000BE00000000000000DC000000002D00F52828282800BE2D280000280000002800000028002800F50000000000000000002DF52828002828000028000000280000002800000028000028F5F50000002D00DC0000
310
BE000000000000000000000000000000000000000000000000000000000000000000000000000000000000000000000000000000000000000000000000000000000000000000000000000000000000000000000000000000000000000000000000000000000000000000000000000000000000000000000000000000000000
310
00000000000000000000000000000000000000000000000000000000000000000000000000000000000000000000BE00000000000000DC000000002D00F52828282800002D280000280000002800000028002800F50000000000000000002DF52828002828000028000000280000002800000028000028F5F50000002D00DC
310
0000BE00000000000000000000000000000000000000000000000000000000000000000000000000000000000000000000000000000000000000000000000000000000000000000000000000000000000000000000000000000000000000000000000000000000000000000000000000000000000000000000000000000000
310
000000000000000000000000000000000000000000000000000000000000000000000000000000000000000000000000BE00000000000000DC000000002D00F52828282828282D282828282828282828282828282828F50000000000000000002DF52828282828282828282828282828282828282828282828F5F50000002D
310
00DC0000BE0000000000000000000000000000000000000000000000000000000000000000000000000000000000000000000000000000000000000000000000000000000000000000000000000000000000000000000000000000000000000000000000000000000000000000000000000000000000000000000000000000
310
0000000000000000000000000000000000000000000000000000000000000000000000000000000000000000000000000000BE00000000000000DC000000002D00F52828282800002D280000280000002800000028002800F50000000000000000002DF52828002828000028000000280000002800000028000028F5F50000
310
002D00DC0000BE000000000000000000000000000000000000000000000000000000000000000000000000000000000000000000000000000000000000000000000000000000000000000000000000000000000000000000000000000000000000000000000000000000000000000000000000000000000000000000000000
310
00000000000000000000000000000000000000000000000000000000000000000000000000000000000000000000000000000000BE00000000000000DC000000002D00F52828282800002D280000280000002800000028002800F50000000000000000002DF52828002828000028000000280000002800000028000028F5F5
310
0000002D00DC0000BE00000000000000000000000000000000000000000000000000000000000000000000000000000000000000000000000000000000000000000000000000000000000000000000000000000000000000000000000000000000000000000000000000000000000000000000000000000000000000000000
310
000000000000000000000000000000000000000000000000000000000000000000000000000000000000000000000000000000000000BE00000000000000DC000000002D00F52828282800002D280000280000002800000028002800F50000000000000000002DF52828002828000028000000280000002800000028000028
310
F5F50000002D00DC0000BE0000000000000000000000000000000000000000000000000000000000000000000000000000000000000000000000000000000000000000000000000000000000000000000000000000000000000000000000000000000000000000000000000000000000000000000000000000000000000000
310
0000000000000000000000000000000000000000000000000000000000000000000000000000000000000000000000000000000000000000BE00000000000000DC000000002D00F52828282828282D282828282828282828282828282828F50000000000000000002DF5282828282828282828282828282828282828282828
310
2828F5F50000002D00DC0000BE000000000000000000000000000000000000000000000000000000000000000000000000000000000000000000000000000000000000000000000000000000000000000000000000000000000000000000000000000000000000000000000000000000000000000000000000000000000000
310
00000000000000000000000000000000000000000000000000000000000000000000000000000000000000000000000000000000000000000000BE00000000000000DC000000002D00F52828282800002D280000280000002800000028002800F50000000000000000002DF528280028280000280000002800000028000000
310
28000028F5F50000002D00DC0000BE00000000000000000000000000000000000000000000000000000000000000000000000000000000000000000000000000000000000000000000000000000000000000000000000000000000000000000000000000000000000000000000000000000000000000000000000000000000
310
000000000000000000000000000000000000000000000000000000000000000000000000000000000000000000000000000000000000000000000000BE00000000000000DC000000002D00F52828282800002D280000280000002800000028002800F50000000000000000002DF52828002828000028000000280000002800
310
000028000028F5F50000002D00DC0000BE0000000000000000000000000000000000000000000000000000000000000000000000000000000000000000000000000000000000000000000000000000000000000000000000000000000000000000000000000000000000000000000000000000000000000000000000000000
310
0000000000000000000000000000000000000000000000000000000000000000000000000000000000000000000000000000000000000000000000000000BE00000000000000DC000000002D00F52828282800002D280000280000002800000028002800F50000000000000000002DF5282800282800002800000028000000
310
2800000028000028F5F50000002D00DC0000BE000000000000000000000000000000000000000000000000000000000000000000000000000000000000000000000000000000000000000000000000000000000000000000000000000000000000000000000000000000000000000000000000000000000000000000000000
310
00000000000000000000000000000000000000000000000000000000000000000000000000000000000000000000000000000000000000000000000000000000BE00000000000000DC000000002D00F52828282828282D282828282828282828282828282828F50000000000000000002DF528282828282828282828282828
310
28282828282828282828F5F50000002D00DC0000BE00000000000000000000000000000000000000000000000000000000000000000000000000000000000000000000000000000000000000000000000000000000000000000000000000000000000000000000000000000000000000000000000000000000000000000000
310
000000000000000000000000000000000000000000000000000000000000000000000000000000000000000000000000000000000000000000000000000000000000BE00000000000000DC000000002D00F52828282800002D28000028000000BEBE000028002800F50000000000000000002DF52828002828000028000000
310
280000002800000028000028F5F50000002D00DC0000BE0000000000000000000000000000000000000000000000000000000000000000000000000000000000000000000000000000000000000000000000000000000000000000000000000000000000000000000000000000000000000000000000000000000000000000
310
0000000000000000000000000000000000000000000000000000000000000000000000000000000000000000000000000000000000000000000000000000000000000000BE00000000000000DC000000002D00F52828282800002D2800002800000028002D0028002800F50000000000000000002DF5282800282800002800
310
0000280000002800000028000028F5F50000002D00DC0000BE000000000000000000000000000000000000000000000000000000000000000000000000000000000000000000000000000000000000000000000000000000000000000000000000000000000000000000000000000000000000000000000000000000000000
310
00000000000000000000000000000000000000000000000000000000000000000000000000000000000000000000000000000000000000000000000000000000000000000000BE00000000000000DC000000002D00F52828282828002D2D0000280000002800F52828002800F50000000000000000002DF528280028280000
310
28000000280000002800000028000028F5F50000002D00DC0000BE00000000000000000000000000000000000000000000000000000000000000000000000000000000000000000000000000000000000000000000000000000000000000000000000000000000000000000000000000000000000000000000000000000000
310
000000000000000000000000000000000000000000000000000000000000000000000000000000000000000000000000000000000000000000000000000000000000000000000000BE00000000000000DC000000002D00F528282828282D2D2D28282828282828282D2828282828F50000000000000000002DF52828282828
310
282828282828282828282828282828282828F5F50000002D00DC0000BE0000000000000000000000000000000000000000000000000000000000000000000000000000000000000000000000000000000000000000000000000000000000000000000000000000000000000000000000000000000000000000000000000000
310
0000000000000000000000000000000000000000000000000000000000000000000000000000000000000000000000000000000000000000000000000000000000000000000000000000BE00000000000000DC000000002D00F50000002828002D2D00000000000000002D2800000000F50000000000000000002DF5000000
310
0000000000000000000000000000000000000000F5F50000002D00DC0000BE000000000000000000000000000000000000000000000000000000000000000000000000000000000000000000000000000000000000000000000000000000000000000000000000000000000000000000000000000000000000000000000000
310
00000000000000000000000000000000000000000000000000000000000000000000000000000000000000000000000000000000000000000000000000000000000000000000000000000000BE00000000000000DC000000002D00F5BEBE2D2D2D2D2D2D2DBEBE2D2D2D2D2D2D2D2DBEBE2DF50000000000000000002DF500
310
00000000000000000000000000000000000000000000F5F500BEBEBE00DC0000BE00000000000000000000000000000000000000000000000000000000000000000000000000000000000000000000000000000000000000000000000000000000000000000000000000000000000000000000000000000000000000000000
310
000000000000000000000000000000000000000000000000000000000000000000000000000000000000000000000000000000000000000000000000000000000000000000000000000000000000BE00000000000000DC000000002D00F50028282828BE2D282828282828282828282828282800F50000000000000000002D
310
F50000002800000000000000000000000000000000280000F5F500BEBEBE00DC0000BE0000000000000000000000000000000000000000000000000000000000000000000000000000000000000000000000000000000000000000000000000000000000000000000000000000000000000000000000000000000000000000
310
0000000000000000000000000000000000000000000000000000000000000000000000000000000000000000000000000000000000000000000000000000000000000000000000000000000000000000BE00000000000000DC000000002D00F50028000000BE2D000000000000000000000000002800F50000000000000000
310
002DF50000282828000000000000000000000000000028282800F5F50000002D00DC0000BE000000000000000000000000000000000000000000000000000000000000000000000000000000000000000000000000000000000000000000000000000000000000000000000000000000000000000000000000000000000000
310
00000000000000000000000000000000000000000000000000000000000000000000000000000000000000000000000000000000000000000000000000000000000000000000000000000000000000000000BE00000000000000DC000000002D00F5F5F5F5F5F5F5F5F5F5F5F5F5F5F5F5F5F5F5F5F5F5F5F5000000000000
310
0000002DF50000280028000000000000000000000000000028002800F5F52D2D2D2D00DC0000BE00000000000000000000000000000000000000000000000000000000000000000000000000000000000000000000000000000000000000000000000000000000000000000000000000000000000000000000000000000000
310
000000000000000000000000000000000000000000000000000000000000000000000000000000000000000000000000000000000000000000000000000000000000000000000000000000000000000000000000BE00000000000000DC000000002D00F500282828282828282828282828282828282828282800F500000000
310
00000000002DF5000028282828282828282828282828282828282828282800F500BEBE2D00DC0000BE0000000000000000000000000000000000000000000000000000000000000000000000000000000000000000000000000000000000000000000000000000000000000000000000000000000000000000000000000000
310
0000000000000000000000000000000000000000000000000000000000000000000000000000000000000000000000000000000000000000000000000000000000000000000000000000000000000000000000000000BE00000000000000DC000000002D00F5BEBEBEBEBEBEBEBEBEBEBEBEBEBEBEBEBEBEBEBEBEBEF50000
310
000000000000002DF500002828BE2800002828282828282828000028BE28280000F500BEBE2D00DC0000BE000000000000000000000000000000000000000000000000000000000000000000000000000000000000000000000000000000000000000000000000000000000000000000000000000000000000000000000000
310
00000000000000000000000000000000000000000000000000000000000000000000000000000000000000000000000000000000000000000000000000000000000000000000000000000000000000000000000000000000BE00000000000000DC0000002D2D2DDCF52828282828282828282828282828282828282828F5F5
310
0000000000000000002DF5F5F528282828282828F5F5F5F5F5F5F5282828282828F5F5F52D2D2DF500DC0000BE00000000000000000000000000000000000000000000000000000000000000000000000000000000000000000000000000000000000000000000000000000000000000000000000000000000000000000000
310
000000000000000000000000000000000000000000000000000000000000000000000000000000000000000000000000000000000000000000000000000000000000000000000000000000000000000000000000000000000000BE00000000000000DC0000000000002D002D0000000000000000000000000000000000002D
310
002D000000000000000000002D00002D0000000000000000000000000000000000002D00002D0000000000DC0000BE0000000000000000000000000000000000000000000000000000000000000000000000000000000000000000000000000000000000000000000000000000000000000000000000000000000000000000
310
0000000000000000000000000000000000000000000000000000000000000000000000000000000000000000000000000000000000000000000000000000000000000000000000000000000000000000000000000000000000000000BE00000000000000DC000000002D2DBEBE2D2D2D2D2D2D2D2DBEBE2D2D2D2D2D2D2D2D
310
2DBEBEF52D2D0000000000002D2D2DBE2D2D2D2D2D2D2D2D2DBEBEBE2D2D2D2D2D2D2D2D2DBE2D2D2D2D000000DC0000BE000000000000000000000000000000000000000000000000000000000000000000000000000000000000000000000000000000000000000000000000000000000000000000000000000000000000
310
00000000000000000000000000000000000000000000000000000000000000000000000000000000000000000000000000000000000000000000000000000000000000000000000000000000000000000000000000000000000000000000BE00000000000000DC000000000000BEBE2D00000000000000BEBE000000000000
310
000000BEBE2D000000000000000000002D0000000000000000000000000000000000000000000000002D0000000000DC0000BE00000000000000000000000000000000000000000000000000000000000000000000000000000000000000000000000000000000000000000000000000000000000000000000000000000000
310
000000000000000000000000000000000000000000000000000000000000000000000000000000000000000000000000000000000000000000000000000000000000000000000000000000000000000000000000000000000000000000000000BE00000000000000DC0000000000002D2D0000000000000000000000000000
310
0000000000002D2D000000000000000000002D2D2D2D2D2D2D2D2D2D2DBEBEBE2D2D2D2D2D2D2D2D2D2D2DF50000000000DC0000BE0000000000000000000000000000000000000000000000000000000000000000000000000000000000000000000000000000000000000000000000000000000000000000000000000000
310
0000000000000000000000000000000000000000000000000000000000000000000000000000000000000000000000000000000000000000000000000000000000000000000000000000000000000000000000000000000000000000000000000000BE00000000000000DC0000000000002D2D2D2D2D2D2D2D2D2DBEBE2D2D
310
2D2D2D2D2D2D2D2D2DDC0000000000000000000000000000000000000000000000000000000000000000000000000000000000DC0000BE000000000000000000000000000000000000000000000000000000000000000000000000000000000000000000000000000000000000000000000000000000000000000000000000
310
00000000000000000000000000000000000000000000000000000000000000000000000000000000000000000000000000000000000000000000000000000000000000000000000000000000000000000000000000000000000000000000000000000000BE00000000000000DC000000000000000000000000000000000000
310
0000000000000000000000000000000000000000000000000000000000000000000000000000000000000000000000000000000000DC0000BE00000000000000000000000000000000000000000000000000000000000000000000000000000000000000000000000000000000000000000000000000000000000000000000
310
000000000000000000000000000000000000000000000000000000000000000000000000000000000000000000000000000000000000000000000000000000000000000000000000000000000000000000000000000000000000000000000000000000000000BE00000000000000DC00000000000000000000000000000000
310
00000000000000000000000000000000000000000000000000000000000000000000000000000000000000000000000000000000000000DC0000BE0000000000000000000000000000000000000000000000000000000000000000000000000000000000000000000000000000000000000000000000000000000000000000
310
0000000000000000000000000000000000000000000000000000000000000000000000000000000000000000000000000000000000000000000000000000000000000000000000000000000000000000000000000000000000000000000000000000000000000000BE00000000000000DC0000000000000000000000000000
310
000000000000000000000000000000000000000000000000000000000000000000000000000000000000000000000000000000000000000000DC0000BE000000000000000000000000000000000000000000000000000000000000000000000000000000000000000000000000000000000000000000000000000000000000
310
00000000000000000000000000000000000000000000000000000000000000000000000000000000000000000000000000000000000000000000000000000000000000000000000000000000000000000000000000000000000000000000000000000000000000000000BE00000000000000DC000000000000000000000000
310
0000000000000000000000000000000000000000000000000000000000000000000000000000000000000000000000000000000000000000000000DC0000BE00000000000000000000000000000000000000000000000000000000000000000000000000000000000000000000000000000000000000000000000000000000
310
000000000000000000000000000000000000000000000000000000000000000000000000000000000000000000000000000000000000000000000000000000000000000000000000000000000000000000000000000000000000000000000000000000000000000000000000BE00000000000000DCDCDCDCDCDCDCDCDCDCDC
310
DCDCDCDCDCDCDCDCDCDCDCDCDCDCDCDCDCDCDCDCDCDCDCDCDCDCDCDCDCDCDCDCDCDCDCDCDCDCDCDCDCDCDCDCDCDCDCDCDCDCDCDCDCDCDCDCDCDCDCDCDCDC0000BE0000000000000000000000000000000000000000000000000000000000000000000000000000000000000000000000000000000000000000000000000000
310
0000000000000000000000000000000000000000000000000000000000000000000000000000000000000000000000000000000000000000000000000000000000000000000000000000000000000000000000000000000000000000000000000000000000000000000000000000BE00000000000000000000000000000000
310
000000000000000000000000000000000000000000000000000000000000000000000000000000000000000000000000000000000000000000000000000000000000BE000000000000000000000000000000000000000000000000000000000000000000000000000000000000000000000000000000000000000000000000
310
00000000000000000000000000000000000000000000000000000000000000000000000000000000000000000000000000000000000000000000000000000000000000000000000000000000000000000000000000000000000000000000000000000000000000000000000000000000BE0000000000000000000000000000
310
0000000000000000000000000000000000000000000000000000000000000000000000000000000000000000000000000000000000000000000000000000000000000000BE00000000000000000000000000000000000000000000000000000000000000000000000000000000000000000000000000000000000000000000
310
000000000000000000000000000000000000000000000000000000000000000000000000000000000000000000000000000000000000000000000000000000000000000000000000000000000000000000000000000000000000000000000000000000000000000000000000000000000000BEBEBEBEBEBEBEBEBEBEBEBEBE
310
BEBEBEBEBEBEBEBEBEBEBEBEBEBEBEBEBEBEBEBEBEBEBEBEBEBEBEBEBEBEBEBEBEBEBEBEBEBEBEBEBEBEBEBEBEBEBEBEBEBEBEBEBEBEBEBEBEBEBEBEBEBEBEBEBEBEBEBEBEBEBE0000000000000000000000000000000000000000000000000000000000000000000000000000000000000000000000000000000000000000
310
000000000000000000000000000000000000000000000000000000000000
  0
XRECORD
  5
47
102
{ACAD_REACTORS
330
46
102
}
330
46
100
AcDbXrecord
280
     1
270
     1
271
     1
  0
XRECORD
  5
48
102
{ACAD_REACTORS
330
46
102
}
330
46
100
AcDbXrecord
280
     1
270
     1
271
     1
  0
XRECORD
  5
49
102
{ACAD_REACTORS
330
46
102
}
330
46
100
AcDbXrecord
280
     1
270
     1
271
     1
  0
XRECORD
  5
4A
102
{ACAD_REACTORS
330
46
102
}
330
46
100
AcDbXrecord
280
     1
270
     1
271
     1
  0
XRECORD
  5
4B
102
{ACAD_REACTORS
330
46
102
}
330
46
100
AcDbXrecord
280
     1
270
     1
271
     1
  0
XRECORD
  5
4C
102
{ACAD_REACTORS
330
46
102
}
330
46
100
AcDbXrecord
280
     1
270
     1
271
     1
  0
XRECORD
  5
3F
102
{ACAD_REACTORS
330
3E
102
}
330
3E
100
AcDbXrecord
280
     1
270
     1
271
     1
  0
XRECORD
  5
40
102
{ACAD_REACTORS
330
3E
102
}
330
3E
100
AcDbXrecord
280
     1
270
     1
271
     1
  0
XRECORD
  5
41
102
{ACAD_REACTORS
330
3E
102
}
330
3E
100
AcDbXrecord
280
     1
270
     1
271
     1
  0
XRECORD
  5
42
102
{ACAD_REACTORS
330
3E
102
}
330
3E
100
AcDbXrecord
280
     1
270
     1
271
     1
  0
XRECORD
  5
43
102
{ACAD_REACTORS
330
3E
102
}
330
3E
100
AcDbXrecord
280
     1
270
     1
271
     1
  0
XRECORD
  5
44
102
{ACAD_REACTORS
330
3E
102
}
330
3E
100
AcDbXrecord
280
     1
270
     1
271
     1
  0
XRECORD
  5
F
102
{ACAD_REACTORS
330
E
102
}
330
E
100
AcDbXrecord
280
     1
270
     1
271
     1
  0
XRECORD
  5
10
102
{ACAD_REACTORS
330
E
102
}
330
E
100
AcDbXrecord
280
     1
270
     1
271
     1
  0
XRECORD
  5
11
102
{ACAD_REACTORS
330
E
102
}
330
E
100
AcDbXrecord
280
     1
270
     1
271
     1
  0
XRECORD
  5
12
102
{ACAD_REACTORS
330
E
102
}
330
E
100
AcDbXrecord
280
     1
270
     1
271
     1
  0
XRECORD
  5
13
102
{ACAD_REACTORS
330
E
102
}
330
E
100
AcDbXrecord
280
     1
270
     1
271
     1
  0
XRECORD
  5
14
102
{ACAD_REACTORS
330
E
102
}
330
E
100
AcDbXrecord
280
     1
270
     1
271
     1
  0
CELLSTYLEMAP
  5
4EB
102
{ACAD_REACTORS
330
56
102
}
330
56
100
AcDbCellStyleMap
 90
        3
300
CELLSTYLE
  1
TABLEFORMAT_BEGIN
 90
        5
170
     1
 91
        0
 92
    32768
 62
   257
 93
        1
300
CONTENTFORMAT
  1
CONTENTFORMAT_BEGIN
 90
        0
 91
        0
 92
      512
 93
        0
300

 40
0.0
140
1.0
 94
        5
 62
     0
340
23
144
0.25
309
CONTENTFORMAT_END
171
     0
 94
        0
309
TABLEFORMAT_END
  1
CELLSTYLE_BEGIN
 90
        1
 91
        1
300
_TITLE
309
CELLSTYLE_END
300
CELLSTYLE
  1
TABLEFORMAT_BEGIN
 90
        5
170
     1
 91
        0
 92
        0
 62
   257
 93
        1
300
CONTENTFORMAT
  1
CONTENTFORMAT_BEGIN
 90
        0
 91
        0
 92
      512
 93
        0
300

 40
0.0
140
1.0
 94
        5
 62
     0
340
23
144
0.18
309
CONTENTFORMAT_END
171
     0
 94
        0
309
TABLEFORMAT_END
  1
CELLSTYLE_BEGIN
 90
        2
 91
        1
300
_HEADER
309
CELLSTYLE_END
300
CELLSTYLE
  1
TABLEFORMAT_BEGIN
 90
        5
170
     1
 91
        0
 92
        0
 62
   257
 93
        1
300
CONTENTFORMAT
  1
CONTENTFORMAT_BEGIN
 90
        0
 91
        0
 92
      512
 93
        0
300

 40
0.0
140
1.0
 94
        2
 62
     0
340
23
144
0.18
309
CONTENTFORMAT_END
171
     0
 94
        0
309
TABLEFORMAT_END
  1
CELLSTYLE_BEGIN
 90
        3
 91
        2
300
_DATA
309
CELLSTYLE_END
  0
XRECORD
  5
30
102
{ACAD_REACTORS
330
2F
102
}
330
2F
100
AcDbXrecord
280
     1
102
RTVSPropertyOp28
 70
     1
102
RTVSPropertyOp29
 70
     1
102
RTVSPropertyOp30
 70
     1
102
RTVSPropertyOp31
 70
     1
102
RTVSPropertyOp32
 70
     1
  0
XRECORD
  5
5C
102
{ACAD_REACTORS
330
5B
102
}
330
5B
100
AcDbXrecord
280
     1
102
RTVSPropertyOp28
 70
     1
102
RTVSPropertyOp29
 70
     1
102
RTVSPropertyOp30
 70
     1
102
RTVSPropertyOp31
 70
     1
102
RTVSPropertyOp32
 70
     1
  0
XRECORD
  5
59
102
{ACAD_REACTORS
330
58
102
}
330
58
100
AcDbXrecord
280
     1
102
RTVSPropertyOp28
 70
     1
102
RTVSPropertyOp29
 70
     1
102
RTVSPropertyOp30
 70
     1
102
RTVSPropertyOp31
 70
     1
102
RTVSPropertyOp32
 70
     1
  0
ENDSEC
  0
EOF
