  0
SECTION
  2
HEADER
  9
$ACADVER
  1
AC1024
  9
$ACADMAINTVER
 70
     6
  9
$DWGCODEPAGE
  3
ANSI_1252
  9
$INSBASE
 10
0.0
 20
0.0
 30
0.0
  9
$EXTMIN
 10
0.0
 20
-0.0000000000000049
 30
-0.0000000000000279
  9
$EXTMAX
 10
462.0
 20
326.7000000000002
 30
0.0000000000000279
  9
$LIMMIN
 10
0.0
 20
0.0
  9
$LIMMAX
 10
420.0
 20
297.0
  9
$ORTHOMODE
 70
     1
  9
$REGENMODE
 70
     1
  9
$FILLMODE
 70
     1
  9
$QTEXTMODE
 70
     0
  9
$MIRRTEXT
 70
     1
  9
$LTSCALE
 40
1.0
  9
$ATTMODE
 70
     1
  9
$TEXTSIZE
 40
2.5
  9
$TRACEWID
 40
1.0
  9
$TEXTSTYLE
  7
Standard
  9
$CLAYER
  8
0
  9
$CELTYPE
  6
ByLayer
  9
$CECOLOR
 62
   256
  9
$CELTSCALE
 40
1.0
  9
$DISPSILH
 70
     0
  9
$DIMSCALE
 40
1.0
  9
$DIMASZ
 40
2.5
  9
$DIMEXO
 40
1.0
  9
$DIMDLI
 40
3.75
  9
$DIMRND
 40
0.0
  9
$DIMDLE
 40
0.0
  9
$DIMEXE
 40
1.0
  9
$DIMTP
 40
0.0
  9
$DIMTM
 40
0.0
  9
$DIMTXT
 40
2.5
  9
$DIMCEN
 40
2.5
  9
$DIMTSZ
 40
0.0
  9
$DIMTOL
 70
     0
  9
$DIMLIM
 70
     0
  9
$DIMTIH
 70
     1
  9
$DIMTOH
 70
     1
  9
$DIMSE1
 70
     0
  9
$DIMSE2
 70
     0
  9
$DIMTAD
 70
     1
  9
$DIMZIN
 70
     1
  9
$DIMBLK
  1

  9
$DIMASO
 70
     1
  9
$DIMSHO
 70
     1
  9
$DIMPOST
  1

  9
$DIMAPOST
  1

  9
$DIMALT
 70
     0
  9
$DIMALTD
 70
     3
  9
$DIMALTF
 40
0.0394
  9
$DIMLFAC
 40
1.0
  9
$DIMTOFL
 70
     1
  9
$DIMTVP
 40
0.0
  9
$DIMTIX
 70
     0
  9
$DIMSOXD
 70
     0
  9
$DIMSAH
 70
     0
  9
$DIMBLK1
  1

  9
$DIMBLK2
  1

  9
$DIMSTYLE
  2
ISO-25
  9
$DIMCLRD
 70
     0
  9
$DIMCLRE
 70
     0
  9
$DIMCLRT
 70
     0
  9
$DIMTFAC
 40
1.0
  9
$DIMGAP
 40
1.524
  9
$DIMJUST
 70
     0
  9
$DIMSD1
 70
     0
  9
$DIMSD2
 70
     0
  9
$DIMTOLJ
 70
     0
  9
$DIMTZIN
 70
     1
  9
$DIMALTZ
 70
     0
  9
$DIMALTTZ
 70
     0
  9
$DIMUPT
 70
     0
  9
$DIMDEC
 70
     2
  9
$DIMTDEC
 70
     2
  9
$DIMALTU
 70
     2
  9
$DIMALTTD
 70
     3
  9
$DIMTXSTY
  7
Standard
  9
$DIMAUNIT
 70
     0
  9
$DIMADEC
 70
     0
  9
$DIMALTRND
 40
0.0
  9
$DIMAZIN
 70
     0
  9
$DIMDSEP
 70
    44
  9
$DIMATFIT
 70
     3
  9
$DIMFRAC
 70
     0
  9
$DIMLDRBLK
  1

  9
$DIMLUNIT
 70
     2
  9
$DIMLWD
 70
    -2
  9
$DIMLWE
 70
    -2
  9
$DIMTMOVE
 70
     0
  9
$DIMFXL
 40
1.0
  9
$DIMFXLON
 70
     0
  9
$DIMJOGANG
 40
0.7853981633974483
  9
$DIMTFILL
 70
     0
  9
$DIMTFILLCLR
 70
     0
  9
$DIMARCSYM
 70
     0
  9
$DIMLTYPE
  6

  9
$DIMLTEX1
  6

  9
$DIMLTEX2
  6

  9
$DIMTXTDIRECTION
 70
     0
  9
$LUNITS
 70
     2
  9
$LUPREC
 70
     1
  9
$SKETCHINC
 40
1.0
  9
$FILLETRAD
 40
0.0
  9
$AUNITS
 70
     0
  9
$AUPREC
 70
     0
  9
$MENU
  1
.
  9
$ELEVATION
 40
0.0
  9
$PELEVATION
 40
0.0
  9
$THICKNESS
 40
0.0
  9
$LIMCHECK
 70
     0
  9
$CHAMFERA
 40
10.0
  9
$CHAMFERB
 40
10.0
  9
$CHAMFERC
 40
20.0
  9
$CHAMFERD
 40
0.0
  9
$SKPOLY
 70
     0
  9
$TDCREATE
 40
2453810.719151829
  9
$TDUCREATE
 40
2453810.635818495
  9
$TDUPDATE
 40
2456883.342908669
  9
$TDUUPDATE
 40
2456883.259575336
  9
$TDINDWG
 40
0.0118085995
  9
$TDUSRTIMER
 40
0.0118085995
  9
$USRTIMER
 70
     1
  9
$ANGBASE
 50
0.0
  9
$ANGDIR
 70
     0
  9
$PDMODE
 70
     0
  9
$PDSIZE
 40
-1.0
  9
$PLINEWID
 40
0.0
  9
$SPLFRAME
 70
     0
  9
$SPLINETYPE
 70
     6
  9
$SPLINESEGS
 70
     8
  9
$HANDSEED
  5
1D8
  9
$SURFTAB1
 70
     6
  9
$SURFTAB2
 70
     6
  9
$SURFTYPE
 70
     6
  9
$SURFU
 70
     6
  9
$SURFV
 70
     6
  9
$UCSBASE
  2

  9
$UCSNAME
  2

  9
$UCSORG
 10
0.0
 20
0.0
 30
0.0
  9
$UCSXDIR
 10
1.0
 20
0.0
 30
0.0
  9
$UCSYDIR
 10
0.0
 20
1.0
 30
0.0
  9
$UCSORTHOREF
  2

  9
$UCSORTHOVIEW
 70
     0
  9
$UCSORGTOP
 10
0.0
 20
0.0
 30
0.0
  9
$UCSORGBOTTOM
 10
0.0
 20
0.0
 30
0.0
  9
$UCSORGLEFT
 10
0.0
 20
0.0
 30
0.0
  9
$UCSORGRIGHT
 10
0.0
 20
0.0
 30
0.0
  9
$UCSORGFRONT
 10
0.0
 20
0.0
 30
0.0
  9
$UCSORGBACK
 10
0.0
 20
0.0
 30
0.0
  9
$PUCSBASE
  2

  9
$PUCSNAME
  2

  9
$PUCSORG
 10
0.0
 20
0.0
 30
0.0
  9
$PUCSXDIR
 10
1.0
 20
0.0
 30
0.0
  9
$PUCSYDIR
 10
0.0
 20
1.0
 30
0.0
  9
$PUCSORTHOREF
  2

  9
$PUCSORTHOVIEW
 70
     0
  9
$PUCSORGTOP
 10
0.0
 20
0.0
 30
0.0
  9
$PUCSORGBOTTOM
 10
0.0
 20
0.0
 30
0.0
  9
$PUCSORGLEFT
 10
0.0
 20
0.0
 30
0.0
  9
$PUCSORGRIGHT
 10
0.0
 20
0.0
 30
0.0
  9
$PUCSORGFRONT
 10
0.0
 20
0.0
 30
0.0
  9
$PUCSORGBACK
 10
0.0
 20
0.0
 30
0.0
  9
$USERI1
 70
     0
  9
$USERI2
 70
     0
  9
$USERI3
 70
     0
  9
$USERI4
 70
     0
  9
$USERI5
 70
     0
  9
$USERR1
 40
0.0
  9
$USERR2
 40
0.0
  9
$USERR3
 40
0.0
  9
$USERR4
 40
0.0
  9
$USERR5
 40
0.0
  9
$WORLDVIEW
 70
     1
  9
$SHADEDGE
 70
     3
  9
$SHADEDIF
 70
    70
  9
$TILEMODE
 70
     1
  9
$MAXACTVP
 70
    64
  9
$PINSBASE
 10
0.0
 20
0.0
 30
0.0
  9
$PLIMCHECK
 70
     0
  9
$PEXTMIN
 10
1.000000000000000E+20
 20
1.000000000000000E+20
 30
1.000000000000000E+20
  9
$PEXTMAX
 10
-1.000000000000000E+20
 20
-1.000000000000000E+20
 30
-1.000000000000000E+20
  9
$PLIMMIN
 10
0.0
 20
0.0
  9
$PLIMMAX
 10
420.0
 20
297.0
  9
$UNITMODE
 70
     0
  9
$VISRETAIN
 70
     1
  9
$PLINEGEN
 70
     0
  9
$PSLTSCALE
 70
     1
  9
$TREEDEPTH
 70
  3020
  9
$CMLSTYLE
  2
Standard
  9
$CMLJUST
 70
     0
  9
$CMLSCALE
 40
20.0
  9
$PROXYGRAPHICS
 70
     1
  9
$MEASUREMENT
 70
     1
  9
$CELWEIGHT
370
    -1
  9
$ENDCAPS
280
     0
  9
$JOINSTYLE
280
     0
  9
$LWDISPLAY
290
     0
  9
$INSUNITS
 70
     4
  9
$HYPERLINKBASE
  1

  9
$STYLESHEET
  1

  9
$XEDIT
290
     1
  9
$CEPSNTYPE
380
     0
  9
$PSTYLEMODE
290
     1
  9
$FINGERPRINTGUID
  2
{E3C61411-94C7-416B-B63F-C619645BF2ED}
  9
$VERSIONGUID
  2
{BAD87445-1B60-4021-B88F-F0C6973B8F39}
  9
$EXTNAMES
290
     1
  9
$PSVPSCALE
 40
0.0
  9
$OLESTARTUP
290
     0
  9
$SORTENTS
280
   127
  9
$INDEXCTL
280
     0
  9
$HIDETEXT
280
     1
  9
$XCLIPFRAME
280
     0
  9
$HALOGAP
280
     0
  9
$OBSCOLOR
 70
   257
  9
$OBSLTYPE
280
     0
  9
$INTERSECTIONDISPLAY
280
     0
  9
$INTERSECTIONCOLOR
 70
   257
  9
$DIMASSOC
280
     1
  9
$PROJECTNAME
  1

  9
$CAMERADISPLAY
290
     0
  9
$LENSLENGTH
 40
50.0
  9
$CAMERAHEIGHT
 40
0.0
  9
$STEPSPERSEC
 40
2.0
  9
$STEPSIZE
 40
6.0
  9
$3DDWFPREC
 40
2.0
  9
$PSOLWIDTH
 40
0.25
  9
$PSOLHEIGHT
 40
4.0
  9
$LOFTANG1
 40
1.570796326794896
  9
$LOFTANG2
 40
1.570796326794896
  9
$LOFTMAG1
 40
0.0
  9
$LOFTMAG2
 40
0.0
  9
$LOFTPARAM
 70
     7
  9
$LOFTNORMALS
280
     1
  9
$LATITUDE
 40
37.795
  9
$LONGITUDE
 40
-122.394
  9
$NORTHDIRECTION
 40
0.0
  9
$TIMEZONE
 70
 -8000
  9
$LIGHTGLYPHDISPLAY
280
     1
  9
$TILEMODELIGHTSYNCH
280
     1
  9
$CMATERIAL
347
34
  9
$SOLIDHIST
280
     1
  9
$SHOWHIST
280
     1
  9
$DWFFRAME
280
     2
  9
$DGNFRAME
280
     0
  9
$REALWORLDSCALE
290
     1
  9
$INTERFERECOLOR
 62
     1
  9
$INTERFEREOBJVS
345
4A
  9
$INTERFEREVPVS
346
4B
  9
$CSHADOW
280
     0
  9
$SHADOWPLANELOCATION
 40
0.0
  0
ENDSEC
  0
SECTION
  2
CLASSES
  0
CLASS
  1
ACDBDICTIONARYWDFLT
  2
AcDbDictionaryWithDefault
  3
ObjectDBX Classes
 90
        0
 91
        1
280
     0
281
     0
  0
CLASS
  1
TABLESTYLE
  2
AcDbTableStyle
  3
ObjectDBX Classes
 90
     4095
 91
        1
280
     0
281
     0
  0
CLASS
  1
DICTIONARYVAR
  2
AcDbDictionaryVar
  3
ObjectDBX Classes
 90
        0
 91
        7
280
     0
281
     0
  0
CLASS
  1
MATERIAL
  2
AcDbMaterial
  3
ObjectDBX Classes
 90
     1153
 91
        3
280
     0
281
     0
  0
CLASS
  1
VISUALSTYLE
  2
AcDbVisualStyle
  3
ObjectDBX Classes
 90
     4095
 91
        3
280
     0
281
     0
  0
CLASS
  1
SCALE
  2
AcDbScale
  3
ObjectDBX Classes
 90
     1153
 91
       17
280
     0
281
     0
  0
CLASS
  1
MLEADERSTYLE
  2
AcDbMLeaderStyle
  3
ACDB_MLEADERSTYLE_CLASS
 90
     4095
 91
        0
280
     0
281
     0
  0
CLASS
  1
SORTENTSTABLE
  2
AcDbSortentsTable
  3
ObjectDBX Classes
 90
        0
 91
        0
280
     0
281
     0
  0
CLASS
  1
CELLSTYLEMAP
  2
AcDbCellStyleMap
  3
ObjectDBX Classes
 90
     1152
 91
        1
280
     0
281
     0
  0
ENDSEC
  0
SECTION
  2
TABLES
  0
TABLE
  2
VPORT
  5
28
330
0
100
AcDbSymbolTable
 70
     1
  0
VPORT
  5
29
330
28
100
AcDbSymbolTableRecord
100
AcDbViewportTableRecord
  2
*Active
 70
     0
 10
0.0
 20
0.0
 11
1.0
 21
1.0
 12
14.84532497488664
 22
1.745612778273425
 13
0.0
 23
0.0
 14
10.0
 24
10.0
 15
10.0
 25
10.0
 16
0.0
 26
0.0
 36
1.0
 17
148.5000047564428
 27
104.9999999999999
 37
-0.0000000000006529
 40
527.0133660577712
 41
1.937738246505718
 42
50.0
 43
0.0
 44
0.0
 50
0.0
 51
0.0
 71
     0
 72
  2000
 73
     1
 74
     3
 75
     0
 76
     0
 77
     0
 78
     0
281
     0
 65
     1
110
0.0
120
0.0
130
0.0
111
1.0
121
0.0
131
0.0
112
0.0
122
1.0
132
0.0
 79
     0
146
0.0
348
2A
 60
     3
 61
     5
292
     1
282
     1
141
0.0
142
0.0
 63
   250
421
  3355443
  0
ENDTAB
  0
TABLE
  2
LTYPE
  5
23
330
0
100
AcDbSymbolTable
 70
     3
  0
LTYPE
  5
24
330
23
100
AcDbSymbolTableRecord
100
AcDbLinetypeTableRecord
  2
ByBlock
 70
     0
  3

 72
    65
 73
     0
 40
0.0
  0
LTYPE
  5
25
330
23
100
AcDbSymbolTableRecord
100
AcDbLinetypeTableRecord
  2
ByLayer
 70
     0
  3

 72
    65
 73
     0
 40
0.0
  0
LTYPE
  5
13
330
23
100
AcDbSymbolTableRecord
100
AcDbLinetypeTableRecord
  2
Continuous
 70
     0
  3
Solid line
 72
    65
 73
     0
 40
0.0
  0
LTYPE
  5
BF
330
23
100
AcDbSymbolTableRecord
100
AcDbLinetypeTableRecord
  2
AUSGEZOGEN
 70
     0
  3
Ausgezogene Linie
 72
    65
 73
     0
 40
0.0
  0
LTYPE
  5
DE
330
23
100
AcDbSymbolTableRecord
100
AcDbLinetypeTableRecord
  2
STRICHPUNKT
 70
     0
  3
Strichpunkt __ . __ . __ . __ . __ . __ . __ . 
 72
    65
 73
     4
 40
1.0
 49
0.5
 74
     0
 49
-0.25
 74
     0
 49
0.0
 74
     0
 49
-0.25
 74
     0
  0
ENDTAB
  0
TABLE
  2
LAYER
  5
1D
102
{ACAD_XDICTIONARY
360
1E
102
}
330
0
100
AcDbSymbolTable
 70
    11
  0
LAYER
  5
4
102
{ACAD_XDICTIONARY
360
5
102
}
330
1D
100
AcDbSymbolTableRecord
100
AcDbLayerTableRecord
  2
0
 70
     0
 62
     7
  6
Continuous
370
    -3
390
7
347
A
  0
LAYER
  5
73
330
1D
100
AcDbSymbolTableRecord
100
AcDbLayerTableRecord
  2
Defpoints
 70
     0
 62
     7
  6
Continuous
290
     0
370
    -3
390
7
347
A
  0
LAYER
  5
1A0
102
{ACAD_XDICTIONARY
360
1A1
102
}
330
1D
100
AcDbSymbolTableRecord
100
AcDbLayerTableRecord
  2
07-99
 70
     0
 62
     6
  6
Continuous
370
    -3
390
7
347
A
  0
LAYER
  5
175
102
{ACAD_XDICTIONARY
360
176
102
}
330
1D
100
AcDbSymbolTableRecord
100
AcDbLayerTableRecord
  2
01-99
 70
     0
 62
     2
  6
Continuous
370
    -3
390
7
347
A
  0
LAYER
  5
1A6
102
{ACAD_XDICTIONARY
360
1A7
102
}
330
1D
100
AcDbSymbolTableRecord
100
AcDbLayerTableRecord
  2
06-99
 70
     0
 62
     1
  6
AUSGEZOGEN
370
    -3
390
7
347
A
  0
LAYER
  5
BC
102
{ACAD_XDICTIONARY
360
BD
102
}
330
1D
100
AcDbSymbolTableRecord
100
AcDbLayerTableRecord
  2
02-99
 70
     0
 62
     1
  6
AUSGEZOGEN
370
    -3
390
7
347
A
  0
LAYER
  5
17C
102
{ACAD_XDICTIONARY
360
17D
102
}
330
1D
100
AcDbSymbolTableRecord
100
AcDbLayerTableRecord
  2
08-99
 70
     0
 62
     7
  6
Continuous
370
    -3
390
7
347
A
  0
LAYER
  5
1AD
102
{ACAD_XDICTIONARY
360
1AE
102
}
330
1D
100
AcDbSymbolTableRecord
100
AcDbLayerTableRecord
  2
10-98
 70
     0
 62
     4
  6
Continuous
370
    -3
390
7
347
A
  0
LAYER
  5
67
102
{ACAD_XDICTIONARY
360
68
102
}
330
1D
100
AcDbSymbolTableRecord
100
AcDbLayerTableRecord
  2
09-01
 70
     0
 62
     7
  6
Continuous
370
    -3
390
7
347
A
  0
LAYER
  5
DB
102
{ACAD_XDICTIONARY
360
DC
102
}
330
1D
100
AcDbSymbolTableRecord
100
AcDbLayerTableRecord
  2
05-01
 70
     0
 62
     1
  6
STRICHPUNKT
370
    -3
390
7
347
A
  0
LAYER
  5
16F
102
{ACAD_XDICTIONARY
360
170
102
}
330
1D
100
AcDbSymbolTableRecord
100
AcDbLayerTableRecord
  2
06-01
 70
     0
 62
     1
  6
Continuous
370
    -3
390
7
347
A
  0
ENDTAB
  0
TABLE
  2
STYLE
  5
20
330
0
100
AcDbSymbolTable
 70
     2
  0
STYLE
  5
21
330
20
100
AcDbSymbolTableRecord
100
AcDbTextStyleTableRecord
  2
Standard
 70
     0
 40
0.0
 41
1.0
 50
0.0
 71
     0
 42
2.5
  3
txt
  4

  0
STYLE
  5
17F
330
20
100
AcDbSymbolTableRecord
100
AcDbTextStyleTableRecord
  2
ROMANS8
 70
     0
 40
0.0
 41
1.0
 50
0.0
 71
     0
 42
2.5
  3
ROMANS8
  4

  0
ENDTAB
  0
TABLE
  2
VIEW
  5
26
330
0
100
AcDbSymbolTable
 70
     0
  0
ENDTAB
  0
TABLE
  2
UCS
  5
27
330
0
100
AcDbSymbolTable
 70
     0
  0
ENDTAB
  0
TABLE
  2
APPID
  5
2C
330
0
100
AcDbSymbolTable
 70
     4
  0
APPID
  5
2D
330
2C
100
AcDbSymbolTableRecord
100
AcDbRegAppTableRecord
  2
ACAD
 70
     0
  0
APPID
  5
78
330
2C
100
AcDbSymbolTableRecord
100
AcDbRegAppTableRecord
  2
ACAD_DSTYLE_DIMJOGGED_JOGANGLE_SYMBOL
 70
     0
  0
APPID
  5
79
330
2C
100
AcDbSymbolTableRecord
100
AcDbRegAppTableRecord
  2
ACAD_DSTYLE_DIMJAG
 70
     0
  0
APPID
  5
7A
330
2C
100
AcDbSymbolTableRecord
100
AcDbRegAppTableRecord
  2
ACAD_DSTYLE_DIMTALN
 70
     0
  0
ENDTAB
  0
TABLE
  2
DIMSTYLE
  5
2E
330
0
100
AcDbSymbolTable
 70
     2
100
AcDbDimStyleTable
 71
     1
340
2F
  0
DIMSTYLE
105
2F
330
2E
100
AcDbSymbolTableRecord
100
AcDbDimStyleTableRecord
  2
ISO-25
 70
     0
 41
2.5
 42
0.625
 43
3.75
 44
1.25
 73
     0
 74
     0
 77
     1
 78
     8
140
2.5
141
2.5
143
0.03937007874016
147
0.625
171
     3
172
     1
271
     2
272
     2
274
     3
278
    44
283
     0
284
     8
340
21
  0
DIMSTYLE
105
77
102
{ACAD_REACTORS
330
103
330
F1
330
E4
330
CD
330
C0
330
AE
330
9F
330
92
330
7B
330
66
102
}
330
2E
100
AcDbSymbolTableRecord
100
AcDbDimStyleTableRecord
  2
Wagner$0
 70
     0
 41
2.5
 42
1.0
 43
10.0
 44
1.0
 73
     0
 74
     0
 77
     1
 78
     8
 79
     2
140
2.5
141
0.0
143
0.03937007874016
147
1.0
171
     3
172
     1
174
     1
176
     4
177
     4
178
     1
179
     2
271
     8
272
     8
274
     3
279
     2
283
     0
284
     8
340
21
1001
ACAD_DSTYLE_DIMJOGGED_JOGANGLE_SYMBOL
1070
   384
1040
0.7853981633974483
1001
ACAD_DSTYLE_DIMJAG
1070
   388
1040
1.5
1001
ACAD_DSTYLE_DIMTALN
1070
   392
1070
     0
  0
ENDTAB
  0
TABLE
  2
BLOCK_RECORD
  5
1
330
0
100
AcDbSymbolTable
 70
    11
  0
BLOCK_RECORD
  5
2
330
1
100
AcDbSymbolTableRecord
100
AcDbBlockTableRecord
  2
*Model_Space
340
15
 70
     0
280
     1
281
     0
  0
BLOCK_RECORD
  5
19
330
1
100
AcDbSymbolTableRecord
100
AcDbBlockTableRecord
  2
*Paper_Space
340
1C
 70
     0
280
     1
281
     0
  0
BLOCK_RECORD
  5
172
330
1
100
AcDbSymbolTableRecord
100
AcDbBlockTableRecord
  2
A4-Wagner-EWAR
340
0
102
{BLKREFS
331
16E
102
}
 70
     0
280
     1
281
     0
  0
BLOCK_RECORD
  5
104
330
1
100
AcDbSymbolTableRecord
100
AcDbBlockTableRecord
  2
*D1
340
0
 70
     0
280
     1
281
     0
  0
BLOCK_RECORD
  5
F2
330
1
100
AcDbSymbolTableRecord
100
AcDbBlockTableRecord
  2
*D2
340
0
 70
     0
280
     1
281
     0
  0
BLOCK_RECORD
  5
E5
330
1
100
AcDbSymbolTableRecord
100
AcDbBlockTableRecord
  2
*D3
340
0
 70
     0
280
     1
281
     0
  0
BLOCK_RECORD
  5
CE
330
1
100
AcDbSymbolTableRecord
100
AcDbBlockTableRecord
  2
*D4
340
0
 70
     0
280
     1
281
     0
  0
BLOCK_RECORD
  5
C1
330
1
100
AcDbSymbolTableRecord
100
AcDbBlockTableRecord
  2
*D5
340
0
 70
     0
280
     1
281
     0
  0
BLOCK_RECORD
  5
AF
330
1
100
AcDbSymbolTableRecord
100
AcDbBlockTableRecord
  2
*D6
340
0
 70
     0
280
     1
281
     0
  0
BLOCK_RECORD
  5
A0
330
1
100
AcDbSymbolTableRecord
100
AcDbBlockTableRecord
  2
*D7
340
0
 70
     0
280
     1
281
     0
  0
BLOCK_RECORD
  5
93
330
1
100
AcDbSymbolTableRecord
100
AcDbBlockTableRecord
  2
*D8
340
0
 70
     0
280
     1
281
     0
  0
BLOCK_RECORD
  5
7C
330
1
100
AcDbSymbolTableRecord
100
AcDbBlockTableRecord
  2
*D9
340
0
 70
     0
280
     1
281
     0
  0
BLOCK_RECORD
  5
6A
330
1
100
AcDbSymbolTableRecord
100
AcDbBlockTableRecord
  2
*D10
340
0
 70
     0
280
     1
281
     0
  0
ENDTAB
  0
ENDSEC
  0
SECTION
  2
BLOCKS
  0
BLOCK
  5
3
330
2
100
AcDbEntity
  8
0
100
AcDbBlockBegin
  2
*Model_Space
 70
     0
 10
0.0
 20
0.0
 30
0.0
  3
*Model_Space
  1

  0
ENDBLK
  5
14
330
2
100
AcDbEntity
  8
0
100
AcDbBlockEnd
  0
BLOCK
  5
1A
330
19
100
AcDbEntity
 67
     1
  8
0
100
AcDbBlockBegin
  2
*Paper_Space
 70
     0
 10
0.0
 20
0.0
 30
0.0
  3
*Paper_Space
  1

  0
ENDBLK
  5
1B
330
19
100
AcDbEntity
 67
     1
  8
0
100
AcDbBlockEnd
  0
BLOCK
  5
173
330
172
100
AcDbEntity
  8
0
100
AcDbBlockBegin
  2
A4-Wagner-EWAR
 70
     2
 10
0.0
 20
0.0
 30
0.0
  3
A4-Wagner-EWAR
  1

  0
LINE
  5
174
330
172
100
AcDbEntity
  8
01-99
100
AcDbLine
 10
203.9999999999999
 20
291.0
 30
0.0
 11
20.00000000000007
 21
290.9999999999999
 31
0.0
  0
LINE
  5
178
330
172
100
AcDbEntity
  8
01-99
100
AcDbLine
 10
203.9999999999999
 20
291.0
 30
0.0
 11
204.0
 21
5.999999999999995
 31
0.0
  0
LINE
  5
179
330
172
100
AcDbEntity
  8
01-99
100
AcDbLine
 10
204.0
 20
5.999999999999995
 30
0.0
 11
20.0
 21
5.999999999999886
 31
0.0
  0
LINE
  5
17A
330
172
100
AcDbEntity
  8
01-99
100
AcDbLine
 10
20.0
 20
5.999999999999886
 30
0.0
 11
20.00000000000007
 21
290.9999999999999
 31
0.0
  0
TEXT
  5
17B
330
172
100
AcDbEntity
  8
08-99
100
AcDbText
 10
21.5
 20
12.99999999999988
 30
0.0
 40
2.5
  1
Benennung/Teil:
 51
15.0
  7
ROMANS8
100
AcDbText
  0
TEXT
  5
180
330
172
100
AcDbEntity
  8
08-99
100
AcDbText
 10
196.5
 20
13.49999999999988
 30
0.0
 40
2.5
  1
Index
 41
0.7840000000000004
 51
15.0
  7
ROMANS8
 72
     5
 11
203.5
 21
13.49999999999988
 31
0.0
100
AcDbText
  0
TEXT
  5
181
330
172
100
AcDbEntity
  8
08-99
100
AcDbText
 10
188.5
 20
13.49999999999988
 30
0.0
 40
2.5
  1
Form
 41
0.7583333333333337
 51
15.0
  7
ROMANS8
 72
     5
 11
195.0
 21
13.49999999999988
 31
0.0
100
AcDbText
  0
TEXT
  5
182
330
172
100
AcDbEntity
  8
08-99
100
AcDbText
 10
139.5
 20
13.49999999999988
 30
0.0
 40
2.5
  1
Ident-Nr.
 51
15.0
  7
ROMANS8
100
AcDbText
  0
TEXT
  5
183
330
172
100
AcDbEntity
  8
08-99
100
AcDbText
 10
115.5
 20
13.49999999999988
 30
0.0
 40
2.5
  1
Maßstab
 51
15.0
  7
ROMANS8
100
AcDbText
  0
LINE
  5
184
330
172
100
AcDbEntity
  8
01-99
100
AcDbLine
 10
138.0
 20
17.0
 30
0.0
 11
138.0
 21
5.999999999999995
 31
0.0
  0
LINE
  5
185
330
172
100
AcDbEntity
  8
01-99
100
AcDbLine
 10
188.0
 20
17.0
 30
0.0
 11
188.0
 21
5.999999999999995
 31
0.0
  0
LINE
  5
186
330
172
100
AcDbEntity
  8
01-99
100
AcDbLine
 10
196.0
 20
17.0
 30
0.0
 11
196.0
 21
5.999999999999995
 31
0.0
  0
LINE
  5
187
330
172
100
AcDbEntity
  8
01-99
100
AcDbLine
 10
113.9999999999982
 20
16.99999999999993
 30
0.0
 11
113.9999999999982
 21
6.000000000000109
 31
0.0
  0
LINE
  5
188
330
172
100
AcDbEntity
  8
02-99
100
AcDbLine
 10
109.9999999999982
 20
31.99999999999988
 30
0.0
 11
109.9999999999983
 21
51.99999999999992
 31
0.0
  0
TEXT
  5
189
330
172
100
AcDbEntity
  8
01-99
100
AcDbText
 10
188.9166666666666
 20
8.249999999999882
 30
0.0
 40
3.5
  1
A4
  7
ROMANS8
 72
     4
 11
192.0
 21
9.999999999999882
 31
0.0
100
AcDbText
  0
LINE
  5
18A
330
172
100
AcDbEntity
  8
01-99
100
AcDbLine
 10
204.0
 20
16.99999999999998
 30
0.0
 11
20.0
 21
16.99999999999988
 31
0.0
  0
TEXT
  5
18B
330
172
100
AcDbEntity
  8
08-99
100
AcDbText
 10
74.0
 20
17.99999999999991
 30
0.0
 40
2.5
  1
Name:
 51
15.0
  7
ROMANS8
100
AcDbText
  0
TEXT
  5
18C
330
172
100
AcDbEntity
  8
08-99
100
AcDbText
 10
21.0
 20
17.99999999999988
 30
0.0
 40
2.5
  1
gezeichnet Datum:
 41
0.920547945205479
 51
15.0
  7
ROMANS8
 72
     5
 11
53.0
 21
17.99999999999988
 31
0.0
100
AcDbText
  0
LINE
  5
18D
330
172
100
AcDbEntity
  8
01-99
100
AcDbLine
 10
157.0
 20
31.99999999999997
 30
0.0
 11
157.0
 21
16.99999999999995
 31
0.0
  0
LINE
  5
18E
330
172
100
AcDbEntity
  8
02-99
100
AcDbLine
 10
156.9999999999982
 20
21.99999999999997
 30
0.0
 11
20.0
 21
21.99999999999988
 31
0.0
  0
LINE
  5
18F
330
172
100
AcDbEntity
  8
01-99
100
AcDbLine
 10
167.0
 20
17.0
 30
0.0
 11
167.0
 21
5.999999999999995
 31
0.0
  0
TEXT
  5
190
330
172
100
AcDbEntity
  8
08-99
100
AcDbText
 10
167.5
 20
13.49999999999988
 30
0.0
 40
2.5
  1
DWG-Name
 41
0.9360000000000001
 51
15.0
  7
ROMANS8
 72
     5
 11
187.0
 21
13.49999999999988
 31
0.0
100
AcDbText
  0
LINE
  5
191
330
172
100
AcDbEntity
  8
01-99
100
AcDbLine
 10
156.9999999999982
 20
21.99999999999997
 30
0.0
 11
20.0
 21
21.99999999999988
 31
0.0
  0
LINE
  5
192
330
172
100
AcDbEntity
  8
02-99
100
AcDbLine
 10
156.9999999999982
 20
26.99999999999997
 30
0.0
 11
20.0
 21
26.99999999999988
 31
0.0
  0
LINE
  5
193
330
172
100
AcDbEntity
  8
01-99
100
AcDbLine
 10
204.0
 20
32.00000000000001
 30
0.0
 11
19.99999999999818
 21
31.99999999999988
 31
0.0
  0
LINE
  5
194
330
172
100
AcDbEntity
  8
02-99
100
AcDbLine
 10
204.0
 20
42.00000000000001
 30
0.0
 11
19.99999999999818
 21
41.99999999999987
 31
0.0
  0
LINE
  5
195
330
172
100
AcDbEntity
  8
01-99
100
AcDbLine
 10
204.0
 20
52.00000000000001
 30
0.0
 11
19.99999999999818
 21
51.99999999999988
 31
0.0
  0
TEXT
  5
196
330
172
100
AcDbEntity
  8
08-99
100
AcDbText
 10
21.5
 20
27.99999999999988
 30
0.0
 40
2.5
  1
Änderung:
 51
15.0
  7
ROMANS8
100
AcDbText
  0
TEXT
  5
197
330
172
100
AcDbEntity
  8
08-99
100
AcDbText
 10
21.5
 20
37.99999999999988
 30
0.0
 40
2.5
  1
Com:
 51
15.0
  7
ROMANS8
100
AcDbText
  0
TEXT
  5
198
330
172
100
AcDbEntity
  8
08-99
100
AcDbText
 10
21.5
 20
47.99999999999988
 30
0.0
 40
2.5
  1
Kunde:
 51
15.0
  7
ROMANS8
100
AcDbText
  0
TEXT
  5
199
330
172
100
AcDbEntity
  8
08-99
100
AcDbText
 10
111.5
 20
47.99999999999988
 30
0.0
 40
2.5
  1
Projekt:
 51
15.0
  7
ROMANS8
100
AcDbText
  0
TEXT
  5
19A
330
172
100
AcDbEntity
  8
08-99
100
AcDbText
 10
111.5
 20
37.99999999999988
 30
0.0
 40
2.5
  1
Pos:
 51
15.0
  7
ROMANS8
100
AcDbText
  0
ATTDEF
  5
19B
330
172
100
AcDbEntity
  8
01-99
100
AcDbText
 10
21.5
 20
32.9999999999999
 30
0.0
 40
3.0
  1
.
 41
0.9
  7
ROMANS8
100
AcDbAttributeDefinition
280
     0
  3
Kommission
  2
COM
 70
     0
280
     0
  0
ATTDEF
  5
19C
330
172
100
AcDbEntity
  8
01-99
100
AcDbText
 10
111.5
 20
42.99999999999989
 30
0.0
 40
3.0
  1
.
 41
0.9
  7
ROMANS8
100
AcDbAttributeDefinition
280
     0
  3
Projekt
  2
PROJ
 70
     0
280
     0
  0
ATTDEF
  5
19D
330
172
100
AcDbEntity
  8
01-99
100
AcDbText
 10
111.5
 20
32.9999999999999
 30
0.0
 40
3.0
  1
.
 41
0.9
  7
ROMANS8
100
AcDbAttributeDefinition
280
     0
  3
Positionen
  2
POS
 70
     0
280
     0
  0
ATTDEF
  5
19E
330
172
100
AcDbEntity
  8
01-99
100
AcDbText
 10
138.5
 20
7.999999999999896
 30
0.0
 40
3.5
  1
.
  7
ROMANS8
100
AcDbAttributeDefinition
280
     0
  3
Ident-Nummer
  2
E:M1
 70
     0
280
     0
  0
ATTDEF
  5
19F
330
172
100
AcDbEntity
  8
07-99
100
AcDbText
 10
203.9904761904762
 20
5.999999999999896
 30
0.0
 40
0.1
  1
.
  7
ROMANS8
 72
     2
 11
204.0
 21
5.999999999999896
 31
0.0
100
AcDbAttributeDefinition
280
     0
  3
Unsichtbar
  2
E:M2
 70
     0
280
     0
  0
ATTDEF
  5
1A3
330
172
100
AcDbEntity
  8
01-99
100
AcDbText
 10
21.5
 20
7.999999999999896
 30
0.0
 40
3.0
  1
.
 41
0.9
  7
ROMANS8
100
AcDbAttributeDefinition
280
     0
  3
Benennung/Teil
  2
E:M3
 70
     0
280
     0
  0
ATTDEF
  5
1A4
330
172
100
AcDbEntity
  8
01-99
100
AcDbText
 10
21.5
 20
42.99999999999989
 30
0.0
 40
3.0
  1
.
 41
0.9
  7
ROMANS8
100
AcDbAttributeDefinition
280
     0
  3
Kunde
  2
E:M4
 70
     0
280
     0
  0
ATTDEF
  5
1A5
330
172
100
AcDbEntity
  8
06-99
100
AcDbText
 10
87.0
 20
17.99999999999849
 30
0.0
 40
2.5
  1
.
 41
0.9
  7
ROMANS8
100
AcDbAttributeDefinition
280
     0
  3
Name
  2
E:M5
 70
     0
280
     0
  0
ATTDEF
  5
1A9
330
172
100
AcDbEntity
  8
06-99
100
AcDbText
 10
54.0
 20
17.9999999999999
 30
0.0
 40
2.5
  1
.
 41
73.5
  7
ROMANS8
 72
     5
 11
71.5
 21
17.9999999999999
 31
0.0
100
AcDbAttributeDefinition
280
     0
  3
Datum
  2
E:M6
 70
     0
280
     0
  0
ATTDEF
  5
1AA
330
172
100
AcDbEntity
  8
01-99
100
AcDbText
 10
125.3571428571428
 20
7.999999999999896
 30
0.0
 40
3.0
  1
.
  7
ROMANS8
 72
     1
 11
125.5
 21
7.999999999999896
 31
0.0
100
AcDbAttributeDefinition
280
     0
  3
Maßstab
  2
E:MA
 70
     0
280
     0
  0
ATTDEF
  5
1AB
330
172
100
AcDbEntity
  8
02-99
100
AcDbText
 10
167.5
 20
7.999999999999896
 30
0.0
 40
2.5
  1
.
  7
ROMANS8
100
AcDbAttributeDefinition
280
     0
  3
DWG-Name
  2
E:DOS
 70
     0
280
     0
  0
LWPOLYLINE
  5
1AC
330
172
100
AcDbEntity
  8
10-98
100
AcDbPolyline
 90
      133
 70
     1
 43
0.0135
 10
182.3791309999999
 20
27.86422649999986
 10
182.6840645
 20
28.1302394999999
 10
182.5752319999999
 20
28.3057574999998
 10
182.4507529999999
 20
28.46427899999992
 10
182.3110595
 20
28.60586249999995
 10
182.1566014999999
 20
28.73057549999982
 10
181.9878109999999
 20
28.83846749999987
 10
181.8051244999999
 20
28.92959699999983
 10
181.6089874999999
 20
29.00403149999988
 10
181.399832
 20
29.06182049999984
 10
181.1780989999999
 20
29.10302249999995
 10
180.9442295
 20
29.12770499999988
 10
180.6986599999999
 20
29.13591749999989
 10
180.4954715
 20
29.12826299999983
 10
180.2988304999999
 20
29.10563249999984
 10
180.1091554999999
 20
29.06851649999993
 10
179.9268695
 20
29.01741449999986
 10
179.7523909999999
 20
28.9528259999999
 10
179.5861294999999
 20
28.87524599999983
 10
179.428517
 20
28.78516949999982
 10
179.2799629999999
 20
28.68309149999982
 10
179.140886
 20
28.56950699999993
 10
179.0117134999999
 20
28.44491999999991
 10
178.8928505
 20
28.3098164999999
 10
178.7847244999999
 20
28.16470499999991
 10
178.687754
 20
28.01007149999987
 10
178.6023529999999
 20
27.84641549999992
 10
178.5289445
 20
27.67423199999991
 10
178.4679425
 20
27.49402499999985
 10
178.4197655
 20
27.30628049999984
 10
178.3848409999999
 20
27.1115024999998
 10
178.3635739999999
 20
26.91018149999991
 10
178.3563965
 20
26.70281699999993
 10
178.363484
 20
26.48930099999996
 10
178.384508
 20
26.28307049999989
 10
178.4190904999999
 20
26.08452599999987
 10
178.4668534999999
 20
25.89406349999979
 10
178.5274234999999
 20
25.7120789999999
 10
178.6004269999999
 20
25.5389684999999
 10
178.6854904999999
 20
25.37512349999986
 10
178.782236
 20
25.22094449999986
 10
178.8902899999999
 20
25.07682299999988
 10
179.0092834999999
 20
24.94315949999986
 10
179.1388294999999
 20
24.82034549999992
 10
179.2785679999999
 20
24.70878149999982
 10
179.4281119999999
 20
24.60885899999988
 10
179.5870924999999
 20
24.52097399999991
 10
179.7551314999999
 20
24.44552699999992
 10
179.9318599999999
 20
24.38290949999993
 10
180.1168955
 20
24.33351749999997
 10
180.3098734999999
 20
24.29774699999996
 10
180.510407
 20
24.27599399999986
 10
180.7181314999999
 20
24.26865449999985
 10
180.9251989999999
 20
24.27528749999988
 10
181.1238515
 20
24.29503349999993
 10
181.3138504999999
 20
24.32764949999989
 10
181.4949574999999
 20
24.37289249999992
 10
181.6669384999999
 20
24.43052399999994
 10
181.8295504999999
 20
24.50030549999985
 10
181.9825595
 20
24.5819939999999
 10
182.125718
 20
24.67535549999991
 10
182.258801
 20
24.78014699999983
 10
182.3815564999999
 20
24.89612099999988
 10
182.4937549999999
 20
25.02305249999984
 10
182.595158
 20
25.16068499999983
 10
182.6855225
 20
25.30879349999987
 10
182.7646099999999
 20
25.4671259999999
 10
182.8321865
 20
25.63544849999983
 10
182.8880134999999
 20
25.81351799999982
 10
182.9318434999999
 20
26.00109599999985
 10
182.9634515
 20
26.19794399999989
 10
182.98259
 20
26.40382349999982
 10
182.9890205
 20
26.61848699999985
 10
182.9890205
 20
26.61848699999985
 10
182.9890205
 20
26.68336349999993
 10
180.9257524999999
 20
26.68336349999993
 10
180.9257524999999
 20
26.32001549999984
 10
182.5283554999999
 20
26.32001549999984
 10
182.5147969999999
 20
26.11478399999993
 10
182.4802864999999
 20
25.91952449999985
 10
182.425715
 20
25.73507399999988
 10
182.3519734999999
 20
25.56227399999989
 10
182.259962
 20
25.40195249999988
 10
182.150576
 20
25.25495999999987
 10
182.0246975
 20
25.12211999999988
 10
181.8832309999999
 20
25.00428299999987
 10
181.7270674999999
 20
24.90227249999987
 10
181.557098
 20
24.81693449999994
 10
181.374218
 20
24.74910149999983
 10
181.179323
 20
24.69961499999994
 10
180.973304
 20
24.66930749999983
 10
180.7570565
 20
24.65902049999988
 10
180.549152
 20
24.66905999999983
 10
180.3492844999999
 20
24.69858449999981
 10
180.1582009999999
 20
24.74669849999987
 10
179.9766439999999
 20
24.81251099999986
 10
179.805347
 20
24.89512649999984
 10
179.645057
 20
24.99364949999989
 10
179.4965119999999
 20
25.10719349999988
 10
179.3604589999999
 20
25.23485849999997
 10
179.237636
 20
25.37575349999986
 10
179.128781
 20
25.52898749999992
 10
179.034641
 20
25.69366049999985
 10
178.9559539999999
 20
25.86888599999986
 10
178.8934625
 20
26.05376849999982
 10
178.8479089999999
 20
26.24740799999995
 10
178.8200314999999
 20
26.44892249999993
 10
178.8105769999999
 20
26.6574119999998
 10
178.818641
 20
26.87000549999988
 10
178.842509
 20
27.07456649999983
 10
178.8816769999999
 20
27.27046499999983
 10
178.9356454999999
 20
27.45707549999986
 10
179.0039194999999
 20
27.63377249999985
 10
179.0859949999999
 20
27.79993499999989
 10
179.1813724999999
 20
27.95492849999994
 10
179.289557
 20
28.0981364999999
 10
179.4100444999999
 20
28.22892449999995
 10
179.5423445
 20
28.34667149999985
 10
179.685944
 20
28.45074749999992
 10
179.840357
 20
28.54053149999993
 10
180.0050749999999
 20
28.61539349999987
 10
180.179603
 20
28.6747079999999
 10
180.3634459999999
 20
28.71784949999983
 10
180.5560955
 20
28.74419699999987
 10
180.7570565
 20
28.75311599999987
 10
180.9814309999999
 20
28.74185699999987
 10
181.1957659999999
 20
28.70822399999986
 10
181.399634
 20
28.65242849999993
 10
181.5926074999999
 20
28.57468199999983
 10
181.774259
 20
28.47520499999985
 10
181.9441654999999
 20
28.35420449999992
 10
182.1018995
 20
28.2119009999999
 10
182.247029
 20
28.04850149999987
  0
LWPOLYLINE
  5
1B0
330
172
100
AcDbEntity
  8
10-98
100
AcDbPolyline
 90
       12
 70
     1
 43
0.0135
 10
178.6186339999999
 20
19.50090449999993
 10
180.996497
 20
19.50090449999993
 10
181.1800024999999
 20
20.45401799999991
 10
180.040193
 20
20.45401799999991
 10
180.1111309999999
 20
20.8224869999998
 10
181.1182805
 20
20.8224869999998
 10
181.2913684999999
 20
21.72154649999982
 10
180.2842189999999
 20
21.72154649999982
 10
180.349505
 20
22.0605539999998
 10
181.4598349999999
 20
22.0605539999998
 10
181.6433269999999
 20
23.01364949999993
 10
179.2949434999999
 20
23.01364949999993
  0
LWPOLYLINE
  5
1B1
330
172
100
AcDbEntity
  8
10-98
100
AcDbPolyline
 90
        4
 70
     1
 43
0.0135
 10
161.1560285
 20
20.29334549999987
 10
176.8848784999999
 20
20.29334549999987
 10
176.7288454999999
 20
19.49999999999988
 10
161.0
 20
19.49999999999988
  0
SOLID
  5
1B2
330
172
100
AcDbEntity
  8
10-98
100
AcDbTrace
 10
161.1560285
 20
20.29334549999987
 30
0.0
 11
176.8848784999999
 21
20.29334549999987
 31
0.0
 12
161.0
 22
19.49999999999988
 32
0.0
 13
176.7288454999999
 23
19.49999999999988
 33
0.0
  0
LWPOLYLINE
  5
1B3
330
172
100
AcDbEntity
  8
10-98
100
AcDbPolyline
 90
       10
 70
     1
 43
0.0135
 10
167.9577965
 20
24.26865449999985
 10
169.190549
 20
28.14971099999991
 10
170.475227
 20
24.26865449999985
 10
172.0259224999999
 20
29.03211599999986
 10
171.5912134999999
 20
29.03211599999986
 10
170.475227
 20
25.35976499999981
 10
169.190549
 20
29.21378099999981
 10
167.9577965
 20
25.32732449999992
 10
166.7963914999999
 20
29.03211599999986
 10
166.3551935
 20
29.03211599999986
  0
LWPOLYLINE
  5
1B4
330
172
100
AcDbEntity
  8
10-98
100
AcDbPolyline
 90
        3
 70
     1
 43
0.0135
 10
174.2438735
 20
26.3264999999999
 10
175.0678864999999
 20
28.34436299999982
 10
175.8594634999999
 20
26.3264999999999
  0
LWPOLYLINE
  5
1B5
330
172
100
AcDbEntity
  8
10-98
100
AcDbPolyline
 90
        7
 70
     1
 43
0.0135
 10
173.055446
 20
24.39300749999984
 10
173.4847549999999
 20
24.39300749999984
 10
174.101129
 20
25.96316999999988
 10
175.995701
 20
25.96316999999988
 10
176.5861415
 20
24.39300749999984
 10
177.0468065
 20
24.39300749999984
 10
175.0938424999999
 20
29.21378099999981
  0
LWPOLYLINE
  5
1B6
330
172
100
AcDbEntity
  8
10-98
100
AcDbPolyline
 90
        8
 70
     1
 43
0.0135
 10
189.3393529999999
 20
19.50090449999993
 10
190.696139
 20
19.50090449999993
 10
190.8893555
 20
19.94307449999985
 10
191.842469
 20
19.94307449999985
 10
191.8703374999999
 20
19.50090449999993
 10
193.2263089999999
 20
19.50090449999993
 10
192.6743839999999
 20
23.01364949999993
 10
191.269286
 20
23.01364949999993
  0
LWPOLYLINE
  5
1B7
330
172
100
AcDbEntity
  8
10-98
100
AcDbPolyline
 90
       34
 70
     1
 43
0.0135
 10
185.694974
 20
21.27939449999985
 10
185.7391954999999
 20
21.27939449999985
 10
185.7211954999999
 20
21.05921849999993
 10
185.72066
 20
20.86742849999985
 10
185.725835
 20
20.69965949999994
 10
185.7603454999999
 20
19.50090449999993
 10
186.8608474999999
 20
19.50090449999993
 10
188.5639534999999
 20
23.01364949999993
 10
187.2964249999999
 20
23.01364949999993
 10
186.7233275
 20
21.46607699999987
 10
186.6600665
 20
21.28867349999985
 10
186.5856094999999
 20
21.05885849999982
 10
186.5113504999999
 20
20.77336049999997
 10
186.481889
 20
20.77336049999997
 10
186.5093209999999
 20
21.02264699999989
 10
186.5150765
 20
21.22171349999985
 10
186.5137625
 20
21.37274699999989
 10
186.4956004999999
 20
23.01364949999993
 10
185.6063735
 20
23.01364949999993
 10
184.9563709999999
 20
21.37274699999989
 10
184.8968989999999
 20
21.22171349999985
 10
184.825997
 20
21.02264699999989
 10
184.7574305
 20
20.77336049999997
 10
184.7279689999999
 20
20.77336049999997
 10
184.763645
 20
21.05885849999982
 10
184.777685
 20
21.28867349999985
 10
184.7827294999999
 20
21.46607699999987
 10
184.805549
 20
23.01364949999993
 10
183.5372059999999
 20
23.01364949999993
 10
183.8885075
 20
19.50090449999993
 10
184.9890049999999
 20
19.50090449999993
 10
185.485103
 20
20.69965949999994
 10
185.5548934999999
 20
20.86742849999985
 10
185.6282075
 20
21.05921849999993
  0
LWPOLYLINE
  5
1B8
330
172
100
AcDbEntity
  8
10-98
100
AcDbPolyline
 90
       10
 70
     1
 43
0.0135
 10
191.2614019999999
 20
20.77826549999986
 10
191.4461135
 20
21.17621399999984
 10
191.5404965
 20
21.38383499999997
 10
191.642822
 20
21.63839999999993
 10
191.7371104999999
 20
21.94755899999996
 10
191.7616804999999
 20
21.94755899999996
 10
191.7369035
 20
21.63839999999993
 10
191.7412055
 20
21.38383499999997
 10
191.7556415
 20
21.17621399999984
 10
191.7870875
 20
20.77826549999986
  0
LWPOLYLINE
  5
1B9
330
172
100
AcDbEntity
  8
10-98
100
AcDbPolyline
 90
       23
 70
     1
 43
0.0135
 10
195.219278
 20
19.50090449999993
 10
196.4573269999999
 20
19.50090449999993
 10
196.680554
 20
20.66036099999985
 10
197.0714509999999
 20
19.50090449999993
 10
198.4863634999999
 20
19.50090449999993
 10
197.8232705
 20
20.93057699999986
 10
198.0244835
 20
20.97943349999991
 10
198.2079079999999
 20
21.07414049999988
 10
198.3690799999999
 20
21.21061199999985
 10
198.5035265
 20
21.38474849999989
 10
198.6067699999999
 20
21.59245499999986
 10
198.6743374999999
 20
21.82963649999988
 10
198.701468
 20
22.04544749999991
 10
198.6960409999999
 20
22.24141799999995
 10
198.65807
 20
22.41687299999989
 10
198.5875684999999
 20
22.5711329999998
 10
198.484559
 20
22.7035229999999
 10
198.3490595
 20
22.81335899999988
 10
198.181079
 20
22.89997049999988
 10
197.9806444999999
 20
22.96267349999994
 10
197.7477605
 20
23.00079299999987
 10
197.4824585
 20
23.01364949999993
 10
195.8955874999999
 20
23.01364949999993
  0
LWPOLYLINE
  5
1BA
330
172
100
AcDbEntity
  8
10-98
100
AcDbPolyline
 90
        9
 70
     1
 43
0.0135
 10
196.9595899999999
 20
22.10968049999985
 10
197.1561185
 20
22.10968049999985
 10
197.353934
 20
22.06728149999987
 10
197.4560389999999
 20
21.94736549999993
 10
197.462348
 20
21.76086299999986
 10
197.3836205
 20
21.57689849999991
 10
197.2351699999999
 20
21.4617209999999
 10
197.023706
 20
21.42187349999983
 10
196.8271774999999
 20
21.42187349999983
  0
LWPOLYLINE
  5
1BB
330
172
100
AcDbEntity
  8
10-98
100
AcDbPolyline
 90
       12
 70
     1
 43
0.0135
 10
190.9804715
 20
24.39300749999984
 10
193.2773119999999
 20
24.39300749999984
 10
193.2773119999999
 20
24.78879599999988
 10
191.4022115
 20
24.78879599999988
 10
191.4022115
 20
26.78716499999996
 10
193.2773119999999
 20
26.78716499999996
 10
193.2773119999999
 20
27.18295349999994
 10
191.4022115
 20
27.18295349999994
 10
191.4022115
 20
28.63632749999988
 10
193.2773119999999
 20
28.63632749999988
 10
193.2773119999999
 20
29.03211599999986
 10
190.9804715
 20
29.03211599999986
  0
LWPOLYLINE
  5
1BC
330
172
100
AcDbEntity
  8
10-98
100
AcDbPolyline
 90
        8
 70
     1
 43
0.0135
 10
185.0123195
 20
24.39300749999984
 10
185.4340639999999
 20
24.39300749999984
 10
185.4340639999999
 20
28.14322649999986
 10
188.6911595
 20
24.2556674999999
 10
188.6911595
 20
29.03211599999986
 10
188.2694329999999
 20
29.03211599999986
 10
188.2694329999999
 20
25.34677799999986
 10
185.0123195
 20
29.22674999999981
  0
LWPOLYLINE
  5
1BD
330
172
100
AcDbEntity
  8
10-98
100
AcDbPolyline
 90
       19
 70
     1
 43
0.0135
 10
195.8650954999999
 20
28.66228349999983
 10
196.2868219999999
 20
28.66228349999983
 10
196.5446315
 20
28.65178049999986
 10
196.7641144999999
 20
28.61838599999988
 10
196.9464995
 20
28.5592919999998
 10
197.0929925
 20
28.47168599999987
 10
197.2048129999999
 20
28.35275549999983
 10
197.283176
 20
28.19968799999993
 10
197.3293054999999
 20
28.00966199999982
 10
197.344412
 20
27.77987849999988
 10
197.328509
 20
27.55418099999986
 10
197.28044
 20
27.37091399999986
 10
197.199683
 20
27.22627049999994
 10
197.0856934999999
 20
27.11645249999993
 10
196.9379495
 20
27.03765749999991
 10
196.7559109999999
 20
26.98607849999985
 10
196.5390424999999
 20
26.95792199999994
 10
196.2868219999999
 20
26.94938099999991
 10
195.8650954999999
 20
26.94938099999991
  0
LWPOLYLINE
  5
1BE
330
172
100
AcDbEntity
  8
10-98
100
AcDbPolyline
 90
       29
 70
     1
 43
0.0135
 10
198.2592574999999
 20
24.39300749999984
 10
196.5917779999999
 20
26.60549999999989
 10
196.8296795
 20
26.62140749999992
 10
197.044991
 20
26.66833799999984
 10
197.2362769999999
 20
26.74511699999994
 10
197.4020884999999
 20
26.85057899999993
 10
197.5409854999999
 20
26.98353599999985
 10
197.6515234999999
 20
27.1428269999999
 10
197.7322669999999
 20
27.32726849999995
 10
197.7817714999999
 20
27.53568599999994
 10
197.7985924999999
 20
27.76690949999988
 10
197.7861995
 20
27.9879494999999
 10
197.749007
 20
28.18752449999982
 10
197.686979
 20
28.3657199999999
 10
197.600093
 20
28.52262149999979
 10
197.4883174999999
 20
28.65831899999989
 10
197.351621
 20
28.77290249999987
 10
197.1899765
 20
28.86645299999987
 10
197.0033525
 20
28.93906049999987
 10
196.7917219999999
 20
28.99081949999993
 10
196.5550579999999
 20
29.02180649999991
 10
196.2933245
 20
29.03211599999986
 10
196.2933245
 20
29.03211599999986
 10
195.4433554999999
 20
29.03211599999986
 10
195.4433554999999
 20
24.39300749999984
 10
195.8650954999999
 20
24.39300749999984
 10
195.8650954999999
 20
26.60549999999989
 10
196.118144
 20
26.60549999999989
 10
197.7466805
 20
24.39300749999984
  0
LWPOLYLINE
  5
1BF
330
172
100
AcDbEntity
  8
02-99
100
AcDbPolyline
 90
        4
 70
     1
 43
0.0
 10
0.0
 20
0.0
 10
210.0
 20
-0.0000000000000044
 10
210.0
 20
297.0000000000001
 10
0.0
 20
297.0000000000001
  0
ENDBLK
  5
1C0
330
172
100
AcDbEntity
  8
0
100
AcDbBlockEnd
  0
BLOCK
  5
105
330
104
100
AcDbEntity
  8
0
100
AcDbBlockBegin
  2
*D1
 70
     1
 10
0.0
 20
0.0
 30
0.0
  3
*D1
  1

  0
LINE
  5
106
330
104
100
AcDbEntity
  8
09-01
 62
     4
370
    -2
100
AcDbLine
 10
100.610639043748
 20
284.8641691322886
 30
0.0
 11
95.19049085463747
 21
284.8641691322886
 31
0.0
  0
LINE
  5
107
330
104
100
AcDbEntity
  8
09-01
 62
     4
370
    -2
100
AcDbLine
 10
100.610639043748
 20
239.8641691322887
 30
0.0
 11
95.19049085463747
 21
239.8641691322887
 31
0.0
  0
LINE
  5
108
330
104
100
AcDbEntity
  8
09-01
 62
     4
370
    -2
100
AcDbLine
 10
96.19049085463746
 20
282.3641691322886
 30
0.0
 11
96.19049085463746
 21
242.3641691322887
 31
0.0
  0
SOLID
  5
109
330
104
100
AcDbEntity
  8
09-01
 62
     4
100
AcDbTrace
 10
95.77382418797078
 20
282.3641691322886
 30
0.0
 11
96.60715752130414
 21
282.3641691322886
 31
0.0
 12
96.19049085463746
 22
284.8641691322886
 32
0.0
 13
96.19049085463746
 23
284.8641691322886
 33
0.0
  0
SOLID
  5
10A
330
104
100
AcDbEntity
  8
09-01
 62
     4
100
AcDbTrace
 10
95.77382418797078
 20
242.3641691322887
 30
0.0
 11
96.60715752130414
 21
242.3641691322887
 31
0.0
 12
96.19049085463746
 22
239.8641691322887
 32
0.0
 13
96.19049085463746
 23
239.8641691322887
 33
0.0
  0
MTEXT
  5
10B
330
104
100
AcDbEntity
  8
09-01
 62
     1
100
AcDbMText
 10
93.94049085463741
 20
262.3641691322887
 30
0.0
 40
2.5
 41
0.0
 46
0.0
 71
     5
 72
     1
  1
%%C45
 11
0.0000000000000001
 21
1.0
 31
0.0
 73
     1
 44
1.0
  0
POINT
  5
10C
330
104
100
AcDbEntity
  8
Defpoints
 62
     0
100
AcDbPoint
 10
101.610639043748
 20
284.8641691322886
 30
0.0
  0
POINT
  5
10D
330
104
100
AcDbEntity
  8
Defpoints
 62
     0
100
AcDbPoint
 10
101.610639043748
 20
239.8641691322887
 30
0.0
  0
POINT
  5
10E
330
104
100
AcDbEntity
  8
Defpoints
 62
     0
100
AcDbPoint
 10
96.19049085463746
 20
239.8641691322887
 30
0.0
  0
ENDBLK
  5
10F
330
104
100
AcDbEntity
  8
0
100
AcDbBlockEnd
  0
BLOCK
  5
F3
330
F2
100
AcDbEntity
  8
0
100
AcDbBlockBegin
  2
*D2
 70
     1
 10
0.0
 20
0.0
 30
0.0
  3
*D2
  1

  0
LINE
  5
F4
330
F2
100
AcDbEntity
  8
09-01
 62
     4
370
    -2
100
AcDbLine
 10
101.4106390437481
 20
285.6641691322886
 30
0.0
 11
101.4106390437481
 21
290.1269817441433
 31
0.0
  0
LINE
  5
F5
330
F2
100
AcDbEntity
  8
09-01
 62
     4
370
    -2
100
AcDbLine
 10
107.4106390437481
 20
285.6641691322886
 30
0.0
 11
107.4106390437481
 21
290.1269817441433
 31
0.0
  0
LINE
  5
F6
330
F2
100
AcDbEntity
  8
09-01
 62
     4
370
    -2
100
AcDbLine
 10
98.91063904374812
 20
289.1269817441433
 30
0.0
 11
96.41063904374812
 21
289.1269817441433
 31
0.0
  0
LINE
  5
F7
330
F2
100
AcDbEntity
  8
09-01
 62
     4
370
    -2
100
AcDbLine
 10
109.9106390437481
 20
289.1269817441433
 30
0.0
 11
112.4106390437481
 21
289.1269817441433
 31
0.0
  0
LINE
  5
F8
330
F2
100
AcDbEntity
  8
09-01
 62
     4
370
    -2
100
AcDbLine
 10
101.4106390437481
 20
289.1269817441433
 30
0.0
 11
107.4106390437481
 21
289.1269817441433
 31
0.0
  0
SOLID
  5
F9
330
F2
100
AcDbEntity
  8
09-01
 62
     4
100
AcDbTrace
 10
98.91063904374812
 20
289.5436484108099
 30
0.0
 11
98.91063904374812
 21
288.7103150774766
 31
0.0
 12
101.4106390437481
 22
289.1269817441433
 32
0.0
 13
101.4106390437481
 23
289.1269817441433
 33
0.0
  0
SOLID
  5
FA
330
F2
100
AcDbEntity
  8
09-01
 62
     4
100
AcDbTrace
 10
109.9106390437481
 20
289.5436484108099
 30
0.0
 11
109.9106390437481
 21
288.7103150774766
 31
0.0
 12
107.4106390437481
 22
289.1269817441433
 32
0.0
 13
107.4106390437481
 23
289.1269817441433
 33
0.0
  0
MTEXT
  5
FB
330
F2
100
AcDbEntity
  8
09-01
 62
     1
100
AcDbMText
 10
104.4106390437481
 20
291.3769817441433
 30
0.0
 40
2.5
 41
0.0
 46
0.0
 71
     5
 72
     1
  1
6
 73
     1
 44
1.0
  0
POINT
  5
FC
330
F2
100
AcDbEntity
  8
Defpoints
 62
     0
100
AcDbPoint
 10
101.4106390437481
 20
284.6641691322886
 30
0.0
  0
POINT
  5
FD
330
F2
100
AcDbEntity
  8
Defpoints
 62
     0
100
AcDbPoint
 10
107.4106390437481
 20
284.6641691322886
 30
0.0
  0
POINT
  5
FE
330
F2
100
AcDbEntity
  8
Defpoints
 62
     0
100
AcDbPoint
 10
107.4106390437481
 20
289.1269817441433
 30
0.0
  0
ENDBLK
  5
FF
330
F2
100
AcDbEntity
  8
0
100
AcDbBlockEnd
  0
BLOCK
  5
E6
330
E5
100
AcDbEntity
  8
0
100
AcDbBlockBegin
  2
*D3
 70
     1
 10
0.0
 20
0.0
 30
0.0
  3
*D3
  1

  0
LINE
  5
E7
330
E5
100
AcDbEntity
  8
09-01
 62
     4
370
    -2
100
AcDbLine
 10
201.2106390437481
 20
270.3641691322887
 30
0.0
 11
218.5863530773994
 21
270.3641691322887
 31
0.0
  0
LINE
  5
E8
330
E5
100
AcDbEntity
  8
09-01
 62
     4
370
    -2
100
AcDbLine
 10
201.2106390437481
 20
254.3641691322886
 30
0.0
 11
218.5863530773994
 21
254.3641691322886
 31
0.0
  0
LINE
  5
E9
330
E5
100
AcDbEntity
  8
09-01
 62
     4
370
    -2
100
AcDbLine
 10
217.5863530773994
 20
267.8641691322887
 30
0.0
 11
217.5863530773994
 21
256.8641691322886
 31
0.0
  0
SOLID
  5
EA
330
E5
100
AcDbEntity
  8
09-01
 62
     4
100
AcDbTrace
 10
217.1696864107327
 20
267.8641691322887
 30
0.0
 11
218.0030197440661
 21
267.8641691322887
 31
0.0
 12
217.5863530773994
 22
270.3641691322887
 32
0.0
 13
217.5863530773994
 23
270.3641691322887
 33
0.0
  0
SOLID
  5
EB
330
E5
100
AcDbEntity
  8
09-01
 62
     4
100
AcDbTrace
 10
217.1696864107327
 20
256.8641691322886
 30
0.0
 11
218.0030197440661
 21
256.8641691322886
 31
0.0
 12
217.5863530773994
 22
254.3641691322886
 32
0.0
 13
217.5863530773994
 23
254.3641691322886
 33
0.0
  0
MTEXT
  5
EC
330
E5
100
AcDbEntity
  8
09-01
 62
     1
100
AcDbMText
 10
215.3363530773994
 20
262.3641691322887
 30
0.0
 40
2.5
 41
0.0
 46
0.0
 71
     5
 72
     1
  1
%%c16
 11
0.0000000000000001
 21
1.0
 31
0.0
 73
     1
 44
1.0
  0
POINT
  5
ED
330
E5
100
AcDbEntity
  8
Defpoints
 62
     0
100
AcDbPoint
 10
200.2106390437481
 20
270.3641691322887
 30
0.0
  0
POINT
  5
EE
330
E5
100
AcDbEntity
  8
Defpoints
 62
     0
100
AcDbPoint
 10
200.2106390437481
 20
254.3641691322886
 30
0.0
  0
POINT
  5
EF
330
E5
100
AcDbEntity
  8
Defpoints
 62
     0
100
AcDbPoint
 10
217.5863530773994
 20
254.3641691322886
 30
0.0
  0
ENDBLK
  5
F0
330
E5
100
AcDbEntity
  8
0
100
AcDbBlockEnd
  0
BLOCK
  5
CF
330
CE
100
AcDbEntity
  8
0
100
AcDbBlockBegin
  2
*D4
 70
     1
 10
0.0
 20
0.0
 30
0.0
  3
*D4
  1

  0
LINE
  5
D0
330
CE
100
AcDbEntity
  8
09-01
 62
     4
370
    -2
100
AcDbLine
 10
40.2038301843711
 20
175.4717377146177
 30
0.0
 11
40.2038301843711
 21
199.9575752289674
 31
0.0
  0
LINE
  5
D1
330
CE
100
AcDbEntity
  8
09-01
 62
     4
370
    -2
100
AcDbLine
 10
82.20383018437109
 20
175.4717377146177
 30
0.0
 11
82.20383018437109
 21
199.9575752289674
 31
0.0
  0
LINE
  5
D2
330
CE
100
AcDbEntity
  8
09-01
 62
     4
370
    -2
100
AcDbLine
 10
42.7038301843711
 20
198.9575752289674
 30
0.0
 11
79.7038301843711
 21
198.9575752289674
 31
0.0
  0
SOLID
  5
D3
330
CE
100
AcDbEntity
  8
09-01
 62
     4
100
AcDbTrace
 10
42.7038301843711
 20
199.3742418956341
 30
0.0
 11
42.7038301843711
 21
198.5409085623007
 31
0.0
 12
40.2038301843711
 22
198.9575752289674
 32
0.0
 13
40.2038301843711
 23
198.9575752289674
 33
0.0
  0
SOLID
  5
D4
330
CE
100
AcDbEntity
  8
09-01
 62
     4
100
AcDbTrace
 10
79.7038301843711
 20
199.3742418956341
 30
0.0
 11
79.7038301843711
 21
198.5409085623007
 31
0.0
 12
82.20383018437109
 22
198.9575752289674
 32
0.0
 13
82.20383018437109
 23
198.9575752289674
 33
0.0
  0
MTEXT
  5
D5
330
CE
100
AcDbEntity
  8
09-01
 62
     1
100
AcDbMText
 10
61.20383018437109
 20
201.2075752289674
 30
0.0
 40
2.5
 41
0.0
 46
0.0
 71
     5
 72
     1
  1
42
 73
     1
 44
1.0
  0
POINT
  5
D6
330
CE
100
AcDbEntity
  8
Defpoints
 62
     0
100
AcDbPoint
 10
40.2038301843711
 20
174.4717377146177
 30
0.0
  0
POINT
  5
D7
330
CE
100
AcDbEntity
  8
Defpoints
 62
     0
100
AcDbPoint
 10
82.20383018437109
 20
174.4717377146177
 30
0.0
  0
POINT
  5
D8
330
CE
100
AcDbEntity
  8
Defpoints
 62
     0
100
AcDbPoint
 10
82.20383018437109
 20
198.9575752289674
 30
0.0
  0
ENDBLK
  5
D9
330
CE
100
AcDbEntity
  8
0
100
AcDbBlockEnd
  0
BLOCK
  5
C2
330
C1
100
AcDbEntity
  8
0
100
AcDbBlockBegin
  2
*D5
 70
     1
 10
0.0
 20
0.0
 30
0.0
  3
*D5
  1

  0
LINE
  5
C3
330
C1
100
AcDbEntity
  8
09-01
 62
     4
370
    -2
100
AcDbLine
 10
39.1862101274462
 20
261.3641691322887
 30
0.0
 11
39.1862101274462
 21
230.8600207788908
 31
0.0
  0
LINE
  5
C4
330
C1
100
AcDbEntity
  8
09-01
 62
     4
370
    -2
100
AcDbLine
 10
84.18621012744621
 20
261.3641691322887
 30
0.0
 11
84.18621012744621
 21
230.8600207788908
 31
0.0
  0
LINE
  5
C5
330
C1
100
AcDbEntity
  8
09-01
 62
     4
370
    -2
100
AcDbLine
 10
41.6862101274462
 20
231.8600207788908
 30
0.0
 11
81.68621012744621
 21
231.8600207788908
 31
0.0
  0
SOLID
  5
C6
330
C1
100
AcDbEntity
  8
09-01
 62
     4
100
AcDbTrace
 10
41.6862101274462
 20
232.2766874455575
 30
0.0
 11
41.6862101274462
 21
231.4433541122242
 31
0.0
 12
39.1862101274462
 22
231.8600207788908
 32
0.0
 13
39.1862101274462
 23
231.8600207788908
 33
0.0
  0
SOLID
  5
C7
330
C1
100
AcDbEntity
  8
09-01
 62
     4
100
AcDbTrace
 10
81.68621012744621
 20
232.2766874455575
 30
0.0
 11
81.68621012744621
 21
231.4433541122242
 31
0.0
 12
84.18621012744621
 22
231.8600207788908
 32
0.0
 13
84.18621012744621
 23
231.8600207788908
 33
0.0
  0
MTEXT
  5
C8
330
C1
100
AcDbEntity
  8
09-01
 62
     1
100
AcDbMText
 10
61.6862101274462
 20
234.1100207788908
 30
0.0
 40
2.5
 41
0.0
 46
0.0
 71
     5
 72
     1
  1
45
 73
     1
 44
1.0
  0
POINT
  5
C9
330
C1
100
AcDbEntity
  8
Defpoints
 62
     0
100
AcDbPoint
 10
39.1862101274462
 20
262.3641691322887
 30
0.0
  0
POINT
  5
CA
330
C1
100
AcDbEntity
  8
Defpoints
 62
     0
100
AcDbPoint
 10
84.18621012744621
 20
262.3641691322887
 30
0.0
  0
POINT
  5
CB
330
C1
100
AcDbEntity
  8
Defpoints
 62
     0
100
AcDbPoint
 10
84.18621012744621
 20
231.8600207788908
 30
0.0
  0
ENDBLK
  5
CC
330
C1
100
AcDbEntity
  8
0
100
AcDbBlockEnd
  0
BLOCK
  5
B0
330
AF
100
AcDbEntity
  8
0
100
AcDbBlockBegin
  2
*D6
 70
     1
 10
0.0
 20
0.0
 30
0.0
  3
*D6
  1

  0
LINE
  5
B1
330
AF
100
AcDbEntity
  8
09-01
 62
     4
370
    -2
100
AcDbLine
 10
48.2038301843711
 20
168.7217377146178
 30
0.0
 11
48.2038301843711
 21
145.6732666112243
 31
0.0
  0
LINE
  5
B2
330
AF
100
AcDbEntity
  8
09-01
 62
     4
370
    -2
100
AcDbLine
 10
74.2038301843711
 20
168.7217377146178
 30
0.0
 11
74.2038301843711
 21
145.6732666112243
 31
0.0
  0
LINE
  5
B3
330
AF
100
AcDbEntity
  8
09-01
 62
     4
370
    -2
100
AcDbLine
 10
50.7038301843711
 20
146.6732666112243
 30
0.0
 11
71.7038301843711
 21
146.6732666112243
 31
0.0
  0
SOLID
  5
B4
330
AF
100
AcDbEntity
  8
09-01
 62
     4
100
AcDbTrace
 10
50.7038301843711
 20
147.0899332778909
 30
0.0
 11
50.7038301843711
 21
146.2565999445576
 31
0.0
 12
48.2038301843711
 22
146.6732666112243
 32
0.0
 13
48.2038301843711
 23
146.6732666112243
 33
0.0
  0
SOLID
  5
B5
330
AF
100
AcDbEntity
  8
09-01
 62
     4
100
AcDbTrace
 10
71.7038301843711
 20
147.0899332778909
 30
0.0
 11
71.7038301843711
 21
146.2565999445576
 31
0.0
 12
74.2038301843711
 22
146.6732666112243
 32
0.0
 13
74.2038301843711
 23
146.6732666112243
 33
0.0
  0
MTEXT
  5
B6
330
AF
100
AcDbEntity
  8
09-01
 62
     1
100
AcDbMText
 10
61.20383018437109
 20
148.9232666112243
 30
0.0
 40
2.5
 41
0.0
 46
0.0
 71
     5
 72
     1
  1
26
 73
     1
 44
1.0
  0
POINT
  5
B7
330
AF
100
AcDbEntity
  8
Defpoints
 62
     0
100
AcDbPoint
 10
48.2038301843711
 20
169.7217377146178
 30
0.0
  0
POINT
  5
B8
330
AF
100
AcDbEntity
  8
Defpoints
 62
     0
100
AcDbPoint
 10
74.2038301843711
 20
169.7217377146178
 30
0.0
  0
POINT
  5
B9
330
AF
100
AcDbEntity
  8
Defpoints
 62
     0
100
AcDbPoint
 10
74.2038301843711
 20
146.6732666112243
 30
0.0
  0
ENDBLK
  5
BA
330
AF
100
AcDbEntity
  8
0
100
AcDbBlockEnd
  0
BLOCK
  5
A1
330
A0
100
AcDbEntity
  8
0
100
AcDbBlockBegin
  2
*D7
 70
     1
 10
0.0
 20
0.0
 30
0.0
  3
*D7
  1

  0
LINE
  5
A2
330
A0
100
AcDbEntity
  8
09-01
 62
     4
370
    -2
100
AcDbLine
 10
75.2038301843711
 20
177.2217377146177
 30
0.0
 11
90.789738802761
 21
177.2217377146177
 31
0.0
  0
LINE
  5
A3
330
A0
100
AcDbEntity
  8
09-01
 62
     4
370
    -2
100
AcDbLine
 10
75.2038301843711
 20
171.7217377146178
 30
0.0
 11
90.789738802761
 21
171.7217377146178
 31
0.0
  0
LINE
  5
A4
330
A0
100
AcDbEntity
  8
09-01
 62
     4
370
    -2
100
AcDbLine
 10
89.789738802761
 20
179.7217377146177
 30
0.0
 11
89.789738802761
 21
182.2217377146177
 31
0.0
  0
LINE
  5
A5
330
A0
100
AcDbEntity
  8
09-01
 62
     4
370
    -2
100
AcDbLine
 10
89.789738802761
 20
169.2217377146178
 30
0.0
 11
89.789738802761
 21
166.7217377146178
 31
0.0
  0
MTEXT
  5
A6
330
A0
100
AcDbEntity
  8
09-01
 62
     1
100
AcDbMText
 10
87.80918706706973
 20
182.9113250902634
 30
0.0
 40
2.5
 41
0.0
 46
0.0
 71
     5
 72
     1
  1
5.5
 11
0.0000000000000001
 21
1.0
 31
0.0
 73
     1
 44
1.0
  0
LINE
  5
A7
330
A0
100
AcDbEntity
  8
09-01
 62
     4
370
    -2
100
AcDbLine
 10
89.789738802761
 20
177.2217377146177
 30
0.0
 11
89.789738802761
 21
171.7217377146178
 31
0.0
  0
SOLID
  5
A8
330
A0
100
AcDbEntity
  8
09-01
 62
     4
100
AcDbTrace
 10
89.37307213609434
 20
179.7217377146177
 30
0.0
 11
90.20640546942768
 21
179.7217377146177
 31
0.0
 12
89.789738802761
 22
177.2217377146177
 32
0.0
 13
89.789738802761
 23
177.2217377146177
 33
0.0
  0
SOLID
  5
A9
330
A0
100
AcDbEntity
  8
09-01
 62
     4
100
AcDbTrace
 10
89.37307213609434
 20
169.2217377146178
 30
0.0
 11
90.20640546942768
 21
169.2217377146178
 31
0.0
 12
89.789738802761
 22
171.7217377146178
 32
0.0
 13
89.789738802761
 23
171.7217377146178
 33
0.0
  0
POINT
  5
AA
330
A0
100
AcDbEntity
  8
Defpoints
 62
     0
100
AcDbPoint
 10
74.2038301843711
 20
177.2217377146177
 30
0.0
  0
POINT
  5
AB
330
A0
100
AcDbEntity
  8
Defpoints
 62
     0
100
AcDbPoint
 10
74.2038301843711
 20
171.7217377146178
 30
0.0
  0
POINT
  5
AC
330
A0
100
AcDbEntity
  8
Defpoints
 62
     0
100
AcDbPoint
 10
89.789738802761
 20
171.7217377146178
 30
0.0
  0
ENDBLK
  5
AD
330
A0
100
AcDbEntity
  8
0
100
AcDbBlockEnd
  0
BLOCK
  5
94
330
93
100
AcDbEntity
  8
0
100
AcDbBlockBegin
  2
*D8
 70
     1
 10
0.0
 20
0.0
 30
0.0
  3
*D8
  1

  0
LINE
  5
95
330
93
100
AcDbEntity
  8
09-01
 62
     4
370
    -2
100
AcDbLine
 10
107.4106390437481
 20
253.3641691322886
 30
0.0
 11
107.4106390437481
 21
246.3662469167003
 31
0.0
  0
LINE
  5
96
330
93
100
AcDbEntity
  8
09-01
 62
     4
370
    -2
100
AcDbLine
 10
201.4106390437481
 20
254.5641691322887
 30
0.0
 11
201.4106390437481
 21
246.3662469167003
 31
0.0
  0
LINE
  5
97
330
93
100
AcDbEntity
  8
09-01
 62
     4
370
    -2
100
AcDbLine
 10
109.9106390437481
 20
247.3662469167003
 30
0.0
 11
198.9106390437481
 21
247.3662469167003
 31
0.0
  0
SOLID
  5
98
330
93
100
AcDbEntity
  8
09-01
 62
     4
100
AcDbTrace
 10
109.9106390437481
 20
247.7829135833669
 30
0.0
 11
109.9106390437481
 21
246.9495802500336
 31
0.0
 12
107.4106390437481
 22
247.3662469167003
 32
0.0
 13
107.4106390437481
 23
247.3662469167003
 33
0.0
  0
SOLID
  5
99
330
93
100
AcDbEntity
  8
09-01
 62
     4
100
AcDbTrace
 10
198.9106390437481
 20
247.7829135833669
 30
0.0
 11
198.9106390437481
 21
246.9495802500336
 31
0.0
 12
201.4106390437481
 22
247.3662469167003
 32
0.0
 13
201.4106390437481
 23
247.3662469167003
 33
0.0
  0
MTEXT
  5
9A
330
93
100
AcDbEntity
  8
09-01
 62
     1
100
AcDbMText
 10
154.4106390437481
 20
249.6162469167003
 30
0.0
 40
2.5
 41
0.0
 46
0.0
 71
     5
 72
     1
  1
94
 73
     1
 44
1.0
  0
POINT
  5
9B
330
93
100
AcDbEntity
  8
Defpoints
 62
     0
100
AcDbPoint
 10
107.4106390437481
 20
254.3641691322886
 30
0.0
  0
POINT
  5
9C
330
93
100
AcDbEntity
  8
Defpoints
 62
     0
100
AcDbPoint
 10
201.4106390437481
 20
255.5641691322886
 30
0.0
  0
POINT
  5
9D
330
93
100
AcDbEntity
  8
Defpoints
 62
     0
100
AcDbPoint
 10
201.4106390437481
 20
247.3662469167003
 30
0.0
  0
ENDBLK
  5
9E
330
93
100
AcDbEntity
  8
0
100
AcDbBlockEnd
  0
BLOCK
  5
7D
330
7C
100
AcDbEntity
  8
0
100
AcDbBlockBegin
  2
*D9
 70
     1
 10
0.0
 20
0.0
 30
0.0
  3
*D9
  1

  0
LINE
  5
7E
330
7C
100
AcDbEntity
  8
09-01
 62
     4
370
    -2
100
AcDbLine
 10
201.4106390437481
 20
253.8641691322887
 30
0.0
 11
201.4106390437481
 21
246.3662469167003
 31
0.0
  0
LINE
  5
7F
330
7C
100
AcDbEntity
  8
09-01
 62
     4
370
    -2
100
AcDbLine
 10
211.4106390437481
 20
255.3159983053367
 30
0.0
 11
211.4106390437481
 21
246.3662469167003
 31
0.0
  0
LINE
  5
80
330
7C
100
AcDbEntity
  8
09-01
 62
     4
370
    -2
100
AcDbLine
 10
203.9106390437481
 20
247.3662469167003
 30
0.0
 11
208.9106390437481
 21
247.3662469167003
 31
0.0
  0
SOLID
  5
81
330
7C
100
AcDbEntity
  8
09-01
 62
     4
100
AcDbTrace
 10
203.9106390437481
 20
247.7829135833669
 30
0.0
 11
203.9106390437481
 21
246.9495802500336
 31
0.0
 12
201.4106390437481
 22
247.3662469167003
 32
0.0
 13
201.4106390437481
 23
247.3662469167003
 33
0.0
  0
SOLID
  5
82
330
7C
100
AcDbEntity
  8
09-01
 62
     4
100
AcDbTrace
 10
208.9106390437481
 20
247.7829135833669
 30
0.0
 11
208.9106390437481
 21
246.9495802500336
 31
0.0
 12
211.4106390437481
 22
247.3662469167003
 32
0.0
 13
211.4106390437481
 23
247.3662469167003
 33
0.0
  0
MTEXT
  5
83
330
7C
100
AcDbEntity
  8
09-01
 62
     1
100
AcDbMText
 10
206.4106390437481
 20
249.6162469167003
 30
0.0
 40
2.5
 41
0.0
 46
0.0
 71
     5
 72
     1
  1
10
 73
     1
 44
1.0
  0
POINT
  5
84
330
7C
100
AcDbEntity
  8
Defpoints
 62
     0
100
AcDbPoint
 10
201.4106390437481
 20
254.8641691322887
 30
0.0
  0
POINT
  5
85
330
7C
100
AcDbEntity
  8
Defpoints
 62
     0
100
AcDbPoint
 10
211.4106390437481
 20
256.3159983053367
 30
0.0
  0
POINT
  5
86
330
7C
100
AcDbEntity
  8
Defpoints
 62
     0
100
AcDbPoint
 10
211.4106390437481
 20
247.3662469167003
 30
0.0
  0
ENDBLK
  5
87
330
7C
100
AcDbEntity
  8
0
100
AcDbBlockEnd
  0
BLOCK
  5
6B
330
6A
100
AcDbEntity
  8
0
100
AcDbBlockBegin
  2
*D10
 70
     1
 10
0.0
 20
0.0
 30
0.0
  3
*D10
  1

  0
LINE
  5
6C
330
6A
100
AcDbEntity
  8
09-01
 62
     4
370
    -2
100
AcDbLine
 10
101.4106390437481
 20
239.0641691322887
 30
0.0
 11
101.4106390437481
 21
232.964928204807
 31
0.0
  0
LINE
  5
6D
330
6A
100
AcDbEntity
  8
09-01
 62
     4
370
    -2
100
AcDbLine
 10
211.4106390437481
 20
255.3159983053367
 30
0.0
 11
211.4106390437481
 21
232.964928204807
 31
0.0
  0
LINE
  5
6E
330
6A
100
AcDbEntity
  8
09-01
 62
     4
370
    -2
100
AcDbLine
 10
103.9106390437481
 20
233.964928204807
 30
0.0
 11
208.9106390437481
 21
233.964928204807
 31
0.0
  0
SOLID
  5
6F
330
6A
100
AcDbEntity
  8
09-01
 62
     4
100
AcDbTrace
 10
103.9106390437481
 20
234.3815948714737
 30
0.0
 11
103.9106390437481
 21
233.5482615381403
 31
0.0
 12
101.4106390437481
 22
233.964928204807
 32
0.0
 13
101.4106390437481
 23
233.964928204807
 33
0.0
  0
SOLID
  5
70
330
6A
100
AcDbEntity
  8
09-01
 62
     4
100
AcDbTrace
 10
208.9106390437481
 20
234.3815948714737
 30
0.0
 11
208.9106390437481
 21
233.5482615381403
 31
0.0
 12
211.4106390437481
 22
233.964928204807
 32
0.0
 13
211.4106390437481
 23
233.964928204807
 33
0.0
  0
MTEXT
  5
71
330
6A
100
AcDbEntity
  8
09-01
 62
     1
100
AcDbMText
 10
156.4106390437481
 20
236.214928204807
 30
0.0
 40
2.5
 41
0.0
 46
0.0
 71
     5
 72
     1
  1
110
 73
     1
 44
1.0
  0
POINT
  5
72
330
6A
100
AcDbEntity
  8
Defpoints
 62
     0
100
AcDbPoint
 10
101.4106390437481
 20
240.0641691322887
 30
0.0
  0
POINT
  5
74
330
6A
100
AcDbEntity
  8
Defpoints
 62
     0
100
AcDbPoint
 10
211.4106390437481
 20
256.3159983053367
 30
0.0
  0
POINT
  5
75
330
6A
100
AcDbEntity
  8
Defpoints
 62
     0
100
AcDbPoint
 10
211.4106390437481
 20
233.964928204807
 30
0.0
  0
ENDBLK
  5
76
330
6A
100
AcDbEntity
  8
0
100
AcDbBlockEnd
  0
ENDSEC
  0
SECTION
  2
ENTITIES
  0
LINE
  5
5D
330
2
100
AcDbEntity
  8
0
100
AcDbLine
 10
211.4106390437481
 20
180.893833933685
 30
0.0
 11
211.4106390437481
 21
168.7974922797811
 31
0.0
  0
LINE
  5
5E
330
2
100
AcDbEntity
  8
0
100
AcDbLine
 10
203.4100143365644
 20
182.6456474890535
 30
0.0
 11
203.4100143365644
 21
167.0456787244126
 31
0.0
  0
LINE
  5
5F
330
2
100
AcDbEntity
  8
0
100
AcDbLine
 10
209.4112637509319
 20
166.8956474890535
 30
0.0
 11
209.4112637509319
 21
182.7956787244127
 31
0.0
  0
LINE
  5
60
330
2
100
AcDbEntity
  8
0
100
AcDbLine
 10
201.4106390437481
 20
167.3956631067331
 30
0.0
 11
203.4100143365644
 21
167.0456787244126
 31
0.0
  0
LINE
  5
61
330
2
100
AcDbEntity
  8
0
100
AcDbLine
 10
203.4100143365644
 20
182.6456474890535
 30
0.0
 11
201.4106390437481
 21
182.2956631067331
 31
0.0
  0
LINE
  5
62
330
2
100
AcDbEntity
  8
0
100
AcDbLine
 10
211.4106390437481
 20
180.893833933685
 30
0.0
 11
209.4112637509319
 21
182.7956787244127
 31
0.0
  0
LINE
  5
63
330
2
100
AcDbEntity
  8
0
100
AcDbLine
 10
209.4112637509319
 20
166.8956474890535
 30
0.0
 11
211.4106390437481
 21
168.7974922797811
 31
0.0
  0
LINE
  5
64
330
2
100
AcDbEntity
  8
0
100
AcDbLine
 10
203.4100143365644
 20
167.0456787244126
 30
0.0
 11
209.4112637509319
 21
166.8956474890535
 31
0.0
  0
LINE
  5
65
330
2
100
AcDbEntity
  8
0
100
AcDbLine
 10
209.4112637509319
 20
182.7956787244127
 30
0.0
 11
203.4100143365644
 21
182.6456474890535
 31
0.0
  0
DIMENSION
  5
66
330
2
100
AcDbEntity
  8
09-01
100
AcDbDimension
280
     0
  2
*D10
 10
211.4106390437481
 20
233.964928204807
 30
0.0
 11
156.4106390437481
 21
236.214928204807
 31
0.0
 71
     5
 42
110.0
 73
     0
 74
     0
 75
     0
  3
Wagner$0
100
AcDbAlignedDimension
 13
101.4106390437481
 23
240.0641691322887
 33
0.0
 14
211.4106390437481
 24
256.3159983053367
 34
0.0
100
AcDbRotatedDimension
  0
DIMENSION
  5
7B
330
2
100
AcDbEntity
  8
09-01
100
AcDbDimension
280
     0
  2
*D9
 10
211.4106390437481
 20
247.3662469167003
 30
0.0
 11
206.4106390437481
 21
249.6162469167003
 31
0.0
 71
     5
 42
10.0
 73
     0
 74
     0
 75
     0
  3
Wagner$0
100
AcDbAlignedDimension
 13
201.4106390437481
 23
254.8641691322887
 33
0.0
 14
211.4106390437481
 24
256.3159983053367
 34
0.0
100
AcDbRotatedDimension
  0
LINE
  5
88
330
2
100
AcDbEntity
  8
0
100
AcDbLine
 10
201.4106390437481
 20
254.8641691322887
 30
0.0
 11
200.9106390437481
 21
254.3641691322886
 31
0.0
  0
LINE
  5
89
330
2
100
AcDbEntity
  8
0
100
AcDbLine
 10
211.4106390437481
 20
268.4123399592406
 30
0.0
 11
211.4106390437481
 21
256.3159983053367
 31
0.0
  0
LINE
  5
8A
330
2
100
AcDbEntity
  8
0
100
AcDbLine
 10
203.4100143365644
 20
270.164153514609
 30
0.0
 11
203.4100143365644
 21
254.5641847499682
 31
0.0
  0
LINE
  5
8B
330
2
100
AcDbEntity
  8
0
100
AcDbLine
 10
209.4112637509319
 20
254.414153514609
 30
0.0
 11
209.4112637509319
 21
270.3141847499683
 31
0.0
  0
LINE
  5
8C
330
2
100
AcDbEntity
  8
0
100
AcDbLine
 10
201.4106390437481
 20
254.9141691322887
 30
0.0
 11
203.4100143365644
 21
254.5641847499683
 31
0.0
  0
LINE
  5
8D
330
2
100
AcDbEntity
  8
0
100
AcDbLine
 10
203.4100143365644
 20
270.164153514609
 30
0.0
 11
201.4106390437481
 21
269.8141691322887
 31
0.0
  0
LINE
  5
8E
330
2
100
AcDbEntity
  8
0
100
AcDbLine
 10
211.4106390437481
 20
268.4123399592406
 30
0.0
 11
209.4112637509319
 21
270.3141847499683
 31
0.0
  0
LINE
  5
8F
330
2
100
AcDbEntity
  8
0
100
AcDbLine
 10
209.4112637509319
 20
254.4141535146091
 30
0.0
 11
211.4106390437481
 21
256.3159983053367
 31
0.0
  0
LINE
  5
90
330
2
100
AcDbEntity
  8
0
100
AcDbLine
 10
203.4100143365644
 20
254.5641847499683
 30
0.0
 11
209.4112637509319
 21
254.4141535146091
 31
0.0
  0
LINE
  5
91
330
2
100
AcDbEntity
  8
0
100
AcDbLine
 10
209.4112637509319
 20
270.3141847499683
 30
0.0
 11
203.4100143365644
 21
270.164153514609
 31
0.0
  0
DIMENSION
  5
92
330
2
100
AcDbEntity
  8
09-01
100
AcDbDimension
280
     0
  2
*D8
 10
201.4106390437481
 20
247.3662469167003
 30
0.0
 11
154.4106390437481
 21
249.6162469167003
 31
0.0
 71
     5
 42
94.0
 73
     0
 74
     0
 75
     0
  3
Wagner$0
100
AcDbAlignedDimension
 13
107.4106390437481
 23
254.3641691322886
 33
0.0
 14
201.4106390437481
 24
255.5641691322886
 34
0.0
100
AcDbRotatedDimension
  0
DIMENSION
  5
9F
330
2
100
AcDbEntity
  8
09-01
100
AcDbDimension
280
     0
  2
*D7
 10
89.789738802761
 20
171.7217377146178
 30
0.0
 11
87.80918706706973
 21
182.9113250902634
 31
0.0
 70
   128
 71
     5
 42
5.499999999999943
 73
     0
 74
     0
 75
     0
  3
Wagner$0
100
AcDbAlignedDimension
 13
74.2038301843711
 23
177.2217377146177
 33
0.0
 14
74.2038301843711
 24
171.7217377146178
 34
0.0
 50
90.0
100
AcDbRotatedDimension
  0
DIMENSION
  5
AE
330
2
100
AcDbEntity
  8
09-01
100
AcDbDimension
280
     0
  2
*D6
 10
74.2038301843711
 20
146.6732666112243
 30
0.0
 11
61.20383018437109
 21
148.9232666112243
 31
0.0
 71
     5
 42
26.0
 73
     0
 74
     0
 75
     0
  3
Wagner$0
100
AcDbAlignedDimension
 13
48.2038301843711
 23
169.7217377146178
 33
0.0
 14
74.2038301843711
 24
169.7217377146178
 34
0.0
100
AcDbRotatedDimension
  0
TEXT
  5
BB
330
2
100
AcDbEntity
  8
02-99
100
AcDbText
 10
31.43964861532379
 20
208.1866091802913
 30
0.0
 40
3.5
  1
Befestigungsplatte
100
AcDbText
  0
DIMENSION
  5
C0
330
2
100
AcDbEntity
  8
09-01
100
AcDbDimension
280
     0
  2
*D5
 10
84.18621012744621
 20
231.8600207788908
 30
0.0
 11
61.6862101274462
 21
234.1100207788908
 31
0.0
 71
     5
 42
45.0
 73
     0
 74
     0
 75
     0
  3
Wagner$0
100
AcDbAlignedDimension
 13
39.1862101274462
 23
262.3641691322887
 33
0.0
 14
84.18621012744621
 24
262.3641691322887
 34
0.0
100
AcDbRotatedDimension
  0
DIMENSION
  5
CD
330
2
100
AcDbEntity
  8
09-01
100
AcDbDimension
280
     0
  2
*D4
 10
82.20383018437109
 20
198.9575752289674
 30
0.0
 11
61.20383018437109
 21
201.2075752289674
 31
0.0
 71
     5
 42
42.0
 73
     0
 74
     0
 75
     0
  3
Wagner$0
100
AcDbAlignedDimension
 13
40.2038301843711
 23
174.4717377146177
 33
0.0
 14
82.20383018437109
 24
174.4717377146177
 34
0.0
100
AcDbRotatedDimension
  0
LINE
  5
DA
330
2
100
AcDbEntity
  8
05-01
100
AcDbLine
 10
74.2038301843711
 20
169.7217377146178
 30
0.0
 11
74.2038301843711
 21
179.2217377146177
 31
0.0
  0
LINE
  5
DF
330
2
100
AcDbEntity
  8
05-01
100
AcDbLine
 10
69.4538301843711
 20
174.4717377146177
 30
0.0
 11
78.9538301843711
 21
174.4717377146177
 31
0.0
  0
LINE
  5
E0
330
2
100
AcDbEntity
  8
05-01
100
AcDbLine
 10
48.2038301843711
 20
169.7217377146178
 30
0.0
 11
48.2038301843711
 21
179.2217377146177
 31
0.0
  0
LINE
  5
E1
330
2
100
AcDbEntity
  8
05-01
100
AcDbLine
 10
43.4538301843711
 20
174.4717377146177
 30
0.0
 11
52.9538301843711
 21
174.4717377146177
 31
0.0
  0
LINE
  5
E2
330
2
100
AcDbEntity
  8
05-01
100
AcDbLine
 10
99.63526759116303
 20
174.845663106733
 30
0.0
 11
211.9855062987497
 21
174.845663106733
 31
0.0
  0
LINE
  5
E3
330
2
100
AcDbEntity
  8
05-01
100
AcDbLine
 10
99.63526759116303
 20
262.3641691322887
 30
0.0
 11
211.939282686141
 21
262.3641691322887
 31
0.0
  0
DIMENSION
  5
E4
330
2
100
AcDbEntity
  8
09-01
100
AcDbDimension
280
     0
  2
*D3
 10
217.5863530773994
 20
254.3641691322886
 30
0.0
 11
215.3363530773994
 21
262.3641691322887
 31
0.0
  1
%%c<>
 71
     5
 42
16.00000000000006
 73
     0
 74
     0
 75
     0
  3
Wagner$0
100
AcDbAlignedDimension
 13
200.2106390437481
 23
270.3641691322887
 33
0.0
 14
200.2106390437481
 24
254.3641691322886
 34
0.0
 50
90.0
100
AcDbRotatedDimension
  0
DIMENSION
  5
F1
330
2
100
AcDbEntity
  8
09-01
100
AcDbDimension
280
     0
  2
*D2
 10
107.4106390437481
 20
289.1269817441433
 30
0.0
 11
104.4106390437481
 21
291.3769817441433
 31
0.0
 71
     5
 42
6.0
 73
     0
 74
     0
 75
     0
  3
Wagner$0
100
AcDbAlignedDimension
 13
101.4106390437481
 23
284.6641691322886
 33
0.0
 14
107.4106390437481
 24
284.6641691322886
 34
0.0
100
AcDbRotatedDimension
  0
LINE
  5
100
330
2
100
AcDbEntity
  8
05-01
100
AcDbLine
 10
61.6862101274462
 20
237.8641691322887
 30
0.0
 11
61.6862101274462
 21
286.8641691322887
 31
0.0
  0
LINE
  5
101
330
2
100
AcDbEntity
  8
05-01
100
AcDbLine
 10
37.1862101274462
 20
262.3641691322887
 30
0.0
 11
86.1862101274462
 21
262.3641691322887
 31
0.0
  0
CIRCLE
  5
102
330
2
100
AcDbEntity
  8
0
100
AcDbCircle
 10
61.6862101274462
 20
262.3641691322887
 30
0.0
 40
22.5
  0
DIMENSION
  5
103
330
2
100
AcDbEntity
  8
09-01
100
AcDbDimension
280
     0
  2
*D1
 10
96.19049085463746
 20
239.8641691322887
 30
0.0
 11
93.94049085463741
 21
262.3641691322887
 31
0.0
  1
%%C<>
 71
     5
 42
44.99999999999992
 73
     0
 74
     0
 75
     0
  3
Wagner$0
100
AcDbAlignedDimension
 13
101.610639043748
 23
284.8641691322886
 33
0.0
 14
101.610639043748
 24
239.8641691322887
 34
0.0
 50
90.0
100
AcDbRotatedDimension
  0
LINE
  5
110
330
2
100
AcDbEntity
  8
0
100
AcDbLine
 10
101.610639043748
 20
284.8641691322886
 30
0.0
 11
101.610639043748
 21
239.8641691322887
 31
0.0
  0
CIRCLE
  5
111
330
2
100
AcDbEntity
  8
0
100
AcDbCircle
 10
-61.20383018437109
 20
174.4717377146177
 30
0.0
 40
21.00000000000001
210
0.0
220
0.0
230
-1.0
  0
CIRCLE
  5
112
330
2
100
AcDbEntity
  8
0
100
AcDbCircle
 10
-48.2038301843711
 20
174.4717377146177
 30
0.0
 40
2.749999999999985
210
0.0
220
0.0
230
-1.0
  0
CIRCLE
  5
113
330
2
100
AcDbEntity
  8
0
100
AcDbCircle
 10
61.20383018437109
 20
174.4717377146177
 30
0.0
 40
20.8
  0
CIRCLE
  5
114
330
2
100
AcDbEntity
  8
0
100
AcDbCircle
 10
-74.2038301843711
 20
174.4717377146177
 30
0.0
 40
2.749999999999985
210
0.0
220
0.0
230
-1.0
  0
CIRCLE
  5
115
330
2
100
AcDbEntity
  8
0
100
AcDbCircle
 10
-61.20383018437109
 20
174.4717377146177
 30
0.0
 40
6.750000000000028
210
0.0
220
0.0
230
-1.0
  0
CIRCLE
  5
116
330
2
100
AcDbEntity
  8
0
100
AcDbCircle
 10
61.20383018437109
 20
174.4717377146177
 30
0.0
 40
21.0
  0
LINE
  5
117
330
2
100
AcDbEntity
  8
0
100
AcDbLine
 10
63.2038301843711
 20
173.3170371762385
 30
0.0
 11
63.2038301843711
 21
175.626438252997
 31
0.0
  0
LINE
  5
118
330
2
100
AcDbEntity
  8
0
100
AcDbLine
 10
61.20383018437109
 20
172.1623366378592
 30
0.0
 11
63.2038301843711
 21
173.3170371762385
 31
0.0
  0
LINE
  5
119
330
2
100
AcDbEntity
  8
0
100
AcDbLine
 10
59.2038301843711
 20
173.3170371762385
 30
0.0
 11
61.20383018437109
 21
172.1623366378592
 31
0.0
  0
LINE
  5
11A
330
2
100
AcDbEntity
  8
0
100
AcDbLine
 10
59.2038301843711
 20
175.626438252997
 30
0.0
 11
59.2038301843711
 21
173.3170371762385
 31
0.0
  0
LINE
  5
11B
330
2
100
AcDbEntity
  8
0
100
AcDbLine
 10
61.20383018437109
 20
176.7811387913763
 30
0.0
 11
59.2038301843711
 21
175.626438252997
 31
0.0
  0
LINE
  5
11C
330
2
100
AcDbEntity
  8
0
100
AcDbLine
 10
63.2038301843711
 20
175.626438252997
 30
0.0
 11
61.20383018437109
 21
176.7811387913763
 31
0.0
  0
CIRCLE
  5
11D
330
2
100
AcDbEntity
  8
0
100
AcDbCircle
 10
61.20383018437109
 20
174.4717377146177
 30
0.0
 40
6.0
  0
LINE
  5
11E
330
2
100
AcDbEntity
  8
0
100
AcDbLine
 10
107.410639043748
 20
197.145663106733
 30
0.0
 11
107.4106390437481
 21
152.545663106733
 31
0.0
  0
LINE
  5
11F
330
2
100
AcDbEntity
  8
0
100
AcDbLine
 10
101.4106390437481
 20
152.545663106733
 30
0.0
 11
101.4106390437481
 21
197.1456631067331
 31
0.0
  0
LINE
  5
120
330
2
100
AcDbEntity
  8
0
100
AcDbLine
 10
101.610639043748
 20
197.345663106733
 30
0.0
 11
101.610639043748
 21
152.345663106733
 31
0.0
  0
LINE
  5
121
330
2
100
AcDbEntity
  8
0
100
AcDbLine
 10
107.2106390437481
 20
152.345663106733
 30
0.0
 11
107.2106390437481
 21
197.345663106733
 31
0.0
  0
LINE
  5
122
330
2
100
AcDbEntity
  8
0
100
AcDbLine
 10
201.4106390437481
 20
181.645663106733
 30
0.0
 11
201.4106390437481
 21
168.045663106733
 31
0.0
  0
LINE
  5
123
330
2
100
AcDbEntity
  8
0
100
AcDbLine
 10
200.2106390437481
 20
166.845663106733
 30
0.0
 11
200.2106390437481
 21
182.845663106733
 31
0.0
  0
LINE
  5
124
330
2
100
AcDbEntity
  8
0
100
AcDbLine
 10
107.510639043748
 20
182.845663106733
 30
0.0
 11
107.510639043748
 21
166.845663106733
 31
0.0
  0
LINE
  5
125
330
2
100
AcDbEntity
  8
0
100
AcDbLine
 10
107.410639043748
 20
197.1456631067331
 30
0.0
 11
107.2106390437481
 21
197.345663106733
 31
0.0
  0
LINE
  5
126
330
2
100
AcDbEntity
  8
0
100
AcDbLine
 10
107.2106390437481
 20
152.345663106733
 30
0.0
 11
107.4106390437481
 21
152.545663106733
 31
0.0
  0
LINE
  5
127
330
2
100
AcDbEntity
  8
0
100
AcDbLine
 10
101.4106390437481
 20
152.545663106733
 30
0.0
 11
101.610639043748
 21
152.345663106733
 31
0.0
  0
LINE
  5
128
330
2
100
AcDbEntity
  8
0
100
AcDbLine
 10
101.610639043748
 20
197.345663106733
 30
0.0
 11
101.4106390437481
 21
197.1456631067331
 31
0.0
  0
LINE
  5
129
330
2
100
AcDbEntity
  8
0
100
AcDbLine
 10
101.610639043748
 20
152.345663106733
 30
0.0
 11
107.2106390437481
 21
152.345663106733
 31
0.0
  0
LINE
  5
12A
330
2
100
AcDbEntity
  8
0
100
AcDbLine
 10
107.2106390437481
 20
197.345663106733
 30
0.0
 11
101.610639043748
 21
197.345663106733
 31
0.0
  0
LINE
  5
12B
330
2
100
AcDbEntity
  8
0
100
AcDbLine
 10
201.4106390437481
 20
181.645663106733
 30
0.0
 11
200.2106390437481
 21
182.845663106733
 31
0.0
  0
LINE
  5
12C
330
2
100
AcDbEntity
  8
0
100
AcDbLine
 10
200.2106390437481
 20
166.845663106733
 30
0.0
 11
201.4106390437481
 21
168.045663106733
 31
0.0
  0
LINE
  5
12D
330
2
100
AcDbEntity
  8
0
100
AcDbLine
 10
107.510639043748
 20
166.845663106733
 30
0.0
 11
200.2106390437481
 21
166.845663106733
 31
0.0
  0
LINE
  5
12E
330
2
100
AcDbEntity
  8
0
100
AcDbLine
 10
200.2106390437481
 20
182.845663106733
 30
0.0
 11
107.510639043748
 21
182.845663106733
 31
0.0
  0
LINE
  5
12F
330
2
100
AcDbEntity
  8
0
100
AcDbLine
 10
107.410639043748
 20
166.945663106733
 30
0.0
 11
107.510639043748
 21
166.845663106733
 31
0.0
  0
LINE
  5
130
330
2
100
AcDbEntity
  8
0
100
AcDbLine
 10
107.510639043748
 20
182.845663106733
 30
0.0
 11
107.410639043748
 21
182.745663106733
 31
0.0
  0
CIRCLE
  5
131
330
2
100
AcDbEntity
  8
0
100
AcDbCircle
 10
61.68621012744631
 20
262.3641691322887
 30
0.0
 40
22.3
  0
CIRCLE
  5
132
330
2
100
AcDbEntity
  8
0
100
AcDbCircle
 10
-61.6862101274462
 20
262.3641691322887
 30
0.00000000000024
 40
8.0
210
0.0000000000000034
220
0.0000000000000001
230
-1.0
  0
CIRCLE
  5
133
330
2
100
AcDbEntity
  8
0
100
AcDbCircle
 10
61.6862101274462
 20
262.3641691322887
 30
0.0
 40
6.799999999999997
  0
LINE
  5
134
330
2
100
AcDbEntity
  8
0
100
AcDbLine
 10
107.4106390437481
 20
284.6641691322886
 30
0.0
 11
107.4106390437481
 21
262.3641691322887
 31
0.0
  0
LINE
  5
135
330
2
100
AcDbEntity
  8
0
100
AcDbLine
 10
107.4106390437481
 20
262.3641691322887
 30
0.0
 11
107.4106390437481
 21
240.0641691322887
 31
0.0
  0
LINE
  5
136
330
2
100
AcDbEntity
  8
0
100
AcDbLine
 10
101.4106390437481
 20
240.0641691322887
 30
0.0
 11
101.4106390437481
 21
262.3641691322887
 31
0.0
  0
LINE
  5
137
330
2
100
AcDbEntity
  8
0
100
AcDbLine
 10
101.4106390437481
 20
262.3641691322887
 30
0.0
 11
101.4106390437481
 21
284.6641691322886
 31
0.0
  0
LINE
  5
138
330
2
100
AcDbEntity
  8
0
100
AcDbLine
 10
101.610639043748
 20
284.8641691322886
 30
0.0
 11
101.610639043748
 21
262.3641691322887
 31
0.0
  0
LINE
  5
139
330
2
100
AcDbEntity
  8
0
100
AcDbLine
 10
101.610639043748
 20
262.3641691322887
 30
0.0
 11
101.610639043748
 21
239.8641691322887
 31
0.0
  0
LINE
  5
13A
330
2
100
AcDbEntity
  8
0
100
AcDbLine
 10
107.2106390437481
 20
239.8641691322887
 30
0.0
 11
107.2106390437481
 21
262.3641691322887
 31
0.0
  0
LINE
  5
13B
330
2
100
AcDbEntity
  8
0
100
AcDbLine
 10
107.2106390437481
 20
262.3641691322887
 30
0.0
 11
107.2106390437481
 21
284.8641691322886
 31
0.0
  0
LINE
  5
13C
330
2
100
AcDbEntity
  8
0
100
AcDbLine
 10
201.4106390437481
 20
269.8641691322886
 30
0.0
 11
201.4106390437481
 21
262.3641691322887
 31
0.0
  0
LINE
  5
13D
330
2
100
AcDbEntity
  8
0
100
AcDbLine
 10
201.4106390437481
 20
262.3641691322887
 30
0.0
 11
201.4106390437481
 21
254.8641691322887
 31
0.0
  0
LINE
  5
13E
330
2
100
AcDbEntity
  8
0
100
AcDbLine
 10
200.9106390437481
 20
254.3641691322887
 30
0.0
 11
200.9106390437481
 21
270.3641691322887
 31
0.0
  0
LINE
  5
13F
330
2
100
AcDbEntity
  8
0
100
AcDbLine
 10
107.510639043748
 20
270.3641691322887
 30
0.0
 11
107.510639043748
 21
254.3641691322887
 31
0.0
  0
LINE
  5
140
330
2
100
AcDbEntity
  8
0
100
AcDbLine
 10
107.4106390437481
 20
284.6641691322886
 30
0.0
 11
107.2106390437481
 21
284.8641691322886
 31
0.0
  0
LINE
  5
141
330
2
100
AcDbEntity
  8
0
100
AcDbLine
 10
107.2106390437481
 20
239.8641691322887
 30
0.0
 11
107.4106390437481
 21
240.0641691322887
 31
0.0
  0
LINE
  5
142
330
2
100
AcDbEntity
  8
0
100
AcDbLine
 10
101.4106390437481
 20
240.0641691322887
 30
0.0
 11
101.610639043748
 21
239.8641691322887
 31
0.0
  0
LINE
  5
143
330
2
100
AcDbEntity
  8
0
100
AcDbLine
 10
101.610639043748
 20
284.8641691322886
 30
0.0
 11
101.4106390437481
 21
284.6641691322886
 31
0.0
  0
LINE
  5
144
330
2
100
AcDbEntity
  8
0
100
AcDbLine
 10
101.610639043748
 20
239.8641691322887
 30
0.0
 11
107.2106390437481
 21
239.8641691322887
 31
0.0
  0
LINE
  5
145
330
2
100
AcDbEntity
  8
0
100
AcDbLine
 10
107.2106390437481
 20
284.8641691322886
 30
0.0
 11
101.610639043748
 21
284.8641691322886
 31
0.0
  0
LINE
  5
146
330
2
100
AcDbEntity
  8
0
100
AcDbLine
 10
201.4106390437481
 20
269.8641691322886
 30
0.0
 11
200.9106390437481
 21
270.3641691322887
 31
0.0
  0
LINE
  5
147
330
2
100
AcDbEntity
  8
0
100
AcDbLine
 10
107.410639043748
 20
254.4641691322886
 30
0.0
 11
107.510639043748
 21
254.3641691322886
 31
0.0
  0
LINE
  5
148
330
2
100
AcDbEntity
  8
0
100
AcDbLine
 10
107.510639043748
 20
270.3641691322887
 30
0.0
 11
107.410639043748
 21
270.2641691322887
 31
0.0
  0
LINE
  5
149
330
2
100
AcDbEntity
  8
0
100
AcDbLine
 10
107.4106390437481
 20
254.3641691322886
 30
0.0
 11
200.9106390437481
 21
254.3641691322886
 31
0.0
  0
LINE
  5
14A
330
2
100
AcDbEntity
  8
0
100
AcDbLine
 10
200.9106390437481
 20
270.3641691322887
 30
0.0
 11
107.510639043748
 21
270.3641691322887
 31
0.0
  0
LWPOLYLINE
  5
14B
330
2
100
AcDbEntity
  8
0
100
AcDbPolyline
 90
       61
 70
   128
 43
0.0
 10
86.05270433920441
 20
107.0514700431947
 10
86.05810780389209
 20
107.5312417866769
 10
86.07431449469022
 20
108.0169234261048
 10
86.10131330434256
 20
108.5081820995434
 10
86.13908572921355
 20
109.0046811228367
 10
86.18760588196995
 20
109.5060802203547
 10
86.24684050932273
 20
110.0120357582016
 10
86.3167490148171
 20
110.5222009797247
 10
86.3972834866554
 20
111.0362262431646
 10
86.48838873053353
 20
111.5537592612817
 10
86.59000230746789
 20
112.0744453427968
 10
86.70205457658893
 20
112.5979276354786
 10
86.82446874286814
 20
113.123847370712
 10
86.957160909751
 20
113.6518441093809
 10
87.10004013665423
 20
114.1815559888947
 10
87.25300850129281
 20
114.7126199711907
 10
87.41596116679057
 20
115.2446720915427
 10
87.58878645353012
 20
115.7773477080042
 10
87.77136591569286
 20
116.3102817513152
 10
87.96357442243538
 20
116.8431089751032
 10
88.16528024364822
 20
117.3754642062043
 10
88.37634514023704
 20
117.9069825949348
 10
88.59662445886455
 20
118.437299865141
 10
88.82596723108894
 20
118.9660525638558
 10
89.06421627683005
 20
119.4928783103915
 10
89.31120831209284
 20
120.0174160446967
 10
89.56677406087385
 20
120.5393062748097
 10
89.83073837117457
 20
121.0581913232356
 10
90.10292033504208
 20
121.5737155720814
 10
90.38313341255422
 20
122.0855257067777
 10
90.67118555966443
 20
122.5932709582238
 10
90.9668793598198
 20
123.0966033431867
 10
91.27001215925986
 20
123.5951779027919
 10
91.58037620590562
 20
124.0886529389404
 10
91.89775879174261
 20
124.5766902484922
 10
92.22194239860016
 20
125.0589553550533
 10
92.55270484722723
 20
125.5351177382094
 10
92.88981944956379
 20
126.0048510600478
 10
93.23305516410062
 20
126.4678333888135
 10
93.58217675422372
 20
126.9237474195449
 10
93.93694494943451
 20
127.3722806915386
 10
94.29711660933287
 20
127.8131258024948
 10
94.66244489025427
 20
128.2459806191952
 10
95.03267941444324
 20
128.6705484845699
 10
95.40756644165083
 20
129.0865384210118
 10
95.78684904303441
 20
129.4936653297974
 10
96.17026727724464
 20
129.89165018648
 10
96.55755836857601
 20
130.2802202321186
 10
96.94845688706017
 20
130.6591091602133
 10
97.34269493037823
 20
131.028057299219
 10
97.740002307468
 20
131.3868117905102
 10
98.14010672369921
 20
131.7351267616791
 10
98.54273396749057
 20
132.072763495043
 10
98.94760809824095
 20
132.3994905912503
 10
99.35445163544489
 20
132.7150841278695
 10
99.76298574886449
 20
133.0193278128549
 10
100.172930449625
 20
133.3120131327822
 10
100.5840047821057
 20
133.592939495753
 10
100.9959270164928
 20
133.8619143688708
 10
101.4084148418628
 20
134.118753410193
 10
101.8186227380015
 20
134.3618008691187
  0
LWPOLYLINE
  5
14C
330
2
100
AcDbEntity
  8
0
100
AcDbPolyline
 90
       91
 70
   128
 43
0.0
 10
113.2116926580576
 20
135.558879082401
 10
112.9142611534131
 20
135.7217350982791
 10
112.6084096741575
 20
135.8716525772033
 10
112.2952620934611
 20
136.0080008976186
 10
111.9750330270336
 20
136.1306866131972
 10
111.6479419438815
 20
136.2396256412778
 10
111.3142130158943
 20
136.3347433204922
 10
110.9740749642095
 20
136.4159744619342
 10
110.6277609024572
 20
136.4832633938371
 10
110.2755081769966
 20
136.5365639997281
 10
109.9175582042503
 20
136.5758397500345
 10
109.5541563052496
 20
136.6010637271188
 10
109.185551537504
 20
136.6122186437271
 10
108.8119965243087
 20
136.6092968548366
 10
108.4337472816105
 20
136.5923003628957
 10
108.0510630425464
 20
136.5612408164509
 10
107.6642060797782
 20
136.5161395021638
 10
107.2734415257442
 20
136.4570273302224
 10
106.8790371909508
 20
136.3839448131566
 10
106.4812633804281
 20
136.2969420380731
 10
106.0803927084765
 20
136.196078632328
 10
105.6766999118307
 20
136.0814237226615
 10
105.2704616613686
 20
135.9530558878213
 10
104.8619563724949
 20
135.8110631047095
 10
104.4514640143294
 20
135.6555426880868
 10
104.0392659178299
 20
135.4866012238784
 10
103.6256445829818
 20
135.3043544961251
 10
103.2108834851874
 20
135.1089274076306
 10
102.7952668809852
 20
134.9004538943596
 10
102.3790796132351
 20
134.6790768336445
 10
101.9626069159015
 20
134.4449479462649
 10
101.5461342185681
 20
134.198227692465
 10
101.129946950818
 20
133.939085161983
 10
100.7143303466158
 20
133.6676979581646
 10
100.2995692488214
 20
133.3842520762434
 10
99.88594791397339
 20
133.0889417758683
 10
99.47374981747373
 20
132.7819694479682
 10
99.06325745930837
 20
132.463545476043
 10
98.65475217043467
 20
132.1338880919774
 10
98.24851391997254
 20
131.7932232264757
 10
97.84482112332671
 20
131.4417843542201
 10
97.44395045137515
 20
131.0798123338589
 10
97.04617664085242
 20
130.7075552429339
 10
96.651772306059
 20
130.3252682078607
 10
96.26100775202509
 20
129.9332132290774
 10
95.87415078925699
 20
129.5316590014829
 10
95.49146655019274
 20
129.1208807302866
 10
95.11321730749456
 20
128.7011599423969
 10
94.73966229429937
 20
128.2727842934761
 10
94.37105752655361
 20
127.8360473707964
 10
94.00765562755294
 20
127.3912484920289
 10
93.64970565480666
 20
126.938692500107
 10
93.29745292934616
 20
126.4786895543018
 10
92.95113886759384
 20
126.0115549176548
 10
92.61100081590894
 20
125.5376087409119
 10
92.27727188792187
 20
125.0571758431087
 10
91.95018080476973
 20
124.5705854889552
 10
91.62995173834223
 20
124.0781711631742
 10
91.31680415764583
 20
123.5802703419481
 10
91.01095267839026
 20
123.077224261629
 10
90.71260691590168
 20
122.5693776848727
 10
90.42197134146306
 20
122.0570786643553
 10
90.13924514217956
 20
121.5406783042357
 10
89.86462208446573
 20
121.0205305195259
 10
89.59829038124746
 20
120.4969917935355
 10
89.34043256297071
 20
119.9704209335561
 10
89.09122535250379
 20
119.4411788249522
 10
88.85083954402057
 20
118.9096281838288
 10
88.61943988594658
 20
118.3761333084438
 10
88.39718496804891
 20
117.8410598295362
 10
88.18422711274626
 20
117.3047744597409
 10
87.98071227071535
 20
116.7676447422622
 10
87.78677992086306
 20
116.2300387989784
 10
87.60256297473473
 20
115.6923250781489
 10
87.42818768542361
 20
115.1548721018985
 10
87.26377356104251
 20
114.6180482136509
 10
87.10943328281974
 20
114.0822213256841
 10
86.96527262787242
 20
113.5477586669819
 10
86.83139039671265
 20
113.0150265315536
 10
86.70787834553403
 20
112.4843900273943
 10
86.59482112332682
 20
111.956212826258
 10
86.49229621386382
 20
111.4308569144154
 10
86.40037388259669
 20
110.9086823445663
 10
86.31911712849968
 20
110.3900469890777
 10
86.24858164089335
 20
109.8753062947158
 10
86.18881576127728
 20
109.3648130390407
 10
86.13986045020022
 20
108.8589170886301
 10
86.10174925918688
 20
108.3579651592983
 10
86.07450830774395
 20
107.8623005784747
 10
86.05815626545881
 20
107.3722630499039
 10
86.05270433920441
 20
106.8881884208302
  0
LWPOLYLINE
  5
14D
330
2
100
AcDbEntity
  8
0
100
AcDbPolyline
 90
       32
 70
   128
 43
0.0
 10
86.05270433920441
 20
106.8881884208302
 10
86.05815626545881
 20
106.410408451824
 10
86.07450830774395
 20
105.9392505894106
 10
86.10174925918682
 20
105.4750377416539
 10
86.13986045020016
 20
105.0180880568521
 10
86.18881576127717
 20
104.5687147054937
 10
86.24858164089323
 20
104.1272256656272
 10
86.31911712849968
 20
103.6939235117877
 10
86.40037388259669
 20
103.2691052076273
 10
86.49229621386382
 20
102.8530619023917
 10
86.59482112332682
 20
102.4460787313805
 10
86.70787834553403
 20
102.0484346205297
 10
86.83139039671265
 20
101.6604020952502
 10
86.96527262787254
 20
101.2822470936523
 10
87.10943328281974
 20
100.9142287842845
 10
87.26377356104251
 20
100.5565993885134
 10
87.42818768542361
 20
100.2096040076629
 10
87.60256297473484
 20
99.873480455034
 10
87.78677992086318
 20
99.54845909292007
 10
87.98071227071545
 20
99.23476267472748
 10
88.18422711274639
 20
98.93260619231178
 10
88.39718496804891
 20
98.64219672863299
 10
88.61943988594669
 20
98.36373331583123
 10
88.85083954402068
 20
98.09740679882006
 10
89.09122535250389
 20
97.84339970449096
 10
89.34043256297082
 20
97.60188611661838
 10
89.59829038124757
 20
97.37303155655167
 10
89.86462208446585
 20
97.1569928697747
 10
90.13924514217967
 20
96.95391811841204
 10
90.42197134146318
 20
96.76394647975442
 10
90.71260691590181
 20
96.58720815087374
 10
90.71352117374601
 20
96.58668027527037
  0
LWPOLYLINE
  5
14E
330
2
100
AcDbEntity
  8
0
100
AcDbPolyline
 90
      138
 70
   128
 43
0.0
 10
120.4721564916641
 20
114.6247982412951
 10
120.6320033051554
 20
115.1469966733772
 10
120.784971669794
 20
115.6780606556732
 10
120.9278508966972
 20
116.2077725351869
 10
121.06054306358
 20
116.7357692738559
 10
121.1829572298593
 20
117.2616890090893
 10
121.2950094989802
 20
117.7851713017711
 10
121.3966230759148
 20
118.3058573832862
 10
121.4877283197928
 20
118.8233904014033
 10
121.5682627916311
 20
119.3374156648431
 10
121.6381712971255
 20
119.8475808863662
 10
121.6974059244783
 20
120.3535364242131
 10
121.7459260772347
 20
120.8549355217312
 10
121.7836985021057
 20
121.3514345450245
 10
121.8106973117579
 20
121.842693218463
 10
121.8269040025561
 20
122.328374857891
 10
121.8323074672438
 20
122.8081466013731
 10
121.8269040025561
 20
123.2816796373215
 10
121.8106973117579
 20
123.7486494298468
 10
121.7836985021057
 20
124.2087359411789
 10
121.7459260772347
 20
124.6616238510048
 10
121.6974059244783
 20
125.1070027725733
 10
121.6381712971255
 20
125.5445674654187
 10
121.5682627916311
 20
125.9740180445575
 10
121.4877283197927
 20
126.3950601860142
 10
121.3966230759147
 20
126.8074053285366
 10
121.2950094989802
 20
127.210770871361
 10
121.1829572298593
 20
127.6048803678931
 10
121.06054306358
 20
127.9894637151701
 10
120.9278508966971
 20
128.3642573389761
 10
120.7849716697939
 20
128.7290043744828
 10
120.6320033051553
 20
129.0834548422914
 10
120.4690506396576
 20
129.4273658197567
 10
120.296225352918
 20
129.7605016074733
 10
120.1136458907553
 20
130.0826338908129
 10
119.9214373840128
 20
130.3935418963994
 10
119.7197315627999
 20
130.6930125434157
 10
119.508666666211
 20
130.9808405896396
 10
119.2883873475836
 20
131.2568287721054
 10
119.0590445753592
 20
131.5207879422987
 10
118.820795529618
 20
131.7725371957893
 10
118.5738034943552
 20
132.0119039962141
 10
118.3182377455742
 20
132.2387242935247
 10
118.0542734352735
 20
132.4528426364192
 10
117.782091471406
 20
132.6541122788808
 10
117.5018783938939
 20
132.8423952807504
 10
117.2138262467837
 20
133.0175626022632
 10
116.9181324466284
 20
133.1794941924871
 10
116.6149996471882
 20
133.3280790715986
 10
116.3046356005426
 20
133.4632154069437
 10
115.9872530147055
 20
133.5848105828282
 10
115.663069407848
 20
133.6927812639924
 10
115.3323069592209
 20
133.7870534527249
 10
114.9951923568843
 20
133.8675625395763
 10
114.6519566423475
 20
133.9342533476401
 10
114.3028350522244
 20
133.9870801703677
 10
113.9480668570136
 20
134.0260068028936
 10
113.5878951971152
 20
134.0510065668482
 10
113.2225669161939
 20
134.0620623286422
 10
112.8523323920049
 20
134.0591665112086
 10
112.4774453647973
 20
134.042321099196
 10
112.0981627634137
 20
134.0115376376084
 10
111.7147445292034
 20
133.9668372238928
 10
111.3274534378721
 20
133.9082504934798
 10
110.9365549193879
 20
133.8358175987879
 10
110.5423168760699
 20
133.7495881817051
 10
110.1450094989801
 20
133.6496213395667
 10
109.7449050827489
 20
133.5359855846527
 10
109.3422778389575
 20
133.4087587972333
 10
108.9374037082071
 20
133.2680281721936
 10
108.5305601710032
 20
133.1138901592742
 10
108.1220260575836
 20
132.9464503969699
 10
107.7120813568232
 20
132.76582364013
 10
107.3010070243424
 20
132.572133681311
 10
106.8890847899553
 20
132.3655132659357
 10
106.4765969645852
 20
132.1461040013159
 10
106.0638262467836
 20
131.9140562596019
 10
105.6510555289819
 20
131.6695290747247
 10
105.2385677036119
 20
131.4126900334025
 10
104.8266454692247
 20
131.1437151602847
 10
104.415571136744
 20
130.8627887973139
 10
104.0056264359835
 20
130.5701034773866
 10
103.5970923225639
 20
130.2658597924012
 10
103.19024878536
 20
129.9502662557819
 10
102.7853746546096
 20
129.6235391595747
 10
102.3827474108183
 20
129.2859024262108
 10
101.9826429945871
 20
128.9375874550419
 10
101.5853356174973
 20
128.5788329637506
 10
101.1910975741792
 20
128.209884824745
 10
100.8001990556951
 20
127.8309958966502
 10
100.4129079643637
 20
127.4424258510116
 10
100.0294897301535
 20
127.044440994329
 10
99.65020712876992
 20
126.6373140855434
 10
99.27532010156234
 20
126.2213241491016
 10
98.90508557737327
 20
125.7967562837268
 10
98.53975729645197
 20
125.3639014670264
 10
98.17958563655361
 20
124.9230563560702
 10
97.82481744134281
 20
124.4745230840764
 10
97.47569585121972
 20
124.0186090533451
 10
97.132460136683
 20
123.5556267245794
 10
96.79534553434644
 20
123.085893402741
 10
96.46458308571926
 20
122.6097310195849
 10
96.14039947886169
 20
122.1274659130238
 10
95.82301689302472
 20
121.639428603472
 10
95.51265284637896
 20
121.1459535673234
 10
95.2095200469389
 20
120.6473790077183
 10
94.91382624678363
 20
120.1440466227554
 10
94.62577409967332
 20
119.6363013713093
 10
94.34556102216129
 20
119.124491236613
 10
94.07337905829377
 20
118.6089669877672
 10
93.80941474799305
 20
118.0900819393412
 10
93.55384899921217
 20
117.5681917092282
 10
93.30685696394926
 20
117.043653974923
 10
93.06860791820815
 20
116.5168282283874
 10
92.83926514598375
 20
115.9880755296726
 10
92.61898582735625
 20
115.4577582594664
 10
92.40792093076743
 20
114.9262398707359
 10
92.20621510955458
 20
114.3938846396348
 10
92.01400660281207
 20
113.8610574158468
 10
91.83142714064933
 20
113.3281233725358
 10
91.65860185390977
 20
112.7954477560743
 10
91.49564918841212
 20
112.2633956357223
 10
91.34268082377355
 20
111.7323316534262
 10
91.19980159687031
 20
111.2026197739125
 10
91.06710942998745
 20
110.6746230352436
 10
90.94469526370813
 20
110.1487033000102
 10
90.83264299458722
 20
109.6252210073284
 10
90.73102941765274
 20
109.1045349258133
 10
90.63992417377471
 20
108.5870019076962
 10
90.55938970193642
 20
108.0729766442564
 10
90.48948119644194
 20
107.5628114227332
 10
90.43024656908926
 20
107.0568558848864
 10
90.38172641633286
 20
106.5554567873683
 10
90.34395399146182
 20
106.058957764075
 10
90.31695518180947
 20
105.5676990906365
 10
90.3007484910114
 20
105.0820174512085
 10
90.29534502632373
 20
104.6022457077266
 10
90.29534502632373
 20
104.6022457077266
  0
LWPOLYLINE
  5
14F
330
2
100
AcDbEntity
  8
0
100
AcDbPolyline
 90
       77
 70
   128
 43
0.0
 10
90.29534502632373
 20
104.6022457077266
 10
90.3007484910114
 20
104.1287126717782
 10
90.31695518180947
 20
103.6617428792529
 10
90.34395399146182
 20
103.2016563679208
 10
90.38172641633275
 20
102.7487684580949
 10
90.43024656908926
 20
102.3033895365264
 10
90.48948119644194
 20
101.865824843681
 10
90.55938970193631
 20
101.4363742645422
 10
90.63992417377471
 20
101.0153321230855
 10
90.73102941765274
 20
100.6029869805631
 10
90.83264299458722
 20
100.1996214377387
 10
90.94469526370824
 20
99.80551194120661
 10
91.06710942998745
 20
99.42092859392962
 10
91.19980159687031
 20
99.04613497012361
 10
91.34268082377355
 20
98.68138793461696
 10
91.49564918841212
 20
98.32693746680826
 10
91.65860185390977
 20
97.98302648934303
 10
91.83142714064945
 20
97.64989070162638
 10
92.01400660281217
 20
97.32775841828678
 10
92.20621510955458
 20
97.01685041270035
 10
92.40792093076754
 20
96.71737976568394
 10
92.61898582735637
 20
96.42955171946006
 10
92.83926514598375
 20
96.1535635369943
 10
93.06860791820815
 20
95.889604366801
 10
93.30685696394937
 20
95.63785511331037
 10
93.55384899921217
 20
95.39848831288557
 10
93.80941474799318
 20
95.17166801557499
 10
94.07337905829388
 20
94.9575496726805
 10
94.3455610221614
 20
94.75628003021881
 10
94.62577409967355
 20
94.56799702834928
 10
94.91382624678374
 20
94.39282970683642
 10
95.20952004693901
 20
94.2308981166126
 10
95.51265284637906
 20
94.08231323750106
 10
95.82301689302482
 20
93.94717690215603
 10
96.14039947886181
 20
93.82558172627147
 10
96.46458308571936
 20
93.71761104510717
 10
96.79534553434656
 20
93.62333885637474
 10
97.1324601366831
 20
93.54282976952331
 10
97.47569585121983
 20
93.47613896145951
 10
97.82481744134305
 20
93.42331213873192
 10
98.17958563655373
 20
93.38438550620603
 10
98.5397572964522
 20
93.35938574225139
 10
98.90508557737348
 20
93.34832998045742
 10
99.27532010156255
 20
93.35122579789103
 10
99.65020712877004
 20
93.36807120990359
 10
100.0294897301536
 20
93.39885467149114
 10
100.4129079643639
 20
93.44355508520679
 10
100.8001990556953
 20
93.50214181561984
 10
101.1910975741795
 20
93.57457471031169
 10
101.5853356174974
 20
93.66080412739444
 10
101.9826429945873
 20
93.76077096953288
 10
102.3827474108185
 20
93.87440672444688
 10
102.7853746546099
 20
94.00163351186622
 10
103.1902487853602
 20
94.14236413690595
 10
103.5970923225642
 20
94.2965021498253
 10
104.0056264359838
 20
94.46394191212959
 10
104.4155711367442
 20
94.64456866896956
 10
104.826645469225
 20
94.83825862778854
 10
105.2385677036121
 20
95.04487904316382
 10
105.6510555289821
 20
95.26428830778359
 10
106.0638262467838
 20
95.49633604949764
 10
106.4765969645855
 20
95.74086323437482
 10
106.8890847899555
 20
95.99770227569706
 10
107.3010070243426
 20
96.26667714881483
 10
107.7120813568233
 20
96.54760351178563
 10
108.1220260575838
 20
96.84028883171292
 10
108.5305601710034
 20
97.14453251669837
 10
108.9374037082074
 20
97.46012605331758
 10
109.3422778389578
 20
97.78685314952483
 10
109.7449050827491
 20
98.12448988288874
 10
110.1450094989803
 20
98.47280485405761
 10
110.5423168760701
 20
98.8315593453489
 10
110.9365549193882
 20
99.2005074843545
 10
111.3274534378723
 20
99.57939641244928
 10
111.7147445292036
 20
99.96796645808785
 10
112.0981627634139
 20
100.3659513147704
 10
112.4728066305756
 20
100.7680164432042
  0
LWPOLYLINE
  5
150
330
2
100
AcDbEntity
  8
0
100
AcDbPolyline
 90
       62
 70
   128
 43
0.0
 10
105.9249906971572
 20
95.41616169533895
 10
105.9224048905463
 20
95.41466869830268
 10
105.5059321932127
 20
95.18053981092304
 10
105.0897449254627
 20
94.95916275020801
 10
104.6741283212604
 20
94.75068923693699
 10
104.259367223466
 20
94.55526214844251
 10
103.845745888618
 20
94.37301542068921
 10
103.4335477921185
 20
94.20407395648084
 10
103.023055433953
 20
94.04855353985817
 10
102.6145501450793
 20
93.90656075674636
 10
102.2083118946171
 20
93.7781929219062
 10
101.8046190979713
 20
93.66353801223963
 10
101.4037484260198
 20
93.56267460649458
 10
101.005974615497
 20
93.4756718314111
 10
100.6115702807036
 20
93.40258931434533
 10
100.2208057266697
 20
93.34347714240394
 10
99.8339487639015
 20
93.29837582811686
 10
99.45126452483737
 20
93.267316281672
 10
99.07301528213919
 20
93.25031978973109
 10
98.699460268944
 20
93.24739800084071
 10
98.33085550119825
 20
93.25855291744897
 10
97.96745360219768
 20
93.28377689453324
 10
97.60950362945131
 20
93.32305264483965
 10
97.25725090399079
 20
93.37635325073073
 10
96.91093684223847
 20
93.44364218263368
 10
96.57079879055357
 20
93.52487332407569
 10
96.23706986256649
 20
93.61999100329006
 10
95.90997877941436
 20
93.72893003137063
 10
95.58974971298686
 20
93.85161574694921
 10
95.27660213229045
 20
93.98796406736462
 10
94.97075065303489
 20
94.1378815462888
 10
94.67240489054631
 20
94.30126543777026
 10
94.38176931610781
 20
94.47800376665098
 10
94.0990431168243
 20
94.66797540530858
 10
93.82442005911036
 20
94.87105015667125
 10
93.5580883558922
 20
95.08708884344825
 10
93.30023053761545
 20
95.31594340351496
 10
93.05102332714842
 20
95.55745699138752
 10
92.8106375186652
 20
95.81146408571663
 10
92.57923786059121
 20
96.07779060272783
 10
92.35698294269354
 20
96.3562540155296
 10
92.14402508739102
 20
96.64666347920839
 10
91.94051024536008
 20
96.94881996162409
 10
91.74657789550769
 20
97.26251637981668
 10
91.56236094937947
 20
97.58753774193063
 10
91.38798566006824
 20
97.92366129455951
 10
91.22357153568714
 20
98.27065667541011
 10
91.06923125746437
 20
98.62828607118121
 10
90.92507060251717
 20
98.99630438054892
 10
90.79118837135741
 20
99.37445938214693
 10
90.66767632017866
 20
99.7624919074264
 10
90.55461909797145
 20
100.1601360182771
 10
90.45209418850845
 20
100.5671191892884
 10
90.36017185724132
 20
100.983162494524
 10
90.27891510314441
 20
101.4079807986843
 10
90.20837961553798
 20
101.8412829525239
 10
90.14861373592191
 20
102.2827719923904
 10
90.09965842484485
 20
102.7321453437487
 10
90.06154723383156
 20
103.1890950285506
 10
90.03430628238868
 20
103.6533078763072
 10
90.01795424010344
 20
104.1244657387207
 10
90.01250231384904
 20
104.6022457077266
  0
LWPOLYLINE
  5
151
330
2
100
AcDbEntity
  8
0
100
AcDbPolyline
 90
      122
 70
   128
 43
0.0
 10
90.01250231384904
 20
104.6022457077266
 10
90.01795424010344
 20
105.0863203368005
 10
90.03430628238858
 20
105.5763578653713
 10
90.06154723383145
 20
106.072022446195
 10
90.09965842484485
 20
106.5729743755267
 10
90.14861373592191
 20
107.0788703259374
 10
90.20837961553798
 20
107.5893635816125
 10
90.27891510314441
 20
108.1041042759744
 10
90.36017185724132
 20
108.622739631463
 10
90.45209418850845
 20
109.1449142013121
 10
90.55461909797145
 20
109.6702701131547
 10
90.66767632017866
 20
110.198447314291
 10
90.79118837135741
 20
110.7290838184503
 10
90.92507060251717
 20
111.2618159538786
 10
91.06923125746437
 20
111.7962786125808
 10
91.22357153568726
 20
112.3321055005476
 10
91.38798566006824
 20
112.8689293887952
 10
91.56236094937947
 20
113.4063823650456
 10
91.74657789550781
 20
113.9440960858751
 10
91.94051024536008
 20
114.4817020291589
 10
92.14402508739102
 20
115.0188317466376
 10
92.35698294269367
 20
115.5551171164329
 10
92.57923786059132
 20
116.0901905953405
 10
92.81063751866531
 20
116.6236854707255
 10
93.05102332714852
 20
117.1552361118489
 10
93.30023053761545
 20
117.6844782204528
 10
93.5580883558922
 20
118.2110490804322
 10
93.82442005911048
 20
118.7345878064226
 10
94.09904311682442
 20
119.2547355911324
 10
94.38176931610781
 20
119.771135951252
 10
94.67240489054644
 20
120.2834349717694
 10
94.970750653035
 20
120.7912815485257
 10
95.27660213229058
 20
121.2943276288448
 10
95.58974971298709
 20
121.7922284500708
 10
95.90997877941447
 20
122.2846427758518
 10
96.23706986256673
 20
122.7712331300054
 10
96.5707987905538
 20
123.2516660278086
 10
96.91093684223858
 20
123.7256122045514
 10
97.25725090399089
 20
124.1927468411985
 10
97.60950362945152
 20
124.6527497870036
 10
97.9674536021978
 20
125.1053057789256
 10
98.33085550119847
 20
125.550104657693
 10
98.6994602689441
 20
125.9868415803728
 10
99.07301528213942
 20
126.4152172292935
 10
99.4512645248376
 20
126.8349380171833
 10
99.83394876390173
 20
127.2457162883795
 10
100.2208057266699
 20
127.6472705159741
 10
100.6115702807038
 20
128.0393254947574
 10
101.0059746154972
 20
128.4216125298306
 10
101.4037484260199
 20
128.7938696207555
 10
101.8046190979715
 20
129.1558416411167
 10
102.2083118946174
 20
129.5072805133723
 10
102.6145501450795
 20
129.847945378874
 10
103.0230554339531
 20
130.1776027629396
 10
103.4335477921187
 20
130.4960267348648
 10
103.8457458886182
 20
130.8029990627649
 10
104.2593672234662
 20
131.09830936314
 10
104.6741283212607
 20
131.3817552450612
 10
105.0897449254629
 20
131.6531424488796
 10
105.505932193213
 20
131.9122849793616
 10
105.9224048905465
 20
132.1590052331615
 10
106.33887758788
 20
132.3931341205411
 10
106.75506485563
 20
132.6145111812561
 10
107.1706814598323
 20
132.8229846945272
 10
107.5854425576267
 20
133.0184117830216
 10
107.9990638924747
 20
133.200658510775
 10
108.4112619889744
 20
133.3695999749833
 10
108.8217543471397
 20
133.525120391606
 10
109.2302596360134
 20
133.6671131747178
 10
109.6364978864756
 20
133.795481009558
 10
110.0401906831215
 20
133.9101359192245
 10
110.4410613550729
 20
134.0109993249696
 10
110.8388351655957
 20
134.0980021000531
 10
111.2332395003891
 20
134.1710846171189
 10
111.624004054423
 20
134.2301967890602
 10
112.0108610171912
 20
134.2752981033473
 10
112.3935452562554
 20
134.3063576497921
 10
112.7717944989536
 20
134.3233541417331
 10
113.1453495121488
 20
134.3262759306235
 10
113.5139542798946
 20
134.3151210140153
 10
113.8773561788952
 20
134.289897036931
 10
114.2353061516414
 20
134.2506212866246
 10
114.5875588771019
 20
134.1973206807335
 10
114.9338729388543
 20
134.1300317488305
 10
115.2740109905391
 20
134.0488006073885
 10
115.6077399185263
 20
133.9536829281742
 10
115.9348310016785
 20
133.8447439000936
 10
116.255060068106
 20
133.722058184515
 10
116.5682076488023
 20
133.5857098640996
 10
116.8740591280579
 20
133.4357923851754
 10
117.1724048905465
 20
133.272408493694
 10
117.463040464985
 20
133.0956701648133
 10
117.7457666642685
 20
132.9056985261557
 10
118.0203897219825
 20
132.702623774793
 10
118.2867214252006
 20
132.486585088016
 10
118.5445792434774
 20
132.2577305279493
 10
118.7937864539444
 20
132.0162169400768
 10
119.0341722624276
 20
131.7622098457476
 10
119.2655719205016
 20
131.4958833287365
 10
119.4878268383993
 20
131.2174199159347
 10
119.7007846937018
 20
130.9270104522559
 10
119.9042995357328
 20
130.6248539698402
 10
120.0982318855851
 20
130.3111575516476
 10
120.2824488317134
 20
129.9861361895336
 10
120.4568241210246
 20
129.6500126369048
 10
120.6212382454057
 20
129.3030172560542
 10
120.7755785236285
 20
128.9453878602831
 10
120.9197391785757
 20
128.5773695509154
 10
121.0536214097354
 20
128.1992145493174
 10
121.1771334609142
 20
127.8111820240379
 10
121.2901906831214
 20
127.4135379131871
 10
121.3927155925844
 20
127.0065547421759
 10
121.4846379238515
 20
126.5905114369403
 10
121.5658946779485
 20
126.16569313278
 10
121.636430165555
 20
125.7323909789404
 10
121.6961960451709
 20
125.2909019390739
 10
121.745151356248
 20
124.8415285877156
 10
121.7832625472614
 20
124.3845789029137
 10
121.8105034987043
 20
123.920366055157
 10
121.8268555409894
 20
123.4492081927436
 10
121.8323074672438
 20
122.9714282237374
 10
121.8323074672438
 20
122.9714282237375
  0
ARC
  5
152
330
2
100
AcDbEntity
  8
0
100
AcDbCircle
 10
112.8065770655099
 20
109.8126889612446
 30
0.0
 40
12.34696131433627
100
AcDbArc
 50
123.1053121203241
 51
176.9000644123766
  0
LWPOLYLINE
  5
153
330
2
100
AcDbEntity
  8
0
100
AcDbPolyline
 90
      122
 70
   128
 43
0.0
 10
110.1342118554466
 20
120.5927666480041
 10
110.0284584315731
 20
120.6506710092052
 10
109.9197112389489
 20
120.7039750017116
 10
109.8083698769235
 20
120.7524544045259
 10
109.6945106533048
 20
120.7960759922872
 10
109.5782116015174
 20
120.8348098689381
 10
109.459552427122
 20
120.8686294882143
 10
109.3386144531896
 20
120.8975116718381
 10
109.2154805645665
 20
120.9214366254036
 10
109.0902351510694
 20
120.9403879519427
 10
108.9629640496486
 20
120.9543526631627
 10
108.8337544855595
 20
120.9633211883482
 10
108.7026950125832
 20
120.9672873809201
 10
108.569875452336
 20
120.9662485226479
 10
108.43538683271
 20
120.9602053255134
 10
108.2993213254872
 20
120.9491619312219
 10
108.1617721831695
 20
120.9331259083642
 10
108.0228336750687
 20
120.9121082472295
 10
107.8826010226977
 20
120.8861233522728
 10
107.7411703345118
 20
120.8551890322431
 10
107.5986385400401
 20
120.8193264879782
 10
107.455103323455
 20
120.7785602978745
 10
107.310663056624
 20
120.7329184010425
 10
107.1654167316911
 20
120.6824320781583
 10
107.0194638932323
 20
120.6271359300258
 10
106.8729045700324
 20
120.5670678538628
 10
106.7258392065308
 20
120.5022690173283
 10
106.5783685939817
 20
120.432783830308
 10
106.4305938013765
 20
120.3586599144783
 10
106.2826161061765
 20
120.2799480706685
 10
106.1345369249023
 20
120.1967022440447
 10
105.9864577436282
 20
120.108979487138
 10
105.8384800484282
 20
120.0168399207444
 10
105.690705255823
 20
119.9203466927201
 10
105.5432346432739
 20
119.8195659347037
 10
105.3961692797724
 20
119.7145667167925
 10
105.2496099565725
 20
119.6054210002058
 10
105.1036571181136
 20
119.4922035879657
 10
104.9584107931808
 20
119.3749920736313
 10
104.8139705263498
 20
119.2538667881196
 10
104.6704353097646
 20
119.1289107446509
 10
104.5279035152929
 20
119.0002095818559
 10
104.3864728271071
 20
118.8678515050826
 10
104.2462401747361
 20
118.7319272259454
 10
104.1073016666351
 20
118.5925299001558
 10
103.9697525243176
 20
118.4497550636777
 10
103.8336870170948
 20
118.3037005672524
 10
103.6991983974687
 20
118.154466509336
 10
103.5663788372215
 20
118.0021551674975
 10
103.4353193642453
 20
117.8468709283225
 10
103.3061098001561
 20
117.6887202158719
 10
103.1788386987352
 20
117.5278114187441
 10
103.0535932852382
 20
117.3642548157911
 10
102.9304593966152
 20
117.1981625005388
 10
102.8095214226828
 20
117.0296483043636
 10
102.6908622482873
 20
116.858827718478
 10
102.5745631964998
 20
116.685817814779
 10
102.4607039728812
 20
116.5107371656124
 10
102.3493626108558
 20
116.3337057625098
 10
102.2406154182316
 20
116.1548449339519
 10
102.1345369249023
 20
115.9742772622163
 10
102.0311998317687
 20
115.7921264993657
 10
101.9306749609123
 20
115.6085174824343
 10
101.8330312070585
 20
115.4235760478708
 10
101.7383354903587
 20
115.2374289452965
 10
101.6466527105269
 20
115.0502037506371
 10
101.5580457023609
 20
114.862028778689
 10
101.4725751926779
 20
114.6730329951785
 10
101.3902997586962
 20
114.483345928375
 10
101.3112757878881
 20
114.2930975803189
 10
101.235557439336
 20
114.102418337725
 10
101.1631966066139
 20
113.9114388826215
 10
101.0942428822219
 20
113.7202901027873
 10
101.0287435235985
 20
113.5291030020479
 10
100.9667434207324
 20
113.3380086104922
 10
100.9082850653968
 20
113.1471378946708
 10
100.8534085220287
 20
112.9566216678382
 10
100.8021514002697
 20
112.7665905002996
 10
100.7545488291907
 20
112.5771746299251
 10
100.7106334332161
 20
112.3885038728907
 10
100.6704353097647
 20
112.2007075347089
 10
100.6339820086222
 20
112.0139143216093
 10
100.6012985130605
 20
111.8282522523296
 10
100.572407222715
 20
111.6438485703781
 10
100.5473279382327
 20
111.4608296568272
 10
100.5260778477026
 20
111.2793209436983
 10
100.5086715148751
 20
111.0994468279967
 10
100.4951208691815
 20
110.9213305864566
 10
100.4854351975574
 20
110.7450942910526
 10
100.4796211380782
 20
110.5708587253385
 10
100.47768267541
 20
110.3987433016678
 10
100.4796211380782
 20
110.2288659793545
 10
100.4854351975574
 20
110.0613431838297
 10
100.4951208691815
 20
109.8962897268496
 10
100.5086715148751
 20
109.7338187278089
 10
100.5260778477026
 20
109.5740415362148
 10
100.5473279382328
 20
109.4170676553734
 10
100.572407222715
 20
109.2630046673416
 10
100.6012985130605
 20
109.1119581591957
 10
100.6339820086222
 20
108.9640316506675
 10
100.6704353097647
 20
108.8193265231968
 10
100.7106334332161
 20
108.6779419504499
 10
100.7545488291907
 20
108.5399748303505
 10
100.8021514002697
 20
108.4055197186712
 10
100.8534085220288
 20
108.2746687642294
 10
100.9082850653968
 20
108.147511645733
 10
100.9667434207324
 20
108.0241355103194
 10
101.0287435235986
 20
107.9046249138292
 10
101.094242882222
 20
107.7890617628553
 10
101.1631966066139
 20
107.6775252586091
 10
101.235557439336
 20
107.5700918426391
 10
101.3112757878881
 20
107.4668351444421
 10
101.3902997586962
 20
107.3678259310015
 10
101.472575192678
 20
107.2731320582864
 10
101.558045702361
 20
107.1828184247472
 10
101.6466527105269
 20
107.096946926837
 10
101.7383354903587
 20
107.015576416591
 10
101.8330312070585
 20
106.9387626612925
 10
101.9306749609123
 20
106.8665583052525
 10
102.0311998317687
 20
106.7990128337298
 10
102.1345369249023
 20
106.7361725390166
 10
102.1348619943581
 20
106.7359848499132
  0
LWPOLYLINE
  5
154
330
2
100
AcDbEntity
  8
0
100
AcDbPolyline
 90
       42
 70
   128
 43
0.0
 10
174.674217858876
 20
65.2141067831948
 10
174.594971842386
 20
65.22021476921375
 10
174.4677007409651
 20
65.23417948043382
 10
174.342455327468
 20
65.25313080697287
 10
174.219321438845
 20
65.27705576053836
 10
174.0983834649126
 20
65.30593794416218
 10
173.9797242905172
 20
65.33975756343841
 10
173.8634252387297
 20
65.37849144008927
 10
173.7495660151111
 20
65.42211302785054
 10
173.6382246530857
 20
65.47059243066491
 10
173.5294774604614
 20
65.52389642317129
 10
173.4233989671323
 20
65.5819884734758
 10
173.3200618739985
 20
65.64482876818896
 10
173.2195370031421
 20
65.71237423971166
 10
173.1218932492883
 20
65.78457859575173
 10
173.0271975325885
 20
65.8613923510502
 10
172.9355147527568
 20
65.94276286129616
 10
172.8469077445907
 20
66.02863435920639
 10
172.7614372349078
 20
66.11894799274565
 10
172.679161800926
 20
66.21364186546071
 10
172.6001378301179
 20
66.31265107890135
 10
172.5244194815659
 20
66.41590777709826
 10
172.4520586488437
 20
66.52334119306829
 10
172.3831049244518
 20
66.63487769731452
 10
172.3176055658284
 20
66.75044084828839
 10
172.2556054629622
 20
66.86995144477865
 10
172.1971471076267
 20
66.9933275801922
 10
172.1422705642586
 20
67.1204846986886
 10
172.0910134424996
 20
67.25133565313043
 10
172.0434108714206
 20
67.38579076480974
 10
171.999495475446
 20
67.5237578849091
 10
171.9592973519945
 20
67.66514245765605
 10
171.9228440508521
 20
67.80984758512672
 10
171.8901605552904
 20
67.95777409365491
 10
171.8612692649449
 20
68.10882060180081
 10
171.8361899804626
 20
68.26288358983267
 10
171.8149398899324
 20
68.41985747067408
 10
171.797533557105
 20
68.57963466226816
 10
171.7839829114114
 20
68.74210566130884
 10
171.7742972397872
 20
68.90715911828897
 10
171.7684831803081
 20
69.07468191381375
 10
171.7665447176399
 20
69.24455923612696
  0
LWPOLYLINE
  5
155
330
2
100
AcDbEntity
  8
0
100
AcDbPolyline
 90
      102
 70
   128
 43
0.0
 10
171.7665447176399
 20
69.24455923612696
 10
171.7684831803081
 20
69.41667465979768
 10
171.7742972397872
 20
69.59091022551175
 10
171.7839829114114
 20
69.76714652091573
 10
171.797533557105
 20
69.94526276245591
 10
171.8149398899324
 20
70.12513687815746
 10
171.8361899804626
 20
70.30664559128638
 10
171.8612692649448
 20
70.48966450483729
 10
171.8901605552904
 20
70.67406818678879
 10
171.9228440508521
 20
70.85973025606846
 10
171.9592973519945
 20
71.04652346916807
 10
171.999495475446
 20
71.23431980734984
 10
172.0434108714206
 20
71.42299056438428
 10
172.0910134424996
 20
71.61240643475877
 10
172.1422705642586
 20
71.80243760229735
 10
172.1971471076267
 20
71.99295382912999
 10
172.2556054629622
 20
72.18382454495136
 10
172.3176055658284
 20
72.37491893650704
 10
172.3831049244518
 20
72.56610603724642
 10
172.4520586488437
 20
72.75725481708068
 10
172.5244194815659
 20
72.94823427218421
 10
172.6001378301179
 20
73.1389135147781
 10
172.679161800926
 20
73.32916186283414
 10
172.7614372349078
 20
73.51884892963767
 10
172.8469077445908
 20
73.70784471314822
 10
172.9355147527568
 20
73.89601968509627
 10
173.0271975325885
 20
74.08324487975564
 10
173.1218932492883
 20
74.26939198232997
 10
173.2195370031421
 20
74.45433341689348
 10
173.3200618739985
 20
74.63794243382489
 10
173.4233989671323
 20
74.82009319667551
 10
173.5294774604615
 20
75.00066086841108
 10
173.6382246530857
 20
75.17952169696897
 10
173.7495660151111
 20
75.35655310007159
 10
173.8634252387297
 20
75.53163374923816
 10
173.9797242905172
 20
75.70464365293722
 10
174.0983834649127
 20
75.8754642388228
 10
174.219321438845
 20
76.04397843499801
 10
174.3424553274681
 20
76.2100707502503
 10
174.4677007409651
 20
76.37362735320325
 10
174.594971842386
 20
76.53453615033104
 10
174.7241814064752
 20
76.6926868627817
 10
174.8552408794514
 20
76.84797110195671
 10
174.9880604396986
 20
77.0002824437952
 10
175.1225490593247
 20
77.14951650171156
 10
175.2586145665474
 20
77.29557099813688
 10
175.3961637088651
 20
77.43834583461495
 10
175.535102216966
 20
77.57774316040458
 10
175.675334869337
 20
77.71366743954172
 10
175.8167655575229
 20
77.846025516315
 10
175.9592973519945
 20
77.9747266791101
 10
176.1028325685796
 20
78.09968272257875
 10
176.2472728354107
 20
78.22080800809047
 10
176.3925191603436
 20
78.33801952242492
 10
176.5384719988024
 20
78.45123693466499
 10
176.6850313220021
 20
78.56038265125168
 10
176.8320966855037
 20
78.66538186916283
 10
176.9795672980529
 20
78.76616262717927
 10
177.1273420906581
 20
78.86265585520355
 10
177.2753197858582
 20
78.95479542159719
 10
177.4233989671323
 20
79.04251817850379
 10
177.5714781484064
 20
79.12576400512768
 10
177.7194558436064
 20
79.20447584893745
 10
177.8672306362117
 20
79.27859976476715
 10
178.0147012487608
 20
79.34808495178741
 10
178.1617666122623
 20
79.41288378832192
 10
178.3083259354621
 20
79.47295186448491
 10
178.454278773921
 20
79.52824801261741
 10
178.5995250988539
 20
79.57873433550161
 10
178.7439653656849
 20
79.62437623233366
 10
178.88750058227
 20
79.66514242243734
 10
179.0300323767417
 20
79.70100496670224
 10
179.1714630649275
 20
79.73193928673193
 10
179.3116957172986
 20
79.75792418168864
 10
179.4506342253995
 20
79.77894184282337
 10
179.5881833677171
 20
79.794977865681
 10
179.7242488749399
 20
79.80602125997251
 10
179.8587374945658
 20
79.81206445710704
 10
179.9915570548131
 20
79.81310331537919
 10
180.1226165277893
 20
79.80913712280737
 10
180.2518260918785
 20
79.80016859762184
 10
180.3790971932994
 20
79.78620388640179
 10
180.5043426067965
 20
79.76725255986275
 10
180.6274764954195
 20
79.74332760629724
 10
180.7484144693519
 20
79.71444542267342
 10
180.8670736437474
 20
79.6806258033972
 10
180.9833726955347
 20
79.64189192674634
 10
181.0972319191534
 20
79.59827033898507
 10
181.2085732811788
 20
79.54979093617071
 10
181.3173204738031
 20
79.49648694366432
 10
181.4233989671324
 20
79.43839489335982
 10
181.526736060266
 20
79.37555459864667
 10
181.6272609311224
 20
79.30800912712396
 10
181.7249046849762
 20
79.23580477108391
 10
181.819600401676
 20
79.15899101578542
 10
181.9112831815077
 20
79.07762050553948
 10
181.9998901896737
 20
78.99174900762922
 10
182.0853606993567
 20
78.90143537409
 10
182.1676361333386
 20
78.80674150137491
 10
182.2466601041466
 20
78.70773228793428
 10
182.3223784526987
 20
78.60447558973738
 10
182.3668375215933
 20
78.53955872279449
  0
LWPOLYLINE
  5
156
330
2
100
AcDbEntity
  8
0
100
AcDbPolyline
 90
       91
 70
   128
 43
0.0
 10
181.494366709714
 20
78.81977340408946
 10
181.4275037702292
 20
78.85574146194326
 10
181.3255532771442
 20
78.90571395491797
 10
181.2211707502453
 20
78.95116339505645
 10
181.1144277281029
 20
78.99205863358263
 10
181.0053973670521
 20
79.02837164294282
 10
180.8941543910564
 20
79.06007753601426
 10
180.7807750404949
 20
79.0871545831616
 10
180.6653370199107
 20
79.10958422712925
 10
180.5479194447571
 20
79.12735109575962
 10
180.428602787175
 20
79.1404430125284
 10
180.3074688208416
 20
79.14885100488984
 10
180.1846005649262
 20
79.1525693104259
 10
180.0600822271946
 20
79.15159538079577
 10
179.9339991462951
 20
79.14592988348214
 10
179.8064377332737
 20
79.13557670133385
 10
179.677485412351
 20
79.12054292990482
 10
179.5472305610064
 20
79.10083887259101
 10
179.4157624494086
 20
79.07647803356908
 10
179.2831711792343
 20
79.04747710854126
 10
179.1495476219171
 20
79.01385597329291
 10
179.0149833563686
 20
78.97563767007071
 10
178.8795706062145
 20
78.93284839179067
 10
178.7434021765899
 20
78.88551746408672
 10
178.6065713905348
 20
78.83367732521247
 10
178.4691720250349
 20
78.7773635038097
 10
178.3312982467522
 20
78.71661459455857
 10
178.1930445474874
 20
78.65147223172709
 10
178.05450567942
 20
78.58198106063674
 10
177.9157765901699
 20
78.50818870706508
 10
177.7769523577255
 20
78.43014574460518
 10
177.638128125281
 20
78.34790566000524
 10
177.4993990360309
 20
78.26152481651121
 10
177.3608601679636
 20
78.17106241523844
 10
177.2226064686987
 20
78.07658045459803
 10
177.084732690416
 20
77.97814368780634
 10
176.9473333249163
 20
77.8758195785063
 10
176.810502538861
 20
77.76967825453121
 10
176.6743341092365
 20
77.65979245984268
 10
176.5389213590825
 20
77.54623750467546
 10
176.4043570935338
 20
77.42909121392357
 10
176.2707335362167
 20
77.30843387380319
 10
176.1381422660424
 20
77.18434817682821
 10
176.0066741544446
 20
77.05691916513716
 10
175.8764193031
 20
76.92623417220936
 10
175.7474669821772
 20
76.79238276301119
 10
175.6199055691559
 20
76.65545667261243
 10
175.4938224882565
 20
76.51554974331586
 10
175.3693041505247
 20
76.37275786034227
 10
175.2464358946095
 20
76.22717888611568
 10
175.1253019282759
 20
76.0789125931932
 10
175.0059852706938
 20
75.92806059588588
 10
174.8885676955403
 20
75.77472628061748
 10
174.7731296749562
 20
75.61901473506849
 10
174.6597503243946
 20
75.4610326761542
 10
174.5485073483989
 20
75.30088837688648
 10
174.4394769873482
 20
75.13869159216863
 10
174.3327339652056
 20
74.97455348357495
 10
174.2283514383069
 20
74.80858654316626
 10
174.1264009452217
 20
74.64090451639323
 10
174.0269523577255
 20
74.47162232414112
 10
173.9300738329126
 20
74.30085598396868
 10
173.8358317664848
 20
74.12872253059548
 10
173.7442907472469
 20
73.9553399356922
 10
173.6555135128408
 20
73.78082702702875
 10
173.5695609067485
 20
73.60530340703559
 10
173.4864918365929
 20
73.42888937083428
 10
173.4063632337651
 20
73.25170582379316
 10
173.3292300144071
 20
73.07387419866484
 10
173.2551450417747
 20
72.89551637236229
 10
173.184159090007
 20
72.71675458243052
 10
173.11632080933
 20
72.53771134327097
 10
173.0516766927126
 20
72.35850936217636
 10
172.9902710440032
 20
72.17927145523319
 10
172.9321459475661
 20
72.00012046314974
 10
172.877341239439
 20
71.8211791670672
 10
172.8258944800315
 20
71.64257020441159
 10
172.7778409283825
 20
71.46441598484421
 10
172.7332135179957
 20
71.28683860636811
 10
172.6920428342696
 20
71.10995977164833
 10
172.6543570935339
 20
70.93390070460291
 10
172.6201821237129
 20
70.75878206732205
 10
172.5895413466238
 20
70.58472387737234
 10
172.5624557619248
 20
70.4118454255428
 10
172.5389439327227
 20
70.24026519408884
 10
172.5190219728507
 20
70.07010077553046
 10
172.5027035358249
 20
69.90146879206027
 10
172.4899998054872
 20
69.73448481561636
 10
172.4809194883396
 20
69.56926328867513
 10
172.4754688075778
 20
69.40591744581817
 10
172.4736514988264
 20
69.24455923612697
  0
ARC
  5
157
330
2
100
AcDbEntity
  8
0
100
AcDbCircle
 10
176.2199682794341
 20
68.86726019972492
 30
0.0
 40
3.765268115756462
100
AcDbArc
 50
174.2490193189928
 51
233.7825001443985
  0
LWPOLYLINE
  5
158
330
2
100
AcDbEntity
  8
0
100
AcDbPolyline
 90
      113
 70
   128
 43
0.0
 10
173.6197587541204
 20
66.16986211908145
 10
173.5976101830884
 20
66.19017156486129
 10
173.5150949067337
 20
66.27013939729019
 10
173.4355004945916
 20
66.35424396852361
 10
173.3588814966959
 20
66.44242763748953
 10
173.2852904238808
 20
66.53462996750613
 10
173.2147777117917
 20
66.630787767702
 10
173.1473916863193
 20
66.73083513632407
 10
173.0831785304794
 20
66.8347035059034
 10
173.0221822527614
 20
66.94232169024781
 10
172.9644446569672
 20
67.05361593322937
 10
172.910005313561
 20
67.16850995933322
 10
172.8589015325495
 20
67.28692502593299
 10
172.8111683379113
 20
67.40877997725696
 10
172.766838443594
 20
67.53399130000831
 10
172.7259422310926
 20
67.66247318060084
 10
172.6885077286285
 20
67.79413756397143
 10
172.6545605919396
 20
67.92889421392847
 10
172.6241240866979
 20
68.06665077499538
 10
172.5972190725635
 20
68.20731283570625
 10
172.5738639888893
 20
68.3507839933109
 10
172.5540748420832
 20
68.49696591984447
 10
172.5378651946377
 20
68.64575842951646
 10
172.5252461558354
 20
68.7970595473731
 10
172.5162263741355
 20
68.95076557918582
 10
172.5108120312454
 20
69.10677118251829
 10
172.5090068378858
 20
69.26496943892257
 10
172.5108120312454
 20
69.42525192721593
 10
172.5162263741355
 20
69.58750879778716
 10
172.5252461558354
 20
69.7516288478821
 10
172.5378651946377
 20
69.9174995978164
 10
172.5540748420832
 20
70.08500736806347
 10
172.5738639888893
 20
70.25403735716479
 10
172.5972190725635
 20
70.42447372040905
 10
172.6241240866979
 20
70.59619964922639
 10
172.6545605919397
 20
70.7690974512431
 10
172.6885077286285
 20
70.9430486309421
 10
172.7259422310926
 20
71.1179339708739
 10
172.766838443594
 20
71.29363361336221
 10
172.8111683379115
 20
71.47002714264845
 10
172.8589015325495
 20
71.64699366741874
 10
172.910005313561
 20
71.82441190365665
 10
172.9644446569672
 20
72.0021602577653
 10
173.0221822527614
 20
72.18011690990152
 10
173.0831785304794
 20
72.35815989746507
 10
173.1473916863193
 20
72.53616719868573
 10
173.2147777117918
 20
72.71401681625087
 10
173.285290423881
 20
72.89158686091645
 10
173.358881496696
 20
73.06875563504364
 10
173.4355004945916
 20
73.24540171600443
 10
173.5150949067338
 20
73.42140403939861
 10
173.5976101830884
 20
73.59664198202525
 10
173.6829897718067
 20
73.77099544455177
 10
173.7711751579834
 20
73.94434493382416
 10
173.8621059037598
 20
74.11657164476141
 10
173.9557196897448
 20
74.28755754177878
 10
174.0519523577256
 20
74.45718543968341
 10
174.1507379546384
 20
74.62533908398715
 10
174.2520087777697
 20
74.79190323058171
 10
174.3556954211559
 20
74.95676372472101
 10
174.4617268231508
 20
75.11980757925738
 10
174.5700303151278
 20
75.28092305207713
 10
174.6805316712836
 20
75.43999972268307
 10
174.7931551595081
 20
75.59692856787124
 10
174.9078235932883
 20
75.75160203644992
 10
175.0244583846074
 20
75.90391412294986
 10
175.1429795978057
 20
76.05376044027511
 10
175.2633060043637
 20
76.2010382912448
 10
175.3853551385728
 20
76.34564673897654
 10
175.509043354053
 20
76.48748667606362
 10
175.6342858810797
 20
76.62646089249822
 10
175.7609968846809
 20
76.76247414229433
 10
175.8890895234642
 20
76.89543320876452
 10
176.0184760091332
 20
77.02524696840611
 10
176.1490676666538
 20
77.15182645335255
 10
176.2807749950267
 20
77.27508491234771
 10
176.4135077286286
 20
77.39493787020062
 10
176.5471748990734
 20
77.5113031856808
 10
176.6816848975599
 20
77.62410110781359
 10
176.8169455376535
 20
77.73325433053753
 10
176.9528641184684
 20
77.83868804568611
 10
177.0893474881982
 20
77.94032999425748
 10
177.226302107959
 20
78.03811051593723
 10
177.3636341158954
 20
78.13196259684001
 10
177.5012493915091
 20
78.22182191543764
 10
177.639053620164
 20
78.30762688664172
 10
177.7769523577256
 20
78.38931870401101
 10
177.9148510952871
 20
78.46684138005447
 10
178.0526553239421
 20
78.54014178460234
 10
178.1902705995558
 20
78.60916968121874
 10
178.3276026074922
 20
78.67387776163138
 10
178.464557227253
 20
78.73422167815412
 10
178.6010405969828
 20
78.7901600740809
 10
178.7369591777975
 20
78.84165461202929
 10
178.8722198178913
 20
78.88867000021521
 10
179.0067298163777
 20
78.93117401664006
 10
179.1403969868226
 20
78.96913753117409
 10
179.2731297204244
 20
79.00253452552078
 10
179.4048370487975
 20
79.03134211104843
 10
179.5354287063179
 20
79.05554054447687
 10
179.6648151919869
 20
79.07511324140859
 10
179.7929078307701
 20
79.09004678769474
 10
179.9196188343714
 20
79.10033094862871
 10
180.0448613613982
 20
79.10595867596026
 10
180.1685495768783
 20
79.10692611272619
 10
180.2905987110874
 20
79.10323259589367
 10
180.4109251176454
 20
79.09488065681465
 10
180.5294463308436
 20
79.08187601949099
 10
180.6460811221629
 20
79.06422759665149
 10
180.7607495559431
 20
79.04194748364362
 10
180.8733730441676
 20
79.01505095014393
 10
180.9838744003233
 20
78.98355642969296
 10
181.0118587257288
 20
78.97474227996903
  0
LWPOLYLINE
  5
159
330
2
100
AcDbEntity
  8
0
100
AcDbPolyline
 90
       91
 70
   128
 43
0.0
 10
183.0208359853087
 20
78.28385468790647
 10
182.9872900526645
 20
78.30156079167085
 10
182.8812617521531
 20
78.35353208030399
 10
182.7727041415401
 20
78.40079940340602
 10
182.6616916207889
 20
78.44333036631475
 10
182.5483002723364
 20
78.48109582043268
 10
182.4326078089486
 20
78.514069883204
 10
182.3146935204608
 20
78.54222995585314
 10
182.1946382194366
 20
78.56555673887297
 10
182.0725241857821
 20
78.58403424525157
 10
181.9484351103566
 20
78.59764981142908
 10
181.822456037614
 20
78.6063941059765
 10
181.6946733073178
 20
78.61026113599121
 10
181.5651744953684
 20
78.60924825120392
 10
181.434048353783
 20
78.60335614579533
 10
181.3013847498693
 20
78.59258885792013
 10
181.1672746046344
 20
78.57695376693962
 10
181.0318098304732
 20
78.55646158836416
 10
180.895083268175
 20
78.53112636650933
 10
180.7571886232962
 20
78.50096546487067
 10
180.6182204019383
 20
78.46599955422359
 10
180.4782738459786
 20
78.42625259845667
 10
180.3374448677961
 20
78.38175183814797
 10
180.1958299845379
 20
78.33252777189578
 10
180.0535262519712
 20
78.27861413541628
 10
179.9106311979659
 20
78.22004787842288
 10
179.7672427556544
 20
78.15686913930266
 10
179.6234591963125
 20
78.08912121760759
 10
179.4793790620098
 20
78.01685054437907
 10
179.3351010980733
 20
77.94010665032657
 10
179.1907241854127
 20
77.85894213188162
 10
179.0463472727521
 20
77.7734126151509
 10
178.9020693088156
 20
77.6835767177929
 10
178.757989174513
 20
77.58949600884424
 10
178.614205615171
 20
77.49123496652341
 10
178.4708171728596
 20
77.38886093404056
 10
178.3279221188543
 20
77.2824440734439
 10
178.1856183862875
 20
77.17205731753397
 10
178.0440035030293
 20
77.05777631987938
 10
177.9031745248468
 20
76.93967940296743
 10
177.7632279688871
 20
76.81784750452592
 10
177.6242597475292
 20
76.69236412205241
 10
177.4863651026505
 20
76.56331525558917
 10
177.3496385403523
 20
76.43078934878319
 10
177.214173766191
 20
76.29487722827116
 10
177.0800636209561
 20
76.1556720414315
 10
176.9474000170424
 20
76.01326919254585
 10
176.816273875457
 20
75.86776627741361
 10
176.6867750635076
 20
75.71926301646481
 10
176.5589923332115
 20
75.56786118641659
 10
176.4330132604688
 20
75.4136645505206
 10
176.3089241850432
 20
75.25677878744874
 10
176.186810151389
 20
75.09731141886644
 10
176.0667548503646
 20
74.93537173574253
 10
175.9488405618769
 20
74.77107072344679
 10
175.833148098489
 20
74.60452098568599
 10
175.7197567500364
 20
74.43583666733108
 10
175.6087442292853
 20
74.26513337618785
 10
175.5001866186723
 20
74.09252810376526
 10
175.394158318161
 20
73.91813914509521
 10
175.2907319942525
 20
73.74208601765902
 10
175.1899785301829
 20
73.56448937947622
 10
175.0919669773435
 20
73.38547094641143
 10
174.9967645079572
 20
73.20515340875651
 10
174.9044363690408
 20
73.02366034714475
 10
174.8150458376889
 20
72.84111614785476
 10
174.7286541777065
 20
72.65764591756246
 10
174.6453205976219
 20
72.47337539759914
 10
174.5651022101085
 20
72.28843087777466
 10
174.4880539928421
 20
72.10293910982473
 10
174.414228750822
 20
71.91702722054159
 10
174.3436770801815
 20
71.73082262464766
 10
174.2764473335116
 20
71.54445293747182
 10
174.2125855867222
 20
71.35804588748829
 10
174.1521356074649
 20
71.17172922877788
 10
174.0951388251357
 20
70.98563065347175
 10
174.0416343024824
 20
70.79987770423757
 10
173.991658708832
 20
70.61459768686821
 10
173.9452462949602
 20
70.42991758303263
 10
173.902428869617
 20
70.24596396324899
 10
173.8632357777269
 20
70.06286290013964
 10
173.8276938802776
 20
69.88073988202708
 10
173.79582753591
 20
69.69971972693073
 10
173.7676585842249
 20
69.51992649702273
 10
173.7432063308148
 20
69.34148341360193
 10
173.7224875340326
 20
69.16451277264434
 10
173.7055163935066
 20
68.98913586098739
 10
173.6923045404091
 20
68.815472873206
 10
173.6828610294839
 20
68.64364282923739
 10
173.6771923328421
 20
68.47376349281056
 10
173.6753023355249
 20
68.30595129073714
  0
ARC
  5
15A
330
2
100
AcDbEntity
  8
0
100
AcDbCircle
 10
177.5882221579008
 20
67.91676648336681
 30
0.0
 40
3.932226640293016
100
AcDbArc
 50
174.3199577620783
 51
233.0174278016579
  0
LWPOLYLINE
  5
15B
330
2
100
AcDbEntity
  8
0
100
AcDbPolyline
 90
       60
 70
   128
 43
0.0
 10
183.1672835335217
 20
62.40189873737989
 10
183.1400412429424
 20
62.38774424203177
 10
182.9931897543034
 20
62.31408345597055
 10
182.8466405451892
 20
62.24503241571949
 10
182.700494053107
 20
62.18063844541238
 10
182.5548504395626
 20
62.12094567745992
 10
182.4098095214137
 20
62.06599502230358
 10
182.2654707024602
 20
62.0158241403775
 10
182.1219329053193
 20
61.97046741629808
 10
181.9792945036269
 20
61.92995593529838
 10
181.8376532546187
 20
61.89431746192394
 10
181.6971062321315
 20
61.86357642100412
 10
181.5577497600742
 20
61.83775388091294
 10
181.4196793464119
 20
61.81686753912941
 10
181.282989617709
 20
61.80093171010895
 10
181.1477742542778
 20
61.78995731547276
 10
181.0141259259745
 20
61.7839518765227
 10
180.882136228687
 20
61.78291950908669
 10
180.7518956215614
 20
61.78686092069781
 10
180.6234933650036
 20
61.79577341010936
 10
180.4970174595068
 20
61.80965086914634
 10
180.3725545853387
 20
61.82848378689148
 10
180.2501900431363
 20
61.85225925620372
 10
180.1300076954446
 20
61.88096098256401
 10
180.0120899092416
 20
61.91456929524273
 10
179.8965174994877
 20
61.9530611607812
 10
179.7833696737395
 20
61.99641019877745
 10
179.6727239778651
 20
62.0445866999662
 10
179.5646562428973
 20
62.09755764658002
 10
179.459240533064
 20
62.155286734978
 10
179.3565490950266
 20
62.21773440052664
 10
179.2566523083674
 20
62.28485784471527
 10
179.1596186373541
 20
62.35661106448813
 10
179.0655145840177
 20
62.43294488377259
 10
178.9744046425759
 20
62.51380698718181
 10
178.8863512552315
 20
62.59914195586929
 10
178.8014147693776
 20
62.68889130551009
 10
178.7196533962393
 20
62.78299352638303
 10
178.6411231709774
 20
62.88138412552644
 10
178.5658779142857
 20
62.98399567093837
 10
178.4939691955045
 20
63.09075783779116
 10
178.425446297278
 20
63.20159745662855
 10
178.3603561817774
 20
63.31643856351234
 10
178.2987434585169
 20
63.43520245208432
 10
178.2406503537792
 20
63.55780772750768
 10
178.1861166816767
 20
63.68417036225084
 10
178.135179816864
 20
63.81420375367596
 10
178.087874668924
 20
63.94781878339187
 10
178.0442336584421
 20
64.08492387833141
 10
178.0042866947871
 20
64.22542507351105
 10
177.9680611556123
 20
64.36922607642981
 10
177.9355818680929
 20
64.51622833306331
 10
177.90687109191
 20
64.66633109540781
 10
177.8819485039958
 20
64.81943149052774
 10
177.8608311850468
 20
64.97542459105989
 10
177.8435336078188
 20
65.13420348712513
 10
177.830067627207
 20
65.29565935959929
 10
177.8204424721221
 20
65.45968155469231
 10
177.8146647391644
 20
65.62615765978472
 10
177.8127383881035
 20
65.79497358046968
  0
LWPOLYLINE
  5
15C
330
2
100
AcDbEntity
  8
0
100
AcDbPolyline
 90
      120
 70
   128
 43
0.0
 10
177.8127383881035
 20
65.79497358046968
 10
177.8146647391644
 20
65.96601361874789
 10
177.8204424721221
 20
66.13916055232067
 10
177.830067627207
 20
66.31429571492862
 10
177.8435336078188
 20
66.49129907767946
 10
177.8608311850468
 20
66.67004933130991
 10
177.8819485039958
 20
66.85042396932491
 10
177.90687109191
 20
67.03229937195745
 10
177.9355818680929
 20
67.21555089089148
 10
177.9680611556123
 20
67.4000529346895
 10
178.0042866947871
 20
67.58567905486678
 10
178.0442336584421
 20
67.77230203255283
 10
178.087874668924
 20
67.9597939656807
 10
178.135179816864
 20
68.14802635664491
 10
178.1861166816767
 20
68.33687020036709
 10
178.2406503537793
 20
68.52619607270971
 10
178.2987434585169
 20
68.71587421917692
 10
178.3603561817774
 20
68.90577464384174
 10
178.425446297278
 20
69.09576719843887
 10
178.4939691955045
 20
69.28572167156172
 10
178.5658779142857
 20
69.47550787790283
 10
178.6411231709774
 20
69.66499574747643
 10
178.7196533962393
 20
69.85405541476183
 10
178.8014147693776
 20
70.04255730770683
 10
178.8863512552315
 20
70.23037223652988
 10
178.9744046425759
 20
70.41737148226032
 10
179.0655145840177
 20
70.60342688495594
 10
179.1596186373541
 20
70.78841093153743
 10
179.2566523083675
 20
70.97219684317941
 10
179.3565490950267
 20
71.15465866219835
 10
179.459240533064
 20
71.33567133837769
 10
179.5646562428974
 20
71.51511081467091
 10
179.6727239778651
 20
71.69285411222421
 10
179.7833696737395
 20
71.86877941465991
 10
179.8965174994877
 20
72.04276615156338
 10
180.0120899092416
 20
72.21469508111596
 10
180.1300076954447
 20
72.3844483718174
 10
180.2501900431363
 20
72.55190968324161
 10
180.3725545853387
 20
72.71696424577064
 10
180.4970174595068
 20
72.87949893925196
 10
180.6234933650037
 20
73.03940237052547
 10
180.7518956215614
 20
73.19656494976671
 10
180.8821362286873
 20
73.35087896559433
 10
181.0141259259746
 20
73.50223865889003
 10
181.1477742542778
 20
73.65054029528062
 10
181.282989617709
 20
73.79568223623234
 10
181.419679346412
 20
73.93756500870887
 10
181.5577497600743
 20
74.07609137334515
 10
181.6971062321317
 20
74.21116639109041
 10
181.8376532546187
 20
74.34269748827464
 10
181.9792945036269
 20
74.47059452005394
 10
182.1219329053193
 20
74.59476983219136
 10
182.2654707024602
 20
74.7151383211306
 10
182.4098095214137
 20
74.83161749232195
 10
182.5548504395628
 20
74.94412751675969
 10
182.7004940531072
 20
75.05259128569308
 10
182.8466405451892
 20
75.15693446347277
 10
182.9931897543036
 20
75.25708553849679
 10
183.1400412429424
 20
75.35297587222101
 10
183.287094366431
 20
75.44453974620044
 10
183.4342483419037
 20
75.53171440712962
 10
183.5814023173766
 20
75.61444010985043
 10
183.7284554408651
 20
75.69266015829845
 10
183.8753069295041
 20
75.76632094435964
 10
184.0218561386183
 20
75.83537198461072
 10
184.1680026307005
 20
75.89976595491781
 10
184.3136462442449
 20
75.95945872287028
 10
184.458687162394
 20
76.01440937802664
 10
184.6030259813473
 20
76.06458025995273
 10
184.7465637784884
 20
76.10993698403214
 10
184.8892021801806
 20
76.15044846503183
 10
185.0308434291888
 20
76.18608693840629
 10
185.171390451676
 20
76.21682797932608
 10
185.3107469237333
 20
76.2426505194173
 10
185.4488173373957
 20
76.2635368612008
 10
185.5855070660986
 20
76.27947269022127
 10
185.7207224295297
 20
76.29044708485746
 10
185.8543707578331
 20
76.2964525238075
 10
185.9863604551205
 20
76.29748489124351
 10
186.1166010622461
 20
76.29354347963243
 10
186.2450033188039
 20
76.28463099022086
 10
186.3714792243009
 20
76.2707535311839
 10
186.4959420984689
 20
76.25192061343875
 10
186.6183066406712
 20
76.22814514412652
 10
186.738488988363
 20
76.19944341776625
 10
186.8564067745659
 20
76.16583510508751
 10
186.9719791843199
 20
76.12734323954907
 10
187.0851270100681
 20
76.08399420155278
 10
187.1957727059424
 20
76.03581770036403
 10
187.3038404409102
 20
75.98284675375025
 10
187.4092561507436
 20
75.92511766535226
 10
187.5119475887809
 20
75.86266999980361
 10
187.6118443754401
 20
75.79554655561499
 10
187.7088780464534
 20
75.72379333584212
 10
187.8029820997898
 20
75.64745951655767
 10
187.8940920412316
 20
75.56659741314844
 10
187.9821454285761
 20
75.48126244446094
 10
188.0670819144299
 20
75.39151309482015
 10
188.1488432875682
 20
75.29741087394723
 10
188.2273735128302
 20
75.19902027480381
 10
188.3026187695219
 20
75.0964087293919
 10
188.374527488303
 20
74.98964656253909
 10
188.4430503865297
 20
74.8788069437017
 10
188.5081405020302
 20
74.7639658368179
 10
188.5697532252906
 20
74.64520194824593
 10
188.6278463300283
 20
74.5225966728226
 10
188.6823800021309
 20
74.39623403807941
 10
188.7333168669435
 20
74.2662006466543
 10
188.7806220148835
 20
74.13258561693838
 10
188.8242630253655
 20
73.99548052199886
 10
188.8642099890204
 20
73.85497932681921
 10
188.9004355281953
 20
73.71117832390045
 10
188.9329148157148
 20
73.56417606726694
 10
188.9616255918975
 20
73.41407330492247
 10
188.9865481798118
 20
73.26097290980252
 10
189.0076654987607
 20
73.10497980927038
 10
189.0249630759888
 20
72.94620091320513
 10
189.0384290566005
 20
72.78474504073098
 10
189.0480542116856
 20
72.62072284563797
 10
189.049372191342
 20
72.59107916626938
  0
LWPOLYLINE
  5
15D
330
2
100
AcDbEntity
  8
0
100
AcDbPolyline
 90
      225
 70
   128
 43
0.0
 10
180.5713175640786
 20
65.75516123394205
 10
180.5729999060512
 20
65.61762379616031
 10
180.5780456083909
 20
65.48213695627383
 10
180.5864507014054
 20
65.34880730817914
 10
180.5982085724111
 20
65.21773974860806
 10
180.6133099709354
 20
65.08903739460058
 10
180.6317430159949
 20
64.96280150237765
 10
180.6534932054423
 20
64.83913138767832
 10
180.6785434273762
 20
64.71812434762324
 10
180.7068739736038
 20
64.59987558416648
 10
180.7384625551464
 20
64.48447812919558
 10
180.7732843197746
 20
64.37202277133903
 10
180.8113118715615
 20
64.26259798453855
 10
180.8525152924359
 20
64.15628985844254
 10
180.8968621657203
 20
64.05318203067507
 10
180.9443176016351
 20
63.95335562103446
 10
180.9948442647471
 20
63.85688916767236
 10
181.0484024033441
 20
63.76385856530413
 10
181.1049498807084
 20
63.67433700549884
 10
181.1644422082687
 20
63.58839491909603
 10
181.2268325806009
 20
63.5060999207945
 10
181.2920719122523
 20
63.42751675595645
 10
181.3601088763589
 20
63.35270724966949
 10
181.4308899450276
 20
63.28173025810578
 10
181.5043594314483
 20
63.21464162221707
 10
181.5804595337058
 20
63.15149412380208
 10
181.6591303802553
 20
63.09233744398051
 10
181.7403100770256
 20
63.0372181241066
 10
181.8239347561149
 20
62.98617952915278
 10
181.9099386260385
 20
62.93926181359243
 10
181.9982540234894
 20
62.89650188980852
 10
182.0888114665729
 20
62.85793339905279
 10
182.1815397094714
 20
62.82358668497869
 10
182.2763657984959
 20
62.79348876976846
 10
182.3732151294836
 20
62.76766333287366
 10
182.472011506491
 20
62.74613069238533
 10
182.5726772017417
 20
62.72890778904884
 10
182.6751330167786
 20
62.71600817293571
 10
182.7792983447724
 20
62.70744199278325
 10
182.8850912339398
 20
62.70321598801001
 10
182.9924284520174
 20
62.70333348341354
 10
183.1012255517463
 20
62.70779438655466
 10
183.2113969373088
 20
62.71659518783017
 10
183.3228559316723
 20
62.72972896323404
 10
183.4355148447811
 20
62.74718537980473
 10
183.5492850425472
 20
62.76895070375482
 10
183.6640770165819
 20
62.79500781127592
 10
183.7798004546174
 20
62.82533620201075
 10
183.8963643115591
 20
62.85991201518178
 10
184.0136768811143
 20
62.89870804836366
 10
184.131645867944
 20
62.94169377888457
 10
184.250178460274
 20
62.98883538783994
 10
184.3691814029152
 20
63.04009578669933
 10
184.4885610706313
 20
63.09543464648574
 10
184.6082235417995
 20
63.15480842950428
 10
184.7280746723012
 20
63.2181704235954
 10
184.848020169591
 20
63.28547077888552
 10
184.9679656668808
 20
63.35665654700626
 10
185.0878167973825
 20
63.43167172275149
 10
185.2074792685506
 20
63.51045728813918
 10
185.3268589362668
 20
63.59295125884367
 10
185.445861878908
 20
63.6790887329617
 10
185.564394471238
 20
63.76880194207382
 10
185.6823634580676
 20
63.86202030456087
 10
185.7996760276229
 20
63.95867048113399
 10
185.9162398845644
 20
64.05867643253419
 10
186.0319633226
 20
64.16195947935574
 10
186.1467552966347
 20
64.26843836394732
 10
186.2605254944009
 20
64.37802931434098
 10
186.3731844075097
 20
64.49064611015963
 10
186.4846434018732
 20
64.60620015045069
 10
186.5948147874357
 20
64.72460052339255
 10
186.7036118871646
 20
64.84575407781935
 10
186.8109491052422
 20
64.96956549650727
 10
186.9167419944096
 20
65.09593737116512
 10
187.0209073224035
 20
65.22477027907005
 10
187.1233631374403
 20
65.35596286128816
 10
187.224028832691
 20
65.48941190241828
 10
187.3228252096984
 20
65.62501241179643
 10
187.4196745406861
 20
65.76265770609693
 10
187.5145006297106
 20
65.90223949326525
 10
187.607228872609
 20
66.04364795771643
 10
187.6977863156925
 20
66.1867718467322
 10
187.7861017131435
 20
66.33149855798878
 10
187.8721055830671
 20
66.47771422814642
 10
187.9557302621564
 20
66.62530382243108
 10
188.0369099589267
 20
66.77415122513768
 10
188.115580805476
 20
66.9241393309839
 10
188.1916809077337
 20
67.07515013724233
 10
188.2651503941544
 20
67.22706483657886
 10
188.3359314628229
 20
67.37976391052399
 10
188.4039684269296
 20
67.53312722350369
 10
188.469207758581
 20
67.68703411735569
 10
188.5315981309133
 20
67.84136350625698
 10
188.5910904584736
 20
67.99599397198773
 10
188.6476379358379
 20
68.15080385945673
 10
188.7011960744347
 20
68.30567137241326
 10
188.7517227375468
 20
68.46047466926986
 10
188.7991781734617
 20
68.61509195896094
 10
188.8435250467461
 20
68.76940159676156
 10
188.8847284676204
 20
68.92328217999093
 10
188.9227560194074
 20
69.07661264352594
 10
188.9575777840356
 20
69.22927235504847
 10
188.9891663655781
 20
69.38114120995279
 10
189.0174969118058
 20
69.53209972583734
 10
189.0425471337397
 20
69.68202913650738
 10
189.0642973231871
 20
69.83081148541373
 10
189.0827303682465
 20
69.97832971845496
 10
189.0978317667708
 20
70.12446777606928
 10
189.1095896377766
 20
70.26911068454407
 10
189.1179947307911
 20
70.41214464647123
 10
189.1230404331308
 20
70.55345713027683
 10
189.1247227751034
 20
70.69293695875512
 10
189.1230404331308
 20
70.83047439653686
 10
189.1179947307911
 20
70.96596123642334
 10
189.1095896377766
 20
71.09929088451803
 10
189.0978317667708
 20
71.23035844408909
 10
189.0827303682465
 20
71.35906079809659
 10
189.0642973231871
 20
71.48529669031953
 10
189.0425471337396
 20
71.60896680501885
 10
189.0174969118058
 20
71.72997384507391
 10
188.9891663655781
 20
71.84822260853069
 10
188.9575777840356
 20
71.9636200635016
 10
188.9227560194073
 20
72.07607542135813
 10
188.8847284676204
 20
72.18550020815858
 10
188.8435250467461
 20
72.29180833425463
 10
188.7991781734615
 20
72.39491616202208
 10
188.7517227375468
 20
72.49474257166268
 10
188.7011960744347
 20
72.5912090250248
 10
188.6476379358379
 20
72.68423962739302
 10
188.5910904584736
 20
72.7737611871983
 10
188.5315981309133
 20
72.85970327360111
 10
188.469207758581
 20
72.94199827190268
 10
188.4039684269296
 20
73.0205814367407
 10
188.3359314628229
 20
73.09539094302765
 10
188.2651503941543
 20
73.16636793459136
 10
188.1916809077336
 20
73.23345657048007
 10
188.115580805476
 20
73.29660406889506
 10
188.0369099589267
 20
73.35576074871662
 10
187.9557302621564
 20
73.41088006859052
 10
187.872105583067
 20
73.46191866354437
 10
187.7861017131435
 20
73.5088363791047
 10
187.6977863156925
 20
73.55159630288861
 10
187.607228872609
 20
73.59016479364433
 10
187.5145006297106
 20
73.62451150771845
 10
187.4196745406861
 20
73.65460942292867
 10
187.3228252096984
 20
73.68043485982347
 10
187.224028832691
 20
73.7019675003118
 10
187.1233631374401
 20
73.71919040364829
 10
187.0209073224033
 20
73.73209001976142
 10
186.9167419944094
 20
73.74065619991387
 10
186.8109491052422
 20
73.74488220468712
 10
186.7036118871645
 20
73.74476470928357
 10
186.5948147874357
 20
73.74030380614245
 10
186.4846434018731
 20
73.73150300486694
 10
186.3731844075097
 20
73.71836922946309
 10
186.2605254944008
 20
73.7009128128924
 10
186.1467552966347
 20
73.6791474889423
 10
186.0319633225998
 20
73.65309038142121
 10
185.9162398845643
 20
73.62276199068637
 10
185.7996760276229
 20
73.58818617751534
 10
185.6823634580675
 20
73.54939014433347
 10
185.5643944712378
 20
73.50640441381255
 10
185.4458618789079
 20
73.45926280485716
 10
185.3268589362668
 20
73.40800240599776
 10
185.2074792685505
 20
73.35266354621136
 10
185.0878167973825
 20
73.29328976319283
 10
184.9679656668808
 20
73.22992776910171
 10
184.8480201695909
 20
73.16262741381159
 10
184.7280746723011
 20
73.09144164569083
 10
184.6082235417995
 20
73.01642646994562
 10
184.4885610706313
 20
72.93764090455792
 10
184.3691814029152
 20
72.85514693385343
 10
184.250178460274
 20
72.76900945973538
 10
184.131645867944
 20
72.67929625062328
 10
184.0136768811143
 20
72.58607788813624
 10
183.8963643115589
 20
72.48942771156309
 10
183.7798004546174
 20
72.38942176016291
 10
183.6640770165819
 20
72.28613871334134
 10
183.5492850425471
 20
72.17965982874976
 10
183.4355148447811
 20
72.07006887835612
 10
183.3228559316723
 20
71.95745208253748
 10
183.2113969373087
 20
71.84189804224643
 10
183.1012255517462
 20
71.72349766930455
 10
182.9924284520174
 20
71.60234411487774
 10
182.8850912339398
 20
71.47853269618983
 10
182.7792983447724
 20
71.35216082153199
 10
182.6751330167786
 20
71.22332791362705
 10
182.5726772017416
 20
71.09213533140892
 10
182.472011506491
 20
70.95868629027882
 10
182.3732151294836
 20
70.82308578090067
 10
182.2763657984959
 20
70.68544048660015
 10
182.1815397094714
 20
70.54585869943185
 10
182.0888114665729
 20
70.40445023498067
 10
181.9982540234894
 20
70.2613263459649
 10
181.9099386260385
 20
70.1165996347083
 10
181.8239347561149
 20
69.97038396455067
 10
181.7403100770256
 20
69.82279437026602
 10
181.6591303802553
 20
69.6739469675594
 10
181.5804595337058
 20
69.5239588617132
 10
181.5043594314483
 20
69.37294805545477
 10
181.4308899450276
 20
69.22103335611824
 10
181.3601088763589
 20
69.06833428217311
 10
181.2920719122523
 20
68.91497096919341
 10
181.2268325806009
 20
68.76106407534141
 10
181.1644422082687
 20
68.6067346864401
 10
181.1049498807083
 20
68.45210422070937
 10
181.0484024033441
 20
68.29729433324037
 10
180.9948442647471
 20
68.14242682028385
 10
180.9443176016351
 20
67.98762352342724
 10
180.8968621657203
 20
67.83300623373616
 10
180.8525152924359
 20
67.67869659593556
 10
180.8113118715615
 20
67.52481601270615
 10
180.7732843197746
 20
67.37148554917117
 10
180.7384625551464
 20
67.21882583764863
 10
180.7068739736038
 20
67.06695698274433
 10
180.6785434273762
 20
66.91599846685976
 10
180.6534932054423
 20
66.76606905618974
 10
180.6317430159949
 20
66.61728670728336
 10
180.6133099709355
 20
66.46976847424216
 10
180.5982085724112
 20
66.32363041662784
 10
180.5864507014054
 20
66.17898750815303
 10
180.5780456083909
 20
66.03595354622587
 10
180.5729999060512
 20
65.89464106242028
 10
180.5713175640786
 20
65.75516123394205
  0
LINE
  5
15E
330
2
100
AcDbEntity
  8
0
100
AcDbLine
 10
86.05270433920441
 20
107.0514700431946
 30
0.0
 11
86.05270433920441
 21
106.8881884208301
 31
0.0
  0
LINE
  5
15F
330
2
100
AcDbEntity
  8
0
100
AcDbLine
 10
101.9600211092912
 20
134.4434549492289
 30
0.0
 11
101.8186227380015
 21
134.3618008691187
 31
0.0
  0
LINE
  5
160
330
2
100
AcDbEntity
  8
0
100
AcDbLine
 10
90.71352117374601
 20
96.58668027527037
 30
0.0
 11
94.67331914839077
 21
94.30073756216676
 31
0.0
  0
LINE
  5
161
330
2
100
AcDbEntity
  8
0
100
AcDbLine
 10
117.1714906327022
 20
133.2729363692974
 30
0.0
 11
113.2116926580576
 21
135.558879082401
 31
0.0
  0
LINE
  5
162
330
2
100
AcDbEntity
  8
0
100
AcDbLine
 10
121.8323074672438
 20
122.8081466013729
 30
0.0
 11
121.8323074672438
 21
122.9714282237375
 31
0.0
  0
LINE
  5
163
330
2
100
AcDbEntity
  8
0
100
AcDbLine
 10
105.9249906971572
 20
95.41616169533895
 30
0.0
 11
106.0663890684469
 21
95.49781577544907
 31
0.0
  0
LINE
  5
164
330
2
100
AcDbEntity
  8
0
100
AcDbLine
 10
100.47768267541
 20
110.4803841128509
 30
0.0
 11
100.47768267541
 21
110.3987433016687
 31
0.0
  0
LINE
  5
165
330
2
100
AcDbEntity
  8
0
100
AcDbLine
 10
106.1336175269956
 20
120.1961714006536
 30
0.0
 11
106.0629183413508
 21
120.1553443605986
 31
0.0
  0
LINE
  5
166
330
2
100
AcDbEntity
  8
0
100
AcDbLine
 10
102.1348619943581
 20
106.7359848499132
 30
0.0
 11
173.4237240365881
 21
65.58180078437235
 31
0.0
  0
LINE
  5
167
330
2
100
AcDbEntity
  8
0
100
AcDbLine
 10
181.4233979775495
 20
79.43839549513481
 30
0.0
 11
110.1342118554466
 21
120.5927666480041
 31
0.0
  0
LINE
  5
168
330
2
100
AcDbEntity
  8
0
100
AcDbLine
 10
173.6197587541204
 20
66.16986211908145
 30
0.0
 11
174.8382348991844
 21
65.06544273283566
 31
0.0
  0
LINE
  5
169
330
2
100
AcDbEntity
  8
0
100
AcDbLine
 10
182.5775992389289
 20
78.47186760161521
 30
0.0
 11
181.0118587257288
 21
78.97474227996903
 31
0.0
  0
LINE
  5
16A
330
2
100
AcDbEntity
  8
0
100
AcDbLine
 10
175.2227044289905
 20
64.77563098408612
 30
0.0
 11
179.3899044703545
 21
62.19674822544175
 31
0.0
  0
LINE
  5
16B
330
2
100
AcDbEntity
  8
0
100
AcDbLine
 10
187.3380316232715
 20
75.96480007640379
 30
0.0
 11
183.0208359853087
 21
78.28385468790647
 31
0.0
  0
LINE
  5
16C
330
2
100
AcDbEntity
  8
0
100
AcDbLine
 10
189.1198643884087
 20
70.92546649089148
 30
0.0
 11
189.049372191342
 21
72.59107916626938
 31
0.0
  0
LINE
  5
16D
330
2
100
AcDbEntity
  8
0
100
AcDbLine
 10
183.1672835335217
 20
62.40189873737989
 30
0.0
 11
184.6449200948831
 21
63.17379570379106
 31
0.0
  0
INSERT
  5
16E
330
2
100
AcDbEntity
  8
06-01
100
AcDbBlockReference
 66
     1
  2
A4-Wagner-EWAR
 10
0.0
 20
0.0
 30
0.0
 41
1.1
 42
1.1
 43
1.1
  0
ATTRIB
  5
1C1
330
16E
100
AcDbEntity
  8
01-99
100
AcDbText
 10
23.65
 20
36.29999999999988
 30
0.0
 40
3.3
  1
.
 41
0.9
  7
ROMANS8
100
AcDbAttribute
280
     0
  2
COM
 70
     0
280
     0
  0
ATTRIB
  5
1C2
330
16E
100
AcDbEntity
  8
01-99
100
AcDbText
 10
122.65
 20
47.29999999999987
 30
0.0
 40
3.3
  1
.
 41
0.9
  7
ROMANS8
100
AcDbAttribute
280
     0
  2
PROJ
 70
     0
280
     0
  0
ATTRIB
  5
1C3
330
16E
100
AcDbEntity
  8
01-99
100
AcDbText
 10
122.65
 20
36.29999999999988
 30
0.0
 40
3.3
  1
.
 41
0.9
  7
ROMANS8
100
AcDbAttribute
280
     0
  2
POS
 70
     0
280
     0
  0
ATTRIB
  5
1C4
330
16E
100
AcDbEntity
  8
01-99
100
AcDbText
 10
152.35
 20
8.79999999999989
 30
0.0
 40
3.85
  1
700218
  7
ROMANS8
100
AcDbAttribute
280
     0
  2
E:M1
 70
     0
280
     0
  0
ATTRIB
  5
1C5
330
16E
100
AcDbEntity
  8
07-99
100
AcDbText
 10
224.3895238095238
 20
6.599999999999891
 30
0.0
 40
0.11
  1
.
  7
ROMANS8
 72
     2
 11
224.4
 21
6.599999999999891
 31
0.0
100
AcDbAttribute
280
     0
  2
E:M2
 70
     0
280
     0
  0
ATTRIB
  5
1C6
330
16E
100
AcDbEntity
  8
01-99
100
AcDbText
 10
23.65
 20
8.79999999999989
 30
0.0
 40
3.3
  1
Wandtürpuffer AC 218
 41
0.9
  7
ROMANS8
100
AcDbAttribute
280
     0
  2
E:M3
 70
     0
280
     0
  0
ATTRIB
  5
1C7
330
16E
100
AcDbEntity
  8
01-99
100
AcDbText
 10
23.65
 20
47.29999999999987
 30
0.0
 40
3.3
  1
.
 41
0.9
  7
ROMANS8
100
AcDbAttribute
280
     0
  2
E:M4
 70
     0
280
     0
  0
ATTRIB
  5
1C8
330
16E
100
AcDbEntity
  8
06-99
100
AcDbText
 10
95.7
 20
19.79999999999834
 30
0.0
 40
2.75
  1
Häberle
 41
0.9
  7
ROMANS8
100
AcDbAttribute
280
     0
  2
E:M5
 70
     0
280
     0
  0
ATTRIB
  5
1C9
330
16E
100
AcDbEntity
  8
06-99
100
AcDbText
 10
59.40000000000001
 20
19.79999999999987
 30
0.0
 40
2.75
  1
13.08.2014
 41
0.8802395209580842
  7
ROMANS8
 72
     5
 11
78.65000000000001
 21
19.79999999999987
 31
0.0
100
AcDbAttribute
280
     0
  2
E:M6
 70
     0
280
     0
  0
ATTRIB
  5
1CA
330
16E
100
AcDbEntity
  8
01-99
100
AcDbText
 10
135.2214285714286
 20
8.79999999999989
 30
0.0
 40
3.3
  1
1:1
  7
ROMANS8
 72
     1
 11
138.05
 21
8.79999999999989
 31
0.0
100
AcDbAttribute
280
     0
  2
E:MA
 70
     0
280
     0
  0
SEQEND
  5
1CB
330
16E
100
AcDbEntity
  8
06-01
  0
ENDSEC
  0
SECTION
  2
OBJECTS
  0
DICTIONARY
  5
9
330
0
100
AcDbDictionary
281
     1
  3
ACAD_COLOR
350
44
  3
ACAD_GROUP
350
31
  3
ACAD_LAYOUT
350
16
  3
ACAD_MATERIAL
350
B
  3
ACAD_MLEADERSTYLE
350
47
  3
ACAD_MLINESTYLE
350
32
  3
ACAD_PLOTSETTINGS
350
33
  3
ACAD_PLOTSTYLENAME
350
8
  3
ACAD_SCALELIST
350
45
  3
ACAD_TABLESTYLE
350
46
  3
ACAD_VISUALSTYLE
350
2B
  3
ACDB_RECOMPOSE_DATA
350
1D7
  3
AcDbVariableDictionary
350
1CC
  0
DICTIONARY
  5
1E
330
1D
100
AcDbDictionary
280
     1
281
     1
  3
ACAD_LAYERSTATES
360
1F
  0
DICTIONARY
  5
5
330
4
100
AcDbDictionary
280
     1
281
     1
  3
ADSK_XREC_LAYER_RECONCILED
360
6
  0
DICTIONARY
  5
1A1
330
1A0
100
AcDbDictionary
280
     1
281
     1
  3
ADSK_XREC_LAYER_RECONCILED
360
1A2
  0
DICTIONARY
  5
176
330
175
100
AcDbDictionary
280
     1
281
     1
  3
ADSK_XREC_LAYER_RECONCILED
360
177
  0
DICTIONARY
  5
1A7
330
1A6
100
AcDbDictionary
280
     1
281
     1
  3
ADSK_XREC_LAYER_RECONCILED
360
1A8
  0
DICTIONARY
  5
BD
330
BC
100
AcDbDictionary
280
     1
281
     1
  3
ADSK_XREC_LAYER_RECONCILED
360
BE
  0
DICTIONARY
  5
17D
330
17C
100
AcDbDictionary
280
     1
281
     1
  3
ADSK_XREC_LAYER_RECONCILED
360
17E
  0
DICTIONARY
  5
1AE
330
1AD
100
AcDbDictionary
280
     1
281
     1
  3
ADSK_XREC_LAYER_RECONCILED
360
1AF
  0
DICTIONARY
  5
68
330
67
100
AcDbDictionary
280
     1
281
     1
  3
ADSK_XREC_LAYER_RECONCILED
360
69
  0
DICTIONARY
  5
DC
330
DB
100
AcDbDictionary
280
     1
281
     1
  3
ADSK_XREC_LAYER_RECONCILED
360
DD
  0
DICTIONARY
  5
170
330
16F
100
AcDbDictionary
280
     1
281
     1
  3
ADSK_XREC_LAYER_RECONCILED
360
171
  0
DICTIONARY
  5
44
102
{ACAD_REACTORS
330
9
102
}
330
9
100
AcDbDictionary
281
     1
  0
DICTIONARY
  5
31
102
{ACAD_REACTORS
330
9
102
}
330
9
100
AcDbDictionary
281
     1
  0
DICTIONARY
  5
16
102
{ACAD_REACTORS
330
9
102
}
330
9
100
AcDbDictionary
281
     1
  3
Layout1
350
1C
  3
Model
350
15
  0
DICTIONARY
  5
B
102
{ACAD_REACTORS
330
9
102
}
330
9
100
AcDbDictionary
281
     1
  3
ByBlock
350
3C
  3
ByLayer
350
34
  3
Global
350
A
  0
DICTIONARY
  5
47
102
{ACAD_REACTORS
330
9
102
}
330
9
100
AcDbDictionary
281
     1
  0
DICTIONARY
  5
32
102
{ACAD_REACTORS
330
9
102
}
330
9
100
AcDbDictionary
281
     1
  3
Standard
350
48
  0
DICTIONARY
  5
33
102
{ACAD_REACTORS
330
9
102
}
330
9
100
AcDbDictionary
281
     1
  0
ACDBDICTIONARYWDFLT
  5
8
102
{ACAD_REACTORS
330
9
102
}
330
9
100
AcDbDictionary
281
     1
  3
Normal
350
7
100
AcDbDictionaryWithDefault
340
7
  0
DICTIONARY
  5
45
102
{ACAD_REACTORS
330
9
102
}
330
9
100
AcDbDictionary
281
     1
  3
A0
350
4C
  3
A1
350
4D
  3
A2
350
4E
  3
A3
350
4F
  3
A4
350
50
  3
A5
350
51
  3
A6
350
52
  3
A7
350
53
  3
A8
350
54
  3
A9
350
55
  3
B0
350
56
  3
B1
350
57
  3
B2
350
58
  3
B3
350
59
  3
B4
350
5A
  3
B5
350
5B
  3
B6
350
5C
  0
DICTIONARY
  5
46
102
{ACAD_REACTORS
330
9
102
}
330
9
100
AcDbDictionary
281
     1
  3
Standard
350
49
  0
DICTIONARY
  5
2B
102
{ACAD_REACTORS
330
9
102
}
330
9
100
AcDbDictionary
281
     1
  3
2dWireframe
350
2A
  3
3dWireframe
350
4B
  3
Realistic
350
4A
  0
XRECORD
  5
1D7
102
{ACAD_REACTORS
330
9
102
}
330
9
100
AcDbXrecord
280
     1
 90
        1
330
49
  0
DICTIONARY
  5
1CC
102
{ACAD_REACTORS
330
9
102
}
330
9
100
AcDbDictionary
281
     1
  3
CANNOSCALE
350
1D0
  3
CMLEADERSTYLE
350
1CE
  3
CTABLESTYLE
350
1CD
  3
LAYEREVAL
350
1D2
  3
LAYERNOTIFY
350
1D3
  3
LIGHTINGUNITS
350
1D1
  3
MSLTSCALE
350
1CF
  0
DICTIONARY
  5
1F
102
{ACAD_REACTORS
330
1E
102
}
330
1E
100
AcDbDictionary
281
     1
  0
XRECORD
  5
6
102
{ACAD_REACTORS
330
5
102
}
330
5
100
AcDbXrecord
280
     1
290
     1
  0
XRECORD
  5
1A2
102
{ACAD_REACTORS
330
1A1
102
}
330
1A1
100
AcDbXrecord
280
     1
290
     1
  0
XRECORD
  5
177
102
{ACAD_REACTORS
330
176
102
}
330
176
100
AcDbXrecord
280
     1
290
     1
  0
XRECORD
  5
1A8
102
{ACAD_REACTORS
330
1A7
102
}
330
1A7
100
AcDbXrecord
280
     1
290
     1
  0
XRECORD
  5
BE
102
{ACAD_REACTORS
330
BD
102
}
330
BD
100
AcDbXrecord
280
     1
290
     1
  0
XRECORD
  5
17E
102
{ACAD_REACTORS
330
17D
102
}
330
17D
100
AcDbXrecord
280
     1
290
     1
  0
XRECORD
  5
1AF
102
{ACAD_REACTORS
330
1AE
102
}
330
1AE
100
AcDbXrecord
280
     1
290
     1
  0
XRECORD
  5
69
102
{ACAD_REACTORS
330
68
102
}
330
68
100
AcDbXrecord
280
     1
290
     1
  0
XRECORD
  5
DD
102
{ACAD_REACTORS
330
DC
102
}
330
DC
100
AcDbXrecord
280
     1
290
     1
  0
XRECORD
  5
171
102
{ACAD_REACTORS
330
170
102
}
330
170
100
AcDbXrecord
280
     1
290
     1
  0
LAYOUT
  5
1C
102
{ACAD_REACTORS
330
16
102
}
330
16
100
AcDbPlotSettings
  1

  2

  4

  6

 40
0.0
 41
0.0
 42
0.0
 43
0.0
 44
0.0
 45
0.0
 46
0.0
 47
0.0
 48
0.0
 49
0.0
140
0.0
141
0.0
142
1.0
143
1.0
 70
   688
 72
     0
 73
     0
 74
     5
  7

 75
    16
147
1.0
 76
     0
 77
     2
 78
   300
148
0.0
149
0.0
100
AcDbLayout
  1
Layout1
 70
     1
 71
     1
 10
0.0
 20
0.0
 11
420.0
 21
297.0
 12
0.0
 22
0.0
 32
0.0
 14
1.000000000000000E+20
 24
1.000000000000000E+20
 34
1.000000000000000E+20
 15
-1.000000000000000E+20
 25
-1.000000000000000E+20
 35
-1.000000000000000E+20
146
0.0
 13
0.0
 23
0.0
 33
0.0
 16
1.0
 26
0.0
 36
0.0
 17
0.0
 27
1.0
 37
0.0
 76
     0
330
19
  0
LAYOUT
  5
15
102
{ACAD_XDICTIONARY
360
17
102
}
102
{ACAD_REACTORS
330
16
102
}
330
16
100
AcDbPlotSettings
  1

  2

  4

  6

 40
0.0
 41
0.0
 42
0.0
 43
0.0
 44
0.0
 45
0.0
 46
0.0
 47
0.0
 48
0.0
 49
0.0
140
0.0
141
0.0
142
1.0
143
1.0
 70
  1712
 72
     0
 73
     0
 74
     0
  7

 75
     0
147
1.0
 76
     0
 77
     2
 78
   300
148
0.0
149
0.0
100
AcDbLayout
  1
Model
 70
     1
 71
     0
 10
0.0
 20
0.0
 11
0.0
 21
0.0
 12
0.0
 22
0.0
 32
0.0
 14
0.0
 24
0.0
 34
0.0
 15
297.0
 25
210.0
 35
0.0
146
0.0
 13
0.0
 23
0.0
 33
0.0
 16
1.0
 26
0.0
 36
0.0
 17
0.0
 27
1.0
 37
0.0
 76
     0
330
2
331
29
  0
MATERIAL
  5
3C
102
{ACAD_XDICTIONARY
360
3D
102
}
102
{ACAD_REACTORS
330
B
102
}
330
B
100
AcDbMaterial
  1
ByBlock
 72
     0
 43
0.0008202099737533
 43
0.0
 43
0.0
 43
0.0
 43
0.0
 43
0.0008202099737533
 43
0.0
 43
0.0
 43
0.0
 43
0.0
 43
1.0
 43
0.0
 43
0.0
 43
0.0
 43
0.0
 43
1.0
 77
     0
 47
0.0008202099737533
 47
0.0
 47
0.0
 47
0.0
 47
0.0
 47
0.0008202099737533
 47
0.0
 47
0.0
 47
0.0
 47
0.0
 47
1.0
 47
0.0
 47
0.0
 47
0.0
 47
0.0
 47
1.0
171
     0
 49
0.0008202099737533
 49
0.0
 49
0.0
 49
0.0
 49
0.0
 49
0.0008202099737533
 49
0.0
 49
0.0
 49
0.0
 49
0.0
 49
1.0
 49
0.0
 49
0.0
 49
0.0
 49
0.0
 49
1.0
175
     0
142
0.0008202099737533
142
0.0
142
0.0
142
0.0
142
0.0
142
0.0008202099737533
142
0.0
142
0.0
142
0.0
142
0.0
142
1.0
142
0.0
142
0.0
142
0.0
142
0.0
142
1.0
179
     0
144
0.0008202099737533
144
0.0
144
0.0
144
0.0
144
0.0
144
0.0008202099737533
144
0.0
144
0.0
144
0.0
144
0.0
144
1.0
144
0.0
144
0.0
144
0.0
144
0.0
144
1.0
147
0.0008202099737533
147
0.0
147
0.0
147
0.0
147
0.0
147
0.0008202099737533
147
0.0
147
0.0
147
0.0
147
0.0
147
1.0
147
0.0
147
0.0
147
0.0
147
0.0
147
1.0
  0
MATERIAL
  5
34
102
{ACAD_XDICTIONARY
360
35
102
}
102
{ACAD_REACTORS
330
B
102
}
330
B
100
AcDbMaterial
  1
ByLayer
 72
     0
 43
0.0008202099737533
 43
0.0
 43
0.0
 43
0.0
 43
0.0
 43
0.0008202099737533
 43
0.0
 43
0.0
 43
0.0
 43
0.0
 43
1.0
 43
0.0
 43
0.0
 43
0.0
 43
0.0
 43
1.0
 77
     0
 47
0.0008202099737533
 47
0.0
 47
0.0
 47
0.0
 47
0.0
 47
0.0008202099737533
 47
0.0
 47
0.0
 47
0.0
 47
0.0
 47
1.0
 47
0.0
 47
0.0
 47
0.0
 47
0.0
 47
1.0
171
     0
 49
0.0008202099737533
 49
0.0
 49
0.0
 49
0.0
 49
0.0
 49
0.0008202099737533
 49
0.0
 49
0.0
 49
0.0
 49
0.0
 49
1.0
 49
0.0
 49
0.0
 49
0.0
 49
0.0
 49
1.0
175
     0
142
0.0008202099737533
142
0.0
142
0.0
142
0.0
142
0.0
142
0.0008202099737533
142
0.0
142
0.0
142
0.0
142
0.0
142
1.0
142
0.0
142
0.0
142
0.0
142
0.0
142
1.0
179
     0
144
0.0008202099737533
144
0.0
144
0.0
144
0.0
144
0.0
144
0.0008202099737533
144
0.0
144
0.0
144
0.0
144
0.0
144
1.0
144
0.0
144
0.0
144
0.0
144
0.0
144
1.0
147
0.0008202099737533
147
0.0
147
0.0
147
0.0
147
0.0
147
0.0008202099737533
147
0.0
147
0.0
147
0.0
147
0.0
147
1.0
147
0.0
147
0.0
147
0.0
147
0.0
147
1.0
  0
MATERIAL
  5
A
102
{ACAD_XDICTIONARY
360
C
102
}
102
{ACAD_REACTORS
330
B
102
}
330
B
100
AcDbMaterial
  1
Global
 72
     0
 43
0.0008202099737533
 43
0.0
 43
0.0
 43
0.0
 43
0.0
 43
0.0008202099737533
 43
0.0
 43
0.0
 43
0.0
 43
0.0
 43
1.0
 43
0.0
 43
0.0
 43
0.0
 43
0.0
 43
1.0
 77
     0
 47
0.0008202099737533
 47
0.0
 47
0.0
 47
0.0
 47
0.0
 47
0.0008202099737533
 47
0.0
 47
0.0
 47
0.0
 47
0.0
 47
1.0
 47
0.0
 47
0.0
 47
0.0
 47
0.0
 47
1.0
171
     0
 49
0.0008202099737533
 49
0.0
 49
0.0
 49
0.0
 49
0.0
 49
0.0008202099737533
 49
0.0
 49
0.0
 49
0.0
 49
0.0
 49
1.0
 49
0.0
 49
0.0
 49
0.0
 49
0.0
 49
1.0
175
     0
142
0.0008202099737533
142
0.0
142
0.0
142
0.0
142
0.0
142
0.0008202099737533
142
0.0
142
0.0
142
0.0
142
0.0
142
1.0
142
0.0
142
0.0
142
0.0
142
0.0
142
1.0
179
     0
144
0.0008202099737533
144
0.0
144
0.0
144
0.0
144
0.0
144
0.0008202099737533
144
0.0
144
0.0
144
0.0
144
0.0
144
1.0
144
0.0
144
0.0
144
0.0
144
0.0
144
1.0
147
0.0008202099737533
147
0.0
147
0.0
147
0.0
147
0.0
147
0.0008202099737533
147
0.0
147
0.0
147
0.0
147
0.0
147
1.0
147
0.0
147
0.0
147
0.0
147
0.0
147
1.0
  0
MLINESTYLE
  5
48
102
{ACAD_REACTORS
330
32
102
}
330
32
100
AcDbMlineStyle
  2
STANDARD
 70
     0
  3

 62
   256
 51
90.0
 52
90.0
 71
     2
 49
0.5
 62
   256
  6
BYLAYER
 49
-0.5
 62
   256
  6
BYLAYER
  0
ACDBPLACEHOLDER
  5
7
102
{ACAD_REACTORS
330
8
102
}
330
8
  0
SCALE
  5
4C
102
{ACAD_REACTORS
330
45
102
}
330
45
100
AcDbScale
 70
     0
300
1:1
140
1.0
141
1.0
290
     1
  0
SCALE
  5
4D
102
{ACAD_REACTORS
330
45
102
}
330
45
100
AcDbScale
 70
     0
300
1:2
140
1.0
141
2.0
290
     0
  0
SCALE
  5
4E
102
{ACAD_REACTORS
330
45
102
}
330
45
100
AcDbScale
 70
     0
300
1:4
140
1.0
141
4.0
290
     0
  0
SCALE
  5
4F
102
{ACAD_REACTORS
330
45
102
}
330
45
100
AcDbScale
 70
     0
300
1:5
140
1.0
141
5.0
290
     0
  0
SCALE
  5
50
102
{ACAD_REACTORS
330
45
102
}
330
45
100
AcDbScale
 70
     0
300
1:8
140
1.0
141
8.0
290
     0
  0
SCALE
  5
51
102
{ACAD_REACTORS
330
45
102
}
330
45
100
AcDbScale
 70
     0
300
1:10
140
1.0
141
10.0
290
     0
  0
SCALE
  5
52
102
{ACAD_REACTORS
330
45
102
}
330
45
100
AcDbScale
 70
     0
300
1:16
140
1.0
141
16.0
290
     0
  0
SCALE
  5
53
102
{ACAD_REACTORS
330
45
102
}
330
45
100
AcDbScale
 70
     0
300
1:20
140
1.0
141
20.0
290
     0
  0
SCALE
  5
54
102
{ACAD_REACTORS
330
45
102
}
330
45
100
AcDbScale
 70
     0
300
1:30
140
1.0
141
30.0
290
     0
  0
SCALE
  5
55
102
{ACAD_REACTORS
330
45
102
}
330
45
100
AcDbScale
 70
     0
300
1:40
140
1.0
141
40.0
290
     0
  0
SCALE
  5
56
102
{ACAD_REACTORS
330
45
102
}
330
45
100
AcDbScale
 70
     0
300
1:50
140
1.0
141
50.0
290
     0
  0
SCALE
  5
57
102
{ACAD_REACTORS
330
45
102
}
330
45
100
AcDbScale
 70
     0
300
1:100
140
1.0
141
100.0
290
     0
  0
SCALE
  5
58
102
{ACAD_REACTORS
330
45
102
}
330
45
100
AcDbScale
 70
     0
300
2:1
140
2.0
141
1.0
290
     0
  0
SCALE
  5
59
102
{ACAD_REACTORS
330
45
102
}
330
45
100
AcDbScale
 70
     0
300
4:1
140
4.0
141
1.0
290
     0
  0
SCALE
  5
5A
102
{ACAD_REACTORS
330
45
102
}
330
45
100
AcDbScale
 70
     0
300
8:1
140
8.0
141
1.0
290
     0
  0
SCALE
  5
5B
102
{ACAD_REACTORS
330
45
102
}
330
45
100
AcDbScale
 70
     0
300
10:1
140
10.0
141
1.0
290
     0
  0
SCALE
  5
5C
102
{ACAD_REACTORS
330
45
102
}
330
45
100
AcDbScale
 70
     0
300
100:1
140
100.0
141
1.0
290
     0
  0
TABLESTYLE
  5
49
102
{ACAD_XDICTIONARY
360
1D4
102
}
102
{ACAD_REACTORS
330
46
102
}
330
46
100
AcDbTableStyle
280
     0
  3
Standard
 70
     0
 71
     0
 40
1.5
 41
1.5
280
     0
281
     0
  7
Standard
140
4.5
170
     2
 62
     0
 63
     7
283
     0
 90
        4
 91
        0
  1

274
    -2
284
     1
 64
     0
275
    -2
285
     1
 65
     0
276
    -2
286
     1
 66
     0
277
    -2
287
     1
 67
     0
278
    -2
288
     1
 68
     0
279
    -2
289
     1
 69
     0
  7
Standard
140
6.0
170
     5
 62
     0
 63
     7
283
     0
 90
        4
 91
        0
  1

274
    -2
284
     1
 64
     0
275
    -2
285
     1
 65
     0
276
    -2
286
     1
 66
     0
277
    -2
287
     1
 67
     0
278
    -2
288
     1
 68
     0
279
    -2
289
     1
 69
     0
  7
Standard
140
4.5
170
     5
 62
     0
 63
     7
283
     0
 90
        4
 91
        0
  1

274
    -2
284
     1
 64
     0
275
    -2
285
     1
 65
     0
276
    -2
286
     1
 66
     0
277
    -2
287
     1
 67
     0
278
    -2
288
     1
 68
     0
279
    -2
289
     1
 69
     0
  0
VISUALSTYLE
  5
2A
102
{ACAD_REACTORS
330
2B
102
}
330
2B
100
AcDbVisualStyle
  2
2dWireframe
 70
     4
177
     2
291
     0
 71
     0
176
     1
 72
     2
176
     1
 73
     0
176
     1
 90
        0
176
     1
 40
0.6
176
     1
 41
30.0
176
     1
 63
     7
421
 16777215
176
     1
 74
     1
176
     1
 91
        4
176
     1
 64
     7
176
     1
 65
   257
176
     1
 75
     1
176
     1
175
     1
176
     1
 42
1.0
176
     1
 92
        0
176
     1
 66
   257
176
     1
 43
1.0
176
     1
 76
     1
176
     1
 77
     6
176
     1
 78
     2
176
     1
 67
     7
176
     1
 79
     5
176
     1
170
     0
176
     1
171
     0
176
     1
290
     0
176
     1
 93
        1
176
     1
 44
0.0
176
     1
173
     0
176
     1
  0
VISUALSTYLE
  5
4B
102
{ACAD_REACTORS
330
2B
102
}
330
2B
100
AcDbVisualStyle
  2
3dWireframe
 70
     5
177
     2
291
     0
 71
     0
176
     1
 72
     2
176
     1
 73
     0
176
     1
 90
        0
176
     1
 40
0.6
176
     1
 41
30.0
176
     1
 63
     7
421
 16777215
176
     1
 74
     1
176
     1
 91
        4
176
     1
 64
     7
176
     1
 65
   257
176
     1
 75
     1
176
     1
175
     1
176
     1
 42
1.0
176
     1
 92
        0
176
     1
 66
   257
176
     1
 43
1.0
176
     1
 76
     1
176
     1
 77
     6
176
     1
 78
     2
176
     1
 67
     7
176
     1
 79
     5
176
     1
170
     0
176
     1
171
     0
176
     1
290
     0
176
     1
 93
        1
176
     1
 44
0.0
176
     1
173
     0
176
     1
  0
VISUALSTYLE
  5
4A
102
{ACAD_REACTORS
330
2B
102
}
330
2B
100
AcDbVisualStyle
  2
Realistic
 70
     8
177
     2
291
     0
 71
     2
176
     1
 72
     2
176
     1
 73
     0
176
     1
 90
        0
176
     1
 40
0.6
176
     1
 41
30.0
176
     1
 63
     7
421
 16777215
176
     1
 74
     1
176
     1
 91
        0
176
     1
 64
     7
176
     1
 65
   257
176
     1
 75
     1
176
     1
175
     1
176
     1
 42
1.0
176
     1
 92
        8
176
     1
 66
     8
424
  7895160
176
     1
 43
1.0
176
     1
 76
     1
176
     1
 77
     6
176
     1
 78
     2
176
     1
 67
     7
176
     1
 79
     5
176
     1
170
     0
176
     1
171
     0
176
     1
290
     0
176
     1
 93
       13
176
     1
 44
0.0
176
     1
173
     0
176
     1
  0
DICTIONARYVAR
  5
1D0
102
{ACAD_REACTORS
330
1CC
102
}
330
1CC
100
DictionaryVariables
280
     0
  1
1:1
  0
DICTIONARYVAR
  5
1CE
102
{ACAD_REACTORS
330
1CC
102
}
330
1CC
100
DictionaryVariables
280
     0
  1
STANDARD
  0
DICTIONARYVAR
  5
1CD
102
{ACAD_REACTORS
330
1CC
102
}
330
1CC
100
DictionaryVariables
280
     0
  1
STANDARD
  0
DICTIONARYVAR
  5
1D2
102
{ACAD_REACTORS
330
1CC
102
}
330
1CC
100
DictionaryVariables
280
     0
  1
1
  0
DICTIONARYVAR
  5
1D3
102
{ACAD_REACTORS
330
1CC
102
}
330
1CC
100
DictionaryVariables
280
     0
  1
15
  0
DICTIONARYVAR
  5
1D1
102
{ACAD_REACTORS
330
1CC
102
}
330
1CC
100
DictionaryVariables
280
     0
  1
0
  0
DICTIONARYVAR
  5
1CF
102
{ACAD_REACTORS
330
1CC
102
}
330
1CC
100
DictionaryVariables
280
     0
  1
0
  0
DICTIONARY
  5
17
330
15
100
AcDbDictionary
280
     1
281
     1
  3
ADSK_XREC_LAYOUTTHUMBNAIL
360
18
  0
DICTIONARY
  5
3D
330
3C
100
AcDbDictionary
280
     1
281
     1
  3
BUMPTILE
360
3E
  3
DIFFUSETILE
360
3F
  3
OPACITYTILE
360
40
  3
REFLECTIONTILE
360
41
  3
REFRACTIONTILE
360
42
  3
SPECULARTILE
360
43
  0
DICTIONARY
  5
35
330
34
100
AcDbDictionary
280
     1
281
     1
  3
BUMPTILE
360
36
  3
DIFFUSETILE
360
37
  3
OPACITYTILE
360
38
  3
REFLECTIONTILE
360
39
  3
REFRACTIONTILE
360
3A
  3
SPECULARTILE
360
3B
  0
DICTIONARY
  5
C
330
A
100
AcDbDictionary
280
     1
281
     1
  3
BUMPTILE
360
D
  3
DIFFUSETILE
360
E
  3
OPACITYTILE
360
F
  3
REFLECTIONTILE
360
10
  3
REFRACTIONTILE
360
11
  3
SPECULARTILE
360
12
  0
DICTIONARY
  5
1D4
330
49
100
AcDbDictionary
280
     1
281
     1
  3
ACAD_ROUNDTRIP_2008_TABLESTYLE_CELLSTYLEMAP
360
1D5
  0
XRECORD
  5
18
102
{ACAD_REACTORS
330
17
102
}
330
17
100
AcDbXrecord
280
     1
310
280000000001000084000000010008000000000000840000000000000000000000010000000000000000000000000000FFFFFF000000000000000000000000000000000000000000000000000000000000000000330000006600000099000000CC000000FF00000000330000333300006633000099330000CC330000FF3300
310
0000660000336600006666000099660000CC660000FF66000000990000339900006699000099990000CC990000FF99000000CC000033CC000066CC000099CC0000CCCC0000FFCC000000FF000033FF000066FF000099FF0000CCFF0000FFFF000000003300330033006600330099003300CC003300FF003300003333003333
310
33006633330099333300CC333300FF33330000663300336633006666330099663300CC663300FF66330000993300339933006699330099993300CC993300FF99330000CC330033CC330066CC330099CC3300CCCC3300FFCC330000FF330033FF330066FF330099FF3300CCFF3300FFFF330000006600330066006600660099
310
006600CC006600FF00660000336600333366006633660099336600CC336600FF33660000666600336666006666660099666600CC666600FF66660000996600339966006699660099996600CC996600FF99660000CC660033CC660066CC660099CC6600CCCC6600FFCC660000FF660033FF660066FF660099FF6600CCFF6600
310
FFFF660000009900330099006600990099009900CC009900FF00990000339900333399006633990099339900CC339900FF33990000669900336699006666990099669900CC669900FF66990000999900339999006699990099999900CC999900FF99990000CC990033CC990066CC990099CC9900CCCC9900FFCC990000FF99
310
0033FF990066FF990099FF9900CCFF9900FFFF99000000CC003300CC006600CC009900CC00CC00CC00FF00CC000033CC003333CC006633CC009933CC00CC33CC00FF33CC000066CC003366CC006666CC009966CC00CC66CC00FF66CC000099CC003399CC006699CC009999CC00CC99CC00FF99CC0000CCCC0033CCCC0066CC
310
CC0099CCCC00CCCCCC00FFCCCC0000FFCC0033FFCC0066FFCC0099FFCC00CCFFCC00FFFFCC000000FF003300FF006600FF009900FF00CC00FF00FF00FF000033FF003333FF006633FF009933FF00CC33FF00FF33FF000066FF003366FF006666FF009966FF00CC66FF00FF66FF000099FF003399FF006699FF009999FF00CC
310
99FF00FF99FF0000CCFF0033CCFF0066CCFF0099CCFF00CCCCFF00FFCCFF0000FFFF0033FFFF0066FFFF0099FFFF00CCFFFF00FFFFFF00000000000D0D0D001A1A1A00282828003535350043434300505050005D5D5D006B6B6B00787878008686860093939300A1A1A100AEAEAE00BBBBBB00C9C9C900D6D6D600E4E4E400
310
F1F1F100FFFFFF0000000000000000000000000000000000000000000000000000000000000000000000000000000000E2E2E2E2E2E2E2E2E2E2E2E2E2E2E2E2E2E2E2E2E2E2E2E2E2E2E2E2E2E2E2E2E2E2E2E2E2E2E2E2E2E2E2E2E2E2E2E2E2E2E2E2E2E2E2E2E2E2E2E2E2E2E2E2E2E2E2E2E2E2E2E2E2E2E2E2E2E2E2
310
E2E2E2E2E2E2E2E2E2E2E2E2E2E2E2E2E2E2E2E2E2E2E2E2E2E2E2E2E2E2E2E2E2E2E2E2E2E2E2E2E2E2E2E2E2E2E2E2E2E2E2E2E2E2E2E2E2E2E2E2E2E2E2E2E2E2E2E2E2E2E2E2E2E2E2E2E2E2E2E2E2E2E2E2E2E2E2E2E2E2E2E2E2E2E2E2E2E2E2E2E2E2E2E2E2E2E2E2E2E2E2E2E2E2E2E2E2E2E2E2E2E2E2E2E2E2E2
310
E2E2E2E2E2E2E2E2E2E2E2E2E2E2E2E2E2E2E2E2E2E2E2E2E2E2E2E2E2E2E2E2E2E2E2E2E2E2E2E2E2E2E2E2E2E2E2E2E2E2E2E2E2E2E2E2E2E2E2E2E2E2E2E2E2E2E2E2E2E2E2E2E2E2E2E2E2E2E2E2E2E2E2E2E2BEBEBEBEBEBEBEBEBEBEBEBEBEBEBEBEBEBEBEBEBEBEBEBEBEBEBEBEBEBEBEBEBEBEBEBEBEBEBEBEBEBE
310
BEBEBEBEBEBEBEBEBEBEBEBEBEBEBEBEBEBEBEBEBEBEBEBEBEBEBEBEBEBEBEBEBEBEBEBEBEBEBEBEBEBEBEBEBEBEBEBEBEBEBEF5F5F5F5F5F5F5F5F5F5F5F5F5F5F5F5F5F5F5F5F5F5F5F5F5F5F5F5F5F5F5F5F5F5F5F5F5F5F5F5F5F5F5F5F5F5F5F5F5F5F5F5F5F5F5F5F5F5F5F5F5F5F5F5F5F5F5F5F5F5F5F5F5F5F5F5
310
F5F5F5F5F5F5BEBEBEBEF5BEBEBEBEBEF5E2E2E2E2E2E2E2E2E2E2E2E2E2E2E2E2E2E2E2E2E2E2E2E2E2E2E2E2E2E2E2E2E2E2E2E2E2E2E2E2E2E2E2E2E2E2E2E2E2E2E2E2E2E2E2E2E2E2E2E2E2E2E2E2E2E2E2E2E2E2BEE2E2E2E2E2E2E2E2E2E2E2E2E2E2E2E2E2E2E2E2E2E2E2E2E2E2E2E2E2E2E2E2E2E2E2E2E2E2E2
310
E2E2E2E2E2E2E2E2E2E2E2E2E2E2E2E2E2E2E2E2E2E2E2E2E2E2E2E2E2E2E2E2E2E2E2E2E2E2E2E2E2E2E2E2E2E2E2E2E2E2E2E2E2F5E2E2E2E2E2E2E2E2E2E2E2E2E2E2E2E2E2E2E2E2E2E2E2E2E2E2E2E2E2E2E2E2E2E2E2E2E2E2E2E2E2E2E2E2E2E2E2E2E2E2E2E2E2E2E2E2E2E2E2E2E2E2E2E2E2E2E2E2E2E2E2E2E2
310
E2E2E2E2E2E2E2E2BEBEBEBEE2BEBEBEBEBEF5E2E2E2E2E2E2E2E2E2E2E2E2E2E2E2E2E2E2E2E2E2E2E2E2E2E2E2E2E2E2E2E2E2E2E2E2E2E2E2E2E2E2E2E2E2E2E2E2E2E2E2E2E2E2E2E2E2E2E2E2E2E2E2E2E2E2E2E2E2E2BEE2E2E2E2E2E2E2E2DCDCDCDCDCDCDCDCDCDCDCDCDCDCDCDCDCDCDCDCDCDCDCDCDCDCDCDCDC
310
DCDCDCDCDCDCDCDCDCDCDCDCDCDCDCDCDCDCDCDCDCDCDCDCDCDCDCDCDCDCDCDCDCDCDCDCDCDCDCDCDCDCDCDCDCDCDCDCDCDCDCDCC3E2E2F5E2E2E2E2E2E2E2F5F5F5F5F5F5F5F5F5F5F5F5F5F5F5F5F5F5F5F5F5F5F5F5F5F5F5F5F5F5F5F5F5F5F5F5F5F5F5F5F5F5F5F5F5F5F5F5F5F5F5F5F5F5F5F5F5F5F5F5F5F5F5F5
310
F5F5F5F5F5F5F5F5F5F5BEF5BEBEF5BEBEBEBEBEF5E2E2E2E2E2E2E2E2E2E2E2E2E2E2E2E2E2E2E2E2E2E2E2E2E2E2E2E2E2E2E2E2E2E2E2E2E2E2E2E2E2E2E2E2E2E2E2E2E2E2E2E2E2E2E2E2E2E2E2E2E2E2E2E2E2E2E2E2E2E2BEE2E2E2E2E2E2E2E2DCDCDCDCDCDCDCDCDCDCDCDCDCE2DCDCDCE2DCDCDCDCE2E2E2E2E2
310
E2E2E2E2E2E2E2E2E2E2E2E2E2E2DCE2E2E2E2DCE2DCE2E2E2DCE2DCDCDCDCDCDCDCE2E2E2E2DCE2E2E2E2E2E2E2E2DCDCE2DCE2E2E2DCE2E2F5E2E2E2E2E2E2E2F5E2E2E2E2E2E2E2E2E2E2E2E2E2E2E2E2E2E2E2E2E2E2E2E2E2E2E2E2E2E2E2E2E2E2E2E2E2E2E2E2E2E2E2E2E2E2E2E2E2E2E2E2E2E2E2E2E2E2E2E2E2
310
E2E2E2E2E2E2E2E2E2E2E2E2E2E2E2E2E2E2E2F5E2E2F5E2E2E2E2E2E2E2E2E2E2E2E2E2E2E2E2E2E2E2E2E2E2E2E2E2E2E2E2E2E2E2E2E2E2E2E2E2E2E2E2E2E2E2E2E2E2E2E2E2E2E2E2E2E2E2E2E2E2E2E2E2E2E2E2E2E2E2E2E2E2BEE2E2E2E2E2E2E2E2DCDCDCDCDCDCDCDCDCDCDCDCDCDCE2DCDCE2DCDCDCE2E2E2E2
310
E2E2E2E2E2E2E2E2E2E2E2E2E2E2E2E2DCE2E2E2DCDCDCDCE2E2E2DCDCDCDCDCDCDCDCDCE2E2E2E2DCE2E2E2E2E2E2E2E2DCDCDCDCE2E2E2DCE2E2F5E2E2E2E2E2E2E2F5E2E2E2E2E2E2E2E2E2E2E2E2E2E2E2E2E2E2E2E2E2E2E2E2E2E2E2E2E2E2E2E2E2E2E2E2E2E2E2E2E2E2E2E2E2E2E2E2E2E2E2E2E2E2E2E2E2E2E2
310
E2E2E2E2E2E2E2E2E2E2E2E2E2E2E2E2E2E2E2E2E2F5E2E2F5E2E2E2E2E2E2E2E2E2E2E2E2E2E2E2E2E2E2E2E2E2E2E2E2E2E2E2E2E2E2E2E2E2E2E2E2E2E2E2E2E2E2E2E2E2E2E2E2E2E2E2E2E2E2E2E2E2E2E2E2E2E2E2E2E2E2E2E2E2E2BEE2E2E2E2E2E2E2E2DCF5F5F5F5F5F5F5F5F5F5F5F5F5F5E2E2E2E2E2E2E2E2
310
E2E2E2E2E2E2E2E2E2E2E2E2E2E2E2E2E2E2DCF5F5F5F5F5F5F5E2E2E2DCDCDCDCDCDCDCDCDCE2E2E2E2F5F5F5F5F5F5F5F5F5DCDCF5DCF5F5F5F5E2E2F5E2E2E2E2E2E2E2F5E2E2E2E2E2E2E2E2E2E2E2E2E2E2E2E2E2E2E2E2E2E2E2E2E2E2E2E2E2E2E2E2E2E2E2E2E2E2E2E2E2E2E2E2E2E2E2E2E2E2E2E2E2E2E2E2E2
310
E2E2E2E2E2E2E2E2E2E2E2E2E2E2E2E2E2E2E2E2E2E2E2F5E2E2F5E2E2E2E2E2E2E2E2E2E2E2E2E2E2E2E2E2E2E2E2E2E2E2E2E2E2E2E2E2E2E2E2E2E2E2E2E2E2E2E2E2E2E2E2E2E2E2E2E2E2E2E2E2E2E2E2E2E2E2E2E2E2E2E2E2E2E2E2E2E2BEE2E2E2E2E2E2E2E2DCF5F5F5F5F5F5F5F5F5E2F5F5F5F5E2E2E2E2E2E2
310
E2E2E2E2E2E2E2E2E2E2E2E2E2E2E2E2E2E2E2E2DCF5F5F5F5F5F5F5F5E2E2DCF5F5F5F5F5F5F5F5E2E2E2E2F5F5F5F5F5F5F5F5F5F5F5F5DCF5F5F5F5E2E2F5E2E2E2E2E2E2E2F5E2E2E2E2E2E2E2E2E2E2E2E2E2E2E2E2E2E2E2E2E2E2E2E2E2E2E2E2E2E2E2E2E2E2E2E2E2E2E2E2E2E2E2E2E2E2E2E2E2E2E2E2E2E2E2
310
E2E2E2E2E2E2E2E2E2E2E2E2E2E2E2E2E2E2E2E2E2E2E2E2E2F5E2E2F5E2E2E2E2E2E2E2E2E2E2E2E2E2E2E2E2E2E2E2E2E2E2E2E2E2E2E2E2E2E2E2E2E2E2E2E2E2E2E2E2E2E2E2E2E2E2E2E2E2E2E2E2E2E2E2E2E2E2E2E2E2E2E2E2E2E2E2E2E2E2BEE2E2E2E2E2E2E2E2DCF5F5F5F5F5F5F5F5F5F5F5F5F5F5BEBEBEBE
310
BEBEBEBEDCF5F5F5F5F5BEBEBEBEBEBEBEDCDCDCDCDCDCDCDCDCDCDCDCDCDCDCDCDCDCDCDCDCDCDCDCDCDCDCDCDCF5F5F5F5DCF5DCDCDCDCDCDCDCDCDCDCDCE2E2F5E2E2E2E2E2E2E2F5E2E2E2E2E2E2E2E2E2E2E2E2E2E2E2E2E2E2E2E2E2E2E2E2E2E2E2E2E2E2E2E2E2E2E2E2E2E2E2E2E2E2E2E2E2E2E2E2E2E2E2E2E2
310
E2E2E2E2E2E2E2E2E2E2E2E2E2E2E2E2E2E2E2E2E2E2E2E2E2E2E2F5E2E2F5E2E2E2E2E2E2E2E2E2E2E2E2E2E2E2E2E2E2E2E2E2E2E2E2E2E2E2E2E2E2E2E2E2E2E2E2E2E2E2E2E2E2E2E2E2E2E2E2E2E2E2E2E2E2E2E2E2E2E2E2E2E2E2E2E2E2E2E2E2E2BEE2E2E2E2E2E2E2E2DCF5F5F5F5F5F5F5F5E2F5F5F5F5F5BEBE
310
BEBEBEBEBEBEBEF5F5F5F5F5BEBEBEBEBEBEBEE2E2E2E2E2E2E2E2E2E2E2E2E2E2E2E2E2E2E2E2E2E2E2E2DCE22D2D2D2D2D2D2D2D2D2D2D2D2D2D2D2D2DE2E2DCE2E2F5E2E2E2E2E2E2E2F5E2E2E2E2E2E2E2E2E2E2E2E2E2E2E2E2E2E2E2E2E2E2E2E2E2E2E2E2E2E2E2E2E2E2E2E2E2E2E2E2E2E2E2E2E2E2E2E2E2E2E2
310
E2E2E2E2E2E2E2E2E2E2E2E2E2E2E2E2E2E2E2E2E2E2E2E2E2E2E2E2E2F5E2E2F5E2E2E2E2E2E2E2E2E2E2E2E2E2E2E2E2E2E2E2E2E2E2E2E2E2E2E2E2E2E2E2E2E2E2E2E2E2E2E2E2E2E2E2E2E2E2E2E2E2E2E2E2E2E2E2E2E2E2E2E2E2E2E2E2E2E2E2E2E2E2BEE2E2E2E2E2E2E2E2DCDCDCDCDCDCDCDCDCDCDCDCDCDCDC
310
BEBEBEBEDCBEBEBEDCDCDCDCDCDCBEBEBEDCDCBEDCDCDCDCDCDCDCDCDCDCDCDCDCDCDCDCDCDCDCDCDCDCDCDCDCDCE2E2E2E2E2E2E2E2E22D2D2D2D2D2D2D2D2D2DE2DCE2E2F5E2E2E2E2E2E2E2F5E2E2E2E2E2E2E2E2E2E2E2E2E2E2E2E2E2E2E2E2E2E2E2E2E2E2E2E2E2E2E2E2E2E2E2E2E2E2E2E2E2E2E2E2E2E2E2E2E2
310
E2E2E2E2E2E2E2E2E2E2E2E2E2E2E2E2E2E2E2E2E2E2E2E2E2E2E2E2E2E2E2F5E2E2F5E2E2E2E2E2E2E2E2E2E2E2E2E2E2E2E2E2E2E2E2E2E2E2E2E2E2E2E2E2E2E2E2E2E2E2E2E2E2E2E2E2E2E2E2E2E2E2E2E2E2E2E2E2E2E2E2E2E2E2E2E2E2E2E2E2E2E2E2E2E2BEE2E2E2E2E2E2E2E2DCE2E2E2E2E2E2E2E2E2E2E2E2
310
E2E2E2E2E2E2E2E2E2E2E2E2E2E2E2E2E2E2E2E2E2E2E2E2E2E2E2E2E2E2E2E2E2E2E2E2E2E2E2E2E2E2E2E2E2E2E2DCE2E2E2E22D2D2DE22D2D2D2D2D2D2D2D2D2DE2E2DCE2E2F5E2E2E2E2E2E2E2F5E2E2E2E2E2E2E2E2E2E2E2E2E2E2E2E2E2E2E2E2E2E2E2E2E2E2E2E2E2E2E2E2E2E2E2E2E2E2E2E2E2E2E2E2E2E2E2
310
E2E2E2E2E2E2E2E2E2E2E2E2E2E2E2E2E2E2E2E2E2E2E2E2E2E2E2E2E2E2E2E2E2F5E2E2F5E2E2E2E2E2E2E2E2E2E2E2E2E2E2E2E2E2E2E2E2E2E2E2E2E2E2E2E2E2E2E2E2E2E2E2E2E2E2E2E2E2E2E2E2E2E2E2E2E2E2E2E2E2E2E2E2E2E2E2E2E2E2E2E2E2E2E2E2E2E2BEE2E2E2E2E2E2E2E2BEBEBEBEBEBEBEBEF5BEBE
310
BEBEBEBEBEBEBEBEBEBEBEBEBEBEBEBEBEBEBEBEBEBEBEBEBEBEBEBEBEBEBEBEBEBEBEBEBEBEBEBEBEBEBEBEBEBEBEBEBEBEE2E2E2E22D2D2D2D2D2D2D2D2D2D2D2D2D2DE2E2DCE2E2F5E2E2E2E2E2E2E2F5E2E2E2E2E2E2E2E2E2E2E2E2E2E2E2E2E2E2E2E2E2E2E2E2E2E2E2E2E2E2E2E2E2E2E2E2E2E2E2E2E2E2E2E2E2
310
E2E2E2E2E2E2E2E2E2E2E2E2E2E2E2E2E2E2E2E2E2E2E2E2E2E2E2E2E2E2E2E2E2E2E2F5E2E2F5E2E2E2E2E2E2E2E2E2E2E2E2E2E2E2E2E2E2E2E2E2E2E2E2E2E2E2E2E2E2E2E2E2E2E2E2E2E2E2E2E2E2E2E2E2E2E2E2E2E2E2E2E2E2E2E2E2E2E2E2E2E2E2E2E2E2E2E2E2E2BEE2E2E2E2E2E2E2E2DCF5F5F5F5F5F5F5F5
310
F5E2E2E2E2E2E2E2E2E2E2E2E2E2E2E2E2E2E2E2E2E2E2E2E2E2E2E2E2E2E2E2E2E2E2E2E2E2E2E2E2E2E2E2E2E2E2E2E2E2E2DCE2E2E22D2D2D2D2DE22D2D2D2D2D2D2D2D2DE2E2DCE2E2F5E2E2E2E2E2E2E2F5E2E2E2E2E2E2E2E2E2E2E2E2E2E2E2E2E2E2E2E2E2E2E2E2E2E2E2E2E2E2E2E2E2E2E2E2E2E2E2E2E2E2E2
310
E2E2E2E2E2E2E2E2E2E2E2E2E2E2E2E2E2E2E2E2E2E2E2E2E2E2E2E2E2E2E2E2E2E2E2E2E2F5E2E2F5E2E2E2E2E2E2E2E2E2E2E2E2E2E2E2E2E2E2E2E2E2E2E2E2E2E2E2E2E2E2E2E2E2E2E2E2E2E2E2E2E2E2E2E2E2E2E2E2E2E2E2E2E2E2E2E2E2E2E2E2E2E2E2E2E2E2E2E2E2E2BEE2E2E2E2E2E2E2E2DCF5F5F5F5F5F5
310
F5F5F5E2E2E2E2E2E2E2E2E2E2E2E2E2E2E2E2E2E2E2E2E2E2E2E2E2E2E2E2E2E2E2E2E2E2E2E2E2E2E2E2E2E2E2E2E2E2E2E2E2E2DCE2E2E2E2E2E2E2E2E2E2E2E2E2E2E2E2E2E2E2E2DCE2E2F5E2E2E2E2E2E2E2F5E2E2E2E2E2E2E2E2E2E2E2E2E2E2E2E2E2E2E2E2E2E2E2E2E2E2E2E2E2E2E2E2E2E2E2E2E2E2E2E2E2
310
E2E2E2E2E2E2E2E2E2E2E2E2E2E2E2E2E2E2E2E2E2E2E2E2E2E2E2E2E2E2E2E2E2E2E2E2E2E2E2F5E2E2F5E2E2E2E2E2E2E2E2E2E2E2E2E2E2E2E2E2E2E2E2E2E2E2E2E2E2E2E2E2E2E2E2E2E2E2E2E2E2E2E2E2E2E2E2E2E2E2E2E2E2E2E2E2E2E2E2E2E2E2E2E2E2E2E2E2E2E2E2E2E2BEE2E2E2E2E2E2E2E2DCDCDCDCDC
310
DCDCDCDCDCDCDCDCDCDCDCDCDCDCDCDCDCDCDCDCDCDCDCDCDCDCDCDCDCDCDCDCDCDCDCDCDCDCDCDCDCDCDCDCDCDCDCDCDCDCDCDCDCDCDCDCDCDCDCDCDCDCDCDCDCDCDCDCDCDCDCDCDCDCDCDCDCE2E2F5E2E2E2E2E2E2E2F5E2E2E2E2E2E2E2E2E2E2E2E2E2E2E2E2E2E2E2E2E2E2E2E2E2E2E2E2E2E2E2E2E2E2E2E2E2E2E2
310
E2E2E2E2E2E2E2E2E2E2E2E2E2E2E2E2E2E2E2E2E2E2E2E2E2E2E2E2E2E2E2E2E2E2E2E2E2E2E2E2E2F5E2E2F5E2E2E2E2E2E2E2E2E2E2E2E2E2E2E2E2E2E2E2E2E2E2E2E2E2E2E2E2E2E2E2E2E2E2E2E2E2E2E2E2E2E2E2E2E2E2E2E2E2E2E2E2E2E2E2E2E2E2E2E2E2E2E2E2E2E2E2E2E2E2BEE2E2E2E2E2E2E2E2DCE2E2
310
E2E2E2E2E2E2E2E2E2E2E2E2E2E2E2E2E2E2E2E2E2E2E2E2E2E2E2E2E2E2E2E2E2E2E2E2E2BEE2E2E2E2E2E2E2E2E2E2E2E2E2E2E2E2E2E2E2E2E2E2E2E2E2E2E2E2E2E2E2E2E2E2E2E2E2E2E2E2DCE2E2F5E2E2E2E2E2E2E2F5E2E2E2E2E2E2E2E2E2E2E2E2E2E2E2E2E2E2E2E2E2E2E2E2E2E2E2E2E2E2E2E2E2E2E2E2E2
310
E2E2E2E2E2E2E2E2E2E2E2E2E2E2E2E2E2E2E2E2E2E2E2E2E2E2E2E2E2E2E2E2E2E2E2E2E2E2E2E2E2E2E2F5E2E2F5E2E2E2E2E2E2E2E2E2E2E2E2E2E2E2E2E2E2E2E2E2E2E2E2E2E2E2E2E2E2E2E2E2E2E2E2E2E2E2E2E2E2E2E2E2E2E2E2E2E2E2E2E2E2E2E2E2E2E2E2E2E2E2E2E2E2E2E2E2E2BEE2E2E2E2E2E2E2E2DC
310
F5F5F5F5E2E2E2E2E2E2E2E2E2E2E2E2E2E2E2E2E2E2E2E2E2E2E2E2E2E2E2E2E2E2E2E2E2E2E2F5F5F5F5E2E2E2E2E2E2E2E2E2E2E2E2E2E2E2E2E2E2E2E2E2E2E2E2E2E2E2E2E2E2E2E2E2E2E2E2E2DCE2E2F5E2E2E2E2E2E2E2F5E2E2E2E2E2E2E2E2E2E2E2E2E2E2E2E2E2E2E2E2E2E2E2E2E2E2E2E2E2E2E2E2E2E2E2
310
E2E2E2E2E2E2E2E2E2E2E2E2E2E2E2E2E2E2E2E2E2E2E2E2E2E2E2E2E2E2E2E2E2E2E2E2E2E2E2E2E2E2E2E2E2F5E2E2F5E2E2E2E2E2E2E2E2E2E2E2E2E2E2E2E2E2E2E2E2E2E2E2E2E2E2E2E2E2E2E2E2E2E2E2E2E2E2E2E2E2E2E2E2E2E2E2E2E2E2E2E2E2E2E2E2E2E2E2E2E2E2E2E2E2E2E2E2E2E2BEE2E2E2E2E2E2E2
310
E2DCF5F5F5F5F5E2E2E2E2E2E2E2E2E2E2E2E2E2E2E2E2E2E2E2E2E2E2E2E2E2E2E2E2E2E2E2E2E2E2F5F5F5F5F5E2E2E2E2E2E2E2E2E2E2E2E2E2E2E2E2E2E2E2E2E2E2E2E2E2E2E2E2E2E2E2E2E2E2E2E2DCE2E2F5E2E2E2E2E2E2E2F5E2E2E2E2E2E2E2E2E2E2E2E2E2E2E2E2E2E2E2E2E2E2E2E2E2E2E2E2E2E2E2E2E2
310
E2E2E2E2E2E2E2E2E2E2E2E2E2E2E2E2E2E2E2E2E2E2E2E2E2E2E2E2E2E2E2E2E2E2E2E2E2E2E2E2E2E2E2E2E2E2E2F5E2E2F5E2E2E2E2E2E2E2E2E2E2E2E2E2E2E2E2E2E2E2E2E2E2E2E2E2E2E2E2E2E2E2E2E2E2E2E2E2E2E2E2E2E2E2E2E2E2E2E2E2E2E2E2E2E2E2E2E2E2E2E2E2E2E2E2E2E2E2E2E2E2BEE2E2E2E2E2
310
E2E2E2BEDCBEBEBEBEBEBEBEBEBEBEBEBEBEBEBEBEBEBEBEBEBEBEBEBEBEBEBEBEBEBEBEBEBEBEBEBEBEBEDCBEBEBEBEBEBEBEBEBEBEBEBEBEBEBEBEBEBEBEBEBEBEBEBEBEBEBEBEBEBEBEBEBEBEBEBEBEBEBEBEBEE2E2F5E2E2E2E2E2E2E2F5E2E2E2E2E2E2E2E2E2E2E2E2E2E2E2E2E2E2E2E2E2E2E2E2E2E2E2E2E2E2E2
310
E2E2E2E2E2E2E2E2E2E2E2E2E2E2E2E2E2E2E2E2E2E2E2E2E2E2E2E2E2E2E2E2E2E2E2E2E2E2E2E2E2E2E2E2E2E2E2E2E2F5E2E2F5E2E2E2E2E2E2E2E2E2E2E2E2E2E2E2E2E2E2E2E2E2E2E2E2E2E2E2E2E2E2E2E2E2E2E2E2E2E2E2E2E2E2E2E2E2E2E2E2E2E2E2E2E2E2E2E2E2E2E2E2E2E2E2E2E2E2E2E2E2E2BEE2E2E2
310
E2E2E2E2E2DCE2E2E2E2E2E2E2E2E2E2E2E2E2E2E2E2E2E2E2E2E2E2E2E2E2E2E2E2E2E2E2E2E2E2E2E2E2E2E2BEE2E2E2E2E2E2E2E2E2E2E2E2E2E2E2E2E2E2E2E2E2E2E2E2E2E2E2E2E2E2E2E2E2E2E2E2E2E2E2E2DCE2E2F5E2E2E2E2E2E2E2F5E2E2E2E2E2E2E2E2E2E2E2E2E2E2E2E2E2E2E2E2E2E2E2E2E2E2E2E2E2
310
E2E2E2E2E2E2E2E2E2E2E2E2E2E2E2E2E2E2E2E2E2E2E2E2E2E2E2E2E2E2E2E2E2E2E2E2E2E2E2E2E2E2E2E2E2E2E2E2E2E2E2F5E2E2F5E2E2E2E2E2E2E2E2E2E2E2E2E2E2E2E2E2E2E2E2E2E2E2E2E2E2E2E2E2E2E2E2E2E2E2E2E2E2E2E2E2E2E2E2E2E2E2E2E2E2E2E2E2E2E2E2E2E2E2E2E2E2E2E2E2E2E2E2E2E2BEE2
310
E2E2E2E2E2E2E2DCE2E2E2E2E2E2E2E2E2E2E2E2E2E2E2E2E2E2E2E2E2E2E2E2E2E2E2E2E2E2E2E2E2E2E2E2E2E2E2BEE2E2F5E2E2E2E2E2E2E2E2E2E2E2E2E2E2E2E2E2E2E2E2E2E2E2E2E2E2E2E2E2E2E2E2E2E2E2E2E2DCE2E2F5E2E2E2E2E2E2E2F5E2E2E2E2E2E2E2E2E2E2E2E2E2E2E2E2E2E2E2E2E2E2E2E2E2E2E2
310
E2E2E2E2E2E2E2E2E2E2E2E2E2E2E2E2E2E2E2E2E2E2E2E2E2E2E2E2E2E2E2E2E2E2E2E2E2E2E2E2E2E2E2E2E2E2E2E2E2E2E2E2E2F5E2E2F5E2E2E2E2E2E2E2E2E2E2E2E2E2E2E2E2E2E2E2E2E2E2E2E2E2E2E2E2E2E2E2E2E2E2E2E2E2E2E2E2E2E2E2E2E2E2E2E2E2E2E2E2E2E2E2E2E2E2E2E2E2E2E2E2E2E2E2E2E2E2
310
BEE2E2E2E2E2E2E2E2DCF5F5F5F5F5F5E2E2E2E2E2E2E2E2E2E2E2E2E2E2E2E2E2E2E2E2E2E2E2E2E2E2E2E2E2E2E2E2E2F5F5F5F5F5F5F5E2E2E2E2E2E2E2E2E2E2E2E2E2E2E2E2E2E2E2E2E2E2E2E2E2E2E2E2E2E2E2E2E2E2DCE2E2F5E2E2E2E2E2E2E2F5E2E2E2E2E2E2E2E2E2E2E2E2E2E2E2E2E2E2E2E2E2E2E2E2E2
310
E2E2E2E2E2E2E2E2E2E2E2E2E2E2E2E2E2E2E2E2E2E2E2E2E2E2E2E2E2E2E2E2E2E2E2E2E2E2E2E2E2E2E2E2E2E2E2E2E2E2E2E2E2E2E2F5E2E2F5E2E2E2E2E2E2E2E2E2E2E2E2E2E2E2E2E2E2E2E2E2E2E2E2E2E2E2E2E2E2E2E2E2E2E2E2E2E2E2E2E2E2E2E2E2E2E2E2E2E2E2E2E2E2E2E2E2E2E2E2E2E2E2E2E2E2E2E2
310
E2E2BEE2E2E2E2E2E2E2E2DCF5F5DCDCF5DCDCDCDCDCDCDCDCDCDCDCDCDCDCDCDCDCDCDCDCDCDCDCDCDCDCDCDCDCDCDCDCDCDCDCF5DCF5F5F5F5DCDCDCDCDCDCDCDCDCDCDCDCDCDCDCDCDCDCDCDCDCDCDCDCDCDCDCDCDCDCDCDCDCDCDCE2E2F5E2E2E2E2E2E2E2F5E2E2E2E2E2E2E2E2E2E2E2E2E2E2E2E2E2E2E2E2E2E2E2
310
E2E2E2E2E2E2E2E2E2E2E2E2E2E2E2E2E2E2E2E2E2E2E2E2E2E2E2E2E2E2E2E2E2E2E2E2E2E2E2E2E2E2E2E2E2E2E2E2E2E2E2E2E2E2E2E2E2F5E2E2F5E2E2E2E2E2E2E2E2E2E2E2E2E2E2E2E2E2E2E2E2E2E2E2E2E2E2E2E2E2E2E2E2E2E2E2E2E2E2E2E2E2E2E2E2E2E2E2E2E2E2E2E2E2E2E2E2E2E2E2E2E2E2E2E2E2E2
310
E2E2E2E2BEE2E2E2E2E2E2E2E2DCE2E2E2E2E2E2E2E2E2E2E2E2E2E2E2E2E2E2E2E2E2E2E2E2E2E2E2E2E2E2E2E2E2E2E2E2E2E2E2E2E2E2E2E2E2E2E2E2E2E2E2E2E2E2E2E2E2E2E2E2E2E2E2E2E2E2E2E2E2E2E2E2E2E2E2E2E2E2E2E2DCE2E2F5E2E2E2E2E2E2E2F5E2E2E2E2E2E2E2E2E2E2E2E2E2E2E2E2E2E2E2E2E2
310
E2E2E2E2E2E2E2E2E2E2E2E2E2E2E2E2E2E2E2E2E2E2E2E2E2E2E2E2E2E2E2E2E2E2E2E2E2E2E2E2E2E2E2E2E2E2E2E2E2E2E2E2E2E2E2E2E2E2E2F5E2E2F5E2E2E2E2E2E2E2E2E2E2E2E2E2E2E2E2E2E2E2E2E2E2E2E2E2E2E2E2E2E2E2E2E2E2E2E2E2E2E2E2E2E2E2E2E2E2E2E2E2E2E2E2E2E2E2E2E2E2E2E2E2E2E2E2
310
E2E2E2E2E2E2BEE2E2E2E2E2E2E2E2DCE2E2E2E2E2E2E2E2E2E2E2E2E2E2E2E2E2E2E2E2E2E2E2E2E2E2E2E2E2E2E2E2E2E2E2E2E2E2E2E2E2E2E2E2E2E2E2E2E2E2E2E2E2E2E2E2E2E2E2E2E2E2F5F5F5E2E2E2E2E2E2E2E2E2E2E2E2E2E2E2DCE2E2F5E2E2E2E2E2E2E2F5E2E2E2E2E2E2E2E2E2E2E2E2E2E2E2E2E2E2E2
310
E2E2E2E2E2E2E2E2E2E2E2E2E2E2E2E2E2E2E2E2E2E2E2E2E2E2E2E2E2E2E2E2E2E2E2E2E2E2E2E2E2E2E2F5F5F5E2E2E2E2E2E2E2E2E2E2E2E2E2E2E2F5E2E2F5E2E2E2E2E2E2E2E2E2E2E2E2E2E2E2E2E2E2E2E2E2E2E2E2E2E2E2E2E2E2E2E2E2E2E2E2E2E2E2E2E2E2E2E2E2E2E2E2E2E2E2E2E2E2E2E2E2E2E2E2E2E2
310
E2E2E2E2E2E2E2E2BEE2E2E2E2E2E2E2E2DCE2E2E2E2E2E2E2E2E2E2E2E2E2E2E2E2E2E2E2E2E2E2E2E2E2E2E2E2E2E2E2E2E2E2E2E2E2E2E2E2E2E2E2E2E2E2E2E2E2E2E2E2E2E2E2E2E2E2E2E2F5F5F5F5F5F5E2E2E2E2E2E2E2E2E2E2E2E2E2E2DCE2E2F5E2E2E2E2E2E2E2F5E2E2E2E2E2E2E2E2E2E2E2E2E2E2E2E2E2
310
E2E2E2E2E2E2E2E2E2E2E2E2E2E2E2E2E2E2E2E2E2E2E2E2E2E2E2E2E2E2E2E2E2E2E2E2E2E2E2E2E2E2E2F5F5F5F5F5F5E2E2E2E2E2E2E2E2E2E2E2E2E2E2F5E2E2F5E2E2E2E2E2E2E2E2E2E2E2E2E2E2E2E2E2E2E2E2E2E2E2E2E2E2E2E2E2E2E2E2E2E2E2E2E2E2E2E2E2E2E2E2E2E2E2E2E2E2E2E2E2E2E2E2E2E2E2E2
310
E2E2E2E2E2E2E2E2E2E2BEE2E2E2E2E2E2E2E2DCE2E2E2E2E2E2E2E2E2E2E2E2E2E2E2E2E2E2E2E2E2E2E2E2E2E2E2E2E2E2E2E2E2E2E2E2E2E2E2E2E2E2E2E2E2E2E2E2E2E2E2E2E2E2E2E2E2E2E2F5F5F5F5E2E2F5F5E2E2E2E2E2E2E2E2E2E2E2E2E2DCE2E2F5E2E2E2E2E2E2E2F5E2E2E2E2E2E2E2E2E2E2E2E2E2E2E2
310
E2E2E2E2E2E2E2E2E2E2E2E2E2E2E2E2E2E2E2E2E2E2E2E2E2E2E2E2E2E2E2E2E2E2E2E2E2E2E2E2E2E2E2E2F5F5E2F5F5E2F5F5E2E2E2E2E2E2E2E2E2E2E2E2E2F5E2E2F5E2E2E2E2E2E2E2E2E2E2E2E2E2E2E2E2E2E2E2E2E2E2E2E2E2E2E2E2E2E2E2E2E2E2E2E2E2E2E2E2E2E2E2E2E2E2E2E2E2E2E2E2E2E2E2E2E2E2
310
E2E2E2E2E2E2E2E2E2E2E2E2BEE2E2E2E2E2E2E2E2DCE2E2E2E2E2E2E2E2E2E2E2E2E2E2E2E2E2E2E2E2E2E2E2E2E2E2E2E2E2E2E2E2E2E2E2E2E2E2E2E2E2E2E2E2E2E2E2E2E2E2E2E2E2E2E2E2E2E2F5F5F5F5F5F5E2E2F5E2E2E2E2E2E2E2E2E2E2E2E2E2DCE2E2F5E2E2E2E2E2E2E2F5E2E2E2E2E2E2E2E2E2E2E2E2E2
310
E2E2E2E2E2E2E2E2E2E2E2E2E2E2E2E2E2E2E2E2E2E2E2E2E2E2E2E2E2E2E2E2E2E2E2E2E2E2E2E2E2E2E2E2E2F5F5F5E2F5F5E2E2F5E2E2E2E2E2E2E2E2E2E2E2E2E2F5E2E2F5E2E2E2E2E2E2E2E2E2E2E2E2E2E2E2E2E2E2E2E2E2E2E2E2E2E2E2E2E2E2E2E2E2E2E2E2E2E2E2E2E2E2E2E2E2E2E2E2E2E2E2E2E2E2E2E2
310
E2E2E2E2E2E2E2E2E2E2E2E2E2E2BEE2E2E2E2E2E2E2E2DCE2E2E2E2E2E2E2E2E2E2E2E2E2E2E2E2E2E2E2E2E2E2E2E2E2E2E2E2E2E2E2E2E2E2E2E2E2E2E2E2E2E2E2E2E2E2E2E2E2E2E2E2E2E2E2E2F5F5E2F5F5E2F5F5F5E2F5E2E2E2E2E2E2E2E2E2E2E2E2E2DCE2E2F5E2E2E2E2E2E2E2F5E2E2E2E2E2E2E2E2E2E2E2
310
E2E2E2E2E2E2E2E2E2E2E2E2E2E2E2E2E2E2E2E2E2E2E2E2E2E2E2E2E2E2E2E2E2E2E2E2E2E2E2E2E2E2E2E2E2F5F5E2F5F5E2F5F5F5E2F5E2E2E2E2E2E2E2E2E2E2E2E2E2F5E2E2F5E2E2E2E2E2E2E2E2E2E2E2E2E2E2E2E2E2E2E2E2E2E2E2E2E2E2E2E2E2E2E2E2E2E2E2E2E2E2E2E2E2E2E2E2E2E2E2E2E2E2E2E2E2E2
310
E2E2E2E2E2E2E2E2E2E2E2E2E2E2E2E2BEE2E2E2E2E2E2E2E2DCE2E2E2E2E2E2E2E2E2E2E2E2E2E2E2E2E2E2E2E2E2E2E2E2E2E2E2E2E2E2E2E2E2E2E2E2E2E2E2E2E2E2E2E2E2E2E2E2E2E2E2E2E2E2F5F5E2E2E2F5F5F5F5F5F5F5F5E2E2E2E2E2E2E2E2E2E2E2E2E2DCE2E2F5E2E2E2E2E2E2E2F5E2E2E2E2E2E2E2E2E2
310
E2E2E2E2E2E2E2E2E2E2E2E2E2E2E2E2E2E2E2E2E2E2E2E2E2E2E2E2E2E2E2E2E2E2E2E2E2E2E2E2E2E2E2E2E2F5F5E2E2E2F5F5F5E2F5F5F5F5E2E2E2E2E2E2E2E2E2E2E2E2E2F5E2E2F5E2E2E2E2E2E2E2E2E2E2E2E2E2E2E2E2E2E2E2E2E2E2E2E2E2E2E2E2E2E2E2E2E2E2E2E2E2E2E2E2E2E2E2E2E2E2E2E2E2E2E2E2
310
E2E2E2E2E2E2E2E2E2E2E2E2E2E2E2E2E2E2BEE2E2E2E2E2E2E2E2DCE2E2E2E2E2E2E2E2E2E2E2E2E2E2E2E2E2E2E2E2E2E2E2E2E2E2E2E2E2E2E2E2E2E2E2E2E2E2E2E2E2E2E2E2E2E2E2E2E2E2E2E2F5F5E2E2E2E2E2E2F5F5F5F5F5F5E2E2E2E2E2E2E2E2E2E2E2E2E2E2DCE2E2F5E2E2E2E2E2E2E2F5E2E2E2E2E2E2E2
310
E2E2E2E2E2E2E2E2E2E2E2E2E2E2E2E2E2E2E2E2E2E2E2E2E2E2E2E2E2E2E2E2E2E2E2E2E2E2E2E2E2E2E2E2E2F5F5E2E2E2E2E2E2F5F5F5E2F5F5F5E2E2E2E2E2E2E2E2E2E2E2E2E2F5E2E2F5E2E2E2E2E2E2E2E2E2E2E2E2E2E2E2E2E2E2E2E2E2E2E2E2E2E2E2E2E2E2E2E2E2E2E2E2E2E2E2E2E2E2E2E2E2E2E2E2E2E2
310
E2E2E2E2E2E2E2E2E2E2E2E2E2E2E2E2E2E2E2E2BEE2E2E2E2E2E2E2E2DCE2E2E2E2E2E2E2E2E2E2E2E2E2E2E2E2E2E2E2E2E2E2E2E2E2E2E2E2E2E2E2E2E2E2E2E2E2E2E2E2E2E2E2E2E2E2E2E2E2E2E2F5E2E2E2E2E2E2E2E2F5F5F5F5F5E2E2E2E2E2E2E2E2E2E2E2E2E2E2E2DCE2E2F5E2E2E2E2E2E2E2F5E2E2E2E2E2
310
E2E2E2E2E2E2E2E2E2E2E2E2E2E2E2E2E2E2E2E2E2E2E2E2E2E2E2E2E2E2E2E2E2E2E2E2E2E2E2E2E2E2E2E2E2E2F5E2E2E2E2E2E2E2E2E2F5F5F5F5E2E2E2E2E2E2E2E2E2E2E2E2E2E2E2F5E2E2F5E2E2E2E2E2E2E2E2E2E2E2E2E2E2E2E2E2E2E2E2E2E2E2E2E2E2E2E2E2E2E2E2E2E2E2E2E2E2E2E2E2E2E2E2E2E2E2E2
310
E2E2E2E2E2E2E2E2E2E2E2E2E2E2E2E2E2E2E2E2E2E2BEE2E2E2E2E2E2E2E2DCE2E2E2E2E2E2E2E2E2E2E2E2E2E2E2E2E2E2E2E2E2E2E2E2E2E2E2E2E2E2E2E2E2E2E2E2E2E2E2E2E2E2E2E2E2E2E2E2E2F5F5E2E2E2E2E2E2E2E2E2E2F5F5E2E2E2E2E2E2E2E2E2E2E2E2E2E2E2E2E2DCE2E2F5E2E2E2E2E2E2E2F5E2E2E2
310
E2E2E2E2E2E2E2E2E2E2E2E2E2E2E2E2E2E2E2E2E2E2E2E2E2E2E2E2E2E2E2E2E2E2E2E2E2E2E2E2E2E2E2E2E2E2F5F5E2E2E2E2E2E2E2E2E2E2F5F5E2E2E2E2E2E2E2E2E2E2E2E2E2E2E2E2E2F5E2E2F5E2E2E2E2E2E2E2E2E2E2E2E2E2E2E2E2E2E2E2E2E2E2E2E2E2E2E2E2E2E2E2E2E2E2E2E2E2E2E2E2E2E2E2E2E2E2
310
E2E2E2E2E2E2E2E2E2E2E2E2E2E2E2E2E2E2E2E2E2E2E2E2BEE2E2E2E2E2E2E2E2DCE2E2E2E2E2E2E2E2E2E2E2E2E2E2E2E2E2E2E2E2E2E2E2E2E2E2E2E2E2E2E2E2E2E2E2E2E2E2E2E2E2E2E2E2E2E2E2F5F5E2E2E2E2E2E2E2E2E2E2F5F5E2E2E2E2E2E2E2E2E2E2E2E2E2E2E2E2E2E2E2DCE2E2F5E2E2E2E2E2E2E2F5E2
310
E2E2E2E2E2E2E2E2E2E2E2E2E2E2E2E2E2E2E2E2E2E2E2E2E2E2E2E2E2E2E2E2E2E2E2E2E2E2E2E2E2E2E2E2E2E2F5F5E2E2E2E2E2E2E2E2E2E2F5F5E2E2E2E2E2E2E2E2E2E2E2E2E2E2E2E2E2E2E2F5E2E2F5E2E2E2E2E2E2E2E2E2E2E2E2E2E2E2E2E2E2E2E2E2E2E2E2E2E2E2E2E2E2E2E2E2E2E2E2E2E2E2E2E2E2E2E2
310
E2E2E2E2E2E2E2E2E2E2E2E2E2E2E2E2E2E2E2E2E2E2E2E2E2E2BEE2E2E2E2E2E2E2E2DCE2E2E2E2E2E2E2E2E2E2E2E2E2E2E2E2E2E2E2E2E2E2E2E2E2E2E2E2E2E2E2E2E2E2E2E2E2E2E2E2E2E2E2E2E2F5F5E2E2E2E2E2E2E2E2E2E2E2F5E2E2E2E2E2E2E2E2E2E2E2E2E2E2E2E2E2E2E2E2E2DCE2E2F5E2E2E2E2E2E2E2
310
F5E2E2E2E2E2E2E2E2E2E2E2E2E2E2E2E2E2E2E2E2E2E2E2E2E2E2E2E2E2E2E2E2E2E2E2E2E2E2E2E2E2E2E2E2E2F5F5E2E2E2E2E2E2E2E2E2E2E2F5E2E2E2E2E2E2E2E2E2E2E2E2E2E2E2E2E2E2E2E2E2F5E2E2F5E2E2E2E2E2E2E2E2E2E2E2E2E2E2E2E2E2E2E2E2E2E2E2E2E2E2E2E2E2E2E2E2E2E2E2E2E2E2E2E2E2E2
310
E2E2E2E2E2E2E2E2E2E2E2E2E2E2E2E2E2E2E2E2E2E2E2E2E2E2E2E2BEE2E2E2E2E2E2E2E2DCE2E2E2E2E2E2E2E2E2E2E2E2E2E2E2E2E2E2E2E2E2E2E2E2E2E2E2E2E2E2E2E2E2E2E2E2E2E2E2E2E2E2E2F5F5E2E2E2E2E2E2E2E2E2E2E2F5F5E2E2E2E2E2E2E2E2E2E2E2E2E2E2E2E2E2E2E2E2E2E2DCE2E2F5E2E2E2E2E2
310
E2E2F5E2E2E2E2E2E2E2E2E2E2E2E2E2E2E2E2E2E2E2E2E2E2E2E2E2E2E2E2E2E2E2E2E2E2E2E2E2E2E2E2E2E2E2F5F5E2E2E2E2E2E2E2E2E2E2E2F5F5E2E2E2E2E2E2E2E2E2E2E2E2E2E2E2E2E2E2E2E2E2E2F5E2E2F5E2E2E2E2E2E2E2E2E2E2E2E2E2E2E2E2E2E2E2E2E2E2E2E2E2E2E2E2E2E2E2E2E2E2E2E2E2E2E2E2
310
E2E2E2E2E2E2E2E2E2E2E2E2E2E2E2E2E2E2E2E2E2E2E2E2E2E2E2E2E2E2BEE2E2E2E2E2E2E2E2DCE2E2E2E2E2E2E2E2E2E2E2E2E2E2E2E2E2E2E2E2E2E2E2E2E2E2E2E2E2E2E2E2E2E2E2E2E2E2E2E2E2F5F5E2E2E2E2E2E2E2E2E2E2E2F5F5E2E2E2E2E2E2E2E2E2E2E2E2E2E2E2E2E2E2E2E2E2E2E2E2DCE2E2F5E2E2E2
310
E2E2E2E2F5E2E2E2E2E2E2E2E2E2E2E2E2E2E2E2E2E2E2E2E2E2E2E2E2E2E2E2E2E2E2E2E2E2E2E2E2E2E2E2E2E2F5F5E2E2E2E2E2E2E2E2E2E2E2F5F5E2E2E2E2E2E2E2E2E2E2E2E2E2E2E2E2E2E2E2E2E2E2E2E2F5E2E2F5E2E2E2E2E2E2E2E2E2E2E2E2E2E2E2E2E2E2E2E2E2E2E2E2E2E2E2E2E2E2E2E2E2E2E2E2E2E2
310
E2E2E2E2E2E2E2E2E2E2E2E2E2E2E2E2E2E2E2E2E2E2E2E2E2E2E2E2E2E2E2E2BEE2E2E2E2E2E2E2E2DCE2E2E2E2E2E2E2E2E2E2E2E2E2E2E2E2E2E2E2E2E2E2E2E2E2E2E2E2F5F5F5F5F5F5E2E2E2E2E2E2F5E2E2E2E2E2E2E2E2E2E2E2F5F5E2E2E2E2E2E2E2E2E2E2E2E2E2E2E2E2E2E2E2E2E2E2E2E2E2E2DCE2E2F5E2
310
E2E2E2E2E2E2F5E2E2E2E2E2E2E2E2E2E2E2E2E2E2E2E2E2E2E2E2E2E2E2E2E2E2E2E2F5F5F5F5F5F5E2E2E2E2E2E2F5E2E2E2E2E2E2E2E2E2E2E2E2F5E2E2E2E2E2E2E2E2E2E2E2E2E2E2E2E2E2E2E2E2E2E2E2E2E2E2F5E2E2F5E2E2E2E2E2E2E2E2E2E2E2E2E2E2E2E2E2E2E2E2E2E2E2E2E2E2E2E2E2E2E2E2E2E2E2E2
310
E2E2E2E2E2E2E2E2E2E2E2E2E2E2E2E2E2E2E2E2E2E2E2E2E2E2E2E2E2E2E2E2E2E2BEE2E2E2E2E2E2E2E2DCE2E2E2E2E2E2E2E2E2E2E2E2E2E2E2E2E2E2E2E2E2E2E2E2E2E2F5F5F5E2E2E2E2F5F5E2E2E2F5F5E2E2E2E2E2E2E2E2E2E2E2F5E2E2E2E2E2E2E2E2E2E2E2E2E2E2E2E2E2E2E2E2E2E2E2E2E2E2E2E2DCE2E2
310
F5E2E2E2E2E2E2E2F5E2E2E2E2E2E2E2E2E2E2E2E2E2E2E2E2E2E2E2E2E2E2E2E2E2E2F5F5F5E2E2E2E2F5F5E2E2E2F5F5E2E2E2E2E2E2E2E2E2E2E2F5F5E2E2E2E2E2E2E2E2E2E2E2E2E2E2E2E2E2E2E2E2E2E2E2E2E2E2E2F5E2E2F5E2E2E2E2E2E2E2E2E2E2E2E2E2E2E2E2E2E2E2E2E2E2E2E2E2E2E2E2E2E2E2E2E2E2
310
E2E2E2E2E2E2E2E2E2E2E2E2E2E2E2E2E2E2E2E2E2E2E2E2E2E2E2E2E2E2E2E2E2E2E2E2BEE2E2E2E2E2E2E2E2DCE2E2E2E2E2E2E2E2E2E2E2E2E2E2E2E2E2E2E2E2E2E2E2E2E2F5F5F5E2E2E2E2E2E2F5F5F5F5E2E2E2E2E2E2E2E2E2E2E2F5F5E2E2E2E2E2E2E2E2E2E2E2E2E2E2E2E2E2E2E2E2E2E2E2E2E2E2E2E2E2DC
310
E2E2F5E2E2E2E2E2E2E2F5E2E2E2E2E2E2E2E2E2E2E2E2E2E2E2E2E2E2E2E2E2E2E2E2E2F5F5F5E2E2E2E2E2E2F5F5F5F5E2E2E2E2E2E2E2E2E2E2E2E2F5E2E2E2E2E2E2E2E2E2E2E2E2E2E2E2E2E2E2E2E2E2E2E2E2E2E2E2E2E2F5E2E2F5E2E2E2E2E2E2E2E2E2E2E2E2E2E2E2E2E2E2E2E2E2E2E2E2E2E2E2E2E2E2E2E2
310
E2E2E2E2E2E2E2E2E2E2E2E2E2E2E2E2E2E2E2E2E2E2E2E2E2E2E2E2E2E2E2E2E2E2E2E2E2E2BEE2E2E2E2E2E2E2E2DCE2E2E2E2E2E2E2E2E2E2E2E2E2E2E2E2E2E2E2E2E2E2E2E2E2F5F5E2E2E2E2E2E2E2F5F5E2E2E2E2E2E2E2E2E2E2E2F5F5E2E2E2E2E2E2E2E2E2E2E2E2E2E2E2E2E2E2E2E2E2E2E2E2E2E2E2E2E2E2
310
E2DCE2E2F5E2E2E2E2E2E2E2F5E2E2E2E2E2E2E2E2E2E2E2E2E2E2E2E2E2E2E2E2E2E2E2E2E2F5E2F5E2E2E2E2E2E2F5F5E2E2E2E2E2E2E2E2E2E2E2E2F5F5E2E2E2E2E2E2E2E2E2E2E2E2E2E2E2E2E2E2E2E2E2E2E2E2E2E2E2E2E2E2F5E2E2F5E2E2E2E2E2E2E2E2E2E2E2E2E2E2E2E2E2E2E2E2E2E2E2E2E2E2E2E2E2E2
310
E2E2E2E2E2E2E2E2E2E2E2E2E2E2E2E2E2E2E2E2E2E2E2E2E2E2E2E2E2E2E2E2E2E2E2E2E2E2E2E2BEE2E2E2E2E2E2E2E2DCE2E2E2E2E2E2E2E2E2E2E2E2E2E2E2E2E2E2E2E2E2E2E2E2E2F5F5E2E2E2E2E2F5F5E2E2E2E2E2E2E2E2E2E2E2E2F5E2E2E2E2E2E2E2E2E2E2E2E2E2E2E2E2E2E2E2E2E2E2E2E2E2E2E2E2E2E2
310
E2E2E2DCE2E2F5E2E2E2E2E2E2E2F5E2E2E2E2E2E2E2E2E2E2E2E2E2E2E2E2E2E2E2E2E2E2E2E2E2F5F5F5E2E2E2E2F5F5E2E2E2E2E2E2E2E2E2E2E2E2F5F5E2E2E2E2E2E2E2E2E2E2E2E2E2E2E2E2E2E2E2E2E2E2E2E2E2E2E2E2E2E2E2E2F5E2E2F5E2E2E2E2E2E2E2E2E2E2E2E2E2E2E2E2E2E2E2E2E2E2E2E2E2E2E2E2
310
E2E2E2E2E2E2E2E2E2E2E2E2E2E2E2E2E2E2E2E2E2E2E2E2E2E2E2E2E2E2E2E2E2E2E2E2E2E2E2E2E2E2BEE2E2E2E2E2E2E2E2DCE2E2E2E2E2E2E2E2E2E2E2E2E2E2E2E2E2E2E2E2E2E2E2E2E2F5F5E2E2E2E2F5E2E2E2E2E2E2E2E2E2E2E2E2F5F5E2E2E2E2E2E2E2E2E2E2E2E2E2E2E2E2E2E2E2E2E2E2E2E2E2E2E2E2E2
310
E2E2E2E2E2DCE2E2F5E2E2E2E2E2E2E2F5E2E2E2E2E2E2E2E2E2E2E2E2E2E2E2E2E2E2E2E2E2E2E2E2E2F5F5F5E2E2E2F5E2E2E2E2E2E2E2E2E2E2E2E2E2F5E2E2E2E2E2E2E2E2E2E2E2E2E2E2E2E2E2E2E2E2E2E2E2E2E2E2E2E2E2E2E2E2E2E2F5E2E2F5E2E2E2E2E2E2E2E2E2E2E2E2E2E2E2E2E2E2E2E2E2E2E2E2E2E2
310
E2E2E2E2E2E2E2E2E2E2E2E2E2E2E2E2E2E2E2E2E2E2E2E2E2E2E2E2E2E2E2E2E2E2E2E2E2E2E2E2E2E2E2E2BEE2E2E2E2E2E2E2E2DCE2E2E2E2E2E2E2E2E2E2E2E2E2E2E2E2E2E2E2E2E2E2E2E2E2F5F5F5E2E2F5F5E2E2E2E2E2E2E2E2E2E2F5F5E2E2E2E2E2E2E2E2E2E2E2E2E2E2E2E2E2E2E2E2E2E2E2E2E2E2E2E2E2
310
E2E2E2E2E2E2E2DCE2E2F5E2E2E2E2E2E2E2F5E2E2E2E2E2E2E2E2E2E2E2E2E2E2E2E2E2E2E2E2E2E2E2E2E2F5E2F5E2E2E2F5E2E2E2E2E2E2E2E2E2E2E2F5F5E2E2E2E2E2E2E2E2E2E2E2E2E2E2E2E2E2E2E2E2E2E2E2E2E2E2E2E2E2E2E2E2E2E2E2F5E2E2F5E2E2E2E2E2E2E2E2E2E2E2E2E2E2E2E2E2E2E2E2E2E2E2E2
310
E2E2E2E2E2E2E2E2E2E2E2E2E2E2E2E2E2E2E2E2E2E2E2E2E2E2E2E2E2E2E2E2E2E2E2E2E2E2E2E2E2E2E2E2E2E2BEE2E2E2E2E2E2E2E2DCE2E2E2E2E2E2E2E2E2E2E2E2E2E2E2E2E2E2E2E2E2E2E2E2E2F5E2F5E2E2F5F5E2E2E2E2E2E2E2E2F5F5E2E2E2E2E2E2E2E2E2E2E2E2E2E2E2E2E2E2E2E2E2E2E2E2E2E2E2E2E2
310
E2E2E2E2E2E2E2E2E2DCE2E2F5E2E2E2E2E2E2E2F5E2E2E2E2E2E2E2E2E2E2E2E2E2E2E2E2E2E2E2E2E2E2E2E2E2F5E2F5E2E2E2F5E2E2E2E2E2E2E2E2E2F5F5E2E2E2E2E2E2E2E2E2E2E2E2E2E2E2E2E2E2E2E2E2E2E2E2E2E2E2E2E2E2E2E2E2E2E2E2E2F5E2E2F5E2E2E2E2E2E2E2E2E2E2E2E2E2E2E2E2E2E2E2E2E2E2
310
E2E2E2E2E2E2E2E2E2E2E2E2E2E2E2E2E2E2E2E2E2E2E2E2E2E2E2E2E2E2E2E2E2E2E2E2E2E2E2E2E2E2E2E2E2E2E2E2BEE2E2E2E2E2E2E2E2DCE2E2E2E2E2E2E2E2E2E2E2E2E2E2E2E2E2E2E2E2E2E2E2E2E2F5E2F5E2E2E2F5E2E2E2E2E2E2F5F5E2E2E2E2E2E2E2E2E2E2E2E2E2E2E2E2E2E2E2E2E2E2E2E2E2E2E2E2E2
310
E2E2E2E2E2E2E2E2E2E2E2DCE2E2F5E2E2E2E2E2E2E2F5E2E2E2E2E2E2E2E2E2E2E2E2E2E2E2E2E2E2E2E2E2E2E2E2E2F5E2F5F5E2E2F5E2E2E2E2E2E2E2F5F5E2E2E2E2E2E2E2E2E2E2E2E2E2E2E2E2E2E2E2E2E2E2E2E2E2E2E2E2E2E2E2E2E2E2E2E2E2E2E2F5E2E2F5E2E2E2E2E2E2E2E2E2E2E2E2E2E2E2E2E2E2E2E2
310
E2E2E2E2E2E2E2E2E2E2E2E2E2E2E2E2E2E2E2E2E2E2E2E2E2E2E2E2E2E2E2E2E2E2E2E2E2E2E2E2E2E2E2E2E2E2E2E2E2E2BEE2E2E2E2E2E2E2E2DCE2E2E2E2E2E2E2E2E2E2E2E2E2E2E2E2E2E2E2E2E2E2E2E2E2F5F5F5F5E2E2F5F5E2E2E2E2F5F5F5E2E2E2E2E2E2E2E2E2E2E2E2E2E2E2E2E2E2E2E2E2E2E2E2E2E2E2
310
E2E2E2E2E2E2E2E2E2E2E2E2E2DCE2E2F5E2E2E2E2E2E2E2F5E2E2E2E2E2E2E2E2E2E2E2E2E2E2E2E2E2E2E2E2E2E2E2E2E2E2F5F5F5E2E2F5F5E2E2E2E2E2F5F5E2E2E2E2E2E2E2E2E2E2E2E2E2E2E2E2E2E2E2E2E2E2E2E2E2E2E2E2E2E2E2E2E2E2E2E2E2E2E2E2F5E2E2F5E2E2E2E2E2E2E2E2E2E2E2E2E2E2E2E2E2E2
310
E2E2E2E2E2E2E2E2E2E2E2E2E2E2E2E2E2E2E2E2E2E2E2E2E2E2E2E2E2E2E2E2E2E2E2E2E2E2E2E2E2E2E2E2E2E2E2E2E2E2E2E2BEE2E2E2E2E2E2E2E2DCE2E2E2E2E2E2E2E2E2E2E2E2E2E2E2E2E2E2E2E2E2E2E2E2E2E2F5E2F5E2E2E2F5F5E2F5F5E2E2F5E2E2E2E2E2E2E2E2E2E2E2E2E2E2E2E2E2E2E2E2E2E2E2E2E2
310
E2E2E2E2E2E2E2E2E2E2E2E2E2E2E2DCE2E2F5E2E2E2E2E2E2E2F5E2E2E2E2E2E2E2E2E2E2E2E2E2E2E2E2E2E2E2E2E2E2E2E2E2E2F5E2F5E2E2E2F5F5E2E2F5F5E2F5E2E2E2E2E2E2E2E2E2E2E2E2E2E2E2E2E2E2E2E2E2E2E2E2E2E2E2E2E2E2E2E2E2E2E2E2E2E2E2E2F5E2E2F5E2E2E2E2E2E2E2E2E2E2E2E2E2E2E2E2
310
E2E2E2E2E2E2E2E2E2E2E2E2E2E2E2E2E2E2E2E2E2E2E2E2E2E2E2E2E2E2E2E2E2E2E2E2E2E2E2E2E2E2E2E2E2E2E2E2E2E2E2E2E2E2BEE2E2E2E2E2E2E2E2DCE2E2E2E2E2E2E2E2E2E2E2E2E2E2E2E2E2E2E2E2E2E2E2E2E2E2F5F5F5F5E2E2E2F5F5E2E2E2E2F5E2E2E2E2E2E2E2E2E2E2E2E2E2E2E2E2E2E2E2E2E2E2E2
310
E2E2E2E2E2E2E2E2E2E2E2E2E2E2E2E2E2DCE2E2F5E2E2E2E2E2E2E2F5E2E2E2E2E2E2E2E2E2E2E2E2E2E2E2E2E2E2E2E2E2E2E2E2E2E2F5F5F5F5E2E2E2F5F5F5E2E2E2F5E2E2E2E2E2E2E2E2E2E2E2E2E2E2E2E2E2E2E2E2E2E2E2E2E2E2E2E2E2E2E2E2E2E2E2E2E2E2E2E2F5E2E2F5E2E2E2E2E2E2E2E2E2E2E2E2E2E2
310
E2E2E2E2E2E2E2E2E2E2E2E2E2E2E2E2E2E2E2E2E2E2E2E2E2E2E2E2E2E2E2E2E2E2E2E2E2E2E2E2E2E2E2E2E2E2E2E2E2E2E2E2E2E2E2E2BEE2E2E2E2E2E2E2E2DCE2E2E2E2E2E2E2E2E2E2E2E2E2E2E2E2E2E2E2E2E2E2E2E2E2E2E2F5E2F5F5E2E2E2E2E2E2E2E2F5E2E2E2E2E2E2E2E2E2E2E2E2E2E2E2E2E2E2E2E2E2
310
E2E2E2E2E2E2E2E2E2E2E2E2E2E2E2E2E2E2E2DCE2E2F5E2E2E2E2E2E2E2F5E2E2E2E2E2E2E2E2E2E2E2E2E2E2E2E2E2E2E2E2E2E2E2E2E2E2E2F5F5F5F5E2E2E2E2E2E2E2E2F5E2E2E2E2E2E2E2E2E2E2E2E2E2E2E2E2E2E2E2E2E2E2E2E2E2E2E2E2E2E2E2E2E2E2E2E2E2E2E2E2F5E2E2F5E2E2E2E2E2E2E2E2E2E2E2E2
310
E2E2E2E2E2E2E2E2E2E2E2E2E2E2E2E2E2E2E2E2E2E2E2E2E2E2E2E2E2E2E2E2E2E2E2E2E2E2E2E2E2E2E2E2E2E2E2E2E2E2E2E2E2E2E2E2E2E2BEE2E2E2E2E2E2E2E2DCE2E2E2E2E2E2E2E2E2E2E2E2E2E2E2E2E2E2E2E2E2E2E2E2E2E2E2F5F5E2F5F5E2E2E2E2E2E2E2F5E2E2E2E2E2E2E2E2E2E2E2E2E2E2E2E2E2E2E2
310
E2E2E2E2E2E2E2E2E2E2E2E2E2E2E2E2E2E2E2E2E2DCE2E2F5E2E2E2E2E2E2E2F5E2E2E2E2E2E2E2E2E2E2E2E2E2E2E2E2E2E2E2E2E2E2E2E2E2E2E2E2F5E2F5F5E2E2E2E2E2E2E2F5E2E2E2E2E2E2E2E2E2E2E2E2E2E2E2E2E2E2E2E2E2E2E2E2E2E2E2E2E2E2E2E2E2E2E2E2E2E2E2E2F5E2E2F5E2E2E2E2E2E2E2E2E2E2
310
E2E2E2E2E2E2E2E2E2E2E2E2E2E2E2E2E2E2E2E2E2E2E2E2E2E2E2E2E2E2E2E2E2E2E2E2E2E2E2E2E2E2E2E2E2E2E2E2E2E2E2E2E2E2E2E2E2E2E2E2BEE2E2E2E2E2E2E2E2DCE2E2E2E2E2E2E2E2E2E2E2E2E2E2E2E2E2E2E2E2E2E2E2E2E2E2E2E2F5F5E2F5F5E2E2E2E2E2F5F5E2E2E2E2E2E2E2E2E2E2E2E2E2E2E2E2E2
310
E2E2E2E2E2E2E2E2E2E2E2E2E2E2E2E2E2E2E2E2E2E2E2DCE2E2F5E2E2E2E2E2E2E2F5E2E2E2E2E2E2E2E2E2E2E2E2E2E2E2E2E2E2E2E2E2E2E2E2E2E2E2E2F5F5E2F5F5E2E2E2E2E2F5F5E2E2E2E2E2E2E2E2E2E2E2E2E2E2E2E2E2E2E2E2E2E2E2E2E2E2E2E2E2E2E2E2E2E2E2E2E2E2E2E2F5E2E2F5E2E2E2E2E2E2E2E2
310
E2E2E2E2E2E2E2E2E2E2E2E2E2E2E2E2E2E2E2E2E2E2E2E2E2E2E2E2E2E2E2E2E2E2E2E2E2E2E2E2E2E2E2E2E2E2E2E2E2E2E2E2E2E2E2E2E2E2E2E2E2E2BEE2E2E2E2E2E2E2E2DCE2E2E2E2E2E2E2E2E2E2E2E2E2E2E2E2E2E2E2E2E2E2E2E2E2E2E2E2E2F5F5E2F5F5F5E2E2F5F5E2E2E2E2E2E2E2E2E2E2E2E2E2E2E2E2
310
E2E2E2E2E2E2E2E2E2E2E2E2E2E2E2E2E2E2E2E2E2E2E2E2E2DCE2E2F5E2E2E2E2E2E2E2F5E2E2E2E2E2E2E2E2E2E2E2E2E2E2E2E2E2E2E2E2E2E2E2E2E2E2E2E2E2F5F5E2F5F5F5E2E2F5F5E2E2E2E2E2E2E2E2E2E2E2E2E2E2E2E2E2E2E2E2E2E2E2E2E2E2E2E2E2E2E2E2E2E2E2E2E2E2E2E2E2F5E2E2F5E2E2E2E2E2E2
310
E2E2E2E2E2E2E2E2E2E2E2E2E2E2E2E2E2E2E2E2E2E2E2E2E2E2E2E2E2E2E2E2E2E2E2E2E2E2E2E2E2E2E2E2E2E2E2E2E2E2E2E2E2E2E2E2E2E2E2E2E2E2E2E2BEE2E2E2E2E2E2E2E2DCE2E2E2E2E2E2E2E2E2E2E2E2E2E2E2E2E2E2E2E2E2E2E2E2E2E2E2E2E2E2F5F5F5F5F5F5F5F5E2E2E2E2E2E2E2E2E2E2E2E2E2E2E2
310
E2E2E2E2E2E2E2E2E2E2E2E2E2E2E2E2E2E2E2E2E2E2E2E2E2E2E2DCE2E2F5E2E2E2E2E2E2E2F5E2E2E2E2E2E2E2E2E2E2E2E2E2E2E2E2E2E2E2E2E2E2E2E2E2E2E2E2E2E2E2F5F5E2F5F5F5F5E2E2E2E2E2E2E2E2E2E2E2E2E2E2E2E2E2E2E2E2E2E2E2E2E2E2E2E2E2E2E2E2E2E2E2E2E2E2E2E2E2E2F5E2E2F5E2E2E2E2
310
E2E2E2E2E2E2E2E2E2E2E2E2E2E2E2E2E2E2E2E2E2E2E2E2E2E2E2E2E2E2E2E2E2E2E2E2E2E2E2E2E2E2E2E2E2E2E2E2E2E2E2E2E2E2E2E2E2E2E2E2E2E2E2E2E2E2BEE2E2E2E2E2E2E2E2DCE2E2E2E2E2E2E2E2E2E2E2E2E2E2E2E2E2E2E2E2E2E2E2E2E2E2E2E2E2E2E2E2F5F5F5F5E2E2E2E2E2E2E2E2E2E2E2E2E2E2E2
310
E2E2E2E2E2E2E2E2E2E2E2E2E2E2E2E2E2E2E2E2E2E2E2E2E2E2E2E2E2DCE2E2F5E2E2E2E2E2E2E2F5E2E2E2E2E2E2E2E2E2E2E2E2E2E2E2E2E2E2E2E2E2E2E2E2E2E2E2E2E2E2E2E2F5F5F5F5F5E2E2E2E2E2E2E2E2E2E2E2E2E2E2E2E2E2E2E2E2E2E2E2E2E2E2E2E2E2E2E2E2E2E2E2E2E2E2E2E2E2E2E2F5E2E2F5E2E2
310
E2E2E2E2E2E2E2E2E2E2E2E2E2E2E2E2E2E2E2E2E2E2E2E2E2E2E2E2E2E2E2E2E2E2E2E2E2E2E2E2E2E2E2E2E2E2E2E2E2E2E2E2E2E2E2E2E2E2E2E2E2E2E2E2E2E2E2E2BEE2E2E2E2E2E2E2E2DCE2E2E2E2E2E2E2E2E2E2E2E2E2E2E2E2E2E2E2E2E2E2E2E2E2E2E2E2E2E2E2E2E2E2E2E2E2E2E2E2E2E2E2E2E2E2E2E2E2
310
E2E2E2E2E2E2E2E2E2E2E2E2E2E2E2E2E2E2E2E2E2E2E2E2E2E2E2E2E2E2E2DCE2E2F5E2E2E2E2E2E2E2F5E2E2E2E2E2E2E2E2E2E2E2E2E2E2E2E2E2E2E2E2E2E2E2E2E2E2E2E2E2E2E2E2E2E2E2E2E2E2E2E2E2E2E2E2E2E2E2E2E2E2E2E2E2E2E2E2E2E2E2E2E2E2E2E2E2E2E2E2E2E2E2E2E2E2E2E2E2E2E2E2F5E2E2F5
310
E2E2E2E2E2E2E2E2E2E2E2E2E2E2E2E2E2E2E2E2E2E2E2E2E2E2E2E2E2E2E2E2E2E2E2E2E2E2E2E2E2E2E2E2E2E2E2E2E2E2E2E2E2E2E2E2E2E2E2E2E2E2E2E2E2E2E2E2E2E2BEE2E2E2E2E2E2E2E2DCE2E2E2E2E2E2E2E2E2E2E2E2E2E2E2E2E2E2E2E2E2E2E2E2E2E2E2E2E2E2E2E2E2E2E2E2E2E2E2E2E2E2E2E2E2E2E2
310
E2E2E2E2E2E2E2E2E2E2E2E2E2E2E2E2E2E2E2E2E2E2E2E2E2E2E2E2E2E2E2E2E2DCE2E2F5E2E2E2E2E2E2E2F5E2E2E2E2E2E2E2E2E2E2E2E2E2E2E2E2E2E2E2E2E2E2E2E2E2E2E2E2E2E2E2E2E2E2E2E2E2E2E2E2E2E2E2E2E2E2E2E2E2E2E2E2E2E2E2E2E2E2E2E2E2E2E2E2E2E2E2E2E2E2E2E2E2E2E2E2E2E2E2E2F5E2
310
E2F5E2E2E2E2E2E2E2E2E2E2E2E2E2E2E2E2E2E2E2E2E2E2E2E2E2E2E2E2E2E2E2E2E2E2E2E2E2E2E2E2E2E2E2E2E2E2E2E2E2E2E2E2E2E2E2E2E2E2E2E2E2E2E2E2E2E2E2E2E2E2BEE2E2E2E2E2E2E2E2DCE2E2E2E2E2E2E2E2E22DE2E2E2E2E2E2E2E2E2E22DE2E2E2E2E2E2E2E2E2E2E2E2E2E2E2E2E2E2E2E2E2E2E2E2
310
E2E2E2E2E2E2E2E2E2E2E2E2E2E2E2E2E2E2E2E2E2E2E2E2E2E2E2E2E2E2E2E2E2E2E2DCE2E2F5E2E2E2E2E2E2E2F5E2E2E2E2E2E2E2E2E2E22DE2E2E2E2E2E2E2E2E22DE2E2E2E2E2E2E2E2E2E2E2E2E2E2E2E2E2E2E2E2E2E2E2E2E2E2E2E2E2E2E2E2E2E2E2E2E2E2E2E2E2E2E2E2E2E2E2E2E2E2E2E2E2E2E2E2E2E2E2
310
F5E2E2F5E2E2E2E2E2E2E2E2E2E2E2E2E2E2E2E2E2E2E2E2E2E2E2E2E2E2E2E2E2E2E2E2E2E2E2E2E2E2E2E2E2E2E2E2E2E2E2E2E2E2E2E2E2E2E2E2E2E2E2E2E2E2E2E2E2E2E2E2E2E2BEE2E2E2E2E2E2E2E2DCE2E2E2E2E2E2E2E2E22D2D2D2D2DBEBEBE2D2D2DF5E2E2E2E2E2E2E2E2E2E2E2E2E2E2E2E2E2E2E2E2E2E2
310
E2E2E2E2E2E2E2E2E2E2E2E2E2E2E2E2E2E2E2E2E2E2E2E2E2E2E2E2E2E2E2E2E2E2E2E2E2DCE2E2F5E2E2E2E2E2E2E2F5E2E2E2E2E2E2E2E2E2E22D2D2D2DBEBEBE2D2D2DF5E2E2E2E2E2E2E2E2E2E2E2E2E2E2E2E2E2E2E2E2E2E2E2E2E2E2E2E2E2E2E2E2E2E2E2E2E2E2E2E2E2E2E2E2E2E2E2E2E2E2E2E2E2E2E2E2E2
310
E2E2F5E2E2F5E2E2E2E2E2E2E2E2E2E2E2E2E2E2E2E2E2E2E2E2E2E2E2E2E2E2E2E2E2E2E2E2E2E2E2E2E2E2E2E2E2E2E2E2E2E2E2E2E2E2E2E2E2E2E2E2E2E2E2E2E2E2E2E2E2E2E2E2E2E2BEE2E2E2E2E2E2E2E2DCE2E2E2E2E2E2E2E2E22DE2E2E2E2BEBEBEE2E2E22DE2E2E2E2E2E2E2E2E2E2E2E2E2E2E2E2E2E2E2E2
310
E2E2E2E2E2E2E2E2E2E2E2E2E2E2E2E2E2E2E2E2E2E2E2E2E2E2E2E2E2E2E2E2E2E2E2E2E2E2E2DCE2E2F5E2E2E2E2E2E2E2F5E2E2E2E2E2E2E2E2E2E22DE2E2E2BEBEBEE2E2E22DE2E2E2E2E2E2E2E2E2E2E2E2E2E2E2E2E2E2E2E2E2E2E2E2E2E2E2E2E2E2E2E2E2E2E2E2E2E2E2E2E2E2E2E2E2E2E2E2E2E2E2E2E2E2E2
310
E2E2E2E2F5E2E2F5E2E2E2E2E2E2E2E2E2E2E2E2E2E2E2E2E2E2E2E2E2E2E2E2E2E2E2E2E2E2E2E2E2E2E2E2E2E2E2E2E2E2E2E2E2E2E2E2E2E2E2E2E2E2E2E2E2E2E2E2E2E2E2E2E2E2E2E2E2E2BEE2E2E2E2E2E2E2E2DCE2E2E2E2E2E2E2E2E22DE2E2E2E2E2E2E2E2E2E22DE2E2E2E2E2E2E2E2E2E2F5F5F5E2E2E2E2E2
310
E2E2E2E2E2E2E2E2E2E2E2E2E2E2E2E2E2E2E2E2E2E2E2E2E2E2E2E2E2E2E2E2E2E2E2E2E2E2E2E2E2DCE2E2F5E2E2E2E2E2E2E2F5E2E2E2E2E2E2E2E2E2E22DE2E2E2E2E2E2E2E2E22DE2E2E2E2E2E2E2E2E2E2F5F5F5E2E2E2E2E2E2E2E2E2E2E2E2E2E2E2E2E2E2E2E2E2E2E2E2E2E2E2E2E2E2E2E2E2E2E2E2E2E2E2E2
310
E2E2E2E2E2E2F5E2E2F5E2E2E2E2E2E2E2E2E2E2E2E2E2E2E2E2E2E2E2E2E2E2E2E2E2E2E2E2E2E2E2E2E2E2E2E2E2E2E2E2E2E2E2E2E2E2E2E2E2E2E2E2E2E2E2E2E2E2E2E2E2E2E2E2E2E2E2E2E2E2BEE2E2E2E2E2E2E2E2DCE2E2E2E2E2E2E2E2E22DE2F5F5F5F5F5F5F5F5E22DE2E2E2E2E2E2E2E2E2E2F5E2F5E2E2E2
310
E2E2E2E2E2E2E2E2E2E2E2E2E2E2E2E2E2E2E2E2E2E2E2E2E2E2E2E2E2E2E2E2E2E2E2E2E2E2E2E2E2E2E2DCE2E2F5E2E2E2E2E2E2E2F5E2E2E2E2E2E2E2E2E2E22DE2F5F5F5F5F5F5F5E22DE2E2E2E2E2E2E2E2E2E2F5E2F5E2E2E2E2E2E2E2E2E2E2E2E2E2E2E2E2E2E2E2E2E2E2E2E2E2E2E2E2E2E2E2E2E2E2E2E2E2E2
310
E2E2E2E2E2E2E2E2F5E2E2F5E2E2E2E2E2E2E2E2E2E2E2E2E2E2E2E2E2E2E2E2E2E2E2E2E2E2E2E2E2E2E2E2E2E2E2E2E2E2E2E2E2E2E2E2E2E2E2E2E2E2E2E2E2E2E2E2E2E2E2E2E2E2E2E2E2E2E2E2E2E2BEE2E2E2E2E2E2E2E2DCE2E2E2E2E2E2E2E2E22DF5F5E2E2E2E2E2E2F5F52DE2E2E2E2E2E2E2E2E2E2F5E2F5E2
310
E2E2E2E2E2E2E2E2E2E2E2E2E2E2E2E2E2E2E2E2E2E2E2E2E2E2E2E2E2E2E2E2E2E2E2E2E2E2E2E2E2E2E2E2E2DCE2E2F5E2E2E2E2E2E2E2F5E2E2E2E2E2E2E2E2E2E22DF5E2E2E2E2E2E2E2F52DE2E2E2E2E2E2E2E2E2E2F5E2F5E2E2E2E2E2E2E2E2E2E2E2E2E2E2E2E2E2E2E2E2E2E2E2E2E2E2E2E2E2E2E2E2E2E2E2E2
310
E2E2E2E2E2E2E2E2E2E2F5E2E2F5E2E2E2E2E2E2E2E2E2E2E2E2E2E2E2E2E2E2E2E2E2E2E2E2E2E2E2E2E2E2E2E2E2E2E2E2E2E2E2E2E2E2E2E2E2E2E2E2E2E2E2E2E2E2E2E2E2E2E2E2E2E2E2E2E2E2E2E2E2E2BEE2E2E2E2E2E2E2E2DCE2E2E2E2E2E2E2E2F52DE2E2E2E2E2E2E2E2E2E22DF5E2E2E2E2E2E2E2E2E2F5E2
310
F5E2E2E2E2E2E2E2E2E2E2E2E2E2E2E2E2E2E2E2E2E2E2E2E2E2E2E2E2E2E2E2E2E2E2E2E2E2E2E2E2E2E2E2E2E2E2DCE2E2F5E2E2E2E2E2E2E2F5E2E2E2E2E2E2E2E2E2F52DE2E2E2E2E2E2E2E2E22DF5E2E2E2E2E2E2E2E2E2F5E2F5E2E2E2E2E2E2E2E2E2E2E2E2E2E2E2E2E2E2E2E2E2E2E2E2E2E2E2E2E2E2E2E2E2E2
310
E2E2E2E2E2E2E2E2E2E2E2E2F5E2E2F5E2E2E2E2E2E2E2E2E2E2E2E2E2E2E2E2E2E2E2E2E2E2E2E2E2E2E2E2E2E2E2E2E2E2E2E2E2E2E2E2E2E2E2E2E2E2E2E2E2E2E2E2E2E2E2E2E2E2E2E2E2E2E2E2E2E2E2E2E2E2BEE2E2E2E2E2E2E2E2DCE2E2E2E2E2E2E2E2F52DE2E2E2E2E2E2E2E2E2E22DF5F5E2E2E2E2E2E2E2E2
310
F5E2F5E2E2E2E2E2E2E2E2E2E2E2E2E2E2E2E2E2E2E2E2E2E2E2E2E2E2E2E2E2E2E2E2E2E2E2E2E2E2E2E2E2E2E2E2E2E2DCE2E2F5E2E2E2E2E2E2E2F5E2E2E2E2E2E2E2E2F5E22DE2E2E2E2E2E2E2E2E22DE2F5E2E2E2E2E2E2E2E2F5E2F5E2E2E2E2E2E2E2E2E2E2E2E2E2E2E2E2E2E2E2E2E2E2E2E2E2E2E2E2E2E2E2E2
310
E2E2E2E2E2E2E2E2E2E2E2E2E2E2F5E2E2F5E2E2E2E2E2E2E2E2E2E2E2E2E2E2E2E2E2E2E2E2E2E2E2E2E2E2E2E2E2E2E2E2E2E2E2E2E2E2E2E2E2E2E2E2E2E2E2E2E2E2E2E2E2E2E2E2E2E2E2E2E2E2E2E2E2E2E2E2E2E2BEE2E2E2E2E2E2E2E2DCE2E2E2E2E2E2E2F5E22DE2E2E2E2E2E2E2E2E2E22DE2F5E2E2E2E2E2E2
310
E2E2F5E2F5E2E2E2E2E2E2E2E2E2E2E2E2E2E2E2E2E2E2E2E2E2E2E2E2E2E2E2E2E2E2E2E2E2E2E2E2E2E2E2E2E2E2E2E2E2E2DCE2E2F5E2E2E2E2E2E2E2F5E2E2E2E2E2E2E2E2F5E22DE2E2E2E2E2E2E2E2E22DE2F5E2E2E2E2E2E2E2E2F5E2F5E2E2E2E2E2E2E2E2E2E2E2E2E2E2E2E2E2E2E2E2E2E2E2E2E2E2E2E2E2E2
310
E2E2E2E2E2E2E2E2E2E2E2E2E2E2E2E2F5E2E2F5E2E2E2E2E2E2E2E2E2E2E2E2E2E2E2E2E2E2E2E2E2E2E2E2E2E2E2E2E2E2E2E2E2E2E2E2E2E2E2E2E2E2E2E2E2E2E2E2E2E2E2E2E2E2E2E2E2E2E2E2E2E2E2E2E2E2E2E2E2E2BEE2E2E2E2E2E2E2E2DCE2E2E2E2E2E2E2F5E22DE2E2E2E2F5F5F5E2E2E22DE2F5F5E2E22D
310
E2E2E2E2F5E2F5F5F5F5F5F5F5F5F5F5F5F5F5F5F5F5F5F5F5F5F5F5F5F5F5F5F5F5F5F5F5F5F5F5F5F5F5F5F5F5F5F5E2E2E2E2E2DCE2E2F5E2E2E2E2E2E2E2F5E2E2E2E2E2E2E2F5E2E22DE2E2E2F5F5F5E2E2E22DE2E2F5E2E22DE2E2E2E2F5E2F5F5F5F5F5F5F5F5F5F5F5F5F5F5F5F5F5F5F5F5F5F5F5F5F5F5F5F5F5
310
F5F5F5F5F5F5F5F5F5F5F5F5F5E2E2E2E2E2F5E2E2F5E2E2E2E2E2E2E2E2E2E2E2E2E2E2E2E2E2E2E2E2E2E2E2E2E2E2E2E2E2E2E2E2E2E2E2E2E2E2E2E2E2E2E2E2E2E2E2E2E2E2E2E2E2E2E2E2E2E2E2E2E2E2E2E2E2E2E2E2E2E2BEE2E2E2E2E2E2E2E2DCE2E2E2E2E2E2F5F5E2F5E2E2F5F5F5F5F5F5E2E2F5E2E2F5E2
310
E22DE2E2E2E2F5E2F5E2E2E2E2E2E2E2E2E2E2E2E2E2E2E2E2E2E2E2E2E2E2E2E2E2E2E2E2E2E2E2E2E2E2E2E2F5F5E2E2F5F5E2E2E2E2DCE2E2F5E2E2E2E2E2E2E2F5E2E2E2E2E2E2E2F5E2E2F5E2E2F5F5F5F5F5E2E2F5E2E2F5E2E22D2DE2E2E2F5E2F5E2E2E2E2E2E2E2E2E2E2E2E2E2E2E2E2E2E2E2E2E2E2E2E2E2E2
310
E2E2E2E2E2E2E2E2E2E2F5F5F5E2F5F5E2E2E2E2F5E2E2F5E2E2E2E2E2E2E2E2E2E2E2E2E2E2E2E2E2E2E2E2E2E2E2E2E2E2E2E2E2E2E2E2E2E2E2E2E2E2E2E2E2E2E2E2E2E2E2E2E2E2E2E2E2E2E2E2E2E2E2E2E2E2E2E2E2E2E2E2E2E2BEE2E2E2E2E2E2E2E2DCE2E2E2E2E2E2F5E2E2BEF5E2F5F5F5F5E2F5E2F5F52D2D
310
2D2D2DF52DE2E2E2F5E2F5E2E2E2E2E2E2E2E2E2E2E2E2E2E2E2E2E2E2E2E2E2E2E2E2E2E2E2E2E2E2E2E2E2E2E2E2F5F5E2E2F5F5E2E2E2E2DCE2E2F5E2E2E2E2E2E2E2F5E2E2E2E2E2E2E2F5E2F5BEF5F5F5F5F5F5F5F5F5F52D2D2D2D2DF52DE2E2E2F5E2F5E2E2E2E2E2E2E2E2E2E2E2E2E2E2E2E2E2E2E2E2E2E2E2E2
310
E2E2E2E2E2E2E2E2E2E2E2E2F5F5F5E2F5F5E2E2E2E2F5E2E2F5E2E2E2E2E2E2E2E2E2E2E2E2E2E2E2E2E2E2E2E2E2E2E2E2E2E2E2E2E2E2E2E2E2E2E2E2E2E2E2E2E2E2E2E2E2E2E2E2E2E2E2E2E2E2E2E2E2E2E2E2E2E2E2E2E2E2E2E2E2E2BEE2E2E2E2E2E2E2E2DCE2E2E2E2E2E2F5E2BEBEBEBEF5E2F5F5E2F5BEBEBE
310
BEBEF5E2E22DE2E2E2BEBEBEBEBEBEBEBEBEBEBEBEBEBEBEBEBEBEBEBEBEBEBEBEBEBEBEBEBEBEBEBEBEBEBEBEBEBEBEBEBEF5BEBEF5F5E2E2E2E2DCE2E2F5E2E2E2E2E2E2E2F5E2E2E2E2E2E2E2F5BEBEBEBEBEF5F5E2F5F5BEBEBEBEBEF5E2E22DE2E2E2BEBEBEBEBEBEBEBEBEBEBEBEBEBEBEBEBEBEBEBEBEBEBEBEBEBE
310
BEBEBEBEBEBEBEBEBEBEBEBEBEBEBEBEF5BEF5F5E2E2E2E2F5E2E2F5E2E2E2E2E2E2E2E2E2E2E2E2E2E2E2E2E2E2E2E2E2E2E2E2E2E2E2E2E2E2E2E2E2E2E2E2E2E2E2E2E2E2E2E2E2E2E2E2E2E2E2E2E2E2E2E2E2E2E2E2E2E2E2E2E2E2E2E2E2E2BEE2E2E2E2E2E2E2E2DCE2E2E2E2E2E22DE2E2BEF5E2F5F5E2F5E2F5E2
310
F5F52D2D2D2D2D2D2DE2E2E2F5E2F5E2E2E2E2E2E2E2E2E2E2E2E2E2E2E2E2E2E2E2E2E2E2E2E2E2E2E2E2E2E2E2E2E2E2E2E2F5F5E2E2F5F5E2E2E2E2DCE2E2F5E2E2E2E2E2E2E2F5E2E2E2E2E2E2E22DE2F5BEF5F5F5E2F5E2F5F5F5F52D2D2D2D2D2D2DE2E2E2F5E2F5E2E2E2E2E2E2E2E2E2E2E2E2E2E2E2E2E2E2E2E2
310
E2E2E2E2E2E2E2E2E2E2E2E2E2E2E2E2F5F5F5E2F5F5E2E2E2E2F5E2E2F5E2E2E2E2E2E2E2E2E2E2E2E2E2E2E2E2E2E2E2E2E2E2E2E2E2E2E2E2E2E2E2E2E2E2E2E2E2E2E2E2E2E2E2E2E2E2E2E2E2E2E2E2E2E2E2E2E2E2E2E2E2E2E2E2E2E2E2E2E2E2BEE2E2E2E2E2E2E2E2DCE2E2E2E2E2E22DF5E2BEE2E2E2F5F5F5F5
310
F5E2E2BEE2E22DE2BE2DE2E2E2E2F5E2F5E2E2E2E2E2E2E2E2E2E2E2E2E2E2E2E2E2E2E2E2E2E2E2E2E2E2E2E2E2E2E2E2E2E2E2E2F5F5E2E2F5F5E2E2E2E2DCE2E2F5E2E2E2E2E2E2E2F5E2E2E2E2E2E2E22DE2E2BEE2E2F5F5F5F5F5E2E2BEE2E22DE2BE2D2DE2E2E2F5E2F5E2E2E2E2E2E2E2E2E2E2E2E2E2E2E2E2E2E2
310
E2E2E2E2E2E2E2E2E2E2E2E2E2E2E2E2E2E2F5F5F5E2F5F5E2E2E2E2F5E2E2F5E2E2E2E2E2E2E2E2E2E2E2E2E2E2E2E2E2E2E2E2E2E2E2E2E2E2E2E2E2E2E2E2E2E2E2E2E2E2E2E2E2E2E2E2E2E2E2E2E2E2E2E2E2E2E2E2E2E2E2E2E2E2E2E2E2E2E2E2E2E2BEE2E2E2E2E2E2E2E2DCE2E2E2E2E2E22DF5E2E2E2E2E2E2F5
310
F5E2E2E2E2E2E2F52DE2BEBEE2E2E2E2F5E2F5F5F5F5F5F5F5F5F5F5F5F5F5F5F5F5F5F5F5F5F5F5F5F5F5F5F5F5F5F5F5F5F5F5F5F5F5F5F5F5F5F5E2E2E2E2E2DCE2E2F5E2E2E2E2E2E2E2F5E2E2E2E2E2E2E22DE2E2E2E2E2E2F5F5E2E2E2E2E2E2E22DE2BEBEE2E2E2E2F5E2F5F5F5F5F5F5F5F5F5F5F5F5F5F5F5F5F5
310
F5F5F5F5F5F5F5F5F5F5F5F5F5F5F5F5F5F5F5F5F5F5F5F5F5E2E2E2E2E2F5E2E2F5E2E2E2E2E2E2E2E2E2E2E2E2E2E2E2E2E2E2E2E2E2E2E2E2E2E2E2E2E2E2E2E2E2E2E2E2E2E2E2E2E2E2E2E2E2E2E2E2E2E2E2E2E2E2E2E2E2E2E2E2E2E2E2E2E2E2E2E2E2E2BEE2E2E2E2E2E2E2E2DCE2E2E2E2E2E22DF5E2E2E2E2E2
310
E2E2E2E2E2E2E2E2E2F52DE2BEBEE2E2E2E2F5E2F5E2E2E2E2E2E2E2E2E2E2E2E2E2E2E2E2E2E2E2E2E2E2E2E2E2E2E2E2E2E2E2E2E2E2E2E2E2E2E2E2E2E2E2E2E2E2DCE2E2F5E2E2E2E2E2E2E2F5E2E2E2E2E2E2E22DF5E2E2E2E2E2E2E2E2E2E2E2E2E2F52DE2BEBEE2E2E2E2F5E2F5E2E2E2E2E2E2E2E2E2E2E2E2E2E2
310
E2E2E2E2E2E2E2E2E2E2E2E2E2E2E2E2E2E2E2E2E2E2E2E2E2E2E2E2E2E2E2E2F5E2E2F5E2E2E2E2E2E2E2E2E2E2E2E2E2E2E2E2E2E2E2E2E2E2E2E2E2E2E2E2E2E2E2E2E2E2E2E2E2E2E2E2E2E2E2E2E2E2E2E2E2E2E2E2E2E2E2E2E2E2E2E2E2E2E2E2E2E2E2E2E2E2BEE2E2E2E2E2E2E2E2DCE2E2E2E2E2E22DE2F5E2E2
310
E2E2E2E2E2E2E2E2E2E2F5F52DE2E2E2E2E2E2E2F5E2F5E2E2E2E2E2E2E2E2E2E2E2E2E2E2E2E2E2E2E2E2E2E2E2E2E2E2E2E2E2E2E2E2E2E2E2E2E2E2E2E2E2E2E2E2E2E2DCE2E2F5E2E2E2E2E2E2E2F5E2E2E2E2E2E2E22DF5F5E2E2E2E2E2E2E2E2E2E2E2F5F52DE2E2E2E2E2E2E2F5E2F5E2E2E2E2E2E2E2E2E2E2E2E2
310
E2E2E2E2E2E2E2E2E2E2E2E2E2E2E2E2E2E2E2E2E2E2E2E2E2E2E2E2E2E2E2E2E2E2F5E2E2F5E2E2E2E2E2E2E2E2E2E2E2E2E2E2E2E2E2E2E2E2E2E2E2E2E2E2E2E2E2E2E2E2E2E2E2E2E2E2E2E2E2E2E2E2E2E2E2E2E2E2E2E2E2E2E2E2E2E2E2E2E2E2E2E2E2E2E2E2E2E2BEE2E2E2E2E2E2E2E2DCE2E2E2E2E2E22DE2E2
310
F5F5E2E2E2E2E2E2E2E2E2F5F5E22DE2E2E2E2E2E2E2F5E2F5E2E2E2E2E2E2E2E2E2E2E2E2E2E2E2E2E2E2E2E2E2E2E2E2E2E2E2E2E2E2E2E2E2E2E2E2E2E2E2E2E2E2E2E2E2E2DCE2E2F5E2E2E2E2E2E2E2F5E2E2E2E2E2E2E22DE2F5E2E2E2E2E2E2E2E2E2E2E2F5E22DE2E2E2E2E2E2E2F5E2F5E2E2E2E2E2E2E2E2E2E2
310
E2E2E2E2E2E2E2E2E2E2E2E2E2E2E2E2E2E2E2E2E2E2E2E2E2E2E2E2E2E2E2E2E2E2E2E2F5E2E2F5E2E2E2E2E2E2E2E2E2E2E2E2E2E2E2E2E2E2E2E2E2E2E2E2E2E2E2E2E2E2E2E2E2E2E2E2E2E2E2E2E2E2E2E2E2E2E2E2E2E2E2E2E2E2E2E2E2E2E2E2E2E2E2E2E2E2E2E2E2E2BEE2E2E2E2E2E2E2E2DCE2E2E2E2E2E22D
310
E2E2E2F5F5E2E2E2E2E2E2F5F5F5E2E22DE2E2E2E2E2E2E2F5E2F5E2E2E2E2E2E2E2E2E2E2E2E2E2E2E2E2E2E2E2E2E2E2E2E2E2E2E2E2E2E2E2E2E2E2E2E2E2E2E2E2E2E2E2E2E2E2DCE2E2F5E2E2E2E2E2E2E2F5E2E2E2E2E2E2E22DE2E2F5F5F5E2E2E2E2E2F5F5F5E2E22DE2E2E2E2E2E2E2F5E2F5E2E2E2E2E2E2E2E2
310
E2E2E2E2E2E2E2E2E2E2E2E2E2E2E2E2E2E2E2E2E2E2E2E2E2E2E2E2E2E2E2E2E2E2E2E2E2E2F5E2E2F5E2E2E2E2E2E2E2E2E2E2E2E2E2E2E2E2E2E2E2E2E2E2E2E2E2E2E2E2E2E2E2E2E2E2E2E2E2E2E2E2E2E2E2E2E2E2E2E2E2E2E2E2E2E2E2E2E2E2E2E2E2E2E2E2E2E2E2E2E2E2BEE2E2E2E2E2E2E2E2DCE2E2E2E2E2
310
E22DE2E2E2E2F5F5F5F5F5F5F5F5E2E2E2E22DE2E2E2E2E2E2E2F5E2F5E2E2E2E2E2E2E2E2E2E2E2E2E2E2E2E2E2E2E2E2E2E2E2E2E2E2E2E2E2E2E2E2E2E2E2E2E2E2E2E2E2E2E2E2E2E2DCE2E2F5E2E2E2E2E2E2E2F5E2E2E2E2E2E2E22DE2E2E2E2F5F5F5F5F5F5F5E2E2E2E22DE2E2E2E2E2E2E2F5E2F5E2E2E2E2E2E2
310
E2E2E2E2E2E2E2E2E2E2E2E2E2E2E2E2E2E2E2E2E2E2E2E2E2E2E2E2E2E2E2E2E2E2E2E2E2E2E2E2F5E2E2F5E2E2E2E2E2E2E2E2E2E2E2E2E2E2E2E2E2E2E2E2E2E2E2E2E2E2E2E2E2E2E2E2E2E2E2E2E2E2E2E2E2E2E2E2E2E2E2E2E2E2E2E2E2E2E2E2E2E2E2E2E2E2E2E2E2E2E2E2E2E2BEE2E2E2E2E2E2E2E2DCE2E2E2
310
E2E2E22D2DE2E2E2E2E2E2E2E2E2E2E2E2E2E22D2DE2E2E2E2E2E2E2F5F5F5E2E2E2E2E2E2E2E2E2E2E2E2E2E2E2E2E2E2E2E2E2E2E2E2E2E2E2E2E2E2E2E2E2E2E2E2E2E2E2E2E2E2E2E2E2E2DCE2E2F5E2E2E2E2E2E2E2F5E2E2E2E2E2E2E22D2DE2E2E2E2E2E2E2E2E2E2E2E2E22D2DE2E2E2E2E2E2E2F5F5F5E2E2E2E2
310
E2E2E2E2E2E2E2E2E2E2E2E2E2E2E2E2E2E2E2E2E2E2E2E2E2E2E2E2E2E2E2E2E2E2E2E2E2E2E2E2E2E2F5E2E2F5E2E2E2E2E2E2E2E2E2E2E2E2E2E2E2E2E2E2E2E2E2E2E2E2E2E2E2E2E2E2E2E2E2E2E2E2E2E2E2E2E2E2E2E2E2E2E2E2E2E2E2E2E2E2E2E2E2E2E2E2E2E2E2E2E2E2E2E2E2E2BEE2E2E2E2E2E2E2E2DCE2
310
E2E2E2E2E22D2D2D2D2D2D2D2DBEBEBE2D2D2D2D2D2DF5E2E2E2E2E2E2E2E2E2E2E2E2E2E2E2E2E2E2E2E2E2E2E2E2E2E2E2E2E2E2E2E2E2E2E2E2E2E2E2E2E2E2E2E2E2E2E2E2E2E2E2E2E2E2E2E2DCE2E2F5E2E2E2E2E2E2E2F5E2E2E2E2E2E2E22D2D2D2D2D2D2DBEBEBE2D2D2D2D2D2DF5E2E2E2E2E2E2E2E2E2E2E2E2
310
E2E2E2E2E2E2E2E2E2E2E2E2E2E2E2E2E2E2E2E2E2E2E2E2E2E2E2E2E2E2E2E2E2E2E2E2E2E2E2E2E2E2E2E2F5E2E2F5E2E2E2E2E2E2E2E2E2E2E2E2E2E2E2E2E2E2E2E2E2E2E2E2E2E2E2E2E2E2E2E2E2E2E2E2E2E2E2E2E2E2E2E2E2E2E2E2E2E2E2E2E2E2E2E2E2E2E2E2E2E2E2E2E2E2E2E2E2E2BEE2E2E2E2E2E2E2E2
310
DCE2E2E2E2E2E2E2E2E2E2E2E2E2E2BEBEBEE2E2E2E2E2E2E2E2E2E2E2E2E2E2E2E2E2E2E2E2E2E2E2E2E2E2E2E2E2E2E2E2E2E2E2E2E2E2E2E2E2E2E2E2E2E2E2E2E2E2E2E2E2E2E2E2E2E2E2E2E2E2E2DCE2E2F5E2E2E2E2E2E2E2F5E2E2E2E2E2E2E2E2E2E2E2E2E2E2E2BEBEE2E2E2E2E2E2E2E2E2E2E2E2E2E2E2E2E2
310
E2E2E2E2E2E2E2E2E2E2E2E2E2E2E2E2E2E2E2E2E2E2E2E2E2E2E2E2E2E2E2E2E2E2E2E2E2E2E2E2E2E2E2E2E2E2F5E2E2F5E2E2E2E2E2E2E2E2E2E2E2E2E2E2E2E2E2E2E2E2E2E2E2E2E2E2E2E2E2E2E2E2E2E2E2E2E2E2E2E2E2E2E2E2E2E2E2E2E2E2E2E2E2E2E2E2E2E2E2E2E2E2E2E2E2E2E2E2E2E2BEE2E2E2E2E2E2
310
E2E2DCE2E2E2E2E2E2E2E2E2E2E2E2E2E2E2E2E2E2E2E2E2E2E2E2E2E2E2E2E2E2E2E2E2E2E2E2E2E2E2E2E2E2E2E2E2E2E2E2E2E2E2E2E2E2E2E2E2E2E2E2E2E2E2E2E2E2E2E2E2E2E2E2E2E2E2E2E2E2E2E2DCE2E2F5E2E2E2E2E2E2E2F5E2E2E2E2E2E2E2E2E2E2E2E2E2E2E2E2E2E2E2E2E2E2E2E2E2E2E2E2E2E2E2E2
310
E2E2E2E2E2E2E2E2E2E2E2E2E2E2E2E2E2E2E2E2E2E2E2E2E2E2E2E2E2E2E2E2E2E2E2E2E2E2E2E2E2E2E2E2E2E2E2E2F5E2E2F5E2E2E2E2E2E2E2E2E2E2E2E2E2E2E2E2E2E2E2E2E2E2E2E2E2E2E2E2E2E2E2E2E2E2E2E2E2E2E2E2E2E2E2E2E2E2E2E2E2E2E2E2E2E2E2E2E2E2E2E2E2E2E2E2E2E2E2E2E2E2BEE2E2E2E2
310
E2E2E2E2DCE2E2E2BEBEBEBEBEBEBEBEBEBEBEBEBEBEBEBEBEBEBEBEBEBEBEBEE2E2E2E2E2E2E2E2E2E2E2E2E2E2E2E2E2E2E2E2E2E2E2E2E2E2E2E2E2E2E2E2E2E2E2E2E2E2E2E2E2E2E2E2E2E2E2E2E2E2E2E2E2DCE2E2F5E2E2E2E2E2E2E2F5E2E2E2BEBEBEBEBEBEBEBEBEBEBEE2BEBEBEBEBEBEE2E2E2E2E2E2E2E2E2
310
E2E2E2E2E2E2E2E2E2E2E2E2E2E2E2E2E2E2E2E2E2E2E2E2E2E2E2E2E2E2E2E2E2E2E2E2E2E2E2E2E2E2E2E2E2E2E2E2E2E2F5E2E2F5E2E2E2E2E2E2E2E2E2E2E2E2E2E2E2E2E2E2E2E2E2E2E2E2E2E2E2E2E2E2E2E2E2E2E2E2E2E2E2E2E2E2E2E2E2E2E2E2E2E2E2E2E2E2E2E2E2E2E2E2E2E2E2E2E2E2E2E2E2E2BEE2E2
310
E2E2E2E2E2E2DCE2E2E2BEBEBEBEBEBEBEBEBEBEBEBEBEBEBEBEBEBEBEBEBEBEBEBEE2E2E2E2E2E2E2E2E2E2E2E2E2E2E2E2E2E2E2E2E2E2E2E2E2E2E2E2E2E2E2E2E2E2E2E2E2E2E2E2E2E2E2E2E2E2E2E2E2E2E2E2E2DCE2E2F5E2E2E2E2E2E2E2F5E2E2E2BEBEBEBEBEBEBEBEBEBEBEE2BEBEBEBEBEBEBEE2E2E2E2E2E2
310
E2E2E2E2E2E2E2E2E2E2E2E2E2E2E2E2E2E2E2E2E2E2E2E2E2E2E2E2E2E2E2E2E2E2E2E2E2E2E2E2E2E2E2E2E2E2E2E2E2E2E2E2F5E2E2F5E2E2E2E2E2E2E2E2E2E2E2E2E2E2E2E2E2E2E2E2E2E2E2E2E2E2E2E2E2E2E2E2E2E2E2E2E2E2E2E2E2E2E2E2E2E2E2E2E2E2E2E2E2E2E2E2E2E2E2E2E2E2E2E2E2E2E2E2E2E2BE
310
E2E2E2E2E2E2E2E2DCE2E2E2BEBEE2BEE2E2E2BEBEE2E2E2E2E2E2E2E2BEE2E2BEBEE2E2E2E2E2E2E2E2E2E2E2E2E2E2E2E2E2E2E2E2E2E2E2E2E2E2E2E2E2E2E2E2E2E2E2E2E2E2E2E2E2E2E2E2E2E2E2E2E2E2E2E2E2E2E2DCE2E2F5E2E2E2E2E2E2E2F5E2E2E2E2E2E2E2E2E2BEBEE2E2E2E2E2BEE2E2BEE2E2E2E2E2E2
310
E2E2E2E2E2E2E2E2E2E2E2E2E2E2E2E2E2E2E2E2E2E2E2E2E2E2E2E2E2E2E2E2E2E2E2E2E2E2E2E2E2E2E2E2E2E2E2E2E2E2E2E2E2E2F5E2E2F5E2E2E2E2E2E2E2E2E2E2E2E2E2E2E2E2E2E2E2E2E2E2E2E2E2E2E2E2E2E2E2E2E2E2E2E2E2E2E2E2E2E2E2E2E2E2E2E2E2E2E2E2E2E2E2E2E2E2E2E2E2E2E2E2E2E2E2E2E2
310
E2BEE2E2E2E2E2E2E2E2DCE2E2E2E2E2E2E2E2E2E2E2E2E2E2E2E2E2E2E2E2E2E2E2E2E2E2E2E2E2E2E2E2E2E2E2E2E2E2E2E2E2E2E2E2E2E2E2E2E2E2E2E2E2E2E2E2E2E2E2E2E2E2E2E2E2E2E2E2E2E2E2E2E2E2E2E2E2E2E2E2DCE2E2F5E2E2E2E2E2E2E2F5E2E2E2E2E2E2E2E2E2E2E2E2E2E2E2E2E2E2E2E2E2E2E2E2
310
E2E2E2E2E2E2E2E2E2E2E2E2E2E2E2E2E2E2E2E2E2E2E2E2E2E2E2E2E2E2E2E2E2E2E2E2E2E2E2E2E2E2E2E2E2E2E2E2E2E2E2E2E2E2E2E2F5E2E2F5E2E2E2E2E2E2E2E2E2E2E2E2E2E2E2E2E2E2E2E2E2E2E2E2E2E2E2E2E2E2E2E2E2E2E2E2E2E2E2E2E2E2E2E2E2E2E2E2E2E2E2E2E2E2E2E2E2E2E2E2E2E2E2E2E2E2E2
310
E2E2E2BEE2E2E2E2E2E2E2E2DCE2E2E2E2E2E2E2E2E2E2E2E2E2E2E2E2E2E2E2E2E2E2E2E2E2E2E2E2E2E2E2E2E2E2E2E2E2E2E2E2E2E2E2E2E2E2E2E2E2E2E2E2E2E2E2E2E2E2E2E2E2E2E2E2E2E2E2E2E2E2E2E2E2E2E2E2E2E2E2E2DCE2E2F5E2E2E2E2E2E2E2F5E2E2E2E2E2E2E2E2E2E2E2E2E2E2E2E2E2E2E2E2E2E2
310
E2E2E2E2E2E2E2E2E2E2E2E2E2E2E2E2E2E2E2E2E2E2E2E2E2E2E2E2E2E2E2E2E2E2E2E2E2E2E2E2E2E2E2E2E2E2E2E2E2E2E2E2E2E2E2E2E2E2F5E2E2F5E2E2E2E2E2E2E2E2E2E2E2E2E2E2E2E2E2E2E2E2E2E2E2E2E2E2E2E2E2E2E2E2E2E2E2E2E2E2E2E2E2E2E2E2E2E2E2E2E2E2E2E2E2E2E2E2E2E2E2E2E2E2E2E2E2
310
E2E2E2E2E2BEE2E2E2E2E2E2E2E2DCE2E2E2E2E2E2E2E2E2E2E2E2E2E2E2E2E2E2E2E2E2E2E2E2E2E2E2E2E2E2E2E2E2E2E2E2E2E2E2E2E2E2E2E2E2E2E2E2E2E2E2E2E2E2E2E2E2E2E2E2E2E2E2E2E2E2E2E2E2E2E2E2E2E2E2E2E2E2E2E2DCE2E2F5E2E2E2E2E2E2E2F5E2E2E2E2E2E2E2E2E2E2E2E2E2E2E2E2E2E2E2E2
310
E2E2E2E2E2E2E2E2E2E2E2E2E2E2E2E2E2E2E2E2E2E2E2E2E2E2E2E2E2E2E2E2E2E2E2E2E2E2E2E2E2E2E2E2E2E2E2E2E2E2E2E2E2E2E2E2E2E2E2E2F5E2E2F5E2E2E2E2E2E2E2E2E2E2E2E2E2E2E2E2E2E2E2E2E2E2E2E2E2E2E2E2E2E2E2E2E2E2E2E2E2E2E2E2E2E2E2E2E2E2E2E2E2E2E2E2E2E2E2E2E2E2E2E2E2E2E2
310
E2E2E2E2E2E2E2BEE2E2E2E2E2E2E2E2DCE2E2E2E2E2E2E2E2E2E2E2E2E2E2E2E2E2E2E2E2E2E2E2E2E2E2E2E2E2E2E2E2E2E2E2E2E2E2E2E2E2E2E2E2E2E2E2E2E2E2E2E2E2E2E2E2E2E2E2E2E2E2E2E2E2E2E2E2E2E2E2E2E2E2E2E2E2E2E2E2DCE2E2F5E2E2E2E2E2E2E2F5E2E2E2E2E2E2E2E2E2E2E2E2E2E2E2E2E2E2
310
E2E2E2E2E2E2E2E2E2E2E2E2E2E2E2E2E2E2E2E2E2E2E2E2E2E2E2E2E2E2E2E2E2E2E2E2E2E2E2E2E2E2E2E2E2E2E2E2E2E2E2E2E2E2E2E2E2E2E2E2E2E2F5E2E2F5E2E2E2E2E2E2E2E2E2E2E2E2E2E2E2E2E2E2E2E2E2E2E2E2E2E2E2E2E2E2E2E2E2E2E2E2E2E2E2E2E2E2E2E2E2E2E2E2E2E2E2E2E2E2E2E2E2E2E2E2E2
310
E2E2E2E2E2E2E2E2E2BEE2E2E2E2E2E2E2E2DCE2E2E2E2E2E2E2E2E2E2E2E2E2E2E2E2E2E2E2E2E2E2E2E2E2E2E2E2E2E2E2E2E2E2E2E2E2E2E2E2E2E2E2E2E2E2E2E2E2E2E2E2E2E2E2E2E2E2E2E2E2E2E2E2E2E2E2E2E2E2E2E2E2E2E2E2E2E2E2E2DCE2E2F5E2E2E2E2E2E2E2F5E2E2E2E2E2E2E2E2E2E2E2E2E2E2E2E2
310
E2E2E2E2E2E2E2E2E2E2E2E2E2E2E2E2E2E2E2E2E2E2E2E2E2E2E2E2E2E2E2E2E2E2E2E2E2E2E2E2E2E2E2E2E2E2E2E2E2E2E2E2E2E2E2E2E2E2E2E2E2E2E2E2F5E2E2F5E2E2E2E2E2E2E2E2E2E2E2E2E2E2E2E2E2E2E2E2E2E2E2E2E2E2E2E2E2E2E2E2E2E2E2E2E2E2E2E2E2E2E2E2E2E2E2E2E2E2E2E2E2E2E2E2E2E2E2
310
E2E2E2E2E2E2E2E2E2E2E2BEE2E2E2E2E2E2E2E2DCE2E2E2E2E2E2E2E2E2E2E2E2E2E2E2E2E2E2E2E2E2E2E2E2E2E2E2E2E2E2E2E2E2E2E2E2E2E2E2E2E2E2E2E2E2E2E2E2E2E2E2E2E2E2E2E2E2E2E2E2E2E2E2E2E2E2E2E2E2E2E2E2E2E2E2E2E2E2E2E2DCE2E2F5E2E2E2E2E2E2E2F5E2E2E2E2E2E2E2E2E2E2E2E2E2E2
310
E2E2E2E2E2E2E2E2E2E2E2E2E2E2E2E2E2E2E2E2E2E2E2E2E2E2E2E2E2E2E2E2E2E2E2E2E2E2E2E2E2E2E2E2E2E2E2E2E2E2E2E2E2E2E2E2E2E2E2E2E2E2E2E2E2E2F5E2E2F5E2E2E2E2E2E2E2E2E2E2E2E2E2E2E2E2E2E2E2E2E2E2E2E2E2E2E2E2E2E2E2E2E2E2E2E2E2E2E2E2E2E2E2E2E2E2E2E2E2E2E2E2E2E2E2E2E2
310
E2E2E2E2E2E2E2E2E2E2E2E2E2BEE2E2E2E2E2E2E2E2DCE2E2E2E2E2E22DE2E2E2E2E2E2E2E2E2E2E2E2E2E2E2E2E22DE2E2E2E2E2E2E2E2E2E2E2E2E2E2E2E2E2E2E2E2E2E2E2E2E2E2E2E2E2E2E2E2E2E2E2E2E2E2E2E2E2E2E2E2E2E2E2E2E2E2E2E2E2E2E2DCE2E2F5E2E2E2E2E2E2E2F5E2E2E2E2E2E22DE2E2E2E2E2
310
E2E2E2E2E2E2E2E2E2E2E2E22DE2E2E2E2E2E2E2E2E2E2E2E2E2E2E2E2E2E2E2E2E2E2E2E2E2E2E2E2E2E2E2E2E2E2E2E2E2E2E2E2E2E2E2E2E2E2E2E2E2E2E2E2E2E2E2F5E2E2F5E2E2E2E2E2E2E2E2E2E2E2E2E2E2E2E2E2E2E2E2E2E2E2E2E2E2E2E2E2E2E2E2E2E2E2E2E2E2E2E2E2E2E2E2E2E2E2E2E2E2E2E2E2E2E2
310
E2E2E2E2E2E2E2E2E2E2E2E2E2E2E2BEE2E2E2E2E2E2E2E2DCE2E2E2E2E2E22D2D2D2D2D2D2D2DBEBEBE2D2D2D2D2D2D2DF5E2E2E2E2E2E22D2DE2E2E2E2E2E2E2E2E2E2E2E2E2E2E2E2E2E2E2E2E2E2E2E2E2E2E2E2E2E2E2E2E2E2E2E2E2E2E2E2E22D2DE2E2E2E2DCE2E2F5E2E2E2E2E2E2E2F5E2E2E2E2E2E22D2D2D2D
310
2D2D2D2DBEBEBE2D2D2D2D2D2D2DF5E2E2E2E2E2E22D2DE2E2E2E2E2E2E2E2E2E2E2E2E2E2E2E2E2E2E2E2E2E2E2E2E2E2E2E2E2E2E2E2E2E2E2E2E2E2E2E2E22D2DE2E2E2E2F5E2E2F5E2E2E2E2E2E2E2E2E2E2E2E2E2E2E2E2E2E2E2E2E2E2E2E2E2E2E2E2E2E2E2E2E2E2E2E2E2E2E2E2E2E2E2E2E2E2E2E2E2E2E2E2E2
310
E2E2E2E2E2E2E2E2E2E2E2E2E2E2E2E2E2BEE2E2E2E2E2E2E2E2DCE2E2E2E2E2E22DE2E2E2E2E2E2E2E2BEBEE2E2E2E2E2E2E22DE2E2E2E2E2E22D2D2D2D2D2D2D2D2D2D2D2D2D2D2D2D2D2D2D2D2DBEBEBE2D2D2D2D2D2D2D2D2D2D2D2D2D2D2D2D2D2D2D2DF5E2E2E2E2DCE2E2F5E2E2E2E2E2E2E2F5E2E2E2E2E2E22DE2
310
E2E2E2E2E2E2E2BEBEE2E2E2E2E2E2E22DE2E2E2E2E2E22D2D2D2D2D2D2D2D2D2D2D2D2D2D2D2D2D2D2D2D2DBEBEBE2D2D2D2D2D2D2D2D2D2D2D2D2D2D2D2D2D2D2D2DF5E2E2E2E2F5E2E2F5E2E2E2E2E2E2E2E2E2E2E2E2E2E2E2E2E2E2E2E2E2E2E2E2E2E2E2E2E2E2E2E2E2E2E2E2E2E2E2E2E2E2E2E2E2E2E2E2E2E2E2
310
E2E2E2E2E2E2E2E2E2E2E2E2E2E2E2E2E2E2E2BEE2E2E2E2E2E2E2E2DCE2E2E2E2E2E22DE2E2E2E2E2E2E2E2BEE2E2E2E2E2E2E2E22DE2E2E2E2E2E22DE2E2E2E2E2E2E2E2E2E2E2E2E2E2E2E2E2E2E2E2BEBEBEE2E2E2E2E2E2E2E2E2E2E2E2E2E2E2E2E2E2E2E22DE2E2E2E2DCE2E2F5E2E2E2E2E2E2E2F5E2E2E2E2E2E2
310
2DE2E2E2E2E2E2E2E2BEE2E2E2E2E2E2E2E22DE2E2E2E2E2E22DE2E2E2E2E2E2E2E2E2E2E2E2E2E2E2E2E2E2E2E2BEBEBEE2E2E2E2E2E2E2E2E2E2E2E2E2E2E2E2E2E2E2E22DE2E2E2E2F5E2E2F5E2E2E2E2E2E2E2E2E2E2E2E2E2E2E2E2E2E2E2E2E2E2E2E2E2E2E2E2E2E2E2E2E2E2E2E2E2E2E2E2E2E2E2E2E2E2E2E2E2
310
E2E2E2E2E2E2E2E2E2E2E2E2E2E2E2E2E2E2E2E2E2BEE2E2E2E2E2E2E2E2DCE2E2E2E2E2E22DE2E2E2E2E2F5F5F5BEF5F5F5E2E2E2E2E22DE2E2E22DF52DF5F5F5E2E2E2E2E2E2E2E2E2E2E2E2E2E2E2E2E2E2E2E2E2E2E2E2E2E2E2E2E2E2E2E2E2E2E2E2E2E2E2E2E22DE2E2E2E2DCE2E2F5E2E2E2E2E2E2E2F5E2E2E2E2
310
E2E22DE2E2E2E2E2E2F5F5BEF5F5F5E2E2E2E2E22DE2E2E2E2F52DF5F5F5E2E2E2E2E2E2E2E2E2E2E2E2E2E2E2E2E2E2E2E2E2E2E2E2E2E2E2E2E2E2E2E2E2E2E2E2E2E2E2E2E22DE2E2E2E2F5E2E2F5E2E2E2E2E2E2E2E2E2E2E2E2E2E2E2E2E2E2E2E2E2E2E2E2E2E2E2E2E2E2E2E2E2E2E2E2E2E2E2E2E2E2E2E2E2E2E2
310
E2E2E2E2E2E2E2E2E2E2E2E2E2E2E2E2E2E2E2E2E2E2E2BEE2E2E2E2E2E2E2E2DCE2E2E2E2E2E22DE2E2E2F5F5F5E2E2BEE2E2F5F5F5E2E2E22DE2E2E2E22DE2F5E2F5E2E2E2E2E2E2E2E2E2E2E2E2E2E2E2E2E2E2E2E2E2E2E2E2E2E2E2E2E2E2E2E2E2E2E2E2E2E2E2E2E22DE2E2E2E2DCE2E2F5E2E2E2E2E2E2E2F5E2E2
310
E2E2E2E22DE2E2E2F5F5F5E2E2BEE2E2E2F5F5E2E2E22DE2E2E2E22DE2F5E2F5E2E2E2E2E2E2E2E2E2E2E2E2E2E2E2E2E2E2E2E2E2E2E2E2E2E2E2E2E2E2E2E2E2E2E2E2E2E2E2E2E22DE2E2E2E2F5E2E2F5E2E2E2E2E2E2E2E2E2E2E2E2E2E2E2E2E2E2E2E2E2E2E2E2E2E2E2E2E2E2E2E2E2E2E2E2E2E2E2E2E2E2E2E2E2
310
E2E2E2E2E2E2E2E2E2E2E2E2E2E2E2E2E2E2E2E2E2E2E2E2E2BEE2E2E2E2E2E2E2E2DCE2E2E2E2E2E22DE2E2F5F5E2E2E2E2BEE2E2E2E2F5F5E2E22DE2E2E2E22DE2F5E2F5E2E2E2E2E2E2E2E2E2E2E2E2E2E2E2E2E2E2E2E2E2E2E2E2E2E2E2E2E2E2E2E2E2E2E2E2E2E2E2E2E22DE2E2E2E2DCE2E2F5E2E2E2E2E2E2E2F5
310
E2E2E2E2E2E22DE2E2F5F5E2E2E2E2BEE2E2E2E2F5F5E2E22DE2E2E2E22DE2F5E2F5E2E2E2E2E2E2E2E2E2E2E2E2E2E2E2E2E2E2E2E2E2E2E2E2E2E2E2E2E2E2E2E2E2E2E2E2E2E2E2E2E22DE2E2E2E2F5E2E2F5E2E2E2E2E2E2E2E2E2E2E2E2E2E2E2E2E2E2E2E2E2E2E2E2E2E2E2E2E2E2E2E2E2E2E2E2E2E2E2E2E2E2E2
310
E2E2E2E2E2E2E2E2E2E2E2E2E2E2E2E2E2E2E2E2E2E2E2E2E2E2E2BEE2E2E2E2E2E2E2E2DCE2E2E2E2E2E22DE2F5E2E2E2E2E2E2BEE2E2E2E2E2F5F5E22DE2E2E2E22DE2F5E22D2D2D2D2D2D2D2D2D2D2D2D2D2D2D2D2D2DBE2DBE2D2D2D2D2D2D2D2D2D2D2D2D2D2D2D2D2D2DBEBE2D2DE2E2E2E2DCE2E2F5E2E2E2E2E2E2
310
E2F5E2E2E2E2E2E22DE2F5F5E2E2E2E2E2BEE2E2E2E2E2F5F5E22DE2E2E2E22DE2F5E22D2D2D2D2D2D2D2D2D2D2D2D2D2D2D2D2D2D2DBEBE2D2D2D2D2D2D2D2D2D2D2D2D2D2D2D2D2D2DBEBEBE2DE2E2E2E2F5E2E2F5E2E2E2E2E2E2E2E2E2E2E2E2E2E2E2E2E2E2E2E2E2E2E2E2E2E2E2E2E2E2E2E2E2E2E2E2E2E2E2E2E2
310
E2E2E2E2E2E2E2E2E2E2E2E2E2E2E2E2E2E2E2E2E2E2E2E2E2E2E2E2E2BEE2E2E2E2E2E2E2E2DCE2E2E2E2E2E22DF5F5E2E2E2E2E2E2BEE2E2E2E2E2E2F5E22DE2E2E2E22DE2F5E22DE2E2E2E2E2E2E2E2E2E2E2E2E2E2E2E2E2BEBEBEE2E2E2E2E2E2E2E2E2E2E2E2E2E2E2E2E22DBEBEE22DE2E2E2E2DCE2E2F5E2E2E2E2
310
E2E2E2F5E2E2E2E2E2E22DE2F5E2E2E2E2E2E2BEE2E2E2E2E2E2E2F52DE2E2E2E22DE2F5E22DE2E2E2E2E2E2E2E2E2E2E2E2E2E2E2E2E2BEBEBEE2E2E2E2E2E2E2E2E2E2E2E2E2E2E2E2E22DBEBEBE2DE2E2E2E2F5E2E2F5E2E2E2E2E2E2E2E2E2E2E2E2E2E2E2E2E2E2E2E2E2E2E2E2E2E2E2E2E2E2E2E2E2E2E2E2E2E2E2
310
E2E2E2E2E2E2E2E2E2E2E2E2E2E2E2E2E2E2E2E2E2E2E2E2E2E2E2E2E2E2E2BEE2E2E2E2E2E2E2E2DCE2E2E2E2E2E22DF5E2E2E2E2E2E2E2BEE2E2E2E2E2E2E2F52DE2E2E2E22DE2F5E22DE2E2E2E2E2E2E2E2E2E2E2E2E2E2E2E2E2E2E2E2E2E2E2E2E2E2E2E2E2E2E2E2E2E2E2E2E22DE2E2E22DE2E2E2E2DCE2E2F5E2E2
310
E2E2E2E2E2F5E2E2E2E2E2E22DF5E2E2E2E2E2E2E2BEE2E2E2E2E2E2E2F52DE2E2E2E22DE2F5E22DE2E2E2E2E2E2E2E2E2E2E2E2E2E2E2E2E2E2E2E2E2E2E2E2E2E2E2E2E2E2E2E2E2E2E2E2E22DE2E2E22DE2E2E2E2F5E2E2F5E2E2E2E2E2E2E2E2E2E2E2E2E2E2E2E2E2E2E2E2E2E2E2E2E2E2E2E2E2E2E2E2E2E2E2E2E2
310
E2E2E2E2E2E2E2E2E2E2E2E2E2E2E2E2E2E2E2E2E2E2E2E2E2E2E2E2E2E2E2E2E2BEE2E2E2E2E2E2E2E2DCE2E2E2E2E2E22DF5E2E2E2E2E2F5F5BEF5F5E2E2E2E2E2F52DE2E2E2E22DE2F5E2F5F5F5F5F5F5F5F5F5F5F5F5F5F5F5F5F5F5F5F5F5F5F5F5F5F5F5F5F5F5F5F5F5F5F5F5F5F5F5F5F5F5F52DF52DE2DCE2E2F5
310
E2E2E2E2E2E2E2F5E2E2E2E2E2E22DF5E2E2E2E2E2F5F5BEF5F5E2E2E2E2E2E22DE2E2E2E22DE2F5E2F5F5F5F5F5F5F5F5F5F5F5F5F5F5F5F5F5F5F5F5F5F5F5F5F5F5F5F5F5F5F5F5F5F5F5F5F5F5F5F5F5F5F52DF52DE2F5E2E2F5E2E2E2E2E2E2E2E2E2E2E2E2E2E2E2E2E2E2E2E2E2E2E2E2E2E2E2E2E2E2E2E2E2E2E2
310
E2E2E2E2E2E2E2E2E2E2E2E2E2E2E2E2E2E2E2E2E2E2E2E2E2E2E2E2E2E2E2E2E2E2E2BEE2E2E2E2E2E2E2E2DCE2E2E2E2E2E22DE2E2E2E2E2F5F5E2BEF5F5F5E2E2E2E2E22DE2E2E2E22DE2F5E2F5E2E2E2E2E2E2E2E2E2E2E2E2E2E2E2E2E2E2E2E2E2E2E2E2E2E2E2E2E2E2E2E2E2E2E2E2F5F5E2E2F5F5E22DE2E2DCE2
310
E2F5E2E2E2E2E2E2E2F5E2E2E2E2E2E22DE2E2E2E2E2F5F5F5BEE2F5F5E2E2E2E2E22DE2E2E2E22DE2F5E2F5E2E2E2E2E2E2E2E2E2E2E2E2E2E2E2E2E2E2E2E2E2E2E2E2E2E2E2E2E2E2E2E2E2E2E2E2E2F5F5E2F5F5E22D2DE2F5E2E2F5E2E2E2E2E2E2E2E2E2E2E2E2E2E2E2E2E2E2E2E2E2E2E2E2E2E2E2E2E2E2E2E2E2
310
E2E2E2E2E2E2E2E2E2E2E2E2E2E2E2E2E2E2E2E2E2E2E2E2E2E2E2E2E2E2E2E2E2E2E2E2E2BEE2E2E2E2E2E2E2E2DCE2E2E2E2E2E22DE2E2E2E2E2F5E2E2BEE2F5F5E2E2E2E2E22DE2E2BEBE2DE2F5E2F5E2E2E2E2E2E2E2E2E2E2E2E2E2E2E2E2E2E2E2E2E2E2E2E2E2E2E2E2E2E2E2E2E2E2E2E2F5F5E2E2F5F5BEBEE2E2
310
DCE2E2F5E2E2E2E2E2E2E2F5E2E2E2E2E2E22DE2E2E2E2E2F5F5E2BEE2E2F5E2E2E2E2E22DE2E2E2BEBEE2F5E2F5E2E2E2E2E2E2E2E2E2E2E2E2E2E2E2E2E2E2E2E2E2E2E2E2E2E2E2E2E2E2E2E2E2E2E2E2E2F5F5E2F5F5BEBEE2E2F5E2E2F5E2E2E2E2E2E2E2E2E2E2E2E2E2E2E2E2E2E2E2E2E2E2E2E2E2E2E2E2E2E2E2
310
E2E2E2E2E2E2E2E2E2E2E2E2E2E2E2E2E2E2E2E2E2E2E2E2E2E2E2E2E2E2E2E2E2E2E2E2E2E2E2BEE2E2E2E2E2E2E2E2DCE2E2E2E2E2BEF5BEBEBEBEBEBEBEBEBEBEBEBEBEBEBEBEBEF5BEE2BEBE2DBEBEBEBEBEBEBEBEBEBEBEBEBEBEBEBEBEBEBEBEBEBEBEBEBEBEBEBEBEBEBEBEBEBEBEBEBEBEBEBEBEF5BEBEF5F5BEBE
310
E2E2DCE2E2F5E2E2E2E2E2E2E2F5E2E2E2E2E2BEF5BEBEBEBEBEBEBEBEBEBEBEBEBEBEBEBEBEF5BEE2E2BEBEBEBEBEBEBEBEBEBEBEBEBEBEBEBEBEBEBEBEBEBEBEBEBEBEBEBEBEBEBEBEBEBEBEBEBEBEBEBEBEBEBEBEF5BEF5F5BEBEE2E2F5E2E2F5E2E2E2E2E2E2E2E2E2E2E2E2E2E2E2E2E2E2E2E2E2E2E2E2E2E2E2E2E2
310
E2E2E2E2E2E2E2E2E2E2E2E2E2E2E2E2E2E2E2E2E2E2E2E2E2E2E2E2E2E2E2E2E2E2E2E2E2E2E2E2E2BEE2E2E2E2E2E2E2E2DCE2E2E2E2E2E2F5E2E2E2E2E2F5F5E2BEE2F5F5E2E2E2E2E2F5E2E2BEBE2DE2F5E2F5E2E2E2E2E2E2E2E2E2E2E2E2E2E2E2E2E2E2E2E2E2E2E2E2E2E2E2E2E2E2E2E2E2E2E2E2F5F5E2E2F5F5
310
BEBEE2E2DCE2E2F5E2E2E2E2E2E2E2F5E2E2E2E2E2E2F5E2E2E2E2E2F5F5E2BEE2E2F5E2E2E2E2E2F5E2E2E2BEBEE2F5E2F5E2E2E2E2E2E2E2E2E2E2E2E2E2E2E2E2E2E2E2E2E2E2E2E2E2E2E2E2E2E2E2E2E2E2E2E2E2F5F5E2F5F5BEBEE2E2F5E2E2F5E2E2E2E2E2E2E2E2E2E2E2E2E2E2E2E2E2E2E2E2E2E2E2E2E2E2E2
310
E2E2E2E2E2E2E2E2E2E2E2E2E2E2E2E2E2E2E2E2E2E2E2E2E2E2E2E2E2E2E2E2E2E2E2E2E2E2E2E2E2E2E2BEE2E2E2E2E2E2E2E2DCE2E2E2E2E2E2F5E2E2E2E2E2F5F5F5BEF5F5E2E2E2E2E2E2F5E2E2E2E22DE2F5E2F5E2E2E2E2E2E2E2E2E2E2E2E2E2E2E2E2E2E2E2E2E2E2E2E2E2E2E2E2E2E2E2E2E2E2E2E2F5F5E2E2
310
F5F5E22DE2E2DCE2E2F5E2E2E2E2E2E2E2F5E2E2E2E2E2E2F5F5E2E2E2E2E2F5F5BEF5F5F5E2E2E2E2E2F5E2E2E2E22DE2F5E2F5E2E2E2E2E2E2E2E2E2E2E2E2E2E2E2E2E2E2E2E2E2E2E2E2E2E2E2E2E2E2E2E2E2E2E2E2E2F5F5E2F5F5E22D2DE2F5E2E2F5E2E2E2E2E2E2E2E2E2E2E2E2E2E2E2E2E2E2E2E2E2E2E2E2E2
310
E2E2E2E2E2E2E2E2E2E2E2E2E2E2E2E2E2E2E2E2E2E2E2E2E2E2E2E2E2E2E2E2E2E2E2E2E2E2E2E2E2E2E2E2E2BEE2E2E2E2E2E2E2E2DCE2E2E2E2E2E2F5F5E2E2E2E2E2F5F5BEF5E2E2E2E2E2E2F5E2E2E2E2E22DE2F5E2F5F5F5F5F5F5F5F5F5F5F5F5F5F5F5F5F5F5F5F5F5F5F5F5F5F5F5F5F5F5F5F5F5F5F5F5F5F5F5
310
F5F5F52D2D2D2DE2DCE2E2F5E2E2E2E2E2E2E2F5E2E2E2E2E2E2E2F5E2E2E2E2E2E2F5BEF5F5E2E2E2E2E2F5E2E2E2E2E22DE2F5E2F5F5F5F5F5F5F5F5F5F5F5F5F5F5F5F5F5F5F5F5F5F5F5F5F5F5F5F5F5F5F5F5F5F5F5F5F5F5F5F5F5F52D2D2D2DE2F5E2E2F5E2E2E2E2E2E2E2E2E2E2E2E2E2E2E2E2E2E2E2E2E2E2E2
310
E2E2E2E2E2E2E2E2E2E2E2E2E2E2E2E2E2E2E2E2E2E2E2E2E2E2E2E2E2E2E2E2E2E2E2E2E2E2E2E2E2E2E2E2E2E2E2BEE2E2E2E2E2E2E2E2DCE2E2E2E2E2E2E2F5E2E2E2E2E2E2E2BEE2E2E2E2E2E2E2F5E2E2E2E2E22DE2F5E2F5E2E2E2E2E2E2E2E2E2E2E2E2E2E2E2E2E2E2E2E2E2E2E2E2E2E2E2E2E2E2E2E2E2E2E2E2
310
E2E2E2E2E2E2E2E2E2E2DCE2E2F5E2E2E2E2E2E2E2F5E2E2E2E2E2E2E2F5E2E2E2E2E2E2E2BEE2E2E2E2E2E2E2F5E2E2E2E2E22DE2F5E2F5E2E2E2E2E2E2E2E2E2E2E2E2E2E2E2E2E2E2E2E2E2E2E2E2E2E2E2E2E2E2E2E2E2E2E2E2E2E2E2E2E2E2E2E2E2E2F5E2E2F5E2E2E2E2E2E2E2E2E2E2E2E2E2E2E2E2E2E2E2E2E2
310
E2E2E2E2E2E2E2E2E2E2E2E2E2E2E2E2E2E2E2E2E2E2E2E2E2E2E2E2E2E2E2E2E2E2E2E2E2E2E2E2E2E2E2E2E2E2E2E2E2BEE2E2E2E2E2E2E2E2DCE2E2E2E2E2E2E2F5F5E2E2E2E2E2E2BEE2E2E2E2E2E2F5E2E2E2E2E2E22DE2F5E2F5E2E2E2E2E2E2E2E2E2E2E2E2E2E2E2E2E2E2E2E2E2E2E2E2E2E2E2E2E2E2E2E2E2E2
310
E2E2E2E2E2E2E2E2E2E2E2E2DCE2E2F5E2E2E2E2E2E2E2F5E2E2E2E2E2E2E2E2F5E2E2E2E2E2E2BEE2E2E2E2E2E2E2F5E2E2E2E2E22DE2F5E2F5E2E2E2E2E2E2E2E2E2E2E2E2E2E2E2E2E2E2E2E2E2E2E2E2E2E2E2E2E2E2E2E2E2E2E2E2E2E2E2E2E2E2E2E2E2E2F5E2E2F5E2E2E2E2E2E2E2E2E2E2E2E2E2E2E2E2E2E2E2
310
E2E2E2E2E2E2E2E2E2E2E2E2E2E2E2E2E2E2E2E2E2E2E2E2E2E2E2E2E2E2E2E2E2E2E2E2E2E2E2E2E2E2E2E2E2E2E2E2E2E2E2BEE2E2E2E2E2E2E2E2DCE2E2E2E2E2E2E2E2F5F5E2E2E2E2E2BEE2E2E2E2E2F5F5E2E2E2E2E2E22DE2F5E2F5E2E2E2E2E2E2E2E2E2E2E2E2E2E2E2E2E2E2E2E2E2E2E2E2E2E2E2E2E2E2E2E2
310
E2E2E2E2E2E2E2E2E2E2E2E2E2E2DCE2E2F5E2E2E2E2E2E2E2F5E2E2E2E2E2E2E2E2F5F5E2E2E2E2E2BEE2E2E2E2E2F5F5E2E2E2E2E2E22DE2F5E2F5E2E2E2E2E2E2E2E2E2E2E2E2E2E2E2E2E2E2E2E2E2E2E2E2E2E2E2E2E2E2E2E2E2E2E2E2E2E2E2E2E2E2E2E2E2E2F5E2E2F5E2E2E2E2E2E2E2E2E2E2E2E2E2E2E2E2E2
310
E2E2E2E2E2E2E2E2E2E2E2E2E2E2E2E2E2E2E2E2E2E2E2E2E2E2E2E2E2E2E2E2E2E2E2E2E2E2E2E2E2E2E2E2E2E2E2E2E2E2E2E2E2BEE2E2E2E2E2E2E2E2DCE2E2E2E2E2E2E2E2E2F5F5E2E2E2E2BEE2E2E2E2F5F5E2E2E2E2E2E2E22DE2F5E2F5E2E2E2E2E2E2E2E2E2E2E2E2E2E2E2E2E2E2E2E2E2E2E2E2E2E2E2E2E2E2
310
E2E2E2E2E2E2E2E2E2E2E2E2E2E2E2E2DCE2E2F5E2E2E2E2E2E2E2F5E2E2E2E2E2E2E2E2E2F5F5E2E2E2E2BEE2E2E2E2F5F5E2E2E2E2E2E2E22DE2F5E2F5E2E2E2E2E2E2E2E2E2E2E2E2E2E2E2E2E2E2E2E2E2E2E2E2E2E2E2E2E2E2E2E2E2E2E2E2E2E2E2E2E2E2E2E2E2E2F5E2E2F5E2E2E2E2E2E2E2E2E2E2E2E2E2E2E2
310
E2E2E2E2E2E2E2E2E2E2E2E2E2E2E2E2E2E2E2E2E2E2E2E2E2E2E2E2E2E2E2E2E2E2E2E2E2E2E2E2E2E2E2E2E2E2E2E2E2E2E2E2E2E2E2BEE2E2E2E2E2E2E2E2DCE2E2E2E2E2E2E2E2E2E2E2F5F5F5E2BEE2F5F5F5E2E2E2E2E2E2E2E2E22DE2F5E2F5E2E2E2E2E2E2E2E2E2E2E2E2E2E2E2E2E2E2E2E2E2E2E2E2E2E2E2E2
310
E2E2E2E2E2E2E2E2E2E2E2E2E2E2E2E2E2E2DCE2E2F5E2E2E2E2E2E2E2F5E2E2E2E2E2E2E2E2E2E2E2F5F5F5E2BEE2E2F5F5E2E2E2E2E2E2E2E2E22DE2F5E2F5E2E2E2E2E2E2E2E2E2E2E2E2E2E2E2E2E2E2E2E2E2E2E2E2E2E2E2E2E2E2E2E2E2E2E2E2E2E2E2E2E2E2E2E2E2E2F5E2E2F5E2E2E2E2E2E2E2E2E2E2E2E2E2
310
E2E2E2E2E2E2E2E2E2E2E2E2E2E2E2E2E2E2E2E2E2E2E2E2E2E2E2E2E2E2E2E2E2E2E2E2E2E2E2E2E2E2E2E2E2E2E2E2E2E2E2E2E2E2E2E2E2BEE2E2E2E2E2E2E2E2DCE2E2E2E2E2E2E2E2E2E2E2E2E2F5F5BEF5F5E2E2E2E2E2E2E2E2E2E22D2D2DF5F5F5E2E2E2E2E2E2E2E2E2E2E2E2E2E2E2E2E2E2E2E2E2E2E2E2E2E2
310
E2E2E2E2E2E2E2E2E2E2E2E2E2E2E2E2E2E2E2E2DCE2E2F5E2E2E2E2E2E2E2F5E2E2E2E2E2E2E2E2E2E2E2E2E2F5F5BEF5F5E2E2E2E2E2E2E2E2E2E2E22D2DF5F5F5E2E2E2E2E2E2E2E2E2E2E2E2E2E2E2E2E2E2E2E2E2E2E2E2E2E2E2E2E2E2E2E2E2E2E2E2E2E2E2E2E2E2E2E2E2E2F5E2E2F5E2E2E2E2E2E2E2E2E2E2E2
310
E2E2E2E2E2E2E2E2E2E2E2E2E2E2E2E2E2E2E2E2E2E2E2E2E2E2E2E2E2E2E2E2E2E2E2E2E2E2E2E2E2E2E2E2E2E2E2E2E2E2E2E2E2E2E2E2E2E2E2BEE2E2E2E2E2E2E2E2DCE2E2E2E2E2E2E2E2E2E2E2E2E2E2E2BEE2E2E2E2E2E2E2E2E2E2E2E2E2E22D2DE22D2DE2E2E2E2E2E2E2E2E2E2E2E2E2E2E2E2E2E2E2E2E2E2E2
310
E2E2E2E2E2E2E2E2E2E2E2E2E2E2E2E2E2E2E2E2E2E2DCE2E2F5E2E2E2E2E2E2E2F5E2E2E2E2E2E2E2E2E2E2E2E2E2E2E2BEE2E2E2E2E2E2E2E2E2E2E2E2E2E22D2DE22D2DE2E2E2E2E2E2E2E2E2E2E2E2E2E2E2E2E2E2E2E2E2E2E2E2E2E2E2E2E2E2E2E2E2E2E2E2E2E2E2E2E2E2E2E2E2F5E2E2F5E2E2E2E2E2E2E2E2E2
310
E2E2E2E2E2E2E2E2E2E2E2E2E2E2E2E2E2E2E2E2E2E2E2E2E2E2E2E2E2E2E2E2E2E2E2E2E2E2E2E2E2E2E2E2E2E2E2E2E2E2E2E2E2E2E2E2E2E2E2E2E2BEE2E2E2E2E2E2E2E2DCE2E2E2E2E2E2E2E2E2E2E2E2E2E2E2E2E2E2E2E2E2E2E2E2E2E2E2E2E22D2D2DBEF52D2DE2E2E2E2E2E2E2E2E2E2E2E2E2E2E2E2E2E2E2E2
310
E2E2E2E2E2E2E2E2E2E2E2E2E2E2E2E2E2E2E2E2E2E2E2E2DCE2E2F5E2E2E2E2E2E2E2F5E2E2E2E2E2E2E2E2E2E2E2E2E2E2E2E2E2E2E2E2E2E2E2E2E2E2E2E2E22D2D2DBEF52D2DE2E2E2E2E2E2E2E2E2E2E2E2E2E2E2E2E2E2E2E2E2E2E2E2E2E2E2E2E2E2E2E2E2E2E2E2E2E2E2E2E2E2E2E2F5E2E2F5E2E2E2E2E2E2E2
310
E2E2E2E2E2E2E2E2E2E2E2E2E2E2E2E2E2E2E2E2E2E2E2E2E2E2E2E2E2E2E2E2E2E2E2E2E2E2E2E2E2E2E2E2E2E2E2E2E2E2E2E2E2E2E2E2E2E2E2E2E2E2E2BEE2E2E2E2E2E2E2E2DCE2E2E2E2E2E2E2E2E2E2E2E2E2E2E2E2E2E2E2E2E2E2E2E2E2E2E2E2E2E2E2E2BEE2E2E2E2E2E2E2E2E2E2E2E2E2E2E2E2E2E2E2E2E2
310
E2E2E2E2E2E2E2E2E2E2E2E2E2E2E2E2E2E2E2E2E2E2E2E2E2E2DCE2E2F5E2E2E2E2E2E2E2F5E2E2E2E2E2E2E2E2E2E2E2E2E2E2E2E2E2E2E2E2E2E2E2E2E2E2E2E2E2E2E2E2BEE2E2E2E2E2E2E2E2E2E2E2E2E2E2E2E2E2E2E2E2E2E2E2E2E2E2E2E2E2E2E2E2E2E2E2E2E2E2E2E2E2E2E2E2E2E2E2F5E2E2F5E2E2E2E2E2
310
E2E2E2E2E2E2E2E2E2E2E2E2E2E2E2E2E2E2E2E2E2E2E2E2E2E2E2E2E2E2E2E2E2E2E2E2E2E2E2E2E2E2E2E2E2E2E2E2E2E2E2E2E2E2E2E2E2E2E2E2E2E2E2E2E2BEE2E2E2E2E2E2E2E2DCE2E2E2E2E2E2E2E2E2E2E2E2E2E2E2E2E2E2E2E2E2E2E2E2E2E2E2E2E2E2E2E2E2E2E2E2E2E2E2E2E2E2E2E2E2E2E2E2E2E2E2E2
310
E2E2E2E2E2E2E2E2E2E2E2E2E2E2E2E2E2E2E2E2E2E2E2E2E2E2E2E2DCE2E2F5E2E2E2E2E2E2E2F5E2E2E2E2E2E2E2E2E2E2E2E2E2E2E2E2E2E2E2E2E2E2E2E2E2E2E2E2E2E2E2E2E2E2E2E2E2E2E2E2E2E2E2E2E2E2E2E2E2E2E2E2E2E2E2E2E2E2E2E2E2E2E2E2E2E2E2E2E2E2E2E2E2E2E2E2E2E2E2E2F5E2E2F5E2E2E2
310
E2E2E2E2E2E2E2E2E2E2E2E2E2E2E2E2E2E2E2E2E2E2E2E2E2E2E2E2E2E2E2E2E2E2E2E2E2E2E2E2E2E2E2E2E2E2E2E2E2E2E2E2E2E2E2E2E2E2E2E2E2E2E2E2E2E2E2BEE2E2E2E2E2E2E2E2DCE2E2E2E2E2E2E2E2E2E2E2E2E2E2E2E2E2E2E2E2E2E2E2E2E2E2E2E2E2E2E2E2E2E2E2E2E2E2E2E2E2E2E2E2E2E2E2E2E2E2
310
E2E2E2E2E2E2E2E2E2E2E2E2E2E2E2E2E2E2E2E2E2E2E2E2E2E2E2E2E2E2DCE2E2F5E2E2E2E2E2E2E2F5E2E2E2E2E2E2E2E2E2E2E2E2E2E2E2E2E2E2E2E2E2E2E2E2E2E2E2E2E2E2E2E2E2E2E2E2E2E2E2E2E2E2E2E2E2E2E2E2E2E2E2E2E2E2E2E2E2E2E2E2E2E2E2E2E2E2E2E2E2E2E2E2E2E2E2E2E2E2E2E2F5E2E2F5E2
310
E2E2E2E2E2E2E2E2E2E2E2E2E2E2E2E2E2E2E2E2E2E2E2E2E2E2E2E2E2E2E2E2E2E2E2E2E2E2E2E2E2E2E2E2E2E2E2E2E2E2E2E2E2E2E2E2E2E2E2E2E2E2E2E2E2E2E2E2E2BEE2E2E2E2E2E2E2E2DCE2E2E2E2E2E2E2E2E2E2E2E2E2E2E2E2E2E2E2E2E2E2E2E2E2E2E2E2E2E2E2E2E2E2E2E2E2E2E2E2E2E2E2E2E2E2E2E2
310
E2E2E2E2E2E2E2E2E2E2E2E2E2E2E2E2E2E2E2E2E2E2E2E2E2E2E2E2E2E2E2E2DCE2E2F5E2E2E2E2E2E2E2F5E2E2E2E2E2E2E2E2E2E2E2E2E2E2E2E2E2E2E2E2E2E2E2E2E2E2E2E2E2E2E2E2E2E2E2E2E2E2E2E2E2E2E2E2E2E2E2E2E2E2E2E2E2E2E2E2E2E2E2E2E2E2E2E2E2E2E2E2E2E2E2E2E2E2E2E2E2E2E2E2F5E2E2
310
F5E2E2E2E2E2E2E2E2E2E2E2E2E2E2E2E2E2E2E2E2E2E2E2E2E2E2E2E2E2E2E2E2E2E2E2E2E2E2E2E2E2E2E2E2E2E2E2E2E2E2E2E2E2E2E2E2E2E2E2E2E2E2E2E2E2E2E2E2E2E2BEE2E2E2E2E2E2E2E2DCE2E2E2E2E2E2E2E2E2E2E2E2E2E2E2E2E2E2E2E2E2E2E2E2E2E2E2E2E2E2E2E2E2E2E2E2E2E2E2E2E2E2E2E2E2E2
310
E2E2E2E2E2E2E2E2E2E2E2E2E2E2E2E2E2E2E2E2E2E2E2E2E2E2E2E2E2E2E2E2E2E2DCE2E2F5E2E2E2E2E2E2E2F5E2E2E2E2E2E2E2E2E2E2E2E2E2E2E2E2E2E2E2E2E2E2E2E2E2E2E2E2E2E2E2E2E2E2E2E2E2E2E2E2E2E2E2E2E2E2E2E2E2E2E2E2E2E2E2E2E2E2E2E2E2E2E2E2E2E2E2E2E2E2E2E2E2E2E2E2E2E2E2E2F5
310
E2E2F5E2E2E2E2E2E2E2E2E2E2E2E2E2E2E2E2E2E2E2E2E2E2E2E2E2E2E2E2E2E2E2E2E2E2E2E2E2E2E2E2E2E2E2E2E2E2E2E2E2E2E2E2E2E2E2E2E2E2E2E2E2E2E2E2E2E2E2E2E2E2BEE2E2E2E2E2E2E2E2DCE2E2E2E2E2E2E2E2E2E2E2E2E2E2E2E2E2E2E2E2E2E2E2E2E2E2E2E2E2E2E2E2E2E2E2E2E2E2E2E2E2E2E2E2
310
E2E2E2E2E2E2E2E2E2E2E2E2E2E2E2E2E2E2E2E2E2E2E2E2E2E2E2E2E2E2E2E2E2E2E2E2DCE2E2F5E2E2E2E2E2E2E2F5E2E2E2E2E2E2E2E2E2E2E2E2E2E2E2E2E2E2E2E2E2E2E2E2E2E2E2E2E2E2E2E2E2E2E2E2E2E2E2E2E2E2E2E2E2E2E2E2E2E2E2E2E2E2E2E2E2E2E2E2E2E2E2E2E2E2E2E2E2E2E2E2E2E2E2E2E2E2E2
310
E2F5E2E2F5E2E2E2E2E2E2E2E2E2E2E2E2E2E2E2E2E2E2E2E2E2E2E2E2E2E2E2E2E2E2E2E2E2E2E2E2E2E2E2E2E2E2E2E2E2E2E2E2E2E2E2E2E2E2E2E2E2E2E2E2E2E2E2E2E2E2E2E2E2E2BEE2E2E2E2E2E2E2E2DCE2E2E2E2E2E2E2E2E2E2E2E2E2E2E2E2E2E2E2E2E2E2E2E2E2E2E2E2E2E2E2E2E2E2E2E2E2E2E2E2E2E2
310
E2E2E2E2E2E2E2E2E2E2E2E2E2E2E2E2E2E2E2E2E2E2E2E2E2E2E2E2E2E2E2E2E2E2E2E2E2E2DCE2E2F5E2E2E2E2E2E2E2F5E2E2E2E2E2E2E2E2E2E2E2E2E2E2E2E2E2E2E2E2E2E2E2E2E2E2E2E2E2E2E2E2E2E2E2E2E2E2E2E2E2E2E2E2E2E2E2E2E2E2E2E2E2E2E2E2E2E2E2E2E2E2E2E2E2E2E2E2E2E2E2E2E2E2E2E2E2
310
E2E2E2F5E2E2F5E2E2E2E2E2E2E2E2E2E2E2E2E2E2E2E2E2E2E2E2E2E2E2E2E2E2E2E2E2E2E2E2E2E2E2E2E2E2E2E2E2E2E2E2E2E2E2E2E2E2E2E2E2E2E2E2E2E2E2E2E2E2E2E2E2E2E2E2E2E2BEE2E2E2E2E2E2E2E2DCE2E2E2E2E2E2E2E2E2E2E2E2E2E2E2E2E2E2E2E2E2E2E2E2E2E2E2E2E2E2E2E2E2E2E2E2E2E2E2E2
310
E2E2E2E2E2E2E2E2E2E2E2E2E2E2E2E2E2E2E2E2E2E2E2E2E2E2E2E2E2E2E2E2E2E2E2E2E2E2E2E2DCE2E2F5E2E2E2E2E2E2E2F5E2E2E2E2E2E2E2E2E2E2E2E2E2E2E2E2E2E2E2E2E2E2E2E2E2E2E2E2E2E2E2E2E2E2E2E2E2E2E2E2E2E2E2E2E2E2E2E2E2E2E2E2E2E2E2E2E2E2E2E2E2E2E2E2E2E2E2E2E2E2E2E2E2E2E2
310
E2E2E2E2E2F5E2E2F5E2E2E2E2E2E2E2E2E2E2E2E2E2E2E2E2E2E2E2E2E2E2E2E2E2E2E2E2E2E2E2E2E2E2E2E2E2E2E2E2E2E2E2E2E2E2E2E2E2E2E2E2E2E2E2E2E2E2E2E2E2E2E2E2E2E2E2E2E2E2BEE2E2E2E2E2E2E2E2DCE2E2E2E2E2E2E2E2E2E2E2E2E2E2E2E2E2E2E2E2E2E2E2E2E2E2E2E2E2E2E2E2E2E2E2E2E2E2
310
E2E2E2E2E2E2E2E2E2E2E2E2E2E2E2E2E2E2E2E2E2E2E2E2E2E2E2E2E2E2E2E2E2E2E2E2E2E2E2E2E2E2DCE2E2F5E2E2E2E2E2E2E2F5E2E2E2E2E2E2E2E2E2E2E2E2E2E2E2E2E2E2E2E2E2E2E2E2E2E2E2E2E2E2E2E2E2E2E2E2E2E2E2E2E2E2E2E2E2E2E2E2E2E2E2E2E2E2E2E2E2E2E2E2E2E2E2E2E2E2E2E2E2E2E2E2E2
310
E2E2E2E2E2E2E2F5E2E2F5E2E2E2E2E2E2E2E2E2E2E2E2E2E2E2E2E2E2E2E2E2E2E2E2E2E2E2E2E2E2E2E2E2E2E2E2E2E2E2E2E2E2E2E2E2E2E2E2E2E2E2E2E2E2E2E2E2E2E2E2E2E2E2E2E2E2E2E2E2E2BEE2E2E2E2E2E2E2E2DCE2E2E2E2E2E2E2E2E2E2E2E2E2E2E2E2E2E2E2E2E2E2E2E2E2E2E2E2E2E2E2E2E2E2E2E2
310
E2E2E2E2E2E2E2E2E2E2E2E2E2E2E2E2E2E2E2E2E2E2E2E2E2E2E2E2E2E2E2E2E2E2E2E2E2E2E2E2E2E2E2E2DCE2E2F5E2E2E2E2E2E2E2F5E2E2E2E2E2E2E2E2E2E2E2E2E2E2E2E2E2E2E2E2E2E2E2E2E2E2E2E2E2E2E2E2E2E2E2E2E2E2E2E2E2E2E2E2E2E2E2E2E2E2E2E2E2E2E2E2E2E2E2E2E2E2E2E2E2E2E2E2E2E2E2
310
E2E2E2E2E2E2E2E2E2F5E2E2F5E2E2E2E2E2E2E2E2E2E2E2E2E2E2E2E2E2E2E2E2E2E2E2E2E2E2E2E2E2E2E2E2E2E2E2E2E2E2E2E2E2E2E2E2E2E2E2E2E2E2E2E2E2E2E2E2E2E2E2E2E2E2E2E2E2E2E2E2E2E2BEE2E2E2E2E2E2E2E2DCE2E2E2E2E2E2E2E2E2E2E2E2E2E2E2E2E2E2E2E2E2E2E2E2E2E2E2E2E2E2E2E2E2E2
310
E2E2E2E2E2E2E2E2E2E2E2E2E2E2E2E2E2E2E2E2E2E2E2E2E2E2E2E2E2E2E2E2E2E2E2E2E2E2E2E2E2E2E2E2E2E2DCE2E2F5E2E2E2E2E2E2E2F5E2E2E2E2E2E2E2E2E2E2E2E2E2E2E2E2E2E2E2E2E2E2E2E2E2E2E2E2E2E2E2E2E2E2E2E2E2E2E2E2E2E2E2E2E2E2E2E2E2E2E2E2E2E2E2E2E2E2E2E2E2E2E2E2E2E2E2E2E2
310
E2E2E2E2E2E2E2E2E2E2E2F5E2E2F5E2E2E2E2E2E2E2E2E2E2E2E2E2E2E2E2E2E2E2E2E2E2E2E2E2E2E2E2E2E2E2E2E2E2E2E2E2E2E2E2E2E2E2E2E2E2E2E2E2E2E2E2E2E2E2E2E2E2E2E2E2E2E2E2E2E2E2E2E2E2BEE2E2E2E2E2E2E2E2DCDCDCDCDCDCDCDCDCDCDCDCDCDCDCDCDCDCDCDCDCDCDCDCDCDCDCDCDCDCDCDCDC
310
DCDCDCDCDCDCDCDCDCDCDCDCDCDCDCDCDCDCDCDCDCDCDCDCDCDCDCDCDCDCDCDCDCDCDCDCDCDCDCDCDCDCDCDCDCDCDCDCDCE2E2F5E2E2E2E2E2E2E2F5F5F5F5F5F5F5F5F5F5F5F5F5F5F5F5F5F5F5F5F5F5F5F5F5F5F5F5F5F5F5F5F5F5F5F5F5F5F5F5F5F5F5F5F5F5F5F5F5F5F5F5F5F5F5F5F5F5F5F5F5F5F5F5F5F5F5F5
310
F5F5F5F5F5F5F5F5F5F5F5F5F5F5E2E2F5E2E2E2E2E2E2E2E2E2E2E2E2E2E2E2E2E2E2E2E2E2E2E2E2E2E2E2E2E2E2E2E2E2E2E2E2E2E2E2E2E2E2E2E2E2E2E2E2E2E2E2E2E2E2E2E2E2E2E2E2E2E2E2E2E2E2E2E2E2E2BEE2E2E2E2E2E2E2E2E2E2E2E2E2E2E2E2E2E2E2E2E2E2E2E2E2E2E2E2E2E2E2E2E2E2E2E2E2E2E2
310
E2E2E2E2E2E2E2E2E2E2E2E2E2E2E2E2E2E2E2E2E2E2E2E2E2E2E2E2E2E2E2E2E2E2E2E2E2E2E2E2E2E2E2E2E2E2E2E2E2E2E2E2E2F5E2E2E2E2E2E2E2E2E2E2E2E2E2E2E2E2E2E2E2E2E2E2E2E2E2E2E2E2E2E2E2E2E2E2E2E2E2E2E2E2E2E2E2E2E2E2E2E2E2E2E2E2E2E2E2E2E2E2E2E2E2E2E2E2E2E2E2E2E2E2E2E2E2
310
E2E2E2E2E2E2E2E2E2E2E2E2E2E2E2E2E2E2F5E2E2E2E2E2E2E2E2E2E2E2E2E2E2E2E2E2E2E2E2E2E2E2E2E2E2E2E2E2E2E2E2E2E2E2E2E2E2E2E2E2E2E2E2E2E2E2E2E2E2E2E2E2E2E2E2E2E2E2E2E2E2E2E2E2E2E2E2E2E2BEBEBEBEBEBEBEBEBEBEBEBEBEBEBEBEBEBEBEBEBEBEBEBEBEBEBEBEBEBEBEBEBEBEBEBEBEBE
310
BEBEBEBEBEBEBEBEBEBEBEBEBEBEBEBEBEBEBEBEBEBEBEBEBEBEBEBEBEBEBEBEBEBEBEBEBEBEBEBEBEBEBEBEBEBEBEBEBEBEBEBEBEBEBEF5F5F5F5F5F5F5F5F5F5F5F5F5F5F5F5F5F5F5F5F5F5F5F5F5F5F5F5F5F5F5F5F5F5F5F5F5F5F5F5F5F5F5F5F5F5F5F5F5F5F5F5F5F5F5F5F5F5F5F5F5F5F5F5F5F5F5F5F5F5F5F5
310
F5F5F5F5F5F5F5F5F5F5F5F5F5F5F5F5F5F5F5F5F5E2E2E2E2E2E2E2E2E2E2E2E2E2E2E2E2E2E2E2E2E2E2E2E2E2E2E2E2E2E2E2E2E2E2E2E2E2E2E2E2E2E2E2E2E2E2E2E2E2E2E2E2E2E2E2E2E2E2E2E2E2E2E2E2E2E2E2E2E2E2E2E2E2E2E2E2E2E2E2E2E2E2E2E2E2E2E2E2E2E2E2E2E2E2E2E2E2E2E2E2E2E2E2E2E2E2
310
E2E2E2E2E2E2E2E2E2E2E2E2E2E2E2E2E2E2E2E2E2E2E2E2E2E2E2E2E2E2E2E2E2E2E2E2E2E2E2E2E2E2E2E2E2E2E2E2E2E2E2E2E2E2E2E2E2E2E2E2E2E2E2E2E2E2E2E2E2E2E2E2E2E2E2E2E2E2E2E2E2E2E2E2E2E2E2E2E2E2E2E2E2E2E2E2E2E2E2E2E2E2E2E2E2E2E2E2E2E2E2E2E2E2E2E2E2E2E2E2E2E2E2E2E2E2E2
310
E2E2E2E2E2E2E2E2E2E2E2E2E2E2E2E2E2E2E2E2E2E2E2E2E2E2E2E2E2E2E2E2E2E2E2E2E2E2E2E2E2E2E2E2E2E2E2E2E2E2E2E2E2E2E2E2E2E2
  0
XRECORD
  5
3E
102
{ACAD_REACTORS
330
3D
102
}
330
3D
100
AcDbXrecord
280
     1
270
     1
271
     1
  0
XRECORD
  5
3F
102
{ACAD_REACTORS
330
3D
102
}
330
3D
100
AcDbXrecord
280
     1
270
     1
271
     1
  0
XRECORD
  5
40
102
{ACAD_REACTORS
330
3D
102
}
330
3D
100
AcDbXrecord
280
     1
270
     1
271
     1
  0
XRECORD
  5
41
102
{ACAD_REACTORS
330
3D
102
}
330
3D
100
AcDbXrecord
280
     1
270
     1
271
     1
  0
XRECORD
  5
42
102
{ACAD_REACTORS
330
3D
102
}
330
3D
100
AcDbXrecord
280
     1
270
     1
271
     1
  0
XRECORD
  5
43
102
{ACAD_REACTORS
330
3D
102
}
330
3D
100
AcDbXrecord
280
     1
270
     1
271
     1
  0
XRECORD
  5
36
102
{ACAD_REACTORS
330
35
102
}
330
35
100
AcDbXrecord
280
     1
270
     1
271
     1
  0
XRECORD
  5
37
102
{ACAD_REACTORS
330
35
102
}
330
35
100
AcDbXrecord
280
     1
270
     1
271
     1
  0
XRECORD
  5
38
102
{ACAD_REACTORS
330
35
102
}
330
35
100
AcDbXrecord
280
     1
270
     1
271
     1
  0
XRECORD
  5
39
102
{ACAD_REACTORS
330
35
102
}
330
35
100
AcDbXrecord
280
     1
270
     1
271
     1
  0
XRECORD
  5
3A
102
{ACAD_REACTORS
330
35
102
}
330
35
100
AcDbXrecord
280
     1
270
     1
271
     1
  0
XRECORD
  5
3B
102
{ACAD_REACTORS
330
35
102
}
330
35
100
AcDbXrecord
280
     1
270
     1
271
     1
  0
XRECORD
  5
D
102
{ACAD_REACTORS
330
C
102
}
330
C
100
AcDbXrecord
280
     1
270
     1
271
     1
  0
XRECORD
  5
E
102
{ACAD_REACTORS
330
C
102
}
330
C
100
AcDbXrecord
280
     1
270
     1
271
     1
  0
XRECORD
  5
F
102
{ACAD_REACTORS
330
C
102
}
330
C
100
AcDbXrecord
280
     1
270
     1
271
     1
  0
XRECORD
  5
10
102
{ACAD_REACTORS
330
C
102
}
330
C
100
AcDbXrecord
280
     1
270
     1
271
     1
  0
XRECORD
  5
11
102
{ACAD_REACTORS
330
C
102
}
330
C
100
AcDbXrecord
280
     1
270
     1
271
     1
  0
XRECORD
  5
12
102
{ACAD_REACTORS
330
C
102
}
330
C
100
AcDbXrecord
280
     1
270
     1
271
     1
  0
CELLSTYLEMAP
  5
1D5
102
{ACAD_REACTORS
330
1D4
102
}
330
1D4
100
AcDbCellStyleMap
 90
        3
300
CELLSTYLE
  1
TABLEFORMAT_BEGIN
 90
        5
170
     1
 91
        0
 92
    32768
 62
   257
 93
        1
300
CONTENTFORMAT
  1
CONTENTFORMAT_BEGIN
 90
        0
 91
        0
 92
        4
 93
        0
300

 40
0.0
140
1.0
 94
        5
 62
     0
340
21
144
6.0
309
CONTENTFORMAT_END
171
     1
301
MARGIN
  1
CELLMARGIN_BEGIN
 40
1.5
 40
1.5
 40
1.5
 40
1.5
 40
0.18
 40
0.18
309
CELLMARGIN_END
 94
        6
 95
        1
302
GRIDFORMAT
  1
GRIDFORMAT_BEGIN
 90
        0
 91
        1
 62
     0
 92
       -2
340
0
 93
        0
 40
0.045
309
GRIDFORMAT_END
 95
        2
302
GRIDFORMAT
  1
GRIDFORMAT_BEGIN
 90
        0
 91
        1
 62
     0
 92
       -2
340
0
 93
        0
 40
0.045
309
GRIDFORMAT_END
 95
        4
302
GRIDFORMAT
  1
GRIDFORMAT_BEGIN
 90
        0
 91
        1
 62
     0
 92
       -2
340
0
 93
        0
 40
0.045
309
GRIDFORMAT_END
 95
        8
302
GRIDFORMAT
  1
GRIDFORMAT_BEGIN
 90
        0
 91
        1
 62
     0
 92
       -2
340
0
 93
        0
 40
0.045
309
GRIDFORMAT_END
 95
       16
302
GRIDFORMAT
  1
GRIDFORMAT_BEGIN
 90
        0
 91
        1
 62
     0
 92
       -2
340
0
 93
        0
 40
0.045
309
GRIDFORMAT_END
 95
       32
302
GRIDFORMAT
  1
GRIDFORMAT_BEGIN
 90
        0
 91
        1
 62
     0
 92
       -2
340
0
 93
        0
 40
0.045
309
GRIDFORMAT_END
309
TABLEFORMAT_END
  1
CELLSTYLE_BEGIN
 90
        1
 91
        1
300
_TITLE
309
CELLSTYLE_END
300
CELLSTYLE
  1
TABLEFORMAT_BEGIN
 90
        5
170
     1
 91
        0
 92
        0
 62
   257
 93
        1
300
CONTENTFORMAT
  1
CONTENTFORMAT_BEGIN
 90
        0
 91
        0
 92
        4
 93
        0
300

 40
0.0
140
1.0
 94
        5
 62
     0
340
21
144
4.5
309
CONTENTFORMAT_END
171
     1
301
MARGIN
  1
CELLMARGIN_BEGIN
 40
1.5
 40
1.5
 40
1.5
 40
1.5
 40
0.18
 40
0.18
309
CELLMARGIN_END
 94
        6
 95
        1
302
GRIDFORMAT
  1
GRIDFORMAT_BEGIN
 90
        0
 91
        1
 62
     0
 92
       -2
340
0
 93
        0
 40
0.045
309
GRIDFORMAT_END
 95
        2
302
GRIDFORMAT
  1
GRIDFORMAT_BEGIN
 90
        0
 91
        1
 62
     0
 92
       -2
340
0
 93
        0
 40
0.045
309
GRIDFORMAT_END
 95
        4
302
GRIDFORMAT
  1
GRIDFORMAT_BEGIN
 90
        0
 91
        1
 62
     0
 92
       -2
340
0
 93
        0
 40
0.045
309
GRIDFORMAT_END
 95
        8
302
GRIDFORMAT
  1
GRIDFORMAT_BEGIN
 90
        0
 91
        1
 62
     0
 92
       -2
340
0
 93
        0
 40
0.045
309
GRIDFORMAT_END
 95
       16
302
GRIDFORMAT
  1
GRIDFORMAT_BEGIN
 90
        0
 91
        1
 62
     0
 92
       -2
340
0
 93
        0
 40
0.045
309
GRIDFORMAT_END
 95
       32
302
GRIDFORMAT
  1
GRIDFORMAT_BEGIN
 90
        0
 91
        1
 62
     0
 92
       -2
340
0
 93
        0
 40
0.045
309
GRIDFORMAT_END
309
TABLEFORMAT_END
  1
CELLSTYLE_BEGIN
 90
        2
 91
        1
300
_HEADER
309
CELLSTYLE_END
300
CELLSTYLE
  1
TABLEFORMAT_BEGIN
 90
        5
170
     1
 91
        0
 92
        0
 62
   257
 93
        1
300
CONTENTFORMAT
  1
CONTENTFORMAT_BEGIN
 90
        0
 91
        0
 92
        4
 93
        0
300

 40
0.0
140
1.0
 94
        2
 62
     0
340
21
144
4.5
309
CONTENTFORMAT_END
171
     1
301
MARGIN
  1
CELLMARGIN_BEGIN
 40
1.5
 40
1.5
 40
1.5
 40
1.5
 40
0.18
 40
0.18
309
CELLMARGIN_END
 94
        6
 95
        1
302
GRIDFORMAT
  1
GRIDFORMAT_BEGIN
 90
        0
 91
        1
 62
     0
 92
       -2
340
0
 93
        0
 40
0.045
309
GRIDFORMAT_END
 95
        2
302
GRIDFORMAT
  1
GRIDFORMAT_BEGIN
 90
        0
 91
        1
 62
     0
 92
       -2
340
0
 93
        0
 40
0.045
309
GRIDFORMAT_END
 95
        4
302
GRIDFORMAT
  1
GRIDFORMAT_BEGIN
 90
        0
 91
        1
 62
     0
 92
       -2
340
0
 93
        0
 40
0.045
309
GRIDFORMAT_END
 95
        8
302
GRIDFORMAT
  1
GRIDFORMAT_BEGIN
 90
        0
 91
        1
 62
     0
 92
       -2
340
0
 93
        0
 40
0.045
309
GRIDFORMAT_END
 95
       16
302
GRIDFORMAT
  1
GRIDFORMAT_BEGIN
 90
        0
 91
        1
 62
     0
 92
       -2
340
0
 93
        0
 40
0.045
309
GRIDFORMAT_END
 95
       32
302
GRIDFORMAT
  1
GRIDFORMAT_BEGIN
 90
        0
 91
        1
 62
     0
 92
       -2
340
0
 93
        0
 40
0.045
309
GRIDFORMAT_END
309
TABLEFORMAT_END
  1
CELLSTYLE_BEGIN
 90
        3
 91
        2
300
_DATA
309
CELLSTYLE_END
  0
ENDSEC
  0
EOF
