  0
SECTION
  2
HEADER
  9
$ACADVER
  1
AC1024
  9
$ACADMAINTVER
 70
     6
  9
$DWGCODEPAGE
  3
ANSI_1252
  9
$INSBASE
 10
0.0
 20
0.0
 30
0.0
  9
$EXTMIN
 10
-0.0008513254783793
 20
-0.0394803704075457
 30
-0.0000000349181948
  9
$EXTMAX
 10
420.0185375612557
 20
594.0428330722945
 30
0.0000000814935746
  9
$LIMMIN
 10
0.0
 20
0.0
  9
$LIMMAX
 10
0.0
 20
0.0
  9
$ORTHOMODE
 70
     0
  9
$REGENMODE
 70
     1
  9
$FILLMODE
 70
     1
  9
$QTEXTMODE
 70
     0
  9
$MIRRTEXT
 70
     1
  9
$LTSCALE
 40
1.0
  9
$ATTMODE
 70
     1
  9
$TEXTSIZE
 40
2.5
  9
$TRACEWID
 40
1.0
  9
$TEXTSTYLE
  7
Standard
  9
$CLAYER
  8
0
  9
$CELTYPE
  6
ByLayer
  9
$CECOLOR
 62
   256
  9
$CELTSCALE
 40
1.0
  9
$DISPSILH
 70
     0
  9
$DIMSCALE
 40
1.0
  9
$DIMASZ
 40
2.5
  9
$DIMEXO
 40
1.0
  9
$DIMDLI
 40
3.75
  9
$DIMRND
 40
0.0
  9
$DIMDLE
 40
0.0
  9
$DIMEXE
 40
1.0
  9
$DIMTP
 40
0.0
  9
$DIMTM
 40
0.0
  9
$DIMTXT
 40
2.5
  9
$DIMCEN
 40
2.5
  9
$DIMTSZ
 40
0.0
  9
$DIMTOL
 70
     0
  9
$DIMLIM
 70
     0
  9
$DIMTIH
 70
     1
  9
$DIMTOH
 70
     1
  9
$DIMSE1
 70
     0
  9
$DIMSE2
 70
     0
  9
$DIMTAD
 70
     1
  9
$DIMZIN
 70
     1
  9
$DIMBLK
  1

  9
$DIMASO
 70
     1
  9
$DIMSHO
 70
     1
  9
$DIMPOST
  1

  9
$DIMAPOST
  1

  9
$DIMALT
 70
     0
  9
$DIMALTD
 70
     3
  9
$DIMALTF
 40
0.0393700787401575
  9
$DIMLFAC
 40
1.0
  9
$DIMTOFL
 70
     1
  9
$DIMTVP
 40
0.0
  9
$DIMTIX
 70
     0
  9
$DIMSOXD
 70
     0
  9
$DIMSAH
 70
     0
  9
$DIMBLK1
  1

  9
$DIMBLK2
  1

  9
$DIMSTYLE
  2
ISO-25
  9
$DIMCLRD
 70
     0
  9
$DIMCLRE
 70
     0
  9
$DIMCLRT
 70
     0
  9
$DIMTFAC
 40
1.0
  9
$DIMGAP
 40
1.524
  9
$DIMJUST
 70
     0
  9
$DIMSD1
 70
     0
  9
$DIMSD2
 70
     0
  9
$DIMTOLJ
 70
     0
  9
$DIMTZIN
 70
     1
  9
$DIMALTZ
 70
     0
  9
$DIMALTTZ
 70
     0
  9
$DIMUPT
 70
     0
  9
$DIMDEC
 70
     2
  9
$DIMTDEC
 70
     2
  9
$DIMALTU
 70
     2
  9
$DIMALTTD
 70
     3
  9
$DIMTXSTY
  7
Standard
  9
$DIMAUNIT
 70
     0
  9
$DIMADEC
 70
     0
  9
$DIMALTRND
 40
0.0
  9
$DIMAZIN
 70
     0
  9
$DIMDSEP
 70
    44
  9
$DIMATFIT
 70
     3
  9
$DIMFRAC
 70
     0
  9
$DIMLDRBLK
  1

  9
$DIMLUNIT
 70
     2
  9
$DIMLWD
 70
    -2
  9
$DIMLWE
 70
    -2
  9
$DIMTMOVE
 70
     0
  9
$DIMFXL
 40
1.0
  9
$DIMFXLON
 70
     0
  9
$DIMJOGANG
 40
0.7853981633974483
  9
$DIMTFILL
 70
     0
  9
$DIMTFILLCLR
 70
     0
  9
$DIMARCSYM
 70
     0
  9
$DIMLTYPE
  6

  9
$DIMLTEX1
  6

  9
$DIMLTEX2
  6

  9
$DIMTXTDIRECTION
 70
     0
  9
$LUNITS
 70
     2
  9
$LUPREC
 70
     1
  9
$SKETCHINC
 40
1.0
  9
$FILLETRAD
 40
0.0
  9
$AUNITS
 70
     0
  9
$AUPREC
 70
     0
  9
$MENU
  1
.
  9
$ELEVATION
 40
0.0
  9
$PELEVATION
 40
0.0
  9
$THICKNESS
 40
0.0
  9
$LIMCHECK
 70
     0
  9
$CHAMFERA
 40
10.0
  9
$CHAMFERB
 40
10.0
  9
$CHAMFERC
 40
20.0
  9
$CHAMFERD
 40
0.0
  9
$SKPOLY
 70
     0
  9
$TDCREATE
 40
2454678.702108484
  9
$TDUCREATE
 40
2454678.618775151
  9
$TDUPDATE
 40
2456930.561671863
  9
$TDUUPDATE
 40
2456930.478338530
  9
$TDINDWG
 40
0.0146737153
  9
$TDUSRTIMER
 40
0.0146737153
  9
$USRTIMER
 70
     1
  9
$ANGBASE
 50
0.0
  9
$ANGDIR
 70
     0
  9
$PDMODE
 70
     0
  9
$PDSIZE
 40
-1.0
  9
$PLINEWID
 40
0.0
  9
$SPLFRAME
 70
     0
  9
$SPLINETYPE
 70
     6
  9
$SPLINESEGS
 70
     8
  9
$HANDSEED
  5
16A
  9
$SURFTAB1
 70
     6
  9
$SURFTAB2
 70
     6
  9
$SURFTYPE
 70
     6
  9
$SURFU
 70
     6
  9
$SURFV
 70
     6
  9
$UCSBASE
  2

  9
$UCSNAME
  2

  9
$UCSORG
 10
0.0
 20
0.0
 30
0.0
  9
$UCSXDIR
 10
1.0
 20
0.0
 30
0.0
  9
$UCSYDIR
 10
0.0
 20
1.0
 30
0.0
  9
$UCSORTHOREF
  2

  9
$UCSORTHOVIEW
 70
     0
  9
$UCSORGTOP
 10
0.0
 20
0.0
 30
0.0
  9
$UCSORGBOTTOM
 10
0.0
 20
0.0
 30
0.0
  9
$UCSORGLEFT
 10
0.0
 20
0.0
 30
0.0
  9
$UCSORGRIGHT
 10
0.0
 20
0.0
 30
0.0
  9
$UCSORGFRONT
 10
0.0
 20
0.0
 30
0.0
  9
$UCSORGBACK
 10
0.0
 20
0.0
 30
0.0
  9
$PUCSBASE
  2

  9
$PUCSNAME
  2

  9
$PUCSORG
 10
0.0
 20
0.0
 30
0.0
  9
$PUCSXDIR
 10
1.0
 20
0.0
 30
0.0
  9
$PUCSYDIR
 10
0.0
 20
1.0
 30
0.0
  9
$PUCSORTHOREF
  2

  9
$PUCSORTHOVIEW
 70
     0
  9
$PUCSORGTOP
 10
0.0
 20
0.0
 30
0.0
  9
$PUCSORGBOTTOM
 10
0.0
 20
0.0
 30
0.0
  9
$PUCSORGLEFT
 10
0.0
 20
0.0
 30
0.0
  9
$PUCSORGRIGHT
 10
0.0
 20
0.0
 30
0.0
  9
$PUCSORGFRONT
 10
0.0
 20
0.0
 30
0.0
  9
$PUCSORGBACK
 10
0.0
 20
0.0
 30
0.0
  9
$USERI1
 70
     0
  9
$USERI2
 70
     0
  9
$USERI3
 70
     0
  9
$USERI4
 70
     0
  9
$USERI5
 70
     0
  9
$USERR1
 40
0.0
  9
$USERR2
 40
0.0
  9
$USERR3
 40
0.0
  9
$USERR4
 40
0.0
  9
$USERR5
 40
0.0
  9
$WORLDVIEW
 70
     1
  9
$SHADEDGE
 70
     3
  9
$SHADEDIF
 70
    70
  9
$TILEMODE
 70
     1
  9
$MAXACTVP
 70
    64
  9
$PINSBASE
 10
0.0
 20
0.0
 30
0.0
  9
$PLIMCHECK
 70
     0
  9
$PEXTMIN
 10
1.000000000000000E+20
 20
1.000000000000000E+20
 30
1.000000000000000E+20
  9
$PEXTMAX
 10
-1.000000000000000E+20
 20
-1.000000000000000E+20
 30
-1.000000000000000E+20
  9
$PLIMMIN
 10
0.0
 20
0.0
  9
$PLIMMAX
 10
420.0
 20
297.0
  9
$UNITMODE
 70
     0
  9
$VISRETAIN
 70
     1
  9
$PLINEGEN
 70
     0
  9
$PSLTSCALE
 70
     1
  9
$TREEDEPTH
 70
  3020
  9
$CMLSTYLE
  2
Standard
  9
$CMLJUST
 70
     0
  9
$CMLSCALE
 40
20.0
  9
$PROXYGRAPHICS
 70
     1
  9
$MEASUREMENT
 70
     1
  9
$CELWEIGHT
370
    -1
  9
$ENDCAPS
280
     0
  9
$JOINSTYLE
280
     0
  9
$LWDISPLAY
290
     0
  9
$INSUNITS
 70
     4
  9
$HYPERLINKBASE
  1

  9
$STYLESHEET
  1

  9
$XEDIT
290
     1
  9
$CEPSNTYPE
380
     0
  9
$PSTYLEMODE
290
     1
  9
$FINGERPRINTGUID
  2
{3DCB8292-4878-44B4-B299-C9B874D4137F}
  9
$VERSIONGUID
  2
{305306AC-D43C-44F5-999E-ECD0211F6DC0}
  9
$EXTNAMES
290
     1
  9
$PSVPSCALE
 40
0.0
  9
$OLESTARTUP
290
     0
  9
$SORTENTS
280
   127
  9
$INDEXCTL
280
     0
  9
$HIDETEXT
280
     1
  9
$XCLIPFRAME
280
     2
  9
$HALOGAP
280
     0
  9
$OBSCOLOR
 70
   257
  9
$OBSLTYPE
280
     0
  9
$INTERSECTIONDISPLAY
280
     0
  9
$INTERSECTIONCOLOR
 70
   257
  9
$DIMASSOC
280
     1
  9
$PROJECTNAME
  1

  9
$CAMERADISPLAY
290
     0
  9
$LENSLENGTH
 40
50.0
  9
$CAMERAHEIGHT
 40
0.0
  9
$STEPSPERSEC
 40
2.0
  9
$STEPSIZE
 40
6.0
  9
$3DDWFPREC
 40
2.0
  9
$PSOLWIDTH
 40
0.25
  9
$PSOLHEIGHT
 40
4.0
  9
$LOFTANG1
 40
1.570796326794896
  9
$LOFTANG2
 40
1.570796326794896
  9
$LOFTMAG1
 40
0.0
  9
$LOFTMAG2
 40
0.0
  9
$LOFTPARAM
 70
     7
  9
$LOFTNORMALS
280
     1
  9
$LATITUDE
 40
37.795
  9
$LONGITUDE
 40
-122.394
  9
$NORTHDIRECTION
 40
0.0
  9
$TIMEZONE
 70
 -8000
  9
$LIGHTGLYPHDISPLAY
280
     1
  9
$TILEMODELIGHTSYNCH
280
     1
  9
$CMATERIAL
347
34
  9
$SOLIDHIST
280
     1
  9
$SHOWHIST
280
     1
  9
$DWFFRAME
280
     2
  9
$DGNFRAME
280
     0
  9
$REALWORLDSCALE
290
     1
  9
$INTERFERECOLOR
 62
     1
  9
$INTERFEREOBJVS
345
4B
  9
$INTERFEREVPVS
346
4C
  9
$CSHADOW
280
     0
  9
$SHADOWPLANELOCATION
 40
0.0
  0
ENDSEC
  0
SECTION
  2
CLASSES
  0
CLASS
  1
ACDBDICTIONARYWDFLT
  2
AcDbDictionaryWithDefault
  3
ObjectDBX Classes
 90
        0
 91
        1
280
     0
281
     0
  0
CLASS
  1
MATERIAL
  2
AcDbMaterial
  3
ObjectDBX Classes
 90
     1153
 91
        3
280
     0
281
     0
  0
CLASS
  1
VISUALSTYLE
  2
AcDbVisualStyle
  3
ObjectDBX Classes
 90
     4095
 91
        3
280
     0
281
     0
  0
CLASS
  1
TABLESTYLE
  2
AcDbTableStyle
  3
ObjectDBX Classes
 90
     4095
 91
        1
280
     0
281
     0
  0
CLASS
  1
SCALE
  2
AcDbScale
  3
ObjectDBX Classes
 90
     1153
 91
       33
280
     0
281
     0
  0
CLASS
  1
MLEADERSTYLE
  2
AcDbMLeaderStyle
  3
ACDB_MLEADERSTYLE_CLASS
 90
     4095
 91
        0
280
     0
281
     0
  0
CLASS
  1
CELLSTYLEMAP
  2
AcDbCellStyleMap
  3
ObjectDBX Classes
 90
     1152
 91
        1
280
     0
281
     0
  0
CLASS
  1
DICTIONARYVAR
  2
AcDbDictionaryVar
  3
ObjectDBX Classes
 90
        0
 91
        7
280
     0
281
     0
  0
CLASS
  1
SORTENTSTABLE
  2
AcDbSortentsTable
  3
ObjectDBX Classes
 90
        0
 91
        1
280
     0
281
     0
  0
CLASS
  1
AEC_REFEDIT_STATUS_TRACKER
  2
AecDbRefEditStatusTracker
  3
AecArchBase60|Product Desc: Autodesk Architectural Desktop 2007 |Company: Autodesk,Inc. |WEB Address: www.autodesk.com
 90
      129
 91
        0
280
     0
281
     0
  0
CLASS
  1
NPOCOLLECTION
  2
AcDbImpNonPersistentObjectsCollection
  3
ObjectDBX Classes
 90
     1153
 91
        0
280
     0
281
     0
  0
ENDSEC
  0
SECTION
  2
TABLES
  0
TABLE
  2
VPORT
  5
27
102
{ACAD_XDICTIONARY
360
2B
102
}
330
0
100
AcDbSymbolTable
 70
     1
  0
VPORT
  5
28
330
27
100
AcDbSymbolTableRecord
100
AcDbViewportTableRecord
  2
*Active
 70
     0
 10
0.0
 20
0.0
 11
1.0
 21
1.0
 12
338.7916758600256
 22
227.7965513364791
 13
0.0
 23
0.0
 14
10.0
 24
10.0
 15
10.0
 25
10.0
 16
0.0
 26
0.0
 36
1.0
 17
0.0
 27
0.0
 37
0.0
 40
957.7778876877554
 41
1.937738246505718
 42
50.0
 43
0.0
 44
0.0
 50
0.0
 51
0.0
 71
     0
 72
  2000
 73
     1
 74
     2
 75
     0
 76
     0
 77
     0
 78
     0
281
     0
 65
     1
110
0.0
120
0.0
130
0.0
111
1.0
121
0.0
131
0.0
112
0.0
122
1.0
132
0.0
 79
     0
146
0.0
348
29
 60
     3
 61
     5
292
     1
282
     1
141
0.0
142
0.0
 63
   250
421
  3355443
  0
ENDTAB
  0
TABLE
  2
LTYPE
  5
22
330
0
100
AcDbSymbolTable
 70
     2
  0
LTYPE
  5
23
330
22
100
AcDbSymbolTableRecord
100
AcDbLinetypeTableRecord
  2
ByBlock
 70
     0
  3

 72
    65
 73
     0
 40
0.0
  0
LTYPE
  5
24
330
22
100
AcDbSymbolTableRecord
100
AcDbLinetypeTableRecord
  2
ByLayer
 70
     0
  3

 72
    65
 73
     0
 40
0.0
  0
LTYPE
  5
13
330
22
100
AcDbSymbolTableRecord
100
AcDbLinetypeTableRecord
  2
Continuous
 70
     0
  3
Solid line
 72
    65
 73
     0
 40
0.0
  0
LTYPE
  5
A5
330
22
100
AcDbSymbolTableRecord
100
AcDbLinetypeTableRecord
  2
AUSGEZOGEN
 70
     0
  3
Ausgezogene Linie
 72
    65
 73
     0
 40
0.0
  0
ENDTAB
  0
TABLE
  2
LAYER
  5
1C
102
{ACAD_XDICTIONARY
360
1D
102
}
330
0
100
AcDbSymbolTable
 70
     6
  0
LAYER
  5
4
102
{ACAD_XDICTIONARY
360
5
102
}
330
1C
100
AcDbSymbolTableRecord
100
AcDbLayerTableRecord
  2
0
 70
     0
 62
     7
  6
Continuous
370
    -3
390
7
347
A
  0
LAYER
  5
79
330
1C
100
AcDbSymbolTableRecord
100
AcDbLayerTableRecord
  2
Defpoints
 70
     0
 62
     7
  6
Continuous
290
     0
370
    -3
390
7
347
A
  0
LAYER
  5
9E
102
{ACAD_XDICTIONARY
360
9F
102
}
330
1C
100
AcDbSymbolTableRecord
100
AcDbLayerTableRecord
  2
01-99
 70
     0
 62
     2
  6
Continuous
370
    -3
390
7
347
A
  0
LAYER
  5
A3
102
{ACAD_XDICTIONARY
360
A4
102
}
330
1C
100
AcDbSymbolTableRecord
100
AcDbLayerTableRecord
  2
02-99
 70
     0
 62
     1
  6
AUSGEZOGEN
370
    -3
390
7
347
A
  0
LAYER
  5
D9
102
{ACAD_XDICTIONARY
360
DA
102
}
330
1C
100
AcDbSymbolTableRecord
100
AcDbLayerTableRecord
  2
06-99
 70
     0
 62
     1
  6
AUSGEZOGEN
370
    -3
390
7
347
A
  0
LAYER
  5
C4
102
{ACAD_XDICTIONARY
360
C5
102
}
330
1C
100
AcDbSymbolTableRecord
100
AcDbLayerTableRecord
  2
08-99
 70
     0
 62
     7
  6
Continuous
370
    -3
390
7
347
A
  0
ENDTAB
  0
TABLE
  2
STYLE
  5
1F
330
0
100
AcDbSymbolTable
 70
     3
  0
STYLE
  5
20
330
1F
100
AcDbSymbolTableRecord
100
AcDbTextStyleTableRecord
  2
Standard
 70
     0
 40
0.0
 41
1.0
 50
0.0
 71
     0
 42
2.5
  3
txt
  4

  0
STYLE
  5
C6
330
1F
100
AcDbSymbolTableRecord
100
AcDbTextStyleTableRecord
  2
ROMANS8
 70
     0
 40
0.0
 41
1.0
 50
0.0
 71
     0
 42
2.5
  3
ROMANS8
  4

  0
STYLE
  5
EB
330
1F
100
AcDbSymbolTableRecord
100
AcDbTextStyleTableRecord
  2
ROMAND8
 70
     0
 40
0.0
 41
1.0
 50
0.0
 71
     0
 42
3.5
  3
ROMAND8
  4

  0
ENDTAB
  0
TABLE
  2
VIEW
  5
25
330
0
100
AcDbSymbolTable
 70
     0
  0
ENDTAB
  0
TABLE
  2
UCS
  5
26
330
0
100
AcDbSymbolTable
 70
     0
  0
ENDTAB
  0
TABLE
  2
APPID
  5
2C
330
0
100
AcDbSymbolTable
 70
     2
  0
APPID
  5
2D
330
2C
100
AcDbSymbolTableRecord
100
AcDbRegAppTableRecord
  2
ACAD
 70
     0
  0
APPID
  5
17
330
2C
100
AcDbSymbolTableRecord
100
AcDbRegAppTableRecord
  2
ACAD_PSEXT
 70
     0
  0
ENDTAB
  0
TABLE
  2
DIMSTYLE
  5
2E
330
0
100
AcDbSymbolTable
 70
     1
100
AcDbDimStyleTable
 71
     1
340
2F
  0
DIMSTYLE
105
2F
102
{ACAD_REACTORS
330
8B
330
7D
330
6E
102
}
330
2E
100
AcDbSymbolTableRecord
100
AcDbDimStyleTableRecord
  2
ISO-25
 70
     0
 41
2.5
 42
0.625
 43
3.75
 44
1.25
 73
     0
 74
     0
 77
     1
 78
     8
140
2.5
141
2.5
143
0.03937007874016
147
0.625
171
     3
172
     1
271
     2
272
     2
274
     3
278
    44
283
     0
284
     8
340
20
  0
ENDTAB
  0
TABLE
  2
BLOCK_RECORD
  5
1
330
0
100
AcDbSymbolTable
 70
     4
  0
BLOCK_RECORD
  5
2
330
1
100
AcDbSymbolTableRecord
100
AcDbBlockTableRecord
  2
*Model_Space
340
15
 70
     0
280
     1
281
     0
  0
BLOCK_RECORD
  5
18
330
1
100
AcDbSymbolTableRecord
100
AcDbBlockTableRecord
  2
*Paper_Space
340
1B
 70
     0
280
     1
281
     0
  0
BLOCK_RECORD
  5
99
102
{ACAD_XDICTIONARY
360
9A
102
}
330
1
100
AcDbSymbolTableRecord
100
AcDbBlockTableRecord
  2
DIN A4
340
0
102
{BLKREFS
331
98
102
}
 70
     4
280
     1
281
     0
  0
BLOCK_RECORD
  5
8C
330
1
100
AcDbSymbolTableRecord
100
AcDbBlockTableRecord
  2
*D1
340
0
 70
     0
280
     1
281
     0
  0
BLOCK_RECORD
  5
7E
330
1
100
AcDbSymbolTableRecord
100
AcDbBlockTableRecord
  2
*D2
340
0
 70
     0
280
     1
281
     0
  0
BLOCK_RECORD
  5
6F
330
1
100
AcDbSymbolTableRecord
100
AcDbBlockTableRecord
  2
*D3
340
0
 70
     0
280
     1
281
     0
  0
ENDTAB
  0
ENDSEC
  0
SECTION
  2
BLOCKS
  0
BLOCK
  5
3
330
2
100
AcDbEntity
  8
0
100
AcDbBlockBegin
  2
*Model_Space
 70
     0
 10
0.0
 20
0.0
 30
0.0
  3
*Model_Space
  1

  0
ENDBLK
  5
14
330
2
100
AcDbEntity
  8
0
100
AcDbBlockEnd
  0
BLOCK
  5
19
330
18
100
AcDbEntity
 67
     1
  8
0
100
AcDbBlockBegin
  2
*Paper_Space
 70
     0
 10
0.0
 20
0.0
 30
0.0
  3
*Paper_Space
  1

  0
ENDBLK
  5
1A
330
18
100
AcDbEntity
 67
     1
  8
0
100
AcDbBlockEnd
  0
BLOCK
  5
9C
330
99
100
AcDbEntity
  8
0
100
AcDbBlockBegin
  2
DIN A4
 70
     2
 10
0.0
 20
0.0
 30
0.0
  3
DIN A4
  1

  0
LINE
  5
9D
330
99
100
AcDbEntity
  8
01-99
100
AcDbLine
 10
204.0000075739527
 20
290.9999979434973
 30
0.0
 11
20.0000075739529
 21
290.9999979434973
 31
0.0
  0
LINE
  5
A0
330
99
100
AcDbEntity
  8
01-99
100
AcDbLine
 10
204.0000075122353
 20
290.9999979871026
 30
0.0
 11
204.0000075122355
 21
5.999997987102574
 31
0.0
  0
LINE
  5
A1
330
99
100
AcDbEntity
  8
01-99
100
AcDbLine
 10
20.0000075122355
 20
5.99999798710246
 30
0.0
 11
20.0000075122355
 21
290.9999979871026
 31
0.0
  0
LWPOLYLINE
  5
A2
330
99
100
AcDbEntity
  8
02-99
100
AcDbPolyline
 90
        4
 70
     1
 43
0.0
 10
0.0000075122354986
 20
-0.0000020128974256
 10
210.0000075122355
 20
-0.0000020128974256
 10
210.0000075122355
 20
296.9999979871026
 10
0.0000075122354986
 20
296.9999979871026
  0
LINE
  5
A6
330
99
100
AcDbEntity
  8
01-99
100
AcDbLine
 10
20.0000075122355
 20
5.99999798710246
 30
0.0
 11
204.0000075122355
 21
5.999997987102631
 31
0.0
  0
LINE
  5
A7
330
99
100
AcDbEntity
  8
01-99
100
AcDbLine
 10
70.0000075122355
 20
11.11110909810247
 30
0.0
 11
20.0000075122355
 21
11.11110909810247
 31
0.0
  0
LINE
  5
A8
330
99
100
AcDbEntity
  8
01-99
100
AcDbLine
 10
70.0000075122355
 20
16.22222020910249
 30
0.0
 11
20.0000075122355
 21
16.22222020910249
 31
0.0
  0
LINE
  5
A9
330
99
100
AcDbEntity
  8
01-99
100
AcDbLine
 10
70.0000075122355
 20
21.3333313201025
 30
0.0
 11
20.0000075122355
 21
21.33333132010244
 31
0.0
  0
LINE
  5
AA
330
99
100
AcDbEntity
  8
01-99
100
AcDbLine
 10
115.0000075122355
 20
26.44444243110252
 30
0.0
 11
20.0000075122355
 21
26.44444243110246
 31
0.0
  0
LINE
  5
AB
330
99
100
AcDbEntity
  8
01-99
100
AcDbLine
 10
115.0000075122355
 20
31.55555354210253
 30
0.0
 11
20.0000075122355
 21
31.55555354210247
 31
0.0
  0
LINE
  5
AC
330
99
100
AcDbEntity
  8
01-99
100
AcDbLine
 10
45.0000075122355
 20
5.99999798710246
 30
0.0
 11
45.0000075122355
 21
11.11110909810247
 31
0.0
  0
LINE
  5
AD
330
99
100
AcDbEntity
  8
01-99
100
AcDbLine
 10
28.0000075122355
 20
11.11110909810247
 30
0.0
 11
28.0000075122355
 21
36.66666465376915
 31
0.0
  0
LINE
  5
AE
330
99
100
AcDbEntity
  8
01-99
100
AcDbLine
 10
70.0000075122355
 20
5.99999798710246
 30
0.0
 11
70.0000075122355
 21
51.99999798710246
 31
0.0
  0
LINE
  5
AF
330
99
100
AcDbEntity
  8
01-99
100
AcDbLine
 10
115.0000075122355
 20
5.99999798710246
 30
0.0
 11
115.0000075122355
 21
51.99999798710246
 31
0.0
  0
LINE
  5
B0
330
99
100
AcDbEntity
  8
01-99
100
AcDbLine
 10
144.5000075122355
 20
5.99999798710246
 30
0.0
 11
144.5000075122355
 21
16.22222020910254
 31
0.0
  0
LINE
  5
B1
330
99
100
AcDbEntity
  8
01-99
100
AcDbLine
 10
177.0000075122355
 20
5.99999798710246
 30
0.0
 11
177.0000075122355
 21
16.2222202091026
 31
0.0
  0
LINE
  5
B2
330
99
100
AcDbEntity
  8
01-99
100
AcDbLine
 10
148.5000075122355
 20
36.6666646537692
 30
0.0
 11
148.5000075122355
 21
51.99999798710257
 31
0.0
  0
LINE
  5
B3
330
99
100
AcDbEntity
  8
01-99
100
AcDbLine
 10
182.0000075122355
 20
36.6666646537692
 30
0.0
 11
182.0000075122355
 21
51.99999798710257
 31
0.0
  0
LINE
  5
B4
330
99
100
AcDbEntity
  8
01-99
100
AcDbLine
 10
78.00000751223549
 20
21.33333132043583
 30
0.0
 11
78.00000751223549
 21
36.6666646537692
 31
0.0
  0
LINE
  5
B5
330
99
100
AcDbEntity
  8
01-99
100
AcDbLine
 10
60.00319585166497
 20
11.11110909810247
 30
0.0
 11
60.00319585166497
 21
36.66666465376915
 31
0.0
  0
LINE
  5
B6
330
99
100
AcDbEntity
  8
01-99
100
AcDbLine
 10
48.00319585166497
 20
11.11110909810247
 30
0.0
 11
48.00319585166497
 21
36.66666465376915
 31
0.0
  0
LINE
  5
B7
330
99
100
AcDbEntity
  8
01-99
100
AcDbLine
 10
204.0000075122355
 20
51.99999798710257
 30
0.0
 11
20.00000751223368
 21
51.99999798710246
 31
0.0
  0
LINE
  5
B8
330
99
100
AcDbEntity
  8
01-99
100
AcDbLine
 10
115.0000075122355
 20
21.33333132043583
 30
0.0
 11
70.0000075122355
 21
21.33333132043583
 31
0.0
  0
LINE
  5
B9
330
99
100
AcDbEntity
  8
01-99
100
AcDbLine
 10
115.0000075122355
 20
36.6666646537692
 30
0.0
 11
20.0000075122355
 21
36.66666465376909
 31
0.0
  0
LINE
  5
BA
330
99
100
AcDbEntity
  8
01-99
100
AcDbLine
 10
92.0000075122355
 20
21.33333132043583
 30
0.0
 11
92.0000075122355
 21
51.99999798710251
 31
0.0
  0
LINE
  5
BB
330
99
100
AcDbEntity
  8
01-99
100
AcDbLine
 10
70.0000075122355
 20
36.66666465376915
 30
0.0
 11
78.00000751223549
 21
31.55555355376919
 31
0.0
  0
LINE
  5
BC
330
99
100
AcDbEntity
  8
01-99
100
AcDbLine
 10
70.0000075122355
 20
31.55555355376919
 30
0.0
 11
78.00000751223549
 21
36.6666646537692
 31
0.0
  0
LINE
  5
BD
330
99
100
AcDbEntity
  8
01-99
100
AcDbLine
 10
204.0000075122355
 20
44.33333132043583
 30
0.0
 11
115.0000075122355
 21
44.33333132043578
 31
0.0
  0
LINE
  5
BE
330
99
100
AcDbEntity
  8
01-99
100
AcDbLine
 10
115.0000075122355
 20
16.22222020910249
 30
0.0
 11
204.0000075122355
 21
16.2222202091026
 31
0.0
  0
LINE
  5
BF
330
99
100
AcDbEntity
  8
01-99
100
AcDbLine
 10
115.0000075122355
 20
36.6666646537692
 30
0.0
 11
204.0000075122355
 21
36.66666465376926
 31
0.0
  0
LINE
  5
C0
330
99
100
AcDbEntity
  8
01-99
100
AcDbLine
 10
92.0000075122355
 20
41.77777576510249
 30
0.0
 11
70.0000075122355
 21
41.77777576510249
 31
0.0
  0
LINE
  5
C1
330
99
100
AcDbEntity
  8
01-99
100
AcDbLine
 10
92.0000075122355
 20
46.8888868761025
 30
0.0
 11
70.0000075122355
 21
46.88888687610244
 31
0.0
  0
LINE
  5
C2
330
99
100
AcDbEntity
  8
01-99
100
AcDbLine
 10
20.00000751223368
 20
51.99999798710246
 30
0.0
 11
20.00000751223368
 21
5.99999798710246
 31
0.0
  0
TEXT
  5
C3
330
99
100
AcDbEntity
  8
08-99
100
AcDbText
 10
116.4997086805418
 20
32.66987169496042
 30
0.0
 40
2.5
  1
Benennung/Teil:
 51
15.0
  7
ROMANS8
100
AcDbText
  0
TEXT
  5
C7
330
99
100
AcDbEntity
  8
08-99
100
AcDbText
 10
178.5028349598029
 20
12.01760068133313
 30
0.0
 40
2.7
  1
Ident-Nr.
 51
15.0
  7
ROMANS8
100
AcDbText
  0
TEXT
  5
C8
330
99
100
AcDbEntity
  8
08-99
100
AcDbText
 10
93.50002924540357
 20
33.0555749488849
 30
0.0
 40
2.5
  1
Name:
 51
15.0
  7
ROMANS8
100
AcDbText
  0
TEXT
  5
C9
330
99
100
AcDbEntity
  8
08-99
100
AcDbText
 10
79.50777665478042
 20
33.04841594810694
 30
0.0
 40
2.5
  1
Datum:
 50
0.102528160689452
 41
0.8933771909280748
 51
15.0
  7
ROMANS8
 72
     5
 11
90.67497366186243
 21
33.06839915456692
 31
0.0
100
AcDbText
  0
TEXT
  5
CA
330
99
100
AcDbEntity
  8
08-99
100
AcDbText
 10
29.50001559397086
 20
33.05597508608236
 30
0.0
 40
1.6
  1
Änderung:
 51
15.0
  7
ROMANS8
100
AcDbText
  0
TEXT
  5
CB
330
99
100
AcDbEntity
  8
08-99
100
AcDbText
 10
46.49994558798837
 20
9.111117286264914
 30
0.0
 40
1.0
  1
ERSETZT.DURCH:
 51
15.0
  7
ROMANS8
100
AcDbText
  0
TEXT
  5
CC
330
99
100
AcDbEntity
  8
08-99
100
AcDbText
 10
21.49936832790721
 20
9.110852190038713
 30
0.0
 40
1.0
  1
ERSETZT.FÜR:
 51
15.0
  7
ROMANS8
100
AcDbText
  0
TEXT
  5
CD
330
99
100
AcDbEntity
  8
08-99
100
AcDbText
 10
145.9909143543897
 20
12.61295485116625
 30
0.0
 40
2.112
  1
AUFTRAGS.NR.:
 51
15.0
  7
ROMANS8
100
AcDbText
  0
TEXT
  5
CE
330
99
100
AcDbEntity
  8
08-99
100
AcDbText
 10
116.5034717172479
 20
12.61092664313281
 30
0.0
 40
2.112
  1
Sonder-Nr:
 51
15.0
  7
ROMANS8
100
AcDbText
  0
TEXT
  5
CF
330
99
100
AcDbEntity
  8
08-99
100
AcDbText
 10
99.69631500731376
 20
49.92370649414477
 30
0.0
 40
1.349999999999999
  1
Format
 51
15.0
  7
ROMANS8
100
AcDbText
  0
TEXT
  5
D0
330
99
100
AcDbEntity
  8
08-99
100
AcDbText
 10
98.30438725900334
 20
44.6416167802032
 30
0.0
 40
1.822499999999999
  1
Normen
 51
15.0
  7
ROMANS8
100
AcDbText
  0
TEXT
  5
D1
330
99
100
AcDbEntity
  8
08-99
100
AcDbText
 10
21.50003711613706
 20
33.05556582266059
 30
0.0
 40
1.6
  1
Zust.
 51
15.0
  7
ROMANS8
100
AcDbText
  0
TEXT
  5
D2
330
99
100
AcDbEntity
  8
08-99
100
AcDbText
 10
49.50318821340468
 20
33.05555723859902
 30
0.0
 40
1.6
  1
Datum:
 51
15.0
  7
ROMANS8
100
AcDbText
  0
TEXT
  5
D3
330
99
100
AcDbEntity
  8
08-99
100
AcDbText
 10
61.50322112916754
 20
33.05556204504791
 30
0.0
 40
1.6
  1
Name:
 51
15.0
  7
ROMANS8
100
AcDbText
  0
TEXT
  5
D4
330
99
100
AcDbEntity
  8
08-99
100
AcDbText
 10
71.1545619578267
 20
28.03813755505132
 30
0.0
 40
1.6
  1
Erst.
 51
15.0
  7
ROMANS8
100
AcDbText
  0
TEXT
  5
D5
330
99
100
AcDbEntity
  8
08-99
100
AcDbText
 10
70.51718787454618
 20
23.1974490465235
 30
0.0
 40
1.6
  1
Bearb.
 51
15.0
  7
ROMANS8
100
AcDbText
  0
TEXT
  5
D6
330
99
100
AcDbEntity
  8
08-99
100
AcDbText
 10
149.4308124240035
 20
41.61949547980938
 30
0.0
 40
2.0
  1
Zuschnittsbreite:
 51
15.0
  7
ROMANS8
100
AcDbText
  0
TEXT
  5
D7
330
99
100
AcDbEntity
  8
08-99
100
AcDbText
 10
115.9850022862677
 20
41.73762161521608
 30
0.0
 40
2.0
  1
Zuschnittslänge:
 51
15.0
  7
ROMANS8
100
AcDbText
  0
LWPOLYLINE
  5
D8
330
99
100
AcDbEntity
  8
06-99
100
AcDbPolyline
 90
      133
 70
     1
 43
0.010692
 10
93.76754732423549
 20
18.87656283643588
 10
94.00905465623557
 20
19.08724513243589
 10
93.92285931623556
 20
19.22625538843579
 10
93.82427194823552
 20
19.35180441643592
 10
93.71363469623569
 20
19.46393854843592
 10
93.59130396023548
 20
19.56271124443577
 10
93.45762188423558
 20
19.64816170843585
 10
93.31293417623559
 20
19.72033627243581
 10
93.15759367223554
 20
19.77928839643584
 10
92.99194251623569
 20
19.82505728443584
 10
92.81632998023557
 20
19.85768926843593
 10
92.63110533623573
 20
19.87723780843589
 10
92.43661429223564
 20
19.88374210843585
 10
92.27568900023554
 20
19.87767974443585
 10
92.11994932823543
 20
19.85975638843581
 10
91.96972672823566
 20
19.83036051643597
 10
91.82535621623562
 20
19.78988773243583
 10
91.68716924423554
 20
19.73873364043595
 10
91.55549013623559
 20
19.67729028043584
 10
91.43066103623565
 20
19.60594969243584
 10
91.31300626823557
 20
19.52510391643579
 10
91.20285728423553
 20
19.43514499243588
 10
91.10055266423561
 20
19.33647208843587
 10
91.00641316823569
 20
19.22947011643589
 10
90.92077737623563
 20
19.11454180843589
 10
90.84397674023561
 20
18.99207207643587
 10
90.77633914823563
 20
18.86245652443591
 10
90.71819961623559
 20
18.72608719243584
 10
90.66988603223562
 20
18.58336324843583
 10
90.63172984823566
 20
18.43466960443584
 10
90.60406964423547
 20
18.28040542843581
 10
90.5872261802356
 20
18.12095919643588
 10
90.58154160023562
 20
17.95672651243586
 10
90.58715490023557
 20
17.78762184043592
 10
90.60380590823573
 20
17.62428728443586
 10
90.63119524823539
 20
17.46704004043585
 10
90.66902354423545
 20
17.31619374043578
 10
90.71699498423553
 20
17.17206201643586
 10
90.77481375623566
 20
17.03495850043589
 10
90.84218404823563
 20
16.90519326043585
 10
90.91880648423559
 20
16.78308349243582
 10
91.00438525223561
 20
16.66893926443583
 10
91.09862810423559
 20
16.56307777243586
 10
91.2012285362355
 20
16.46580908443587
 10
91.31190142823554
 20
16.37745039643579
 10
91.43034027623562
 20
16.29831177643592
 10
91.55625283223551
 20
16.2287068564359
 10
91.6893397202355
 20
16.16895283243582
 10
91.82930869223552
 20
16.11935977243587
 10
91.9758568082357
 20
16.08024130843591
 10
92.1286953842355
 20
16.05191107243593
 10
92.28751791623555
 20
16.03468269643588
 10
92.45203572023561
 20
16.02886981243591
 10
92.61603318023563
 20
16.03412314843587
 10
92.77336596023557
 20
16.0497619804359
 10
92.92384516823554
 20
16.07559385243587
 10
93.06728191223546
 20
16.11142630843591
 10
93.20349086423565
 20
16.15707045643586
 10
93.33227956823547
 20
16.21233740443585
 10
93.45346269623556
 20
16.27703469643586
 10
93.56684422823562
 20
16.35097700443589
 10
93.67224596423559
 20
16.43397187243585
 10
93.76946832023557
 20
16.52582328043587
 10
93.85832953223555
 20
16.62635302843586
 10
93.93864070823568
 20
16.73535796843583
 10
94.01020939223556
 20
16.85265990043587
 10
94.07284669223557
 20
16.97805924043587
 10
94.12636728023565
 20
17.11137066043579
 10
94.17058226423549
 20
17.25240170443584
 10
94.20529562423556
 20
17.40096348043585
 10
94.23032916023558
 20
17.55686709643589
 10
94.2454868522357
 20
17.71992366043582
 10
94.25057980823547
 20
17.88993715243583
 10
94.25057980823547
 20
17.88993715243583
 10
94.25057980823547
 20
17.94131934043588
 10
92.6164715522356
 20
17.94131934043588
 10
92.6164715522356
 20
17.65354772443584
 10
93.88573312823544
 20
17.65354772443584
 10
93.87499479623548
 20
17.49100437643585
 10
93.84766248023552
 20
17.33635885243586
 10
93.80444185223566
 20
17.19027405643589
 10
93.74603858423554
 20
17.05341645643585
 10
93.67316547623572
 20
16.92644182843588
 10
93.58653176423562
 20
16.81002376843588
 10
93.4868359922356
 20
16.70481448843588
 10
93.37479452423556
 20
16.61148758443585
 10
93.2511130322355
 20
16.53069526843586
 10
93.11649718823563
 20
16.46310757243589
 10
92.9716562282355
 20
16.40938383643583
 10
92.81729938823563
 20
16.37019052843595
 10
92.65413234023563
 20
16.34618698843581
 10
92.48286432023567
 20
16.3380396844359
 10
92.31820395623563
 20
16.34599096843584
 10
92.15990889623553
 20
16.3693743724358
 10
92.00857076423554
 20
16.40748066043585
 10
91.86477762023541
 20
16.45960416043584
 10
91.7291103962356
 20
16.52503563643586
 10
91.60216071623555
 20
16.60306585243592
 10
91.48451307623558
 20
16.69299270043586
 10
91.37675910023554
 20
16.79410338043595
 10
91.27948328423569
 20
16.90569222043587
 10
91.19327012423552
 20
17.02705354843584
 10
91.11871124423558
 20
17.15747456443586
 10
91.05639114023555
 20
17.29625316043587
 10
91.00689787223556
 20
17.44268010043583
 10
90.97081950023541
 20
17.5960425844359
 10
90.94874052023547
 20
17.75564206843597
 10
90.94125255623557
 20
17.92076575243578
 10
90.94763924423572
 20
18.08913980443589
 10
90.96654270023558
 20
18.25115211643583
 10
90.99756375623568
 20
18.40630372843583
 10
91.04030680823555
 20
18.55409924443586
 10
91.09437981623548
 20
18.69404326843585
 10
91.15938361223554
 20
18.82564396843588
 10
91.23492259223556
 20
18.9483988204359
 10
91.32060471623564
 20
19.06181955643586
 10
91.41603081623546
 20
19.16540365243594
 10
91.52081241623548
 20
19.25865927643582
 10
91.63454322023566
 20
19.34108746843589
 10
91.75683831623567
 20
19.41219639643589
 10
91.88729497223542
 20
19.47148710043586
 10
92.02552114823564
 20
19.51846418443586
 10
92.17112480423569
 20
19.55263225243584
 10
92.32370320823568
 20
19.57349947243585
 10
92.48286432023567
 20
19.58056332043588
 10
92.66056892423561
 20
19.57164619243588
 10
92.83032224423564
 20
19.54500885643586
 10
92.99178570023562
 20
19.50081882043588
 10
93.14462071223559
 20
19.43924359243584
 10
93.28848870023561
 20
19.36045780843585
 10
93.42305464823565
 20
19.26462541243592
 10
93.54797997623554
 20
19.15192104043586
 10
93.66292254023566
 20
19.02250863643593
  0
LWPOLYLINE
  5
DB
330
99
100
AcDbEntity
  8
06-99
100
AcDbPolyline
 90
       12
 70
     1
 43
0.010692
 10
90.43900298423549
 20
12.25281181243593
 10
92.32227048023563
 20
12.25281181243593
 10
92.46760683623554
 20
13.00767770443588
 10
91.56487771223558
 20
13.00767770443588
 10
91.62106060823546
 20
13.29950515243581
 10
92.41872301223557
 20
13.29950515243581
 10
92.55580870823544
 20
14.01156027643583
 10
91.75814630423545
 20
14.01156027643583
 10
91.80985281623547
 20
14.28005421643581
 10
92.68923417623549
 20
14.28005421643581
 10
92.83455984023559
 20
15.03490585243588
 10
90.97464010823561
 20
15.03490585243588
  0
LWPOLYLINE
  5
DC
330
99
100
AcDbEntity
  8
06-99
100
AcDbPolyline
 90
        4
 70
     1
 43
0.010692
 10
76.60861942823558
 20
12.88042508443584
 10
89.06586862823544
 20
12.88042508443584
 10
88.94229049223557
 20
12.25209544843585
 10
76.48504485623553
 20
12.25209544843585
  0
SOLID
  5
DD
330
99
100
AcDbEntity
  8
06-99
100
AcDbTrace
 10
76.60861942823558
 20
12.88042508443584
 30
0.0
 11
89.06586862823544
 21
12.88042508443584
 31
0.0
 12
76.48504485623553
 22
12.25209544843585
 32
0.0
 13
88.94229049223557
 23
12.25209544843585
 33
0.0
  0
LWPOLYLINE
  5
DE
330
99
100
AcDbEntity
  8
06-99
100
AcDbPolyline
 90
       10
 70
     1
 43
0.010692
 10
82.3458504002356
 20
16.02886981243591
 10
83.32219038023552
 20
19.10266656043586
 10
84.33965535623546
 20
16.02886981243591
 10
85.56780619223562
 20
19.80153132043585
 10
85.22351666423551
 20
19.80153132043585
 10
84.33965535623546
 20
16.89302932843583
 10
83.32219038023552
 20
19.9454100004358
 10
82.3458504002356
 20
16.86733645243589
 10
81.42601764023565
 20
19.80153132043585
 10
81.07658882423564
 20
19.80153132043585
  0
LWPOLYLINE
  5
DF
330
99
100
AcDbEntity
  8
06-99
100
AcDbPolyline
 90
        3
 70
     1
 43
0.010692
 10
87.32442338423565
 20
17.65868344843591
 10
87.97704168023555
 20
19.25683094443582
 10
88.6039706642355
 20
17.65868344843591
  0
LWPOLYLINE
  5
E0
330
99
100
AcDbEntity
  8
06-99
100
AcDbPolyline
 90
        7
 70
     1
 43
0.010692
 10
86.38318880423563
 20
16.12735738843582
 10
86.72320153223555
 20
16.12735738843582
 10
87.21136974023549
 20
17.37092608843585
 10
88.71187076423566
 20
17.37092608843585
 10
89.17949964023549
 20
16.12735738843582
 10
89.54434632023552
 20
16.12735738843582
 10
87.99759883223558
 20
19.9454100004358
  0
LWPOLYLINE
  5
E1
330
99
100
AcDbEntity
  8
06-99
100
AcDbPolyline
 90
        8
 70
     1
 43
0.010692
 10
98.92981243223543
 20
12.25281181243593
 10
100.0043869442354
 20
12.25281181243593
 10
100.1574144122356
 20
12.60301045243585
 10
100.9122803042355
 20
12.60301045243585
 10
100.9343521562355
 20
12.25281181243593
 10
102.0082815842354
 20
12.25281181243593
 10
101.5711569842355
 20
15.03490585243588
 10
100.4583193682355
 20
15.03490585243588
  0
LWPOLYLINE
  5
E2
330
99
100
AcDbEntity
  8
06-99
100
AcDbPolyline
 90
       34
 70
     1
 43
0.010692
 10
96.0434642642356
 20
13.66137589243584
 10
96.07848769223544
 20
13.66137589243584
 10
96.0642316922356
 20
13.48699650043591
 10
96.06380757623552
 20
13.33509882043586
 10
96.06790617623554
 20
13.20222577243589
 10
96.09523849223561
 20
12.25281181243593
 10
96.9668360762354
 20
12.25281181243593
 10
98.31569602823542
 20
15.03490585243588
 10
97.31181345623557
 20
15.03490585243588
 10
96.85792023623552
 20
13.80922843243581
 10
96.80781752423563
 20
13.66872486043581
 10
96.74884758023544
 20
13.48671138043579
 10
96.69003445223545
 20
13.26059696443593
 10
96.66670094423549
 20
13.26059696443593
 10
96.6884270882355
 20
13.45803187243587
 10
96.69298544423558
 20
13.61569254043581
 10
96.69194475623548
 20
13.73531107243588
 10
96.67756045223544
 20
15.03490585243588
 10
95.97329266823548
 20
15.03490585243588
 10
95.45849068823557
 20
13.73531107243588
 10
95.41138886423542
 20
13.61569254043581
 10
95.35523448023562
 20
13.45803187243587
 10
95.30092981223551
 20
13.26059696443593
 10
95.27759630423545
 20
13.26059696443593
 10
95.30585169623558
 20
13.48671138043579
 10
95.31697137623556
 20
13.66872486043581
 10
95.32096662023551
 20
13.80922843243581
 10
95.33903966423546
 20
15.03490585243588
 10
94.33451200823553
 20
15.03490585243588
 10
94.61274279623561
 20
12.25281181243593
 10
95.48433681623547
 20
12.25281181243593
 10
95.87724643223557
 20
13.20222577243589
 10
95.93252050823551
 20
13.33509882043586
 10
95.99058519623557
 20
13.48699650043591
  0
LWPOLYLINE
  5
E3
330
99
100
AcDbEntity
  8
06-99
100
AcDbPolyline
 90
       10
 70
     1
 43
0.010692
 10
100.4520752402354
 20
13.26448172443588
 10
100.5983667482354
 20
13.57965693643587
 10
100.6731180842355
 20
13.74409276843596
 10
100.7541598802355
 20
13.94570824843589
 10
100.8288363722355
 20
14.19056217643595
 10
100.8482958122355
 20
14.19056217643595
 10
100.8286724282354
 20
13.94570824843589
 10
100.8320796122355
 20
13.74409276843596
 10
100.8435129242355
 20
13.57965693643587
 10
100.8684181562356
 20
13.26448172443588
  0
LWPOLYLINE
  5
E4
330
99
100
AcDbEntity
  8
06-99
100
AcDbPolyline
 90
       23
 70
     1
 43
0.010692
 10
103.5867130322356
 20
12.25281181243593
 10
104.5672478402354
 20
12.25281181243593
 10
104.7440436242355
 20
13.17110136043584
 10
105.0536340482356
 20
12.25281181243593
 10
106.1742447482354
 20
12.25281181243593
 10
105.6490750922355
 20
13.38511243243585
 10
105.8084357882355
 20
13.42380678043588
 10
105.9537079922354
 20
13.49881472443587
 10
106.0813562162355
 20
13.60690015243585
 10
106.1878378442354
 20
13.74481626043587
 10
106.2696066962354
 20
13.90931980843584
 10
106.3231201562354
 20
14.09716755643586
 10
106.3446075122355
 20
14.26808986843588
 10
106.3403093282354
 20
14.42329850443593
 10
106.3102362962355
 20
14.56225886443587
 10
106.2543991082354
 20
14.68443278443578
 10
106.1728155842354
 20
14.78928566443591
 10
106.0654999802355
 20
14.87627577643587
 10
105.9324594242355
 20
14.94487208443587
 10
105.7737153002354
 20
14.99453286043592
 10
105.5892711722355
 20
15.02472350443588
 10
105.3791519882354
 20
15.03490585243588
 10
104.1223501562355
 20
15.03490585243588
  0
LWPOLYLINE
  5
E5
330
99
100
AcDbEntity
  8
06-99
100
AcDbPolyline
 90
        9
 70
     1
 43
0.010692
 10
104.9650401362355
 20
14.31896240443586
 10
105.1206907082355
 20
14.31896240443586
 10
105.2773605842356
 20
14.28538239643581
 10
105.3582277442354
 20
14.19040892443593
 10
105.3632244722355
 20
14.04269894443587
 10
105.3008722922355
 20
13.89699906043591
 10
105.1832994962355
 20
13.80577848043589
 10
105.0158200082354
 20
13.77421926043581
 10
104.8601694362355
 20
13.77421926043581
  0
LWPOLYLINE
  5
E6
330
99
100
AcDbEntity
  8
06-99
100
AcDbPolyline
 90
       12
 70
     1
 43
0.010692
 10
100.5798090002356
 20
16.12735738843582
 10
102.3989066762356
 20
16.12735738843582
 10
102.3989066762356
 20
16.4408218804358
 10
100.9138270802356
 20
16.4408218804358
 10
100.9138270802356
 20
18.02353012843594
 10
102.3989066762356
 20
18.02353012843594
 10
102.3989066762356
 20
18.33699462043592
 10
100.9138270802356
 20
18.33699462043592
 10
100.9138270802356
 20
19.48806682843587
 10
102.3989066762356
 20
19.48806682843587
 10
102.3989066762356
 20
19.80153132043585
 10
100.5798090002356
 20
19.80153132043585
  0
LWPOLYLINE
  5
E7
330
99
100
AcDbEntity
  8
06-99
100
AcDbPolyline
 90
        8
 70
     1
 43
0.010692
 10
95.85303261623565
 20
16.12735738843582
 10
96.18705426023556
 20
16.12735738843582
 10
96.18705426023556
 20
19.09753083643585
 10
98.76667389623552
 20
16.01858410843584
 10
98.76667389623552
 20
19.80153132043585
 10
98.4326665082356
 20
19.80153132043585
 10
98.4326665082356
 20
16.88274362443587
 10
95.85303261623565
 20
19.95568144843582
  0
LWPOLYLINE
  5
E8
330
99
100
AcDbEntity
  8
06-99
100
AcDbPolyline
 90
       19
 70
     1
 43
0.010692
 10
104.4484312082357
 20
19.5086239804358
 10
104.7824385962356
 20
19.5086239804358
 10
104.9866237202355
 20
19.50030560443588
 10
105.1604542562355
 20
19.47385716043584
 10
105.3049031762356
 20
19.42705471243579
 10
105.4209256322356
 20
19.35767076043584
 10
105.5094874682356
 20
19.26347780443581
 10
105.5715509642355
 20
19.14224834443593
 10
105.6080855282355
 20
18.9917477524358
 10
105.6200498762355
 20
18.80975922043586
 10
105.6074547002355
 20
18.63100680043584
 10
105.5693840522356
 20
18.48585933643585
 10
105.5054245082356
 20
18.37130168443593
 10
105.4151448242355
 20
18.28432582843589
 10
105.2981315762356
 20
18.22192018843589
 10
105.1539570842356
 20
18.18106962043583
 10
104.9821972322354
 20
18.15876967243594
 10
104.7824385962356
 20
18.15200520043589
 10
104.4484312082357
 20
18.15200520043589
  0
LWPOLYLINE
  5
E9
330
99
100
AcDbEntity
  8
06-99
100
AcDbPolyline
 90
       29
 70
     1
 43
0.010692
 10
106.3446075122355
 20
16.12735738843582
 10
105.0239637482355
 20
17.87965144843588
 10
105.2123817362357
 20
17.89225018843592
 10
105.3829084442356
 20
17.92941914443582
 10
105.5344069562356
 20
17.99022811243594
 10
105.6657296642355
 20
18.07375401643588
 10
105.7757360882356
 20
18.17905596043584
 10
105.8632821842355
 20
18.30521443243589
 10
105.9272310362355
 20
18.45129210043592
 10
105.9664386002355
 20
18.6163587604359
 10
105.9797608322353
 20
18.79948777243589
 10
105.9699455762357
 20
18.97455145243589
 10
105.9404891162357
 20
19.13261485243589
 10
105.8913629402356
 20
19.27374568843589
 10
105.8225492282356
 20
19.39801167643577
 10
105.7340230322356
 20
19.50548409643591
 10
105.6257594042356
 20
19.59623422843589
 10
105.4977369602356
 20
19.67032622443582
 10
105.3499307522354
 20
19.72783136443587
 10
105.1823193962355
 20
19.76882449243589
 10
104.9948815082355
 20
19.79336619643589
 10
104.7875885762355
 20
19.80153132043585
 10
104.7875885762355
 20
19.80153132043585
 10
104.1144131282356
 20
19.80153132043585
 10
104.1144131282356
 20
16.12735738843582
 10
104.4484312082357
 20
16.12735738843582
 10
104.4484312082357
 20
17.87965144843588
 10
104.6488456202355
 20
17.87965144843588
 10
105.9386465282355
 20
16.12735738843582
  0
TEXT
  5
EA
330
99
100
AcDbEntity
  8
06-99
100
AcDbText
 10
85.6083656112951
 20
9.63320697282171
 30
0.0
 40
1.4256
  1
GmbH & Co KG
 41
1.199203187251
 51
15.0
  7
ROMAND8
 72
     5
 11
106.0419656112951
 21
9.63320697282171
 31
0.0
100
AcDbText
  0
TEXT
  5
EC
330
99
100
AcDbEntity
  8
06-99
100
AcDbText
 10
85.70982236587898
 20
7.391013700398161
 30
0.0
 40
1.4256
  1
72774 Reutlingen
 50
0.5663244663116128
 41
1.087840993687879
 51
15.0
  7
ROMAND8
 72
     5
 11
105.943422365879
 21
7.59101370039815
 31
0.0
100
AcDbText
  0
TEXT
  5
ED
330
99
100
AcDbEntity
  8
08-99
100
AcDbText
 10
73.414125712073
 20
48.45008961754581
 30
0.0
 40
2.25
  1
Zul. Abw.
 51
15.0
  7
ROMANS8
100
AcDbText
  0
TEXT
  5
EE
330
99
100
AcDbEntity
  8
08-99
100
AcDbText
 10
123.2099338325191
 20
49.28616214647601
 30
0.0
 40
2.0
  1
Mat. Art.
 51
15.0
  7
ROMANS8
100
AcDbText
  0
TEXT
  5
EF
330
99
100
AcDbEntity
  8
08-99
100
AcDbText
 10
155.4865384826082
 20
49.4043113704472
 30
0.0
 40
2.0
  1
Oberfläche:
 51
15.0
  7
ROMANS8
100
AcDbText
  0
TEXT
  5
F0
330
99
100
AcDbEntity
  8
08-99
100
AcDbText
 10
184.762545350816
 20
41.73764470378046
 30
0.0
 40
2.0
  1
Blech Dicke:
 51
15.0
  7
ROMANS8
100
AcDbText
  0
TEXT
  5
F1
330
99
100
AcDbEntity
  8
08-99
100
AcDbText
 10
187.4380355407932
 20
49.28616214647604
 30
0.0
 40
2.0
  1
Maßstab:
 51
15.0
  7
ROMANS8
100
AcDbText
  0
LINE
  5
F2
330
99
100
AcDbEntity
  8
01-99
100
AcDbLine
 10
115.0000075122355
 20
46.8888868761025
 30
0.0
 11
92.0000075122355
 21
46.8888868761025
 31
0.0
  0
LINE
  5
F3
330
99
100
AcDbEntity
  8
01-99
100
AcDbLine
 10
115.0000075122355
 20
44.33333132043578
 30
0.0
 11
92.0000075122355
 21
44.33333132043578
 31
0.0
  0
LINE
  5
F4
330
99
100
AcDbEntity
  8
01-99
100
AcDbLine
 10
115.0000075122355
 20
40.49999798710246
 30
0.0
 11
92.00000751223544
 21
40.49999798710246
 31
0.0
  0
ATTDEF
  5
F5
330
99
100
AcDbEntity
  8
06-99
100
AcDbText
 10
116.4954542514127
 20
26.18783668438471
 30
0.0
 40
4.0
  1

 41
0.9
  7
ROMANS8
100
AcDbAttributeDefinition
280
     0
  3
Benennung/Teil
  2
TEILE
 70
     0
280
     0
  0
ATTDEF
  5
F6
330
99
100
AcDbEntity
  8
06-99
100
AcDbText
 10
116.4954542514127
 20
19.29547648609889
 30
0.0
 40
4.0
  1

 41
0.9
  7
ROMANS8
100
AcDbAttributeDefinition
280
     0
  3
Benennung/Teil2
  2
TEILE2
 70
     0
280
     0
  0
ATTDEF
  5
F7
330
99
100
AcDbEntity
  8
06-99
100
AcDbText
 10
191.3473937239501
 20
45.33333132043583
 30
0.0
 40
3.375
  1

  7
ROMANS8
100
AcDbAttributeDefinition
280
     0
  3
Maßstab
  2
:
 70
     0
280
     0
  0
ATTDEF
  5
F8
330
99
100
AcDbEntity
  8
06-99
100
AcDbText
 10
92.99707531160292
 20
27.44168345513378
 30
0.0
 40
2.5
  1

 41
0.9
  7
ROMANS8
100
AcDbAttributeDefinition
280
     0
  3
Name
  2
NAME
 70
     0
280
     0
  0
ATTDEF
  5
F9
330
99
100
AcDbEntity
  8
06-99
100
AcDbText
 10
79.49315396412956
 20
27.46123316121373
 30
0.0
 40
2.5
  1

 50
359.9144597696142
 41
0.9542572414211148
  7
ROMANS8
 72
     5
 11
90.73974463267431
 21
27.44444245376917
 31
0.0
100
AcDbAttributeDefinition
280
     0
  3
Datum
  2
DATUM
 70
     0
280
     0
  0
ATTDEF
  5
FA
330
99
100
AcDbEntity
  8
06-99
100
AcDbText
 10
178.5063514793938
 20
7.4928977873912
 30
0.0
 40
2.99376
  1

  7
ROMANS8
100
AcDbAttributeDefinition
280
     0
  3
Ident-Nummer
  2
ID.NR
 70
     0
280
     0
  0
ATTDEF
  5
FB
330
99
100
AcDbEntity
  8
06-99
100
AcDbText
 10
116.731273767946
 20
37.66666463154695
 30
0.0
 40
3.0
  1

 41
0.9
  7
ROMANS8
100
AcDbAttributeDefinition
280
     0
  3
Zuschnitts.Länge
  2
LÄNGE
 70
     0
280
     0
  0
ATTDEF
  5
FC
330
99
100
AcDbEntity
  8
06-99
100
AcDbText
 10
150.1808124240052
 20
37.67810185754732
 30
0.0
 40
3.0
  1

 41
0.9
  7
ROMANS8
100
AcDbAttributeDefinition
280
     0
  3
Zuschnitts Breite
  2
BREITE
 70
     0
280
     0
  0
ATTDEF
  5
FD
330
99
100
AcDbEntity
  8
06-99
100
AcDbText
 10
190.6090996389673
 20
37.66666465376926
 30
0.0
 40
3.09375
  1

  7
ROMANS8
100
AcDbAttributeDefinition
280
     0
  3
Blech.Dicke
  2
1.0
 70
     0
280
     0
  0
ATTDEF
  5
FE
330
99
100
AcDbEntity
  8
06-99
100
AcDbText
 10
164.1277931136382
 20
45.33333132043594
 30
0.0
 40
3.0
  1

  7
ROMANS8
 72
     1
 11
164.1277931136382
 21
45.33333132043594
 31
0.0
100
AcDbAttributeDefinition
280
     0
  3
Oberfläche
  2
IV
 70
     0
280
     0
  0
ATTDEF
  5
FF
330
99
100
AcDbEntity
  8
06-99
100
AcDbText
 10
123.2747480483513
 20
45.3333313204358
 30
0.0
 40
3.375
  1
1.4301
  7
ROMANS8
100
AcDbAttributeDefinition
280
     0
  3
Mat.Art
  2
1.4301
 70
     0
280
     0
  0
ATTDEF
  5
100
330
99
100
AcDbEntity
  8
06-99
100
AcDbText
 10
146.0006413991156
 20
7.504394591457128
 30
0.0
 40
3.168
  1

 41
0.9
  7
ROMANS8
100
AcDbAttributeDefinition
280
     0
  3
Auftrags Nr.
  2
AUFTRAGS.NR.
 70
     0
280
     0
  0
ATTDEF
  5
101
330
99
100
AcDbEntity
  8
06-99
100
AcDbText
 10
116.5000075122355
 20
7.499997987102517
 30
0.0
 40
3.168
  1

 41
0.9
  7
ROMANS8
100
AcDbAttributeDefinition
280
     0
  3
Sonder-NR,WPS
  2
SONDER-NR
 70
     0
280
     0
  0
ATTDEF
  5
102
330
99
100
AcDbEntity
  8
06-99
100
AcDbText
 10
46.4997585072438
 20
6.601808056362358
 30
0.0
 40
1.5
  1

 41
0.9
  7
ROMANS8
100
AcDbAttributeDefinition
280
     0
  3
ERSETZT.Durch
  2
ERSETZT.DURCH
 70
     0
280
     0
  0
ATTDEF
  5
103
330
99
100
AcDbEntity
  8
06-99
100
AcDbText
 10
21.49947529243403
 20
6.597454384974923
 30
0.0
 40
1.5
  1

 41
0.9
  7
ROMANS8
100
AcDbAttributeDefinition
280
     0
  3
ERSETZT.Für
  2
ERSETZT.FÜR
 70
     0
280
     0
  0
ATTDEF
  5
104
330
99
100
AcDbEntity
  8
06-99
100
AcDbText
 10
99.97308015867309
 20
47.66850912711049
 30
0.0
 40
1.287
  1
DIN A4
  7
ROMANS8
 72
     1
 11
103.2518658729588
 21
47.66850912711049
 31
0.0
100
AcDbAttributeDefinition
280
     0
  3
Format
  2
FORMAT
 70
     0
280
     0
  0
ATTDEF
  5
105
330
99
100
AcDbEntity
  8
06-99
100
AcDbText
 10
95.9874465096418
 20
37.19696532096725
 30
0.0
 40
2.34
  1
DIN 2768
  7
ROMANS8
 72
     1
 11
104.0103036524989
 21
37.19696532096725
 31
0.0
100
AcDbAttributeDefinition
280
     0
  3
Norm / Kanten
  2
NORM2
 70
     0
280
     0
  0
ATTDEF
  5
106
330
99
100
AcDbEntity
  8
06-99
100
AcDbText
 10
92.81173222392748
 20
41.03029865430056
 30
0.0
 40
2.34
  1
DIN 6930-M
  7
ROMANS8
 72
     1
 11
103.5088750810703
 21
41.03029865430056
 31
0.0
100
AcDbAttributeDefinition
280
     0
  3
Norm / Fräsen
  2
NORM1
 70
     0
280
     0
  0
ENDBLK
  5
107
330
99
100
AcDbEntity
  8
0
100
AcDbBlockEnd
  0
BLOCK
  5
8D
330
8C
100
AcDbEntity
  8
0
100
AcDbBlockBegin
  2
*D1
 70
     1
 10
0.0
 20
0.0
 30
0.0
  3
*D1
  1

  0
LINE
  5
8E
330
8C
100
AcDbEntity
  8
0
 62
     0
370
    -2
100
AcDbLine
 10
105.7855665176712
 20
349.3482166444617
 30
0.0
 11
105.7855665176712
 21
279.6865676115827
 31
0.0
  0
LINE
  5
8F
330
8C
100
AcDbEntity
  8
0
 62
     0
370
    -2
100
AcDbLine
 10
325.7855665176713
 20
349.3482166444617
 30
0.0
 11
325.7855665176713
 21
279.6865676115827
 31
0.0
  0
LINE
  5
90
330
8C
100
AcDbEntity
  8
0
 62
     0
370
    -2
100
AcDbLine
 10
108.2855665176712
 20
280.6865676115827
 30
0.0
 11
323.2855665176713
 21
280.6865676115827
 31
0.0
  0
SOLID
  5
91
330
8C
100
AcDbEntity
  8
0
 62
     0
100
AcDbTrace
 10
108.2855665176712
 20
281.1032342782494
 30
0.0
 11
108.2855665176712
 21
280.269900944916
 31
0.0
 12
105.7855665176712
 22
280.6865676115827
 32
0.0
 13
105.7855665176712
 23
280.6865676115827
 33
0.0
  0
SOLID
  5
92
330
8C
100
AcDbEntity
  8
0
 62
     0
100
AcDbTrace
 10
323.2855665176713
 20
281.1032342782494
 30
0.0
 11
323.2855665176713
 21
280.269900944916
 31
0.0
 12
325.7855665176713
 22
280.6865676115827
 32
0.0
 13
325.7855665176713
 23
280.6865676115827
 33
0.0
  0
MTEXT
  5
93
330
8C
100
AcDbEntity
  8
0
 62
     0
100
AcDbMText
 10
215.7855665176713
 20
283.4605676115827
 30
0.0
 40
2.5
 41
0.0
 46
0.0
 71
     5
 72
     1
  1
220
 73
     1
 44
1.0
  0
POINT
  5
94
330
8C
100
AcDbEntity
  8
Defpoints
 62
     0
100
AcDbPoint
 10
105.7855665176712
 20
350.3482166444617
 30
0.0
  0
POINT
  5
95
330
8C
100
AcDbEntity
  8
Defpoints
 62
     0
100
AcDbPoint
 10
325.7855665176713
 20
350.3482166444617
 30
0.0
  0
POINT
  5
96
330
8C
100
AcDbEntity
  8
Defpoints
 62
     0
100
AcDbPoint
 10
325.7855665176713
 20
280.6865676115827
 30
0.0
  0
ENDBLK
  5
97
330
8C
100
AcDbEntity
  8
0
100
AcDbBlockEnd
  0
BLOCK
  5
7F
330
7E
100
AcDbEntity
  8
0
100
AcDbBlockBegin
  2
*D2
 70
     1
 10
0.0
 20
0.0
 30
0.0
  3
*D2
  1

  0
LINE
  5
80
330
7E
100
AcDbEntity
  8
0
 62
     0
370
    -2
100
AcDbLine
 10
171.3602299900275
 20
448.472043815968
 30
0.0
 11
232.7977673821893
 21
509.9095812081296
 31
0.0
  0
LINE
  5
81
330
7E
100
AcDbEntity
  8
0
 62
     0
370
    -2
100
AcDbLine
 10
314.7769445463198
 20
322.7710521781863
 30
0.0
 11
367.3566204792261
 21
375.3507281110926
 31
0.0
  0
LINE
  5
82
330
7E
100
AcDbEntity
  8
0
 62
     0
370
    -2
100
AcDbLine
 10
233.8584275539691
 20
507.4347074739766
 30
0.0
 11
296.5960871495212
 21
444.6970478784245
 31
0.0
  0
LINE
  5
83
330
7E
100
AcDbEntity
  8
0
 62
     0
370
    -2
100
AcDbLine
 10
364.8817467450732
 20
376.4113882828724
 30
0.0
 11
302.1440871495212
 21
439.1490478784245
 31
0.0
  0
SOLID
  5
84
330
7E
100
AcDbEntity
  8
0
 62
     0
100
AcDbTrace
 10
234.1530553794635
 20
507.7293352994711
 30
0.0
 11
233.5637997284747
 21
507.1400796484823
 31
0.0
 12
232.0906606010027
 22
509.202474426943
 32
0.0
 13
232.0906606010027
 23
509.202474426943
 33
0.0
  0
SOLID
  5
85
330
7E
100
AcDbEntity
  8
0
 62
     0
100
AcDbTrace
 10
365.1763745705675
 20
376.7060161083668
 30
0.0
 11
364.5871189195788
 21
376.1167604573781
 31
0.0
 12
366.6495136980396
 22
374.643621329906
 32
0.0
 13
366.6495136980396
 23
374.643621329906
 33
0.0
  0
MTEXT
  5
86
330
7E
100
AcDbEntity
  8
0
 62
     0
100
AcDbMText
 10
299.3700871495212
 20
441.9230478784245
 30
0.0
 40
2.5
 41
0.0
 46
0.0
 71
     5
 72
     1
  1
190
 73
     1
 44
1.0
  0
POINT
  5
87
330
7E
100
AcDbEntity
  8
Defpoints
 62
     0
100
AcDbPoint
 10
170.653123208841
 20
447.7649370347815
 30
0.0
  0
POINT
  5
88
330
7E
100
AcDbEntity
  8
Defpoints
 62
     0
100
AcDbPoint
 10
314.0698377651332
 20
322.0639453969998
 30
0.0
  0
POINT
  5
89
330
7E
100
AcDbEntity
  8
Defpoints
 62
     0
100
AcDbPoint
 10
366.6495136980396
 20
374.643621329906
 30
0.0
  0
ENDBLK
  5
8A
330
7E
100
AcDbEntity
  8
0
100
AcDbBlockEnd
  0
BLOCK
  5
70
330
6F
100
AcDbEntity
  8
0
100
AcDbBlockBegin
  2
*D3
 70
     1
 10
0.0
 20
0.0
 30
0.0
  3
*D3
  1

  0
LINE
  5
71
330
6F
100
AcDbEntity
  8
0
 62
     0
370
    -2
100
AcDbLine
 10
260.2109030453152
 20
448.4720438159677
 30
0.0
 11
198.7733656531531
 21
509.9095812081296
 31
0.0
  0
LINE
  5
72
330
6F
100
AcDbEntity
  8
0
 62
     0
370
    -2
100
AcDbLine
 10
116.7941884890228
 20
322.7710521781864
 30
0.0
 11
64.21451255611643
 21
375.3507281110927
 31
0.0
  0
LINE
  5
73
330
6F
100
AcDbEntity
  8
0
 62
     0
370
    -2
100
AcDbLine
 10
197.7127054813734
 20
507.4347074739768
 30
0.0
 11
134.9750458858213
 21
444.6970478784247
 31
0.0
  0
LINE
  5
74
330
6F
100
AcDbEntity
  8
0
 62
     0
370
    -2
100
AcDbLine
 10
66.68938629026934
 20
376.4113882828726
 30
0.0
 11
129.4270458858213
 21
439.1490478784247
 31
0.0
  0
SOLID
  5
75
330
6F
100
AcDbEntity
  8
0
 62
     0
100
AcDbTrace
 10
197.418077655879
 20
507.7293352994711
 30
0.0
 11
198.0073333068677
 21
507.1400796484824
 31
0.0
 12
199.4804724343397
 22
509.2024744269432
 32
0.0
 13
199.4804724343397
 23
509.2024744269432
 33
0.0
  0
SOLID
  5
76
330
6F
100
AcDbEntity
  8
0
 62
     0
100
AcDbTrace
 10
66.39475846477495
 20
376.706016108367
 30
0.0
 11
66.98401411576373
 21
376.1167604573782
 31
0.0
 12
64.92161933730298
 22
374.6436213299062
 32
0.0
 13
64.92161933730298
 23
374.6436213299062
 33
0.0
  0
MTEXT
  5
77
330
6F
100
AcDbEntity
  8
0
 62
     0
100
AcDbMText
 10
132.2010458858213
 20
441.9230478784247
 30
0.0
 40
2.5
 41
0.0
 46
0.0
 71
     5
 72
     1
  1
190
 73
     1
 44
1.0
  0
POINT
  5
78
330
6F
100
AcDbEntity
  8
Defpoints
 62
     0
100
AcDbPoint
 10
260.9180098265018
 20
447.7649370347812
 30
0.0
  0
POINT
  5
7A
330
6F
100
AcDbEntity
  8
Defpoints
 62
     0
100
AcDbPoint
 10
117.5012952702094
 20
322.0639453969999
 30
0.0
  0
POINT
  5
7B
330
6F
100
AcDbEntity
  8
Defpoints
 62
     0
100
AcDbPoint
 10
64.92161933730298
 20
374.6436213299062
 30
0.0
  0
ENDBLK
  5
7C
330
6F
100
AcDbEntity
  8
0
100
AcDbBlockEnd
  0
ENDSEC
  0
SECTION
  2
ENTITIES
  0
DIMENSION
  5
6E
330
2
100
AcDbEntity
  8
0
100
AcDbDimension
280
     0
  2
*D3
 10
64.92161933730298
 20
374.6436213299062
 30
0.0
 11
132.2010458858213
 21
441.9230478784247
 31
0.0
 71
     5
 42
190.2949549871985
 73
     0
 74
     0
 75
     0
  3
ISO-25
100
AcDbAlignedDimension
 13
260.9180098265018
 23
447.7649370347812
 33
0.0
 14
117.5012952702094
 24
322.0639453969999
 34
0.0
 50
225.0
100
AcDbRotatedDimension
1001
ACAD
1000
DSTYLE
1002
{
1070
    42
1040
1.0
1070
    44
1040
1.0
1070
    73
1070
     1
1070
    74
1070
     1
1070
    78
1070
     1
1070
   143
1040
0.0393700787401575
1070
   147
1040
1.524
1070
   271
1070
     0
1070
   284
1070
     1
1002
}
  0
DIMENSION
  5
7D
330
2
100
AcDbEntity
  8
0
100
AcDbDimension
280
     0
  2
*D2
 10
366.6495136980396
 20
374.643621329906
 30
0.0
 11
299.3700871495212
 21
441.9230478784245
 31
0.0
 71
     5
 42
190.2949549871986
 73
     0
 74
     0
 75
     0
  3
ISO-25
100
AcDbAlignedDimension
 13
170.653123208841
 23
447.7649370347815
 33
0.0
 14
314.0698377651332
 24
322.0639453969998
 34
0.0
 50
314.9999999999999
100
AcDbRotatedDimension
1001
ACAD
1000
DSTYLE
1002
{
1070
    42
1040
1.0
1070
    44
1040
1.0
1070
    73
1070
     1
1070
    74
1070
     1
1070
    78
1070
     1
1070
   143
1040
0.0393700787401575
1070
   147
1040
1.524
1070
   271
1070
     0
1070
   284
1070
     1
1002
}
  0
DIMENSION
  5
8B
330
2
100
AcDbEntity
  8
0
100
AcDbDimension
280
     0
  2
*D1
 10
325.7855665176713
 20
280.6865676115827
 30
0.0
 11
215.7855665176713
 21
283.4605676115827
 31
0.0
 71
     5
 42
220.0000000000001
 73
     0
 74
     0
 75
     0
  3
ISO-25
100
AcDbAlignedDimension
 13
105.7855665176712
 23
350.3482166444617
 33
0.0
 14
325.7855665176713
 24
350.3482166444617
 34
0.0
100
AcDbRotatedDimension
1001
ACAD
1000
DSTYLE
1002
{
1070
    42
1040
1.0
1070
    44
1040
1.0
1070
    73
1070
     1
1070
    74
1070
     1
1070
    78
1070
     1
1070
   143
1040
0.0393700787401575
1070
   147
1040
1.524
1070
   271
1070
     0
1070
   284
1070
     1
1002
}
  0
INSERT
  5
98
330
2
100
AcDbEntity
  8
0
100
AcDbBlockReference
 66
     1
  2
DIN A4
 10
-0.0000150244709971
 20
0.0000040257948513
 30
0.0
 41
2.0
 42
2.0
 43
2.0
  0
ATTRIB
  5
108
330
98
100
AcDbEntity
  8
06-99
100
AcDbText
 10
232.9908934783543
 20
52.37567739456427
 30
0.0
 40
8.0
  1
BA 260
 41
0.9
  7
ROMANS8
100
AcDbAttribute
280
     0
  2
TEILE
 70
     0
280
     0
  0
ATTRIB
  5
109
330
98
100
AcDbEntity
  8
06-99
100
AcDbText
 10
232.9908934783543
 20
38.59095699799264
 30
0.0
 40
8.0
  1
Korb Eckablage
 41
0.9
  7
ROMANS8
100
AcDbAttribute
280
     0
  2
TEILE2
 70
     0
280
     0
  0
ATTRIB
  5
10A
330
98
100
AcDbEntity
  8
06-99
100
AcDbText
 10
382.6947724234292
 20
90.66666666666652
 30
0.0
 40
6.75
  1
1:2
  7
ROMANS8
100
AcDbAttribute
280
     0
  2
:
 70
     0
280
     0
  0
ATTRIB
  5
10B
330
98
100
AcDbEntity
  8
06-99
100
AcDbText
 10
185.9941355987348
 20
54.88337093606242
 30
0.0
 40
5.0
  1
Häberle
 41
0.9
  7
ROMANS8
100
AcDbAttribute
280
     0
  2
NAME
 70
     0
280
     0
  0
ATTRIB
  5
10C
330
98
100
AcDbEntity
  8
06-99
100
AcDbText
 10
158.9862929037881
 20
54.92247034822231
 30
0.0
 40
5.0
  1
29.09.2014
 50
359.9144597696142
 41
0.5524647187174877
  7
ROMANS8
 72
     5
 11
181.4794742408776
 21
54.88888893333319
 31
0.0
100
AcDbAttribute
280
     0
  2
DATUM
 70
     0
280
     0
  0
ATTRIB
  5
10D
330
98
100
AcDbEntity
  8
06-99
100
AcDbText
 10
357.0126879343165
 20
14.98579960057725
 30
0.0
 40
5.98752
  1

  7
ROMANS8
100
AcDbAttribute
280
     0
  2
ID.NR
 70
     0
280
     0
  0
ATTRIB
  5
10E
330
98
100
AcDbEntity
  8
06-99
100
AcDbText
 10
233.4625325114211
 20
75.33333328888875
 30
0.0
 40
6.0
  1

 41
0.9
  7
ROMANS8
100
AcDbAttribute
280
     0
  2
LÄNGE
 70
     0
280
     0
  0
ATTRIB
  5
10F
330
98
100
AcDbEntity
  8
06-99
100
AcDbText
 10
300.3616098235395
 20
75.35620774088949
 30
0.0
 40
6.0
  1

 41
0.9
  7
ROMANS8
100
AcDbAttribute
280
     0
  2
BREITE
 70
     0
280
     0
  0
ATTRIB
  5
110
330
98
100
AcDbEntity
  8
06-99
100
AcDbText
 10
381.2181842534637
 20
75.33333333333337
 30
0.0
 40
6.187500000000001
  1

  7
ROMANS8
100
AcDbAttribute
280
     0
  2
1.0
 70
     0
280
     0
  0
ATTRIB
  5
111
330
98
100
AcDbEntity
  8
06-99
100
AcDbText
 10
328.2555712028054
 20
90.66666666666675
 30
0.0
 40
6.0
  1

  7
ROMANS8
 72
     1
 11
328.2555712028054
 21
90.66666666666675
 31
0.0
100
AcDbAttribute
280
     0
  2
IV
 70
     0
280
     0
  0
ATTRIB
  5
112
330
98
100
AcDbEntity
  8
06-99
100
AcDbText
 10
246.5494810722317
 20
90.66666666666646
 30
0.0
 40
6.75
  1
MS verchromt
 41
0.7
  7
ROMANS8
100
AcDbAttribute
280
     0
  2
1.4301
 70
     0
280
     0
  0
ATTRIB
  5
113
330
98
100
AcDbEntity
  8
06-99
100
AcDbText
 10
292.0012677737602
 20
15.00879320870911
 30
0.0
 40
6.336
  1

 41
0.9000000000000001
  7
ROMANS8
100
AcDbAttribute
280
     0
  2
AUFTRAGS.NR.
 70
     0
280
     0
  0
ATTRIB
  5
114
330
98
100
AcDbEntity
  8
06-99
100
AcDbText
 10
233.0
 20
14.99999999999988
 30
0.0
 40
6.336
  1

 41
0.9000000000000001
  7
ROMANS8
100
AcDbAttribute
280
     0
  2
SONDER-NR
 70
     0
280
     0
  0
ATTRIB
  5
115
330
98
100
AcDbEntity
  8
06-99
100
AcDbText
 10
92.9995019900166
 20
13.20362013851957
 30
0.0
 40
3.0
  1

 41
0.9
  7
ROMANS8
100
AcDbAttribute
280
     0
  2
ERSETZT.DURCH
 70
     0
280
     0
  0
ATTRIB
  5
116
330
98
100
AcDbEntity
  8
06-99
100
AcDbText
 10
42.99893556039705
 20
13.1949127957447
 30
0.0
 40
3.0
  1

 41
0.9
  7
ROMANS8
100
AcDbAttribute
280
     0
  2
ERSETZT.FÜR
 70
     0
280
     0
  0
ATTRIB
  5
117
330
98
100
AcDbEntity
  8
06-99
100
AcDbText
 10
199.9461452928752
 20
95.33702228001585
 30
0.0
 40
2.574
  1
DIN A4
  7
ROMANS8
 72
     1
 11
206.5037167214466
 21
95.33702228001585
 31
0.0
100
AcDbAttribute
280
     0
  2
FORMAT
 70
     0
280
     0
  0
ATTRIB
  5
118
330
98
100
AcDbEntity
  8
06-99
100
AcDbText
 10
191.9748779948126
 20
74.39393466772935
 30
0.0
 40
4.68
  1
DIN 2768
  7
ROMANS8
 72
     1
 11
208.0205922805269
 21
74.39393466772935
 31
0.0
100
AcDbAttribute
280
     0
  2
NORM2
 70
     0
280
     0
  0
ATTRIB
  5
119
330
98
100
AcDbEntity
  8
06-99
100
AcDbText
 10
185.6234494233839
 20
82.06060133439597
 30
0.0
 40
4.68
  1
DIN 6930-M
  7
ROMANS8
 72
     1
 11
207.0177351376697
 21
82.06060133439597
 31
0.0
100
AcDbAttribute
280
     0
  2
NORM1
 70
     0
280
     0
  0
SEQEND
  5
11A
330
98
100
AcDbEntity
  8
0
  0
LINE
  5
11B
330
2
100
AcDbEntity
  8
0
100
AcDbLine
 10
285.7855665176714
 20
310.3482166444617
 30
0.0
 11
145.7855665176713
 21
310.3482166444617
 31
0.0
  0
LINE
  5
11C
330
2
100
AcDbEntity
  8
0
100
AcDbLine
 10
145.7855665176713
 20
316.3482166444617
 30
0.0
 11
285.7855665176712
 21
316.3482166444615
 31
0.0
  0
ARC
  5
11D
330
2
100
AcDbEntity
  8
0
100
AcDbCircle
 10
285.7855665176714
 20
350.3482166444617
 30
0.0
 40
34.00000000000001
100
AcDbArc
 50
270.0
 51
45.00000000000005
  0
ARC
  5
11E
330
2
100
AcDbEntity
  8
0
100
AcDbCircle
 10
145.7855665176713
 20
350.3482166444617
 30
0.0
 40
34.00000000000001
100
AcDbArc
 50
134.9999999999999
 51
270.0
  0
ARC
  5
11F
330
2
100
AcDbEntity
  8
0
100
AcDbCircle
 10
145.7855665176713
 20
350.3482166444617
 30
0.0
 40
40.00000000000003
100
AcDbArc
 50
134.9999999999999
 51
270.0
  0
ARC
  5
120
330
2
100
AcDbEntity
  8
0
100
AcDbCircle
 10
285.7855665176714
 20
350.3482166444617
 30
0.0
 40
40.0
100
AcDbArc
 50
270.0
 51
45.00000000000005
  0
LINE
  5
121
330
2
100
AcDbEntity
  8
0
100
AcDbLine
 10
139.0454506367051
 20
391.6913608228522
 30
0.0
 11
121.7439359573287
 21
374.3898472048043
 31
0.0
  0
LINE
  5
122
330
2
100
AcDbEntity
  8
0
100
AcDbLine
 10
192.0784597364848
 20
444.7243709839607
 30
0.0
 11
182.8860713034474
 21
435.5319777643042
 31
0.0
  0
LINE
  5
123
330
2
100
AcDbEntity
  8
0
100
AcDbLine
 10
248.0352854221666
 20
436.1817577993231
 30
0.0
 11
239.4926726348401
 21
444.7243716479787
 31
0.0
  0
LINE
  5
124
330
2
100
AcDbEntity
  8
0
100
AcDbLine
 10
309.8271970780139
 20
374.3898472048043
 30
0.0
 11
291.8759098141992
 21
392.3411408578711
 31
0.0
  0
ARC
  5
125
330
2
100
AcDbEntity
  8
0
100
AcDbCircle
 10
240.1997794160266
 20
445.4314784291653
 30
0.0
 40
1.000000000000023
100
AcDbArc
 50
134.9999892391317
 51
225.0000000000035
  0
ARC
  5
126
330
2
100
AcDbEntity
  8
0
100
AcDbCircle
 10
191.3713529552982
 20
445.4314777651472
 30
0.0
 40
0.999999999999998
100
AcDbArc
 50
315.0000000000022
 51
45.00000000000005
  0
LINE
  5
127
330
2
100
AcDbEntity
  8
0
100
AcDbLine
 10
239.4926727676437
 20
446.1385853431553
 30
0.0
 11
242.321100423604
 21
448.967011936687
 31
0.0
  0
ARC
  5
128
330
2
100
AcDbEntity
  8
0
100
AcDbCircle
 10
243.0282070719869
 20
448.259905022697
 30
0.0
 40
0.999999999999998
100
AcDbArc
 50
44.9999999999966
 51
134.9999892391271
  0
LINE
  5
129
330
2
100
AcDbEntity
  8
0
100
AcDbLine
 10
296.1185460775697
 20
396.5837771212416
 30
0.0
 11
314.0698377651332
 21
378.6324878919236
 31
0.0
  0
LINE
  5
12A
330
2
100
AcDbEntity
  8
0
100
AcDbLine
 10
243.7353138531735
 20
448.9670118038835
 30
0.0
 11
252.2779291361176
 21
440.4244015132742
 31
0.0
  0
LINE
  5
12B
330
2
100
AcDbEntity
  8
0
100
AcDbLine
 10
189.2500326117386
 20
448.9670116710799
 30
0.0
 11
192.0784597364848
 21
446.1385845463337
 31
0.0
  0
LINE
  5
12C
330
2
100
AcDbEntity
  8
0
100
AcDbLine
 10
178.6434313147866
 20
439.7746214782553
 30
0.0
 11
187.8358190493655
 21
448.9670116710799
 31
0.0
  0
LINE
  5
12D
330
2
100
AcDbEntity
  8
0
100
AcDbLine
 10
117.5012952702094
 20
378.6324878919237
 30
0.0
 11
134.802806922754
 21
395.9340045368033
 31
0.0
  0
ARC
  5
12E
330
2
100
AcDbEntity
  8
0
100
AcDbCircle
 10
188.5429258305521
 20
448.2599048898935
 30
0.0
 40
0.9999999999999729
100
AcDbArc
 50
44.9999999999966
 51
135.0000000000022
  0
LWPOLYLINE
  5
12F
330
2
100
AcDbEntity
  8
0
100
AcDbPolyline
 90
       22
 70
   128
 43
0.0
 10
247.5403135507906
 20
435.686785927947
 10
247.5450521200502
 20
435.6915244972067
 10
247.559252926668
 20
435.7057253038244
 10
247.5828600912892
 20
435.7293287431555
 10
247.6157804816567
 20
435.7622454082326
 10
247.6578948884808
 20
435.8043709909276
 10
247.7090356736983
 20
435.855511776145
 10
247.769009122213
 20
435.9154740487889
 10
247.8375879913174
 20
435.9840640937643
 10
247.9145040601098
 20
436.0609689866857
 10
247.9994667559468
 20
436.1459354078131
 10
248.0921519785726
 20
436.2386206304388
 10
248.1922021001184
 20
436.3386670266943
 10
248.2992334156836
 20
436.4457020675497
 10
248.412836143335
 20
436.5593085204915
 10
248.5325781493986
 20
436.6790542518454
 10
248.6579937725865
 20
436.8044624244527
 10
248.7886136263215
 20
436.935086003478
 10
248.9239273458326
 20
437.0704034482794
 10
249.0634245663487
 20
437.209893218215
 10
249.206565120777
 20
437.3530337726431
 10
249.3528013914431
 20
437.4992737685994
  0
LWPOLYLINE
  5
130
330
2
100
AcDbEntity
  8
0
100
AcDbPolyline
 90
       22
 70
   128
 43
0.0
 10
291.3809304922425
 20
391.8461615359145
 10
291.3856690615022
 20
391.8509001051741
 10
291.3998698681198
 20
391.8651009117918
 10
291.4234807580316
 20
391.8887118017035
 10
291.4564048736894
 20
391.9216284667807
 10
291.4985155552232
 20
391.963746598895
 10
291.5496563404405
 20
392.0148873841124
 10
291.6096335142457
 20
392.0748571073371
 10
291.6782086580598
 20
392.1434397017317
 10
291.7551284521425
 20
392.2203520452338
 10
291.8400874226892
 20
392.3053184663611
 10
291.9327726453148
 20
392.3980036889868
 10
292.0328190415704
 20
392.4980500852423
 10
292.1398540824258
 20
392.6050851260977
 10
292.2534530847871
 20
392.718684128459
 10
292.3731988161409
 20
392.8384298598127
 10
292.4986144393289
 20
392.9638454830007
 10
292.6292305677736
 20
393.0944616114454
 10
292.7645480125749
 20
393.2297790562468
 10
292.9040452330911
 20
393.369276276763
 10
293.0471857875192
 20
393.5124168311911
 10
293.193418332895
 20
393.6586493765669
  0
LINE
  5
131
330
2
100
AcDbEntity
  8
0
100
AcDbLine
 10
247.5403119418812
 20
435.6867828472764
 30
0.0
 11
291.3809323754469
 21
391.8461624137102
 31
0.0
  0
LINE
  5
132
330
2
100
AcDbEntity
  8
0
100
AcDbLine
 10
260.268233516773
 20
448.4147021686392
 30
0.0
 11
304.1088541835153
 21
404.5740852271872
 31
0.0
  0
LINE
  5
133
330
2
100
AcDbEntity
  8
0
100
AcDbLine
 10
293.1934213410084
 20
393.6586513792716
 30
0.0
 11
304.1088541835153
 21
404.5740852271872
 31
0.0
  0
LINE
  5
134
330
2
100
AcDbEntity
  8
0
100
AcDbLine
 10
249.3528009074427
 20
437.4992718128378
 30
0.0
 11
260.268233516773
 21
448.4147021686392
 31
0.0
  0
LWPOLYLINE
  5
135
330
2
100
AcDbEntity
  8
0
100
AcDbPolyline
 90
       22
 70
   128
 43
0.0
 10
183.3810469001138
 20
435.0370058929281
 10
183.3763083308541
 20
435.0417444621878
 10
183.3621075242364
 20
435.0559452688055
 10
183.338500359615
 20
435.0795561587172
 10
183.3055762439572
 20
435.112480274375
 10
183.2634655624234
 20
435.1545909559089
 10
183.2123210519158
 20
435.2057317411261
 10
183.1523476034009
 20
435.2657089149313
 10
183.0837724595868
 20
435.3342840587454
 10
183.0068526655042
 20
435.411203852828
 10
182.9218899696671
 20
435.4961702739553
 10
182.8292084723317
 20
435.5888405954199
 10
182.7291583507859
 20
435.6889018928366
 10
182.6221270352208
 20
435.7959220325308
 10
182.5085243075692
 20
435.9095284854727
 10
182.3887823015057
 20
436.0292742168264
 10
182.2633629530274
 20
436.1546972905951
 10
182.1327468245828
 20
436.2853059684591
 10
181.9974293797814
 20
436.4206234132605
 10
181.8579358845555
 20
436.5601131831961
 10
181.7147953301274
 20
436.7032537376242
 10
181.5685590594613
 20
436.8494937335806
  0
LWPOLYLINE
  5
136
330
2
100
AcDbEntity
  8
0
100
AcDbPolyline
 90
       22
 70
   128
 43
0.0
 10
139.5404225080811
 20
391.1963889514762
 10
139.5356839388215
 20
391.2011275207358
 10
139.5214831322038
 20
391.2153283273535
 10
139.4978796928727
 20
391.2389317666846
 10
139.4649555772149
 20
391.2718558823424
 10
139.422844895681
 20
391.3139665638762
 10
139.3717041104638
 20
391.3651147996741
 10
139.3117269366586
 20
391.4250845228988
 10
139.2431517928445
 20
391.4936596667128
 10
139.1662319987618
 20
391.5705794607955
 10
139.0812730282151
 20
391.6555458819228
 10
138.9885878055894
 20
391.748223653968
 10
138.8885339587533
 20
391.848277500804
 10
138.7815063684785
 20
391.9553050910788
 10
138.6678999155366
 20
392.0689115440207
 10
138.5481616347634
 20
392.1886498247939
 10
138.4227385609948
 20
392.3140728985625
 10
138.2921224325501
 20
392.4446890270072
 10
138.1568124383294
 20
392.5800064718085
 10
138.0173152178132
 20
392.7194962417441
 10
137.8741746633851
 20
392.8626367961722
 10
137.7279346674287
 20
393.0088767921286
  0
LINE
  5
137
330
2
100
AcDbEntity
  8
0
100
AcDbLine
 10
139.5404258943243
 20
391.196387648139
 30
0.0
 11
183.3810463278903
 21
435.0370080817049
 31
0.0
  0
LINE
  5
138
330
2
100
AcDbEntity
  8
0
100
AcDbLine
 10
181.5685573623288
 20
436.8494970472665
 30
0.0
 11
170.653123208841
 21
447.7649370347815
 31
0.0
  0
LINE
  5
139
330
2
100
AcDbEntity
  8
0
100
AcDbLine
 10
126.812506267389
 20
403.9243126427488
 30
0.0
 11
170.653123208841
 21
447.7649370347815
 31
0.0
  0
LINE
  5
13A
330
2
100
AcDbEntity
  8
0
100
AcDbLine
 10
137.7279369287629
 20
393.0088766137005
 30
0.0
 11
126.812506267389
 21
403.9243126427488
 31
0.0
  0
LINE
  5
13B
330
2
100
AcDbEntity
  8
0
100
AcDbLine
 10
122.2855665176713
 20
332.6399385720568
 30
0.0
 11
309.2855665176713
 21
332.6399385720567
 31
0.0
  0
LINE
  5
13C
330
2
100
AcDbEntity
  8
0
100
AcDbLine
 10
309.2855665176713
 20
336.6399385720567
 30
0.0
 11
122.2855665176712
 21
336.6399385720567
 31
0.0
  0
LINE
  5
13D
330
2
100
AcDbEntity
  8
0
100
AcDbLine
 10
116.761147699883
 20
332.6399385720568
 30
0.0
 11
122.2855665176713
 21
332.6399385720568
 31
0.0
  0
LINE
  5
13E
330
2
100
AcDbEntity
  8
0
100
AcDbLine
 10
122.2855665176712
 20
336.6399385720567
 30
0.0
 11
114.6715325090504
 21
336.6399385720567
 31
0.0
  0
LINE
  5
13F
330
2
100
AcDbEntity
  8
0
100
AcDbLine
 10
309.2855665176713
 20
332.6399385720567
 30
0.0
 11
314.8099853354595
 21
332.6399385720567
 31
0.0
  0
LINE
  5
140
330
2
100
AcDbEntity
  8
0
100
AcDbLine
 10
316.8996005262922
 20
336.6399385720567
 30
0.0
 11
309.2855665176713
 21
336.6399385720567
 31
0.0
  0
LINE
  5
141
330
2
100
AcDbEntity
  8
0
100
AcDbLine
 10
119.0353131458072
 20
352.6399385720568
 30
0.0
 11
312.5358198895353
 21
352.6399385720567
 31
0.0
  0
LINE
  5
142
330
2
100
AcDbEntity
  8
0
100
AcDbLine
 10
312.5358198895353
 20
356.6399385720568
 30
0.0
 11
119.0353131458073
 21
356.6399385720568
 31
0.0
  0
LINE
  5
143
330
2
100
AcDbEntity
  8
0
100
AcDbLine
 10
111.8628895801626
 20
352.6399385720568
 30
0.0
 11
119.0353131458072
 21
352.6399385720568
 31
0.0
  0
LINE
  5
144
330
2
100
AcDbEntity
  8
0
100
AcDbLine
 10
119.0353131458073
 20
356.6399385720568
 30
0.0
 11
112.3727810129304
 21
356.6399385720568
 31
0.0
  0
LINE
  5
145
330
2
100
AcDbEntity
  8
0
100
AcDbLine
 10
312.5358198895353
 20
352.6399385720567
 30
0.0
 11
319.70824345518
 21
352.6399385720568
 31
0.0
  0
LINE
  5
146
330
2
100
AcDbEntity
  8
0
100
AcDbLine
 10
319.1983520224122
 20
356.6399385720568
 30
0.0
 11
312.5358198895353
 21
356.6399385720568
 31
0.0
  0
LINE
  5
147
330
2
100
AcDbEntity
  8
0
100
AcDbLine
 10
127.8765671484284
 20
372.6399385720569
 30
0.0
 11
303.6945658869143
 21
372.6399385720568
 31
0.0
  0
LINE
  5
148
330
2
100
AcDbEntity
  8
0
100
AcDbLine
 10
303.6945658869143
 20
376.6399385720567
 30
0.0
 11
127.8765671484284
 21
376.6399385720568
 31
0.0
  0
LINE
  5
149
330
2
100
AcDbEntity
  8
0
100
AcDbLine
 10
120.1130299561473
 20
372.6399385720568
 30
0.0
 11
127.8765671484284
 21
372.6399385720569
 31
0.0
  0
LINE
  5
14A
330
2
100
AcDbEntity
  8
0
100
AcDbLine
 10
127.8765671484284
 20
376.6399385720568
 30
0.0
 11
123.9940273245812
 21
376.6399385720568
 31
0.0
  0
LINE
  5
14B
330
2
100
AcDbEntity
  8
0
100
AcDbLine
 10
303.6945658869143
 20
372.6399385720568
 30
0.0
 11
311.4581030791952
 21
372.6399385720567
 31
0.0
  0
LINE
  5
14C
330
2
100
AcDbEntity
  8
0
100
AcDbLine
 10
307.5771057107614
 20
376.6399385720568
 30
0.0
 11
303.6945658869143
 21
376.6399385720567
 31
0.0
  0
LINE
  5
14D
330
2
100
AcDbEntity
  8
0
100
AcDbLine
 10
147.7513866374616
 20
392.6399385720569
 30
0.0
 11
283.8197463978811
 21
392.6399385720568
 31
0.0
  0
LINE
  5
14E
330
2
100
AcDbEntity
  8
0
100
AcDbLine
 10
283.8197463978811
 20
396.6399385720568
 30
0.0
 11
147.7513866374616
 21
396.6399385720568
 31
0.0
  0
LINE
  5
14F
330
2
100
AcDbEntity
  8
0
100
AcDbLine
 10
140.9839768182422
 20
392.6399385720567
 30
0.0
 11
147.7513866374616
 21
392.6399385720569
 31
0.0
  0
LINE
  5
150
330
2
100
AcDbEntity
  8
0
100
AcDbLine
 10
147.7513866374616
 20
396.6399385720568
 30
0.0
 11
144.9839768182422
 21
396.6399385720568
 31
0.0
  0
LINE
  5
151
330
2
100
AcDbEntity
  8
0
100
AcDbLine
 10
283.8197463978811
 20
392.6399385720568
 30
0.0
 11
290.5871562171003
 21
392.6399385720567
 31
0.0
  0
LINE
  5
152
330
2
100
AcDbEntity
  8
0
100
AcDbLine
 10
286.5871562171003
 20
396.6399385720568
 30
0.0
 11
283.8197463978811
 21
396.6399385720568
 31
0.0
  0
LINE
  5
153
330
2
100
AcDbEntity
  8
0
100
AcDbLine
 10
167.7513866374615
 20
412.6399385720567
 30
0.0
 11
263.8197463978811
 21
412.6399385720567
 31
0.0
  0
LINE
  5
154
330
2
100
AcDbEntity
  8
0
100
AcDbLine
 10
263.8197463978812
 20
416.6399385720567
 30
0.0
 11
167.7513866374616
 21
416.6399385720567
 31
0.0
  0
LINE
  5
155
330
2
100
AcDbEntity
  8
0
100
AcDbLine
 10
160.9839768182422
 20
412.6399385720567
 30
0.0
 11
167.7513866374615
 21
412.6399385720567
 31
0.0
  0
LINE
  5
156
330
2
100
AcDbEntity
  8
0
100
AcDbLine
 10
167.7513866374616
 20
416.6399385720567
 30
0.0
 11
164.9839768182421
 21
416.6399385720567
 31
0.0
  0
LINE
  5
157
330
2
100
AcDbEntity
  8
0
100
AcDbLine
 10
263.8197463978811
 20
412.6399385720567
 30
0.0
 11
270.5871562171005
 21
412.6399385720567
 31
0.0
  0
LINE
  5
158
330
2
100
AcDbEntity
  8
0
100
AcDbLine
 10
266.5871562171005
 20
416.6399385720567
 30
0.0
 11
263.8197463978812
 21
416.6399385720567
 31
0.0
  0
LINE
  5
159
330
2
100
AcDbEntity
  8
0
100
AcDbLine
 10
187.7513866374614
 20
432.6399385720568
 30
0.0
 11
243.8197463978812
 21
432.6399385720568
 31
0.0
  0
LINE
  5
15A
330
2
100
AcDbEntity
  8
0
100
AcDbLine
 10
243.8197463978812
 20
436.6399385720568
 30
0.0
 11
187.7513866374615
 21
436.6399385720568
 31
0.0
  0
LINE
  5
15B
330
2
100
AcDbEntity
  8
0
100
AcDbLine
 10
180.9839768182421
 20
432.6399385720568
 30
0.0
 11
187.7513866374614
 21
432.6399385720568
 31
0.0
  0
LINE
  5
15C
330
2
100
AcDbEntity
  8
0
100
AcDbLine
 10
187.7513866374615
 20
436.6399385720568
 30
0.0
 11
183.9940273245809
 21
436.6399385720568
 31
0.0
  0
LINE
  5
15D
330
2
100
AcDbEntity
  8
0
100
AcDbLine
 10
243.8197463978812
 20
432.6399385720568
 30
0.0
 11
250.5871562171007
 21
432.6399385720567
 31
0.0
  0
LINE
  5
15E
330
2
100
AcDbEntity
  8
0
100
AcDbLine
 10
247.577105710762
 20
436.6399385720567
 30
0.0
 11
243.8197463978812
 21
436.6399385720568
 31
0.0
  0
ENDSEC
  0
SECTION
  2
OBJECTS
  0
DICTIONARY
  5
9
330
0
100
AcDbDictionary
281
     1
  3
ACAD_COLOR
350
44
  3
ACAD_GROUP
350
31
  3
ACAD_LAYOUT
350
16
  3
ACAD_MATERIAL
350
B
  3
ACAD_MLEADERSTYLE
350
47
  3
ACAD_MLINESTYLE
350
32
  3
ACAD_PLOTSETTINGS
350
33
  3
ACAD_PLOTSTYLENAME
350
8
  3
ACAD_SCALELIST
350
45
  3
ACAD_TABLESTYLE
350
46
  3
ACAD_VISUALSTYLE
350
2A
  3
ACDB_RECOMPOSE_DATA
350
169
  3
AcDbVariableDictionary
350
15F
  0
DICTIONARY
  5
2B
330
27
100
AcDbDictionary
280
     1
281
     1
  0
DICTIONARY
  5
1D
330
1C
100
AcDbDictionary
280
     1
281
     1
  3
ACAD_LAYERSTATES
360
1E
  0
DICTIONARY
  5
5
330
4
100
AcDbDictionary
280
     1
281
     1
  3
ADSK_XREC_LAYER_RECONCILED
360
6
  0
DICTIONARY
  5
9F
330
9E
100
AcDbDictionary
280
     1
281
     1
  0
DICTIONARY
  5
A4
330
A3
100
AcDbDictionary
280
     1
281
     1
  0
DICTIONARY
  5
DA
330
D9
100
AcDbDictionary
280
     1
281
     1
  0
DICTIONARY
  5
C5
330
C4
100
AcDbDictionary
280
     1
281
     1
  0
DICTIONARY
  5
9A
330
99
100
AcDbDictionary
280
     1
281
     1
  3
ACAD_SORTENTS
360
9B
  0
DICTIONARY
  5
44
102
{ACAD_REACTORS
330
9
102
}
330
9
100
AcDbDictionary
281
     1
  0
DICTIONARY
  5
31
102
{ACAD_REACTORS
330
9
102
}
330
9
100
AcDbDictionary
281
     1
  0
DICTIONARY
  5
16
102
{ACAD_REACTORS
330
9
102
}
330
9
100
AcDbDictionary
281
     1
  3
Layout1
350
1B
  3
Model
350
15
  0
DICTIONARY
  5
B
102
{ACAD_REACTORS
330
9
102
}
330
9
100
AcDbDictionary
281
     1
  3
ByBlock
350
3C
  3
ByLayer
350
34
  3
Global
350
A
  0
DICTIONARY
  5
47
102
{ACAD_REACTORS
330
9
102
}
330
9
100
AcDbDictionary
281
     1
  0
DICTIONARY
  5
32
102
{ACAD_REACTORS
330
9
102
}
330
9
100
AcDbDictionary
281
     1
  3
Standard
350
48
  0
DICTIONARY
  5
33
102
{ACAD_REACTORS
330
9
102
}
330
9
100
AcDbDictionary
281
     1
  0
ACDBDICTIONARYWDFLT
  5
8
102
{ACAD_REACTORS
330
9
102
}
330
9
100
AcDbDictionary
281
     1
  3
Normal
350
7
100
AcDbDictionaryWithDefault
340
7
  0
DICTIONARY
  5
45
102
{ACAD_REACTORS
330
9
102
}
330
9
100
AcDbDictionary
281
     1
  3
A0
350
4D
  3
A1
350
4E
  3
A2
350
4F
  3
A3
350
50
  3
A4
350
51
  3
A5
350
52
  3
A6
350
53
  3
A7
350
54
  3
A8
350
55
  3
A9
350
56
  3
B0
350
57
  3
B1
350
58
  3
B2
350
59
  3
B3
350
5A
  3
B4
350
5B
  3
B5
350
5C
  3
B6
350
5D
  3
B7
350
5E
  3
B8
350
5F
  3
B9
350
60
  3
C0
350
61
  3
C1
350
62
  3
C2
350
63
  3
C3
350
64
  3
C4
350
65
  3
C5
350
66
  3
C6
350
67
  3
C7
350
68
  3
C8
350
69
  3
C9
350
6A
  3
D0
350
6B
  3
D1
350
6C
  3
D2
350
6D
  0
DICTIONARY
  5
46
102
{ACAD_REACTORS
330
9
102
}
330
9
100
AcDbDictionary
281
     1
  3
Standard
350
49
  0
DICTIONARY
  5
2A
102
{ACAD_REACTORS
330
9
102
}
330
9
100
AcDbDictionary
281
     1
  3
2dWireframe
350
29
  3
3dWireframe
350
4C
  3
Realistic
350
4B
  0
XRECORD
  5
169
102
{ACAD_REACTORS
330
9
102
}
330
9
100
AcDbXrecord
280
     1
 90
        1
330
49
  0
DICTIONARY
  5
15F
102
{ACAD_REACTORS
330
9
102
}
330
9
100
AcDbDictionary
281
     1
  3
CANNOSCALE
350
163
  3
CMLEADERSTYLE
350
161
  3
CTABLESTYLE
350
160
  3
LAYEREVAL
350
165
  3
LAYERNOTIFY
350
166
  3
LIGHTINGUNITS
350
164
  3
MSLTSCALE
350
162
  0
DICTIONARY
  5
1E
102
{ACAD_REACTORS
330
1D
102
}
330
1D
100
AcDbDictionary
281
     1
  0
XRECORD
  5
6
102
{ACAD_REACTORS
330
5
102
}
330
5
100
AcDbXrecord
280
     1
290
     1
  0
SORTENTSTABLE
  5
9B
102
{ACAD_REACTORS
330
9A
102
}
330
9A
100
AcDbSortentsTable
330
99
  0
LAYOUT
  5
1B
102
{ACAD_REACTORS
330
16
102
}
330
16
100
AcDbPlotSettings
  1

  2

  4

  6

 40
0.0
 41
0.0
 42
0.0
 43
0.0
 44
0.0
 45
0.0
 46
0.0
 47
0.0
 48
0.0
 49
0.0
140
0.0
141
0.0
142
1.0
143
1.0
 70
   688
 72
     0
 73
     0
 74
     5
  7

 75
    16
147
1.0
 76
     0
 77
     2
 78
   300
148
0.0
149
0.0
100
AcDbLayout
  1
Layout1
 70
     1
 71
     1
 10
0.0
 20
0.0
 11
420.0
 21
297.0
 12
0.0
 22
0.0
 32
0.0
 14
1.000000000000000E+20
 24
1.000000000000000E+20
 34
1.000000000000000E+20
 15
-1.000000000000000E+20
 25
-1.000000000000000E+20
 35
-1.000000000000000E+20
146
0.0
 13
0.0
 23
0.0
 33
0.0
 16
1.0
 26
0.0
 36
0.0
 17
0.0
 27
1.0
 37
0.0
 76
     0
330
18
  0
LAYOUT
  5
15
102
{ACAD_REACTORS
330
16
102
}
330
16
100
AcDbPlotSettings
  1

  2
SHARP MX-3500N PS
  4
A4
  6

 40
5.027082920074462
 41
5.027099609375
 42
5.027069091796875
 43
5.027069091796875
 44
209.9733276367187
 45
296.9259948730469
 46
0.0
 47
0.0
 48
0.0
 49
0.0
140
0.0
141
0.0
142
1.0
143
6.469519399643216
 70
 11952
 72
     1
 73
     1
 74
     0
  7

 75
     0
147
0.1545709871517115
 76
     0
 77
     2
 78
   300
148
589.1697464549852
149
251.0923925073986
100
AcDbLayout
  1
Model
 70
     1
 71
     0
 10
0.0
 20
0.0
 11
0.0
 21
0.0
 12
0.0
 22
0.0
 32
0.0
 14
0.0
 24
0.0
 34
0.0
 15
297.0
 25
210.0
 35
0.0
146
0.0
 13
0.0
 23
0.0
 33
0.0
 16
1.0
 26
0.0
 36
0.0
 17
0.0
 27
1.0
 37
0.0
 76
     0
330
2
331
28
1001
ACAD_PSEXT
1000
SHARP MX-3500N PS
1000
SHARP MX-3500N PS
1000
S2_IP_192.168.0.51
1000

1070
     0
  0
MATERIAL
  5
3C
102
{ACAD_XDICTIONARY
360
3D
102
}
102
{ACAD_REACTORS
330
B
102
}
330
B
100
AcDbMaterial
  1
ByBlock
 72
     0
 43
0.0008202099737533
 43
0.0
 43
0.0
 43
0.0
 43
0.0
 43
0.0008202099737533
 43
0.0
 43
0.0
 43
0.0
 43
0.0
 43
1.0
 43
0.0
 43
0.0
 43
0.0
 43
0.0
 43
1.0
 77
     0
 47
0.0008202099737533
 47
0.0
 47
0.0
 47
0.0
 47
0.0
 47
0.0008202099737533
 47
0.0
 47
0.0
 47
0.0
 47
0.0
 47
1.0
 47
0.0
 47
0.0
 47
0.0
 47
0.0
 47
1.0
171
     0
 49
0.0008202099737533
 49
0.0
 49
0.0
 49
0.0
 49
0.0
 49
0.0008202099737533
 49
0.0
 49
0.0
 49
0.0
 49
0.0
 49
1.0
 49
0.0
 49
0.0
 49
0.0
 49
0.0
 49
1.0
175
     0
142
0.0008202099737533
142
0.0
142
0.0
142
0.0
142
0.0
142
0.0008202099737533
142
0.0
142
0.0
142
0.0
142
0.0
142
1.0
142
0.0
142
0.0
142
0.0
142
0.0
142
1.0
179
     0
144
0.0008202099737533
144
0.0
144
0.0
144
0.0
144
0.0
144
0.0008202099737533
144
0.0
144
0.0
144
0.0
144
0.0
144
1.0
144
0.0
144
0.0
144
0.0
144
0.0
144
1.0
147
0.0008202099737533
147
0.0
147
0.0
147
0.0
147
0.0
147
0.0008202099737533
147
0.0
147
0.0
147
0.0
147
0.0
147
1.0
147
0.0
147
0.0
147
0.0
147
0.0
147
1.0
  0
MATERIAL
  5
34
102
{ACAD_XDICTIONARY
360
35
102
}
102
{ACAD_REACTORS
330
B
102
}
330
B
100
AcDbMaterial
  1
ByLayer
 72
     0
 43
0.0008202099737533
 43
0.0
 43
0.0
 43
0.0
 43
0.0
 43
0.0008202099737533
 43
0.0
 43
0.0
 43
0.0
 43
0.0
 43
1.0
 43
0.0
 43
0.0
 43
0.0
 43
0.0
 43
1.0
 77
     0
 47
0.0008202099737533
 47
0.0
 47
0.0
 47
0.0
 47
0.0
 47
0.0008202099737533
 47
0.0
 47
0.0
 47
0.0
 47
0.0
 47
1.0
 47
0.0
 47
0.0
 47
0.0
 47
0.0
 47
1.0
171
     0
 49
0.0008202099737533
 49
0.0
 49
0.0
 49
0.0
 49
0.0
 49
0.0008202099737533
 49
0.0
 49
0.0
 49
0.0
 49
0.0
 49
1.0
 49
0.0
 49
0.0
 49
0.0
 49
0.0
 49
1.0
175
     0
142
0.0008202099737533
142
0.0
142
0.0
142
0.0
142
0.0
142
0.0008202099737533
142
0.0
142
0.0
142
0.0
142
0.0
142
1.0
142
0.0
142
0.0
142
0.0
142
0.0
142
1.0
179
     0
144
0.0008202099737533
144
0.0
144
0.0
144
0.0
144
0.0
144
0.0008202099737533
144
0.0
144
0.0
144
0.0
144
0.0
144
1.0
144
0.0
144
0.0
144
0.0
144
0.0
144
1.0
147
0.0008202099737533
147
0.0
147
0.0
147
0.0
147
0.0
147
0.0008202099737533
147
0.0
147
0.0
147
0.0
147
0.0
147
1.0
147
0.0
147
0.0
147
0.0
147
0.0
147
1.0
  0
MATERIAL
  5
A
102
{ACAD_XDICTIONARY
360
C
102
}
102
{ACAD_REACTORS
330
B
102
}
330
B
100
AcDbMaterial
  1
Global
 72
     0
 43
0.0008202099737533
 43
0.0
 43
0.0
 43
0.0
 43
0.0
 43
0.0008202099737533
 43
0.0
 43
0.0
 43
0.0
 43
0.0
 43
1.0
 43
0.0
 43
0.0
 43
0.0
 43
0.0
 43
1.0
 77
     0
 47
0.0008202099737533
 47
0.0
 47
0.0
 47
0.0
 47
0.0
 47
0.0008202099737533
 47
0.0
 47
0.0
 47
0.0
 47
0.0
 47
1.0
 47
0.0
 47
0.0
 47
0.0
 47
0.0
 47
1.0
171
     0
 49
0.0008202099737533
 49
0.0
 49
0.0
 49
0.0
 49
0.0
 49
0.0008202099737533
 49
0.0
 49
0.0
 49
0.0
 49
0.0
 49
1.0
 49
0.0
 49
0.0
 49
0.0
 49
0.0
 49
1.0
175
     0
142
0.0008202099737533
142
0.0
142
0.0
142
0.0
142
0.0
142
0.0008202099737533
142
0.0
142
0.0
142
0.0
142
0.0
142
1.0
142
0.0
142
0.0
142
0.0
142
0.0
142
1.0
179
     0
144
0.0008202099737533
144
0.0
144
0.0
144
0.0
144
0.0
144
0.0008202099737533
144
0.0
144
0.0
144
0.0
144
0.0
144
1.0
144
0.0
144
0.0
144
0.0
144
0.0
144
1.0
147
0.0008202099737533
147
0.0
147
0.0
147
0.0
147
0.0
147
0.0008202099737533
147
0.0
147
0.0
147
0.0
147
0.0
147
1.0
147
0.0
147
0.0
147
0.0
147
0.0
147
1.0
  0
MLINESTYLE
  5
48
102
{ACAD_REACTORS
330
32
102
}
330
32
100
AcDbMlineStyle
  2
STANDARD
 70
     0
  3

 62
   256
 51
90.0
 52
90.0
 71
     2
 49
0.5
 62
   256
  6
BYLAYER
 49
-0.5
 62
   256
  6
BYLAYER
  0
ACDBPLACEHOLDER
  5
7
102
{ACAD_REACTORS
330
8
102
}
330
8
  0
SCALE
  5
4D
102
{ACAD_REACTORS
330
45
102
}
330
45
100
AcDbScale
 70
     0
300
1:1
140
1.0
141
1.0
290
     1
  0
SCALE
  5
4E
102
{ACAD_REACTORS
330
45
102
}
330
45
100
AcDbScale
 70
     0
300
1:2
140
1.0
141
2.0
290
     0
  0
SCALE
  5
4F
102
{ACAD_REACTORS
330
45
102
}
330
45
100
AcDbScale
 70
     0
300
1:4
140
1.0
141
4.0
290
     0
  0
SCALE
  5
50
102
{ACAD_REACTORS
330
45
102
}
330
45
100
AcDbScale
 70
     0
300
1:5
140
1.0
141
5.0
290
     0
  0
SCALE
  5
51
102
{ACAD_REACTORS
330
45
102
}
330
45
100
AcDbScale
 70
     0
300
1:8
140
1.0
141
8.0
290
     0
  0
SCALE
  5
52
102
{ACAD_REACTORS
330
45
102
}
330
45
100
AcDbScale
 70
     0
300
1:10
140
1.0
141
10.0
290
     0
  0
SCALE
  5
53
102
{ACAD_REACTORS
330
45
102
}
330
45
100
AcDbScale
 70
     0
300
1:16
140
1.0
141
16.0
290
     0
  0
SCALE
  5
54
102
{ACAD_REACTORS
330
45
102
}
330
45
100
AcDbScale
 70
     0
300
1:20
140
1.0
141
20.0
290
     0
  0
SCALE
  5
55
102
{ACAD_REACTORS
330
45
102
}
330
45
100
AcDbScale
 70
     0
300
1:30
140
1.0
141
30.0
290
     0
  0
SCALE
  5
56
102
{ACAD_REACTORS
330
45
102
}
330
45
100
AcDbScale
 70
     0
300
1:40
140
1.0
141
40.0
290
     0
  0
SCALE
  5
57
102
{ACAD_REACTORS
330
45
102
}
330
45
100
AcDbScale
 70
     0
300
1:50
140
1.0
141
50.0
290
     0
  0
SCALE
  5
58
102
{ACAD_REACTORS
330
45
102
}
330
45
100
AcDbScale
 70
     0
300
1:100
140
1.0
141
100.0
290
     0
  0
SCALE
  5
59
102
{ACAD_REACTORS
330
45
102
}
330
45
100
AcDbScale
 70
     0
300
2:1
140
2.0
141
1.0
290
     0
  0
SCALE
  5
5A
102
{ACAD_REACTORS
330
45
102
}
330
45
100
AcDbScale
 70
     0
300
4:1
140
4.0
141
1.0
290
     0
  0
SCALE
  5
5B
102
{ACAD_REACTORS
330
45
102
}
330
45
100
AcDbScale
 70
     0
300
8:1
140
8.0
141
1.0
290
     0
  0
SCALE
  5
5C
102
{ACAD_REACTORS
330
45
102
}
330
45
100
AcDbScale
 70
     0
300
10:1
140
10.0
141
1.0
290
     0
  0
SCALE
  5
5D
102
{ACAD_REACTORS
330
45
102
}
330
45
100
AcDbScale
 70
     0
300
100:1
140
100.0
141
1.0
290
     0
  0
SCALE
  5
5E
102
{ACAD_REACTORS
330
45
102
}
330
45
100
AcDbScale
 70
     0
300
1/128" = 1'-0"
140
0.0078125
141
12.0
290
     0
  0
SCALE
  5
5F
102
{ACAD_REACTORS
330
45
102
}
330
45
100
AcDbScale
 70
     0
300
1/64" = 1'-0"
140
0.015625
141
12.0
290
     0
  0
SCALE
  5
60
102
{ACAD_REACTORS
330
45
102
}
330
45
100
AcDbScale
 70
     0
300
1/32" = 1'-0"
140
0.03125
141
12.0
290
     0
  0
SCALE
  5
61
102
{ACAD_REACTORS
330
45
102
}
330
45
100
AcDbScale
 70
     0
300
1/16" = 1'-0"
140
0.0625
141
12.0
290
     0
  0
SCALE
  5
62
102
{ACAD_REACTORS
330
45
102
}
330
45
100
AcDbScale
 70
     0
300
3/32" = 1'-0"
140
0.09375
141
12.0
290
     0
  0
SCALE
  5
63
102
{ACAD_REACTORS
330
45
102
}
330
45
100
AcDbScale
 70
     0
300
1/8" = 1'-0"
140
0.125
141
12.0
290
     0
  0
SCALE
  5
64
102
{ACAD_REACTORS
330
45
102
}
330
45
100
AcDbScale
 70
     0
300
3/16" = 1'-0"
140
0.1875
141
12.0
290
     0
  0
SCALE
  5
65
102
{ACAD_REACTORS
330
45
102
}
330
45
100
AcDbScale
 70
     0
300
1/4" = 1'-0"
140
0.25
141
12.0
290
     0
  0
SCALE
  5
66
102
{ACAD_REACTORS
330
45
102
}
330
45
100
AcDbScale
 70
     0
300
3/8" = 1'-0"
140
0.375
141
12.0
290
     0
  0
SCALE
  5
67
102
{ACAD_REACTORS
330
45
102
}
330
45
100
AcDbScale
 70
     0
300
1/2" = 1'-0"
140
0.5
141
12.0
290
     0
  0
SCALE
  5
68
102
{ACAD_REACTORS
330
45
102
}
330
45
100
AcDbScale
 70
     0
300
3/4" = 1'-0"
140
0.75
141
12.0
290
     0
  0
SCALE
  5
69
102
{ACAD_REACTORS
330
45
102
}
330
45
100
AcDbScale
 70
     0
300
1" = 1'-0"
140
1.0
141
12.0
290
     0
  0
SCALE
  5
6A
102
{ACAD_REACTORS
330
45
102
}
330
45
100
AcDbScale
 70
     0
300
1-1/2" = 1'-0"
140
1.5
141
12.0
290
     0
  0
SCALE
  5
6B
102
{ACAD_REACTORS
330
45
102
}
330
45
100
AcDbScale
 70
     0
300
3" = 1'-0"
140
3.0
141
12.0
290
     0
  0
SCALE
  5
6C
102
{ACAD_REACTORS
330
45
102
}
330
45
100
AcDbScale
 70
     0
300
6" = 1'-0"
140
6.0
141
12.0
290
     0
  0
SCALE
  5
6D
102
{ACAD_REACTORS
330
45
102
}
330
45
100
AcDbScale
 70
     0
300
1'-0" = 1'-0"
140
12.0
141
12.0
290
     0
  0
TABLESTYLE
  5
49
102
{ACAD_XDICTIONARY
360
4A
102
}
102
{ACAD_REACTORS
330
46
102
}
330
46
100
AcDbTableStyle
280
     0
  3
Standard
 70
     0
 71
     0
 40
1.5
 41
1.5
280
     0
281
     0
  7
Standard
140
4.5
170
     2
 62
     0
 63
     7
283
     0
 90
      512
 91
        0
  1

274
    -2
284
     1
 64
     0
275
    -2
285
     1
 65
     0
276
    -2
286
     1
 66
     0
277
    -2
287
     1
 67
     0
278
    -2
288
     1
 68
     0
279
    -2
289
     1
 69
     0
  7
Standard
140
6.0
170
     5
 62
     0
 63
     7
283
     0
 90
      512
 91
        0
  1

274
    -2
284
     1
 64
     0
275
    -2
285
     1
 65
     0
276
    -2
286
     1
 66
     0
277
    -2
287
     1
 67
     0
278
    -2
288
     1
 68
     0
279
    -2
289
     1
 69
     0
  7
Standard
140
4.5
170
     5
 62
     0
 63
     7
283
     0
 90
      512
 91
        0
  1

274
    -2
284
     1
 64
     0
275
    -2
285
     1
 65
     0
276
    -2
286
     1
 66
     0
277
    -2
287
     1
 67
     0
278
    -2
288
     1
 68
     0
279
    -2
289
     1
 69
     0
  0
VISUALSTYLE
  5
29
102
{ACAD_REACTORS
330
2A
102
}
330
2A
100
AcDbVisualStyle
  2
2dWireframe
 70
     4
177
     2
291
     0
 71
     0
176
     1
 72
     2
176
     1
 73
     0
176
     1
 90
        0
176
     1
 40
0.6
176
     1
 41
30.0
176
     1
 63
     7
176
     1
 74
     1
176
     1
 91
        4
176
     1
 64
     7
176
     1
 65
   257
176
     1
 75
     1
176
     1
175
     1
176
     1
 42
1.0
176
     1
 92
        0
176
     1
 66
   257
176
     1
 43
1.0
176
     1
 76
     1
176
     1
 77
     6
176
     1
 78
     2
176
     1
 67
     7
176
     1
 79
     5
176
     1
170
     0
176
     1
171
     0
176
     1
290
     0
176
     1
 93
        1
176
     1
 44
0.0
176
     1
173
     0
176
     1
  0
VISUALSTYLE
  5
4C
102
{ACAD_REACTORS
330
2A
102
}
330
2A
100
AcDbVisualStyle
  2
3dWireframe
 70
     5
177
     2
291
     0
 71
     0
176
     1
 72
     2
176
     1
 73
     0
176
     1
 90
        0
176
     1
 40
0.6
176
     1
 41
30.0
176
     1
 63
     7
176
     1
 74
     1
176
     1
 91
        4
176
     1
 64
     7
176
     1
 65
   257
176
     1
 75
     1
176
     1
175
     1
176
     1
 42
1.0
176
     1
 92
        0
176
     1
 66
   257
176
     1
 43
1.0
176
     1
 76
     1
176
     1
 77
     6
176
     1
 78
     2
176
     1
 67
     7
176
     1
 79
     5
176
     1
170
     0
176
     1
171
     0
176
     1
290
     0
176
     1
 93
        1
176
     1
 44
0.0
176
     1
173
     0
176
     1
  0
VISUALSTYLE
  5
4B
102
{ACAD_REACTORS
330
2A
102
}
330
2A
100
AcDbVisualStyle
  2
Realistic
 70
     8
177
     2
291
     0
 71
     2
176
     1
 72
     2
176
     1
 73
     0
176
     1
 90
        0
176
     1
 40
0.6
176
     1
 41
30.0
176
     1
 63
     7
176
     1
 74
     1
176
     1
 91
        0
176
     1
 64
     7
176
     1
 65
   257
176
     1
 75
     1
176
     1
175
     1
176
     1
 42
1.0
176
     1
 92
        8
176
     1
 66
     8
176
     1
 43
1.0
176
     1
 76
     1
176
     1
 77
     6
176
     1
 78
     2
176
     1
 67
     7
176
     1
 79
     5
176
     1
170
     0
176
     1
171
     0
176
     1
290
     0
176
     1
 93
       13
176
     1
 44
0.0
176
     1
173
     0
176
     1
  0
DICTIONARYVAR
  5
163
102
{ACAD_REACTORS
330
15F
102
}
330
15F
100
DictionaryVariables
280
     0
  1
1:1
  0
DICTIONARYVAR
  5
161
102
{ACAD_REACTORS
330
15F
102
}
330
15F
100
DictionaryVariables
280
     0
  1
STANDARD
  0
DICTIONARYVAR
  5
160
102
{ACAD_REACTORS
330
15F
102
}
330
15F
100
DictionaryVariables
280
     0
  1
STANDARD
  0
DICTIONARYVAR
  5
165
102
{ACAD_REACTORS
330
15F
102
}
330
15F
100
DictionaryVariables
280
     0
  1
1
  0
DICTIONARYVAR
  5
166
102
{ACAD_REACTORS
330
15F
102
}
330
15F
100
DictionaryVariables
280
     0
  1
15
  0
DICTIONARYVAR
  5
164
102
{ACAD_REACTORS
330
15F
102
}
330
15F
100
DictionaryVariables
280
     0
  1
0
  0
DICTIONARYVAR
  5
162
102
{ACAD_REACTORS
330
15F
102
}
330
15F
100
DictionaryVariables
280
     0
  1
0
  0
DICTIONARY
  5
3D
330
3C
100
AcDbDictionary
280
     1
281
     1
  3
BUMPTILE
360
3E
  3
DIFFUSETILE
360
3F
  3
OPACITYTILE
360
40
  3
REFLECTIONTILE
360
41
  3
REFRACTIONTILE
360
42
  3
SPECULARTILE
360
43
  0
DICTIONARY
  5
35
330
34
100
AcDbDictionary
280
     1
281
     1
  3
BUMPTILE
360
36
  3
DIFFUSETILE
360
37
  3
OPACITYTILE
360
38
  3
REFLECTIONTILE
360
39
  3
REFRACTIONTILE
360
3A
  3
SPECULARTILE
360
3B
  0
DICTIONARY
  5
C
330
A
100
AcDbDictionary
280
     1
281
     1
  3
BUMPTILE
360
D
  3
DIFFUSETILE
360
E
  3
OPACITYTILE
360
F
  3
REFLECTIONTILE
360
10
  3
REFRACTIONTILE
360
11
  3
SPECULARTILE
360
12
  0
DICTIONARY
  5
4A
330
49
100
AcDbDictionary
280
     1
281
     1
  3
ACAD_ROUNDTRIP_2008_TABLESTYLE_CELLSTYLEMAP
360
167
  0
XRECORD
  5
3E
102
{ACAD_REACTORS
330
3D
102
}
330
3D
100
AcDbXrecord
280
     1
270
     1
271
     1
  0
XRECORD
  5
3F
102
{ACAD_REACTORS
330
3D
102
}
330
3D
100
AcDbXrecord
280
     1
270
     1
271
     1
  0
XRECORD
  5
40
102
{ACAD_REACTORS
330
3D
102
}
330
3D
100
AcDbXrecord
280
     1
270
     1
271
     1
  0
XRECORD
  5
41
102
{ACAD_REACTORS
330
3D
102
}
330
3D
100
AcDbXrecord
280
     1
270
     1
271
     1
  0
XRECORD
  5
42
102
{ACAD_REACTORS
330
3D
102
}
330
3D
100
AcDbXrecord
280
     1
270
     1
271
     1
  0
XRECORD
  5
43
102
{ACAD_REACTORS
330
3D
102
}
330
3D
100
AcDbXrecord
280
     1
270
     1
271
     1
  0
XRECORD
  5
36
102
{ACAD_REACTORS
330
35
102
}
330
35
100
AcDbXrecord
280
     1
270
     1
271
     1
  0
XRECORD
  5
37
102
{ACAD_REACTORS
330
35
102
}
330
35
100
AcDbXrecord
280
     1
270
     1
271
     1
  0
XRECORD
  5
38
102
{ACAD_REACTORS
330
35
102
}
330
35
100
AcDbXrecord
280
     1
270
     1
271
     1
  0
XRECORD
  5
39
102
{ACAD_REACTORS
330
35
102
}
330
35
100
AcDbXrecord
280
     1
270
     1
271
     1
  0
XRECORD
  5
3A
102
{ACAD_REACTORS
330
35
102
}
330
35
100
AcDbXrecord
280
     1
270
     1
271
     1
  0
XRECORD
  5
3B
102
{ACAD_REACTORS
330
35
102
}
330
35
100
AcDbXrecord
280
     1
270
     1
271
     1
  0
XRECORD
  5
D
102
{ACAD_REACTORS
330
C
102
}
330
C
100
AcDbXrecord
280
     1
270
     1
271
     1
  0
XRECORD
  5
E
102
{ACAD_REACTORS
330
C
102
}
330
C
100
AcDbXrecord
280
     1
270
     1
271
     1
  0
XRECORD
  5
F
102
{ACAD_REACTORS
330
C
102
}
330
C
100
AcDbXrecord
280
     1
270
     1
271
     1
  0
XRECORD
  5
10
102
{ACAD_REACTORS
330
C
102
}
330
C
100
AcDbXrecord
280
     1
270
     1
271
     1
  0
XRECORD
  5
11
102
{ACAD_REACTORS
330
C
102
}
330
C
100
AcDbXrecord
280
     1
270
     1
271
     1
  0
XRECORD
  5
12
102
{ACAD_REACTORS
330
C
102
}
330
C
100
AcDbXrecord
280
     1
270
     1
271
     1
  0
CELLSTYLEMAP
  5
167
102
{ACAD_REACTORS
330
4A
102
}
330
4A
100
AcDbCellStyleMap
 90
        3
300
CELLSTYLE
  1
TABLEFORMAT_BEGIN
 90
        5
170
     1
 91
        0
 92
    32768
 62
   257
 93
        1
300
CONTENTFORMAT
  1
CONTENTFORMAT_BEGIN
 90
        0
 91
        0
 92
      512
 93
        0
300

 40
0.0
140
1.0
 94
        5
 62
     0
340
20
144
6.0
309
CONTENTFORMAT_END
171
     1
301
MARGIN
  1
CELLMARGIN_BEGIN
 40
1.5
 40
1.5
 40
1.5
 40
1.5
 40
4.5
 40
4.5
309
CELLMARGIN_END
 94
        6
 95
        1
302
GRIDFORMAT
  1
GRIDFORMAT_BEGIN
 90
        0
 91
        1
 62
     0
 92
       -2
340
0
 93
        0
 40
1.125
309
GRIDFORMAT_END
 95
        2
302
GRIDFORMAT
  1
GRIDFORMAT_BEGIN
 90
        0
 91
        1
 62
     0
 92
       -2
340
0
 93
        0
 40
1.125
309
GRIDFORMAT_END
 95
        4
302
GRIDFORMAT
  1
GRIDFORMAT_BEGIN
 90
        0
 91
        1
 62
     0
 92
       -2
340
0
 93
        0
 40
1.125
309
GRIDFORMAT_END
 95
        8
302
GRIDFORMAT
  1
GRIDFORMAT_BEGIN
 90
        0
 91
        1
 62
     0
 92
       -2
340
0
 93
        0
 40
1.125
309
GRIDFORMAT_END
 95
       16
302
GRIDFORMAT
  1
GRIDFORMAT_BEGIN
 90
        0
 91
        1
 62
     0
 92
       -2
340
0
 93
        0
 40
1.125
309
GRIDFORMAT_END
 95
       32
302
GRIDFORMAT
  1
GRIDFORMAT_BEGIN
 90
        0
 91
        1
 62
     0
 92
       -2
340
0
 93
        0
 40
1.125
309
GRIDFORMAT_END
309
TABLEFORMAT_END
  1
CELLSTYLE_BEGIN
 90
        1
 91
        1
300
_TITLE
309
CELLSTYLE_END
300
CELLSTYLE
  1
TABLEFORMAT_BEGIN
 90
        5
170
     1
 91
        0
 92
        0
 62
   257
 93
        1
300
CONTENTFORMAT
  1
CONTENTFORMAT_BEGIN
 90
        0
 91
        0
 92
      512
 93
        0
300

 40
0.0
140
1.0
 94
        5
 62
     0
340
20
144
4.5
309
CONTENTFORMAT_END
171
     1
301
MARGIN
  1
CELLMARGIN_BEGIN
 40
1.5
 40
1.5
 40
1.5
 40
1.5
 40
4.5
 40
4.5
309
CELLMARGIN_END
 94
        6
 95
        1
302
GRIDFORMAT
  1
GRIDFORMAT_BEGIN
 90
        0
 91
        1
 62
     0
 92
       -2
340
0
 93
        0
 40
1.125
309
GRIDFORMAT_END
 95
        2
302
GRIDFORMAT
  1
GRIDFORMAT_BEGIN
 90
        0
 91
        1
 62
     0
 92
       -2
340
0
 93
        0
 40
1.125
309
GRIDFORMAT_END
 95
        4
302
GRIDFORMAT
  1
GRIDFORMAT_BEGIN
 90
        0
 91
        1
 62
     0
 92
       -2
340
0
 93
        0
 40
1.125
309
GRIDFORMAT_END
 95
        8
302
GRIDFORMAT
  1
GRIDFORMAT_BEGIN
 90
        0
 91
        1
 62
     0
 92
       -2
340
0
 93
        0
 40
1.125
309
GRIDFORMAT_END
 95
       16
302
GRIDFORMAT
  1
GRIDFORMAT_BEGIN
 90
        0
 91
        1
 62
     0
 92
       -2
340
0
 93
        0
 40
1.125
309
GRIDFORMAT_END
 95
       32
302
GRIDFORMAT
  1
GRIDFORMAT_BEGIN
 90
        0
 91
        1
 62
     0
 92
       -2
340
0
 93
        0
 40
1.125
309
GRIDFORMAT_END
309
TABLEFORMAT_END
  1
CELLSTYLE_BEGIN
 90
        2
 91
        1
300
_HEADER
309
CELLSTYLE_END
300
CELLSTYLE
  1
TABLEFORMAT_BEGIN
 90
        5
170
     1
 91
        0
 92
        0
 62
   257
 93
        1
300
CONTENTFORMAT
  1
CONTENTFORMAT_BEGIN
 90
        0
 91
        0
 92
      512
 93
        0
300

 40
0.0
140
1.0
 94
        2
 62
     0
340
20
144
4.5
309
CONTENTFORMAT_END
171
     1
301
MARGIN
  1
CELLMARGIN_BEGIN
 40
1.5
 40
1.5
 40
1.5
 40
1.5
 40
4.5
 40
4.5
309
CELLMARGIN_END
 94
        6
 95
        1
302
GRIDFORMAT
  1
GRIDFORMAT_BEGIN
 90
        0
 91
        1
 62
     0
 92
       -2
340
0
 93
        0
 40
1.125
309
GRIDFORMAT_END
 95
        2
302
GRIDFORMAT
  1
GRIDFORMAT_BEGIN
 90
        0
 91
        1
 62
     0
 92
       -2
340
0
 93
        0
 40
1.125
309
GRIDFORMAT_END
 95
        4
302
GRIDFORMAT
  1
GRIDFORMAT_BEGIN
 90
        0
 91
        1
 62
     0
 92
       -2
340
0
 93
        0
 40
1.125
309
GRIDFORMAT_END
 95
        8
302
GRIDFORMAT
  1
GRIDFORMAT_BEGIN
 90
        0
 91
        1
 62
     0
 92
       -2
340
0
 93
        0
 40
1.125
309
GRIDFORMAT_END
 95
       16
302
GRIDFORMAT
  1
GRIDFORMAT_BEGIN
 90
        0
 91
        1
 62
     0
 92
       -2
340
0
 93
        0
 40
1.125
309
GRIDFORMAT_END
 95
       32
302
GRIDFORMAT
  1
GRIDFORMAT_BEGIN
 90
        0
 91
        1
 62
     0
 92
       -2
340
0
 93
        0
 40
1.125
309
GRIDFORMAT_END
309
TABLEFORMAT_END
  1
CELLSTYLE_BEGIN
 90
        3
 91
        2
300
_DATA
309
CELLSTYLE_END
  0
ENDSEC
  0
EOF
