  0
SECTION
  2
HEADER
  9
$ACADVER
  1
AC1024
  9
$ACADMAINTVER
 70
    10
  9
$DWGCODEPAGE
  3
ANSI_1252
  9
$INSBASE
 10
0.0
 20
0.0
 30
0.0
  9
$EXTMIN
 10
-803.4238019830265
 20
-0.0000000000002274
 30
-0.0000000000000089
  9
$EXTMAX
 10
1362.843879636923
 20
951.3450639272935
 30
0.0
  9
$LIMMIN
 10
0.0
 20
-0.0000000000002274
  9
$LIMMAX
 10
420.0
 20
593.9999999999997
  9
$ORTHOMODE
 70
     1
  9
$REGENMODE
 70
     1
  9
$FILLMODE
 70
     1
  9
$QTEXTMODE
 70
     0
  9
$MIRRTEXT
 70
     0
  9
$LTSCALE
 40
15.0
  9
$ATTMODE
 70
     1
  9
$TEXTSIZE
 40
5.0
  9
$TRACEWID
 40
1.0
  9
$TEXTSTYLE
  7
Standard
  9
$CLAYER
  8
09-01
  9
$CELTYPE
  6
ByLayer
  9
$CECOLOR
 62
   256
  9
$CELTSCALE
 40
1.0
  9
$DISPSILH
 70
     0
  9
$DIMSCALE
 40
2.0
  9
$DIMASZ
 40
2.5
  9
$DIMEXO
 40
1.0
  9
$DIMDLI
 40
10.0
  9
$DIMRND
 40
0.0
  9
$DIMDLE
 40
0.0
  9
$DIMEXE
 40
1.0
  9
$DIMTP
 40
0.0
  9
$DIMTM
 40
0.0
  9
$DIMTXT
 40
2.5
  9
$DIMCEN
 40
0.0
  9
$DIMTSZ
 40
0.0
  9
$DIMTOL
 70
     0
  9
$DIMLIM
 70
     0
  9
$DIMTIH
 70
     0
  9
$DIMTOH
 70
     0
  9
$DIMSE1
 70
     0
  9
$DIMSE2
 70
     0
  9
$DIMTAD
 70
     1
  9
$DIMZIN
 70
     8
  9
$DIMBLK
  1

  9
$DIMASO
 70
     1
  9
$DIMSHO
 70
     1
  9
$DIMPOST
  1

  9
$DIMAPOST
  1

  9
$DIMALT
 70
     0
  9
$DIMALTD
 70
     3
  9
$DIMALTF
 40
0.03937007874016
  9
$DIMLFAC
 40
1.0
  9
$DIMTOFL
 70
     1
  9
$DIMTVP
 40
0.0
  9
$DIMTIX
 70
     0
  9
$DIMSOXD
 70
     0
  9
$DIMSAH
 70
     0
  9
$DIMBLK1
  1

  9
$DIMBLK2
  1

  9
$DIMSTYLE
  2
Wagner
  9
$DIMCLRD
 70
     4
  9
$DIMCLRE
 70
     4
  9
$DIMCLRT
 70
     1
  9
$DIMTFAC
 40
1.0
  9
$DIMGAP
 40
1.0
  9
$DIMJUST
 70
     0
  9
$DIMSD1
 70
     0
  9
$DIMSD2
 70
     0
  9
$DIMTOLJ
 70
     0
  9
$DIMTZIN
 70
     8
  9
$DIMALTZ
 70
     0
  9
$DIMALTTZ
 70
     0
  9
$DIMUPT
 70
     0
  9
$DIMDEC
 70
     8
  9
$DIMTDEC
 70
     8
  9
$DIMALTU
 70
     2
  9
$DIMALTTD
 70
     3
  9
$DIMTXSTY
  7
Standard
  9
$DIMAUNIT
 70
     0
  9
$DIMADEC
 70
     1
  9
$DIMALTRND
 40
0.0
  9
$DIMAZIN
 70
     2
  9
$DIMDSEP
 70
    46
  9
$DIMATFIT
 70
     3
  9
$DIMFRAC
 70
     0
  9
$DIMLDRBLK
  1

  9
$DIMLUNIT
 70
     2
  9
$DIMLWD
 70
    -2
  9
$DIMLWE
 70
    -2
  9
$DIMTMOVE
 70
     0
  9
$DIMFXL
 40
1.0
  9
$DIMFXLON
 70
     0
  9
$DIMJOGANG
 40
0.7853981633974483
  9
$DIMTFILL
 70
     0
  9
$DIMTFILLCLR
 70
     0
  9
$DIMARCSYM
 70
     0
  9
$DIMLTYPE
  6

  9
$DIMLTEX1
  6

  9
$DIMLTEX2
  6

  9
$DIMTXTDIRECTION
 70
     0
  9
$LUNITS
 70
     2
  9
$LUPREC
 70
     1
  9
$SKETCHINC
 40
1.0
  9
$FILLETRAD
 40
0.0
  9
$AUNITS
 70
     0
  9
$AUPREC
 70
     0
  9
$MENU
  1
.
  9
$ELEVATION
 40
0.0
  9
$PELEVATION
 40
0.0
  9
$THICKNESS
 40
0.0
  9
$LIMCHECK
 70
     0
  9
$CHAMFERA
 40
0.0
  9
$CHAMFERB
 40
0.0
  9
$CHAMFERC
 40
20.0
  9
$CHAMFERD
 40
0.0
  9
$SKPOLY
 70
     0
  9
$TDCREATE
 40
2453171.322436088
  9
$TDUCREATE
 40
2453171.280769421
  9
$TDUPDATE
 40
2459153.490048681
  9
$TDUUPDATE
 40
2459153.448382014
  9
$TDINDWG
 40
2.5535033796
  9
$TDUSRTIMER
 40
2.5535033796
  9
$USRTIMER
 70
     1
  9
$ANGBASE
 50
0.0
  9
$ANGDIR
 70
     0
  9
$PDMODE
 70
     0
  9
$PDSIZE
 40
0.0
  9
$PLINEWID
 40
0.0
  9
$SPLFRAME
 70
     0
  9
$SPLINETYPE
 70
     6
  9
$SPLINESEGS
 70
     8
  9
$HANDSEED
  5
35E
  9
$SURFTAB1
 70
     6
  9
$SURFTAB2
 70
     6
  9
$SURFTYPE
 70
     6
  9
$SURFU
 70
     6
  9
$SURFV
 70
     6
  9
$UCSBASE
  2

  9
$UCSNAME
  2

  9
$UCSORG
 10
0.0
 20
0.0
 30
0.0
  9
$UCSXDIR
 10
1.0
 20
0.0
 30
0.0
  9
$UCSYDIR
 10
0.0
 20
1.0
 30
0.0
  9
$UCSORTHOREF
  2

  9
$UCSORTHOVIEW
 70
     0
  9
$UCSORGTOP
 10
0.0
 20
0.0
 30
0.0
  9
$UCSORGBOTTOM
 10
0.0
 20
0.0
 30
0.0
  9
$UCSORGLEFT
 10
0.0
 20
0.0
 30
0.0
  9
$UCSORGRIGHT
 10
0.0
 20
0.0
 30
0.0
  9
$UCSORGFRONT
 10
0.0
 20
0.0
 30
0.0
  9
$UCSORGBACK
 10
0.0
 20
0.0
 30
0.0
  9
$PUCSBASE
  2

  9
$PUCSNAME
  2

  9
$PUCSORG
 10
0.0
 20
0.0
 30
0.0
  9
$PUCSXDIR
 10
1.0
 20
0.0
 30
0.0
  9
$PUCSYDIR
 10
0.0
 20
1.0
 30
0.0
  9
$PUCSORTHOREF
  2

  9
$PUCSORTHOVIEW
 70
     0
  9
$PUCSORGTOP
 10
0.0
 20
0.0
 30
0.0
  9
$PUCSORGBOTTOM
 10
0.0
 20
0.0
 30
0.0
  9
$PUCSORGLEFT
 10
0.0
 20
0.0
 30
0.0
  9
$PUCSORGRIGHT
 10
0.0
 20
0.0
 30
0.0
  9
$PUCSORGFRONT
 10
0.0
 20
0.0
 30
0.0
  9
$PUCSORGBACK
 10
0.0
 20
0.0
 30
0.0
  9
$USERI1
 70
     0
  9
$USERI2
 70
     0
  9
$USERI3
 70
     0
  9
$USERI4
 70
     0
  9
$USERI5
 70
     0
  9
$USERR1
 40
0.0
  9
$USERR2
 40
0.0
  9
$USERR3
 40
0.0
  9
$USERR4
 40
0.0
  9
$USERR5
 40
0.0
  9
$WORLDVIEW
 70
     1
  9
$SHADEDGE
 70
     3
  9
$SHADEDIF
 70
    70
  9
$TILEMODE
 70
     1
  9
$MAXACTVP
 70
    64
  9
$PINSBASE
 10
0.0
 20
0.0
 30
0.0
  9
$PLIMCHECK
 70
     0
  9
$PEXTMIN
 10
1.000000000000000E+20
 20
1.000000000000000E+20
 30
1.000000000000000E+20
  9
$PEXTMAX
 10
-1.000000000000000E+20
 20
-1.000000000000000E+20
 30
-1.000000000000000E+20
  9
$PLIMMIN
 10
0.0
 20
0.0
  9
$PLIMMAX
 10
420.0
 20
297.0
  9
$UNITMODE
 70
     0
  9
$VISRETAIN
 70
     1
  9
$PLINEGEN
 70
     0
  9
$PSLTSCALE
 70
     1
  9
$TREEDEPTH
 70
  3020
  9
$CMLSTYLE
  2
Standard
  9
$CMLJUST
 70
     0
  9
$CMLSCALE
 40
20.0
  9
$PROXYGRAPHICS
 70
     1
  9
$MEASUREMENT
 70
     1
  9
$CELWEIGHT
370
    -1
  9
$ENDCAPS
280
     0
  9
$JOINSTYLE
280
     0
  9
$LWDISPLAY
290
     0
  9
$INSUNITS
 70
     4
  9
$HYPERLINKBASE
  1

  9
$STYLESHEET
  1

  9
$XEDIT
290
     1
  9
$CEPSNTYPE
380
     0
  9
$PSTYLEMODE
290
     1
  9
$FINGERPRINTGUID
  2
{C8D4429E-725C-4302-828F-3F0288265357}
  9
$VERSIONGUID
  2
{AFA63AA8-9B0C-45DB-A677-24B8D26FED67}
  9
$EXTNAMES
290
     1
  9
$PSVPSCALE
 40
0.0
  9
$OLESTARTUP
290
     0
  9
$SORTENTS
280
   127
  9
$INDEXCTL
280
     0
  9
$HIDETEXT
280
     1
  9
$XCLIPFRAME
280
     0
  9
$HALOGAP
280
     0
  9
$OBSCOLOR
 70
   257
  9
$OBSLTYPE
280
     0
  9
$INTERSECTIONDISPLAY
280
     0
  9
$INTERSECTIONCOLOR
 70
   257
  9
$DIMASSOC
280
     1
  9
$PROJECTNAME
  1

  9
$CAMERADISPLAY
290
     0
  9
$LENSLENGTH
 40
50.0
  9
$CAMERAHEIGHT
 40
0.0
  9
$STEPSPERSEC
 40
2.0
  9
$STEPSIZE
 40
6.0
  9
$3DDWFPREC
 40
2.0
  9
$PSOLWIDTH
 40
0.25
  9
$PSOLHEIGHT
 40
4.0
  9
$LOFTANG1
 40
1.570796326794896
  9
$LOFTANG2
 40
1.570796326794896
  9
$LOFTMAG1
 40
0.0
  9
$LOFTMAG2
 40
0.0
  9
$LOFTPARAM
 70
     7
  9
$LOFTNORMALS
280
     1
  9
$LATITUDE
 40
37.795
  9
$LONGITUDE
 40
-122.394
  9
$NORTHDIRECTION
 40
0.0
  9
$TIMEZONE
 70
 -8000
  9
$LIGHTGLYPHDISPLAY
280
     1
  9
$TILEMODELIGHTSYNCH
280
     1
  9
$CMATERIAL
347
3C
  9
$SOLIDHIST
280
     1
  9
$SHOWHIST
280
     1
  9
$DWFFRAME
280
     2
  9
$DGNFRAME
280
     0
  9
$REALWORLDSCALE
290
     1
  9
$INTERFERECOLOR
 62
     1
  9
$INTERFEREOBJVS
345
56
  9
$INTERFEREVPVS
346
57
  9
$CSHADOW
280
     0
  9
$SHADOWPLANELOCATION
 40
0.0
  0
ENDSEC
  0
SECTION
  2
CLASSES
  0
CLASS
  1
ACDBDICTIONARYWDFLT
  2
AcDbDictionaryWithDefault
  3
ObjectDBX Classes
 90
        0
 91
        1
280
     0
281
     0
  0
CLASS
  1
MATERIAL
  2
AcDbMaterial
  3
ObjectDBX Classes
 90
     1153
 91
        3
280
     0
281
     0
  0
CLASS
  1
VISUALSTYLE
  2
AcDbVisualStyle
  3
ObjectDBX Classes
 90
     4095
 91
        3
280
     0
281
     0
  0
CLASS
  1
TABLESTYLE
  2
AcDbTableStyle
  3
ObjectDBX Classes
 90
     4095
 91
        1
280
     0
281
     0
  0
CLASS
  1
SCALE
  2
AcDbScale
  3
ObjectDBX Classes
 90
     1153
 91
       33
280
     0
281
     0
  0
CLASS
  1
MLEADERSTYLE
  2
AcDbMLeaderStyle
  3
ACDB_MLEADERSTYLE_CLASS
 90
     4095
 91
        0
280
     0
281
     0
  0
CLASS
  1
SORTENTSTABLE
  2
AcDbSortentsTable
  3
ObjectDBX Classes
 90
        0
 91
        8
280
     0
281
     0
  0
CLASS
  1
CELLSTYLEMAP
  2
AcDbCellStyleMap
  3
ObjectDBX Classes
 90
     1152
 91
        1
280
     0
281
     0
  0
CLASS
  1
DICTIONARYVAR
  2
AcDbDictionaryVar
  3
ObjectDBX Classes
 90
        0
 91
        6
280
     0
281
     0
  0
CLASS
  1
DIMASSOC
  2
AcDbDimAssoc
  3
"AcDbDimAssoc|Product Desc:     AcDim ARX App For Dimension|Company:          Autodesk, Inc.|WEB Address:      www.autodesk.com"
 90
        0
 91
        0
280
     0
281
     0
  0
CLASS
  1
ACAD_TABLE
  2
AcDbTable
  3
ObjectDBX Classes
 90
     1025
 91
        0
280
     0
281
     1
  0
CLASS
  1
TABLECONTENT
  2
AcDbTableContent
  3
ObjectDBX Classes
 90
     1152
 91
        0
280
     0
281
     0
  0
CLASS
  1
TABLEGEOMETRY
  2
AcDbTableGeometry
  3
ObjectDBX Classes
 90
     1152
 91
        0
280
     0
281
     0
  0
CLASS
  1
PLOTSETTINGS
  2
AcDbPlotSettings
  3
ObjectDBX Classes
 90
        0
 91
        0
280
     0
281
     0
  0
CLASS
  1
SOLID_BACKGROUND
  2
AcDbSolidBackground
  3
SCENEOE
 90
     4095
 91
        0
280
     0
281
     0
  0
CLASS
  1
NPOCOLLECTION
  2
AcDbImpNonPersistentObjectsCollection
  3
ObjectDBX Classes
 90
     1153
 91
        0
280
     0
281
     0
  0
CLASS
  1
ACDBASSOCNETWORK
  2
AcDbAssocNetwork
  3
ObjectDBX Classes
 90
     1025
 91
        0
280
     0
281
     0
  0
CLASS
  1
ACDBASSOC2DCONSTRAINTGROUP
  2
AcDbAssoc2dConstraintGroup
  3
ObjectDBX Classes
 90
     1025
 91
        0
280
     0
281
     0
  0
CLASS
  1
ACDBASSOCGEOMDEPENDENCY
  2
AcDbAssocGeomDependency
  3
ObjectDBX Classes
 90
     1025
 91
        0
280
     0
281
     0
  0
CLASS
  1
ACDB_DYNAMICBLOCKPURGEPREVENTER_VERSION
  2
AcDbDynamicBlockPurgePreventer
  3
ObjectDBX Classes
 90
     1153
 91
        0
280
     0
281
     0
  0
CLASS
  1
AEC_REFEDIT_STATUS_TRACKER
  2
AecDbRefEditStatusTracker
  3
AecArchBase60|Product Desc: Autodesk Architectural Desktop 2007 |Company: Autodesk,Inc. |WEB Address: www.autodesk.com
 90
      129
 91
        0
280
     0
281
     0
  0
ENDSEC
  0
SECTION
  2
TABLES
  0
TABLE
  2
VPORT
  5
2D
102
{ACAD_XDICTIONARY
360
31
102
}
330
0
100
AcDbSymbolTable
 70
     1
  0
VPORT
  5
2E
330
2D
100
AcDbSymbolTableRecord
100
AcDbViewportTableRecord
  2
*Active
 70
     0
 10
0.0
 20
0.0
 11
1.0
 21
1.0
 12
978.7989944204515
 22
244.1119266405605
 13
0.0
 23
0.0
 14
10.0
 24
10.0
 15
100.0
 25
100.0
 16
0.0
 26
0.0
 36
1.0
 17
0.0
 27
0.0
 37
0.0
 40
810.0908374862431
 41
2.203703703703703
 42
50.0
 43
0.0
 44
0.0
 50
0.0
 51
0.0
 71
     0
 72
  1000
 73
     1
 74
     0
 75
     0
 76
     0
 77
     0
 78
     0
281
     0
 65
     1
110
0.0
120
0.0
130
0.0
111
1.0
121
0.0
131
0.0
112
0.0
122
1.0
132
0.0
 79
     0
146
0.0
348
2F
 60
     3
 61
     5
292
     1
282
     1
141
0.0
142
0.0
 63
   250
421
  3355443
  0
ENDTAB
  0
TABLE
  2
LTYPE
  5
28
330
0
100
AcDbSymbolTable
 70
     4
  0
LTYPE
  5
29
330
28
100
AcDbSymbolTableRecord
100
AcDbLinetypeTableRecord
  2
ByBlock
 70
     0
  3

 72
    65
 73
     0
 40
0.0
  0
LTYPE
  5
2A
330
28
100
AcDbSymbolTableRecord
100
AcDbLinetypeTableRecord
  2
ByLayer
 70
     0
  3

 72
    65
 73
     0
 40
0.0
  0
LTYPE
  5
15
330
28
100
AcDbSymbolTableRecord
100
AcDbLinetypeTableRecord
  2
Continuous
 70
     0
  3
Solid line
 72
    65
 73
     0
 40
0.0
  0
LTYPE
  5
82
330
28
100
AcDbSymbolTableRecord
100
AcDbLinetypeTableRecord
  2
VERDECKT
 70
     0
  3
Verdeckt __ __ __ __ __ __ __ __ __ __ __ __ __
 72
    65
 73
     2
 40
0.375
 49
0.25
 74
     0
 49
-0.125
 74
     0
  0
LTYPE
  5
AD
330
28
100
AcDbSymbolTableRecord
100
AcDbLinetypeTableRecord
  2
STRICHPUNKT
 70
     0
  3
Strichpunkt __ . __ . __ . __ . __ . __ . __ . 
 72
    65
 73
     4
 40
1.0
 49
0.5
 74
     0
 49
-0.25
 74
     0
 49
0.0
 74
     0
 49
-0.25
 74
     0
  0
LTYPE
  5
222
330
28
100
AcDbSymbolTableRecord
100
AcDbLinetypeTableRecord
  2
AUSGEZOGEN
 70
     0
  3
Ausgezogene Linie
 72
    65
 73
     0
 40
0.0
  0
ENDTAB
  0
TABLE
  2
LAYER
  5
1F
102
{ACAD_XDICTIONARY
360
20
102
}
330
0
100
AcDbSymbolTable
 70
    11
  0
LAYER
  5
6
102
{ACAD_XDICTIONARY
360
7
102
}
330
1F
100
AcDbSymbolTableRecord
100
AcDbLayerTableRecord
  2
0
 70
     0
 62
     7
  6
Continuous
370
    -3
390
9
347
C
  0
LAYER
  5
7A
102
{ACAD_XDICTIONARY
360
7B
102
}
330
1F
100
AcDbSymbolTableRecord
100
AcDbLayerTableRecord
  2
01-01
 70
     0
 62
     2
  6
Continuous
370
    -3
390
9
347
C
  0
LAYER
  5
50
102
{ACAD_XDICTIONARY
360
51
102
}
330
1F
100
AcDbSymbolTableRecord
100
AcDbLayerTableRecord
  2
09-01
 70
     0
 62
     7
  6
Continuous
370
    -3
390
9
347
C
  0
LAYER
  5
188
330
1F
100
AcDbSymbolTableRecord
100
AcDbLayerTableRecord
  2
Defpoints
 70
     0
 62
     7
  6
Continuous
290
     0
370
    -3
390
9
347
C
  0
LAYER
  5
7F
102
{ACAD_XDICTIONARY
360
80
102
}
330
1F
100
AcDbSymbolTableRecord
100
AcDbLayerTableRecord
  2
03-01
 70
     0
 62
     3
  6
VERDECKT
370
    -3
390
9
347
C
  0
LAYER
  5
AA
102
{ACAD_XDICTIONARY
360
AB
102
}
330
1F
100
AcDbSymbolTableRecord
100
AcDbLayerTableRecord
  2
05-01
 70
     0
 62
     1
  6
STRICHPUNKT
370
    -3
390
9
347
C
  0
LAYER
  5
219
102
{ACAD_XDICTIONARY
360
21A
102
}
330
1F
100
AcDbSymbolTableRecord
100
AcDbLayerTableRecord
  2
01-99
 70
     0
 62
     2
  6
Continuous
370
    -3
390
9
347
C
  0
LAYER
  5
257
102
{ACAD_XDICTIONARY
360
258
102
}
330
1F
100
AcDbSymbolTableRecord
100
AcDbLayerTableRecord
  2
06-99
 70
     0
 62
     1
  6
AUSGEZOGEN
370
    -3
390
9
347
C
  0
LAYER
  5
21F
102
{ACAD_XDICTIONARY
360
220
102
}
330
1F
100
AcDbSymbolTableRecord
100
AcDbLayerTableRecord
  2
02-99
 70
     0
 62
     1
  6
AUSGEZOGEN
370
    -3
390
9
347
C
  0
LAYER
  5
241
102
{ACAD_XDICTIONARY
360
242
102
}
330
1F
100
AcDbSymbolTableRecord
100
AcDbLayerTableRecord
  2
08-99
 70
     0
 62
     7
  6
Continuous
370
    -3
390
9
347
C
  0
LAYER
  5
327
102
{ACAD_XDICTIONARY
360
328
102
}
330
1F
100
AcDbSymbolTableRecord
100
AcDbLayerTableRecord
  2
EBENE_1
 70
     0
 62
     7
  6
Continuous
370
    -3
390
9
347
C
  0
ENDTAB
  0
TABLE
  2
STYLE
  5
25
330
0
100
AcDbSymbolTable
 70
     3
  0
STYLE
  5
26
330
25
100
AcDbSymbolTableRecord
100
AcDbTextStyleTableRecord
  2
Standard
 70
     0
 40
0.0
 41
1.0
 50
0.0
 71
     0
 42
5.0
  3
txt
  4

  0
STYLE
  5
244
330
25
100
AcDbSymbolTableRecord
100
AcDbTextStyleTableRecord
  2
ROMANS8
 70
     0
 40
0.0
 41
1.0
 50
0.0
 71
     0
 42
2.5
  3
ROMANS8
  4

  0
STYLE
  5
26A
330
25
100
AcDbSymbolTableRecord
100
AcDbTextStyleTableRecord
  2
ROMAND8
 70
     0
 40
0.0
 41
1.0
 50
0.0
 71
     0
 42
3.5
  3
ROMAND8
  4

  0
ENDTAB
  0
TABLE
  2
VIEW
  5
2B
330
0
100
AcDbSymbolTable
 70
     0
  0
ENDTAB
  0
TABLE
  2
UCS
  5
2C
330
0
100
AcDbSymbolTable
 70
     0
  0
ENDTAB
  0
TABLE
  2
APPID
  5
32
330
0
100
AcDbSymbolTable
 70
     4
  0
APPID
  5
24
330
32
100
AcDbSymbolTableRecord
100
AcDbRegAppTableRecord
  2
ACAD
 70
     0
  0
APPID
  5
35
330
32
100
AcDbSymbolTableRecord
100
AcDbRegAppTableRecord
  2
ACAD_DSTYLE_DIMJOGGED_JOGANGLE_SYMBOL
 70
     0
  0
APPID
  5
36
330
32
100
AcDbSymbolTableRecord
100
AcDbRegAppTableRecord
  2
ACAD_DSTYLE_DIMJAG
 70
     0
  0
APPID
  5
37
330
32
100
AcDbSymbolTableRecord
100
AcDbRegAppTableRecord
  2
ACAD_DSTYLE_DIMTALN
 70
     0
  0
ENDTAB
  0
TABLE
  2
DIMSTYLE
  5
33
330
0
100
AcDbSymbolTable
 70
     2
100
AcDbDimStyleTable
 71
     1
340
34
  0
DIMSTYLE
105
34
330
33
100
AcDbSymbolTableRecord
100
AcDbDimStyleTableRecord
  2
Wagner
 70
     0
 41
2.5
 42
1.0
 43
10.0
 44
1.0
 73
     0
 74
     0
 77
     1
 78
     8
 79
     2
140
2.5
141
0.0
143
0.03937007874016
147
1.0
171
     3
172
     1
176
     4
177
     4
178
     1
179
     1
271
     8
272
     8
274
     3
283
     0
284
     8
340
26
1001
ACAD_DSTYLE_DIMJOGGED_JOGANGLE_SYMBOL
1070
   384
1040
0.7853981633974483
1001
ACAD_DSTYLE_DIMJAG
1070
   388
1040
1.5
1001
ACAD_DSTYLE_DIMTALN
1070
   392
1070
     0
  0
DIMSTYLE
105
18C
102
{ACAD_REACTORS
330
29A
330
206
330
1F9
330
1EC
330
1DF
330
1D2
330
1C5
330
1B8
330
1AB
330
19C
330
18D
330
17C
330
2EE
330
2E1
330
2D4
330
2C7
102
}
330
33
100
AcDbSymbolTableRecord
100
AcDbDimStyleTableRecord
  2
Wagner$0
 70
     0
 41
2.5
 42
1.0
 43
10.0
 44
1.0
 73
     0
 74
     0
 77
     1
 78
     8
 79
     2
140
2.5
141
0.0
143
0.03937007874016
147
1.0
171
     3
172
     1
174
     1
176
     4
177
     4
178
     1
179
     1
271
     8
272
     8
274
     3
279
     2
283
     0
284
     8
340
26
1001
ACAD_DSTYLE_DIMJOGGED_JOGANGLE_SYMBOL
1070
   384
1040
0.7853981633974483
1001
ACAD_DSTYLE_DIMJAG
1070
   388
1040
1.5
1001
ACAD_DSTYLE_DIMTALN
1070
   392
1070
     0
  0
ENDTAB
  0
TABLE
  2
BLOCK_RECORD
  5
1
330
0
100
AcDbSymbolTable
 70
    21
  0
BLOCK_RECORD
  5
2
102
{ACAD_XDICTIONARY
360
3
102
}
330
1
100
AcDbSymbolTableRecord
100
AcDbBlockTableRecord
  2
*Model_Space
340
17
 70
     0
280
     1
281
     0
  0
BLOCK_RECORD
  5
1B
330
1
100
AcDbSymbolTableRecord
100
AcDbBlockTableRecord
  2
*Paper_Space
340
1E
 70
     0
280
     1
281
     0
  0
BLOCK_RECORD
  5
214
102
{ACAD_XDICTIONARY
360
215
102
}
330
1
100
AcDbSymbolTableRecord
100
AcDbBlockTableRecord
  2
DIN A4
340
0
102
{BLKREFS
331
213
102
}
 70
     4
280
     1
281
     0
  0
BLOCK_RECORD
  5
2AA
330
1
100
AcDbSymbolTableRecord
100
AcDbBlockTableRecord
  2
Mantel01-s
340
0
310
2800000020000000200000000100080000000000000400000000000000000000000000000000000000000000000080000080000000808000800000008000800080800000C0C0C000C0DCC000F0CAA6000020400000206000002080000020A0000020C0000020E00000400000004020000040400000406000004080000040A0
310
000040C0000040E00000600000006020000060400000606000006080000060A0000060C0000060E00000800000008020000080400000806000008080000080A0000080C0000080E00000A0000000A0200000A0400000A0600000A0800000A0A00000A0C00000A0E00000C0000000C0200000C0400000C0600000C0800000C0
310
A00000C0C00000C0E00000E0000000E0200000E0400000E0600000E0800000E0A00000E0C00000E0E00040000000400020004000400040006000400080004000A0004000C0004000E00040200000402020004020400040206000402080004020A0004020C0004020E000404000004040200040404000404060004040800040
310
40A0004040C0004040E00040600000406020004060400040606000406080004060A0004060C0004060E00040800000408020004080400040806000408080004080A0004080C0004080E00040A0000040A0200040A0400040A0600040A0800040A0A00040A0C00040A0E00040C0000040C0200040C0400040C0600040C08000
310
40C0A00040C0C00040C0E00040E0000040E0200040E0400040E0600040E0800040E0A00040E0C00040E0E00080000000800020008000400080006000800080008000A0008000C0008000E00080200000802020008020400080206000802080008020A0008020C0008020E00080400000804020008040400080406000804080
310
008040A0008040C0008040E00080600000806020008060400080606000806080008060A0008060C0008060E00080800000808020008080400080806000808080008080A0008080C0008080E00080A0000080A0200080A0400080A0600080A0800080A0A00080A0C00080A0E00080C0000080C0200080C0400080C0600080C0
310
800080C0A00080C0C00080C0E00080E0000080E0200080E0400080E0600080E0800080E0A00080E0C00080E0E000C0000000C0002000C0004000C0006000C0008000C000A000C000C000C000E000C0200000C0202000C0204000C0206000C0208000C020A000C020C000C020E000C0400000C0402000C0404000C0406000C0
310
408000C040A000C040C000C040E000C0600000C0602000C0604000C0606000C0608000C060A000C060C000C060E000C0800000C0802000C0804000C0806000C0808000C080A000C080C000C080E000C0A00000C0A02000C0A04000C0A06000C0A08000C0A0A000C0A0C000C0A0E000C0C00000C0C02000C0C04000C0C06000
310
C0C08000C0C0A000F0FBFF00A4A0A000808080000000FF0000FF000000FFFF00FF000000FF00FF00FFFF0000FFFFFF000000000000000000000000000000000000000000000000000000000000000000000000000000000000000000000000000000FFFFFF000000000000000000000000000000000000000000000000FFFF
310
FFFFFF0000F9F90000000000000000000000000000000000000000FFFFFF0000000000000000FF0000000000000000000000000000000000000000FA00000000000000000000FF0000000000000000000000000000000000000000FA00000000000000000000FF0000000000000000000000000000000000000000FA000000
310
00000000000000FF0000000000000000000000000000000000000000FA00000000000000000000FF0000000000000000000000000000000000000000FA00000000000000000000FF0000000000000000000000000000000000000000FA00000000000000000000FF0000000000000000000000000000000000000000FA0000
310
0000000000000000FF0000000000000000000000000000000000000000FA00000000000000000000FF0000000000000000000000000000000000000000FA00000000000000000000FF0000000000000000000000000000000000000000FA00000000000000000000FF0000000000000000000000000000000000000000FA00
310
000000000000000000FF0000000000000000000000000000000000000000FA00000000000000000000FF0000000000000000000000000000000000000000FA00000000000000000000FF0000000000000000000000000000000000000000FA00000000000000000000FF0000000000000000000000000000000000000000FA
310
00000000000000000000FF0000000000000000000000000000000000000000FA00000000000000000000FF0000000000000000000000000000000000000000FA00000000000000000000FF0000000000000000000000000000000000000000FA00000000000000000000FF0000000000000000000000000000000000000000
310
FA00000000000000000000FF0000000000000000000000000000000000000000FA00000000000000000000FF0000000000000000000000000000000000000000FA00000000000000000000FF0000000000000000000000000000000000000000FA00000000000000000000FF00000000000000000000000000000000000000
310
00FA00000000000000000000FF0000000000000000000000000000000000000000FA00000000000000000000FF0000000000000000000000000000000000000000FA00000000000000000000FF0000000000000000000000000000000000000000FA00000000000000000000FF000000000000000000000000000000000000
310
0000FAFFFFFFFFFFFFFFFFFFFFFF000000000000000000000000000000000000000000000000000000000000000000000000000000000000
102
{BLKREFS
331
2A9
102
}
 70
     4
280
     1
281
     0
  0
BLOCK_RECORD
  5
162
330
1
100
AcDbSymbolTableRecord
100
AcDbBlockTableRecord
  2
Zughebel01_s
340
0
310
2800000020000000200000000100080000000000000400000000000000000000000000000000000000000000000080000080000000808000800000008000800080800000C0C0C000C0DCC000F0CAA6000020400000206000002080000020A0000020C0000020E00000400000004020000040400000406000004080000040A0
310
000040C0000040E00000600000006020000060400000606000006080000060A0000060C0000060E00000800000008020000080400000806000008080000080A0000080C0000080E00000A0000000A0200000A0400000A0600000A0800000A0A00000A0C00000A0E00000C0000000C0200000C0400000C0600000C0800000C0
310
A00000C0C00000C0E00000E0000000E0200000E0400000E0600000E0800000E0A00000E0C00000E0E00040000000400020004000400040006000400080004000A0004000C0004000E00040200000402020004020400040206000402080004020A0004020C0004020E000404000004040200040404000404060004040800040
310
40A0004040C0004040E00040600000406020004060400040606000406080004060A0004060C0004060E00040800000408020004080400040806000408080004080A0004080C0004080E00040A0000040A0200040A0400040A0600040A0800040A0A00040A0C00040A0E00040C0000040C0200040C0400040C0600040C08000
310
40C0A00040C0C00040C0E00040E0000040E0200040E0400040E0600040E0800040E0A00040E0C00040E0E00080000000800020008000400080006000800080008000A0008000C0008000E00080200000802020008020400080206000802080008020A0008020C0008020E00080400000804020008040400080406000804080
310
008040A0008040C0008040E00080600000806020008060400080606000806080008060A0008060C0008060E00080800000808020008080400080806000808080008080A0008080C0008080E00080A0000080A0200080A0400080A0600080A0800080A0A00080A0C00080A0E00080C0000080C0200080C0400080C0600080C0
310
800080C0A00080C0C00080C0E00080E0000080E0200080E0400080E0600080E0800080E0A00080E0C00080E0E000C0000000C0002000C0004000C0006000C0008000C000A000C000C000C000E000C0200000C0202000C0204000C0206000C0208000C020A000C020C000C020E000C0400000C0402000C0404000C0406000C0
310
408000C040A000C040C000C040E000C0600000C0602000C0604000C0606000C0608000C060A000C060C000C060E000C0800000C0802000C0804000C0806000C0808000C080A000C080C000C080E000C0A00000C0A02000C0A04000C0A06000C0A08000C0A0A000C0A0C000C0A0E000C0C00000C0C02000C0C04000C0C06000
310
C0C08000C0C0A000F0FBFF00A4A0A000808080000000FF0000FF000000FFFF00FF000000FF00FF00FFFF0000FFFFFF0049494949494949494949494949494949494949494949494949494949494949494949494949494949494949494949494949FFFF49494949494949494949494949494949494949494949494949494949
310
49FFFFFF4949494949494949494949494949494949494949494949494949494949FF49FF4949494949494949494949494949494949494949494949494949494949FFFF49FF4949494949494949494949494949494949494949494949494949494949FF49FF4949494949494949494949494949494949494949494949494949
310
494949FF4949FF49494949494949494949494949494949494949494949494949494949FFFF49FF49494949494949494949494949494949494949494949494949494949FFFF49FF49494949494949494949494949494949494949494949494949494949FF4949FF494949494949494949494949494949494949494949494949
310
494949FFFF49FF494949494949494949494949494949494949494949494949494949FFFF49FF494949494949494949494949494949494949494949494949494949FF4949FF494949494949494949494949494949494949494949494949494949FF4949FF4949494949494949494949494949494949494949494949494949FF
310
FF4949FF494949494949494949494949494949494949494949494949494949FF494949FF494949494949494949494949494949494949494949494949494949FA494949FA494949494949494949494949494949494949494949494949494949FA494949FA494949494949494949494949494949494949494949494949494949
310
FA49FAFAFA494949494949494949494949494949494949494949494949494949FA49FAFAFA494949494949494949494949494949494949494949494949494949FA49FAFAFA494949494949494949494949494949494949494949494949494949FA494949FA4949494949494949494949494949494949494949494949494949
310
4949FA4949FA49494949494949494949494949494949494949494949494949494949FA4949FA49494949494949494949494949494949494949494949494949494949FA4949FA49494949494949494949494949494949494949494949494949494949FA4949FA49494949494949494949494949494949494949494949494949
310
494949FA4949FA49494949494949494949494949494949494949494949494949494949FA4949FA49494949494949494949494949494949494949494949494949494949FAFAFAFA49494949494949494949494949494949494949494949494949494949FAFAFAFA494949494949494949494949494949494949494949494949
310
4949494949FAFA49494949494949494949494949494949494949494949494949494949494949494949494949494949494949494949494949
102
{BLKREFS
331
161
102
}
 70
     4
280
     1
281
     0
  0
BLOCK_RECORD
  5
BC
102
{ACAD_XDICTIONARY
360
BD
102
}
330
1
100
AcDbSymbolTableRecord
100
AcDbBlockTableRecord
  2
Desipumpe_937040_V
340
0
310
2800000020000000200000000100080000000000000400000000000000000000000000000000000000000000000080000080000000808000800000008000800080800000C0C0C000C0DCC000F0CAA6000020400000206000002080000020A0000020C0000020E00000400000004020000040400000406000004080000040A0
310
000040C0000040E00000600000006020000060400000606000006080000060A0000060C0000060E00000800000008020000080400000806000008080000080A0000080C0000080E00000A0000000A0200000A0400000A0600000A0800000A0A00000A0C00000A0E00000C0000000C0200000C0400000C0600000C0800000C0
310
A00000C0C00000C0E00000E0000000E0200000E0400000E0600000E0800000E0A00000E0C00000E0E00040000000400020004000400040006000400080004000A0004000C0004000E00040200000402020004020400040206000402080004020A0004020C0004020E000404000004040200040404000404060004040800040
310
40A0004040C0004040E00040600000406020004060400040606000406080004060A0004060C0004060E00040800000408020004080400040806000408080004080A0004080C0004080E00040A0000040A0200040A0400040A0600040A0800040A0A00040A0C00040A0E00040C0000040C0200040C0400040C0600040C08000
310
40C0A00040C0C00040C0E00040E0000040E0200040E0400040E0600040E0800040E0A00040E0C00040E0E00080000000800020008000400080006000800080008000A0008000C0008000E00080200000802020008020400080206000802080008020A0008020C0008020E00080400000804020008040400080406000804080
310
008040A0008040C0008040E00080600000806020008060400080606000806080008060A0008060C0008060E00080800000808020008080400080806000808080008080A0008080C0008080E00080A0000080A0200080A0400080A0600080A0800080A0A00080A0C00080A0E00080C0000080C0200080C0400080C0600080C0
310
800080C0A00080C0C00080C0E00080E0000080E0200080E0400080E0600080E0800080E0A00080E0C00080E0E000C0000000C0002000C0004000C0006000C0008000C000A000C000C000C000E000C0200000C0202000C0204000C0206000C0208000C020A000C020C000C020E000C0400000C0402000C0404000C0406000C0
310
408000C040A000C040C000C040E000C0600000C0602000C0604000C0606000C0608000C060A000C060C000C060E000C0800000C0802000C0804000C0806000C0808000C080A000C080C000C080E000C0A00000C0A02000C0A04000C0A06000C0A08000C0A0A000C0A0C000C0A0E000C0C00000C0C02000C0C04000C0C06000
310
C0C08000C0C0A000F0FBFF00A4A0A000808080000000FF0000FF000000FFFF00FF000000FF00FF00FFFF0000FFFFFF0049494949494949494949494949494949494949494949494949494949494949494949494949494949494949494949FFFFFFFF49494949494949494949494949494949494949494949494949494949FF
310
4949FF49494949494949494949494949494949494949494949494949494949FF4949FF49494949494949494949494949494949494949494949494949494949FF4949FF49494949494949494949494949494949494949494949494949494949FFFAFAFF4949494949494949494949494949494949494949494949494949FFFA
310
FFFAFAFFFAFF494949494949494949494949494949494949494949494949FFFA49494949FAFF494949494949494949494949494949494949494949494949FFFAFAFAFAFAFAFF494949494949494949494949494949494949494949494949FFFA49494949FAFF494949494949494949494949494949494949494949494949FA
310
FA49494949FAFA494949494949494949494949494949494949494949494949FAFAFAFAFAFAFAFA494949494949494949494949494949494949494949494949FFFA49494949FAFF494949494949494949494949494949494949494949494949FFFA49494949FAFF494949494949494949494949494949494949494949494949
310
FFFA49494949FAFF494949494949494949494949494949494949494949494949FAFAFAFAFAFAFAFA494949494949494949494949494949494949494949494949FFFA4949494949FA494949494949494949494949494949494949494949494949FAFAFAFAFAFAFAFA4949494949494949494949494949494949494949494949
310
49FA494949494949FA494949494949494949494949494949494949494949494949FA494949494949FA494949494949494949494949494949494949494949494949FA494949494949FA494949494949494949494949494949494949494949494949FA494949494949FA49494949494949494949494949494949494949494949
310
4949FA494949494949FA494949494949494949494949494949494949494949494949FA494949494949FA494949494949494949494949494949494949494949494949FA494949494949FA494949494949494949494949494949494949494949494949FA494949494949FA494949494949494949494949494949494949494949
310
494949FA494949494949FA494949494949494949494949494949494949494949494949FA494949494949FA494949494949494949494949494949494949494949494949FA494949494949FA494949494949494949494949494949494949494949494949FFFFFFFFFFFFFFFF4949494949494949494949494949494949494949
310
4949494949FFFFFFFFFFFF494949494949494949494949494949494949494949494949494949494949494949494949494949494949494949
102
{BLKREFS
331
BB
102
}
 70
     4
280
     1
281
     0
  0
BLOCK_RECORD
  5
107
102
{ACAD_XDICTIONARY
360
108
102
}
330
1
100
AcDbSymbolTableRecord
100
AcDbBlockTableRecord
  2
Desipumpe_937040_S
340
0
310
2800000020000000200000000100080000000000000400000000000000000000000000000000000000000000000080000080000000808000800000008000800080800000C0C0C000C0DCC000F0CAA6000020400000206000002080000020A0000020C0000020E00000400000004020000040400000406000004080000040A0
310
000040C0000040E00000600000006020000060400000606000006080000060A0000060C0000060E00000800000008020000080400000806000008080000080A0000080C0000080E00000A0000000A0200000A0400000A0600000A0800000A0A00000A0C00000A0E00000C0000000C0200000C0400000C0600000C0800000C0
310
A00000C0C00000C0E00000E0000000E0200000E0400000E0600000E0800000E0A00000E0C00000E0E00040000000400020004000400040006000400080004000A0004000C0004000E00040200000402020004020400040206000402080004020A0004020C0004020E000404000004040200040404000404060004040800040
310
40A0004040C0004040E00040600000406020004060400040606000406080004060A0004060C0004060E00040800000408020004080400040806000408080004080A0004080C0004080E00040A0000040A0200040A0400040A0600040A0800040A0A00040A0C00040A0E00040C0000040C0200040C0400040C0600040C08000
310
40C0A00040C0C00040C0E00040E0000040E0200040E0400040E0600040E0800040E0A00040E0C00040E0E00080000000800020008000400080006000800080008000A0008000C0008000E00080200000802020008020400080206000802080008020A0008020C0008020E00080400000804020008040400080406000804080
310
008040A0008040C0008040E00080600000806020008060400080606000806080008060A0008060C0008060E00080800000808020008080400080806000808080008080A0008080C0008080E00080A0000080A0200080A0400080A0600080A0800080A0A00080A0C00080A0E00080C0000080C0200080C0400080C0600080C0
310
800080C0A00080C0C00080C0E00080E0000080E0200080E0400080E0600080E0800080E0A00080E0C00080E0E000C0000000C0002000C0004000C0006000C0008000C000A000C000C000C000E000C0200000C0202000C0204000C0206000C0208000C020A000C020C000C020E000C0400000C0402000C0404000C0406000C0
310
408000C040A000C040C000C040E000C0600000C0602000C0604000C0606000C0608000C060A000C060C000C060E000C0800000C0802000C0804000C0806000C0808000C080A000C080C000C080E000C0A00000C0A02000C0A04000C0A06000C0A08000C0A0A000C0A0C000C0A0E000C0C00000C0C02000C0C04000C0C06000
310
C0C08000C0C0A000F0FBFF00A4A0A000808080000000FF0000FF000000FFFF00FF000000FF00FF00FFFF0000FFFFFF004949494949494949494949494949494949494949494949494949494949494949494949494949494949494949494949FF49494949494949494949494949494949494949494949494949494949494949
310
FF49494949494949494949494949494949494949494949494949494949494949FFFF494949494949494949494949494949494949494949494949494949494949FFFF49494949494949494949494949494949494949494949494949494949FFFF494949FFFAFF494949494949494949494949494949494949494949494949FF
310
FFFFFFFFFFFAFA494949494949494949494949494949494949494949494949FAFA4949494949FA494949494949494949494949494949494949494949494949FAFAFAFAFAFAFAFA494949494949494949494949494949494949494949494949FAFAFA49494949FA494949494949494949494949494949494949494949494949
310
FAFAFA49494949FA494949494949494949494949494949494949494949494949FFFA4949494949FA49494949494949494949494949494949494949494949494949FA4949494949FA49494949494949494949494949494949494949494949494949FA4949494949FA4949494949494949494949494949494949494949494949
310
4949FA4949494949FA49494949494949494949494949494949494949494949494949FAFFFFFFFFFFFAFF494949494949494949494949494949494949494949FFFAFA494949494949FA49494949494949494949494949494949494949494949FAFFFFFFFFFFFFFFFFFAFF494949494949494949494949494949494949494949
310
FA4949494949494949FAFF494949494949494949494949494949494949494949FA4949494949494949FAFF494949494949494949494949494949494949494949FA4949494949494949FAFF494949494949494949494949494949494949494949FA4949494949494949FAFF4949494949494949494949494949494949494949
310
49FA4949494949494949FAFF494949494949494949494949494949494949494949FA4949494949494949FAFF494949494949494949494949494949494949494949FA4949494949494949FAFF494949494949494949494949494949494949494949FA4949494949494949FAFF49494949494949494949494949494949494949
310
4949FA4949494949494949FAFF494949494949494949494949494949494949494949FA4949494949494949FAFF4949494949494949494949494949494949494949FFFAFA49494949494949FAFF4949494949494949494949494949494949494949FFFFFFFFFAFAFAFAFAFAFFFF494949494949494949494949494949494949
310
4949494949FFFFFFFFFFFFFFFF49494949494949494949494949494949494949494949494949494949494949494949494949494949494949
102
{BLKREFS
331
106
102
}
 70
     4
280
     1
281
     0
  0
BLOCK_RECORD
  5
29B
330
1
100
AcDbSymbolTableRecord
100
AcDbBlockTableRecord
  2
*D5
340
0
 70
     0
280
     1
281
     0
  0
BLOCK_RECORD
  5
207
330
1
100
AcDbSymbolTableRecord
100
AcDbBlockTableRecord
  2
*D6
340
0
 70
     0
280
     1
281
     0
  0
BLOCK_RECORD
  5
1FA
330
1
100
AcDbSymbolTableRecord
100
AcDbBlockTableRecord
  2
*D7
340
0
 70
     0
280
     1
281
     0
  0
BLOCK_RECORD
  5
1ED
330
1
100
AcDbSymbolTableRecord
100
AcDbBlockTableRecord
  2
*D8
340
0
 70
     0
280
     1
281
     0
  0
BLOCK_RECORD
  5
1E0
330
1
100
AcDbSymbolTableRecord
100
AcDbBlockTableRecord
  2
*D9
340
0
 70
     0
280
     1
281
     0
  0
BLOCK_RECORD
  5
1D3
330
1
100
AcDbSymbolTableRecord
100
AcDbBlockTableRecord
  2
*D10
340
0
 70
     0
280
     1
281
     0
  0
BLOCK_RECORD
  5
1C6
330
1
100
AcDbSymbolTableRecord
100
AcDbBlockTableRecord
  2
*D11
340
0
 70
     0
280
     1
281
     0
  0
BLOCK_RECORD
  5
1B9
330
1
100
AcDbSymbolTableRecord
100
AcDbBlockTableRecord
  2
*D12
340
0
 70
     0
280
     1
281
     0
  0
BLOCK_RECORD
  5
1AC
330
1
100
AcDbSymbolTableRecord
100
AcDbBlockTableRecord
  2
*D13
340
0
 70
     0
280
     1
281
     0
  0
BLOCK_RECORD
  5
19D
330
1
100
AcDbSymbolTableRecord
100
AcDbBlockTableRecord
  2
*D14
340
0
 70
     0
280
     1
281
     0
  0
BLOCK_RECORD
  5
18E
330
1
100
AcDbSymbolTableRecord
100
AcDbBlockTableRecord
  2
*D15
340
0
 70
     0
280
     1
281
     0
  0
BLOCK_RECORD
  5
17D
330
1
100
AcDbSymbolTableRecord
100
AcDbBlockTableRecord
  2
*D16
340
0
 70
     0
280
     1
281
     0
  0
BLOCK_RECORD
  5
2EF
330
1
100
AcDbSymbolTableRecord
100
AcDbBlockTableRecord
  2
*D17
340
0
 70
     0
280
     1
281
     0
  0
BLOCK_RECORD
  5
2E2
330
1
100
AcDbSymbolTableRecord
100
AcDbBlockTableRecord
  2
*D18
340
0
 70
     0
280
     1
281
     0
  0
BLOCK_RECORD
  5
2D5
330
1
100
AcDbSymbolTableRecord
100
AcDbBlockTableRecord
  2
*D19
340
0
 70
     0
280
     1
281
     0
  0
BLOCK_RECORD
  5
2C8
330
1
100
AcDbSymbolTableRecord
100
AcDbBlockTableRecord
  2
*D20
340
0
 70
     0
280
     1
281
     0
  0
ENDTAB
  0
ENDSEC
  0
SECTION
  2
BLOCKS
  0
BLOCK
  5
5
330
2
100
AcDbEntity
  8
0
100
AcDbBlockBegin
  2
*Model_Space
 70
     0
 10
0.0
 20
0.0
 30
0.0
  3
*Model_Space
  1

  0
ENDBLK
  5
16
330
2
100
AcDbEntity
  8
0
100
AcDbBlockEnd
  0
BLOCK
  5
1C
330
1B
100
AcDbEntity
 67
     1
  8
0
100
AcDbBlockBegin
  2
*Paper_Space
 70
     0
 10
0.0
 20
0.0
 30
0.0
  3
*Paper_Space
  1

  0
ENDBLK
  5
1D
330
1B
100
AcDbEntity
 67
     1
  8
0
100
AcDbBlockEnd
  0
BLOCK
  5
217
330
214
100
AcDbEntity
  8
0
100
AcDbBlockBegin
  2
DIN A4
 70
     2
 10
0.0
 20
0.0
 30
0.0
  3
DIN A4
  1

  0
LINE
  5
218
330
214
100
AcDbEntity
  8
01-99
100
AcDbLine
 10
204.0000075739527
 20
290.9999979434973
 30
0.0
 11
20.0000075739529
 21
290.9999979434973
 31
0.0
  0
LINE
  5
21C
330
214
100
AcDbEntity
  8
01-99
100
AcDbLine
 10
204.0000075122353
 20
290.9999979871026
 30
0.0
 11
204.0000075122355
 21
5.999997987102574
 31
0.0
  0
LINE
  5
21D
330
214
100
AcDbEntity
  8
01-99
100
AcDbLine
 10
20.0000075122355
 20
5.99999798710246
 30
0.0
 11
20.0000075122355
 21
290.9999979871026
 31
0.0
  0
LWPOLYLINE
  5
21E
330
214
100
AcDbEntity
  8
02-99
100
AcDbPolyline
 90
        4
 70
     1
 43
0.0
 10
0.0000075122354986
 20
-0.0000020128974256
 10
210.0000075122355
 20
-0.0000020128974256
 10
210.0000075122355
 20
296.9999979871026
 10
0.0000075122354986
 20
296.9999979871026
  0
LINE
  5
223
330
214
100
AcDbEntity
  8
01-99
100
AcDbLine
 10
20.0000075122355
 20
5.99999798710246
 30
0.0
 11
204.0000075122355
 21
5.999997987102631
 31
0.0
  0
LINE
  5
224
330
214
100
AcDbEntity
  8
01-99
100
AcDbLine
 10
70.0000075122355
 20
11.11110909810247
 30
0.0
 11
20.0000075122355
 21
11.11110909810247
 31
0.0
  0
LINE
  5
225
330
214
100
AcDbEntity
  8
01-99
100
AcDbLine
 10
70.0000075122355
 20
16.22222020910249
 30
0.0
 11
20.0000075122355
 21
16.22222020910249
 31
0.0
  0
LINE
  5
226
330
214
100
AcDbEntity
  8
01-99
100
AcDbLine
 10
70.0000075122355
 20
21.3333313201025
 30
0.0
 11
20.0000075122355
 21
21.33333132010244
 31
0.0
  0
LINE
  5
227
330
214
100
AcDbEntity
  8
01-99
100
AcDbLine
 10
115.0000075122355
 20
26.44444243110252
 30
0.0
 11
20.0000075122355
 21
26.44444243110246
 31
0.0
  0
LINE
  5
228
330
214
100
AcDbEntity
  8
01-99
100
AcDbLine
 10
115.0000075122355
 20
31.55555354210253
 30
0.0
 11
20.0000075122355
 21
31.55555354210247
 31
0.0
  0
LINE
  5
229
330
214
100
AcDbEntity
  8
01-99
100
AcDbLine
 10
45.0000075122355
 20
5.99999798710246
 30
0.0
 11
45.0000075122355
 21
11.11110909810247
 31
0.0
  0
LINE
  5
22A
330
214
100
AcDbEntity
  8
01-99
100
AcDbLine
 10
28.0000075122355
 20
11.11110909810247
 30
0.0
 11
28.0000075122355
 21
36.66666465376915
 31
0.0
  0
LINE
  5
22B
330
214
100
AcDbEntity
  8
01-99
100
AcDbLine
 10
70.0000075122355
 20
5.99999798710246
 30
0.0
 11
70.0000075122355
 21
51.99999798710246
 31
0.0
  0
LINE
  5
22C
330
214
100
AcDbEntity
  8
01-99
100
AcDbLine
 10
115.0000075122355
 20
5.99999798710246
 30
0.0
 11
115.0000075122355
 21
51.99999798710246
 31
0.0
  0
LINE
  5
22D
330
214
100
AcDbEntity
  8
01-99
100
AcDbLine
 10
144.5000075122355
 20
5.99999798710246
 30
0.0
 11
144.5000075122355
 21
16.22222020910254
 31
0.0
  0
LINE
  5
22E
330
214
100
AcDbEntity
  8
01-99
100
AcDbLine
 10
177.0000075122355
 20
5.99999798710246
 30
0.0
 11
177.0000075122355
 21
16.2222202091026
 31
0.0
  0
LINE
  5
22F
330
214
100
AcDbEntity
  8
01-99
100
AcDbLine
 10
148.5000075122355
 20
36.6666646537692
 30
0.0
 11
148.5000075122355
 21
51.99999798710257
 31
0.0
  0
LINE
  5
230
330
214
100
AcDbEntity
  8
01-99
100
AcDbLine
 10
182.0000075122355
 20
36.6666646537692
 30
0.0
 11
182.0000075122355
 21
51.99999798710257
 31
0.0
  0
LINE
  5
231
330
214
100
AcDbEntity
  8
01-99
100
AcDbLine
 10
78.00000751223549
 20
21.33333132043583
 30
0.0
 11
78.00000751223549
 21
36.6666646537692
 31
0.0
  0
LINE
  5
232
330
214
100
AcDbEntity
  8
01-99
100
AcDbLine
 10
60.00319585166497
 20
11.11110909810247
 30
0.0
 11
60.00319585166497
 21
36.66666465376915
 31
0.0
  0
LINE
  5
233
330
214
100
AcDbEntity
  8
01-99
100
AcDbLine
 10
48.00319585166497
 20
11.11110909810247
 30
0.0
 11
48.00319585166497
 21
36.66666465376915
 31
0.0
  0
LINE
  5
234
330
214
100
AcDbEntity
  8
01-99
100
AcDbLine
 10
204.0000075122355
 20
51.99999798710257
 30
0.0
 11
20.00000751223368
 21
51.99999798710246
 31
0.0
  0
LINE
  5
235
330
214
100
AcDbEntity
  8
01-99
100
AcDbLine
 10
115.0000075122355
 20
21.33333132043583
 30
0.0
 11
70.0000075122355
 21
21.33333132043583
 31
0.0
  0
LINE
  5
236
330
214
100
AcDbEntity
  8
01-99
100
AcDbLine
 10
115.0000075122355
 20
36.6666646537692
 30
0.0
 11
20.0000075122355
 21
36.66666465376909
 31
0.0
  0
LINE
  5
237
330
214
100
AcDbEntity
  8
01-99
100
AcDbLine
 10
92.0000075122355
 20
21.33333132043583
 30
0.0
 11
92.0000075122355
 21
51.99999798710251
 31
0.0
  0
LINE
  5
238
330
214
100
AcDbEntity
  8
01-99
100
AcDbLine
 10
70.0000075122355
 20
36.66666465376915
 30
0.0
 11
78.00000751223549
 21
31.55555355376919
 31
0.0
  0
LINE
  5
239
330
214
100
AcDbEntity
  8
01-99
100
AcDbLine
 10
70.0000075122355
 20
31.55555355376919
 30
0.0
 11
78.00000751223549
 21
36.6666646537692
 31
0.0
  0
LINE
  5
23A
330
214
100
AcDbEntity
  8
01-99
100
AcDbLine
 10
204.0000075122355
 20
44.33333132043583
 30
0.0
 11
115.0000075122355
 21
44.33333132043578
 31
0.0
  0
LINE
  5
23B
330
214
100
AcDbEntity
  8
01-99
100
AcDbLine
 10
115.0000075122355
 20
16.22222020910249
 30
0.0
 11
204.0000075122355
 21
16.2222202091026
 31
0.0
  0
LINE
  5
23C
330
214
100
AcDbEntity
  8
01-99
100
AcDbLine
 10
115.0000075122355
 20
36.6666646537692
 30
0.0
 11
204.0000075122355
 21
36.66666465376926
 31
0.0
  0
LINE
  5
23D
330
214
100
AcDbEntity
  8
01-99
100
AcDbLine
 10
92.0000075122355
 20
41.77777576510249
 30
0.0
 11
70.0000075122355
 21
41.77777576510249
 31
0.0
  0
LINE
  5
23E
330
214
100
AcDbEntity
  8
01-99
100
AcDbLine
 10
92.0000075122355
 20
46.8888868761025
 30
0.0
 11
70.0000075122355
 21
46.88888687610244
 31
0.0
  0
LINE
  5
23F
330
214
100
AcDbEntity
  8
01-99
100
AcDbLine
 10
20.00000751223368
 20
51.99999798710246
 30
0.0
 11
20.00000751223368
 21
5.99999798710246
 31
0.0
  0
TEXT
  5
240
330
214
100
AcDbEntity
  8
08-99
100
AcDbText
 10
116.4997086805418
 20
32.66987169496042
 30
0.0
 40
2.5
  1
Benennung/Teil:
 51
15.0
  7
ROMANS8
100
AcDbText
  0
TEXT
  5
245
330
214
100
AcDbEntity
  8
08-99
100
AcDbText
 10
178.5028349598029
 20
12.01760068133313
 30
0.0
 40
2.7
  1
Ident-Nr.
 51
15.0
  7
ROMANS8
100
AcDbText
  0
TEXT
  5
246
330
214
100
AcDbEntity
  8
08-99
100
AcDbText
 10
93.50002924540357
 20
33.0555749488849
 30
0.0
 40
2.5
  1
Name:
 51
15.0
  7
ROMANS8
100
AcDbText
  0
TEXT
  5
247
330
214
100
AcDbEntity
  8
08-99
100
AcDbText
 10
79.50777665478042
 20
33.04841594810694
 30
0.0
 40
2.5
  1
Datum:
 50
0.102528160689452
 41
0.8933771909280748
 51
15.0
  7
ROMANS8
 72
     5
 11
90.67497366186243
 21
33.06839915456692
 31
0.0
100
AcDbText
  0
TEXT
  5
248
330
214
100
AcDbEntity
  8
08-99
100
AcDbText
 10
29.50001559397086
 20
33.05597508608236
 30
0.0
 40
1.6
  1
Änderung:
 51
15.0
  7
ROMANS8
100
AcDbText
  0
TEXT
  5
249
330
214
100
AcDbEntity
  8
08-99
100
AcDbText
 10
46.49994558798837
 20
9.111117286264914
 30
0.0
 40
1.0
  1
ERSETZT.DURCH:
 51
15.0
  7
ROMANS8
100
AcDbText
  0
TEXT
  5
24A
330
214
100
AcDbEntity
  8
08-99
100
AcDbText
 10
21.49936832790721
 20
9.110852190038713
 30
0.0
 40
1.0
  1
ERSETZT.FÜR:
 51
15.0
  7
ROMANS8
100
AcDbText
  0
TEXT
  5
24B
330
214
100
AcDbEntity
  8
08-99
100
AcDbText
 10
145.9909143543897
 20
12.61295485116625
 30
0.0
 40
2.112
  1
AUFTRAGS.NR.:
 51
15.0
  7
ROMANS8
100
AcDbText
  0
TEXT
  5
24C
330
214
100
AcDbEntity
  8
08-99
100
AcDbText
 10
116.5034717172479
 20
12.61092664313281
 30
0.0
 40
2.112
  1
Sonder-Nr:
 51
15.0
  7
ROMANS8
100
AcDbText
  0
TEXT
  5
24D
330
214
100
AcDbEntity
  8
08-99
100
AcDbText
 10
99.69631500731376
 20
49.92370649414477
 30
0.0
 40
1.349999999999999
  1
Format
 51
15.0
  7
ROMANS8
100
AcDbText
  0
TEXT
  5
24E
330
214
100
AcDbEntity
  8
08-99
100
AcDbText
 10
98.30438725900334
 20
44.6416167802032
 30
0.0
 40
1.822499999999999
  1
Normen
 51
15.0
  7
ROMANS8
100
AcDbText
  0
TEXT
  5
24F
330
214
100
AcDbEntity
  8
08-99
100
AcDbText
 10
21.50003711613706
 20
33.05556582266059
 30
0.0
 40
1.6
  1
Zust.
 51
15.0
  7
ROMANS8
100
AcDbText
  0
TEXT
  5
250
330
214
100
AcDbEntity
  8
08-99
100
AcDbText
 10
49.50318821340468
 20
33.05555723859902
 30
0.0
 40
1.6
  1
Datum:
 51
15.0
  7
ROMANS8
100
AcDbText
  0
TEXT
  5
251
330
214
100
AcDbEntity
  8
08-99
100
AcDbText
 10
61.50322112916754
 20
33.05556204504791
 30
0.0
 40
1.6
  1
Name:
 51
15.0
  7
ROMANS8
100
AcDbText
  0
TEXT
  5
252
330
214
100
AcDbEntity
  8
08-99
100
AcDbText
 10
71.1545619578267
 20
28.03813755505132
 30
0.0
 40
1.6
  1
Erst.
 51
15.0
  7
ROMANS8
100
AcDbText
  0
TEXT
  5
253
330
214
100
AcDbEntity
  8
08-99
100
AcDbText
 10
70.51718787454618
 20
23.1974490465235
 30
0.0
 40
1.6
  1
Bearb.
 51
15.0
  7
ROMANS8
100
AcDbText
  0
TEXT
  5
254
330
214
100
AcDbEntity
  8
08-99
100
AcDbText
 10
149.4308124240035
 20
41.61949547980938
 30
0.0
 40
2.0
  1
Zuschnittsbreite:
 51
15.0
  7
ROMANS8
100
AcDbText
  0
TEXT
  5
255
330
214
100
AcDbEntity
  8
08-99
100
AcDbText
 10
115.9850022862677
 20
41.73762161521608
 30
0.0
 40
2.0
  1
Zuschnittslänge:
 51
15.0
  7
ROMANS8
100
AcDbText
  0
LWPOLYLINE
  5
256
330
214
100
AcDbEntity
  8
06-99
100
AcDbPolyline
 90
      133
 70
     1
 43
0.010692
 10
93.76754732423549
 20
18.87656283643588
 10
94.00905465623557
 20
19.08724513243589
 10
93.92285931623556
 20
19.22625538843579
 10
93.82427194823552
 20
19.35180441643592
 10
93.71363469623569
 20
19.46393854843592
 10
93.59130396023548
 20
19.56271124443577
 10
93.45762188423558
 20
19.64816170843585
 10
93.31293417623559
 20
19.72033627243581
 10
93.15759367223554
 20
19.77928839643584
 10
92.99194251623569
 20
19.82505728443584
 10
92.81632998023557
 20
19.85768926843593
 10
92.63110533623573
 20
19.87723780843589
 10
92.43661429223564
 20
19.88374210843585
 10
92.27568900023554
 20
19.87767974443585
 10
92.11994932823543
 20
19.85975638843581
 10
91.96972672823566
 20
19.83036051643597
 10
91.82535621623562
 20
19.78988773243583
 10
91.68716924423554
 20
19.73873364043595
 10
91.55549013623559
 20
19.67729028043584
 10
91.43066103623565
 20
19.60594969243584
 10
91.31300626823557
 20
19.52510391643579
 10
91.20285728423553
 20
19.43514499243588
 10
91.10055266423561
 20
19.33647208843587
 10
91.00641316823569
 20
19.22947011643589
 10
90.92077737623563
 20
19.11454180843589
 10
90.84397674023561
 20
18.99207207643587
 10
90.77633914823563
 20
18.86245652443591
 10
90.71819961623559
 20
18.72608719243584
 10
90.66988603223562
 20
18.58336324843583
 10
90.63172984823566
 20
18.43466960443584
 10
90.60406964423547
 20
18.28040542843581
 10
90.5872261802356
 20
18.12095919643588
 10
90.58154160023562
 20
17.95672651243586
 10
90.58715490023557
 20
17.78762184043592
 10
90.60380590823573
 20
17.62428728443586
 10
90.63119524823539
 20
17.46704004043585
 10
90.66902354423545
 20
17.31619374043578
 10
90.71699498423553
 20
17.17206201643586
 10
90.77481375623566
 20
17.03495850043589
 10
90.84218404823563
 20
16.90519326043585
 10
90.91880648423559
 20
16.78308349243582
 10
91.00438525223561
 20
16.66893926443583
 10
91.09862810423559
 20
16.56307777243586
 10
91.2012285362355
 20
16.46580908443587
 10
91.31190142823554
 20
16.37745039643579
 10
91.43034027623562
 20
16.29831177643592
 10
91.55625283223551
 20
16.2287068564359
 10
91.6893397202355
 20
16.16895283243582
 10
91.82930869223552
 20
16.11935977243587
 10
91.9758568082357
 20
16.08024130843591
 10
92.1286953842355
 20
16.05191107243593
 10
92.28751791623555
 20
16.03468269643588
 10
92.45203572023561
 20
16.02886981243591
 10
92.61603318023563
 20
16.03412314843587
 10
92.77336596023557
 20
16.0497619804359
 10
92.92384516823554
 20
16.07559385243587
 10
93.06728191223546
 20
16.11142630843591
 10
93.20349086423565
 20
16.15707045643586
 10
93.33227956823547
 20
16.21233740443585
 10
93.45346269623556
 20
16.27703469643586
 10
93.56684422823562
 20
16.35097700443589
 10
93.67224596423559
 20
16.43397187243585
 10
93.76946832023557
 20
16.52582328043587
 10
93.85832953223555
 20
16.62635302843586
 10
93.93864070823568
 20
16.73535796843583
 10
94.01020939223556
 20
16.85265990043587
 10
94.07284669223557
 20
16.97805924043587
 10
94.12636728023565
 20
17.11137066043579
 10
94.17058226423549
 20
17.25240170443584
 10
94.20529562423556
 20
17.40096348043585
 10
94.23032916023558
 20
17.55686709643589
 10
94.2454868522357
 20
17.71992366043582
 10
94.25057980823547
 20
17.88993715243583
 10
94.25057980823547
 20
17.88993715243583
 10
94.25057980823547
 20
17.94131934043588
 10
92.6164715522356
 20
17.94131934043588
 10
92.6164715522356
 20
17.65354772443584
 10
93.88573312823544
 20
17.65354772443584
 10
93.87499479623548
 20
17.49100437643585
 10
93.84766248023552
 20
17.33635885243586
 10
93.80444185223566
 20
17.19027405643589
 10
93.74603858423554
 20
17.05341645643585
 10
93.67316547623572
 20
16.92644182843588
 10
93.58653176423562
 20
16.81002376843588
 10
93.4868359922356
 20
16.70481448843588
 10
93.37479452423556
 20
16.61148758443585
 10
93.2511130322355
 20
16.53069526843586
 10
93.11649718823563
 20
16.46310757243589
 10
92.9716562282355
 20
16.40938383643583
 10
92.81729938823563
 20
16.37019052843595
 10
92.65413234023563
 20
16.34618698843581
 10
92.48286432023567
 20
16.3380396844359
 10
92.31820395623563
 20
16.34599096843584
 10
92.15990889623553
 20
16.3693743724358
 10
92.00857076423554
 20
16.40748066043585
 10
91.86477762023541
 20
16.45960416043584
 10
91.7291103962356
 20
16.52503563643586
 10
91.60216071623555
 20
16.60306585243592
 10
91.48451307623558
 20
16.69299270043586
 10
91.37675910023554
 20
16.79410338043595
 10
91.27948328423569
 20
16.90569222043587
 10
91.19327012423552
 20
17.02705354843584
 10
91.11871124423558
 20
17.15747456443586
 10
91.05639114023555
 20
17.29625316043587
 10
91.00689787223556
 20
17.44268010043583
 10
90.97081950023541
 20
17.5960425844359
 10
90.94874052023547
 20
17.75564206843597
 10
90.94125255623557
 20
17.92076575243578
 10
90.94763924423572
 20
18.08913980443589
 10
90.96654270023558
 20
18.25115211643583
 10
90.99756375623568
 20
18.40630372843583
 10
91.04030680823555
 20
18.55409924443586
 10
91.09437981623548
 20
18.69404326843585
 10
91.15938361223554
 20
18.82564396843588
 10
91.23492259223556
 20
18.9483988204359
 10
91.32060471623564
 20
19.06181955643586
 10
91.41603081623546
 20
19.16540365243594
 10
91.52081241623548
 20
19.25865927643582
 10
91.63454322023566
 20
19.34108746843589
 10
91.75683831623567
 20
19.41219639643589
 10
91.88729497223542
 20
19.47148710043586
 10
92.02552114823564
 20
19.51846418443586
 10
92.17112480423569
 20
19.55263225243584
 10
92.32370320823568
 20
19.57349947243585
 10
92.48286432023567
 20
19.58056332043588
 10
92.66056892423561
 20
19.57164619243588
 10
92.83032224423564
 20
19.54500885643586
 10
92.99178570023562
 20
19.50081882043588
 10
93.14462071223559
 20
19.43924359243584
 10
93.28848870023561
 20
19.36045780843585
 10
93.42305464823565
 20
19.26462541243592
 10
93.54797997623554
 20
19.15192104043586
 10
93.66292254023566
 20
19.02250863643593
  0
LWPOLYLINE
  5
25A
330
214
100
AcDbEntity
  8
06-99
100
AcDbPolyline
 90
       12
 70
     1
 43
0.010692
 10
90.43900298423549
 20
12.25281181243593
 10
92.32227048023563
 20
12.25281181243593
 10
92.46760683623554
 20
13.00767770443588
 10
91.56487771223558
 20
13.00767770443588
 10
91.62106060823546
 20
13.29950515243581
 10
92.41872301223557
 20
13.29950515243581
 10
92.55580870823544
 20
14.01156027643583
 10
91.75814630423545
 20
14.01156027643583
 10
91.80985281623547
 20
14.28005421643581
 10
92.68923417623549
 20
14.28005421643581
 10
92.83455984023559
 20
15.03490585243588
 10
90.97464010823561
 20
15.03490585243588
  0
LWPOLYLINE
  5
25B
330
214
100
AcDbEntity
  8
06-99
100
AcDbPolyline
 90
        4
 70
     1
 43
0.010692
 10
76.60861942823558
 20
12.88042508443584
 10
89.06586862823544
 20
12.88042508443584
 10
88.94229049223557
 20
12.25209544843585
 10
76.48504485623553
 20
12.25209544843585
  0
SOLID
  5
25C
330
214
100
AcDbEntity
  8
06-99
100
AcDbTrace
 10
76.60861942823558
 20
12.88042508443584
 30
0.0
 11
89.06586862823544
 21
12.88042508443584
 31
0.0
 12
76.48504485623553
 22
12.25209544843585
 32
0.0
 13
88.94229049223557
 23
12.25209544843585
 33
0.0
  0
LWPOLYLINE
  5
25D
330
214
100
AcDbEntity
  8
06-99
100
AcDbPolyline
 90
       10
 70
     1
 43
0.010692
 10
82.3458504002356
 20
16.02886981243591
 10
83.32219038023552
 20
19.10266656043586
 10
84.33965535623546
 20
16.02886981243591
 10
85.56780619223562
 20
19.80153132043585
 10
85.22351666423551
 20
19.80153132043585
 10
84.33965535623546
 20
16.89302932843583
 10
83.32219038023552
 20
19.9454100004358
 10
82.3458504002356
 20
16.86733645243589
 10
81.42601764023565
 20
19.80153132043585
 10
81.07658882423564
 20
19.80153132043585
  0
LWPOLYLINE
  5
25E
330
214
100
AcDbEntity
  8
06-99
100
AcDbPolyline
 90
        3
 70
     1
 43
0.010692
 10
87.32442338423565
 20
17.65868344843591
 10
87.97704168023555
 20
19.25683094443582
 10
88.6039706642355
 20
17.65868344843591
  0
LWPOLYLINE
  5
25F
330
214
100
AcDbEntity
  8
06-99
100
AcDbPolyline
 90
        7
 70
     1
 43
0.010692
 10
86.38318880423563
 20
16.12735738843582
 10
86.72320153223555
 20
16.12735738843582
 10
87.21136974023549
 20
17.37092608843585
 10
88.71187076423566
 20
17.37092608843585
 10
89.17949964023549
 20
16.12735738843582
 10
89.54434632023552
 20
16.12735738843582
 10
87.99759883223558
 20
19.9454100004358
  0
LWPOLYLINE
  5
260
330
214
100
AcDbEntity
  8
06-99
100
AcDbPolyline
 90
        8
 70
     1
 43
0.010692
 10
98.92981243223543
 20
12.25281181243593
 10
100.0043869442354
 20
12.25281181243593
 10
100.1574144122356
 20
12.60301045243585
 10
100.9122803042355
 20
12.60301045243585
 10
100.9343521562355
 20
12.25281181243593
 10
102.0082815842354
 20
12.25281181243593
 10
101.5711569842355
 20
15.03490585243588
 10
100.4583193682355
 20
15.03490585243588
  0
LWPOLYLINE
  5
261
330
214
100
AcDbEntity
  8
06-99
100
AcDbPolyline
 90
       34
 70
     1
 43
0.010692
 10
96.0434642642356
 20
13.66137589243584
 10
96.07848769223544
 20
13.66137589243584
 10
96.0642316922356
 20
13.48699650043591
 10
96.06380757623552
 20
13.33509882043586
 10
96.06790617623554
 20
13.20222577243589
 10
96.09523849223561
 20
12.25281181243593
 10
96.9668360762354
 20
12.25281181243593
 10
98.31569602823542
 20
15.03490585243588
 10
97.31181345623557
 20
15.03490585243588
 10
96.85792023623552
 20
13.80922843243581
 10
96.80781752423563
 20
13.66872486043581
 10
96.74884758023544
 20
13.48671138043579
 10
96.69003445223545
 20
13.26059696443593
 10
96.66670094423549
 20
13.26059696443593
 10
96.6884270882355
 20
13.45803187243587
 10
96.69298544423558
 20
13.61569254043581
 10
96.69194475623548
 20
13.73531107243588
 10
96.67756045223544
 20
15.03490585243588
 10
95.97329266823548
 20
15.03490585243588
 10
95.45849068823557
 20
13.73531107243588
 10
95.41138886423542
 20
13.61569254043581
 10
95.35523448023562
 20
13.45803187243587
 10
95.30092981223551
 20
13.26059696443593
 10
95.27759630423545
 20
13.26059696443593
 10
95.30585169623558
 20
13.48671138043579
 10
95.31697137623556
 20
13.66872486043581
 10
95.32096662023551
 20
13.80922843243581
 10
95.33903966423546
 20
15.03490585243588
 10
94.33451200823553
 20
15.03490585243588
 10
94.61274279623561
 20
12.25281181243593
 10
95.48433681623547
 20
12.25281181243593
 10
95.87724643223557
 20
13.20222577243589
 10
95.93252050823551
 20
13.33509882043586
 10
95.99058519623557
 20
13.48699650043591
  0
LWPOLYLINE
  5
262
330
214
100
AcDbEntity
  8
06-99
100
AcDbPolyline
 90
       10
 70
     1
 43
0.010692
 10
100.4520752402354
 20
13.26448172443588
 10
100.5983667482354
 20
13.57965693643587
 10
100.6731180842355
 20
13.74409276843596
 10
100.7541598802355
 20
13.94570824843589
 10
100.8288363722355
 20
14.19056217643595
 10
100.8482958122355
 20
14.19056217643595
 10
100.8286724282354
 20
13.94570824843589
 10
100.8320796122355
 20
13.74409276843596
 10
100.8435129242355
 20
13.57965693643587
 10
100.8684181562356
 20
13.26448172443588
  0
LWPOLYLINE
  5
263
330
214
100
AcDbEntity
  8
06-99
100
AcDbPolyline
 90
       23
 70
     1
 43
0.010692
 10
103.5867130322356
 20
12.25281181243593
 10
104.5672478402354
 20
12.25281181243593
 10
104.7440436242355
 20
13.17110136043584
 10
105.0536340482356
 20
12.25281181243593
 10
106.1742447482354
 20
12.25281181243593
 10
105.6490750922355
 20
13.38511243243585
 10
105.8084357882355
 20
13.42380678043588
 10
105.9537079922354
 20
13.49881472443587
 10
106.0813562162355
 20
13.60690015243585
 10
106.1878378442354
 20
13.74481626043587
 10
106.2696066962354
 20
13.90931980843584
 10
106.3231201562354
 20
14.09716755643586
 10
106.3446075122355
 20
14.26808986843588
 10
106.3403093282354
 20
14.42329850443593
 10
106.3102362962355
 20
14.56225886443587
 10
106.2543991082354
 20
14.68443278443578
 10
106.1728155842354
 20
14.78928566443591
 10
106.0654999802355
 20
14.87627577643587
 10
105.9324594242355
 20
14.94487208443587
 10
105.7737153002354
 20
14.99453286043592
 10
105.5892711722355
 20
15.02472350443588
 10
105.3791519882354
 20
15.03490585243588
 10
104.1223501562355
 20
15.03490585243588
  0
LWPOLYLINE
  5
264
330
214
100
AcDbEntity
  8
06-99
100
AcDbPolyline
 90
        9
 70
     1
 43
0.010692
 10
104.9650401362355
 20
14.31896240443586
 10
105.1206907082355
 20
14.31896240443586
 10
105.2773605842356
 20
14.28538239643581
 10
105.3582277442354
 20
14.19040892443593
 10
105.3632244722355
 20
14.04269894443587
 10
105.3008722922355
 20
13.89699906043591
 10
105.1832994962355
 20
13.80577848043589
 10
105.0158200082354
 20
13.77421926043581
 10
104.8601694362355
 20
13.77421926043581
  0
LWPOLYLINE
  5
265
330
214
100
AcDbEntity
  8
06-99
100
AcDbPolyline
 90
       12
 70
     1
 43
0.010692
 10
100.5798090002356
 20
16.12735738843582
 10
102.3989066762356
 20
16.12735738843582
 10
102.3989066762356
 20
16.4408218804358
 10
100.9138270802356
 20
16.4408218804358
 10
100.9138270802356
 20
18.02353012843594
 10
102.3989066762356
 20
18.02353012843594
 10
102.3989066762356
 20
18.33699462043592
 10
100.9138270802356
 20
18.33699462043592
 10
100.9138270802356
 20
19.48806682843587
 10
102.3989066762356
 20
19.48806682843587
 10
102.3989066762356
 20
19.80153132043585
 10
100.5798090002356
 20
19.80153132043585
  0
LWPOLYLINE
  5
266
330
214
100
AcDbEntity
  8
06-99
100
AcDbPolyline
 90
        8
 70
     1
 43
0.010692
 10
95.85303261623565
 20
16.12735738843582
 10
96.18705426023556
 20
16.12735738843582
 10
96.18705426023556
 20
19.09753083643585
 10
98.76667389623552
 20
16.01858410843584
 10
98.76667389623552
 20
19.80153132043585
 10
98.4326665082356
 20
19.80153132043585
 10
98.4326665082356
 20
16.88274362443587
 10
95.85303261623565
 20
19.95568144843582
  0
LWPOLYLINE
  5
267
330
214
100
AcDbEntity
  8
06-99
100
AcDbPolyline
 90
       19
 70
     1
 43
0.010692
 10
104.4484312082357
 20
19.5086239804358
 10
104.7824385962356
 20
19.5086239804358
 10
104.9866237202355
 20
19.50030560443588
 10
105.1604542562355
 20
19.47385716043584
 10
105.3049031762356
 20
19.42705471243579
 10
105.4209256322356
 20
19.35767076043584
 10
105.5094874682356
 20
19.26347780443581
 10
105.5715509642355
 20
19.14224834443593
 10
105.6080855282355
 20
18.9917477524358
 10
105.6200498762355
 20
18.80975922043586
 10
105.6074547002355
 20
18.63100680043584
 10
105.5693840522356
 20
18.48585933643585
 10
105.5054245082356
 20
18.37130168443593
 10
105.4151448242355
 20
18.28432582843589
 10
105.2981315762356
 20
18.22192018843589
 10
105.1539570842356
 20
18.18106962043583
 10
104.9821972322354
 20
18.15876967243594
 10
104.7824385962356
 20
18.15200520043589
 10
104.4484312082357
 20
18.15200520043589
  0
LWPOLYLINE
  5
268
330
214
100
AcDbEntity
  8
06-99
100
AcDbPolyline
 90
       29
 70
     1
 43
0.010692
 10
106.3446075122355
 20
16.12735738843582
 10
105.0239637482355
 20
17.87965144843588
 10
105.2123817362357
 20
17.89225018843592
 10
105.3829084442356
 20
17.92941914443582
 10
105.5344069562356
 20
17.99022811243594
 10
105.6657296642355
 20
18.07375401643588
 10
105.7757360882356
 20
18.17905596043584
 10
105.8632821842355
 20
18.30521443243589
 10
105.9272310362355
 20
18.45129210043592
 10
105.9664386002355
 20
18.6163587604359
 10
105.9797608322353
 20
18.79948777243589
 10
105.9699455762357
 20
18.97455145243589
 10
105.9404891162357
 20
19.13261485243589
 10
105.8913629402356
 20
19.27374568843589
 10
105.8225492282356
 20
19.39801167643577
 10
105.7340230322356
 20
19.50548409643591
 10
105.6257594042356
 20
19.59623422843589
 10
105.4977369602356
 20
19.67032622443582
 10
105.3499307522354
 20
19.72783136443587
 10
105.1823193962355
 20
19.76882449243589
 10
104.9948815082355
 20
19.79336619643589
 10
104.7875885762355
 20
19.80153132043585
 10
104.7875885762355
 20
19.80153132043585
 10
104.1144131282356
 20
19.80153132043585
 10
104.1144131282356
 20
16.12735738843582
 10
104.4484312082357
 20
16.12735738843582
 10
104.4484312082357
 20
17.87965144843588
 10
104.6488456202355
 20
17.87965144843588
 10
105.9386465282355
 20
16.12735738843582
  0
TEXT
  5
269
330
214
100
AcDbEntity
  8
06-99
100
AcDbText
 10
85.6083656112951
 20
9.63320697282171
 30
0.0
 40
1.4256
  1
GmbH & Co KG
 41
1.199203187251
 51
15.0
  7
ROMAND8
 72
     5
 11
106.0419656112951
 21
9.63320697282171
 31
0.0
100
AcDbText
  0
TEXT
  5
26B
330
214
100
AcDbEntity
  8
06-99
100
AcDbText
 10
85.70982236587898
 20
7.391013700398161
 30
0.0
 40
1.4256
  1
72774 Reutlingen
 50
0.5663244663116128
 41
1.087840993687879
 51
15.0
  7
ROMAND8
 72
     5
 11
105.943422365879
 21
7.59101370039815
 31
0.0
100
AcDbText
  0
TEXT
  5
26C
330
214
100
AcDbEntity
  8
08-99
100
AcDbText
 10
73.414125712073
 20
48.45008961754581
 30
0.0
 40
2.25
  1
Zul. Abw.
 51
15.0
  7
ROMANS8
100
AcDbText
  0
TEXT
  5
26D
330
214
100
AcDbEntity
  8
08-99
100
AcDbText
 10
123.2099338325191
 20
49.28616214647601
 30
0.0
 40
2.0
  1
Mat. Art.
 51
15.0
  7
ROMANS8
100
AcDbText
  0
TEXT
  5
26E
330
214
100
AcDbEntity
  8
08-99
100
AcDbText
 10
155.4865384826082
 20
49.4043113704472
 30
0.0
 40
2.0
  1
Oberfläche:
 51
15.0
  7
ROMANS8
100
AcDbText
  0
TEXT
  5
26F
330
214
100
AcDbEntity
  8
08-99
100
AcDbText
 10
184.762545350816
 20
41.73764470378046
 30
0.0
 40
2.0
  1
Blech Dicke:
 51
15.0
  7
ROMANS8
100
AcDbText
  0
TEXT
  5
270
330
214
100
AcDbEntity
  8
08-99
100
AcDbText
 10
187.4380355407932
 20
49.28616214647604
 30
0.0
 40
2.0
  1
Maßstab:
 51
15.0
  7
ROMANS8
100
AcDbText
  0
LINE
  5
271
330
214
100
AcDbEntity
  8
01-99
100
AcDbLine
 10
115.0000075122355
 20
46.8888868761025
 30
0.0
 11
92.0000075122355
 21
46.8888868761025
 31
0.0
  0
LINE
  5
272
330
214
100
AcDbEntity
  8
01-99
100
AcDbLine
 10
115.0000075122355
 20
44.33333132043578
 30
0.0
 11
92.0000075122355
 21
44.33333132043578
 31
0.0
  0
LINE
  5
273
330
214
100
AcDbEntity
  8
01-99
100
AcDbLine
 10
115.0000075122355
 20
40.49999798710246
 30
0.0
 11
92.00000751223544
 21
40.49999798710246
 31
0.0
  0
ATTDEF
  5
274
330
214
100
AcDbEntity
  8
06-99
100
AcDbText
 10
116.4954542514127
 20
26.18783668438471
 30
0.0
 40
4.0
  1

 41
0.9
  7
ROMANS8
100
AcDbAttributeDefinition
280
     0
  3
Benennung/Teil
  2
TEILE
 70
     0
280
     0
  0
ATTDEF
  5
275
330
214
100
AcDbEntity
  8
06-99
100
AcDbText
 10
116.4954542514127
 20
19.29547648609889
 30
0.0
 40
4.0
  1

 41
0.9
  7
ROMANS8
100
AcDbAttributeDefinition
280
     0
  3
Benennung/Teil2
  2
TEILE2
 70
     0
280
     0
  0
ATTDEF
  5
276
330
214
100
AcDbEntity
  8
06-99
100
AcDbText
 10
191.3473937239501
 20
45.33333132043583
 30
0.0
 40
3.375
  1

  7
ROMANS8
100
AcDbAttributeDefinition
280
     0
  3
Maßstab
  2
:
 70
     0
280
     0
  0
ATTDEF
  5
277
330
214
100
AcDbEntity
  8
06-99
100
AcDbText
 10
92.99707531160292
 20
27.44168345513378
 30
0.0
 40
2.5
  1

 41
0.9
  7
ROMANS8
100
AcDbAttributeDefinition
280
     0
  3
Name
  2
NAME
 70
     0
280
     0
  0
ATTDEF
  5
278
330
214
100
AcDbEntity
  8
06-99
100
AcDbText
 10
79.49315396412956
 20
27.46123316121373
 30
0.0
 40
2.5
  1

 50
359.9144597696142
 41
0.9542572414211148
  7
ROMANS8
 72
     5
 11
90.73974463267431
 21
27.44444245376917
 31
0.0
100
AcDbAttributeDefinition
280
     0
  3
Datum
  2
DATUM
 70
     0
280
     0
  0
ATTDEF
  5
279
330
214
100
AcDbEntity
  8
06-99
100
AcDbText
 10
178.5063514793938
 20
7.4928977873912
 30
0.0
 40
2.99376
  1

  7
ROMANS8
100
AcDbAttributeDefinition
280
     0
  3
Ident-Nummer
  2
ID.NR
 70
     0
280
     0
  0
ATTDEF
  5
27A
330
214
100
AcDbEntity
  8
06-99
100
AcDbText
 10
116.731273767946
 20
37.66666463154695
 30
0.0
 40
3.0
  1

 41
0.9
  7
ROMANS8
100
AcDbAttributeDefinition
280
     0
  3
Zuschnitts.Länge
  2
LÄNGE
 70
     0
280
     0
  0
ATTDEF
  5
27B
330
214
100
AcDbEntity
  8
06-99
100
AcDbText
 10
150.1808124240052
 20
37.67810185754732
 30
0.0
 40
3.0
  1

 41
0.9
  7
ROMANS8
100
AcDbAttributeDefinition
280
     0
  3
Zuschnitts Breite
  2
BREITE
 70
     0
280
     0
  0
ATTDEF
  5
27C
330
214
100
AcDbEntity
  8
06-99
100
AcDbText
 10
190.6090996389673
 20
37.66666465376926
 30
0.0
 40
3.09375
  1

  7
ROMANS8
100
AcDbAttributeDefinition
280
     0
  3
Blech.Dicke
  2
1.0
 70
     0
280
     0
  0
ATTDEF
  5
27D
330
214
100
AcDbEntity
  8
06-99
100
AcDbText
 10
164.1277931136382
 20
45.33333132043594
 30
0.0
 40
3.0
  1

  7
ROMANS8
 72
     1
 11
164.1277931136382
 21
45.33333132043594
 31
0.0
100
AcDbAttributeDefinition
280
     0
  3
Oberfläche
  2
IV
 70
     0
280
     0
  0
ATTDEF
  5
27E
330
214
100
AcDbEntity
  8
06-99
100
AcDbText
 10
123.2747480483513
 20
45.3333313204358
 30
0.0
 40
3.375
  1
1.4301
  7
ROMANS8
100
AcDbAttributeDefinition
280
     0
  3
Mat.Art
  2
1.4301
 70
     0
280
     0
  0
ATTDEF
  5
27F
330
214
100
AcDbEntity
  8
06-99
100
AcDbText
 10
146.0006413991156
 20
7.504394591457128
 30
0.0
 40
3.168
  1

 41
0.9
  7
ROMANS8
100
AcDbAttributeDefinition
280
     0
  3
Auftrags Nr.
  2
AUFTRAGS.NR.
 70
     0
280
     0
  0
ATTDEF
  5
280
330
214
100
AcDbEntity
  8
06-99
100
AcDbText
 10
116.5000075122355
 20
7.499997987102517
 30
0.0
 40
3.168
  1

 41
0.9
  7
ROMANS8
100
AcDbAttributeDefinition
280
     0
  3
Sonder-NR,WPS
  2
SONDER-NR
 70
     0
280
     0
  0
ATTDEF
  5
281
330
214
100
AcDbEntity
  8
06-99
100
AcDbText
 10
46.4997585072438
 20
6.601808056362358
 30
0.0
 40
1.5
  1

 41
0.9
  7
ROMANS8
100
AcDbAttributeDefinition
280
     0
  3
ERSETZT.Durch
  2
ERSETZT.DURCH
 70
     0
280
     0
  0
ATTDEF
  5
282
330
214
100
AcDbEntity
  8
06-99
100
AcDbText
 10
21.49947529243403
 20
6.597454384974923
 30
0.0
 40
1.5
  1

 41
0.9
  7
ROMANS8
100
AcDbAttributeDefinition
280
     0
  3
ERSETZT.Für
  2
ERSETZT.FÜR
 70
     0
280
     0
  0
ATTDEF
  5
283
330
214
100
AcDbEntity
  8
06-99
100
AcDbText
 10
99.97308015867309
 20
47.66850912711049
 30
0.0
 40
1.287
  1
DIN A4
  7
ROMANS8
 72
     1
 11
103.2518658729588
 21
47.66850912711049
 31
0.0
100
AcDbAttributeDefinition
280
     0
  3
Format
  2
FORMAT
 70
     0
280
     0
  0
ATTDEF
  5
284
330
214
100
AcDbEntity
  8
06-99
100
AcDbText
 10
95.9874465096418
 20
37.19696532096725
 30
0.0
 40
2.34
  1
DIN 2768
  7
ROMANS8
 72
     1
 11
104.0103036524989
 21
37.19696532096725
 31
0.0
100
AcDbAttributeDefinition
280
     0
  3
Norm / Kanten
  2
NORM2
 70
     0
280
     0
  0
ATTDEF
  5
285
330
214
100
AcDbEntity
  8
06-99
100
AcDbText
 10
92.81173222392748
 20
41.03029865430056
 30
0.0
 40
2.34
  1
DIN 6930-M
  7
ROMANS8
 72
     1
 11
103.5088750810703
 21
41.03029865430056
 31
0.0
100
AcDbAttributeDefinition
280
     0
  3
Norm / Fräsen
  2
NORM1
 70
     0
280
     0
  0
ENDBLK
  5
286
330
214
100
AcDbEntity
  8
0
100
AcDbBlockEnd
  0
BLOCK
  5
2AB
330
2AA
100
AcDbEntity
  8
0
100
AcDbBlockBegin
  2
Mantel01-s
 70
     0
 10
0.0
 20
0.0
 30
0.0
  3
Mantel01-s
  1

  0
LINE
  5
2AC
330
2AA
100
AcDbEntity
  8
0
100
AcDbLine
 10
7.000000000036379
 20
289.5000000000002
 30
0.0
 11
-112.2999999999636
 21
289.5000000000002
 31
0.0
  0
LINE
  5
2AD
330
2AA
100
AcDbEntity
  8
0
100
AcDbLine
 10
-112.2999999999984
 20
12.28798159473649
 30
0.0
 11
-110.0000000000318
 21
12.28798159473672
 31
0.0
  0
LINE
  5
2AE
330
2AA
100
AcDbEntity
  8
0
100
AcDbLine
 10
7.000000000036379
 20
289.5000000000002
 30
0.0
 11
7.0
 21
0.0
 31
0.0
  0
LINE
  5
2AF
330
2AA
100
AcDbEntity
  8
0
100
AcDbLine
 10
-112.2999999999636
 20
289.5000000000002
 30
0.0
 11
-112.2999999999984
 21
12.28798159473649
 31
0.0
  0
LINE
  5
2B0
330
2AA
100
AcDbEntity
  8
03-01
100
AcDbLine
 10
-111.4999999999635
 20
289.5000000000155
 30
0.0
 11
-111.4999999999984
 21
12.28798159473626
 31
0.0
  0
ARC
  5
2B1
330
2AA
100
AcDbEntity
  8
0
100
AcDbCircle
 10
0.0
 20
0.0
 30
0.0
 40
7.0
100
AcDbArc
 50
259.999999999995
 51
0.0
  0
CIRCLE
  5
2B2
330
2AA
100
AcDbEntity
  8
01-01
100
AcDbCircle
 10
0.0
 20
0.0
 30
0.0
 40
1.649999999999999
  0
LINE
  5
2B3
330
2AA
100
AcDbEntity
  8
05-01
100
AcDbLine
 10
0.0
 20
-2.649999999999636
 30
0.0
 11
0.0
 21
2.65000000000009
 31
0.0
  0
LINE
  5
2B4
330
2AA
100
AcDbEntity
  8
05-01
100
AcDbLine
 10
2.65000000000009
 20
0.0
 30
0.0
 11
-2.649999999999863
 21
0.0
 31
0.0
  0
LINE
  5
2B5
330
2AA
100
AcDbEntity
  8
0
100
AcDbLine
 10
-110.0000000000316
 20
12.28798159473672
 30
0.0
 11
-1.21553724366845
 21
-6.893654271085324
 31
0.0
  0
ENDBLK
  5
2B6
330
2AA
100
AcDbEntity
  8
0
100
AcDbBlockEnd
  0
BLOCK
  5
163
330
162
100
AcDbEntity
  8
0
100
AcDbBlockBegin
  2
Zughebel01_s
 70
     0
 10
0.0
 20
0.0
 30
0.0
  3
Zughebel01_s
  1

  0
LINE
  5
164
330
162
100
AcDbEntity
  8
03-01
100
AcDbLine
 10
-4.108690947637626
 20
0.3003367192277437
 30
0.0
 11
-7.054028123026625
 21
-39.99270577444531
 31
0.0
  0
CIRCLE
  5
165
330
162
100
AcDbEntity
  8
03-01
100
AcDbCircle
 10
-0.1106117866753493
 20
0.128058053028326
 30
0.0
 40
1.9
  0
CIRCLE
  5
166
330
162
100
AcDbEntity
  8
03-01
100
AcDbCircle
 10
-0.25929363025989
 20
-29.3395155442222
 30
0.0
 40
2.5
  0
LINE
  5
167
330
162
100
AcDbEntity
  8
03-01
100
AcDbLine
 10
3.730062397525841
 20
-29.63112913027362
 30
0.0
 11
2.835285083649011
 21
-41.87193491362314
 31
-0.0000000000000089
  0
LINE
  5
168
330
162
100
AcDbEntity
  8
0
100
AcDbLine
 10
2.835285083649011
 20
-41.87193491362314
 30
-0.0000000000000089
 11
2.779923378287492
 21
-42.62929864273746
 31
0.0
  0
LINE
  5
169
330
162
100
AcDbEntity
  8
03-01
100
AcDbLine
 10
4.119296626887205
 20
-0.0542102188833269
 30
0.0
 11
3.730062397525841
 21
-29.63112913027362
 31
0.0
  0
LINE
  5
16A
330
162
100
AcDbEntity
  8
0
100
AcDbLine
 10
14.1688838400126
 20
-80.73460316333694
 30
0.0
 11
18.37547192930731
 21
-64.44771671614126
 31
0.0
  0
ARC
  5
16B
330
162
100
AcDbEntity
  8
0
100
AcDbCircle
 10
8.693205281861025
 20
-61.94697431282384
 30
0.0
 40
10.0
100
AcDbArc
 50
345.5180946118186
 51
50.98287194534319
  0
ARC
  5
16C
330
162
100
AcDbEntity
  8
0
100
AcDbCircle
 10
11.26420384577881
 20
-79.98438044234172
 30
0.0
 40
3.0
100
AcDbArc
 50
255.5180946118186
 51
345.5180946118186
  0
LINE
  5
16D
330
162
100
AcDbEntity
  8
0
100
AcDbLine
 10
9.609895053203899
 20
-74.39302439762332
 30
0.0
 11
11.87654050784584
 21
-65.61712422575784
 31
0.0
  0
ARC
  5
16E
330
162
100
AcDbEntity
  8
0
100
AcDbCircle
 10
2.194273860399675
 20
-63.11638182244042
 30
0.0
 40
10.0
100
AcDbArc
 50
345.5180946118186
 51
50.98287194534319
  0
LINE
  5
16F
330
162
100
AcDbEntity
  8
0
100
AcDbLine
 10
6.673144762387607
 20
-77.76578257593792
 30
0.0
 11
10.16838940052116
 21
-64.23304504184807
 31
0.0
  0
ARC
  5
170
330
162
100
AcDbEntity
  8
0
100
AcDbCircle
 10
0.4861227530750512
 20
-61.73230263853065
 30
0.0
 40
10.0
100
AcDbArc
 50
345.5180946118186
 51
50.98287194534319
  0
LINE
  5
171
330
162
100
AcDbEntity
  8
0
100
AcDbLine
 10
3.883282348094837
 20
-45.17888222357623
 30
0.0
 11
14.98873211863434
 21
-54.17739634182272
 31
0.0
  0
ARC
  5
172
330
162
100
AcDbEntity
  8
0
100
AcDbCircle
 10
5.771940399126776
 20
-42.84800883227581
 30
0.0
 40
3.0
100
AcDbArc
 50
175.8192340796936
 51
230.9828719453432
  0
LINE
  5
173
330
162
100
AcDbEntity
  8
0
100
AcDbLine
 10
-5.215096506681049
 20
-44.24201174250993
 30
0.0
 11
8.489800697172881
 21
-55.34680385143883
 31
0.0
  0
ARC
  5
174
330
162
100
AcDbEntity
  8
03-01
100
AcDbCircle
 10
-2.067333088294446
 20
-40.35722275700936
 30
0.0
 40
5.0
100
AcDbArc
 50
175.8192340796936
 51
197.6344183879587
  0
ARC
  5
175
330
162
100
AcDbEntity
  8
0
100
AcDbCircle
 10
-2.067333088294446
 20
-40.35722275700936
 30
0.0
 40
5.0
100
AcDbArc
 50
197.6344183879587
 51
230.9828719453432
  0
ARC
  5
176
330
162
100
AcDbEntity
  8
0
100
AcDbCircle
 10
10.54605142136597
 20
-78.76607953726534
 30
0.0
 40
4.0
100
AcDbArc
 50
112.3879922576539
 51
255.5180946118186
  0
ARC
  5
177
330
162
100
AcDbEntity
  8
0
100
AcDbCircle
 10
8.641668388459208
 20
-74.14295015729158
 30
0.0
 40
1.0
100
AcDbArc
 50
292.3879922576539
 51
345.5180946118186
  0
ARC
  5
178
330
162
100
AcDbEntity
  8
03-01
100
AcDbCircle
 10
0.0
 20
0.0
 30
0.0
 40
4.119653316495944
100
AcDbArc
 50
359.2460272369752
 51
175.8192340796936
  0
LINE
  5
179
330
162
100
AcDbEntity
  8
0
100
AcDbLine
 10
10.51398112478347
 20
-82.88906043657561
 30
0.0
 11
9.545754460038892
 21
-82.63898619624388
 31
0.0
  0
ENDBLK
  5
17A
330
162
100
AcDbEntity
  8
0
100
AcDbBlockEnd
  0
BLOCK
  5
BF
330
BC
100
AcDbEntity
  8
0
100
AcDbBlockBegin
  2
Desipumpe_937040_V
 70
     0
 10
0.0
 20
0.0
 30
0.0
  3
Desipumpe_937040_V
  1

  0
LINE
  5
C0
330
BC
100
AcDbEntity
  8
0
100
AcDbLine
 10
14.99999966472387
 20
-8.241690557494621
 30
0.0
 11
14.99999966472387
 21
-41.10446254955741
 31
0.0
  0
LINE
  5
C1
330
BC
100
AcDbEntity
  8
0
100
AcDbLine
 10
-14.99999966472387
 20
-41.10446254955741
 30
0.0
 11
-14.99999966472387
 21
-8.241690557494621
 31
0.0
  0
LWPOLYLINE
  5
C2
330
BC
100
AcDbEntity
  8
0
100
AcDbPolyline
 90
       11
 70
   128
 43
0.0
 10
14.96359147131443
 20
-41.11402909504386
 10
12.0817394927144
 20
-41.06008689152213
 10
9.12629347294569
 20
-41.01779739605399
 10
6.11525634303689
 20
-40.98739902721854
 10
3.066969104111194
 20
-40.9691004012725
 10
0.0
 20
-40.96299092518302
 10
-3.066969104111194
 20
-40.9691004012725
 10
-6.11525634303689
 20
-40.98739902721854
 10
-9.12629347294569
 20
-41.01779739605399
 10
-12.0817394927144
 20
-41.06008689152213
 10
-14.96359147131443
 20
-41.11402909504386
  0
ELLIPSE
  5
C3
330
BC
100
AcDbEntity
  8
0
100
AcDbEllipse
 10
18.0
 20
-4.03791842593273
 30
0.0
 11
-0.2484919834099526
 21
5.263192856745614
 31
0.0
210
0.0
220
0.0
230
0.9999999999999998
 40
0.9504834253762739
 41
1.580267486317548
 42
2.449768345315681
  0
ELLIPSE
  5
C4
330
BC
100
AcDbEntity
  8
0
100
AcDbEllipse
 10
-18.0
 20
-4.03791842593273
 30
0.0
 11
0.2484919834170221
 21
5.263192856745674
 31
0.0
210
0.0
220
0.0
230
1.0
 40
0.9504834253762473
 41
3.833416961865338
 42
4.702917820863312
  0
LINE
  5
C5
330
BC
100
AcDbEntity
  8
0
100
AcDbLine
 10
13.0000002682209
 20
0.0
 30
-0.0000000000000018
 11
13.0000002682209
 21
-4.323943138122558
 31
0.0
  0
LINE
  5
C6
330
BC
100
AcDbEntity
  8
0
100
AcDbLine
 10
-13.0000002682209
 20
-4.323943138122558
 30
0.0
 11
-13.0000002682209
 21
0.0
 31
-0.0000000000000018
  0
LINE
  5
C7
330
BC
100
AcDbEntity
  8
03-01
100
AcDbLine
 10
-35.44640027120659
 20
226.5348919169746
 30
0.0
 11
-35.489521920681
 21
225.2999940537848
 31
0.0
  0
LINE
  5
C8
330
BC
100
AcDbEntity
  8
03-01
100
AcDbLine
 10
35.489521920681
 20
225.2999940537848
 30
0.0
 11
-35.489521920681
 21
225.2999940537848
 31
0.0
  0
LINE
  5
C9
330
BC
100
AcDbEntity
  8
03-01
100
AcDbLine
 10
-26.7289400791733
 20
228.0348962732905
 30
0.0
 11
-26.73076838254929
 21
227.9825443401933
 31
0.0
  0
ARC
  5
CA
330
BC
100
AcDbEntity
  8
03-01
100
AcDbCircle
 10
-27.23046323316566
 20
227.9999940395355
 30
0.0
 40
0.4999999999999858
100
AcDbArc
 50
270.0
 51
358.0000000000746
  0
LINE
  5
CB
330
BC
100
AcDbEntity
  8
03-01
100
AcDbLine
 10
-29.34546396136284
 20
0.0
 30
0.0
 11
29.34546396136284
 21
0.0
 31
0.0
  0
LINE
  5
CC
330
BC
100
AcDbEntity
  8
03-01
100
AcDbLine
 10
35.50000116229057
 20
224.9999940395355
 30
0.0
 11
33.93948450684547
 21
106.0533300042152
 31
0.0
  0
LINE
  5
CD
330
BC
100
AcDbEntity
  8
03-01
100
AcDbLine
 10
33.40018186535781
 20
225.0275425463629
 30
0.0
 11
31.83966520991271
 21
106.0808785110425
 31
0.0
  0
LINE
  5
CE
330
BC
100
AcDbEntity
  8
03-01
100
AcDbLine
 10
-33.93948450684547
 20
106.0533300042152
 30
0.0
 11
-35.50000116229057
 21
224.9999940395355
 31
0.0
  0
LINE
  5
CF
330
BC
100
AcDbEntity
  8
03-01
100
AcDbLine
 10
-31.83966520991271
 20
106.0808785110425
 30
0.0
 11
-33.40018186535781
 21
225.0275425463629
 31
0.0
  0
LINE
  5
D0
330
BC
100
AcDbEntity
  8
03-01
100
AcDbLine
 10
-35.50000116229057
 20
224.9999940395355
 30
0.0
 11
35.50000116229057
 21
224.9999940395355
 31
0.0
  0
ARC
  5
D1
330
BC
100
AcDbEntity
  8
03-01
100
AcDbCircle
 10
-23.94034354855285
 20
106.1845104766498
 30
0.0
 40
10.00000000000001
100
AcDbArc
 50
180.7516470000064
 51
192.7786363657757
  0
ARC
  5
D2
330
BC
100
AcDbEntity
  8
03-01
100
AcDbCircle
 10
-23.94034354855285
 20
106.1845104766498
 30
0.0
 40
7.900000000000011
100
AcDbArc
 50
180.7516470000064
 51
192.7786363657757
  0
LINE
  5
D3
330
BC
100
AcDbEntity
  8
03-01
100
AcDbLine
 10
-30.75666166841984
 20
91.02746844291687
 30
0.0
 11
-33.69266167283058
 21
103.9726585149765
 31
0.0
  0
LINE
  5
D4
330
BC
100
AcDbEntity
  8
03-01
100
AcDbLine
 10
-28.70867470782286
 20
91.49195677347643
 30
0.0
 11
-31.64467471223361
 21
104.437146845536
 31
0.0
  0
ARC
  5
D5
330
BC
100
AcDbEntity
  8
03-01
100
AcDbCircle
 10
-40.50898116836743
 20
88.81561932607928
 30
0.0
 40
10.00000000000002
100
AcDbArc
 50
0.7499999999959149
 51
12.7786363657757
  0
ARC
  5
D6
330
BC
100
AcDbEntity
  8
03-01
100
AcDbCircle
 10
-40.50898116836743
 20
88.81561932607928
 30
0.0
 40
12.10000000000002
100
AcDbArc
 50
0.7499999999959149
 51
12.7786363657757
  0
LINE
  5
D7
330
BC
100
AcDbEntity
  8
03-01
100
AcDbLine
 10
30.5098369717598
 20
88.94652128219604
 30
0.0
 11
29.34546396136284
 21
0.0
 31
0.0
  0
LINE
  5
D8
330
BC
100
AcDbEntity
  8
03-01
100
AcDbLine
 10
28.41001688362758
 20
88.97400941553815
 30
0.0
 11
27.24564387323062
 21
0.0274881333421036
 31
0.0
  0
LINE
  5
D9
330
BC
100
AcDbEntity
  8
03-01
100
AcDbLine
 10
-29.34546396136284
 20
0.0
 30
0.0
 11
-30.5098369717598
 21
88.94652128219604
 31
0.0
  0
LINE
  5
DA
330
BC
100
AcDbEntity
  8
03-01
100
AcDbLine
 10
-27.24564387322971
 20
0.0274881333421036
 30
0.0
 11
-28.41001688362667
 21
88.97400941553815
 31
0.0
  0
ARC
  5
DB
330
BC
100
AcDbEntity
  8
03-01
100
AcDbCircle
 10
-34.44700889223168
 20
226.4999939836562
 30
0.0
 40
1.0
100
AcDbArc
 50
89.9999715032462
 51
178.0000906243826
  0
ARC
  5
DC
330
BC
100
AcDbEntity
  8
03-01
100
AcDbCircle
 10
23.94034354855376
 20
106.1845104766498
 30
0.0
 40
10.00000000000001
100
AcDbArc
 50
347.2213636342243
 51
359.2483529999936
  0
ARC
  5
DD
330
BC
100
AcDbEntity
  8
03-01
100
AcDbCircle
 10
23.94034354855376
 20
106.1845104766498
 30
0.0
 40
7.900000000000011
100
AcDbArc
 50
347.2213636342243
 51
359.2483529999936
  0
LINE
  5
DE
330
BC
100
AcDbEntity
  8
03-01
100
AcDbLine
 10
30.75666166841984
 20
91.02746844291687
 30
0.0
 11
33.69266167283058
 21
103.9726585149765
 31
0.0
  0
LINE
  5
DF
330
BC
100
AcDbEntity
  8
03-01
100
AcDbLine
 10
28.70867470782332
 20
91.49195677347643
 30
0.0
 11
31.64467471223407
 21
104.437146845536
 31
0.0
  0
ARC
  5
E0
330
BC
100
AcDbEntity
  8
03-01
100
AcDbCircle
 10
40.50898116836788
 20
88.81561932607928
 30
0.0
 40
10.00000000000002
100
AcDbArc
 50
167.2213636342243
 51
179.2500000000041
  0
ARC
  5
E1
330
BC
100
AcDbEntity
  8
03-01
100
AcDbCircle
 10
40.50898116836788
 20
88.81561932607928
 30
0.0
 40
12.10000000000002
100
AcDbArc
 50
167.2213636342243
 51
179.2500000000041
  0
LINE
  5
E2
330
BC
100
AcDbEntity
  8
03-01
100
AcDbLine
 10
-34.4470083948695
 20
227.4999939836557
 30
0.0
 11
34.44700889223213
 21
227.4999939836557
 31
0.0
  0
ARC
  5
E3
330
BC
100
AcDbEntity
  8
03-01
100
AcDbCircle
 10
-25.72954487498009
 20
227.9999942295253
 30
0.0
 40
1.0
100
AcDbArc
 50
89.99974411002318
 51
177.9998629061295
  0
LINE
  5
E4
330
BC
100
AcDbEntity
  8
03-01
100
AcDbLine
 10
35.44640027120704
 20
226.5348919169746
 30
0.0
 11
35.489521920681
 21
225.2999940537848
 31
0.0
  0
LINE
  5
E5
330
BC
100
AcDbEntity
  8
03-01
100
AcDbLine
 10
26.72894007917375
 20
228.0348962732905
 30
0.0
 11
26.73076838254929
 21
227.9825443401933
 31
0.0
  0
ARC
  5
E6
330
BC
100
AcDbEntity
  8
03-01
100
AcDbCircle
 10
27.23046323316612
 20
227.9999940395355
 30
0.0
 40
0.4999999999999858
100
AcDbArc
 50
181.9999999999254
 51
270.0
  0
ARC
  5
E7
330
BC
100
AcDbEntity
  8
03-01
100
AcDbCircle
 10
34.44700889223213
 20
226.4999939836562
 30
0.0
 40
1.0
100
AcDbArc
 50
1.99990937561742
 51
90.00002849675381
  0
ARC
  5
E8
330
BC
100
AcDbEntity
  8
03-01
100
AcDbCircle
 10
25.729544874981
 20
227.9999942295253
 30
0.0
 40
1.0
100
AcDbArc
 50
2.000137093870503
 51
90.00025588996379
  0
LINE
  5
E9
330
BC
100
AcDbEntity
  8
03-01
100
AcDbLine
 10
-25.7295404088577
 20
228.9999942295153
 30
0.0
 11
25.72954040885816
 21
228.9999942295153
 31
0.0
  0
LINE
  5
EA
330
BC
100
AcDbEntity
  8
03-01
100
AcDbLine
 10
-33.69266167283058
 20
103.9726585149765
 30
0.0
 11
33.69266167283058
 21
103.9726585149765
 31
0.0
  0
LINE
  5
EB
330
BC
100
AcDbEntity
  8
03-01
100
AcDbLine
 10
-30.50983797117897
 20
88.9465212821965
 30
0.0
 11
30.5098369717598
 21
88.94652128219604
 31
0.0
  0
LINE
  5
EC
330
BC
100
AcDbEntity
  8
0
100
AcDbLine
 10
-5.248327739536762
 20
-4.850000143051147
 30
0.0
 11
-6.430027914070706
 21
-4.850000143051147
 31
0.0
  0
LINE
  5
ED
330
BC
100
AcDbEntity
  8
0
100
AcDbLine
 10
6.430027914070706
 20
-4.850000143051147
 30
0.0
 11
5.312562920153141
 21
-4.850000143051147
 31
0.0
  0
LINE
  5
EE
330
BC
100
AcDbEntity
  8
0
100
AcDbLine
 10
-7.42987560875008
 20
-3.867452576801497
 30
0.0
 11
-7.497382350265979
 21
0.0
 31
0.0
  0
ARC
  5
EF
330
BC
100
AcDbEntity
  8
0
100
AcDbCircle
 10
-6.430027914070706
 20
-3.850000143051147
 30
0.0
 40
1.0
100
AcDbArc
 50
181.0000015651618
 51
270.0
  0
LINE
  5
F0
330
BC
100
AcDbEntity
  8
0
100
AcDbLine
 10
7.497382350265979
 20
0.0
 30
0.0
 11
7.429875608750535
 21
-3.867452576801497
 31
0.0
  0
ARC
  5
F1
330
BC
100
AcDbEntity
  8
0
100
AcDbCircle
 10
6.430027914070706
 20
-3.850000143051147
 30
0.0
 40
1.0
100
AcDbArc
 50
270.0
 51
358.9999984348382
  0
LINE
  5
F2
330
BC
100
AcDbEntity
  8
0
100
AcDbLine
 10
5.322081036865711
 20
-4.848375916481018
 30
0.0
 11
4.823907278478145
 21
-7.673650979995727
 31
0.0
  0
LINE
  5
F3
330
BC
100
AcDbEntity
  8
0
100
AcDbLine
 10
-4.823909141123294
 20
-7.673650979995727
 30
0.0
 11
-5.324219353497028
 21
-4.836246371269226
 31
0.0
  0
ARC
  5
F4
330
BC
100
AcDbEntity
  8
0
100
AcDbCircle
 10
3.83909952716931
 20
-7.500005960464477
 30
0.0
 40
1.000000000000002
100
AcDbArc
 50
270.0
 51
349.9999999999948
  0
ARC
  5
F5
330
BC
100
AcDbEntity
  8
0
100
AcDbCircle
 10
-3.8390997351853
 20
-7.500005960464477
 30
0.0
 40
1.000000000000002
100
AcDbArc
 50
190.0000000000051
 51
270.0
  0
SPLINE
  5
F6
330
BC
100
AcDbEntity
  8
0
100
AcDbSpline
210
0.0
220
0.0
230
1.0
 70
     8
 71
     3
 72
    17
 73
    13
 74
     0
 42
0.0000000001
 43
0.0000000001
 40
0.0
 40
0.0
 40
0.0
 40
0.0
 40
0.0600543499638597
 40
0.1648234495280559
 40
0.2723661016691685
 40
0.3832407533501493
 40
0.4895330601902239
 40
0.5863420781005051
 40
0.6814648365672097
 40
0.7837911670314727
 40
0.8936449548470841
 40
1.0
 40
1.0
 40
1.0
 40
1.0
 10
-5.248327739536762
 20
-4.82286512851715
 30
0.0
 10
-5.258854618867644
 20
-4.82668787482271
 30
0.0
 10
-5.287746390489701
 20
-4.837179674886101
 30
0.0
 10
-4.694444456982637
 20
-4.620693885926812
 30
0.0
 10
-3.585124810742854
 20
-4.278353410881663
 30
0.0
 10
-2.015985082593942
 20
-3.937661984898568
 30
0.0
 10
-0.2361049607652603
 20
-3.784743391334814
 30
0.0
 10
1.478322220405061
 20
-3.873174061122426
 30
0.0
 10
2.997739763296522
 20
-4.134917041686094
 30
0.0
 10
4.255208798731473
 20
-4.474955176451203
 30
0.0
 10
5.150242755354156
 20
-4.78469793723525
 30
0.0
 10
5.259043076092893
 20
-4.826221548578814
 30
0.0
 10
5.312562920153141
 20
-4.846647381782531
 30
0.0
  0
LINE
  5
F7
330
BC
100
AcDbEntity
  8
0
100
AcDbLine
 10
-3.8390988484025
 20
-8.500009775161743
 30
0.0
 11
3.8390988484025
 21
-8.500009775161743
 31
0.0
  0
LINE
  5
F8
330
BC
100
AcDbEntity
  8
0
100
AcDbLine
 10
4.823907278478145
 20
-7.673650979995727
 30
0.0
 11
-4.823909141123294
 21
-7.673650979995727
 31
0.0
  0
LINE
  5
F9
330
BC
100
AcDbEntity
  8
03-01
100
AcDbLine
 10
-0.749998725950718
 20
-8.500009775161743
 30
0.0
 11
-0.45000109821558
 21
-6.999999284744262
 31
0.0
  0
LINE
  5
FA
330
BC
100
AcDbEntity
  8
03-01
100
AcDbLine
 10
0.4499992355704308
 20
-6.999999284744262
 30
0.0
 11
0.7500005885958672
 21
-8.500009775161743
 31
0.0
  0
LINE
  5
FB
330
BC
100
AcDbEntity
  8
03-01
100
AcDbLine
 10
-0.45000109821558
 20
-6.999999284744262
 30
0.0
 11
-0.45000109821558
 21
0.0
 31
0.0
  0
LINE
  5
FC
330
BC
100
AcDbEntity
  8
03-01
100
AcDbLine
 10
-0.45000109821558
 20
-6.999999284744262
 30
0.0
 11
0.4499992355704308
 21
-6.999999284744262
 31
0.0
  0
LINE
  5
FD
330
BC
100
AcDbEntity
  8
03-01
100
AcDbLine
 10
0.4499992355704308
 20
-6.999999284744262
 30
0.0
 11
0.4499992355704308
 21
0.0
 31
0.0
  0
LINE
  5
FE
330
BC
100
AcDbEntity
  8
03-01
100
AcDbLine
 10
-27.58297277337443
 20
25.79606223106384
 30
0.0
 11
27.58297277337488
 21
25.79606223106384
 31
0.0
  0
LINE
  5
FF
330
BC
100
AcDbEntity
  8
03-01
100
AcDbLine
 10
-27.53715529251485
 20
22.29606223106384
 30
0.0
 11
27.53715529251531
 21
22.29606223106384
 31
0.0
  0
LINE
  5
100
330
BC
100
AcDbEntity
  8
03-01
100
AcDbLine
 10
-29.97381789251085
 20
47.99999296665191
 30
0.0
 11
29.97381789251085
 21
47.99999296665191
 31
0.0
  0
LINE
  5
101
330
BC
100
AcDbEntity
  8
03-01
100
AcDbLine
 10
-24.6454639613628
 20
45.99998891353652
 30
0.0
 11
-29.94763642181863
 21
45.99998891353698
 31
0.0
  0
LINE
  5
102
330
BC
100
AcDbEntity
  8
03-01
100
AcDbLine
 10
-24.6454639613628
 20
0.0
 30
0.0
 11
-24.6454639613628
 21
45.99998891353652
 31
0.0
  0
LINE
  5
103
330
BC
100
AcDbEntity
  8
03-01
100
AcDbLine
 10
24.6454639613628
 20
45.99998891353652
 30
0.0
 11
29.94763642181863
 21
45.99998891353698
 31
0.0
  0
LINE
  5
104
330
BC
100
AcDbEntity
  8
03-01
100
AcDbLine
 10
24.6454639613628
 20
0.0
 30
0.0
 11
24.6454639613628
 21
45.99998891353652
 31
0.0
  0
ENDBLK
  5
105
330
BC
100
AcDbEntity
  8
0
100
AcDbBlockEnd
  0
BLOCK
  5
10A
330
107
100
AcDbEntity
  8
0
100
AcDbBlockBegin
  2
Desipumpe_937040_S
 70
     0
 10
0.0
 20
0.0
 30
0.0
  3
Desipumpe_937040_S
  1

  0
LINE
  5
10B
330
107
100
AcDbEntity
  8
03-01
100
AcDbLine
 10
54.27379161119461
 20
-50.84998905658721
 30
0.0
 11
55.45549178572844
 21
-50.84998905658721
 31
0.0
  0
LINE
  5
10C
330
107
100
AcDbEntity
  8
03-01
100
AcDbLine
 10
42.59543595758725
 20
-50.84998905658721
 30
0.0
 11
43.7129009515047
 21
-50.84998905658721
 31
0.0
  0
LINE
  5
10D
330
107
100
AcDbEntity
  8
03-01
100
AcDbLine
 10
56.45533948040804
 20
-49.86744149033757
 30
0.0
 11
56.52284622192382
 21
-45.99998891353607
 31
0.0
  0
ARC
  5
10E
330
107
100
AcDbEntity
  8
03-01
100
AcDbCircle
 10
55.45549178572844
 20
-49.84998905658722
 30
0.0
 40
1.0
100
AcDbArc
 50
270.0
 51
358.9999984348382
  0
LINE
  5
10F
330
107
100
AcDbEntity
  8
03-01
100
AcDbLine
 10
41.52808152139186
 20
-45.99998891353607
 30
0.0
 11
41.59558826290765
 21
-49.86744149033757
 31
0.0
  0
ARC
  5
110
330
107
100
AcDbEntity
  8
03-01
100
AcDbCircle
 10
42.59543595758725
 20
-49.84998905658722
 30
0.0
 40
1.0
100
AcDbArc
 50
181.0000015651618
 51
270.0
  0
LINE
  5
111
330
107
100
AcDbEntity
  8
03-01
100
AcDbLine
 10
43.70338283479213
 20
-50.84836483001708
 30
0.0
 11
44.2015565931797
 21
-53.67363989353179
 31
0.0
  0
LINE
  5
112
330
107
100
AcDbEntity
  8
03-01
100
AcDbLine
 10
53.84937301278114
 20
-53.67363989353179
 30
0.0
 11
54.34968322515487
 21
-50.83623528480529
 31
0.0
  0
ARC
  5
113
330
107
100
AcDbEntity
  8
03-01
100
AcDbCircle
 10
45.18636434448888
 20
-53.49999487400054
 30
0.0
 40
1.000000000000002
100
AcDbArc
 50
190.000000000005
 51
270.0
  0
ARC
  5
114
330
107
100
AcDbEntity
  8
03-01
100
AcDbCircle
 10
52.86456360684349
 20
-53.49999487400054
 30
0.0
 40
1.000000000000002
100
AcDbArc
 50
270.0
 51
349.999999999995
  0
SPLINE
  5
115
330
107
100
AcDbEntity
  8
03-01
100
AcDbSpline
210
0.0
220
0.0
230
1.0
 70
     8
 71
     3
 72
    17
 73
    13
 74
     0
 42
0.0000000001
 43
0.0000000001
 40
0.0
 40
0.0
 40
0.0
 40
0.0
 40
0.0600543499638597
 40
0.1648234495280559
 40
0.2723661016691685
 40
0.3832407533501493
 40
0.4895330601902239
 40
0.5863420781005051
 40
0.6814648365672097
 40
0.7837911670314727
 40
0.8936449548470841
 40
1.0
 40
1.0
 40
1.0
 40
1.0
 10
54.27379161119461
 20
-50.82285404205322
 30
0.0
 10
54.28431849052561
 20
-50.82667678835878
 30
0.0
 10
54.31321026214778
 20
-50.83716858842217
 30
0.0
 10
53.71990832864082
 20
-50.62068279946288
 30
0.0
 10
52.61058868240081
 20
-50.27834232441773
 30
0.0
 10
51.04144895425168
 20
-49.93765089843464
 30
0.0
 10
49.26156883242334
 20
-49.78473230487089
 30
0.0
 10
47.54714165125267
 20
-49.8731629746585
 30
0.0
 10
46.02772410836132
 20
-50.13490595522217
 30
0.0
 10
44.77025507292672
 20
-50.47494408998727
 30
0.0
 10
43.87522111630414
 20
-50.78468685077132
 30
0.0
 10
43.76642079556484
 20
-50.82621046211489
 30
0.0
 10
43.7129009515047
 20
-50.8466362953186
 30
0.0
  0
LINE
  5
116
330
107
100
AcDbEntity
  8
03-01
100
AcDbLine
 10
52.86456272006034
 20
-54.49999868869781
 30
0.0
 11
45.18636502325534
 21
-54.49999868869781
 31
0.0
  0
LINE
  5
117
330
107
100
AcDbEntity
  8
03-01
100
AcDbLine
 10
-32.26552441788283
 20
180.5349055224401
 30
0.0
 11
-32.31912579028165
 21
179.0000051259994
 31
0.0
  0
ARC
  5
118
330
107
100
AcDbEntity
  8
03-01
100
AcDbCircle
 10
-31.26613362423518
 20
180.5000050701201
 30
0.0
 40
1.0
100
AcDbArc
 50
90.0
 51
177.9999452137744
  0
LINE
  5
119
330
107
100
AcDbEntity
  8
03-01
100
AcDbLine
 10
65.22727616265388
 20
180.5349030034381
 30
0.0
 11
65.28087357359971
 21
179.0000051259994
 31
0.0
  0
LINE
  5
11A
330
107
100
AcDbEntity
  8
03-01
100
AcDbLine
 10
-14.36319055131537
 20
181.5000050701201
 30
0.0
 11
-31.26613362423518
 21
181.5000050701201
 31
0.0
  0
LINE
  5
11B
330
107
100
AcDbEntity
  8
03-01
100
AcDbLine
 10
-10.27505968875505
 20
181.5000050701201
 30
0.0
 11
62.22067773342132
 21
181.5000050701201
 31
0.0
  0
SPLINE
  5
11C
330
107
100
AcDbEntity
  8
03-01
100
AcDbSpline
210
0.0
220
0.0
230
1.0
 70
    24
 71
     3
 72
     9
 73
     5
 74
     0
 42
0.0000000001
 43
0.0000000001
 40
0.0
 40
0.0
 40
0.0
 40
0.0
 40
0.5000826474199004
 40
1.0
 40
1.0
 40
1.0
 40
1.0
 10
62.22067773342132
 20
181.5000050701201
 30
0.0
 10
62.51850415890761
 20
181.5000050701201
 30
0.0
 10
63.11405856780936
 20
181.5000050701201
 30
0.0
 10
63.57862267001519
 20
181.5000050701201
 30
0.0
 10
63.81086632609367
 20
181.5000050701201
 30
0.0
  0
SPLINE
  5
11D
330
107
100
AcDbEntity
  8
03-01
100
AcDbSpline
210
0.0
220
0.0
230
1.0
 70
    24
 71
     3
 72
     8
 73
     4
 74
     0
 42
0.0000000001
 43
0.0000000001
 40
0.0
 40
0.0
 40
0.0
 40
0.0
 40
0.4052512809765209
 40
0.4052512809765209
 40
0.4052512809765209
 40
0.4052512809765209
 10
63.81086632609367
 20
181.5000050701201
 30
0.0
 10
63.96390967109221
 20
181.5000050701201
 30
0.0
 10
64.1169530160904
 20
181.5000050701201
 30
0.0
 10
64.22788441768614
 20
181.5000050701201
 30
0.0
  0
LINE
  5
11E
330
107
100
AcDbEntity
  8
03-01
100
AcDbLine
 10
-32.01911970973015
 20
167.8444556891918
 30
0.0
 11
-30.56292616128383
 21
167.7936046212057
 31
0.0
  0
ARC
  5
11F
330
107
100
AcDbEntity
  8
03-01
100
AcDbCircle
 10
-32.00864845348622
 20
168.1442727466478
 30
0.0
 40
0.3000000000000114
100
AcDbArc
 50
180.0
 51
268.0000000000094
  0
LINE
  5
120
330
107
100
AcDbEntity
  8
03-01
100
AcDbLine
 10
-32.30864927172661
 20
168.1442726403474
 30
0.0
 11
-32.30864927172661
 21
171.0000047460198
 31
0.0
  0
LINE
  5
121
330
107
100
AcDbEntity
  8
03-01
100
AcDbLine
 10
-30.70912510156643
 20
179.0000051259994
 30
0.0
 11
65.29087573289871
 21
179.0000051259994
 31
0.0
  0
LINE
  5
122
330
107
100
AcDbEntity
  8
03-01
100
AcDbLine
 10
-29.18425947427749
 20
62.11642920970916
 30
0.0
 11
-30.70912510156631
 21
179.0000051259994
 31
0.0
  0
LINE
  5
123
330
107
100
AcDbEntity
  8
03-01
100
AcDbLine
 10
-27.08443816007559
 20
62.14382352341317
 30
0.0
 11
-28.60894640056301
 21
179.0000051259994
 31
0.0
  0
ARC
  5
124
330
107
100
AcDbEntity
  8
03-01
100
AcDbCircle
 10
-24.18468461290274
 20
62.18165143625402
 30
0.0
 40
5.000000000000079
100
AcDbArc
 50
180.7474394900076
 51
244.621099670281
  0
ARC
  5
125
330
107
100
AcDbEntity
  8
03-01
100
AcDbCircle
 10
-24.18468461290274
 20
62.18165143625402
 30
0.0
 40
2.900000000000078
100
AcDbArc
 50
180.7474394900076
 51
244.621099670281
  0
LINE
  5
126
330
107
100
AcDbEntity
  8
03-01
100
AcDbLine
 10
-25.73329955339432
 20
57.38221108913421
 30
0.0
 11
-26.327695697546
 21
57.66418576240539
 31
0.0
  0
LINE
  5
127
330
107
100
AcDbEntity
  8
03-01
100
AcDbLine
 10
63.70653958010564
 20
57.97266960144042
 30
0.0
 11
-26.88366069916412
 21
57.97266960144042
 31
0.0
  0
LWPOLYLINE
  5
128
330
107
100
AcDbEntity
  8
03-01
100
AcDbPolyline
 90
        4
 70
     0
 43
0.0
 10
-22.66307175159454
 20
55.92574924230575
 10
-23.67714419960976
 20
56.40680342912673
 10
-24.70222488045692
 20
56.89308792352676
 10
-25.73329955339432
 20
57.38221108913421
  0
LINE
  5
129
330
107
100
AcDbEntity
  8
03-01
100
AcDbLine
 10
-0.3393944352865219
 20
45.33575475215911
 30
0.0
 11
-22.66307175159454
 21
55.92574924230575
 31
0.0
  0
LINE
  5
12A
330
107
100
AcDbEntity
  8
03-01
100
AcDbLine
 10
0.5606711003200644
 20
47.23309026060587
 30
0.0
 11
-25.43128594496045
 21
59.5632578220484
 31
0.0
  0
ARC
  5
12B
330
107
100
AcDbEntity
  8
03-01
100
AcDbCircle
 10
-2.48240635105742
 20
40.81829232613062
 30
0.0
 40
5.000000000000079
100
AcDbArc
 50
37.52392776272009
 51
64.6210996702694
  0
ARC
  5
12C
330
107
100
AcDbEntity
  8
03-01
100
AcDbCircle
 10
-2.48240635105742
 20
40.81829232613062
 30
0.0
 40
7.100000000000079
100
AcDbArc
 50
37.52392776272009
 51
64.6210996702694
  0
SPLINE
  5
12D
330
107
100
AcDbEntity
  8
03-01
100
AcDbSpline
210
0.0
220
0.0
230
1.0
 70
     8
 71
     3
 72
    10
 73
     6
 74
     0
 42
0.0000000001
 43
0.0000000001
 40
0.0
 40
0.0
 40
0.0
 40
0.0
 40
0.5
 40
0.5
 40
1.0
 40
1.0
 40
1.0
 40
1.0
 10
2.330577857009188
 20
42.17298159415577
 30
0.0
 10
2.242162194065144
 20
42.48710764471161
 30
0.0
 10
2.125853053799005
 20
42.78384821888903
 30
0.0
 10
1.842353234662482
 20
43.34730779380334
 30
0.0
 10
1.67356316210396
 20
43.61573937878438
 30
0.0
 10
1.483088855134042
 20
43.86375579983587
 30
0.0
  0
SPLINE
  5
12E
330
107
100
AcDbEntity
  8
03-01
100
AcDbSpline
210
0.0
220
0.0
230
1.0
 70
     8
 71
     3
 72
    12
 73
     8
 74
     0
 42
0.0000000001
 43
0.0000000001
 40
0.0
 40
0.0
 40
0.0
 40
0.0
 40
0.4970186212892235
 40
0.4970186212892235
 40
0.9135240146987644
 40
0.9135240146987644
 40
1.0
 40
1.0
 40
1.0
 40
1.0
 10
4.352031224397023
 20
42.74195108672666
 30
0.0
 10
4.227676982156822
 20
43.18376089376807
 30
0.0
 10
4.062577450293474
 20
43.60577625091354
 30
0.0
 10
3.696894126629103
 20
44.33459901998276
 30
0.0
 10
3.502687588386947
 20
44.65567469998041
 30
0.0
 10
3.241436419837214
 20
45.01989211361115
 30
0.0
 10
3.195514748688765
 20
45.0817586950202
 30
0.0
 10
3.148596841734729
 20
45.14285045879205
 30
0.0
  0
LINE
  5
12F
330
107
100
AcDbEntity
  8
03-01
100
AcDbLine
 10
63.50983679294586
 20
42.94653236865997
 30
0.0
 11
2.042055443915955
 21
42.94653236865997
 31
0.0
  0
LINE
  5
130
330
107
100
AcDbEntity
  8
03-01
100
AcDbLine
 10
0.0
 20
0.0
 30
0.0
 11
-2.399999648332595
 21
0.0
 31
0.0
  0
LINE
  5
131
330
107
100
AcDbEntity
  8
03-01
100
AcDbLine
 10
-2.399999648332595
 20
0.0
 30
0.0
 11
-3.100000321865081
 21
-45.99998891353607
 31
0.0
  0
LINE
  5
132
330
107
100
AcDbEntity
  8
03-01
100
AcDbLine
 10
-4.37028098932069
 20
1.968154628321826
 30
0.0
 11
-5.099768792520308
 21
-45.969557617585
 31
0.0
  0
LINE
  5
133
330
107
100
AcDbEntity
  8
03-01
100
AcDbLine
 10
0.0
 20
-45.99998891353607
 30
0.0
 11
0.0
 21
0.0
 31
0.0
  0
LINE
  5
134
330
107
100
AcDbEntity
  8
03-01
100
AcDbLine
 10
2.0
 20
-45.99998891353607
 30
0.0
 11
2.0
 21
-0.4999959468841553
 31
0.0
  0
ARC
  5
135
330
107
100
AcDbEntity
  8
03-01
100
AcDbCircle
 10
-2.48240635105742
 20
40.81829232613062
 30
0.0
 40
5.000000000000039
100
AcDbArc
 50
0.7499999999959149
 51
15.7200822183791
  0
ARC
  5
136
330
107
100
AcDbEntity
  8
03-01
100
AcDbCircle
 10
-2.48240635105742
 20
40.81829232613062
 30
0.0
 40
7.100000000000038
100
AcDbArc
 50
0.7499999999959149
 51
15.7200822183791
  0
LINE
  5
137
330
107
100
AcDbEntity
  8
03-01
100
AcDbLine
 10
62.3454637825489
 20
-45.99998891353607
 30
0.0
 11
-6.345463916659241
 21
-45.99998891353607
 31
0.0
  0
LINE
  5
138
330
107
100
AcDbEntity
  8
03-01
100
AcDbLine
 10
65.29087318836388
 20
179.0000051259994
 30
0.0
 11
62.3454637825489
 21
-45.99998891353607
 31
0.0
  0
LINE
  5
139
330
107
100
AcDbEntity
  8
03-01
100
AcDbLine
 10
63.19069326108172
 20
179.0000051259994
 30
0.0
 11
60.24564369441634
 21
-45.97250078019397
 31
0.0
  0
LINE
  5
13A
330
107
100
AcDbEntity
  8
03-01
100
AcDbLine
 10
3.02618101071755
 20
2.000004053115844
 30
0.0
 11
2.51716561615467
 21
40.88373482227325
 31
0.0
  0
LINE
  5
13B
330
107
100
AcDbEntity
  8
03-01
100
AcDbLine
 10
5.069927057361155
 20
6.310993148681063
 30
0.0
 11
4.616985704430476
 21
40.91122294467322
 31
0.0
  0
LINE
  5
13C
330
107
100
AcDbEntity
  8
03-01
100
AcDbLine
 10
-3.934290260076522
 20
2.000004053115844
 30
0.0
 11
3.02618101071755
 21
2.000004053115844
 31
0.0
  0
ARC
  5
13D
330
107
100
AcDbEntity
  8
03-01
100
AcDbCircle
 10
-3.934289553779422
 20
-0.9999948740005493
 30
0.0
 40
3.000000000000047
100
AcDbArc
 50
90.0
 51
180.7499999999959
  0
LINE
  5
13E
330
107
100
AcDbEntity
  8
03-01
100
AcDbLine
 10
-6.345463916659355
 20
-45.99998891353607
 30
0.0
 11
-6.934031844139099
 21
-1.03926658630371
 31
0.0
  0
LINE
  5
13F
330
107
100
AcDbEntity
  8
03-01
100
AcDbLine
 10
-34.05806049704552
 20
171.4912788011133
 30
0.0
 11
-34.189123660326
 21
179.0000051259994
 31
0.0
  0
LINE
  5
140
330
107
100
AcDbEntity
  8
03-01
100
AcDbLine
 10
-34.189123660326
 20
179.0000051259994
 30
0.0
 11
-30.70912510156631
 21
179.0000051259994
 31
0.0
  0
LINE
  5
141
330
107
100
AcDbEntity
  8
03-01
100
AcDbLine
 10
-30.60475692578029
 20
171.0000047460198
 30
0.0
 11
-33.55813398957252
 21
171.0000047460198
 31
0.0
  0
ARC
  5
142
330
107
100
AcDbEntity
  8
03-01
100
AcDbCircle
 10
-33.55813553335008
 20
171.5000051259994
 30
0.0
 40
0.5000000000001137
100
AcDbArc
 50
181.0000000000278
 51
270.0
  0
LINE
  5
143
330
107
100
AcDbEntity
  8
03-01
100
AcDbLine
 10
44.2015565931797
 20
-53.67363989353179
 30
0.0
 11
53.84937301278114
 21
-53.67363989353179
 31
0.0
  0
LINE
  5
144
330
107
100
AcDbEntity
  8
03-01
100
AcDbLine
 10
-13.63273524190833
 20
172.491278711283
 30
0.0
 11
-13.51912505924701
 21
179.0000051259994
 31
0.0
  0
LINE
  5
145
330
107
100
AcDbEntity
  8
03-01
100
AcDbLine
 10
-28.51762424826905
 20
172.0000049099326
 30
0.0
 11
-14.13265908956623
 21
172.0000049099326
 31
0.0
  0
ARC
  5
146
330
107
100
AcDbEntity
  8
03-01
100
AcDbCircle
 10
-14.13265908956623
 20
172.5000049099326
 30
0.0
 40
0.5
100
AcDbArc
 50
270.0
 51
359.0000005236813
  0
LINE
  5
147
330
107
100
AcDbEntity
  8
03-01
100
AcDbLine
 10
16.73648831796004
 20
-20.20392668247223
 30
0.0
 11
5.069927057361155
 21
6.310993148681063
 31
0.0
  0
LINE
  5
148
330
107
100
AcDbEntity
  8
03-01
100
AcDbLine
 10
14.45266796532439
 20
-23.70392668247223
 30
0.0
 11
4.242941474076701
 21
-0.4999959468841553
 31
0.0
  0
LINE
  5
149
330
107
100
AcDbEntity
  8
03-01
100
AcDbLine
 10
60.57642724015216
 20
-20.20392668247223
 30
0.0
 11
16.73648831796004
 21
-20.20392668247223
 31
0.0
  0
LINE
  5
14A
330
107
100
AcDbEntity
  8
03-01
100
AcDbLine
 10
60.53060975929247
 20
-23.70392668247223
 30
0.0
 11
14.45266796532439
 21
-23.70392668247223
 31
0.0
  0
LINE
  5
14B
330
107
100
AcDbEntity
  8
03-01
100
AcDbLine
 10
49.77546259760856
 20
-54.49999868869781
 30
0.0
 11
49.47546496987342
 21
-52.99998819828033
 31
0.0
  0
LINE
  5
14C
330
107
100
AcDbEntity
  8
03-01
100
AcDbLine
 10
48.57546463608741
 20
-52.99998819828033
 30
0.0
 11
48.27546328306198
 21
-54.49999868869781
 31
0.0
  0
ARC
  5
14D
330
107
100
AcDbEntity
  8
03-01
100
AcDbCircle
 10
64.22788484936393
 20
180.5000050701201
 30
0.0
 40
1.0
100
AcDbArc
 50
1.999909506936956
 51
90.0000247333155
  0
LINE
  5
14E
330
107
100
AcDbEntity
  8
03-01
100
AcDbLine
 10
-12.31912512003521
 20
180.0000051390379
 30
0.0
 11
-12.31912512003521
 21
180.5000051390379
 31
0.0
  0
ARC
  5
14F
330
107
100
AcDbEntity
  8
03-01
100
AcDbCircle
 10
-12.31912512003521
 20
183.0891069922327
 30
0.0
 40
2.589101853194733
100
AcDbArc
 50
217.8622888067998
 51
322.1377111932002
  0
LINE
  5
150
330
107
100
AcDbEntity
  8
03-01
100
AcDbLine
 10
2.0
 20
-0.4999959468841553
 30
0.0
 11
4.242941474076701
 21
-0.4999959468841553
 31
0.0
  0
LINE
  5
151
330
107
100
AcDbEntity
  8
03-01
100
AcDbLine
 10
-12.31912512003521
 20
180.5000051390379
 30
0.0
 11
-12.31912512003521
 21
180.0000051390379
 31
0.0
  0
LINE
  5
152
330
107
100
AcDbEntity
  8
03-01
100
AcDbLine
 10
-12.31912512003521
 20
180.0000051390379
 30
0.0
 11
-13.51912505924701
 21
179.0000051259994
 31
0.0
  0
LINE
  5
153
330
107
100
AcDbEntity
  8
03-01
100
AcDbLine
 10
-11.31912510699692
 20
179.0000051259994
 30
0.0
 11
-9.319125106996693
 21
177.0000051259994
 31
0.0
  0
LINE
  5
154
330
107
100
AcDbEntity
  8
03-01
100
AcDbLine
 10
-9.319125106996693
 20
177.0000051259994
 30
0.0
 11
63.06451184344758
 21
177.0000051259994
 31
0.0
  0
LINE
  5
155
330
107
100
AcDbEntity
  8
03-01
100
AcDbLine
 10
-11.31912510699692
 20
179.0000051259994
 30
0.0
 11
-12.31912512003521
 21
180.0000051390379
 31
0.0
  0
LINE
  5
156
330
107
100
AcDbEntity
  8
03-01
100
AcDbLine
 10
63.09069326108181
 20
179.0000051259994
 30
0.0
 11
63.06451184344758
 21
177.0000051259994
 31
0.0
  0
LINE
  5
157
330
107
100
AcDbEntity
  8
03-01
100
AcDbLine
 10
49.47546496987342
 20
-52.99998819828033
 30
0.0
 11
49.47546496987342
 21
-45.99998891353607
 31
0.0
  0
LINE
  5
158
330
107
100
AcDbEntity
  8
03-01
100
AcDbLine
 10
49.47546496987342
 20
-52.99998819828033
 30
0.0
 11
48.57546463608741
 21
-52.99998819828033
 31
0.0
  0
LINE
  5
159
330
107
100
AcDbEntity
  8
03-01
100
AcDbLine
 10
48.57546463608741
 20
-52.99998819828033
 30
0.0
 11
48.57546463608741
 21
-45.99998891353607
 31
0.0
  0
LINE
  5
15A
330
107
100
AcDbEntity
  8
03-01
100
AcDbLine
 10
56.02575300866158
 20
182.0349073038751
 30
0.0
 11
56.02758131203734
 21
181.9825553707778
 31
0.0
  0
ARC
  5
15B
330
107
100
AcDbEntity
  8
03-01
100
AcDbCircle
 10
56.52727616265394
 20
182.0000050701201
 30
0.0
 40
0.4999999999999858
100
AcDbArc
 50
181.9999999999254
 51
270.0
  0
ARC
  5
15C
330
107
100
AcDbEntity
  8
03-01
100
AcDbCircle
 10
55.02635780446849
 20
182.0000052601099
 30
0.0
 40
1.0
100
AcDbArc
 50
2.000137093870475
 51
90.00025588997031
  0
LINE
  5
15D
330
107
100
AcDbEntity
  8
03-01
100
AcDbLine
 10
-4.471200683353686
 20
182.0349073038751
 30
0.0
 11
-4.473028986729445
 21
181.9825553707778
 31
0.0
  0
ARC
  5
15E
330
107
100
AcDbEntity
  8
03-01
100
AcDbCircle
 10
-4.972723837346052
 20
182.0000050701201
 30
0.0
 40
0.4999999999999858
100
AcDbArc
 50
270.0
 51
358.0000000000747
  0
ARC
  5
15F
330
107
100
AcDbEntity
  8
03-01
100
AcDbCircle
 10
-3.471805479160707
 20
182.0000052601099
 30
0.0
 40
1.0
100
AcDbArc
 50
89.9997441100297
 51
177.9998629061295
  0
LINE
  5
160
330
107
100
AcDbEntity
  8
03-01
100
AcDbLine
 10
55.02635333834598
 20
183.0000052600999
 30
0.0
 11
-3.471801013038202
 21
183.0000052600999
 31
0.0
  0
INSERT
  5
161
330
107
100
AcDbEntity
  8
09-01
100
AcDbBlockReference
  2
Zughebel01_s
 10
0.1765799425362502
 20
-4.128053999912935
 30
0.0
  0
ENDBLK
  5
17B
330
107
100
AcDbEntity
  8
0
100
AcDbBlockEnd
  0
BLOCK
  5
29C
330
29B
100
AcDbEntity
  8
0
100
AcDbBlockBegin
  2
*D5
 70
     1
 10
0.0
 20
0.0
 30
0.0
  3
*D5
  1

  0
LINE
  5
29D
330
29B
100
AcDbEntity
  8
09-01
 62
     4
370
    -2
100
AcDbLine
 10
1174.347704083511
 20
273.6025228044054
 30
0.0
 11
1154.163308156264
 21
273.6025228044054
 31
0.0
  0
LINE
  5
29E
330
29B
100
AcDbEntity
  8
09-01
 62
     4
370
    -2
100
AcDbLine
 10
1169.347704083475
 20
571.6025228044054
 30
0.0
 11
1154.163308156265
 21
571.6025228044054
 31
0.0
  0
LINE
  5
29F
330
29B
100
AcDbEntity
  8
09-01
 62
     4
370
    -2
100
AcDbLine
 10
1156.163308156265
 20
278.6025228044055
 30
0.0
 11
1156.163308156265
 21
566.6025228044055
 31
0.0
  0
SOLID
  5
2A0
330
29B
100
AcDbEntity
  8
09-01
 62
     4
100
AcDbTrace
 10
1155.329974822931
 20
278.6025228044055
 30
0.0
 11
1156.996641489598
 21
278.6025228044055
 31
0.0
 12
1156.163308156265
 22
273.6025228044054
 32
0.0
 13
1156.163308156265
 23
273.6025228044054
 33
0.0
  0
SOLID
  5
2A1
330
29B
100
AcDbEntity
  8
09-01
 62
     4
100
AcDbTrace
 10
1155.329974822931
 20
566.6025228044055
 30
0.0
 11
1156.996641489598
 21
566.6025228044055
 31
0.0
 12
1156.163308156265
 22
571.6025228044054
 32
0.0
 13
1156.163308156265
 23
571.6025228044054
 33
0.0
  0
MTEXT
  5
2A2
330
29B
100
AcDbEntity
  8
09-01
 62
     1
100
AcDbMText
 10
1151.663308156265
 20
422.6025228044056
 30
0.0
 40
5.0
 41
0.0
 46
0.0
 71
     5
 72
     1
  1
298
 11
0.0000000000000001
 21
1.0
 31
0.0
 73
     1
 44
1.0
  0
POINT
  5
2A3
330
29B
100
AcDbEntity
  8
Defpoints
 62
     0
100
AcDbPoint
 10
1176.347704083511
 20
273.6025228044054
 30
0.0
  0
POINT
  5
2A4
330
29B
100
AcDbEntity
  8
Defpoints
 62
     0
100
AcDbPoint
 10
1171.347704083475
 20
571.6025228044054
 30
0.0
  0
POINT
  5
2A5
330
29B
100
AcDbEntity
  8
Defpoints
 62
     0
100
AcDbPoint
 10
1156.163308156265
 20
571.6025228044054
 30
0.0
  0
ENDBLK
  5
2A6
330
29B
100
AcDbEntity
  8
0
100
AcDbBlockEnd
  0
BLOCK
  5
208
330
207
100
AcDbEntity
  8
0
100
AcDbBlockBegin
  2
*D6
 70
     1
 10
0.0
 20
0.0
 30
0.0
  3
*D6
  1

  0
LINE
  5
209
330
207
100
AcDbEntity
  8
09-01
 62
     4
370
    -2
100
AcDbLine
 10
1009.730606674595
 20
233.9740493500831
 30
0.0
 11
1009.730606674595
 21
239.7091964564461
 31
0.0
  0
LINE
  5
20A
330
207
100
AcDbEntity
  8
09-01
 62
     4
370
    -2
100
AcDbLine
 10
1089.730606674595
 20
233.9740493500831
 30
0.0
 11
1089.730606674595
 21
239.7091964564461
 31
0.0
  0
LINE
  5
20B
330
207
100
AcDbEntity
  8
09-01
 62
     4
370
    -2
100
AcDbLine
 10
1014.730606674595
 20
237.7091964564461
 30
0.0
 11
1084.730606674595
 21
237.7091964564461
 31
0.0
  0
SOLID
  5
20C
330
207
100
AcDbEntity
  8
09-01
 62
     4
100
AcDbTrace
 10
1014.730606674595
 20
238.5425297897794
 30
0.0
 11
1014.730606674595
 21
236.8758631231127
 31
0.0
 12
1009.730606674595
 22
237.7091964564461
 32
0.0
 13
1009.730606674595
 23
237.7091964564461
 33
0.0
  0
SOLID
  5
20D
330
207
100
AcDbEntity
  8
09-01
 62
     4
100
AcDbTrace
 10
1084.730606674595
 20
238.5425297897794
 30
0.0
 11
1084.730606674595
 21
236.8758631231127
 31
0.0
 12
1089.730606674595
 22
237.7091964564461
 32
0.0
 13
1089.730606674595
 23
237.7091964564461
 33
0.0
  0
MTEXT
  5
20E
330
207
100
AcDbEntity
  8
09-01
 62
     1
100
AcDbMText
 10
1049.730606674595
 20
242.2091964564461
 30
0.0
 40
5.0
 41
0.0
 46
0.0
 71
     5
 72
     1
  1
80
 73
     1
 44
1.0
  0
POINT
  5
20F
330
207
100
AcDbEntity
  8
Defpoints
 62
     0
100
AcDbPoint
 10
1009.730606674595
 20
231.9740493500831
 30
0.0
  0
POINT
  5
210
330
207
100
AcDbEntity
  8
Defpoints
 62
     0
100
AcDbPoint
 10
1089.730606674595
 20
231.9740493500831
 30
0.0
  0
POINT
  5
211
330
207
100
AcDbEntity
  8
Defpoints
 62
     0
100
AcDbPoint
 10
1089.730606674595
 20
237.7091964564461
 30
0.0
  0
ENDBLK
  5
212
330
207
100
AcDbEntity
  8
0
100
AcDbBlockEnd
  0
BLOCK
  5
1FB
330
1FA
100
AcDbEntity
  8
0
100
AcDbBlockBegin
  2
*D7
 70
     1
 10
0.0
 20
0.0
 30
0.0
  3
*D7
  1

  0
LINE
  5
1FC
330
1FA
100
AcDbEntity
  8
09-01
 62
     4
370
    -2
100
AcDbLine
 10
1091.730606674595
 20
231.9740493500831
 30
0.0
 11
1104.253894893077
 21
231.9740493500831
 31
0.0
  0
LINE
  5
1FD
330
1FA
100
AcDbEntity
  8
09-01
 62
     4
370
    -2
100
AcDbLine
 10
1082.430606674595
 20
112.6740493500829
 30
0.0
 11
1104.253894893077
 21
112.6740493500829
 31
0.0
  0
LINE
  5
1FE
330
1FA
100
AcDbEntity
  8
09-01
 62
     4
370
    -2
100
AcDbLine
 10
1102.253894893077
 20
226.9740493500831
 30
0.0
 11
1102.253894893077
 21
117.6740493500829
 31
0.0
  0
SOLID
  5
1FF
330
1FA
100
AcDbEntity
  8
09-01
 62
     4
100
AcDbTrace
 10
1101.420561559744
 20
226.9740493500831
 30
0.0
 11
1103.08722822641
 21
226.9740493500831
 31
0.0
 12
1102.253894893077
 22
231.9740493500831
 32
0.0
 13
1102.253894893077
 23
231.9740493500831
 33
0.0
  0
SOLID
  5
200
330
1FA
100
AcDbEntity
  8
09-01
 62
     4
100
AcDbTrace
 10
1101.420561559744
 20
117.6740493500829
 30
0.0
 11
1103.08722822641
 21
117.6740493500829
 31
0.0
 12
1102.253894893077
 22
112.6740493500829
 32
0.0
 13
1102.253894893077
 23
112.6740493500829
 33
0.0
  0
MTEXT
  5
201
330
1FA
100
AcDbEntity
  8
09-01
 62
     1
100
AcDbMText
 10
1097.753894893077
 20
172.3240493500832
 30
0.0
 40
5.0
 41
0.0
 46
0.0
 71
     5
 72
     1
  1
119.3
 11
0.0000000000000001
 21
1.0
 31
0.0
 73
     1
 44
1.0
  0
POINT
  5
202
330
1FA
100
AcDbEntity
  8
Defpoints
 62
     0
100
AcDbPoint
 10
1089.730606674595
 20
231.9740493500831
 30
0.0
  0
POINT
  5
203
330
1FA
100
AcDbEntity
  8
Defpoints
 62
     0
100
AcDbPoint
 10
1080.430606674595
 20
112.6740493500829
 30
0.0
  0
POINT
  5
204
330
1FA
100
AcDbEntity
  8
Defpoints
 62
     0
100
AcDbPoint
 10
1102.253894893077
 20
112.6740493500829
 30
0.0
  0
ENDBLK
  5
205
330
1FA
100
AcDbEntity
  8
0
100
AcDbBlockEnd
  0
BLOCK
  5
1EE
330
1ED
100
AcDbEntity
  8
0
100
AcDbBlockBegin
  2
*D8
 70
     1
 10
0.0
 20
0.0
 30
0.0
  3
*D8
  1

  0
LINE
  5
1EF
330
1ED
100
AcDbEntity
  8
09-01
 62
     4
370
    -2
100
AcDbLine
 10
1007.730606674595
 20
571.6025228044054
 30
0.0
 11
992.41536972019
 21
571.6025228044054
 31
0.0
  0
LINE
  5
1F0
330
1ED
100
AcDbEntity
  8
09-01
 62
     4
370
    -2
100
AcDbLine
 10
1017.349212946124
 20
553.1025228044054
 30
0.0
 11
992.41536972019
 21
553.1025228044054
 31
0.0
  0
LINE
  5
1F1
330
1ED
100
AcDbEntity
  8
09-01
 62
     4
370
    -2
100
AcDbLine
 10
994.4153697201899
 20
566.6025228044055
 30
0.0
 11
994.4153697201899
 21
558.1025228044054
 31
0.0
  0
SOLID
  5
1F2
330
1ED
100
AcDbEntity
  8
09-01
 62
     4
100
AcDbTrace
 10
993.5820363868566
 20
566.6025228044055
 30
0.0
 11
995.2487030535234
 21
566.6025228044055
 31
0.0
 12
994.4153697201899
 22
571.6025228044054
 32
0.0
 13
994.4153697201899
 23
571.6025228044054
 33
0.0
  0
SOLID
  5
1F3
330
1ED
100
AcDbEntity
  8
09-01
 62
     4
100
AcDbTrace
 10
993.5820363868566
 20
558.1025228044054
 30
0.0
 11
995.2487030535234
 21
558.1025228044054
 31
0.0
 12
994.4153697201899
 22
553.1025228044054
 32
0.0
 13
994.4153697201899
 23
553.1025228044054
 33
0.0
  0
MTEXT
  5
1F4
330
1ED
100
AcDbEntity
  8
09-01
 62
     1
100
AcDbMText
 10
989.9153697201899
 20
562.3525228044055
 30
0.0
 40
5.0
 41
0.0
 46
0.0
 71
     5
 72
     1
  1
18.5
 11
0.0000000000000001
 21
1.0
 31
0.0
 73
     1
 44
1.0
  0
POINT
  5
1F5
330
1ED
100
AcDbEntity
  8
Defpoints
 62
     0
100
AcDbPoint
 10
1009.730606674595
 20
571.6025228044054
 30
0.0
  0
POINT
  5
1F6
330
1ED
100
AcDbEntity
  8
Defpoints
 62
     0
100
AcDbPoint
 10
1019.349212946124
 20
553.1025228044054
 30
0.0
  0
POINT
  5
1F7
330
1ED
100
AcDbEntity
  8
Defpoints
 62
     0
100
AcDbPoint
 10
994.4153697201899
 20
553.1025228044054
 30
0.0
  0
ENDBLK
  5
1F8
330
1ED
100
AcDbEntity
  8
0
100
AcDbBlockEnd
  0
BLOCK
  5
1E1
330
1E0
100
AcDbEntity
  8
0
100
AcDbBlockBegin
  2
*D9
 70
     1
 10
0.0
 20
0.0
 30
0.0
  3
*D9
  1

  0
LINE
  5
1E2
330
1E0
100
AcDbEntity
  8
09-01
 62
     4
370
    -2
100
AcDbLine
 10
1024.24837183149
 20
553.1025228044054
 30
0.0
 11
992.41536972019
 21
553.1025228044054
 31
0.0
  0
LINE
  5
1E3
330
1E0
100
AcDbEntity
  8
09-01
 62
     4
370
    -2
100
AcDbLine
 10
1024.24837183149
 20
301.6025228044045
 30
0.0
 11
992.41536972019
 21
301.6025228044045
 31
0.0
  0
LINE
  5
1E4
330
1E0
100
AcDbEntity
  8
09-01
 62
     4
370
    -2
100
AcDbLine
 10
994.4153697201899
 20
548.1025228044054
 30
0.0
 11
994.4153697201899
 21
306.6025228044046
 31
0.0
  0
SOLID
  5
1E5
330
1E0
100
AcDbEntity
  8
09-01
 62
     4
100
AcDbTrace
 10
993.5820363868566
 20
548.1025228044054
 30
0.0
 11
995.2487030535234
 21
548.1025228044054
 31
0.0
 12
994.4153697201899
 22
553.1025228044054
 32
0.0
 13
994.4153697201899
 23
553.1025228044054
 33
0.0
  0
SOLID
  5
1E6
330
1E0
100
AcDbEntity
  8
09-01
 62
     4
100
AcDbTrace
 10
993.5820363868566
 20
306.6025228044046
 30
0.0
 11
995.2487030535234
 21
306.6025228044046
 31
0.0
 12
994.4153697201899
 22
301.6025228044045
 32
0.0
 13
994.4153697201899
 23
301.6025228044045
 33
0.0
  0
MTEXT
  5
1E7
330
1E0
100
AcDbEntity
  8
09-01
 62
     1
100
AcDbMText
 10
989.9153697201899
 20
427.3525228044051
 30
0.0
 40
5.0
 41
0.0
 46
0.0
 71
     5
 72
     1
  1
251.5
 11
0.0000000000000001
 21
1.0
 31
0.0
 73
     1
 44
1.0
  0
POINT
  5
1E8
330
1E0
100
AcDbEntity
  8
Defpoints
 62
     0
100
AcDbPoint
 10
1026.24837183149
 20
553.1025228044054
 30
0.0
  0
POINT
  5
1E9
330
1E0
100
AcDbEntity
  8
Defpoints
 62
     0
100
AcDbPoint
 10
1026.24837183149
 20
301.6025228044045
 30
0.0
  0
POINT
  5
1EA
330
1E0
100
AcDbEntity
  8
Defpoints
 62
     0
100
AcDbPoint
 10
994.4153697201899
 20
301.6025228044045
 30
0.0
  0
ENDBLK
  5
1EB
330
1E0
100
AcDbEntity
  8
0
100
AcDbBlockEnd
  0
BLOCK
  5
1D4
330
1D3
100
AcDbEntity
  8
0
100
AcDbBlockBegin
  2
*D10
 70
     1
 10
0.0
 20
0.0
 30
0.0
  3
*D10
  1

  0
LINE
  5
1D5
330
1D3
100
AcDbEntity
  8
09-01
 62
     4
370
    -2
100
AcDbLine
 10
1024.24837183149
 20
301.6025228044045
 30
0.0
 11
992.41536972019
 21
301.6025228044045
 31
0.0
  0
LINE
  5
1D6
330
1D3
100
AcDbEntity
  8
09-01
 62
     4
370
    -2
100
AcDbLine
 10
1008.430606674595
 20
273.6025228044054
 30
0.0
 11
992.41536972019
 21
273.6025228044054
 31
0.0
  0
LINE
  5
1D7
330
1D3
100
AcDbEntity
  8
09-01
 62
     4
370
    -2
100
AcDbLine
 10
994.4153697201899
 20
296.6025228044046
 30
0.0
 11
994.4153697201899
 21
278.6025228044055
 31
0.0
  0
SOLID
  5
1D8
330
1D3
100
AcDbEntity
  8
09-01
 62
     4
100
AcDbTrace
 10
993.5820363868566
 20
296.6025228044046
 30
0.0
 11
995.2487030535234
 21
296.6025228044046
 31
0.0
 12
994.4153697201899
 22
301.6025228044045
 32
0.0
 13
994.4153697201899
 23
301.6025228044045
 33
0.0
  0
SOLID
  5
1D9
330
1D3
100
AcDbEntity
  8
09-01
 62
     4
100
AcDbTrace
 10
993.5820363868566
 20
278.6025228044055
 30
0.0
 11
995.2487030535234
 21
278.6025228044055
 31
0.0
 12
994.4153697201899
 22
273.6025228044054
 32
0.0
 13
994.4153697201899
 23
273.6025228044054
 33
0.0
  0
MTEXT
  5
1DA
330
1D3
100
AcDbEntity
  8
09-01
 62
     1
100
AcDbMText
 10
989.9153697201899
 20
287.6025228044052
 30
0.0
 40
5.0
 41
0.0
 46
0.0
 71
     5
 72
     1
  1
28
 11
0.0000000000000001
 21
1.0
 31
0.0
 73
     1
 44
1.0
  0
POINT
  5
1DB
330
1D3
100
AcDbEntity
  8
Defpoints
 62
     0
100
AcDbPoint
 10
1026.24837183149
 20
301.6025228044045
 30
0.0
  0
POINT
  5
1DC
330
1D3
100
AcDbEntity
  8
Defpoints
 62
     0
100
AcDbPoint
 10
1010.430606674595
 20
273.6025228044054
 30
0.0
  0
POINT
  5
1DD
330
1D3
100
AcDbEntity
  8
Defpoints
 62
     0
100
AcDbPoint
 10
994.4153697201899
 20
273.6025228044054
 30
0.0
  0
ENDBLK
  5
1DE
330
1D3
100
AcDbEntity
  8
0
100
AcDbBlockEnd
  0
BLOCK
  5
1C7
330
1C6
100
AcDbEntity
  8
0
100
AcDbBlockBegin
  2
*D11
 70
     1
 10
0.0
 20
0.0
 30
0.0
  3
*D11
  1

  0
LINE
  5
1C8
330
1C6
100
AcDbEntity
  8
09-01
 62
     4
370
    -2
100
AcDbLine
 10
1009.730606674595
 20
303.4755797992232
 30
0.0
 11
1009.730606674595
 21
322.0707148178299
 31
0.0
  0
LINE
  5
1C9
330
1C6
100
AcDbEntity
  8
09-01
 62
     4
370
    -2
100
AcDbLine
 10
1029.730606674595
 20
307.1025228044045
 30
0.0
 11
1029.730606674595
 21
322.0707148178299
 31
0.0
  0
LINE
  5
1CA
330
1C6
100
AcDbEntity
  8
09-01
 62
     4
370
    -2
100
AcDbLine
 10
1014.730606674595
 20
320.0707148178299
 30
0.0
 11
1024.730606674595
 21
320.0707148178299
 31
0.0
  0
MTEXT
  5
1CB
330
1C6
100
AcDbEntity
  8
09-01
 62
     1
100
AcDbMText
 10
1002.899476293885
 20
323.627235283775
 30
0.0
 40
5.0
 41
0.0
 46
0.0
 71
     5
 72
     1
  1
20
 73
     1
 44
1.0
  0
SOLID
  5
1CC
330
1C6
100
AcDbEntity
  8
09-01
 62
     4
100
AcDbTrace
 10
1014.730606674595
 20
320.9040481511632
 30
0.0
 11
1014.730606674595
 21
319.2373814844966
 31
0.0
 12
1009.730606674595
 22
320.0707148178299
 32
0.0
 13
1009.730606674595
 23
320.0707148178299
 33
0.0
  0
SOLID
  5
1CD
330
1C6
100
AcDbEntity
  8
09-01
 62
     4
100
AcDbTrace
 10
1024.730606674595
 20
320.9040481511632
 30
0.0
 11
1024.730606674595
 21
319.2373814844966
 31
0.0
 12
1029.730606674595
 22
320.0707148178299
 32
0.0
 13
1029.730606674595
 23
320.0707148178299
 33
0.0
  0
POINT
  5
1CE
330
1C6
100
AcDbEntity
  8
Defpoints
 62
     0
100
AcDbPoint
 10
1009.730606674595
 20
301.4755797992232
 30
0.0
  0
POINT
  5
1CF
330
1C6
100
AcDbEntity
  8
Defpoints
 62
     0
100
AcDbPoint
 10
1029.730606674595
 20
305.1025228044045
 30
0.0
  0
POINT
  5
1D0
330
1C6
100
AcDbEntity
  8
Defpoints
 62
     0
100
AcDbPoint
 10
1029.730606674595
 20
320.0707148178299
 30
0.0
  0
ENDBLK
  5
1D1
330
1C6
100
AcDbEntity
  8
0
100
AcDbBlockEnd
  0
BLOCK
  5
1BA
330
1B9
100
AcDbEntity
  8
0
100
AcDbBlockBegin
  2
*D12
 70
     1
 10
0.0
 20
0.0
 30
0.0
  3
*D12
  1

  0
LINE
  5
1BB
330
1B9
100
AcDbEntity
  8
09-01
 62
     4
370
    -2
100
AcDbLine
 10
1029.730606674595
 20
307.1025228044045
 30
0.0
 11
1029.730606674595
 21
322.0707148178299
 31
0.0
  0
LINE
  5
1BC
330
1B9
100
AcDbEntity
  8
09-01
 62
     4
370
    -2
100
AcDbLine
 10
1069.730606674595
 20
307.1025228044045
 30
0.0
 11
1069.730606674595
 21
322.0707148178299
 31
0.0
  0
LINE
  5
1BD
330
1B9
100
AcDbEntity
  8
09-01
 62
     4
370
    -2
100
AcDbLine
 10
1034.730606674595
 20
320.0707148178299
 30
0.0
 11
1064.730606674595
 21
320.0707148178299
 31
0.0
  0
MTEXT
  5
1BE
330
1B9
100
AcDbEntity
  8
09-01
 62
     1
100
AcDbMText
 10
1057.127432942
 20
324.5760762286552
 30
0.0
 40
5.0
 41
0.0
 46
0.0
 71
     5
 72
     1
  1
40
 73
     1
 44
1.0
  0
SOLID
  5
1BF
330
1B9
100
AcDbEntity
  8
09-01
 62
     4
100
AcDbTrace
 10
1034.730606674595
 20
320.9040481511632
 30
0.0
 11
1034.730606674595
 21
319.2373814844966
 31
0.0
 12
1029.730606674595
 22
320.0707148178299
 32
0.0
 13
1029.730606674595
 23
320.0707148178299
 33
0.0
  0
SOLID
  5
1C0
330
1B9
100
AcDbEntity
  8
09-01
 62
     4
100
AcDbTrace
 10
1064.730606674595
 20
320.9040481511632
 30
0.0
 11
1064.730606674595
 21
319.2373814844966
 31
0.0
 12
1069.730606674595
 22
320.0707148178299
 32
0.0
 13
1069.730606674595
 23
320.0707148178299
 33
0.0
  0
POINT
  5
1C1
330
1B9
100
AcDbEntity
  8
Defpoints
 62
     0
100
AcDbPoint
 10
1029.730606674595
 20
305.1025228044045
 30
0.0
  0
POINT
  5
1C2
330
1B9
100
AcDbEntity
  8
Defpoints
 62
     0
100
AcDbPoint
 10
1069.730606674595
 20
305.1025228044045
 30
0.0
  0
POINT
  5
1C3
330
1B9
100
AcDbEntity
  8
Defpoints
 62
     0
100
AcDbPoint
 10
1069.730606674595
 20
320.0707148178299
 30
0.0
  0
ENDBLK
  5
1C4
330
1B9
100
AcDbEntity
  8
0
100
AcDbBlockEnd
  0
BLOCK
  5
1AD
330
1AC
100
AcDbEntity
  8
0
100
AcDbBlockBegin
  2
*D13
 70
     1
 10
0.0
 20
0.0
 30
0.0
  3
*D13
  1

  0
LINE
  5
1AE
330
1AC
100
AcDbEntity
  8
09-01
 62
     4
370
    -2
100
AcDbLine
 10
1069.730606674595
 20
307.1025228044045
 30
0.0
 11
1069.730606674595
 21
322.0707148178299
 31
0.0
  0
LINE
  5
1AF
330
1AC
100
AcDbEntity
  8
09-01
 62
     4
370
    -2
100
AcDbLine
 10
1089.730606674595
 20
317.8510799773574
 30
0.0
 11
1089.730606674595
 21
322.0707148178299
 31
0.0
  0
LINE
  5
1B0
330
1AC
100
AcDbEntity
  8
09-01
 62
     4
370
    -2
100
AcDbLine
 10
1074.730606674595
 20
320.0707148178299
 30
0.0
 11
1084.730606674595
 21
320.0707148178299
 31
0.0
  0
MTEXT
  5
1B1
330
1AC
100
AcDbEntity
  8
09-01
 62
     1
100
AcDbMText
 10
1097.234760390816
 20
323.8644447780246
 30
0.0
 40
5.0
 41
0.0
 46
0.0
 71
     5
 72
     1
  1
20
 73
     1
 44
1.0
  0
SOLID
  5
1B2
330
1AC
100
AcDbEntity
  8
09-01
 62
     4
100
AcDbTrace
 10
1074.730606674595
 20
320.9040481511632
 30
0.0
 11
1074.730606674595
 21
319.2373814844966
 31
0.0
 12
1069.730606674595
 22
320.0707148178299
 32
0.0
 13
1069.730606674595
 23
320.0707148178299
 33
0.0
  0
SOLID
  5
1B3
330
1AC
100
AcDbEntity
  8
09-01
 62
     4
100
AcDbTrace
 10
1084.730606674595
 20
320.9040481511632
 30
0.0
 11
1084.730606674595
 21
319.2373814844966
 31
0.0
 12
1089.730606674595
 22
320.0707148178299
 32
0.0
 13
1089.730606674595
 23
320.0707148178299
 33
0.0
  0
POINT
  5
1B4
330
1AC
100
AcDbEntity
  8
Defpoints
 62
     0
100
AcDbPoint
 10
1069.730606674595
 20
305.1025228044045
 30
0.0
  0
POINT
  5
1B5
330
1AC
100
AcDbEntity
  8
Defpoints
 62
     0
100
AcDbPoint
 10
1089.730606674595
 20
315.8510799773574
 30
0.0
  0
POINT
  5
1B6
330
1AC
100
AcDbEntity
  8
Defpoints
 62
     0
100
AcDbPoint
 10
1089.730606674595
 20
320.0707148178299
 30
0.0
  0
ENDBLK
  5
1B7
330
1AC
100
AcDbEntity
  8
0
100
AcDbBlockEnd
  0
BLOCK
  5
19E
330
19D
100
AcDbEntity
  8
0
100
AcDbBlockBegin
  2
*D14
 70
     1
 10
0.0
 20
0.0
 30
0.0
  3
*D14
  1

  0
LINE
  5
19F
330
19D
100
AcDbEntity
  8
09-01
 62
     4
370
    -2
100
AcDbLine
 10
1027.230606674595
 20
555.1025228044054
 30
0.0
 11
1027.230606674595
 21
560.1232138375962
 31
0.0
  0
LINE
  5
1A0
330
19D
100
AcDbEntity
  8
09-01
 62
     4
370
    -2
100
AcDbLine
 10
1032.230606674595
 20
555.1025228044054
 30
0.0
 11
1032.230606674595
 21
560.1232138375962
 31
0.0
  0
LINE
  5
1A1
330
19D
100
AcDbEntity
  8
09-01
 62
     4
370
    -2
100
AcDbLine
 10
1022.230606674595
 20
558.1232138375963
 30
0.0
 11
1017.230606674595
 21
558.1232138375963
 31
0.0
  0
LINE
  5
1A2
330
19D
100
AcDbEntity
  8
09-01
 62
     4
370
    -2
100
AcDbLine
 10
1037.230606674595
 20
558.1232138375963
 30
0.0
 11
1042.230606674595
 21
558.1232138375963
 31
0.0
  0
MTEXT
  5
1A3
330
19D
100
AcDbEntity
  8
09-01
 62
     1
100
AcDbMText
 10
1025.385173961776
 20
562.6232138375963
 30
0.0
 40
5.0
 41
0.0
 46
0.0
 71
     5
 72
     1
  1
5
 73
     1
 44
1.0
  0
LINE
  5
1A4
330
19D
100
AcDbEntity
  8
09-01
 62
     4
370
    -2
100
AcDbLine
 10
1027.230606674595
 20
558.1232138375963
 30
0.0
 11
1032.230606674595
 21
558.1232138375963
 31
0.0
  0
SOLID
  5
1A5
330
19D
100
AcDbEntity
  8
09-01
 62
     4
100
AcDbTrace
 10
1022.230606674595
 20
558.9565471709296
 30
0.0
 11
1022.230606674595
 21
557.2898805042629
 31
0.0
 12
1027.230606674595
 22
558.1232138375963
 32
0.0
 13
1027.230606674595
 23
558.1232138375963
 33
0.0
  0
SOLID
  5
1A6
330
19D
100
AcDbEntity
  8
09-01
 62
     4
100
AcDbTrace
 10
1037.230606674595
 20
558.9565471709296
 30
0.0
 11
1037.230606674595
 21
557.2898805042629
 31
0.0
 12
1032.230606674595
 22
558.1232138375963
 32
0.0
 13
1032.230606674595
 23
558.1232138375963
 33
0.0
  0
POINT
  5
1A7
330
19D
100
AcDbEntity
  8
Defpoints
 62
     0
100
AcDbPoint
 10
1027.230606674595
 20
553.1025228044054
 30
0.0
  0
POINT
  5
1A8
330
19D
100
AcDbEntity
  8
Defpoints
 62
     0
100
AcDbPoint
 10
1032.230606674595
 20
553.1025228044054
 30
0.0
  0
POINT
  5
1A9
330
19D
100
AcDbEntity
  8
Defpoints
 62
     0
100
AcDbPoint
 10
1032.230606674595
 20
558.1232138375963
 30
0.0
  0
ENDBLK
  5
1AA
330
19D
100
AcDbEntity
  8
0
100
AcDbBlockEnd
  0
BLOCK
  5
18F
330
18E
100
AcDbEntity
  8
0
100
AcDbBlockBegin
  2
*D15
 70
     1
 10
0.0
 20
0.0
 30
0.0
  3
*D15
  1

  0
LINE
  5
190
330
18E
100
AcDbEntity
  8
09-01
 62
     4
370
    -2
100
AcDbLine
 10
1023.480606674595
 20
539.1025228044054
 30
0.0
 11
1023.480606674595
 21
508.3728885871371
 31
0.0
  0
LINE
  5
191
330
18E
100
AcDbEntity
  8
09-01
 62
     4
370
    -2
100
AcDbLine
 10
1035.980606674595
 20
539.1025228044054
 30
0.0
 11
1035.980606674595
 21
508.3728885871371
 31
0.0
  0
LINE
  5
192
330
18E
100
AcDbEntity
  8
09-01
 62
     4
370
    -2
100
AcDbLine
 10
1018.480606674595
 20
510.3728885871371
 30
0.0
 11
1013.480606674595
 21
510.3728885871371
 31
0.0
  0
LINE
  5
193
330
18E
100
AcDbEntity
  8
09-01
 62
     4
370
    -2
100
AcDbLine
 10
1040.980606674595
 20
510.3728885871371
 30
0.0
 11
1045.980606674595
 21
510.3728885871371
 31
0.0
  0
MTEXT
  5
194
330
18E
100
AcDbEntity
  8
09-01
 62
     1
100
AcDbMText
 10
1048.412834450089
 20
514.8994466270542
 30
0.0
 40
5.0
 41
0.0
 46
0.0
 71
     5
 72
     1
  1
12.5
 73
     1
 44
1.0
  0
LINE
  5
195
330
18E
100
AcDbEntity
  8
09-01
 62
     4
370
    -2
100
AcDbLine
 10
1023.480606674595
 20
510.3728885871371
 30
0.0
 11
1035.980606674595
 21
510.3728885871371
 31
0.0
  0
SOLID
  5
196
330
18E
100
AcDbEntity
  8
09-01
 62
     4
100
AcDbTrace
 10
1018.480606674595
 20
511.2062219204704
 30
0.0
 11
1018.480606674595
 21
509.5395552538038
 31
0.0
 12
1023.480606674595
 22
510.3728885871371
 32
0.0
 13
1023.480606674595
 23
510.3728885871371
 33
0.0
  0
SOLID
  5
197
330
18E
100
AcDbEntity
  8
09-01
 62
     4
100
AcDbTrace
 10
1040.980606674595
 20
511.2062219204704
 30
0.0
 11
1040.980606674595
 21
509.5395552538038
 31
0.0
 12
1035.980606674595
 22
510.3728885871371
 32
0.0
 13
1035.980606674595
 23
510.3728885871371
 33
0.0
  0
POINT
  5
198
330
18E
100
AcDbEntity
  8
Defpoints
 62
     0
100
AcDbPoint
 10
1023.480606674595
 20
541.1025228044054
 30
0.0
  0
POINT
  5
199
330
18E
100
AcDbEntity
  8
Defpoints
 62
     0
100
AcDbPoint
 10
1035.980606674595
 20
541.1025228044054
 30
0.0
  0
POINT
  5
19A
330
18E
100
AcDbEntity
  8
Defpoints
 62
     0
100
AcDbPoint
 10
1035.980606674595
 20
510.3728885871371
 30
0.0
  0
ENDBLK
  5
19B
330
18E
100
AcDbEntity
  8
0
100
AcDbBlockEnd
  0
BLOCK
  5
17E
330
17D
100
AcDbEntity
  8
0
100
AcDbBlockBegin
  2
*D16
 70
     1
 10
0.0
 20
0.0
 30
0.0
  3
*D16
  1

  0
LINE
  5
17F
330
17D
100
AcDbEntity
  8
09-01
 62
     4
370
    -2
100
AcDbLine
 10
1024.230606674595
 20
553.1025228044054
 30
0.0
 11
1019.026394067398
 21
553.1025228044054
 31
0.0
  0
LINE
  5
180
330
17D
100
AcDbEntity
  8
09-01
 62
     4
370
    -2
100
AcDbLine
 10
1020.480606674595
 20
541.1025228044054
 30
0.0
 11
1019.026394067398
 21
541.1025228044054
 31
0.0
  0
LINE
  5
181
330
17D
100
AcDbEntity
  8
09-01
 62
     4
370
    -2
100
AcDbLine
 10
1021.026394067398
 20
558.1025228044054
 30
0.0
 11
1021.026394067398
 21
563.1025228044054
 31
0.0
  0
LINE
  5
182
330
17D
100
AcDbEntity
  8
09-01
 62
     4
370
    -2
100
AcDbLine
 10
1021.026394067398
 20
536.1025228044054
 30
0.0
 11
1021.026394067398
 21
531.1025228044054
 31
0.0
  0
LINE
  5
183
330
17D
100
AcDbEntity
  8
09-01
 62
     4
370
    -2
100
AcDbLine
 10
1021.026394067398
 20
553.1025228044054
 30
0.0
 11
1021.026394067398
 21
541.1025228044054
 31
0.0
  0
SOLID
  5
184
330
17D
100
AcDbEntity
  8
09-01
 62
     4
100
AcDbTrace
 10
1020.193060734065
 20
558.1025228044054
 30
0.0
 11
1021.859727400731
 21
558.1025228044054
 31
0.0
 12
1021.026394067398
 22
553.1025228044054
 32
0.0
 13
1021.026394067398
 23
553.1025228044054
 33
0.0
  0
SOLID
  5
185
330
17D
100
AcDbEntity
  8
09-01
 62
     4
100
AcDbTrace
 10
1020.193060734065
 20
536.1025228044054
 30
0.0
 11
1021.859727400731
 21
536.1025228044054
 31
0.0
 12
1021.026394067398
 22
541.1025228044054
 32
0.0
 13
1021.026394067398
 23
541.1025228044054
 33
0.0
  0
MTEXT
  5
186
330
17D
100
AcDbEntity
  8
09-01
 62
     1
100
AcDbMText
 10
1016.526394067398
 20
547.1025228044055
 30
0.0
 40
5.0
 41
0.0
 46
0.0
 71
     5
 72
     1
  1
12
 11
0.0000000000000001
 21
1.0
 31
0.0
 73
     1
 44
1.0
  0
POINT
  5
187
330
17D
100
AcDbEntity
  8
Defpoints
 62
     0
100
AcDbPoint
 10
1026.230606674595
 20
553.1025228044054
 30
0.0
  0
POINT
  5
189
330
17D
100
AcDbEntity
  8
Defpoints
 62
     0
100
AcDbPoint
 10
1022.480606674595
 20
541.1025228044054
 30
0.0
  0
POINT
  5
18A
330
17D
100
AcDbEntity
  8
Defpoints
 62
     0
100
AcDbPoint
 10
1021.026394067398
 20
541.1025228044054
 30
0.0
  0
ENDBLK
  5
18B
330
17D
100
AcDbEntity
  8
0
100
AcDbBlockEnd
  0
BLOCK
  5
2F0
330
2EF
100
AcDbEntity
  8
0
100
AcDbBlockBegin
  2
*D17
 70
     1
 10
0.0
 20
0.0
 30
0.0
  3
*D17
  1

  0
LINE
  5
2F1
330
2EF
100
AcDbEntity
  8
09-01
 62
     4
370
    -2
100
AcDbLine
 10
1292.647704083475
 20
571.6025228044054
 30
0.0
 11
1308.089465664068
 21
571.6025228044054
 31
0.0
  0
LINE
  5
2F2
330
2EF
100
AcDbEntity
  8
09-01
 62
     4
370
    -2
100
AcDbLine
 10
1292.64770408351
 20
292.8905043991417
 30
0.0
 11
1308.089465664068
 21
292.8905043991417
 31
0.0
  0
LINE
  5
2F3
330
2EF
100
AcDbEntity
  8
09-01
 62
     4
370
    -2
100
AcDbLine
 10
1306.089465664068
 20
566.6025228044055
 30
0.0
 11
1306.089465664067
 21
297.8905043991417
 31
0.0
  0
SOLID
  5
2F4
330
2EF
100
AcDbEntity
  8
09-01
 62
     4
100
AcDbTrace
 10
1305.256132330735
 20
566.6025228044055
 30
0.0
 11
1306.922798997401
 21
566.6025228044055
 31
0.0
 12
1306.089465664068
 22
571.6025228044054
 32
0.0
 13
1306.089465664068
 23
571.6025228044054
 33
0.0
  0
SOLID
  5
2F5
330
2EF
100
AcDbEntity
  8
09-01
 62
     4
100
AcDbTrace
 10
1305.256132330734
 20
297.8905043991417
 30
0.0
 11
1306.922798997401
 21
297.8905043991417
 31
0.0
 12
1306.089465664067
 22
292.8905043991417
 32
0.0
 13
1306.089465664067
 23
292.8905043991417
 33
0.0
  0
MTEXT
  5
2F6
330
2EF
100
AcDbEntity
  8
09-01
 62
     1
100
AcDbMText
 10
1301.589465664067
 20
432.2465136017738
 30
0.0
 40
5.0
 41
0.0
 46
0.0
 71
     5
 72
     1
  1
278.7
 11
0.0000000000000001
 21
1.0
 31
0.0
 73
     1
 44
1.0
  0
POINT
  5
2F7
330
2EF
100
AcDbEntity
  8
Defpoints
 62
     0
100
AcDbPoint
 10
1290.647704083475
 20
571.6025228044054
 30
0.0
  0
POINT
  5
2F8
330
2EF
100
AcDbEntity
  8
Defpoints
 62
     0
100
AcDbPoint
 10
1290.64770408351
 20
292.8905043991417
 30
0.0
  0
POINT
  5
2F9
330
2EF
100
AcDbEntity
  8
Defpoints
 62
     0
100
AcDbPoint
 10
1306.089465664067
 20
292.8905043991417
 30
0.0
  0
ENDBLK
  5
2FA
330
2EF
100
AcDbEntity
  8
0
100
AcDbBlockEnd
  0
BLOCK
  5
2E3
330
2E2
100
AcDbEntity
  8
0
100
AcDbBlockBegin
  2
*D18
 70
     1
 10
0.0
 20
0.0
 30
0.0
  3
*D18
  1

  0
LINE
  5
2E4
330
2E2
100
AcDbEntity
  8
09-01
 62
     4
370
    -2
100
AcDbLine
 10
1171.347704083511
 20
271.6025228044054
 30
0.0
 11
1171.347704083511
 21
230.973199186983
 31
0.0
  0
LINE
  5
2E5
330
2E2
100
AcDbEntity
  8
09-01
 62
     4
370
    -2
100
AcDbLine
 10
1235.69316786606
 20
252.7398656411558
 30
0.0
 11
1235.69316786606
 21
230.973199186983
 31
0.0
  0
LINE
  5
2E6
330
2E2
100
AcDbEntity
  8
09-01
 62
     4
370
    -2
100
AcDbLine
 10
1176.347704083511
 20
232.973199186983
 30
0.0
 11
1230.69316786606
 21
232.973199186983
 31
0.0
  0
SOLID
  5
2E7
330
2E2
100
AcDbEntity
  8
09-01
 62
     4
100
AcDbTrace
 10
1176.347704083511
 20
233.8065325203164
 30
0.0
 11
1176.347704083511
 21
232.1398658536497
 31
0.0
 12
1171.347704083511
 22
232.973199186983
 32
0.0
 13
1171.347704083511
 23
232.973199186983
 33
0.0
  0
SOLID
  5
2E8
330
2E2
100
AcDbEntity
  8
09-01
 62
     4
100
AcDbTrace
 10
1230.69316786606
 20
233.8065325203164
 30
0.0
 11
1230.69316786606
 21
232.1398658536497
 31
0.0
 12
1235.69316786606
 22
232.973199186983
 32
0.0
 13
1235.69316786606
 23
232.973199186983
 33
0.0
  0
MTEXT
  5
2E9
330
2E2
100
AcDbEntity
  8
09-01
 62
     1
100
AcDbMText
 10
1203.520435974786
 20
237.473199186983
 30
0.0
 40
5.0
 41
0.0
 46
0.0
 71
     5
 72
     1
  1
64.3
 73
     1
 44
1.0
  0
POINT
  5
2EA
330
2E2
100
AcDbEntity
  8
Defpoints
 62
     0
100
AcDbPoint
 10
1171.347704083511
 20
273.6025228044054
 30
0.0
  0
POINT
  5
2EB
330
2E2
100
AcDbEntity
  8
Defpoints
 62
     0
100
AcDbPoint
 10
1235.69316786606
 20
254.7398656411558
 30
0.0
  0
POINT
  5
2EC
330
2E2
100
AcDbEntity
  8
Defpoints
 62
     0
100
AcDbPoint
 10
1235.69316786606
 20
232.973199186983
 30
0.0
  0
ENDBLK
  5
2ED
330
2E2
100
AcDbEntity
  8
0
100
AcDbBlockEnd
  0
BLOCK
  5
2D6
330
2D5
100
AcDbEntity
  8
0
100
AcDbBlockBegin
  2
*D19
 70
     1
 10
0.0
 20
0.0
 30
0.0
  3
*D19
  1

  0
LINE
  5
2D7
330
2D5
100
AcDbEntity
  8
09-01
 62
     4
370
    -2
100
AcDbLine
 10
1171.347704083511
 20
271.6025228044054
 30
0.0
 11
1171.347704083511
 21
215.6995609619817
 31
0.0
  0
LINE
  5
2D8
330
2D5
100
AcDbEntity
  8
09-01
 62
     4
370
    -2
100
AcDbLine
 10
1270.373167955169
 20
283.1025241157079
 30
0.0
 11
1270.373167955169
 21
215.6995609619817
 31
0.0
  0
LINE
  5
2D9
330
2D5
100
AcDbEntity
  8
09-01
 62
     4
370
    -2
100
AcDbLine
 10
1176.347704083511
 20
217.6995609619817
 30
0.0
 11
1265.373167955169
 21
217.6995609619817
 31
0.0
  0
SOLID
  5
2DA
330
2D5
100
AcDbEntity
  8
09-01
 62
     4
100
AcDbTrace
 10
1176.347704083511
 20
218.532894295315
 30
0.0
 11
1176.347704083511
 21
216.8662276286483
 31
0.0
 12
1171.347704083511
 22
217.6995609619817
 32
0.0
 13
1171.347704083511
 23
217.6995609619817
 33
0.0
  0
SOLID
  5
2DB
330
2D5
100
AcDbEntity
  8
09-01
 62
     4
100
AcDbTrace
 10
1265.373167955169
 20
218.532894295315
 30
0.0
 11
1265.373167955169
 21
216.8662276286483
 31
0.0
 12
1270.373167955169
 22
217.6995609619817
 32
0.0
 13
1270.373167955169
 23
217.6995609619817
 33
0.0
  0
MTEXT
  5
2DC
330
2D5
100
AcDbEntity
  8
09-01
 62
     1
100
AcDbMText
 10
1220.86043601934
 20
222.1995609619817
 30
0.0
 40
5.0
 41
0.0
 46
0.0
 71
     5
 72
     1
  1
99
 73
     1
 44
1.0
  0
POINT
  5
2DD
330
2D5
100
AcDbEntity
  8
Defpoints
 62
     0
100
AcDbPoint
 10
1171.347704083511
 20
273.6025228044054
 30
0.0
  0
POINT
  5
2DE
330
2D5
100
AcDbEntity
  8
Defpoints
 62
     0
100
AcDbPoint
 10
1270.373167955169
 20
285.1025241157079
 30
0.0
  0
POINT
  5
2DF
330
2D5
100
AcDbEntity
  8
Defpoints
 62
     0
100
AcDbPoint
 10
1270.373167955169
 20
217.6995609619817
 30
0.0
  0
ENDBLK
  5
2E0
330
2D5
100
AcDbEntity
  8
0
100
AcDbBlockEnd
  0
BLOCK
  5
2C9
330
2C8
100
AcDbEntity
  8
0
100
AcDbBlockBegin
  2
*D20
 70
     1
 10
0.0
 20
0.0
 30
0.0
  3
*D20
  1

  0
LINE
  5
2CA
330
2C8
100
AcDbEntity
  8
09-01
 62
     4
370
    -2
100
AcDbLine
 10
1171.347704083511
 20
271.6025228044054
 30
0.0
 11
1171.347704083511
 21
202.2587603350203
 31
0.0
  0
LINE
  5
2CB
330
2C8
100
AcDbEntity
  8
09-01
 62
     4
370
    -2
100
AcDbLine
 10
1290.64770408351
 20
290.8905043991417
 30
0.0
 11
1290.64770408351
 21
202.2587603350203
 31
0.0
  0
LINE
  5
2CC
330
2C8
100
AcDbEntity
  8
09-01
 62
     4
370
    -2
100
AcDbLine
 10
1176.347704083511
 20
204.2587603350203
 30
0.0
 11
1285.64770408351
 21
204.2587603350203
 31
0.0
  0
SOLID
  5
2CD
330
2C8
100
AcDbEntity
  8
09-01
 62
     4
100
AcDbTrace
 10
1176.347704083511
 20
205.0920936683536
 30
0.0
 11
1176.347704083511
 21
203.4254270016869
 31
0.0
 12
1171.347704083511
 22
204.2587603350203
 32
0.0
 13
1171.347704083511
 23
204.2587603350203
 33
0.0
  0
SOLID
  5
2CE
330
2C8
100
AcDbEntity
  8
09-01
 62
     4
100
AcDbTrace
 10
1285.64770408351
 20
205.0920936683536
 30
0.0
 11
1285.64770408351
 21
203.4254270016869
 31
0.0
 12
1290.64770408351
 22
204.2587603350203
 32
0.0
 13
1290.64770408351
 23
204.2587603350203
 33
0.0
  0
MTEXT
  5
2CF
330
2C8
100
AcDbEntity
  8
09-01
 62
     1
100
AcDbMText
 10
1230.99770408351
 20
208.7587603350203
 30
0.0
 40
5.0
 41
0.0
 46
0.0
 71
     5
 72
     1
  1
119.3
 73
     1
 44
1.0
  0
POINT
  5
2D0
330
2C8
100
AcDbEntity
  8
Defpoints
 62
     0
100
AcDbPoint
 10
1171.347704083511
 20
273.6025228044054
 30
0.0
  0
POINT
  5
2D1
330
2C8
100
AcDbEntity
  8
Defpoints
 62
     0
100
AcDbPoint
 10
1290.64770408351
 20
292.8905043991417
 30
0.0
  0
POINT
  5
2D2
330
2C8
100
AcDbEntity
  8
Defpoints
 62
     0
100
AcDbPoint
 10
1290.64770408351
 20
204.2587603350203
 30
0.0
  0
ENDBLK
  5
2D3
330
2C8
100
AcDbEntity
  8
0
100
AcDbBlockEnd
  0
ENDSEC
  0
SECTION
  2
ENTITIES
  0
LINE
  5
79
330
2
100
AcDbEntity
  8
01-01
100
AcDbLine
 10
1069.748371831489
 20
555.6025228044045
 30
0.0
 11
1069.748371831489
 21
555.6025228044045
 31
0.0
  0
LINE
  5
7D
330
2
100
AcDbEntity
  8
01-01
100
AcDbLine
 10
1029.74837183149
 20
555.6025228044045
 30
0.0
 11
1029.74837183149
 21
555.6025228044045
 31
0.0
  0
ARC
  5
7E
330
2
100
AcDbEntity
  8
03-01
100
AcDbCircle
 10
1082.220126364935
 20
211.2027729031575
 30
0.0
 40
3.0
100
AcDbArc
 50
0.0
 51
90.0
  0
LINE
  5
83
330
2
100
AcDbEntity
  8
03-01
100
AcDbLine
 10
1085.220126364935
 20
211.2027729031575
 30
0.0
 11
1085.220126364935
 21
119.6831736171477
 31
0.0
  0
ARC
  5
84
330
2
100
AcDbEntity
  8
03-01
100
AcDbCircle
 10
1017.230603281963
 20
119.6831736171477
 30
0.0
 40
3.0
100
AcDbArc
 50
180.0
 51
270.0
  0
LINE
  5
85
330
2
100
AcDbEntity
  8
03-01
100
AcDbLine
 10
1014.230603281963
 20
211.2027729031575
 30
0.0
 11
1014.230603281963
 21
119.6831736171477
 31
0.0
  0
ARC
  5
86
330
2
100
AcDbEntity
  8
03-01
100
AcDbCircle
 10
1017.230603281963
 20
211.2027729031575
 30
0.0
 40
3.0
100
AcDbArc
 50
90.0
 51
180.0
  0
LINE
  5
87
330
2
100
AcDbEntity
  8
03-01
100
AcDbLine
 10
1017.230603281963
 20
214.2027729031576
 30
0.0
 11
1082.220126364935
 21
214.2027729031576
 31
0.0
  0
ARC
  5
88
330
2
100
AcDbEntity
  8
03-01
100
AcDbCircle
 10
1082.220126364935
 20
119.6831736171477
 30
0.0
 40
3.0
100
AcDbArc
 50
270.0
 51
0.0
  0
LINE
  5
89
330
2
100
AcDbEntity
  8
03-01
100
AcDbLine
 10
1017.230603281963
 20
116.6831736171477
 30
0.0
 11
1082.220126364935
 21
116.6831736171477
 31
0.0
  0
LINE
  5
8A
330
2
100
AcDbEntity
  8
03-01
100
AcDbLine
 10
1072.076068654298
 20
178.0110604346794
 30
0.0
 11
1072.076068654298
 21
184.9110604346785
 31
0.0
  0
LINE
  5
8B
330
2
100
AcDbEntity
  8
03-01
100
AcDbLine
 10
1027.385140731572
 20
178.0110604346795
 30
0.0
 11
1027.385140731572
 21
184.9110604346794
 31
0.0
  0
LINE
  5
8C
330
2
100
AcDbEntity
  8
03-01
100
AcDbLine
 10
1079.076068654298
 20
180.1110604346794
 30
0.0
 11
1074.376068654298
 21
180.1110604346794
 31
0.0
  0
LINE
  5
8D
330
2
100
AcDbEntity
  8
03-01
100
AcDbLine
 10
1072.076068654298
 20
178.0110604346794
 30
0.0
 11
1077.276068654298
 21
178.0110604346794
 31
0.0
  0
LINE
  5
8E
330
2
100
AcDbEntity
  8
03-01
100
AcDbLine
 10
1022.185140731572
 20
178.0110604346795
 30
0.0
 11
1027.385140731572
 21
178.0110604346795
 31
0.0
  0
LINE
  5
8F
330
2
100
AcDbEntity
  8
03-01
100
AcDbLine
 10
1020.385140731572
 20
180.1110604346794
 30
0.0
 11
1025.085140731572
 21
180.1110604346794
 31
0.0
  0
LINE
  5
90
330
2
100
AcDbEntity
  8
03-01
100
AcDbLine
 10
1073.676068654298
 20
184.8110604346794
 30
0.0
 11
1077.576068654298
 21
184.8110604346794
 31
0.0
  0
LINE
  5
91
330
2
100
AcDbEntity
  8
03-01
100
AcDbLine
 10
1021.885140731572
 20
184.8110604346794
 30
0.0
 11
1025.785140731572
 21
184.8110604346794
 31
0.0
  0
LINE
  5
92
330
2
100
AcDbEntity
  8
03-01
100
AcDbLine
 10
1074.376068654298
 20
183.3110604346794
 30
0.0
 11
1079.076068654298
 21
183.3110604346794
 31
0.0
  0
LINE
  5
93
330
2
100
AcDbEntity
  8
03-01
100
AcDbLine
 10
1020.385140731572
 20
183.3110604346794
 30
0.0
 11
1025.085140731572
 21
183.3110604346794
 31
0.0
  0
LINE
  5
94
330
2
100
AcDbEntity
  8
03-01
100
AcDbLine
 10
1022.185140731572
 20
119.7110604346794
 30
0.0
 11
1077.276068654298
 21
119.7110604346794
 31
0.0
  0
LINE
  5
95
330
2
100
AcDbEntity
  8
03-01
100
AcDbLine
 10
1020.385140731572
 20
117.9110604346794
 30
0.0
 11
1079.076068654298
 21
117.9110604346794
 31
0.0
  0
LINE
  5
96
330
2
100
AcDbEntity
  8
03-01
100
AcDbLine
 10
1077.276068654298
 20
178.0110604346794
 30
0.0
 11
1077.276068654298
 21
119.7110604346794
 31
0.0
  0
LINE
  5
97
330
2
100
AcDbEntity
  8
03-01
100
AcDbLine
 10
1073.676068654298
 20
186.9110604346785
 30
0.0
 11
1073.676068654298
 21
184.8110604346794
 31
0.0
  0
LINE
  5
98
330
2
100
AcDbEntity
  8
03-01
100
AcDbLine
 10
1074.376068654298
 20
183.3110604346794
 30
0.0
 11
1074.376068654298
 21
180.1110604346794
 31
0.0
  0
LINE
  5
99
330
2
100
AcDbEntity
  8
03-01
100
AcDbLine
 10
1079.076068654298
 20
180.1110604346794
 30
0.0
 11
1079.076068654298
 21
117.9110604346794
 31
0.0
  0
LINE
  5
9A
330
2
100
AcDbEntity
  8
03-01
100
AcDbLine
 10
1077.576068654298
 20
186.9110604346793
 30
0.0
 11
1077.576068654298
 21
184.8110604346794
 31
0.0
  0
LINE
  5
9B
330
2
100
AcDbEntity
  8
03-01
100
AcDbLine
 10
1079.076068654298
 20
186.9110604346793
 30
0.0
 11
1079.076068654298
 21
183.3110604346794
 31
0.0
  0
LINE
  5
9C
330
2
100
AcDbEntity
  8
03-01
100
AcDbLine
 10
1022.185140731572
 20
178.0110604346795
 30
0.0
 11
1022.185140731572
 21
119.7110604346794
 31
0.0
  0
LINE
  5
9D
330
2
100
AcDbEntity
  8
03-01
100
AcDbLine
 10
1025.785140731572
 20
186.9110604346793
 30
0.0
 11
1025.785140731572
 21
184.8110604346794
 31
0.0
  0
LINE
  5
9E
330
2
100
AcDbEntity
  8
03-01
100
AcDbLine
 10
1025.085140731572
 20
183.3110604346794
 30
0.0
 11
1025.085140731572
 21
180.1110604346794
 31
0.0
  0
LINE
  5
9F
330
2
100
AcDbEntity
  8
03-01
100
AcDbLine
 10
1020.385140731572
 20
180.1110604346794
 30
0.0
 11
1020.385140731572
 21
117.9110604346794
 31
0.0
  0
LINE
  5
A0
330
2
100
AcDbEntity
  8
03-01
100
AcDbLine
 10
1021.885140731572
 20
186.9110604346793
 30
0.0
 11
1021.885140731572
 21
184.8110604346794
 31
0.0
  0
LINE
  5
A1
330
2
100
AcDbEntity
  8
03-01
100
AcDbLine
 10
1020.385140731572
 20
186.9110604346793
 30
0.0
 11
1020.385140731572
 21
183.3110604346794
 31
0.0
  0
LINE
  5
A2
330
2
100
AcDbEntity
  8
03-01
100
AcDbLine
 10
1077.576068654298
 20
186.9110604346793
 30
0.0
 11
1079.076068654298
 21
186.9110604346793
 31
0.0
  0
LINE
  5
A3
330
2
100
AcDbEntity
  8
03-01
100
AcDbLine
 10
1025.785140731572
 20
186.9110604346793
 30
0.0
 11
1073.676068654298
 21
186.9110604346785
 31
0.0
  0
LINE
  5
A4
330
2
100
AcDbEntity
  8
03-01
100
AcDbLine
 10
1020.385140731572
 20
186.9110604346793
 30
0.0
 11
1021.885140731572
 21
186.9110604346793
 31
0.0
  0
LINE
  5
A5
330
2
100
AcDbEntity
  8
0
100
AcDbLine
 10
1087.730606674595
 20
273.6025228044054
 30
0.0
 11
1087.730606674595
 21
288.7315209502599
 31
0.0
  0
LINE
  5
A6
330
2
100
AcDbEntity
  8
0
100
AcDbLine
 10
1088.730606674595
 20
273.6025228044046
 30
0.0
 11
1088.730606674595
 21
285.9738111617587
 31
0.0
  0
LINE
  5
A7
330
2
100
AcDbEntity
  8
0
100
AcDbLine
 10
1011.730606674595
 20
273.6025228044046
 30
0.0
 11
1011.730606674595
 21
288.731520950259
 31
0.0
  0
LINE
  5
A8
330
2
100
AcDbEntity
  8
0
100
AcDbLine
 10
1010.730606674595
 20
273.6025228044046
 30
0.0
 11
1010.730606674595
 21
285.9738111617587
 31
0.0
  0
LINE
  5
A9
330
2
100
AcDbEntity
  8
05-01
100
AcDbLine
 10
1049.730606674595
 20
189.9740493500831
 30
0.0
 11
1049.730606674595
 21
211.4740493500831
 31
0.0
  0
LINE
  5
AE
330
2
100
AcDbEntity
  8
05-01
100
AcDbLine
 10
1039.230606674595
 20
200.4740493500831
 30
0.0
 11
1060.230606674595
 21
200.4740493500831
 31
0.0
  0
CIRCLE
  5
AF
330
2
100
AcDbEntity
  8
0
100
AcDbCircle
 10
1049.730606674595
 20
200.4740493500831
 30
0.0
 40
8.5
  0
CIRCLE
  5
B0
330
2
100
AcDbEntity
  8
0
100
AcDbCircle
 10
1049.730606674595
 20
200.4740493500831
 30
0.0
 40
5.799999999999999
  0
LINE
  5
B1
330
2
100
AcDbEntity
  8
0
100
AcDbLine
 10
1048.480606674595
 20
197.278621188039
 30
0.0
 11
1050.980606674595
 21
197.278621188039
 31
0.0
  0
LINE
  5
B2
330
2
100
AcDbEntity
  8
0
100
AcDbLine
 10
1048.480606674595
 20
205.2740493500831
 30
0.0
 11
1050.980606674595
 21
205.2740493500831
 31
0.0
  0
LWPOLYLINE
  5
B3
330
2
100
AcDbEntity
  8
0
100
AcDbPolyline
 90
        2
 70
     0
 43
0.0
 10
1048.480606674595
 20
203.472657823969
 10
1048.480606674595
 20
205.2740493500831
  0
LWPOLYLINE
  5
B4
330
2
100
AcDbEntity
  8
0
100
AcDbPolyline
 90
        2
 70
     0
 43
0.0
 10
1048.480606674595
 20
197.278621188039
 10
1048.480606674595
 20
199.1425308050467
  0
LWPOLYLINE
  5
B5
330
2
100
AcDbEntity
  8
0
100
AcDbPolyline
 90
        2
 70
     0
 43
0.0
 10
1050.980606674595
 20
203.472657823969
 10
1050.980606674595
 20
205.2740493500831
  0
LWPOLYLINE
  5
B6
330
2
100
AcDbEntity
  8
0
100
AcDbPolyline
 90
        2
 70
     0
 43
0.0
 10
1050.980606674595
 20
197.278621188039
 10
1050.980606674595
 20
199.1425308050467
  0
ARC
  5
B7
330
2
100
AcDbEntity
  8
0
100
AcDbCircle
 10
1049.730606674595
 20
201.3075943145079
 30
0.0
 40
2.5
100
AcDbArc
 50
299.9999999999997
 51
60.00000000000028
  0
ARC
  5
B8
330
2
100
AcDbEntity
  8
0
100
AcDbCircle
 10
1049.730606674595
 20
201.3075943145079
 30
0.0
 40
2.5
100
AcDbArc
 50
119.9999999999997
 51
240.0000000000003
  0
CIRCLE
  5
B9
330
2
100
AcDbEntity
  8
0
100
AcDbCircle
 10
1049.730606674595
 20
200.4740493500831
 30
0.0
 40
6.75
  0
CIRCLE
  5
BA
330
2
100
AcDbEntity
  8
0
100
AcDbCircle
 10
1049.730606674595
 20
200.4740493500831
 30
0.0
 40
7.25
  0
INSERT
  5
BB
330
2
100
AcDbEntity
  8
09-01
100
AcDbBlockReference
  2
Desipumpe_937040_V
 10
1049.730606674594
 20
293.6025338349903
 30
0.0
  0
INSERT
  5
106
330
2
100
AcDbEntity
  8
09-01
100
AcDbBlockReference
  2
Desipumpe_937040_S
 10
1221.347704083511
 20
339.6025228044057
 30
0.0
  0
DIMENSION
  5
17C
330
2
100
AcDbEntity
  8
09-01
100
AcDbDimension
280
     0
  2
*D16
 10
1021.026394067398
 20
541.1025228044054
 30
0.0
 11
1016.526394067398
 21
547.1025228044055
 31
0.0
 71
     5
 42
12.0
 73
     0
 74
     0
 75
     0
  3
Wagner$0
100
AcDbAlignedDimension
 13
1026.230606674595
 23
553.1025228044054
 33
0.0
 14
1022.480606674595
 24
541.1025228044054
 34
0.0
 50
90.0
100
AcDbRotatedDimension
1001
ACAD
1000
DSTYLE
1002
{
1070
    40
1040
2.0
1002
}
  0
DIMENSION
  5
18D
330
2
100
AcDbEntity
  8
09-01
100
AcDbDimension
280
     0
  2
*D15
 10
1035.980606674595
 20
510.3728885871371
 30
0.0
 11
1048.412834450089
 21
514.8994466270542
 31
0.0
 70
   128
 71
     5
 42
12.5
 73
     0
 74
     0
 75
     0
  3
Wagner$0
100
AcDbAlignedDimension
 13
1023.480606674595
 23
541.1025228044054
 33
0.0
 14
1035.980606674595
 24
541.1025228044054
 34
0.0
100
AcDbRotatedDimension
1001
ACAD
1000
DSTYLE
1002
{
1070
    40
1040
2.0
1002
}
  0
DIMENSION
  5
19C
330
2
100
AcDbEntity
  8
09-01
100
AcDbDimension
280
     0
  2
*D14
 10
1032.230606674595
 20
558.1232138375963
 30
0.0
 11
1025.385173961776
 21
562.6232138375963
 31
0.0
 70
   128
 71
     5
 42
5.0
 73
     0
 74
     0
 75
     0
  3
Wagner$0
100
AcDbAlignedDimension
 13
1027.230606674595
 23
553.1025228044054
 33
0.0
 14
1032.230606674595
 24
553.1025228044054
 34
0.0
100
AcDbRotatedDimension
1001
ACAD
1000
DSTYLE
1002
{
1070
    40
1040
2.0
1002
}
  0
DIMENSION
  5
1AB
330
2
100
AcDbEntity
  8
09-01
100
AcDbDimension
280
     0
  2
*D13
 10
1089.730606674595
 20
320.0707148178299
 30
0.0
 11
1097.234760390816
 21
323.8644447780246
 31
0.0
 70
   128
 71
     5
 42
20.0
 73
     0
 74
     0
 75
     0
  3
Wagner$0
100
AcDbAlignedDimension
 13
1069.730606674595
 23
305.1025228044045
 33
0.0
 14
1089.730606674595
 24
315.8510799773574
 34
0.0
100
AcDbRotatedDimension
1001
ACAD
1000
DSTYLE
1002
{
1070
    40
1040
2.0
1002
}
  0
DIMENSION
  5
1B8
330
2
100
AcDbEntity
  8
09-01
100
AcDbDimension
280
     0
  2
*D12
 10
1069.730606674595
 20
320.0707148178299
 30
0.0
 11
1057.127432942
 21
324.5760762286552
 31
0.0
 70
   128
 71
     5
 42
40.0
 73
     0
 74
     0
 75
     0
  3
Wagner$0
100
AcDbAlignedDimension
 13
1029.730606674595
 23
305.1025228044045
 33
0.0
 14
1069.730606674595
 24
305.1025228044045
 34
0.0
100
AcDbRotatedDimension
1001
ACAD
1000
DSTYLE
1002
{
1070
    40
1040
2.0
1002
}
  0
DIMENSION
  5
1C5
330
2
100
AcDbEntity
  8
09-01
100
AcDbDimension
280
     0
  2
*D11
 10
1029.730606674595
 20
320.0707148178299
 30
0.0
 11
1002.899476293885
 21
323.627235283775
 31
0.0
 70
   128
 71
     5
 42
20.0
 73
     0
 74
     0
 75
     0
  3
Wagner$0
100
AcDbAlignedDimension
 13
1009.730606674595
 23
301.4755797992232
 33
0.0
 14
1029.730606674595
 24
305.1025228044045
 34
0.0
100
AcDbRotatedDimension
1001
ACAD
1000
DSTYLE
1002
{
1070
    40
1040
2.0
1002
}
  0
DIMENSION
  5
1D2
330
2
100
AcDbEntity
  8
09-01
100
AcDbDimension
280
     0
  2
*D10
 10
994.4153697201899
 20
273.6025228044054
 30
0.0
 11
989.9153697201899
 21
287.6025228044052
 31
0.0
 71
     5
 42
27.99999999999909
 73
     0
 74
     0
 75
     0
  3
Wagner$0
100
AcDbAlignedDimension
 13
1026.24837183149
 23
301.6025228044045
 33
0.0
 14
1010.430606674595
 24
273.6025228044054
 34
0.0
 50
90.0
100
AcDbRotatedDimension
1001
ACAD
1000
DSTYLE
1002
{
1070
    40
1040
2.0
1002
}
  0
DIMENSION
  5
1DF
330
2
100
AcDbEntity
  8
09-01
100
AcDbDimension
280
     0
  2
*D9
 10
994.4153697201899
 20
301.6025228044045
 30
0.0
 11
989.9153697201899
 21
427.3525228044051
 31
0.0
 71
     5
 42
251.5000000000009
 73
     0
 74
     0
 75
     0
  3
Wagner$0
100
AcDbAlignedDimension
 13
1026.24837183149
 23
553.1025228044054
 33
0.0
 14
1026.24837183149
 24
301.6025228044045
 34
0.0
 50
90.0
100
AcDbRotatedDimension
1001
ACAD
1000
DSTYLE
1002
{
1070
    40
1040
2.0
1002
}
  0
DIMENSION
  5
1EC
330
2
100
AcDbEntity
  8
09-01
100
AcDbDimension
280
     0
  2
*D8
 10
994.4153697201899
 20
553.1025228044054
 30
0.0
 11
989.9153697201899
 21
562.3525228044055
 31
0.0
 71
     5
 42
18.5
 73
     0
 74
     0
 75
     0
  3
Wagner$0
100
AcDbAlignedDimension
 13
1009.730606674595
 23
571.6025228044054
 33
0.0
 14
1019.349212946124
 24
553.1025228044054
 34
0.0
 50
90.0
100
AcDbRotatedDimension
1001
ACAD
1000
DSTYLE
1002
{
1070
    40
1040
2.0
1002
}
  0
DIMENSION
  5
1F9
330
2
100
AcDbEntity
  8
09-01
100
AcDbDimension
280
     0
  2
*D7
 10
1102.253894893077
 20
112.6740493500829
 30
0.0
 11
1097.753894893077
 21
172.3240493500832
 31
0.0
 71
     5
 42
119.3000000000002
 73
     0
 74
     0
 75
     0
  3
Wagner$0
100
AcDbAlignedDimension
 13
1089.730606674595
 23
231.9740493500831
 33
0.0
 14
1080.430606674595
 24
112.6740493500829
 34
0.0
 50
90.0
100
AcDbRotatedDimension
1001
ACAD
1000
DSTYLE
1002
{
1070
    40
1040
2.0
1002
}
  0
DIMENSION
  5
206
330
2
100
AcDbEntity
  8
09-01
100
AcDbDimension
280
     0
  2
*D6
 10
1089.730606674595
 20
237.7091964564461
 30
0.0
 11
1049.730606674595
 21
242.2091964564461
 31
0.0
 71
     5
 42
80.0
 73
     0
 74
     0
 75
     0
  3
Wagner$0
100
AcDbAlignedDimension
 13
1009.730606674595
 23
231.9740493500831
 33
0.0
 14
1089.730606674595
 24
231.9740493500831
 34
0.0
100
AcDbRotatedDimension
1001
ACAD
1000
DSTYLE
1002
{
1070
    40
1040
2.0
1002
}
  0
INSERT
  5
213
330
2
100
AcDbEntity
  8
09-01
100
AcDbBlockReference
 66
     1
  2
DIN A4
 10
942.8438646124519
 20
0.0000040257946239
 30
0.0
 41
2.0
 42
2.0
 43
2.0
  0
ATTRIB
  5
287
330
213
100
AcDbEntity
  8
06-99
100
AcDbText
 10
1175.834773115277
 20
52.37567739456427
 30
0.0
 40
8.0
  1
Desinfektionsmittelspender PP102-7
 41
0.75
  7
ROMANS8
100
AcDbAttribute
280
     0
  2
TEILE
 70
     0
280
     0
  0
ATTRIB
  5
288
330
213
100
AcDbEntity
  8
06-99
100
AcDbText
 10
1175.834773115277
 20
38.59095699799218
 30
0.0
 40
8.0
  1
abschließbar
 41
0.9
  7
ROMANS8
100
AcDbAttribute
280
     0
  2
TEILE2
 70
     0
280
     0
  0
ATTRIB
  5
289
330
213
100
AcDbEntity
  8
06-99
100
AcDbText
 10
1325.538652060352
 20
90.66666666666788
 30
0.0
 40
6.75
  1
1:2
  7
ROMANS8
100
AcDbAttribute
280
     0
  2
:
 70
     0
280
     0
  0
ATTRIB
  5
28A
330
213
100
AcDbEntity
  8
06-99
100
AcDbText
 10
1128.838015235658
 20
54.88337093606242
 30
0.0
 40
5.0
  1
Häberle
 41
0.9
  7
ROMANS8
100
AcDbAttribute
280
     0
  2
NAME
 70
     0
280
     0
  0
ATTRIB
  5
28B
330
213
100
AcDbEntity
  8
06-99
100
AcDbText
 10
1101.830172540711
 20
54.92247034822139
 30
0.0
 40
5.0
  1
30.10.2020
 50
359.9144597696136
 41
0.5557145111805319
  7
ROMANS8
 72
     5
 11
1124.3233538778
 21
54.88888893333205
 31
0.0
100
AcDbAttribute
280
     0
  2
DATUM
 70
     0
280
     0
  0
ATTRIB
  5
28C
330
213
100
AcDbEntity
  8
06-99
100
AcDbText
 10
1299.856567571239
 20
14.98579960057759
 30
0.0
 40
5.98752
  1
727334
  7
ROMANS8
100
AcDbAttribute
280
     0
  2
ID.NR
 70
     0
280
     0
  0
ATTRIB
  5
28D
330
213
100
AcDbEntity
  8
06-99
100
AcDbText
 10
1176.306412148344
 20
75.33333328888875
 30
0.0
 40
6.0
  1

 41
0.9
  7
ROMANS8
100
AcDbAttribute
280
     0
  2
LÄNGE
 70
     0
280
     0
  0
ATTRIB
  5
28E
330
213
100
AcDbEntity
  8
06-99
100
AcDbText
 10
1243.205489460462
 20
75.35620774088966
 30
0.0
 40
6.0
  1

 41
0.9
  7
ROMANS8
100
AcDbAttribute
280
     0
  2
BREITE
 70
     0
280
     0
  0
ATTRIB
  5
28F
330
213
100
AcDbEntity
  8
06-99
100
AcDbText
 10
1324.062063890386
 20
75.33333333333212
 30
0.0
 40
6.187500000000001
  1

  7
ROMANS8
100
AcDbAttribute
280
     0
  2
1.0
 70
     0
280
     0
  0
ATTRIB
  5
290
330
213
100
AcDbEntity
  8
06-99
100
AcDbText
 10
1271.099450839728
 20
90.66666666666788
 30
0.0
 40
6.0
  1

  7
ROMANS8
 72
     1
 11
1271.099450839728
 21
90.66666666666788
 31
0.0
100
AcDbAttribute
280
     0
  2
IV
 70
     0
280
     0
  0
ATTRIB
  5
291
330
213
100
AcDbEntity
  8
06-99
100
AcDbText
 10
1189.393360709154
 20
90.66666666666788
 30
0.0
 40
6.75
  1
1.4404
  7
ROMANS8
100
AcDbAttribute
280
     0
  2
1.4301
 70
     0
280
     0
  0
ATTRIB
  5
292
330
213
100
AcDbEntity
  8
06-99
100
AcDbText
 10
1234.845147410683
 20
15.00879320870808
 30
0.0
 40
6.336
  1

 41
0.9000000000000001
  7
ROMANS8
100
AcDbAttribute
280
     0
  2
AUFTRAGS.NR.
 70
     0
280
     0
  0
ATTRIB
  5
293
330
213
100
AcDbEntity
  8
06-99
100
AcDbText
 10
1175.843879636923
 20
15.0
 30
0.0
 40
6.336
  1

 41
0.9000000000000001
  7
ROMANS8
100
AcDbAttribute
280
     0
  2
SONDER-NR
 70
     0
280
     0
  0
ATTRIB
  5
294
330
213
100
AcDbEntity
  8
06-99
100
AcDbText
 10
1035.843381626939
 20
13.20362013851991
 30
0.0
 40
3.0
  1

 41
0.9
  7
ROMANS8
100
AcDbAttribute
280
     0
  2
ERSETZT.DURCH
 70
     0
280
     0
  0
ATTRIB
  5
295
330
213
100
AcDbEntity
  8
06-99
100
AcDbText
 10
985.8428151973198
 20
13.19491279574504
 30
0.0
 40
3.0
  1

 41
0.9
  7
ROMANS8
100
AcDbAttribute
280
     0
  2
ERSETZT.FÜR
 70
     0
280
     0
  0
ATTRIB
  5
296
330
213
100
AcDbEntity
  8
06-99
100
AcDbText
 10
1142.790024929798
 20
95.33702228001493
 30
0.0
 40
2.574
  1
DIN A4
  7
ROMANS8
 72
     1
 11
1149.347596358369
 21
95.33702228001493
 31
0.0
100
AcDbAttribute
280
     0
  2
FORMAT
 70
     0
280
     0
  0
ATTRIB
  5
297
330
213
100
AcDbEntity
  8
06-99
100
AcDbText
 10
1134.818757631735
 20
74.3939346677289
 30
0.0
 40
4.68
  1
DIN 2768
  7
ROMANS8
 72
     1
 11
1150.864471917449
 21
74.3939346677289
 31
0.0
100
AcDbAttribute
280
     0
  2
NORM2
 70
     0
280
     0
  0
ATTRIB
  5
298
330
213
100
AcDbEntity
  8
06-99
100
AcDbText
 10
1128.467329060307
 20
82.06060133439677
 30
0.0
 40
4.68
  1
DIN 6930-M
  7
ROMANS8
 72
     1
 11
1149.861614774592
 21
82.06060133439677
 31
0.0
100
AcDbAttribute
280
     0
  2
NORM1
 70
     0
280
     0
  0
SEQEND
  5
299
330
213
100
AcDbEntity
  8
09-01
  0
DIMENSION
  5
29A
330
2
100
AcDbEntity
  8
09-01
100
AcDbDimension
280
     0
  2
*D5
 10
1156.163308156265
 20
571.6025228044054
 30
0.0
 11
1151.663308156265
 21
422.6025228044056
 31
0.0
 71
     5
 42
298.0
 73
     0
 74
     0
 75
     0
  3
Wagner$0
100
AcDbAlignedDimension
 13
1176.347704083511
 23
273.6025228044054
 33
0.0
 14
1171.347704083475
 24
571.6025228044054
 34
0.0
 50
90.0
100
AcDbRotatedDimension
1001
ACAD
1000
DSTYLE
1002
{
1070
    40
1040
2.0
1002
}
  0
LINE
  5
2A7
330
2
100
AcDbEntity
  8
09-01
100
AcDbLine
 10
1171.347704083474
 20
570.1025228044054
 30
0.0
 11
1171.347704083475
 21
571.6025228044054
 31
0.0
  0
LINE
  5
2A8
330
2
100
AcDbEntity
  8
09-01
100
AcDbLine
 10
1290.647704083475
 20
570.1025228044054
 30
0.0
 11
1290.647704083475
 21
571.6025228044054
 31
0.0
  0
INSERT
  5
2A9
330
2
100
AcDbEntity
  8
09-01
100
AcDbBlockReference
  2
Mantel01-s
 10
1178.347704083511
 20
280.6025228044055
 30
0.0
 41
-1.0
  0
LINE
  5
2B7
330
2
100
AcDbEntity
  8
05-01
100
AcDbLine
 10
1202.847704083475
 20
576.3617739815761
 30
0.0
 11
1202.847704083475
 21
556.711773981576
 31
0.0
  0
LINE
  5
2B8
330
2
100
AcDbEntity
  8
0
100
AcDbLine
 10
1211.347704083475
 20
571.6025228044091
 30
0.0
 11
1211.347704083475
 21
573.402522804409
 31
0.0
  0
LINE
  5
2B9
330
2
100
AcDbEntity
  8
0
100
AcDbLine
 10
1194.347704083475
 20
573.4025228044091
 30
0.0
 11
1194.347704083475
 21
571.6025228044091
 31
0.0
  0
LINE
  5
2BA
330
2
100
AcDbEntity
  8
0
100
AcDbLine
 10
1211.347704083475
 20
573.402522804409
 30
0.0
 11
1194.347704083475
 21
573.4025228044091
 31
0.0
  0
LINE
  5
2BB
330
2
100
AcDbEntity
  8
0
100
AcDbLine
 10
1210.097704083475
 20
574.902522804409
 30
0.0
 11
1211.347704083475
 21
573.402522804409
 31
0.0
  0
LINE
  5
2BC
330
2
100
AcDbEntity
  8
0
100
AcDbLine
 10
1195.597704083475
 20
574.9025228044091
 30
0.0
 11
1194.347704083475
 21
573.4025228044091
 31
0.0
  0
LINE
  5
2BD
330
2
100
AcDbEntity
  8
0
100
AcDbLine
 10
1195.597704083475
 20
574.9025228044091
 30
0.0
 11
1210.097704083475
 21
574.902522804409
 31
0.0
  0
LINE
  5
2BE
330
2
100
AcDbEntity
  8
03-01
100
AcDbLine
 10
1269.747704083475
 20
570.1025228044054
 30
0.0
 11
1194.947704083475
 21
570.1025228044054
 31
0.0
  0
LINE
  5
2BF
330
2
100
AcDbEntity
  8
05-01
100
AcDbLine
 10
1174.697704083511
 20
280.6025228044055
 30
0.0
 11
1181.997704083511
 21
280.6025228044055
 31
0.0
  0
LINE
  5
2C0
330
2
100
AcDbEntity
  8
05-01
100
AcDbLine
 10
1178.347704083511
 20
276.9525228044049
 30
0.0
 11
1178.347704083511
 21
284.2525228044051
 31
0.0
  0
LINE
  5
2C1
330
2
100
AcDbEntity
  8
0
100
AcDbLine
 10
1290.647704083475
 20
571.6025228044054
 30
0.0
 11
1171.347704083475
 21
571.6025228044054
 31
0.0
  0
LINE
  5
2C2
330
2
100
AcDbEntity
  8
0
100
AcDbLine
 10
1290.647704083475
 20
570.1025228044054
 30
0.0
 11
1171.347704083474
 21
570.1025228044054
 31
0.0
  0
CIRCLE
  5
2C3
330
2
100
AcDbEntity
  8
01-01
100
AcDbCircle
 10
1178.347704083511
 20
280.6025228044055
 30
0.0
 40
1.649999999999999
  0
LINE
  5
2C4
330
2
100
AcDbEntity
  8
05-01
100
AcDbLine
 10
1180.997704083511
 20
280.6025228044055
 30
0.0
 11
1175.697704083511
 21
280.6025228044055
 31
0.0
  0
LINE
  5
2C5
330
2
100
AcDbEntity
  8
05-01
100
AcDbLine
 10
1178.347704083511
 20
277.9525228044058
 30
0.0
 11
1178.347704083511
 21
283.2525228044051
 31
0.0
  0
CIRCLE
  5
2C6
330
2
100
AcDbEntity
  8
01-01
100
AcDbCircle
 10
1178.347704083511
 20
280.6025228044055
 30
0.0
 40
1.649999999999999
  0
DIMENSION
  5
2C7
330
2
100
AcDbEntity
  8
09-01
100
AcDbDimension
280
     0
  2
*D20
 10
1290.64770408351
 20
204.2587603350203
 30
0.0
 11
1230.99770408351
 21
208.7587603350203
 31
0.0
 71
     5
 42
119.2999999999983
 73
     0
 74
     0
 75
     0
  3
Wagner$0
100
AcDbAlignedDimension
 13
1171.347704083511
 23
273.6025228044054
 33
0.0
 14
1290.64770408351
 24
292.8905043991417
 34
0.0
 50
180.0
100
AcDbRotatedDimension
1001
ACAD
1000
DSTYLE
1002
{
1070
   271
1070
     1
1070
    40
1040
2.0
1002
}
  0
DIMENSION
  5
2D4
330
2
100
AcDbEntity
  8
09-01
100
AcDbDimension
280
     0
  2
*D19
 10
1270.373167955169
 20
217.6995609619817
 30
0.0
 11
1220.86043601934
 21
222.1995609619817
 31
0.0
 71
     5
 42
99.02546387165807
 73
     0
 74
     0
 75
     0
  3
Wagner$0
100
AcDbAlignedDimension
 13
1171.347704083511
 23
273.6025228044054
 33
0.0
 14
1270.373167955169
 24
285.1025241157079
 34
0.0
 50
180.0
100
AcDbRotatedDimension
1001
ACAD
1000
DSTYLE
1002
{
1070
   271
1070
     1
1070
    40
1040
2.0
1002
}
  0
DIMENSION
  5
2E1
330
2
100
AcDbEntity
  8
09-01
100
AcDbDimension
280
     0
  2
*D18
 10
1235.69316786606
 20
232.973199186983
 30
0.0
 11
1203.520435974786
 21
237.473199186983
 31
0.0
 71
     5
 42
64.34546378254913
 73
     0
 74
     0
 75
     0
  3
Wagner$0
100
AcDbAlignedDimension
 13
1171.347704083511
 23
273.6025228044054
 33
0.0
 14
1235.69316786606
 24
254.7398656411558
 34
0.0
 50
180.0
100
AcDbRotatedDimension
1001
ACAD
1000
DSTYLE
1002
{
1070
   271
1070
     1
1070
    40
1040
2.0
1002
}
  0
DIMENSION
  5
2EE
330
2
100
AcDbEntity
  8
09-01
100
AcDbDimension
280
     0
  2
*D17
 10
1306.089465664067
 20
292.8905043991417
 30
0.0
 11
1301.589465664067
 21
432.2465136017738
 31
0.0
 71
     5
 42
278.7120184052638
 73
     0
 74
     0
 75
     0
  3
Wagner$0
100
AcDbAlignedDimension
 13
1290.647704083475
 23
571.6025228044054
 33
0.0
 14
1290.64770408351
 24
292.8905043991417
 34
0.0
 50
90.0
100
AcDbRotatedDimension
1001
ACAD
1000
DSTYLE
1002
{
1070
   271
1070
     1
1070
    40
1040
2.0
1002
}
  0
LINE
  5
2FB
330
2
100
AcDbEntity
  8
05-01
100
AcDbLine
 10
1164.957945584978
 20
301.6025228044055
 30
0.0
 11
1177.437164879393
 21
301.6025228044055
 31
0.0
  0
LINE
  5
2FC
330
2
100
AcDbEntity
  8
05-01
100
AcDbLine
 10
1049.730606674595
 20
556.7525228044054
 30
0.0
 11
1049.730606674595
 21
576.9025228044053
 31
0.0
  0
LINE
  5
2FD
330
2
100
AcDbEntity
  8
0
100
AcDbLine
 10
1058.230606674595
 20
571.6025228044054
 30
0.0
 11
1058.230606674595
 21
573.4025228044053
 31
0.0
  0
LINE
  5
2FE
330
2
100
AcDbEntity
  8
0
100
AcDbLine
 10
1041.230606674595
 20
573.4025228044055
 30
0.0
 11
1041.230606674595
 21
571.6025228044054
 31
0.0
  0
LINE
  5
2FF
330
2
100
AcDbEntity
  8
0
100
AcDbLine
 10
1058.230606674595
 20
573.4025228044053
 30
0.0
 11
1041.230606674595
 21
573.4025228044055
 31
0.0
  0
LINE
  5
300
330
2
100
AcDbEntity
  8
0
100
AcDbLine
 10
1056.980606674595
 20
574.9025228044054
 30
0.0
 11
1058.230606674595
 21
573.4025228044053
 31
0.0
  0
LINE
  5
301
330
2
100
AcDbEntity
  8
0
100
AcDbLine
 10
1042.480606674595
 20
574.9025228044055
 30
0.0
 11
1041.230606674595
 21
573.4025228044055
 31
0.0
  0
LINE
  5
302
330
2
100
AcDbEntity
  8
0
100
AcDbLine
 10
1042.480606674595
 20
574.9025228044055
 30
0.0
 11
1056.980606674595
 21
574.9025228044054
 31
0.0
  0
CIRCLE
  5
303
330
2
100
AcDbEntity
  8
03-01
100
AcDbCircle
 10
1049.74837183149
 20
541.1025228044054
 30
0.0
 40
3.25
  0
LINE
  5
304
330
2
100
AcDbEntity
  8
05-01
100
AcDbLine
 10
1049.74837183149
 20
545.3525228044054
 30
0.0
 11
1049.74837183149
 21
536.8525228044054
 31
0.0
  0
LINE
  5
305
330
2
100
AcDbEntity
  8
05-01
100
AcDbLine
 10
1045.49837183149
 20
541.1025228044054
 30
0.0
 11
1053.99837183149
 21
541.1025228044054
 31
0.0
  0
ARC
  5
306
330
2
100
AcDbEntity
  8
03-01
100
AcDbCircle
 10
1069.730606674595
 20
289.6025228044045
 30
0.0
 40
6.25
100
AcDbArc
 50
113.578178478215
 51
66.421821521785
  0
LINE
  5
307
330
2
100
AcDbEntity
  8
05-01
100
AcDbLine
 10
1076.980606674595
 20
289.6025228044045
 30
0.0
 11
1062.480606674595
 21
289.6025228044045
 31
0.0
  0
LINE
  5
308
330
2
100
AcDbEntity
  8
05-01
100
AcDbLine
 10
1073.230606674595
 20
301.6025228044045
 30
0.0
 11
1066.230606674595
 21
301.6025228044045
 31
0.0
  0
LINE
  5
309
330
2
100
AcDbEntity
  8
03-01
100
AcDbLine
 10
1072.230606674595
 20
301.6025228044045
 30
0.0
 11
1072.230606674595
 21
295.3307424230997
 31
0.0
  0
LINE
  5
30A
330
2
100
AcDbEntity
  8
01-01
100
AcDbLine
 10
1069.730606674595
 20
304.1025228044045
 30
0.0
 11
1069.730606674595
 21
304.1025228044045
 31
0.0
  0
ARC
  5
30B
330
2
100
AcDbEntity
  8
03-01
100
AcDbCircle
 10
1069.730606674595
 20
301.6025228044045
 30
0.0
 40
2.5
100
AcDbArc
 50
0.0
 51
180.0
  0
LINE
  5
30C
330
2
100
AcDbEntity
  8
03-01
100
AcDbLine
 10
1067.230606674595
 20
295.3307424230989
 30
0.0
 11
1067.230606674595
 21
301.6025228044045
 31
0.0
  0
LINE
  5
30D
330
2
100
AcDbEntity
  8
05-01
100
AcDbLine
 10
1069.730606674595
 20
305.1025228044045
 30
0.0
 11
1069.730606674595
 21
282.3525228044045
 31
0.0
  0
ARC
  5
30E
330
2
100
AcDbEntity
  8
03-01
100
AcDbCircle
 10
1029.730606674595
 20
289.6025228044045
 30
0.0
 40
6.25
100
AcDbArc
 50
113.578178478215
 51
66.421821521785
  0
LINE
  5
30F
330
2
100
AcDbEntity
  8
05-01
100
AcDbLine
 10
1022.480606674595
 20
289.6025228044045
 30
0.0
 11
1036.980606674595
 21
289.6025228044045
 31
0.0
  0
LINE
  5
310
330
2
100
AcDbEntity
  8
05-01
100
AcDbLine
 10
1026.230606674595
 20
301.6025228044045
 30
0.0
 11
1033.230606674595
 21
301.6025228044045
 31
0.0
  0
LINE
  5
311
330
2
100
AcDbEntity
  8
03-01
100
AcDbLine
 10
1027.230606674595
 20
301.6025228044045
 30
0.0
 11
1027.230606674595
 21
295.3307424230997
 31
0.0
  0
LINE
  5
312
330
2
100
AcDbEntity
  8
01-01
100
AcDbLine
 10
1029.74837183149
 20
304.1025228044045
 30
0.0
 11
1029.74837183149
 21
304.1025228044045
 31
0.0
  0
ARC
  5
313
330
2
100
AcDbEntity
  8
03-01
100
AcDbCircle
 10
1029.730606674595
 20
301.6025228044045
 30
0.0
 40
2.5
100
AcDbArc
 50
0.0
 51
180.0
  0
LINE
  5
314
330
2
100
AcDbEntity
  8
03-01
100
AcDbLine
 10
1032.230606674595
 20
295.3307424230989
 30
0.0
 11
1032.230606674595
 21
301.6025228044045
 31
0.0
  0
LINE
  5
315
330
2
100
AcDbEntity
  8
05-01
100
AcDbLine
 10
1029.730606674595
 20
305.1025228044045
 30
0.0
 11
1029.730606674595
 21
282.3525228044045
 31
0.0
  0
ARC
  5
316
330
2
100
AcDbEntity
  8
03-01
100
AcDbCircle
 10
1069.730606674595
 20
541.1025228044054
 30
0.0
 40
6.25
100
AcDbArc
 50
113.578178478215
 51
66.421821521785
  0
LINE
  5
317
330
2
100
AcDbEntity
  8
05-01
100
AcDbLine
 10
1076.980606674595
 20
541.1025228044054
 30
0.0
 11
1062.480606674595
 21
541.1025228044054
 31
0.0
  0
LINE
  5
318
330
2
100
AcDbEntity
  8
05-01
100
AcDbLine
 10
1073.230606674595
 20
553.1025228044054
 30
0.0
 11
1066.230606674595
 21
553.1025228044054
 31
0.0
  0
LINE
  5
319
330
2
100
AcDbEntity
  8
03-01
100
AcDbLine
 10
1072.230606674595
 20
553.1025228044054
 30
0.0
 11
1072.230606674595
 21
546.8307424230988
 31
0.0
  0
LINE
  5
31A
330
2
100
AcDbEntity
  8
01-01
100
AcDbLine
 10
1069.730606674595
 20
555.6025228044054
 30
0.0
 11
1069.730606674595
 21
555.6025228044054
 31
0.0
  0
ARC
  5
31B
330
2
100
AcDbEntity
  8
03-01
100
AcDbCircle
 10
1069.730606674595
 20
553.1025228044054
 30
0.0
 40
2.5
100
AcDbArc
 50
0.0
 51
180.0
  0
LINE
  5
31C
330
2
100
AcDbEntity
  8
03-01
100
AcDbLine
 10
1067.230606674595
 20
546.8307424230988
 30
0.0
 11
1067.230606674595
 21
553.1025228044054
 31
0.0
  0
LINE
  5
31D
330
2
100
AcDbEntity
  8
05-01
100
AcDbLine
 10
1069.730606674595
 20
556.6025228044054
 30
0.0
 11
1069.730606674595
 21
533.8525228044054
 31
0.0
  0
ARC
  5
31E
330
2
100
AcDbEntity
  8
03-01
100
AcDbCircle
 10
1029.730606674595
 20
541.1025228044054
 30
0.0
 40
6.25
100
AcDbArc
 50
113.578178478215
 51
66.421821521785
  0
LINE
  5
31F
330
2
100
AcDbEntity
  8
05-01
100
AcDbLine
 10
1022.480606674595
 20
541.1025228044054
 30
0.0
 11
1036.980606674595
 21
541.1025228044054
 31
0.0
  0
LINE
  5
320
330
2
100
AcDbEntity
  8
05-01
100
AcDbLine
 10
1026.230606674595
 20
553.1025228044054
 30
0.0
 11
1033.230606674595
 21
553.1025228044054
 31
0.0
  0
LINE
  5
321
330
2
100
AcDbEntity
  8
03-01
100
AcDbLine
 10
1027.230606674595
 20
553.1025228044054
 30
0.0
 11
1027.230606674595
 21
546.8307424230988
 31
0.0
  0
LINE
  5
322
330
2
100
AcDbEntity
  8
01-01
100
AcDbLine
 10
1029.730606674595
 20
555.6025228044054
 30
0.0
 11
1029.730606674595
 21
555.6025228044054
 31
0.0
  0
ARC
  5
323
330
2
100
AcDbEntity
  8
03-01
100
AcDbCircle
 10
1029.730606674595
 20
553.1025228044054
 30
0.0
 40
2.5
100
AcDbArc
 50
0.0
 51
180.0
  0
LINE
  5
324
330
2
100
AcDbEntity
  8
03-01
100
AcDbLine
 10
1032.230606674595
 20
546.8307424230988
 30
0.0
 11
1032.230606674595
 21
553.1025228044054
 31
0.0
  0
LINE
  5
325
330
2
100
AcDbEntity
  8
05-01
100
AcDbLine
 10
1029.730606674595
 20
556.6025228044054
 30
0.0
 11
1029.730606674595
 21
533.8525228044054
 31
0.0
  0
LWPOLYLINE
  5
326
330
2
100
AcDbEntity
  8
EBENE_1
  6
Continuous
 62
     1
100
AcDbPolyline
 90
        9
 70
     1
 43
0.0135
 10
1063.89490968959
 20
530.9600967439109
 10
1064.09143818959
 20
530.9600967439109
 10
1064.28925368959
 20
530.9176977439092
 10
1064.39135868959
 20
530.7977817439096
 10
1064.39766768959
 20
530.6112792439107
 10
1064.31894018959
 20
530.4273147439107
 10
1064.17048968959
 20
530.3121372439091
 10
1063.95902568959
 20
530.2722897439107
 10
1063.76249718959
 20
530.2722897439107
  0
LWPOLYLINE
  5
32A
330
2
100
AcDbEntity
  8
EBENE_1
  6
Continuous
 62
     1
100
AcDbPolyline
 90
       19
 70
     1
 43
0.0135
 10
1062.80041518959
 20
537.512699743911
 10
1063.22214168959
 20
537.512699743911
 10
1063.47995118959
 20
537.5021967439097
 10
1063.69943418959
 20
537.4688022439113
 10
1063.88181918959
 20
537.4097082439111
 10
1064.02831218959
 20
537.3221022439102
 10
1064.14013268959
 20
537.2031717439094
 10
1064.21849568959
 20
537.05010424391
 10
1064.26462518959
 20
536.8600782439098
 10
1064.27973168959
 20
536.6302947439107
 10
1064.26382868959
 20
536.4045972439107
 10
1064.21575968959
 20
536.2213302439104
 10
1064.13500268959
 20
536.0766867439106
 10
1064.02101318959
 20
535.9668687439116
 10
1063.87326918959
 20
535.8880737439103
 10
1063.69123068959
 20
535.8364947439112
 10
1063.47436218959
 20
535.8083382439108
 10
1063.22214168959
 20
535.7997972439116
 10
1062.80041518959
 20
535.7997972439116
  0
LWPOLYLINE
  5
32B
330
2
100
AcDbEntity
  8
EBENE_1
  6
Continuous
 62
     1
100
AcDbPolyline
 90
       12
 70
     1
 43
0.0135
 10
1057.91579118959
 20
533.2434237439101
 10
1060.21263168959
 20
533.2434237439101
 10
1060.21263168959
 20
533.6392122439101
 10
1058.33753118959
 20
533.6392122439101
 10
1058.33753118959
 20
535.6375812439109
 10
1060.21263168959
 20
535.6375812439109
 10
1060.21263168959
 20
536.0333697439091
 10
1058.33753118959
 20
536.0333697439091
 10
1058.33753118959
 20
537.4867437439097
 10
1060.21263168959
 20
537.4867437439097
 10
1060.21263168959
 20
537.8825322439115
 10
1057.91579118959
 20
537.8825322439115
  0
LWPOLYLINE
  5
32C
330
2
100
AcDbEntity
  8
EBENE_1
  6
Continuous
 62
     1
100
AcDbPolyline
 90
       29
 70
     1
 43
0.0135
 10
1065.19457718959
 20
533.2434237439101
 10
1063.52709768959
 20
535.4559162439109
 10
1063.76499918959
 20
535.4718237439101
 10
1063.98031068959
 20
535.5187542439107
 10
1064.17159668959
 20
535.5955332439116
 10
1064.33740818959
 20
535.7009952439112
 10
1064.47630518959
 20
535.8339522439091
 10
1064.58684318959
 20
535.9932432439091
 10
1064.66758668959
 20
536.1776847439105
 10
1064.71709118959
 20
536.3861022439104
 10
1064.73391218959
 20
536.6173257439113
 10
1064.72151918959
 20
536.8383657439099
 10
1064.68432668959
 20
537.0379407439104
 10
1064.62229868959
 20
537.216136243911
 10
1064.53541268959
 20
537.3730377439096
 10
1064.42363718959
 20
537.5087352439114
 10
1064.28694068959
 20
537.6233187439102
 10
1064.12529618959
 20
537.71686924391
 10
1063.93867218959
 20
537.7894767439101
 10
1063.72704168959
 20
537.8412357439101
 10
1063.49037768959
 20
537.8722227439102
 10
1063.22864418959
 20
537.8825322439115
 10
1063.22864418959
 20
537.8825322439115
 10
1062.37867518959
 20
537.8825322439115
 10
1062.37867518959
 20
533.2434237439101
 10
1062.80041518959
 20
533.2434237439101
 10
1062.80041518959
 20
535.4559162439109
 10
1063.05346368959
 20
535.4559162439109
 10
1064.68200018959
 20
533.2434237439101
  0
LWPOLYLINE
  5
32D
330
2
100
AcDbEntity
  8
EBENE_1
  6
Continuous
 62
     1
100
AcDbPolyline
 90
       23
 70
     1
 43
0.0135
 10
1062.15459768959
 20
528.35132074391
 10
1063.39264668959
 20
528.35132074391
 10
1063.61587368959
 20
529.5107772439114
 10
1064.00677068959
 20
528.35132074391
 10
1065.42168318959
 20
528.35132074391
 10
1064.75859018959
 20
529.7809932439104
 10
1064.95980318959
 20
529.82984974391
 10
1065.14322768959
 20
529.9245567439101
 10
1065.30439968959
 20
530.0610282439102
 10
1065.43884618959
 20
530.23516474391
 10
1065.54208968959
 20
530.4428712439111
 10
1065.60965718959
 20
530.68005274391
 10
1065.63678768959
 20
530.89586374391
 10
1065.63136068959
 20
531.0918342439108
 10
1065.59338968959
 20
531.2672892439113
 10
1065.52288818959
 20
531.4215492439107
 10
1065.41987868959
 20
531.5539392439095
 10
1065.28437918959
 20
531.6637752439091
 10
1065.11639868959
 20
531.7503867439099
 10
1064.91596418959
 20
531.8130897439114
 10
1064.68308018959
 20
531.8512092439105
 10
1064.41777818959
 20
531.86406574391
 10
1062.83090718959
 20
531.86406574391
  0
LWPOLYLINE
  5
32E
330
2
100
AcDbEntity
  8
EBENE_1
  6
Continuous
 62
     1
100
AcDbPolyline
 90
        8
 70
     1
 43
0.0135
 10
1056.27467268959
 20
528.35132074391
 10
1057.63145868959
 20
528.35132074391
 10
1057.82467518959
 20
528.7934907439103
 10
1058.77778868959
 20
528.7934907439103
 10
1058.80565718959
 20
528.35132074391
 10
1060.16162868959
 20
528.35132074391
 10
1059.60970368959
 20
531.86406574391
 10
1058.20460568959
 20
531.86406574391
  0
LWPOLYLINE
  5
32F
330
2
100
AcDbEntity
  8
EBENE_1
  6
Continuous
 62
     1
100
AcDbPolyline
 90
       10
 70
     1
 43
0.0135
 10
1058.19672168959
 20
529.6286817439104
 10
1058.38143318959
 20
530.0266302439104
 10
1058.47581618959
 20
530.2342512439099
 10
1058.57814168959
 20
530.4888162439092
 10
1058.67243018959
 20
530.7979752439096
 10
1058.69700018959
 20
530.7979752439096
 10
1058.67222318959
 20
530.4888162439092
 10
1058.67652518959
 20
530.2342512439099
 10
1058.69096118959
 20
530.0266302439104
 10
1058.72240718959
 20
529.6286817439104
  0
LWPOLYLINE
  5
330
330
2
100
AcDbEntity
  8
EBENE_1
  6
Continuous
 62
     1
100
AcDbPolyline
 90
      133
 70
     1
 43
0.0135
 10
1049.31445068959
 20
536.714642743911
 10
1049.61938418959
 20
536.9806557439114
 10
1049.51055168959
 20
537.1561737439114
 10
1049.38607268959
 20
537.3146952439092
 10
1049.24637918959
 20
537.4562787439099
 10
1049.09192118959
 20
537.5809917439109
 10
1048.92313068959
 20
537.688883743911
 10
1048.74044418959
 20
537.7800132439115
 10
1048.54430718959
 20
537.8544477439099
 10
1048.33515168959
 20
537.9122367439103
 10
1048.11341868959
 20
537.9534387439107
 10
1047.87954918959
 20
537.9781212439102
 10
1047.63397968959
 20
537.9863337439092
 10
1047.43079118959
 20
537.9786792439099
 10
1047.23415018959
 20
537.9560487439102
 10
1047.04447518959
 20
537.9189327439108
 10
1046.86218918959
 20
537.8678307439113
 10
1046.68771068959
 20
537.80324224391
 10
1046.52144918959
 20
537.7256622439108
 10
1046.36383668959
 20
537.6355857439103
 10
1046.21528268959
 20
537.5335077439103
 10
1046.07620568959
 20
537.4199232439095
 10
1045.94703318959
 20
537.2953362439111
 10
1045.82817018959
 20
537.1602327439104
 10
1045.72004418959
 20
537.0151212439104
 10
1045.62307368959
 20
536.8604877439102
 10
1045.53767268959
 20
536.6968317439095
 10
1045.46426418959
 20
536.5246482439106
 10
1045.40326218959
 20
536.3444412439093
 10
1045.35508518959
 20
536.1566967439102
 10
1045.32016068959
 20
535.9619187439093
 10
1045.29889368959
 20
535.7605977439106
 10
1045.29171618959
 20
535.5532332439106
 10
1045.29880368959
 20
535.3397172439108
 10
1045.31982768959
 20
535.1334867439109
 10
1045.35441018959
 20
534.9349422439099
 10
1045.40217318959
 20
534.7444797439093
 10
1045.46274318959
 20
534.5624952439102
 10
1045.53574668959
 20
534.3893847439103
 10
1045.62081018959
 20
534.2255397439112
 10
1045.71755568959
 20
534.0713607439101
 10
1045.82560968959
 20
533.9272392439106
 10
1045.94460318959
 20
533.7935757439099
 10
1046.07414918959
 20
533.6707617439096
 10
1046.21388768959
 20
533.5591977439107
 10
1046.36343168959
 20
533.4592752439093
 10
1046.52241218959
 20
533.3713902439103
 10
1046.69045118959
 20
533.2959432439093
 10
1046.86717968959
 20
533.2333257439095
 10
1047.05221518959
 20
533.1839337439105
 10
1047.24519318959
 20
533.1481632439099
 10
1047.44572668959
 20
533.1264102439108
 10
1047.65345118959
 20
533.119070743909
 10
1047.86051868959
 20
533.1257037439099
 10
1048.05917118959
 20
533.1454497439099
 10
1048.24917018959
 20
533.1780657439103
 10
1048.43027718959
 20
533.223308743909
 10
1048.60225818959
 20
533.2809402439107
 10
1048.76487018959
 20
533.350721743911
 10
1048.91787918959
 20
533.4324102439095
 10
1049.06103768959
 20
533.5257717439108
 10
1049.19412068959
 20
533.6305632439107
 10
1049.31687618959
 20
533.746537243911
 10
1049.42907468959
 20
533.87346874391
 10
1049.53047768959
 20
534.0111012439101
 10
1049.62084218959
 20
534.1592097439097
 10
1049.69992968959
 20
534.3175422439108
 10
1049.76750618959
 20
534.4858647439105
 10
1049.82333318959
 20
534.6639342439102
 10
1049.86716318959
 20
534.8515122439094
 10
1049.89877118959
 20
535.0483602439108
 10
1049.91790968959
 20
535.2542397439101
 10
1049.92434018959
 20
535.4689032439109
 10
1049.92434018959
 20
535.4689032439109
 10
1049.92434018959
 20
535.5337797439097
 10
1047.86107218959
 20
535.5337797439097
 10
1047.86107218959
 20
535.1704317439107
 10
1049.46367518959
 20
535.1704317439107
 10
1049.45011668959
 20
534.9652002439106
 10
1049.41560618959
 20
534.7699407439104
 10
1049.36103468959
 20
534.5854902439096
 10
1049.28729318959
 20
534.4126902439093
 10
1049.19528168959
 20
534.2523687439097
 10
1049.08589568959
 20
534.1053762439115
 10
1048.96001718959
 20
533.9725362439094
 10
1048.81855068959
 20
533.8546992439114
 10
1048.66238718959
 20
533.7526887439107
 10
1048.49241768959
 20
533.6673507439099
 10
1048.30953768959
 20
533.5995177439108
 10
1048.11464268959
 20
533.5500312439108
 10
1047.90862368959
 20
533.5197237439096
 10
1047.69237618959
 20
533.5094367439105
 10
1047.48447168959
 20
533.5194762439096
 10
1047.28460418959
 20
533.5490007439111
 10
1047.09352068959
 20
533.5971147439104
 10
1046.91196368959
 20
533.6629272439095
 10
1046.74066668959
 20
533.7455427439108
 10
1046.58037668959
 20
533.8440657439096
 10
1046.43183168959
 20
533.9576097439094
 10
1046.29577868959
 20
534.0852747439093
 10
1046.17295568959
 20
534.2261697439098
 10
1046.06410068959
 20
534.3794037439111
 10
1045.96996068959
 20
534.5440767439104
 10
1045.89127368959
 20
534.7193022439096
 10
1045.82878218959
 20
534.9041847439111
 10
1045.78322868959
 20
535.0978242439104
 10
1045.75535118959
 20
535.2993387439092
 10
1045.74589668959
 20
535.5078282439099
 10
1045.75396068959
 20
535.7204217439102
 10
1045.77782868959
 20
535.9249827439107
 10
1045.81699668959
 20
536.1208812439108
 10
1045.87096518959
 20
536.3074917439099
 10
1045.93923918959
 20
536.4841887439106
 10
1046.02131468959
 20
536.6503512439103
 10
1046.11669218959
 20
536.8053447439105
 10
1046.22487668959
 20
536.9485527439101
 10
1046.34536418959
 20
537.0793407439105
 10
1046.47766418959
 20
537.1970877439107
 10
1046.62126368959
 20
537.3011637439104
 10
1046.77567668959
 20
537.3909477439101
 10
1046.94039468959
 20
537.4658097439096
 10
1047.11492268959
 20
537.5251242439098
 10
1047.29876568959
 20
537.5682657439101
 10
1047.49141518959
 20
537.5946132439094
 10
1047.69237618959
 20
537.6035322439093
 10
1047.91675068959
 20
537.5922732439103
 10
1048.13108568959
 20
537.5586402439112
 10
1048.33495368959
 20
537.5028447439108
 10
1048.52792718959
 20
537.4250982439116
 10
1048.70957868959
 20
537.32562124391
 10
1048.87948518959
 20
537.2046207439106
 10
1049.03721918959
 20
537.06231724391
 10
1049.18234868959
 20
536.8989177439106
  0
LWPOLYLINE
  5
331
330
2
100
AcDbEntity
  8
EBENE_1
  6
Continuous
 62
     1
100
AcDbPolyline
 90
        3
 70
     1
 43
0.0135
 10
1041.17919318959
 20
535.1769162439104
 10
1042.00320618959
 20
537.1947792439096
 10
1042.79478318959
 20
535.1769162439104
  0
LWPOLYLINE
  5
332
330
2
100
AcDbEntity
  8
EBENE_1
  6
Continuous
 62
     1
100
AcDbPolyline
 90
        7
 70
     1
 43
0.0135
 10
1039.99076568959
 20
533.2434237439101
 10
1040.42007468959
 20
533.2434237439101
 10
1041.03644868959
 20
534.8135862439103
 10
1042.93102068959
 20
534.8135862439103
 10
1043.52146118959
 20
533.2434237439101
 10
1043.98212618959
 20
533.2434237439101
 10
1042.02916218959
 20
538.0641972439116
  0
LWPOLYLINE
  5
333
330
2
100
AcDbEntity
  8
EBENE_1
  6
Continuous
 62
     1
100
AcDbPolyline
 90
       12
 70
     1
 43
0.0135
 10
1045.55395368959
 20
528.35132074391
 10
1047.93181668959
 20
528.35132074391
 10
1048.11532218959
 20
529.3044342439097
 10
1046.97551268959
 20
529.3044342439097
 10
1047.04645068959
 20
529.6729032439107
 10
1048.05360018959
 20
529.6729032439107
 10
1048.22668818959
 20
530.5719627439102
 10
1047.21953868959
 20
530.5719627439102
 10
1047.28482468959
 20
530.9109702439108
 10
1048.39515468959
 20
530.9109702439108
 10
1048.57864668959
 20
531.86406574391
 10
1046.23026318959
 20
531.86406574391
  0
LWPOLYLINE
  5
334
330
2
100
AcDbEntity
  8
EBENE_1
  6
Continuous
 62
     1
100
AcDbPolyline
 90
        4
 70
     1
 43
0.0135
 10
1029.35122668959
 20
529.1437617439114
 10
1043.82019818959
 20
529.1437617439114
 10
1043.66416518959
 20
528.3504162439093
 10
1029.19519818959
 20
528.3504162439093
  0
SOLID
  5
335
330
2
100
AcDbEntity
  8
EBENE_1
 62
     1
100
AcDbTrace
 10
1029.35122668959
 20
529.1437617439114
 30
0.0
 11
1043.82019818959
 21
529.1437617439114
 31
0.0
 12
1029.19519818959
 22
528.3504162439093
 32
0.0
 13
1043.66416518959
 23
528.3504162439093
 33
0.0
  0
LWPOLYLINE
  5
336
330
2
100
AcDbEntity
  8
EBENE_1
  6
Continuous
 62
     1
100
AcDbPolyline
 90
       10
 70
     1
 43
0.0135
 10
1034.89311618959
 20
533.119070743909
 10
1036.12586868959
 20
537.0001272439112
 10
1037.41054668959
 20
533.119070743909
 10
1038.96124218959
 20
537.8825322439115
 10
1038.52653318959
 20
537.8825322439115
 10
1037.41054668959
 20
534.2101812439104
 10
1036.12586868959
 20
538.0641972439116
 10
1034.89311618959
 20
534.1777407439113
 10
1033.73171118959
 20
537.8825322439115
 10
1033.29051318959
 20
537.8825322439115
  0
LWPOLYLINE
  5
337
330
2
100
AcDbEntity
  8
EBENE_1
  6
Continuous
 62
     1
100
AcDbPolyline
 90
       34
 70
     1
 43
0.0135
 10
1052.63029368959
 20
530.1298107439106
 10
1052.67451518959
 20
530.1298107439106
 10
1052.65651518959
 20
529.9096347439099
 10
1052.65597968959
 20
529.7178447439109
 10
1052.66115468959
 20
529.5500757439112
 10
1052.69566518959
 20
528.35132074391
 10
1053.79616718959
 20
528.35132074391
 10
1055.49927318959
 20
531.86406574391
 10
1054.23174468959
 20
531.86406574391
 10
1053.65864718959
 20
530.3164932439103
 10
1053.59538618959
 20
530.1390897439104
 10
1053.52092918959
 20
529.9092747439098
 10
1053.44667018959
 20
529.6237767439106
 10
1053.41720868959
 20
529.6237767439106
 10
1053.44464068959
 20
529.8730632439109
 10
1053.45039618959
 20
530.0721297439103
 10
1053.44908218959
 20
530.2231632439107
 10
1053.43092018959
 20
531.86406574391
 10
1052.54169318959
 20
531.86406574391
 10
1051.89169068959
 20
530.2231632439107
 10
1051.83221868959
 20
530.0721297439103
 10
1051.76131668959
 20
529.8730632439109
 10
1051.69275018959
 20
529.6237767439106
 10
1051.66328868959
 20
529.6237767439106
 10
1051.69896468959
 20
529.9092747439098
 10
1051.71300468959
 20
530.1390897439104
 10
1051.71804918959
 20
530.3164932439103
 10
1051.74086868959
 20
531.86406574391
 10
1050.47252568959
 20
531.86406574391
 10
1050.82382718959
 20
528.35132074391
 10
1051.92432468959
 20
528.35132074391
 10
1052.42042268959
 20
529.5500757439112
 10
1052.49021318959
 20
529.7178447439109
 10
1052.56352718959
 20
529.9096347439099
  0
LWPOLYLINE
  5
338
330
2
100
AcDbEntity
  8
EBENE_1
  6
Continuous
 62
     1
100
AcDbPolyline
 90
        8
 70
     1
 43
0.0135
 10
1051.94763918959
 20
533.2434237439101
 10
1052.36938368959
 20
533.2434237439101
 10
1052.36938368959
 20
536.9936427439097
 10
1055.62647918959
 20
533.1060837439109
 10
1055.62647918959
 20
537.8825322439115
 10
1055.20475268959
 20
537.8825322439115
 10
1055.20475268959
 20
534.1971942439104
 10
1051.94763918959
 20
538.077166243911
  0
LWPOLYLINE
  5
339
330
2
100
AcDbEntity
  8
01-01
100
AcDbPolyline
 90
        9
 70
     0
 43
0.0
 10
1049.730606674631
 20
322.9984906823356
 10
1049.730606674631
 20
322.9984906823356
 42
0.4142135623730951
 10
1052.230606674632
 20
325.4984906823356
 10
1052.230606674632
 20
370.4984906823356
 42
0.4142135623730951
 10
1049.730606674631
 20
372.9984906823356
 10
1049.730606674631
 20
372.9984906823356
 42
0.4142135623730951
 10
1047.230606674631
 20
370.4984906823356
 10
1047.230606674631
 20
325.4984906823356
 42
0.4142135623730951
 10
1049.730606674631
 20
322.9984906823356
 42
0.4142135623730951
  0
ARC
  5
33A
330
2
100
AcDbEntity
  8
09-01
100
AcDbCircle
 10
1080.412914779205
 20
284.4984906823356
 30
0.0
 40
8.5
100
AcDbArc
 50
0.0
 51
90.0
  0
ARC
  5
33B
330
2
100
AcDbEntity
  8
09-01
100
AcDbCircle
 10
1080.307181989941
 20
283.5756591883201
 30
0.0
 40
9.423424684654264
100
AcDbArc
 50
0.0
 51
89.35711592102467
  0
ARC
  5
33C
330
2
100
AcDbEntity
  8
09-01
100
AcDbCircle
 10
1019.048298569984
 20
284.4984906823356
 30
0.0
 40
8.5
100
AcDbArc
 50
90.0
 51
180.0
  0
ARC
  5
33D
330
2
100
AcDbEntity
  8
09-01
100
AcDbCircle
 10
1019.154031359249
 20
283.5756591883201
 30
0.0
 40
9.42342468465425
100
AcDbArc
 50
90.64288407897532
 51
180.0
  0
LINE
  5
33E
330
2
100
AcDbEntity
  8
09-01
100
AcDbLine
 10
1019.048298569984
 20
292.9984906823356
 30
0.0
 11
1080.412914779273
 21
292.9984906823356
 31
0.0
  0
LINE
  5
33F
330
2
100
AcDbEntity
  8
09-01
100
AcDbLine
 10
1009.730606674595
 20
570.1025228044054
 30
0.0
 11
1089.730606674595
 21
570.1025228044054
 31
0.0
  0
LINE
  5
340
330
2
100
AcDbEntity
  8
09-01
100
AcDbLine
 10
1088.912914779205
 20
273.6025228044054
 30
0.0
 11
1088.912914779205
 21
284.4984906823356
 31
0.0
  0
LINE
  5
341
330
2
100
AcDbEntity
  8
09-01
100
AcDbLine
 10
1010.548298569984
 20
273.6025228044054
 30
0.0
 11
1010.548298569984
 21
284.4984906823356
 31
0.0
  0
LINE
  5
342
330
2
100
AcDbEntity
  8
09-01
100
AcDbLine
 10
1089.730606674595
 20
273.6025228044054
 30
0.0
 11
1089.730606674595
 21
571.6025228044054
 31
0.0
  0
LINE
  5
343
330
2
100
AcDbEntity
  8
09-01
100
AcDbLine
 10
1009.730606674595
 20
273.6025228044046
 30
0.0
 11
1009.730606674595
 21
571.6025228044054
 31
0.0
  0
LINE
  5
344
330
2
100
AcDbEntity
  8
09-01
100
AcDbLine
 10
1009.730606674595
 20
571.6025228044054
 30
0.0
 11
1089.730606674595
 21
571.6025228044054
 31
0.0
  0
LINE
  5
345
330
2
100
AcDbEntity
  8
0
100
AcDbLine
 10
1089.730606674595
 20
231.9740493500831
 30
0.0
 11
1089.730606674595
 21
121.9740493500831
 31
0.0
  0
ARC
  5
346
330
2
100
AcDbEntity
  8
0
100
AcDbCircle
 10
1080.430606674595
 20
121.9740493500831
 30
0.0
 40
9.3
100
AcDbArc
 50
270.0
 51
0.0
  0
LINE
  5
347
330
2
100
AcDbEntity
  8
0
100
AcDbLine
 10
1009.730606674595
 20
231.9740493500831
 30
0.0
 11
1009.730606674595
 21
121.9740493500831
 31
0.0
  0
ARC
  5
348
330
2
100
AcDbEntity
  8
0
100
AcDbCircle
 10
1019.030606674595
 20
121.9740493500831
 30
0.0
 40
9.3
100
AcDbArc
 50
180.0
 51
270.0
  0
LINE
  5
349
330
2
100
AcDbEntity
  8
0
100
AcDbLine
 10
1019.030606674595
 20
112.6740493500838
 30
0.0
 11
1080.430606674595
 21
112.6740493500838
 31
0.0
  0
LINE
  5
34A
330
2
100
AcDbEntity
  8
0
100
AcDbLine
 10
1089.730606674595
 20
231.9740493500831
 30
0.0
 11
1009.730606674595
 21
231.9740493500831
 31
0.0
  0
LINE
  5
34B
330
2
100
AcDbEntity
  8
03-01
100
AcDbLine
 10
1088.227478677819
 20
546.2513427221529
 30
0.0
 11
1088.230606526935
 21
546.2513419741153
 31
0.0
  0
LINE
  5
34C
330
2
100
AcDbEntity
  8
03-01
100
AcDbLine
 10
1074.380579765616
 20
298.6025228044045
 30
0.0
 11
1074.380579765616
 21
292.9984906823356
 31
0.0
  0
LINE
  5
34D
330
2
100
AcDbEntity
  8
03-01
100
AcDbLine
 10
1025.080633583573
 20
298.6025228044045
 30
0.0
 11
1025.080633583573
 21
292.9984906823356
 31
0.0
  0
LINE
  5
34E
330
2
100
AcDbEntity
  8
0
100
AcDbLine
 10
1064.730606339318
 20
273.6025228044052
 30
0.0
 11
1089.730606674595
 21
273.6025228044054
 31
0.0
  0
LINE
  5
34F
330
2
100
AcDbEntity
  8
0
100
AcDbLine
 10
1009.730606674595
 20
273.6025228044046
 30
0.0
 11
1034.73060700987
 21
273.6025228044048
 31
0.0
  0
ENDSEC
  0
SECTION
  2
OBJECTS
  0
DICTIONARY
  5
B
330
0
100
AcDbDictionary
281
     1
  3
ACAD_COLOR
350
4C
  3
ACAD_GROUP
350
39
  3
ACAD_LAYOUT
350
18
  3
ACAD_MATERIAL
350
D
  3
ACAD_MLEADERSTYLE
350
4F
  3
ACAD_MLINESTYLE
350
3A
  3
ACAD_PLOTSETTINGS
350
3B
  3
ACAD_PLOTSTYLENAME
350
A
  3
ACAD_SCALELIST
350
4D
  3
ACAD_TABLESTYLE
350
4E
  3
ACAD_VISUALSTYLE
350
30
  3
ACDB_RECOMPOSE_DATA
350
35D
  3
AcDbVariableDictionary
350
354
  0
DICTIONARY
  5
31
330
2D
100
AcDbDictionary
280
     1
281
     1
  0
DICTIONARY
  5
20
330
1F
100
AcDbDictionary
280
     1
281
     1
  3
ACAD_LAYERFILTERS
360
21
  3
ACAD_LAYERSTATES
360
22
  3
ACLYDICTIONARY
360
23
  0
DICTIONARY
  5
7
330
6
100
AcDbDictionary
280
     1
281
     1
  3
ADSK_XREC_LAYER_RECONCILED
360
8
  0
DICTIONARY
  5
7B
330
7A
100
AcDbDictionary
280
     1
281
     1
  3
ADSK_XREC_LAYER_RECONCILED
360
7C
  0
DICTIONARY
  5
51
330
50
100
AcDbDictionary
280
     1
281
     1
  3
ADSK_XREC_LAYER_RECONCILED
360
52
  0
DICTIONARY
  5
80
330
7F
100
AcDbDictionary
280
     1
281
     1
  3
ADSK_XREC_LAYER_RECONCILED
360
81
  0
DICTIONARY
  5
AB
330
AA
100
AcDbDictionary
280
     1
281
     1
  3
ADSK_XREC_LAYER_RECONCILED
360
AC
  0
DICTIONARY
  5
21A
330
219
100
AcDbDictionary
280
     1
281
     1
  3
ADSK_XREC_LAYER_RECONCILED
360
21B
  0
DICTIONARY
  5
258
330
257
100
AcDbDictionary
280
     1
281
     1
  3
ADSK_XREC_LAYER_RECONCILED
360
259
  0
DICTIONARY
  5
220
330
21F
100
AcDbDictionary
280
     1
281
     1
  3
ADSK_XREC_LAYER_RECONCILED
360
221
  0
DICTIONARY
  5
242
330
241
100
AcDbDictionary
280
     1
281
     1
  3
ADSK_XREC_LAYER_RECONCILED
360
243
  0
DICTIONARY
  5
328
330
327
100
AcDbDictionary
280
     1
281
     1
  3
ADSK_XREC_LAYER_RECONCILED
360
329
  0
DICTIONARY
  5
3
330
2
100
AcDbDictionary
280
     1
281
     1
  3
ACAD_SORTENTS
360
353
  0
DICTIONARY
  5
215
330
214
100
AcDbDictionary
280
     1
281
     1
  3
ACAD_SORTENTS
360
350
  0
DICTIONARY
  5
BD
330
BC
100
AcDbDictionary
280
     1
281
     1
  3
ACAD_SORTENTS
360
351
  0
DICTIONARY
  5
108
330
107
100
AcDbDictionary
280
     1
281
     1
  3
ACAD_SORTENTS
360
352
  0
DICTIONARY
  5
4C
102
{ACAD_REACTORS
330
B
102
}
330
B
100
AcDbDictionary
281
     1
  0
DICTIONARY
  5
39
102
{ACAD_REACTORS
330
B
102
}
330
B
100
AcDbDictionary
281
     1
  0
DICTIONARY
  5
18
102
{ACAD_REACTORS
330
B
102
}
330
B
100
AcDbDictionary
281
     1
  3
Layout1
350
1E
  3
Model
350
17
  0
DICTIONARY
  5
D
102
{ACAD_REACTORS
330
B
102
}
330
B
100
AcDbDictionary
281
     1
  3
ByBlock
350
44
  3
ByLayer
350
3C
  3
Global
350
C
  0
DICTIONARY
  5
4F
102
{ACAD_REACTORS
330
B
102
}
330
B
100
AcDbDictionary
281
     1
  0
DICTIONARY
  5
3A
102
{ACAD_REACTORS
330
B
102
}
330
B
100
AcDbDictionary
281
     1
  3
Standard
350
53
  0
DICTIONARY
  5
3B
102
{ACAD_REACTORS
330
B
102
}
330
B
100
AcDbDictionary
281
     1
  0
ACDBDICTIONARYWDFLT
  5
A
102
{ACAD_REACTORS
330
B
102
}
330
B
100
AcDbDictionary
281
     1
  3
Normal
350
9
100
AcDbDictionaryWithDefault
340
9
  0
DICTIONARY
  5
4D
102
{ACAD_REACTORS
330
B
102
}
330
B
100
AcDbDictionary
281
     1
  3
A0
350
58
  3
A1
350
59
  3
A2
350
5A
  3
A3
350
5B
  3
A4
350
5C
  3
A5
350
5D
  3
A6
350
5E
  3
A7
350
5F
  3
A8
350
60
  3
A9
350
61
  3
B0
350
62
  3
B1
350
63
  3
B2
350
64
  3
B3
350
65
  3
B4
350
66
  3
B5
350
67
  3
B6
350
68
  3
B7
350
69
  3
B8
350
6A
  3
B9
350
6B
  3
C0
350
6C
  3
C1
350
6D
  3
C2
350
6E
  3
C3
350
6F
  3
C4
350
70
  3
C5
350
71
  3
C6
350
72
  3
C7
350
73
  3
C8
350
74
  3
C9
350
75
  3
D0
350
76
  3
D1
350
77
  3
D2
350
78
  0
DICTIONARY
  5
4E
102
{ACAD_REACTORS
330
B
102
}
330
B
100
AcDbDictionary
281
     1
  3
Standard
350
54
  0
DICTIONARY
  5
30
102
{ACAD_REACTORS
330
B
102
}
330
B
100
AcDbDictionary
281
     1
  3
2dWireframe
350
2F
  3
3dWireframe
350
57
  3
Realistic
350
56
  0
XRECORD
  5
35D
102
{ACAD_REACTORS
330
B
102
}
330
B
100
AcDbXrecord
280
     1
 90
        1
330
54
  0
DICTIONARY
  5
354
102
{ACAD_REACTORS
330
B
102
}
330
B
100
AcDbDictionary
281
     1
  3
CANNOSCALE
350
357
  3
CMLEADERSTYLE
350
356
  3
CTABLESTYLE
350
355
  3
LAYEREVAL
350
359
  3
LAYERNOTIFY
350
35A
  3
LIGHTINGUNITS
350
358
  0
DICTIONARY
  5
21
102
{ACAD_REACTORS
330
20
102
}
330
20
100
AcDbDictionary
281
     1
  0
DICTIONARY
  5
22
102
{ACAD_REACTORS
330
20
102
}
330
20
100
AcDbDictionary
281
     1
  0
DICTIONARY
  5
23
102
{ACAD_REACTORS
330
20
102
}
330
20
100
AcDbDictionary
281
     1
1001
ACAD
1000
<All
  0
XRECORD
  5
8
102
{ACAD_REACTORS
330
7
102
}
330
7
100
AcDbXrecord
280
     1
290
     1
  0
XRECORD
  5
7C
102
{ACAD_REACTORS
330
7B
102
}
330
7B
100
AcDbXrecord
280
     1
290
     1
  0
XRECORD
  5
52
102
{ACAD_REACTORS
330
51
102
}
330
51
100
AcDbXrecord
280
     1
290
     1
  0
XRECORD
  5
81
102
{ACAD_REACTORS
330
80
102
}
330
80
100
AcDbXrecord
280
     1
290
     1
  0
XRECORD
  5
AC
102
{ACAD_REACTORS
330
AB
102
}
330
AB
100
AcDbXrecord
280
     1
290
     1
  0
XRECORD
  5
21B
102
{ACAD_REACTORS
330
21A
102
}
330
21A
100
AcDbXrecord
280
     1
290
     1
  0
XRECORD
  5
259
102
{ACAD_REACTORS
330
258
102
}
330
258
100
AcDbXrecord
280
     1
290
     1
  0
XRECORD
  5
221
102
{ACAD_REACTORS
330
220
102
}
330
220
100
AcDbXrecord
280
     1
290
     1
  0
XRECORD
  5
243
102
{ACAD_REACTORS
330
242
102
}
330
242
100
AcDbXrecord
280
     1
290
     1
  0
XRECORD
  5
329
102
{ACAD_REACTORS
330
328
102
}
330
328
100
AcDbXrecord
280
     1
290
     1
  0
SORTENTSTABLE
  5
353
102
{ACAD_REACTORS
330
3
102
}
330
3
100
AcDbSortentsTable
330
2
331
B5
  5
31B
331
B1
  5
31F
331
A9
  5
323
331
30E
  5
1C5
331
30A
  5
1F9
331
345
  5
8A
331
306
  5
2A7
331
341
  5
8E
331
302
  5
2B8
331
213
  5
308
331
A5
  5
32A
331
A1
  5
32E
331
9D
  5
332
331
99
  5
336
331
2C7
  5
2C3
331
2C3
  5
2C7
331
2FE
  5
2BC
331
33D
  5
92
331
2BF
  5
2FB
331
339
  5
96
331
2BB
  5
2FF
331
335
  5
9A
331
331
  5
9E
331
18D
  5
312
331
95
  5
33A
331
91
  5
33E
331
8D
  5
342
331
89
  5
346
331
2B7
  5
303
331
2EE
  5
2C0
331
32D
  5
A2
331
325
  5
A7
331
321
  5
AF
331
1B8
  5
30F
331
85
  5
34A
331
7D
  5
34E
331
79
  5
34F
331
B8
  5
318
331
2A7
  5
306
331
34F
  5
79
331
31D
  5
B3
331
34B
  5
84
331
319
  5
B7
331
315
  5
BB
331
311
  5
19C
331
B4
  5
31C
331
B0
  5
320
331
A8
  5
324
331
30D
  5
1D2
331
309
  5
206
331
344
  5
8B
331
305
  5
2A8
331
301
  5
2B9
331
340
  5
8F
331
1DF
  5
30C
331
19C
  5
311
331
A4
  5
32B
331
A0
  5
32F
331
9C
  5
333
331
98
  5
337
331
2C6
  5
2C4
331
2C2
  5
2D4
331
2FD
  5
2BD
331
33C
  5
93
331
2BE
  5
2FC
331
338
  5
97
331
334
  5
9B
331
2BA
  5
300
331
330
  5
9F
331
206
  5
309
331
94
  5
33B
331
90
  5
33F
331
8C
  5
343
331
106
  5
314
331
88
  5
347
331
32C
  5
A3
331
324
  5
A8
331
320
  5
B0
331
2E1
  5
2C1
331
17C
  5
313
331
84
  5
34B
331
BB
  5
315
331
34E
  5
7D
331
31C
  5
B4
331
34A
  5
85
331
318
  5
B8
331
29A
  5
307
331
314
  5
106
331
310
  5
1AB
331
1AB
  5
310
331
B7
  5
319
331
B3
  5
31D
331
AF
  5
321
331
30C
  5
1DF
331
308
  5
213
331
347
  5
88
331
343
  5
8C
331
304
  5
2A9
331
300
  5
2BA
331
A7
  5
325
331
A3
  5
32C
331
9F
  5
330
331
9B
  5
334
331
33F
  5
90
331
2C1
  5
2E1
331
2FC
  5
2BE
331
33B
  5
94
331
2BD
  5
2FD
331
337
  5
98
331
333
  5
9C
331
1D2
  5
30D
331
2B9
  5
301
331
97
  5
338
331
93
  5
33C
331
8F
  5
340
331
8B
  5
344
331
32F
  5
A0
331
32B
  5
A4
331
323
  5
A9
331
2A9
  5
304
331
1F9
  5
30A
331
87
  5
348
331
83
  5
34C
331
BA
  5
316
331
31F
  5
B1
331
34D
  5
7E
331
31B
  5
B5
331
349
  5
86
331
317
  5
B9
331
2D4
  5
2C2
331
313
  5
17C
331
B6
  5
31A
331
B2
  5
31E
331
AE
  5
322
331
30F
  5
1B8
331
30B
  5
1EC
331
307
  5
29A
331
346
  5
89
331
342
  5
8D
331
303
  5
2B7
331
A6
  5
326
331
A2
  5
32D
331
9E
  5
331
331
9A
  5
335
331
2C4
  5
2C6
331
2FF
  5
2BB
331
33E
  5
91
331
2C0
  5
2EE
331
2FB
  5
2BF
331
33A
  5
95
331
2BC
  5
2FE
331
336
  5
99
331
332
  5
9D
331
2B8
  5
302
331
96
  5
339
331
92
  5
33D
331
8E
  5
341
331
8A
  5
345
331
32E
  5
A1
331
32A
  5
A5
331
1C5
  5
30E
331
326
  5
A6
331
322
  5
AE
331
2A8
  5
305
331
86
  5
349
331
7E
  5
34D
331
B9
  5
317
331
31E
  5
B2
331
34C
  5
83
331
31A
  5
B6
331
348
  5
87
331
316
  5
BA
331
312
  5
18D
331
1EC
  5
30B
  0
SORTENTSTABLE
  5
350
102
{ACAD_REACTORS
330
215
102
}
330
215
100
AcDbSortentsTable
330
214
  0
SORTENTSTABLE
  5
351
102
{ACAD_REACTORS
330
BD
102
}
330
BD
100
AcDbSortentsTable
330
BC
  0
SORTENTSTABLE
  5
352
102
{ACAD_REACTORS
330
108
102
}
330
108
100
AcDbSortentsTable
330
107
  0
LAYOUT
  5
1E
102
{ACAD_REACTORS
330
18
102
}
330
18
100
AcDbPlotSettings
  1

  2

  4

  6

 40
0.0
 41
0.0
 42
0.0
 43
0.0
 44
0.0
 45
0.0
 46
0.0
 47
0.0
 48
0.0
 49
0.0
140
0.0
141
0.0
142
1.0
143
1.0
 70
   688
 72
     0
 73
     0
 74
     5
  7

 75
    16
147
1.0
 76
     0
 77
     2
 78
   300
148
0.0
149
0.0
100
AcDbLayout
  1
Layout1
 70
     1
 71
     1
 10
0.0
 20
0.0
 11
420.0
 21
297.0
 12
0.0
 22
0.0
 32
0.0
 14
1.000000000000000E+20
 24
1.000000000000000E+20
 34
1.000000000000000E+20
 15
-1.000000000000000E+20
 25
-1.000000000000000E+20
 35
-1.000000000000000E+20
146
0.0
 13
0.0
 23
0.0
 33
0.0
 16
1.0
 26
0.0
 36
0.0
 17
0.0
 27
1.0
 37
0.0
 76
     0
330
1B
  0
LAYOUT
  5
17
102
{ACAD_XDICTIONARY
360
19
102
}
102
{ACAD_REACTORS
330
18
102
}
330
18
100
AcDbPlotSettings
  1

  2
HP LaserJet 4 Plus
  4
A4
  6

 40
6.805083274841308
 41
5.069413185119628
 42
6.805084228515625
 43
5.027069091796875
 44
209.9733276367187
 45
296.9683227539062
 46
0.0
 47
0.0
 48
0.0
 49
0.0
140
0.0
141
0.0
142
1.0
143
2.48396074989149
 70
 11952
 72
     1
 73
     0
 74
     1
  7
CNC-Soft.ctb
 75
     0
147
0.4025828508134375
 76
     0
 77
     2
 78
   300
148
0.0160205061733905
149
0.0226575730168861
100
AcDbLayout
  1
Model
 70
     1
 71
     0
 10
0.0
 20
0.0
 11
12.0
 21
9.0
 12
0.0
 22
0.0
 32
0.0
 14
0.0
 24
0.0
 34
0.0
 15
0.0
 25
0.0
 35
0.0
146
0.0
 13
0.0
 23
0.0
 33
0.0
 16
1.0
 26
0.0
 36
0.0
 17
0.0
 27
1.0
 37
0.0
 76
     0
330
2
331
2E
  0
MATERIAL
  5
44
102
{ACAD_XDICTIONARY
360
45
102
}
102
{ACAD_REACTORS
330
D
102
}
330
D
100
AcDbMaterial
  1
ByBlock
 72
     0
 43
0.0008202099737533
 43
0.0
 43
0.0
 43
0.0
 43
0.0
 43
0.0008202099737533
 43
0.0
 43
0.0
 43
0.0
 43
0.0
 43
1.0
 43
0.0
 43
0.0
 43
0.0
 43
0.0
 43
1.0
 77
     0
 47
0.0008202099737533
 47
0.0
 47
0.0
 47
0.0
 47
0.0
 47
0.0008202099737533
 47
0.0
 47
0.0
 47
0.0
 47
0.0
 47
1.0
 47
0.0
 47
0.0
 47
0.0
 47
0.0
 47
1.0
171
     0
 49
0.0008202099737533
 49
0.0
 49
0.0
 49
0.0
 49
0.0
 49
0.0008202099737533
 49
0.0
 49
0.0
 49
0.0
 49
0.0
 49
1.0
 49
0.0
 49
0.0
 49
0.0
 49
0.0
 49
1.0
175
     0
142
0.0008202099737533
142
0.0
142
0.0
142
0.0
142
0.0
142
0.0008202099737533
142
0.0
142
0.0
142
0.0
142
0.0
142
1.0
142
0.0
142
0.0
142
0.0
142
0.0
142
1.0
179
     0
144
0.0008202099737533
144
0.0
144
0.0
144
0.0
144
0.0
144
0.0008202099737533
144
0.0
144
0.0
144
0.0
144
0.0
144
1.0
144
0.0
144
0.0
144
0.0
144
0.0
144
1.0
147
0.0008202099737533
147
0.0
147
0.0
147
0.0
147
0.0
147
0.0008202099737533
147
0.0
147
0.0
147
0.0
147
0.0
147
1.0
147
0.0
147
0.0
147
0.0
147
0.0
147
1.0
  0
MATERIAL
  5
3C
102
{ACAD_XDICTIONARY
360
3D
102
}
102
{ACAD_REACTORS
330
D
102
}
330
D
100
AcDbMaterial
  1
ByLayer
 72
     0
 43
0.0008202099737533
 43
0.0
 43
0.0
 43
0.0
 43
0.0
 43
0.0008202099737533
 43
0.0
 43
0.0
 43
0.0
 43
0.0
 43
1.0
 43
0.0
 43
0.0
 43
0.0
 43
0.0
 43
1.0
 77
     0
 47
0.0008202099737533
 47
0.0
 47
0.0
 47
0.0
 47
0.0
 47
0.0008202099737533
 47
0.0
 47
0.0
 47
0.0
 47
0.0
 47
1.0
 47
0.0
 47
0.0
 47
0.0
 47
0.0
 47
1.0
171
     0
 49
0.0008202099737533
 49
0.0
 49
0.0
 49
0.0
 49
0.0
 49
0.0008202099737533
 49
0.0
 49
0.0
 49
0.0
 49
0.0
 49
1.0
 49
0.0
 49
0.0
 49
0.0
 49
0.0
 49
1.0
175
     0
142
0.0008202099737533
142
0.0
142
0.0
142
0.0
142
0.0
142
0.0008202099737533
142
0.0
142
0.0
142
0.0
142
0.0
142
1.0
142
0.0
142
0.0
142
0.0
142
0.0
142
1.0
179
     0
144
0.0008202099737533
144
0.0
144
0.0
144
0.0
144
0.0
144
0.0008202099737533
144
0.0
144
0.0
144
0.0
144
0.0
144
1.0
144
0.0
144
0.0
144
0.0
144
0.0
144
1.0
147
0.0008202099737533
147
0.0
147
0.0
147
0.0
147
0.0
147
0.0008202099737533
147
0.0
147
0.0
147
0.0
147
0.0
147
1.0
147
0.0
147
0.0
147
0.0
147
0.0
147
1.0
  0
MATERIAL
  5
C
102
{ACAD_XDICTIONARY
360
E
102
}
102
{ACAD_REACTORS
330
D
102
}
330
D
100
AcDbMaterial
  1
Global
 72
     0
 43
0.0008202099737533
 43
0.0
 43
0.0
 43
0.0
 43
0.0
 43
0.0008202099737533
 43
0.0
 43
0.0
 43
0.0
 43
0.0
 43
1.0
 43
0.0
 43
0.0
 43
0.0
 43
0.0
 43
1.0
 77
     0
 47
0.0008202099737533
 47
0.0
 47
0.0
 47
0.0
 47
0.0
 47
0.0008202099737533
 47
0.0
 47
0.0
 47
0.0
 47
0.0
 47
1.0
 47
0.0
 47
0.0
 47
0.0
 47
0.0
 47
1.0
171
     0
 49
0.0008202099737533
 49
0.0
 49
0.0
 49
0.0
 49
0.0
 49
0.0008202099737533
 49
0.0
 49
0.0
 49
0.0
 49
0.0
 49
1.0
 49
0.0
 49
0.0
 49
0.0
 49
0.0
 49
1.0
175
     0
142
0.0008202099737533
142
0.0
142
0.0
142
0.0
142
0.0
142
0.0008202099737533
142
0.0
142
0.0
142
0.0
142
0.0
142
1.0
142
0.0
142
0.0
142
0.0
142
0.0
142
1.0
179
     0
144
0.0008202099737533
144
0.0
144
0.0
144
0.0
144
0.0
144
0.0008202099737533
144
0.0
144
0.0
144
0.0
144
0.0
144
1.0
144
0.0
144
0.0
144
0.0
144
0.0
144
1.0
147
0.0008202099737533
147
0.0
147
0.0
147
0.0
147
0.0
147
0.0008202099737533
147
0.0
147
0.0
147
0.0
147
0.0
147
1.0
147
0.0
147
0.0
147
0.0
147
0.0
147
1.0
  0
MLINESTYLE
  5
53
102
{ACAD_REACTORS
330
3A
102
}
330
3A
100
AcDbMlineStyle
  2
STANDARD
 70
     0
  3

 62
   256
 51
90.0
 52
90.0
 71
     2
 49
0.5
 62
   256
  6
BYLAYER
 49
-0.5
 62
   256
  6
BYLAYER
  0
ACDBPLACEHOLDER
  5
9
102
{ACAD_REACTORS
330
A
102
}
330
A
  0
SCALE
  5
58
102
{ACAD_REACTORS
330
4D
102
}
330
4D
100
AcDbScale
 70
     0
300
1:1
140
1.0
141
1.0
290
     1
  0
SCALE
  5
59
102
{ACAD_REACTORS
330
4D
102
}
330
4D
100
AcDbScale
 70
     0
300
1:2
140
1.0
141
2.0
290
     0
  0
SCALE
  5
5A
102
{ACAD_REACTORS
330
4D
102
}
330
4D
100
AcDbScale
 70
     0
300
1:4
140
1.0
141
4.0
290
     0
  0
SCALE
  5
5B
102
{ACAD_REACTORS
330
4D
102
}
330
4D
100
AcDbScale
 70
     0
300
1:5
140
1.0
141
5.0
290
     0
  0
SCALE
  5
5C
102
{ACAD_REACTORS
330
4D
102
}
330
4D
100
AcDbScale
 70
     0
300
1:8
140
1.0
141
8.0
290
     0
  0
SCALE
  5
5D
102
{ACAD_REACTORS
330
4D
102
}
330
4D
100
AcDbScale
 70
     0
300
1:10
140
1.0
141
10.0
290
     0
  0
SCALE
  5
5E
102
{ACAD_REACTORS
330
4D
102
}
330
4D
100
AcDbScale
 70
     0
300
1:16
140
1.0
141
16.0
290
     0
  0
SCALE
  5
5F
102
{ACAD_REACTORS
330
4D
102
}
330
4D
100
AcDbScale
 70
     0
300
1:20
140
1.0
141
20.0
290
     0
  0
SCALE
  5
60
102
{ACAD_REACTORS
330
4D
102
}
330
4D
100
AcDbScale
 70
     0
300
1:30
140
1.0
141
30.0
290
     0
  0
SCALE
  5
61
102
{ACAD_REACTORS
330
4D
102
}
330
4D
100
AcDbScale
 70
     0
300
1:40
140
1.0
141
40.0
290
     0
  0
SCALE
  5
62
102
{ACAD_REACTORS
330
4D
102
}
330
4D
100
AcDbScale
 70
     0
300
1:50
140
1.0
141
50.0
290
     0
  0
SCALE
  5
63
102
{ACAD_REACTORS
330
4D
102
}
330
4D
100
AcDbScale
 70
     0
300
1:100
140
1.0
141
100.0
290
     0
  0
SCALE
  5
64
102
{ACAD_REACTORS
330
4D
102
}
330
4D
100
AcDbScale
 70
     0
300
2:1
140
2.0
141
1.0
290
     0
  0
SCALE
  5
65
102
{ACAD_REACTORS
330
4D
102
}
330
4D
100
AcDbScale
 70
     0
300
4:1
140
4.0
141
1.0
290
     0
  0
SCALE
  5
66
102
{ACAD_REACTORS
330
4D
102
}
330
4D
100
AcDbScale
 70
     0
300
8:1
140
8.0
141
1.0
290
     0
  0
SCALE
  5
67
102
{ACAD_REACTORS
330
4D
102
}
330
4D
100
AcDbScale
 70
     0
300
10:1
140
10.0
141
1.0
290
     0
  0
SCALE
  5
68
102
{ACAD_REACTORS
330
4D
102
}
330
4D
100
AcDbScale
 70
     0
300
100:1
140
100.0
141
1.0
290
     0
  0
SCALE
  5
69
102
{ACAD_REACTORS
330
4D
102
}
330
4D
100
AcDbScale
 70
     0
300
1/128" = 1'-0"
140
0.0078125
141
12.0
290
     0
  0
SCALE
  5
6A
102
{ACAD_REACTORS
330
4D
102
}
330
4D
100
AcDbScale
 70
     0
300
1/64" = 1'-0"
140
0.015625
141
12.0
290
     0
  0
SCALE
  5
6B
102
{ACAD_REACTORS
330
4D
102
}
330
4D
100
AcDbScale
 70
     0
300
1/32" = 1'-0"
140
0.03125
141
12.0
290
     0
  0
SCALE
  5
6C
102
{ACAD_REACTORS
330
4D
102
}
330
4D
100
AcDbScale
 70
     0
300
1/16" = 1'-0"
140
0.0625
141
12.0
290
     0
  0
SCALE
  5
6D
102
{ACAD_REACTORS
330
4D
102
}
330
4D
100
AcDbScale
 70
     0
300
3/32" = 1'-0"
140
0.09375
141
12.0
290
     0
  0
SCALE
  5
6E
102
{ACAD_REACTORS
330
4D
102
}
330
4D
100
AcDbScale
 70
     0
300
1/8" = 1'-0"
140
0.125
141
12.0
290
     0
  0
SCALE
  5
6F
102
{ACAD_REACTORS
330
4D
102
}
330
4D
100
AcDbScale
 70
     0
300
3/16" = 1'-0"
140
0.1875
141
12.0
290
     0
  0
SCALE
  5
70
102
{ACAD_REACTORS
330
4D
102
}
330
4D
100
AcDbScale
 70
     0
300
1/4" = 1'-0"
140
0.25
141
12.0
290
     0
  0
SCALE
  5
71
102
{ACAD_REACTORS
330
4D
102
}
330
4D
100
AcDbScale
 70
     0
300
3/8" = 1'-0"
140
0.375
141
12.0
290
     0
  0
SCALE
  5
72
102
{ACAD_REACTORS
330
4D
102
}
330
4D
100
AcDbScale
 70
     0
300
1/2" = 1'-0"
140
0.5
141
12.0
290
     0
  0
SCALE
  5
73
102
{ACAD_REACTORS
330
4D
102
}
330
4D
100
AcDbScale
 70
     0
300
3/4" = 1'-0"
140
0.75
141
12.0
290
     0
  0
SCALE
  5
74
102
{ACAD_REACTORS
330
4D
102
}
330
4D
100
AcDbScale
 70
     0
300
1" = 1'-0"
140
1.0
141
12.0
290
     0
  0
SCALE
  5
75
102
{ACAD_REACTORS
330
4D
102
}
330
4D
100
AcDbScale
 70
     0
300
1-1/2" = 1'-0"
140
1.5
141
12.0
290
     0
  0
SCALE
  5
76
102
{ACAD_REACTORS
330
4D
102
}
330
4D
100
AcDbScale
 70
     0
300
3" = 1'-0"
140
3.0
141
12.0
290
     0
  0
SCALE
  5
77
102
{ACAD_REACTORS
330
4D
102
}
330
4D
100
AcDbScale
 70
     0
300
6" = 1'-0"
140
6.0
141
12.0
290
     0
  0
SCALE
  5
78
102
{ACAD_REACTORS
330
4D
102
}
330
4D
100
AcDbScale
 70
     0
300
1'-0" = 1'-0"
140
12.0
141
12.0
290
     0
  0
TABLESTYLE
  5
54
102
{ACAD_XDICTIONARY
360
55
102
}
102
{ACAD_REACTORS
330
4E
102
}
330
4E
100
AcDbTableStyle
280
     0
  3
Standard
 70
     0
 71
     0
 40
1.5
 41
1.5
280
     0
281
     0
  7
Standard
140
4.5
170
     2
 62
     0
 63
     7
283
     0
 90
      512
 91
        0
  1

274
    -2
284
     1
 64
     0
275
    -2
285
     1
 65
     0
276
    -2
286
     1
 66
     0
277
    -2
287
     1
 67
     0
278
    -2
288
     1
 68
     0
279
    -2
289
     1
 69
     0
  7
Standard
140
6.0
170
     5
 62
     0
 63
     7
283
     0
 90
      512
 91
        0
  1

274
    -2
284
     1
 64
     0
275
    -2
285
     1
 65
     0
276
    -2
286
     1
 66
     0
277
    -2
287
     1
 67
     0
278
    -2
288
     1
 68
     0
279
    -2
289
     1
 69
     0
  7
Standard
140
4.5
170
     5
 62
     0
 63
     7
283
     0
 90
      512
 91
        0
  1

274
    -2
284
     1
 64
     0
275
    -2
285
     1
 65
     0
276
    -2
286
     1
 66
     0
277
    -2
287
     1
 67
     0
278
    -2
288
     1
 68
     0
279
    -2
289
     1
 69
     0
  0
VISUALSTYLE
  5
2F
102
{ACAD_REACTORS
330
30
102
}
330
30
100
AcDbVisualStyle
  2
2dWireframe
 70
     4
177
     2
291
     0
 71
     0
176
     1
 72
     2
176
     1
 73
     0
176
     1
 90
        0
176
     1
 40
0.6
176
     1
 41
30.0
176
     1
 63
     7
176
     1
 74
     1
176
     1
 91
        4
176
     1
 64
     7
176
     1
 65
   257
176
     1
 75
     1
176
     1
175
     1
176
     1
 42
1.0
176
     1
 92
        0
176
     1
 66
   257
176
     1
 43
1.0
176
     1
 76
     1
176
     1
 77
     6
176
     1
 78
     2
176
     1
 67
     7
176
     1
 79
     5
176
     1
170
     0
176
     1
171
     0
176
     1
290
     0
176
     1
 93
        1
176
     1
 44
0.0
176
     1
173
     0
176
     1
  0
VISUALSTYLE
  5
57
102
{ACAD_REACTORS
330
30
102
}
330
30
100
AcDbVisualStyle
  2
3dWireframe
 70
     5
177
     2
291
     0
 71
     0
176
     1
 72
     2
176
     1
 73
     0
176
     1
 90
        0
176
     1
 40
0.6
176
     1
 41
30.0
176
     1
 63
     7
176
     1
 74
     1
176
     1
 91
        4
176
     1
 64
     7
176
     1
 65
   257
176
     1
 75
     1
176
     1
175
     1
176
     1
 42
1.0
176
     1
 92
        0
176
     1
 66
   257
176
     1
 43
1.0
176
     1
 76
     1
176
     1
 77
     6
176
     1
 78
     2
176
     1
 67
     7
176
     1
 79
     5
176
     1
170
     0
176
     1
171
     0
176
     1
290
     0
176
     1
 93
        1
176
     1
 44
0.0
176
     1
173
     0
176
     1
  0
VISUALSTYLE
  5
56
102
{ACAD_REACTORS
330
30
102
}
330
30
100
AcDbVisualStyle
  2
Realistic
 70
     8
177
     2
291
     0
 71
     2
176
     1
 72
     2
176
     1
 73
     0
176
     1
 90
        0
176
     1
 40
0.6
176
     1
 41
30.0
176
     1
 63
     7
176
     1
 74
     1
176
     1
 91
        0
176
     1
 64
     7
176
     1
 65
   257
176
     1
 75
     1
176
     1
175
     1
176
     1
 42
1.0
176
     1
 92
        8
176
     1
 66
     8
176
     1
 43
1.0
176
     1
 76
     1
176
     1
 77
     6
176
     1
 78
     2
176
     1
 67
     7
176
     1
 79
     5
176
     1
170
     0
176
     1
171
     0
176
     1
290
     0
176
     1
 93
       13
176
     1
 44
0.0
176
     1
173
     0
176
     1
  0
DICTIONARYVAR
  5
357
102
{ACAD_REACTORS
330
354
102
}
330
354
100
DictionaryVariables
280
     0
  1
1:1
  0
DICTIONARYVAR
  5
356
102
{ACAD_REACTORS
330
354
102
}
330
354
100
DictionaryVariables
280
     0
  1
STANDARD
  0
DICTIONARYVAR
  5
355
102
{ACAD_REACTORS
330
354
102
}
330
354
100
DictionaryVariables
280
     0
  1
STANDARD
  0
DICTIONARYVAR
  5
359
102
{ACAD_REACTORS
330
354
102
}
330
354
100
DictionaryVariables
280
     0
  1
1
  0
DICTIONARYVAR
  5
35A
102
{ACAD_REACTORS
330
354
102
}
330
354
100
DictionaryVariables
280
     0
  1
15
  0
DICTIONARYVAR
  5
358
102
{ACAD_REACTORS
330
354
102
}
330
354
100
DictionaryVariables
280
     0
  1
0
  0
DICTIONARY
  5
19
330
17
100
AcDbDictionary
280
     1
281
     1
  3
ADSK_XREC_LAYOUTTHUMBNAIL
360
1A
  0
DICTIONARY
  5
45
330
44
100
AcDbDictionary
280
     1
281
     1
  3
BUMPTILE
360
46
  3
DIFFUSETILE
360
47
  3
OPACITYTILE
360
48
  3
REFLECTIONTILE
360
49
  3
REFRACTIONTILE
360
4A
  3
SPECULARTILE
360
4B
  0
DICTIONARY
  5
3D
330
3C
100
AcDbDictionary
280
     1
281
     1
  3
BUMPTILE
360
3E
  3
DIFFUSETILE
360
3F
  3
OPACITYTILE
360
40
  3
REFLECTIONTILE
360
41
  3
REFRACTIONTILE
360
42
  3
SPECULARTILE
360
43
  0
DICTIONARY
  5
E
330
C
100
AcDbDictionary
280
     1
281
     1
  3
BUMPTILE
360
F
  3
DIFFUSETILE
360
10
  3
OPACITYTILE
360
11
  3
REFLECTIONTILE
360
12
  3
REFRACTIONTILE
360
13
  3
SPECULARTILE
360
14
  0
DICTIONARY
  5
55
330
54
100
AcDbDictionary
280
     1
281
     1
  3
ACAD_ROUNDTRIP_2008_TABLESTYLE_CELLSTYLEMAP
360
35B
  0
XRECORD
  5
1A
102
{ACAD_REACTORS
330
19
102
}
330
19
100
AcDbXrecord
280
     1
310
280000000001000074000000010008000000000000740000000000000000000000010000000000000000000000000000FFFFFF000000000000000000000000000000000000000000000000000000000000000000330000006600000099000000CC000000FF00000000330000333300006633000099330000CC330000FF3300
310
0000660000336600006666000099660000CC660000FF66000000990000339900006699000099990000CC990000FF99000000CC000033CC000066CC000099CC0000CCCC0000FFCC000000FF000033FF000066FF000099FF0000CCFF0000FFFF000000003300330033006600330099003300CC003300FF003300003333003333
310
33006633330099333300CC333300FF33330000663300336633006666330099663300CC663300FF66330000993300339933006699330099993300CC993300FF99330000CC330033CC330066CC330099CC3300CCCC3300FFCC330000FF330033FF330066FF330099FF3300CCFF3300FFFF330000006600330066006600660099
310
006600CC006600FF00660000336600333366006633660099336600CC336600FF33660000666600336666006666660099666600CC666600FF66660000996600339966006699660099996600CC996600FF99660000CC660033CC660066CC660099CC6600CCCC6600FFCC660000FF660033FF660066FF660099FF6600CCFF6600
310
FFFF660000009900330099006600990099009900CC009900FF00990000339900333399006633990099339900CC339900FF33990000669900336699006666990099669900CC669900FF66990000999900339999006699990099999900CC999900FF99990000CC990033CC990066CC990099CC9900CCCC9900FFCC990000FF99
310
0033FF990066FF990099FF9900CCFF9900FFFF99000000CC003300CC006600CC009900CC00CC00CC00FF00CC000033CC003333CC006633CC009933CC00CC33CC00FF33CC000066CC003366CC006666CC009966CC00CC66CC00FF66CC000099CC003399CC006699CC009999CC00CC99CC00FF99CC0000CCCC0033CCCC0066CC
310
CC0099CCCC00CCCCCC00FFCCCC0000FFCC0033FFCC0066FFCC0099FFCC00CCFFCC00FFFFCC000000FF003300FF006600FF009900FF00CC00FF00FF00FF000033FF003333FF006633FF009933FF00CC33FF00FF33FF000066FF003366FF006666FF009966FF00CC66FF00FF66FF000099FF003399FF006699FF009999FF00CC
310
99FF00FF99FF0000CCFF0033CCFF0066CCFF0099CCFF00CCCCFF00FFCCFF0000FFFF0033FFFF0066FFFF0099FFFF00CCFFFF00FFFFFF00000000000D0D0D001A1A1A00282828003535350043434300505050005D5D5D006B6B6B00787878008686860093939300A1A1A100AEAEAE00BBBBBB00C9C9C900D6D6D600E4E4E400
310
F1F1F100FFFFFF0000000000000000000000000000000000000000000000000000000000000000000000000000000000E2E2E2E2E2E2E2E2E2E2E2E2E2E2E2E2E2E2E2E2E2E2E2E2E2E2E2E2E2E2E2E2E2E2E2E2E2E2E2E2E2E2E2E2E2E2E2E2E2E2E2E2E2E2E2E2E2E2E2E2E2E2E2E2E2E2E2E2E2E2E2E2E2E2E2E2E2E2E2
310
E2E2E2E2E2E2E2E2E2E2E2E2E2E2E2E2E2E2E2E2E2E2E2E2E2E2E2E2E2E2E2E2E2E2E2E2E2E2E2E2E2E2E2E2E2E2E2E2E2E2E2E2E2E2E2E2E2E2E2E2E2E2E2E2E2E2E2E2E2E2E2E2E2E2E2E2E2E2E2E2E2E2E2E2E2E2E2E2E2E2E2E2E2E2E2E2E2E2E2E2E2E2E2E2E2E2E2E2E2E2E2E2E2E2E2E2E2E2E2E2E2E2E2E2E2E2E2
310
E2E2E2E2E2E2E2E2E2E2E2E2E2E2E2E2E2E2E2E2E2E2E2E2E2E2E2E2E2E2E2E2E2E2E2E2E2E2E2E2E2E2E2E2E2E2E2E2E2E2E2E2E2E2E2E2E2E2E2E2E2E2E2E2E2E2E2E2E2E2E2E2E2E2E2E2E2E2E2E2E2E2E2E2E2E2E2E2E2E2E2E2E2E2E2E2E2E2E2E2E2E2E2E2E2E2E2E2E2E2E2E2E2E2E2E2E2E2E2E2E2E2E2E2E2E2E2
310
E2E2E2E2E2E2E2E2E2E2E2E2E2E2E2E2E2E2E2E2E2E2E2E2E2E2E2E2E2E2E2E2E2E2E2E2E2E2E2E2E2E2E2E2E2E2E2E2E2E2E2E2E2E2E2E2E2E2E2E2E2E2E2E2E2E2E2E2E2E2E2E2E2E2E2E2E2E2E2E2E2E2E2E2E2E2E2E2E2E2E2E2E2E2E2E2E2E2E2E2E2E2E2E2E2E2E2E2E2E2E2E2E2E2E2E2E2E2E2E2E2E2E2E2E2E2E2
310
E2E2E2E2E2E2E2E2E2E2E2E2E2E2E2E2E2E2E2E2E2E2E2E2E2E2E2E2E2E2E2E2E2E2E2E2E2E2E2E2E2E2E2E2E2E2E2E2E2E2E2E2E2E2E2E2E2E2E2E2E2E2E2E2E2E2E2E2E2E2E2E2E2E2E2E2E2E2E2E2E2E2E2E2E2E2E2E2E2E2E2E2E2E2E2E2E2E2E2E2E2E2E2E2E2E2E2E2E2E2E2E2E2E2E2E2E2E2E2E2E2E2E2E2E2E2E2
310
E2E2E2E2E2E2E2E2E2E2E2E2E2E2E2E2E2E2E2E2E2E2E2E2E2E2E2E2E2E2E2E2E2E2E2E2E2E2E2E2E2E2E2E2E2E2E2E2E2E2E2E2E2E2E2E2E2E2E2E2E2E2E2E2E2E2E2E2E2E2E2E2E2E2E2E2E2E2E2E2E2E2E2E2E2E2E2E2E2E2E2E2E2E2E2E2E2E2E2E2E2E2E2E2E2E2E2E2E2E2E2E2E2E2E2E2E2E2E2E2E2E2E2E2E2E2E2
310
E2E2E2E2E2E2E2E2E2E2E2E2E2E2E2E2E2E2E2E2E2E2E2E2E2E2E2E2E2E2E2E2E2E2E2E2E2E2E2E2E2E2E2E2E2E2E2E2E2E2E2E2E2E2E2E2E2E2E2E2E2E2E2E2E2E2E2E2E2E2E2E2E2E2E2E2E2E2E2E2E2E2E2E2E2E2E2E2E2E2E2E2E2E2E2E2E2E2E2E2E2E2E2E2E2E2E2E2E2E2E2E2E2E2E2E2E2E2E2E2E2E2E2E2E2E2E2
310
E2E2E2E2E2E2E2E2E2E2E2E2E2E2E2E2E2E2E2E2E2E2E2E2E2E2E2E2E2E2E2E2E2E2E2E2E2E2E2E2E2E2E2E2E2E2E2E2E2E2E2E2E2E2E2E2E2E2E2E2E2E2E2E2E2E2E2E2E2E2E2E2E2E2E2E2E2E2E2E2E2E2E2E2E2E2E2E2E2E2E2E2E2E2E2E2E2E2E2E2E2E2E2E2E2E2E2E2E2E2E2E2E2E2E2E2E2E2E2E2E2E2E2E2E2E2E2
310
E2E2E2E2E2E2E2E2E2E2E2E2E2E2E2E2E2E2E2E2E2E2E2E2E2E2E2E2E2E2E2E2E2E2E2E2E2E2E2E2E2E2E2E2E2E2E2E2E2E2E2E2E2E2E2E2E2E2E2E2E2E2E2E2E2E2E2E2E2E2E2E2E2E2E2E2E2E2E2E2E2E2E2E2E2E2E2E2E2E2E2E2E2E2E2E2E2E2E2E2E2E2E2E2E2E2E2E2E2E2E2E2E2E2E2E2E2E2E2E2E2E2E2E2E2E2E2
310
E2E2E2E2E2E2E2E2E2E2E2E2E2E2E2E2E2E2E2E2E2E2E2E2E2E2E2E2E2E2E2E2E2E2E2E2E2E2E2E2E2E2E2E2E2E2E2E2E2E2E2E2E2E2E2E2E2E2E2E2E2E2E2E2E2E2E2E2E2E2E2E2E2E2E2E2E2E2E2E2E2E2E2E2E2E2E2E2E2E2E2E2E2E2E2E2E2E2E2E2E2E2E2E2E2E2E2E2E2E2E2E2E2E2E2E2E2E2E2E2E2E2E2E2E2E2E2
310
E2E2E2E2E2E2E2E2E2E2E2E2E2E2E2E2E2E2E2E2E2E2E2E2E2E2E2E2E2E2E2E2E2E2E2E2E2E2E2E2E2E2E2E2E2E2E2E2E2E2E2E2E2E2E2E2E2E2E2E2E2E2E2E2E2E2E2E2E2E2E2E2E2E2E2E2E2E2E2E2E2E2E2E2E2E2E2E2E2E2E2E2E2E2E2E2E2E2E2E2E2E2E2E2E2E2E2E2E2E2E2E2E2E2E2E2E2E2E2E2E2E2E2E2E2E2E2
310
E2E2E2E2E2E2E2E2E2E2E2E2E2E2E2E2E2E2E2E2E2E2E2E2E2E2E2E2E2E2E2E2E2E2E2E2E2E2E2E2E2E2E2E2E2E2E2E2E2E2E2E2E2E2E2E2E2E2E2E2E2E2E2E2E2E2E2E2E2E2E2E2E2E2E2E2E2E2E2E2E2E2E2E2E2E2E2E2E2E2E2E2E2E2E2E2E2E2E2E2E2E2E2E2E2E2E2E2E2E2E2E2E2E2E2E2E2E2E2E2E2E2E2E2E2E2E2
310
E2E2E2E2E2E2E2E2E2E2E2E2E2E2E2E2E2E2E2E2E2E2E2E2E2E2E2E2E2E2E2E2E2E2E2E2E2E2E2E2E2E2E2E2E2E2E2E2E2E2E2E2E2E2E2E2E2E2E2E2E2E2E2E2E2E2E2E2E2E2E2E2E2E2E2E2E2E2E2E2E2E2E2E2E2E2E2E2E2E2E2E2E2E2E2E2E2E2E2E2E2E2E2E2E2E2E2E2E2E2E2E2E2E2E2E2E2E2E2E2E2E2E2E2E2E2E2
310
E2E2E2E2E2E2E2E2E2E2E2E2E2E2E2E2E2E2E2E2E2E2E2E2E2E2E2E2E2E2E2E2E2E2E2E2E2E2E2E2E2E2E2E2E2E2E2E2E2E2E2E2E2E2E2E2E2E2E2E2E2E2E2E2E2E2E2E2E2E2E2E2E2E2E2E2E2E2E2E2E2E2E2E2E2E2E2E2E2E2E2E2E2E2E2E2E2E2E2E2E2E2E2E2E2E2E2E2E2E2E2E2E2E2E2E2E2E2E2E2E2E2E2E2E2E2E2
310
E2E2E2E2E2E2E2E2E2E2E2E2E2E2E2E2E2E2E2E2E2E2E2E2E2E2E2E2E2E2E2E2E2E2E2E2E2E2E2E2E2E2E2E2E2E2E2E2E2E2E2E2E2E2E2E2E2E2E2E2E2E2E2E2E2E2E2E2E2E2E2E2E2E2E2E2E2E2E2E2E2E2E2E2E2E2E2E2E2E2E2E2E2E2E2E2E2E2E2E2E2E2E2E2E2E2E2E2E2E2E2E2E2E2E2E2E2E2E2E2E2E2E2E2E2E2E2
310
E2E2E2E2E2E2E2E2E2E2E2E2E2E2E2E2E2E2E2E2E2E2E2E2E2E2E2E2E2E2E2E2E2E2E2E2E2E2E2E2E2E2E2E2E2E2E2E2E2E2E2E2E2E2E2E2E2E2E2E2E2E2E2E2E2E2E2E2E2E2E2E2E2E2E2E2E2E2E2E2E2E2E2E2E2E2E2E2E2E2E2E2E2E2E2E2E2E2E2E2E2E2E2E2E2E2E2E2E2E2E2E2E2E2E2E2E2E2E2E2E2E2E2E2E2E2E2
310
E2E2E2E2E2E2E2E2E2E2E2E2E2E2E2E2E2E2E2E2E2E2E2E2E2E2E2E2E2E2E2E2E2E2E2E2E2E2E2E2E2E2E2E2E2E2E2E2E2E2E2E2E2E2E2E2E2E2E2E2E2E2E2E2E2E2E2E2E2E2E2E2E2E2E2E2E2E2E2E2E2E2E2E2E2E2E2E2E2E2E2E2E2E2E2E2E2E2E2E2E2E2E2E2E2E2E2E2E2E2E2E2E2E2E2E2E2E2E2E2E2E2E2E2E2E2E2
310
E2E2E2E2E2E2E2E2E2E2E2E2E2E2E2E2E2E2E2E2E2E2E2E2E2E2E2E2E2E2E2E2E2E2E2E2E2E2E2E2E2E2E2E2E2E2E2E2E2E2E2E2E2E2E2E2E2E2E2E2E2E2E2E2E2E2E2E2E2E2E2E2E2E2E2E2E2E2E2E2E2E2E2E2E2E2E2E2E2E2E2E2E2E2E2E2E2E2E2E2E2E2E2E2E2E2E2E2E2E2E2E2E2E2E2E2E2E2E2E2E2E2E2E2E2E2E2
310
E2E2E2E2E2E2E2E2E2E2E2E2E2E2E2E2E2E2E2E2E2E2E2E2E2E2E2E2E2E2E2E2E2E2E2E2E2E2E2E2E2E2E2E2E2E2E2E2E2E2E2E2E2E2E2E2E2E2E2E2E2E2E2E2E2E2E2E2E2E2E2E2E2E2E2E2E2E2E2E2E2E2E2E2E2E2E2E2E2E2E2E2E2E2E2E2E2E2E2E2E2E2E2E2E2E2E2E2E2E2E2E2E2E2E2E2E2E2E2E2E2E2E2E2E2E2E2
310
E2E2E2E2E2E2E2E2E2E2E2E2E2E2E2E2E2E2E2E2E2E2E2E2E2E2E2E2E2E2E2E2E2E2E2E2E2E2E2E2E2E2E2E2E2E2E2E2E2E2E2E2E2E2E2E2E2E2E2E2E2E2E2E2E2E2E2E2E2E2E2E2E2E2E2E2E2E2E2E2E2E2E2E2E2E2E2E2E2E2E2E2E2E2E2E2E2E2E2E2E2E2E2E2E2E2E2E2E2E2E2E2E2E2E2E2E2E2E2E2E2E2E2E2E2E2E2
310
E2E2E2E2E2E2E2E2E2E2E2E2E2E2E2E2E2E2E2E2E2E2E2E2E2E2E2E2E2E2E2E2E2E2E2E2E2E2E2E2E2E2E2E2E2E2E2E2E2E2E2E2E2E2E2E2E2E2E2E2E2E2E2E2E2E2E2E2E2E2E2E2E2E2E2E2E2E2E2E2E2E2E2E2E2E2E2E2E2E2E2E2E2E2E2E2E2E2E2E2E2E2E2E2E2E2E2E2E2E2E2E2E2E2E2E2E2E2E2E2E2E2E2E2E2E2E2
310
E2E2E2E2E2E2E2E2E2E2E2E2E2E2E2E2E2E2E2E2E2E2E2E2E2E2E2E2E2E2E2E2E2E2E2E2E2E2E2E2E2E2E2E2E2E2E2E2E2E2E2E2E2E2E2E2E2E2E2E2E2E2E2E2E2E2E2E2E2E2E2E2E2E2E2E2E2E2E2E2E2E2E2E2E2E2E2E2E2E2E2E2E2E2E2E2E2E2E2E2E2E2E2E2E2E2E2E2E2E2E2E2E2E2E2E2E2E2E2E2E2E2E2E2E2E2E2
310
E2E2E2E2E2E2E2E2E2E2E2E2E2E2E2E2E2E2E2E2E2E2E2E2E2E2E2E2E2E2E2E2E2E2E2E2E2E2E2E2E2E2E2E2E2E2E2E2E2E2E2E2E2E2E2E2E2E2E2E2E2E2E2E2E2E2E2E2E2E2E2E2E2E2E2E2E2E2E2E2E2E2E2E2E2E2E2E2E2E2E2E2E2E2E2E2E2E2E2E2E2E2E2E2E2E2E2E2E2E2E2E2E2E2E2E2E2E2E2E2E2E2E2E2E2E2E2
310
E2E2E2E2E2E2E2E2E2E2E2E2E2E2E2E2E2E2E2E2E2E2E2E2E2E2E2E2E2E2E2E2E2E2E2E2E2E2E2E2E2E2E2E2E2E2E2E2E2E2E2E2E2E2E2E2E2E2E2E2E2E2E2E2E2E2E2E2E2E2E2E2E2E2E2E2E2E2E2E2E2E2E2E2E2E2E2E2E2E2E2E2E2E2E2E2E2E2E2E2E2E2E2E2E2E2E2E2E2E2E2E2E2E2E2E2E2E2E2E2E2E2E2E2E2E2E2
310
E2E2E2E2E2E2E2E2E2E2E2E2E2E2E2E2E2E2E2E2E2E2E2E2E2E2E2E2E2E2E2E2E2E2E2E2E2E2E2E2E2E2E2E2E2E2E2E2E2E2E2E2E2E2E2E2E2E2E2E2E2E2E2E2E2E2E2E2E2E2E2E2E2E2E2E2E2E2E2E2E2E2E2E2E2E2E2E2E2E2E2E2E2E2E2E2E2E2E2E2E2E2E2E2E2E2E2E2E2E2E2E2E2E2E2E2E2E2E2E2E2E2E2E2E2E2E2
310
E2E2E2E2E2E2E2E2E2E2E2E2E2E2E2E2E2E2E2E2E2E2E2E2E2E2E2E2E2E2E2E2E2E2E2E2E2E2E2E2E2E2E2E2E2E2E2E2E2E2E2E2E2E2E2E2E2E2E2E2E2E2E2E2E2E2E2E2E2E2E2E2E2E2E2E2E2E2E2E2E2E2E2E2E2E2E2E2E2E2E2E2E2E2E2E2E2E2E2E2E2E2E2E2E2E2E2E2E2E2E2E2E2E2E2E2E2E2E2E2E2E2E2E2E2E2E2
310
E2E2E2E2E2E2E2E2E2E2E2E2E2E2E2E2E2E2E2E2E2E2E2E2E2E2E2E2E2E2E2E2E2E2E2E2E2E2E2E2E2E2E2E2E2E2E2E2E2E2E2E2E2E2E2E2E2E2E2E2E2E2E2E2E2E2E2E2E2E2E2E2E2E2E2E2E2E2E2E2E2E2E2E2E2E2E2E2E2E2E2E2E2E2E2E2E2E2E2E2E2E2E2E2E2E2E2E2E2E2E2E2E2E2E2E2E2E2E2E2E2E2E2E2E2E2E2
310
E2E2E2E2E2E2E2E2E2E2E2E2E2E2E2E2E2E2E2E2E2E2E2E2E2E2E2E2E2E2E2E2E2E2E2E2E2E2E2E2E2E2E2E2E2E2E2E2E2E2E2E2E2E2E2E2E2E2E2E2E2E2E2E2E2E2E2E2E2E2E2E2E2E2E2E2E2E2E2E2E2E2E2E2E2E2E2E2E2E2E2E2E2E2E2E2E2E2E2E2E2E2E2E2E2E2E2E2E2E2E2E2E2E2E2E2E2E2E2E2E2E2E2E2E2E2E2
310
E2E2E2E2E2E2E2E2E2E2E2E2E2E2E2E2E2E2E2E2E2E2E2E2E2E2E2E2E2E2E2E2E2E2E2E2E2E2E2E2E2E2E2E2E2E2E2E2E2E2E2E2E2E2E2E2E2E2E2E2E2E2E2E2E2E2E2E2E2E2E2E2E2E2E2E2E2E2E2E2E2E2E2E2E2E2E2E2E2E2E2E2E2E2E2E2E2E2E2E2E2E2E2E2E2E2E2E2E2E2E2E2E2E2E2E2E2E2E2E2E2E2E2E2E2E2E2
310
E2E2E2E2E2E2E2E2E2E2E2E2E2E2E2E2E2E2E2E2E2E2E2E2E2E2E2E2E2E2E2E2E2E2E2E2E2E2E2E2E2E2E2E2E2E2E2E2E2E2E2E2E2E2E2E2E2E2E2E2E2E2E2E2E2E2E2E2E2E2E2E2E2E2E2E2E2E2E2E2E2E2E2E2E2E2E2E2E2E2E2E2E2E2E2E2E2E2E2E2E2E2E2E2E2E2E2E2E2E2E2E2E2E2E2E2E2E2E2E2E2E2E2E2E2E2E2
310
E2E2E2E2E2E2E2E2E2E2E2E2E2E2E2E2E2E2E2E2E2E2E2E2E2E2E2E2E2E2E2E2E2E2E2E2E2E2E2E2E2E2E2E2E2E2E2E2E2E2E2E2E2E2E2E2E2E2E2E2E2E2E2E2E2E2E2E2E2E2E2E2E2E2E2E2E2E2E2E2E2E2E2E2E2E2E2E2E2E2E2E2E2E2E2E2E2E2E2E2E2E2E2E2E2E2E2E2E2E2E2E2E2E2E2E2E2E2E2E2E2E2E2E2E2E2E2
310
E2E2E2E2E2E2E2E2E2E2E2E2E2E2E2E2E2E2E2E2E2E2E2E2E2E2E2E2E2E2E2E2E2E2E2E2E2E2E2E2E2E2E2E2E2E2E2E2E2E2E2E2E2E2E2E2E2E2E2E2E2E2E2E2E2E2E2E2E2E2E2E2E2E2E2E2E2E2E2E2E2E2E2E2E2E2E2E2E2E2E2E2E2E2E2E2E2E2E2E2E2E2E2E2E2E2E2E2E2E2E2E2E2E2E2E2E2E2E2E2E2E2E2E2E2E2E2
310
E2E2E2E2E2E2E2E2E2E2E2E2E2E2E2E2E2E2E2E2E2E2E2E2E2E2E2E2E2E2E2E2E2E2E2E2E2E2E2E2E2E2E2E2E2E2E2E2E2E2E2E2E2E2E2E2E2E2E2E2E2E2E2E2E2E2E2E2E2E2E2E2E2E2E2E2E2E2E2E2E2E2E2E2E2E2E2E2E2E2E2E2E2E2E2E2E2E2E2E2E2E2E2E2E2E2E2E2E2E2E2E2E2E2E2E2E2E2E2E2E2E2E2E2E2E2E2
310
E2E2E2E2E2E2E2E2E2E2E2E2E2E2E2E2E2E2E2E2E2E2E2E2E2E2E2E2E2E2E2E2E2E2E2E2E2E2E2E2E2BEBEBEBEBEBEBEBEBEBEBEBEBEBEBEBEBEBEBEBEBEBEBEBEBEBEBEBEBEBEBEBEBEBEBEBEBEBEBEBEBEBEBEBEBEBEBEBEBEBEBEBEBEBEBEBEBEBEBEBEBEBEBEBEBEBEBEBEBEBEBEBEBEBEBEBEBEBEE2E2E2E2E2E2E2E2
310
E2E2E2E2E2E2E2E2E2E2E2E2E2E2E2E2E2E2E2E2E2E2E2E2E2E2E2E2E2E2E2E2E2E2E2E2E2E2E2E2E2E2E2E2E2E2E2E2E2E2E2E2E2E2E2E2E2E2E2E2E2E2E2E2E2E2E2E2E2E2E2E2E2E2E2E2E2E2E2E2E2E2E2E2E2E2E2E2E2E2E2E2E2E2E2E2E2E2E2E2E2E2E2E2E2E2E2E2E2E2E2E2E2E2E2E2E2E2E2E2E2E2E2E2E2E2E2
310
E2E2E2E2E2E2E2E2E2E2E2E2E2E2E2E2E2E2E2E2E2E2E2E2E2E2E2E2E2E2E2E2E2E2E2E2E2E2E2E2E2E2E2BEE2E2E2DCDCDCDCDCDCDCDCDCDCDCDCBEBEBEBEDCDCDCDCDCDCDCDCDCDCDCDCDCBEBEBEDCDCBEBEE2E2E2DCDCDCDCDCDCDCDCDCDCDCDCBEBEBEBEDCDCDCDCDCDCDCDCDCDCDCDCDCBEBEBEDCDCBEE2E2E2E2E2E2
310
E2E2E2E2E2E2E2E2E2E2E2E2E2E2E2E2E2E2E2E2E2E2E2E2E2E2E2E2E2E2E2E2E2E2E2E2E2E2E2E2E2E2E2E2E2E2E2E2E2E2E2E2E2E2E2E2E2E2E2E2E2E2E2E2E2E2E2E2E2E2E2E2E2E2E2E2E2E2E2E2E2E2E2E2E2E2E2E2E2E2E2E2E2E2E2E2E2E2E2E2E2E2E2E2E2E2E2E2E2E2E2E2E2E2E2E2E2E2E2E2E2E2E2E2E2E2E2
310
E2E2E2E2E2E2E2E2E2E2E2E2E2E2E2E2E2E2E2E2E2E2E2E2E2E2E2E2E2E2E2E2E2E2E2E2E2E2E2E2E2E2E2E2E2BEE2E2E2F5F5F5DCF5F5F5F5DCDCBEBEBEBEBEBEE2F5F5F5F5E2DCF5F5F5F5F5BEBEBEBEF5DCBEBEE2E2E2F5F5F5DCF5F5F5F5DCDCBEBEBEBEBEBEE2F5F5F5F5E2DCF5F5F5F5F5BEBEBEBEF5DCBEE2E2E2E2
310
E2E2E2E2E2E2E2E2E2E2E2E2E2E2E2E2E2E2E2E2E2E2E2E2E2E2E2E2E2E2E2E2E2E2E2E2E2E2E2E2E2E2E2E2E2E2E2E2E2E2E2E2E2E2E2E2E2E2E2E2E2E2E2E2E2E2E2E2E2E2E2E2E2E2E2E2E2E2E2E2E2E2E2E2E2E2E2E2E2E2E2E2E2E2E2E2E2E2E2E2E2E2E2E2E2E2E2E2E2E2E2E2E2E2E2E2E2E2E2E2E2E2E2E2E2E2E2
310
E2E2E2E2E2E2E2E2E2E2E2E2E2E2E2E2E2E2E2E2E2E2E2E2E2E2E2E2E2E2E2E2E2E2E2E2E2E2E2E2E2E2E2E2E2E2E2BEE2E2E2DCDCDCDCDCDCDCDCDCDCE2BEBEBEBEBEE2F5F5F5F5DCDCF5F5F5F5F5DCF5F5F5F5DCBEBEE2E2E2DCDCDCDCDCDCDCDCDCDCE2BEBEBEBEBEE2F5F5F5F5DCDCBEF5F5F5F5DCF5F5F5F5DCBEE2E2
310
E2E2E2E2E2E2E2E2E2E2E2E2E2E2E2E2E2E2E2E2E2E2E2E2E2E2E2E2E2E2E2E2E2E2E2E2E2E2E2E2E2E2E2E2E2E2E2E2E2E2E2E2E2E2E2E2E2E2E2E2E2E2E2E2E2E2E2E2E2E2E2E2E2E2E2E2E2E2E2E2E2E2E2E2E2E2E2E2E2E2E2E2E2E2E2E2E2E2E2E2E2E2E2E2E2E2E2E2E2E2E2E2E2E2E2E2E2E2E2E2E2E2E2E2E2E2E2
310
E2E2E2E2E2E2E2E2E2E2E2E2E2E2E2E2E2E2E2E2E2E2E2E2E2E2E2E2E2E2E2E2E2E2E2E2E2E2E2E2E2E2E2E2E2E2E2E2E2BEE2E2E2DCDCDCDCDCDCDCDCDCF5F5BEBEBEBEBEDCBEBEBEBEBEBEBEE2E2E2E2E2E2E2E2E2DCBEBEE2E2E2DCDCDCDCDCDCDCDCDCF5F5BEBEBEBEBEDCBEBEBEBEBEBEBEE2E2E2E2E2E2E2E2E2DCBE
310
E2E2E2E2E2E2E2E2E2E2E2E2E2E2E2E2E2E2E2E2E2E2E2E2E2E2E2E2E2E2E2E2E2E2E2E2E2E2E2E2E2E2E2E2E2E2E2E2E2E2E2E2E2E2E2E2E2E2E2E2E2E2E2E2E2E2E2E2E2E2E2E2E2E2E2E2E2E2E2E2E2E2E2E2E2E2E2E2E2E2E2E2E2E2E2E2E2E2E2E2E2E2E2E2E2E2E2E2E2E2E2E2E2E2E2E2E2E2E2E2E2E2E2E2E2E2E2
310
E2E2E2E2E2E2E2E2E2E2E2E2E2E2E2E2E2E2E2E2E2E2E2E2E2E2E2E2E2E2E2E2E2E2E2E2E2E2E2E2E2E2E2E2E2E2E2E2E2E2E2BEE2E2E2DCDCDCDCDCDCDCDCDCF5BEBEBEBEBEBEDCBEBEBEBEBEBEBEBEBEBEBEBEBEBEBEBEDCBEBEE2E2E2DCDCDCDCDCDCDCDCDCF5BEBEBEBEBEBEDCBEBEBEBEBEBEBEBEBEBEBEBEBEBEBEBE
310
DCBEE2E2E2E2E2E2E2E2E2E2E2E2E2E2E2E2E2E2E2E2E2E2E2E2E2E2E2E2E2E2E2E2E2E2E2E2E2E2E2E2E2E2E2E2E2E2E2E2E2E2E2E2E2E2E2E2E2E2E2E2E2E2E2E2E2E2E2E2E2E2E2E2E2E2E2E2E2E2E2E2E2E2E2E2E2E2E2E2E2E2E2E2E2E2E2E2E2E2E2E2E2E2E2E2E2E2E2E2E2E2E2E2E2E2E2E2E2E2E2E2E2E2E2E2E2
310
E2E2E2E2E2E2E2E2E2E2E2E2E2E2E2E2E2E2E2E2E2E2E2E2E2E2E2E2E2E2E2E2E2E2E2E2E2E2E2E2E2E2E2E2E2E2E2E2E2E2E2E2E2BEE2E2E2F5F5F5F5DCF5F5F5F5DCF5F5F5F5F5F5DCF5F5F5F5F5F5F5E2E2E2E2E2E2E2E2E2DCBEBEE2E2E2F5F5F5F5DCF5F5F5F5DCF5F5F5F5F5F5DCF5F5F5F5F5F5F5E2E2E2E2E2E2E2
310
E2E2DCBEE2E2E2E2E2E2E2E2E2E2E2E2E2E2E2E2E2E2E2E2E2E2E2E2E2E2E2E2E2E2E2E2E2E2E2E2E2E2E2E2E2E2E2E2E2E2E2E2E2E2E2E2E2E2E2E2E2E2E2E2E2E2E2E2E2E2E2E2E2E2E2E2E2E2E2E2E2E2E2E2E2E2E2E2E2E2E2E2E2E2E2E2E2E2E2E2E2E2E2E2E2E2E2E2E2E2E2E2E2E2E2E2E2E2E2E2E2E2E2E2E2E2E2
310
E2E2E2E2E2E2E2E2E2E2E2E2E2E2E2E2E2E2E2E2E2E2E2E2E2E2E2E2E2E2E2E2E2E2E2E2E2E2E2E2E2E2E2E2E2E2E2E2E2E2E2E2E2E2E2BEE2E2E2DCDCDCDCDCDCDCDCDCDCDCDCDCBEBEBEBEBEDCDCDCF5DCDCDCDCDCDCDCDCDCDCDCDCBEBEE2E2E2DCDCDCDCDCDCDCDCDCDCDCDCDCBEBEBEBEBEDCDCDCF5DCDCDCDCDCDCDC
310
DCDCDCDCDCBEE2E2E2E2E2E2E2E2E2E2E2E2E2E2E2E2E2E2E2E2E2E2E2E2E2E2E2E2E2E2E2E2E2E2E2E2E2E2E2E2E2E2E2E2E2E2E2E2E2E2E2E2E2E2E2E2E2E2E2E2E2E2E2E2E2E2E2E2E2E2E2E2E2E2E2E2E2E2E2E2E2E2E2E2E2E2E2E2E2E2E2E2E2E2E2E2E2E2E2E2E2E2E2E2E2E2E2E2E2E2E2E2E2E2E2E2E2E2E2E2E2
310
E2E2E2E2E2E2E2E2E2E2E2E2E2E2E2E2E2E2E2E2E2E2E2E2E2E2E2E2E2E2E2E2E2E2E2E2E2E2E2E2E2E2E2E2E2E2E2E2E2E2E2E2E2E2E2E2E2BEE2E2E2DCE2E2E2E2E2E2E2E2DCDCDCDCBEBEBEBEBEF5BEBEBEDCF5F5F5F5F5F5DCF5BEBEF5BEBEE2E2E2DCE2E2E2E2E2E2E2E2DCDCDCDCBEBEBEBEBEF5BEBEBEDCF5F5F5F5
310
F5F5DCF5BEBEF5BEE2E2E2E2E2E2E2E2E2E2E2E2E2E2E2E2E2E2E2E2E2E2E2E2E2E2E2E2E2E2E2E2E2E2E2E2E2E2E2E2E2E2E2E2E2E2E2E2E2E2E2E2E2E2E2E2E2E2E2E2E2E2E2E2E2E2E2E2E2E2E2E2E2E2E2E2E2E2E2E2E2E2E2E2E2E2E2E2E2E2E2E2E2E2E2E2E2E2E2E2E2E2E2E2E2E2E2E2E2E2E2E2E2E2E2E2E2E2E2
310
E2E2E2E2E2E2E2E2E2E2E2E2E2E2E2E2E2E2E2E2E2E2E2E2E2E2E2E2E2E2E2E2E2E2E2E2E2E2E2E2E2E2E2E2E2E2E2E2E2E2E2E2E2E2E2E2E2E2E2BEE2E2E2DCDCDCDCDCDCDCDCDCF5F5F5F5DCBEBEDCDCBEBEBEBEDCDCF5F5F5F5DCDCF5BEBEDCBEBEE2E2E2DCDCDCDCDCDCDCDCDCF5F5F5F5DCBEBEDCDCBEBEBEBEDCDCF5
310
F5F5F5DCDCF5BEBEDCBEE2E2E2E2E2E2E2E2E2E2E2E2E2E2E2E2E2E2E2E2E2E2E2E2E2E2E2E2E2E2E2E2E2E2E2E2E2E2E2E2E2E2E2E2E2E2E2E2E2E2E2E2E2E2E2E2E2E2E2E2E2E2E2E2E2E2E2E2E2E2E2E2E2E2E2E2E2E2E2E2E2E2E2E2E2E2E2E2E2E2E2E2E2E2E2E2E2E2E2E2E2E2E2E2E2E2E2E2E2E2E2E2E2E2E2E2E2
310
E2E2E2E2E2E2E2E2E2E2E2E2E2E2E2E2E2E2E2E2E2E2E2E2E2E2E2E2E2E2E2E2E2E2E2E2E2E2E2E2E2E2E2E2E2E2E2E2E2E2E2E2E2E2E2E2E2E2E2E2E2BEE2E2E2DCE2F5F5F5F5F5F5F52DF52DE2E2E2E2E2E2E2E2E2E2E2E2E2E2E2E2E2E2E2E2E2DCBEBEE2E2E2DCE2F5F5F5F5F5F5F52DF5E2E2E2E2E2E2E2E2E2E2E2E2
310
E2E2E2E2E2E2E2E2E2E2DCBEE2E2E2E2E2E2E2E2E2E2E2E2E2E2E2E2E2E2E2E2E2E2E2E2E2E2E2E2E2E2E2E2E2E2E2E2E2E2E2E2E2E2E2E2E2E2E2E2E2E2E2E2E2E2E2E2E2E2E2E2E2E2E2E2E2E2E2E2E2E2E2E2E2E2E2E2E2E2E2E2E2E2E2E2E2E2E2E2E2E2E2E2E2E2E2E2E2E2E2E2E2E2E2E2E2E2E2E2E2E2E2E2E2E2E2
310
E2E2E2E2E2E2E2E2E2E2E2E2E2E2E2E2E2E2E2E2E2E2E2E2E2E2E2E2E2E2E2E2E2E2E2E2E2E2E2E2E2E2E2E2E2E2E2E2E2E2E2E2E2E2E2E2E2E2E2E2E2E2E2BEE2E2E2DCE228282828282828282D2DE2E2E2E2E2E2E2E2E2E2E2E2E2E2E2E2E2E2E2E2E2DCBEBEE2E2E2DC28E2E2E2E2E2E228F52DE2E2E2E2E2E2E2E2E2E2
310
E2E2E2E2E2E2E2E2E2E2E2E2DCBEE2E2E2E2E2E2E2E2E2E2E2E2E2E2E2E2E2E2E2E2E2E2E2E2E2E2E2E2E2E2E2E2E2E2E2E2E2E2E2E2E2E2E2E2E2E2E2E2E2E2E2E2E2E2E2E2E2E2E2E2E2E2E2E2E2E2E2E2E2E2E2E2E2E2E2E2E2E2E2E2E2E2E2E2E2E2E2E2E2E2E2E2E2E2E2E2E2E2E2E2E2E2E2E2E2E2E2E2E2E2E2E2E2
310
E2E2E2E2E2E2E2E2E2E2E2E2E2E2E2E2E2E2E2E2E2E2E2E2E2E2E2E2E2E2E2E2E2E2E2E2E2E2E2E2E2E2E2E2E2E2E2E2E2E2E2E2E2E2E2E2E2E2E2E2E2E2E2E2E2BEE2E2E2DCE228280F0F0F0F28282DE2E2E2E2E2E2E2E2E2E2E2E2E2E2E2E2E2E2E2E2E2E2DCBEBEE2E2E2DC28E2E2E2E2E2E228F52DE2E2E2E2BEBEBEBE
310
BEBEBEBEBEBEBEBEBEBEBEE2E2E2DCBEE2E2E2E2E2E2E2E2E2E2E2E2E2E2E2E2E2E2E2E2E2E2E2E2E2E2E2E2E2E2E2E2E2E2E2E2E2E2E2E2E2E2E2E2E2E2E2E2E2E2E2E2E2E2E2E2E2E2E2E2E2E2E2E2E2E2E2E2E2E2E2E2E2E2E2E2E2E2E2E2E2E2E2E2E2E2E2E2E2E2E2E2E2E2E2E2E2E2E2E2E2E2E2E2E2E2E2E2E2E2E2
310
E2E2E2E2E2E2E2E2E2E2E2E2E2E2E2E2E2E2E2E2E2E2E2E2E2E2E2E2E2E2E2E2E2E2E2E2E2E2E2E2E2E2E2E2E2E2E2E2E2E2E2E2E2E2E2E2E2E2E2E2E2E2E2E2E2E2E2BEE2E2E2DCE22828E2E2E2E228282DE2E2E2E2E2E2E2E2E2E2E2E2E2E2E2E2E2E2E2E2E2E2DCBEBEE2E2E2DC28E2E2E2E2E2E228F52DE2E2E2E2BEBE
310
BEBEBEBEBEBEBEBEBEBEBEBEBEE2E2E2DCBEE2E2E2E2E2E2E2E2E2E2E2E2E2E2E2E2E2E2E2E2E2E2E2E2E2E2E2E2E2E2E2E2E2E2E2E2E2E2E2E2E2E2E2E2E2E2E2E2E2E2E2E2E2E2E2E2E2E2E2E2E2E2E2E2E2E2E2E2E2E2E2E2E2E2E2E2E2E2E2E2E2E2E2E2E2E2E2E2E2E2E2E2E2E2E2E2E2E2E2E2E2E2E2E2E2E2E2E2E2
310
E2E2E2E2E2E2E2E2E2E2E2E2E2E2E2E2E2E2E2E2E2E2E2E2E2E2E2E2E2E2E2E2E2E2E2E2E2E2E2E2E2E2E2E2E2E2E2E2E2E2E2E2E2E2E2E2E2E2E2E2E2E2E2E2E2E2E2E2E2BEE2E2E2DCE22828E2E2E2E228282DE2E2E2E2E2E2E2E2E2E2E2E2E2E2E2E2E2E2E2E2E2E2DCBEBEE2E2E2DC28E2E2E2E2E2E228F52DE2E2E2E2
310
BEBEBEBEBEBEBEBEBEBEBEE2E2E2E2E2E2E2DCBEE2E2E2E2E2E2E2E2E2E2E2E2E2E2E2E2E2E2E2E2E2E2E2E2E2E2E2E2E2E2E2E2E2E2E2E2E2E2E2E2E2E2E2E2E2E2E2E2E2E2E2E2E2E2E2E2E2E2E2E2E2E2E2E2E2E2E2E2E2E2E2E2E2E2E2E2E2E2E2E2E2E2E2E2E2E2E2E2E2E2E2E2E2E2E2E2E2E2E2E2E2E2E2E2E2E2E2
310
E2E2E2E2E2E2E2E2E2E2E2E2E2E2E2E2E2E2E2E2E2E2E2E2E2E2E2E2E2E2E2E2E2E2E2E2E2E2E2E2E2E2E2E2E2E2E2E2E2E2E2E2E2E2E2E2E2E2E2E2E2E2E2E2E2E2E2E2E2E2E2BEE2E2E2DCE22828282828282828BEE2E2E2E2E2E2E2E2E2E2E2E2E2E2E2E2E2E2E2E2E2E2DCBEBEE2E2E2DC28E2E2E2E2E2E228BE2DE2E2
310
E2E2BEBEE2BEBEBEBEBEBEBEE2E2E2E2E2E2E2E2DCBEE2E2E2E2E2E2E2E2E2E2E2E2E2E2E2E2E2E2E2E2E2E2E2E2E2E2E2E2E2E2E2E2E2E2E2E2E2E2E2E2E2E2E2E2E2E2E2E2E2E2E2E2E2E2E2E2E2E2E2E2E2E2E2E2E2E2E2E2E2E2E2E2E2E2E2E2E2E2E2E2E2E2E2E2E2E2E2E2E2E2E2E2E2E2E2E2E2E2E2E2E2E2E2E2E2
310
BEBEBEBEBEBEBEBEBEBEBEBEBEBEBEBEBEBEBEBEBEBEBEBEBEBEBEBEBEBEBEBEBEBEBEBEBEBEBEBEBEBEBEBEBEBEBEBEBEBEBEE2E2E2E2E2E2E2E2E2E2E2E2E2E2E2E2E2E2E2E2E2E2BEE2E2E2DCE228282828E2282828BEE2E2E2E2E2E2E2E2E2E2E2E2E2E2E2E2E2E2E2E2E2E2DCBEBEE2E2E2DC28E2E2E2E2E2E228BE2D
310
E2E2E2E2BEBEBEBEBEBEBEBEBEBEBEE2E2E2E2E2E2E2DCBEE2E2E2E2E2E2E2E2E2E2E2E2E2E2E2E2E2E2E2E2E2E2E2E2E2E2E2E2E2E2E2E2E2E2E2E2E2E2E2E2E2E2E2E2E2E2E2E2E2E2E2E2E2E2E2E2E2E2E2E2E2E2E2E2E2E2E2E2E2E2E2E2E2E2E2E2E2E2E2E2E2E2E2E2E2E2E2E2E2E2E2E2E2E2E2E2E2E2E2E2E2E2E2
310
E2E2BEE2E2E2E2E2E2E2E2E2E2E2E2E2E2E2E2E2E2E2E2E2E2E2E2E2E2E2E2E2E2E2E2E2E2E2E2E2E2E2E2E2E2E2E2E2E2E2E2E2BEE2E2E2E2E2E2E2E2E2E2E2E2E2E2E2E2E2E2E2E2E2E2BEE2E2E2DCE228282828282828282DE2E2E2E2E2E2E2E2E2E2E2E2E2E2E2E2E2E2E2E2E2E2DCBEBEE2E2E2DC28E2E2E2E2E2E228
310
F52DE2E2E2E2BEBEBEBEBEBEBEBEBEBEBEBEBEBEBEBEBEE2DCBEE2E2E2E2E2E2E2E2E2E2E2E2E2E2E2E2E2E2E2E2E2E2E2E2E2E2E2E2E2E2E2E2E2E2E2E2E2E2E2E2E2E2E2E2E2E2E2E2E2E2E2E2E2E2E2E2E2E2E2E2E2E2E2E2E2E2E2E2E2E2E2E2E2E2E2E2E2E2E2E2E2E2E2E2E2E2E2E2E2E2E2E2E2E2E2E2E2E2E2E2E2
310
E2E2E2E2BEE2E2E2E2F5F5F5DCDCDCF5F5F5F5DCDCDCDCDCBEBEBEBEBEBEDCDCDCDCDCDCDCDCDCDCDCDCDCDCDCDCBEBEBEBEBEDCDCE2BEE2E2E2E2E2E2E2E2E2E2E2E2E2E2E2E2E2E2E2E2E2E2BEE2E2E2DCE228282828282828282DE2E2E2E2E2E22D2D2D2D2D2D2D2D2D2D2DF5E2E2E2E2DCBEBEE2E2E2DC28E2E2E2E2E2
310
E228F52DE2E2E2E2BEBEE2BEBEE2E2BEBEBEBEBEBEBEBEBEBEE2DCBEE2E2E2E2E2E2E2E2E2E2E2E2E2E2E2E2E2E2E2E2E2E2E2E2E2E2E2E2E2E2E2E2E2E2E2E2E2E2E2E2E2E2E2E2E2E2E2E2E2E2E2E2E2E2E2E2E2E2E2E2E2E2E2E2E2E2E2E2E2E2E2E2E2E2E2E2E2E2E2E2E2E2E2E2E2E2E2E2E2E2E2E2E2E2E2E2E2E2E2
310
E2E2E2E2E2E2BEE2E2E2E2F5F5F5DCDCDCF5F5F5F5DCDCE2BEBEBEBEBEBEBEBEE2F5F5F5F5F5F5E2F5F5F5F5F5F5F5E2BEBEBEBEBEE2DCE2BEE2E2E2E2E2E2E2E2E2E2E2E2E2E2E2E2E2E2E2E2E2E2BEE2E2E2DCE228282828282828282DE2E2E2E2E2E22DE2E2E2BEBEBEE2E2E22D2DE2E2E2E2DCBEBEE2E2E2DC28E2E2E2
310
E2E2E228F52DE2E2E2E2E2E2E2E2E2E2E2E2E2E2E2E2E2E2E2E2E2E2DCBEE2E2E2E2E2E2E2E2E2E2E2E2E2E2E2E2E2E2E2E2E2E2E2E2E2E2E2E2E2E2E2E2E2E2E2E2E2E2E2E2E2E2E2E2E2E2E2E2E2E2E2E2E2E2E2E2E2E2E2E2E2E2E2E2E2E2E2E2E2E2E2E2E2E2E2E2E2E2E2E2E2E2E2E2E2E2E2E2E2E2E2E2E2E2E2E2E2
310
E2E2E2E2E2E2E2E2BEE2E2E2E2DCDCDCDCDCDCDCDCDCDCDCDCE2E2BEBEBEBEBEBEBEE2DCF5F5F5F5F5DCDCF5F5F5F5F5F5DCF5F5F5F5F5DCDCE2BEE2E2E2E2E2E2E2E2E2E2E2E2E2E2E2E2E2E2E2E2E2E2BEE2E2E2DCE20FE228282828280F2DE2E2E2E2E2E22D2D2D2DBEBE2D2D2DF5E22DE2E2E2E2DCBEBEE2E2E2DC28E2
310
E2E2E2E2E228F52DE2E2E2E2E2E2E2E2E2E2E2E2E2E2E2E2E2E2E2E2E2E2DCBEE2E2E2E2E2E2E2E2E2E2E2E2E2E2E2E2E2E2E2E2E2E2E2E2E2E2E2E2E2E2E2E2E2E2E2E2E2E2E2E2E2E2E2E2E2E2E2E2E2E2E2E2E2E2E2E2E2E2E2E2E2E2E2E2E2E2E2E2E2E2E2E2E2E2E2E2E2E2E2E2E2E2E2E2E2E2E2E2E2E2E2E2E2E2E2
310
E2E2E2E2E2E2E2E2E2E2BEE2E2E2E2DCDCDCDCDCDCDCDCDCDCDCDCDCDCBEBEBEBEBEBEBEDCDCE2E2E2E2E2E2E2E2E2E2E2E2E2E2E2E2E2E2E2E2DCE2BEE2E2E2E2E2E2E2E2E2E2E2E2E2E2E2E2E2E2E2E2E2E2BEE2E2E2DCE2F52D2828F52828F52D2DE2E2E2E2E22D2DBEBE2D2DF5E2E22DE22DE2E2E2E2DCBEBEE2E2E2DC
310
F52DF5F5F5F5F52DF52DE2E2E2E2E2E2E2E2E2E2E2E2E2E2E2E2E2E2E2E2E2E2DCBEE2E2E2E2E2E2E2E2E2E2E2E2E2E2E2E2E2E2E2E2E2E2E2E2E2E2E2E2E2E2E2E2E2E2E2E2E2E2E2E2E2E2E2E2E2E2E2E2E2E2E2E2E2E2E2E2E2E2E2E2E2E2E2E2E2E2E2E2E2E2E2E2E2E2E2E2E2E2E2E2E2E2E2E2E2E2E2E2E2E2E2E2E2
310
E2E2E2E2E2E2E2E2E2E2E2E2BEE2E2E2E2DCDCDCDCDCDCDCDCDCDCDCDCF5F5F5F5F5DCF5F5F5DCBEBEBEBEBEBEBEBEBEBEBEBEE2BEE2E2E2E2E2E2E2DCE2BEE2E2E2E2E2E2E2E2E2E2E2E2E2E2E2E2E2E2E2E2E2E2BEE2E2E2DCE22D2D2DBEBE2D2DF5E2E2E2E2E2E2E22DE2BEBEE2E22DE2E22DE22DE2E2E2E2DCBEBEE2E2
310
E2DC2D2D2D2DBE2D2D2DF5E2E2E2E2E2E2E2E2E2E2E2E2E2E2E2E2E2E2E2E2E2E2E2DCBEE2E2E2E2E2E2E2E2E2E2E2E2E2E2E2E2E2E2E2E2E2E2E2E2E2E2E2E2E2E2E2E2E2E2E2E2E2E2E2E2E2E2E2E2E2E2E2E2E2E2E2E2E2E2E2E2E2E2E2E2E2E2E2E2E2E2E2E2E2E2E2E2E2E2E2E2E2E2E2E2E2E2E2E2E2E2E2E2E2E2E2
310
E2E2E2E2E2E2E2E2E2E2E2E2E2E2BEE2E2E2E2DCE2DCE2E2E2DCE2E2DCE2DCF5F5BEBEBEBEBEBEBEE2BEBEBEBEBEBEBEBEBEBEBEBEBEBEE2E2E2E2E2E2E2DCE2BEE2E2E2E2E2E2E2E2E2E2E2E2E2E2E2E2E2E2E2E2E2E2BEE2E2E2DCE2E2E2F5F5F5F5E2E2E2E2E2E2E2E2E22DE2E2E2E2F5F5E2E22DE22DE2E2E2E2DCBEBE
310
E2E2E2DCE2E2E2E2E2E2E2E2E2E2E2E2E2E2E2E2E2E2E2E2E2E2E2E2E2E2E2E2E2E2E2E2DCBEE2E2E2E2E2E2E2E2E2E2E2E2E2E2E2E2E2E2E2E2E2E2E2E2E2E2E2E2E2E2E2E2E2E2E2E2E2E2E2E2E2E2E2E2E2E2E2E2E2E2E2E2E2E2E2E2E2E2E2E2E2E2E2E2E2E2E2E2E2E2E2E2E2E2E2E2E2E2E2E2E2E2E2E2E2E2E2E2E2
310
E2E2E2E2E2E2E2E2E2E2E2E2E2E2E2E2BEE2E2E2E2F5F5F5F5F5F5DCF5F5F5F5F5DCDCF5F5F5F5F5F5F5DCF5F5F5F5F5F5F5F5F5E2E2E2E2E2E2E2E2E2E2E2E2DCE2BEE2E2E2E2E2E2E2E2E2E2E2E2E2E2E2E2E2E2E2E2E2E2BEE2E2E2DCE2E2E2F5E2E2F5E2E2E2E2E2E2E2E2E22DE2E2E2E2F5F5E2E22DE22DE2E2E2E2DC
310
BEBEE2E2E2DCF5BE2DBEBE2DF5BE2DE2E2E2E2E2E2E2E2E2E2E2E2E2E2E2E2E2E2E2E2E2E2E2DCBEE2E2E2E2E2E2E2E2E2E2E2E2E2E2E2E2E2E2E2E2E2E2E2E2E2E2E2E2E2E2E2E2E2E2E2E2E2E2E2E2E2E2E2E2E2E2E2E2E2E2E2E2E2E2E2E2E2E2E2E2E2E2E2E2E2E2E2E2E2E2E2E2E2E2E2E2E2E2E2E2E2E2E2E2E2E2E2
310
E2E2E2E2E2E2E2E2E2E2E2E2E2E2E2E2E2E2BEE2E2E2E2DCDCDCDCDCDCDCDCDCDCDCDCDCDCF5F5DCF5BEBEBEBEDCBEBEDCDCDCF5DCBEBEBEBEDCDCDCDCDCDCBEBEDCDCE2BEE2E2E2E2E2E2E2E2E2E2E2E2E2E2E2E2E2E2E2E2E2E2BEE2E2E22DF5F5F5F5E2E2F5F5F5E2E2E2E2E22D2DBEBEF5E2E2F5F5E2E22DE22DE2E2E2
310
E2DCBEBEE2E2E2DCF52DF5F5F5F52DF5F5E2E2E2E22D2DF5F5F5F5E2E2E2E2E2E2E2E2E2E2E2E2E2DCBEE2E2E2E2E2E2E2E2E2E2E2E2E2E2E2E2E2E2E2E2E2E2E2E2E2E2E2E2E2E2E2E2E2E2E2E2E2E2E2E2E2E2E2E2E2E2E2E2E2E2E2E2E2E2E2E2E2E2E2E2E2E2E2E2E2E2E2E2E2E2E2E2E2E2E2E2E2E2E2E2E2E2E2E2E2
310
E2E2E2E2E2E2E2E2E2E2E2E2E2E2E2E2E2E2E2E2BEE2E2E2E2DCE2E2E2E2E2E2E2E2E2E2DCDCDCDCDCDCBEBEBEBEBEBEBEBEF5F5F5F5E2BEBEBEBEF5F5F5E2DCF5BEBEF5F5E2BEE2E2E2E2E2E2E2E2E2E2E2E2E2E2E2E2E2E2E2E2E2E2BEE2E2E2BE2DF528F5F528F52828E2E2E2E2E22DBEBE28E2F5F5F5F5F52828E22DE2
310
E2E2E2DCBEBEE2E2E2DCF52DE2E2E2E22D28F52D2DE2E2E22DF5BEE2E2F5F5F5F5F5E2E2E2E2E2E2E2E2DCBEE2E2E2E2E2E2E2E2E2E2E2E2E2E2E2E2E2E2E2E2E2E2E2E2E2E2E2E2E2E2E2E2E2E2E2E2E2E2E2E2E2E2E2E2E2E2E2E2E2E2E2E2E2E2E2E2E2E2E2E2E2E2E2E2E2E2E2E2E2E2E2E2E2E2E2E2E2E2E2E2E2E2E2
310
E2E2E2E2E2E2E2E2E2E2E2E2E2E2E2E2E2E2E2E2E2E2BEE2E2E2E2DCE2E2E2E2E2E2E2E2E2E2DCDCDCDCDCDCDCDCBEBEDCDCDCBEBEBEBEBEDCDCDCDCBEBEDCDCDCDCDCBEBEBEBEE2BEE2E2E2E2E2E2E2E2E2E2E2E2E2E2E2E2E2E2E2E2E2E2BEE2E2E22D2DF52828F528282828E2E2E2E2E22DBEBE28282828F52828282828
310
28F5E2E2E2DCBEBEE2E2E2DC28F5BEBEBEBEF5F52D2D2DE2E2E22DF5E2E2E2E2E2E2E2E2F5F5F5E2E2E2E2E2DCBEE2E2E2E2E2E2E2E2E2E2E2E2E2E2E2E2E2E2E2E2E2E2E2E2E2E2E2E2E2E2E2E2E2E2E2E2E2E2E2E2E2E2E2E2E2E2E2E2E2E2E2E2E2E2E2E2E2E2E2E2E2E2E2E2E2E2E2E2E2E2E2E2E2E2E2E2E2E2E2E2E2
310
E2E2E2E2E2E2E2E2E2E2E2E2E2E2E2E2E2E2E2E2E2E2E2E2BEE2E2E2E2DCDCDCDCDCDCDCDCDCDCDCDCF5F5F5F5F5DCDCBEBEDCDCDCBEBEBEBEBEDCDCDCF5BEBEF5F5DCDCF5BEBEBEBEE2BEE2E2E2E2E2E2E2E2E2E2E2E2E2E2E2E2E2E2E2E2E2E2BEE2E2E2DC2D2D28F5E2E2E22828E2E2E2E2E22DE228E2E2E22828E2E2E2
310
E228282DE2E2E2DCBEBEE2E2E2DC28E2E2E2E2E2E2F52D2DF5E2E2E22DF5E2E2E2E2E2E2E2E2E2E228E2E2E2E2E2DCBEE2E2E2E2E2E2E2E2E2E2E2E2E2E2E2E2E2E2E2E2E2E2E2E2E2E2E2E2E2E2E2E2E2E2E2E2E2E2E2E2E2E2E2E2E2E2E2E2E2E2E2E2E2E2E2E2E2E2E2E2E2E2E2E2E2E2E2E2E2E2E2E2E2E2E2E2E2E2E2
310
E2E2E2E2E2E2E2E2E2E2E2E2E2E2E2E2E2E2E2E2E2E2E2E2E2E2BEE2E2E2E2DCE2E2E2E2E2E2E2E2E2E2E2E2E2E2E2E2E2E2E2E2E2E2E2E2E2E2E2E2E2E2E2E2E2E2E2E2E2E2E2E2E2E2DCE2BEE2E2E2E2E2E2E2E2E2E2E2E2E2E2E2E2E2E2E2E2E2E2BEE2E2E2DCBE2D28282828282828BEE2E2E2E22DE228E2E2E2282828
310
28282828282DE2E2E2DCBEBEE2E2E2DC28E2E2E2F5E2E228F5BE2DE2E2E22DF5E2E2E2E2E2E2E2E2E2E228E2E2E2E2E2DCBEE2E2E2E2E2E2E2E2E2E2E2E2E2E2E2E2E2E2E2E2E2E2E2E2E2E2E2E2E2E2E2E2E2E2E2E2E2E2E2E2E2E2E2E2E2E2E2E2E2E2E2E2E2E2E2E2E2E2E2E2E2E2E2E2E2E2E2E2E2E2E2E2E2E2E2E2E2
310
E2E2E2E2E2E2E2E2E2E2E2E2E2E2E2E2E2E2E2E2E2E2E2E2E2E2E2E2BEE2E2E2E2DCE2E2E2E2E2E2E2E2E2E2E2E2E2E2E2E2E2E2E2E2E2E2E2E2E2E2E2E2E2E2E2E2E2E2E2E2E2E2E2E2E2E2DCE2BEE2E2E2E2E2E2E2E2E2E2E2E2E2E2E2E2E2E2E2E2E2E2BEE2E2E2DCBEBE28E2DCBEBE2828BEE2E2E2E22DE228E2E2E228
310
2828E2E2E228282DE2E2E2DCBEBEE2E2E2DC28E2E2E2F5E2E228F5E2E2E2E2E22DF5E2E2E2E2E2E2E2E2E2E228E2E2E2E2E2DCBEE2E2E2E2E2E2E2E2E2E2E2E2E2E2E2E2E2E2E2E2E2E2E2E2E2E2E2E2E2E2E2E2E2E2E2E2E2E2E2E2E2E2E2E2E2E2E2E2E2E2E2E2E2E2E2E2E2E2E2E2E2E2E2E2E2E2E2E2E2E2E2E2E2E2E2
310
E2E2E2E2E2E2E2E2E2E2E2E2E2E2E2E2E2E2E2E2E2E2E2E2E2E2E2E2E2E2BEE2E2E2E2DCE2E2E2E2E2E2E2E2E2E2E2E2E2E2E2E2E2E2E2E2E2E2E2E2E2E2E2E2E2E2E2E2E2E2E2E2E2E2E2E2E2E2DCE2BEE2E2E2E2E2E2E2E2E2E2E2E2E2E2E2E2E2E2E2E2E2E2BEE2E2E2DC2D2828282828282828E2E2E2E2E22DE228E2E2
310
E22828E2E2E2E228282DE2E2E2DCBEBEE2E2E2DC28E2E2E2F5E2E228F5E2E2E2E2E22DF5E2E2E2E2E2E2E2E2E2E228E2E2E2E2E2DCBEE2E2E2E2E2E2E2E2E2E2E2E2E2E2E2E2E2E2E2E2E2E2E2E2E2E2E2E2E2E2E2E2E2E2E2E2E2E2E2E2E2E2E2E2E2E2E2E2E2E2E2E2E2E2E2E2E2E2E2E2E2E2E2E2E2E2E2E2E2E2E2E2E2
310
E2E2E2E2E2E2E2E2E2E2E2E2E2E2E2E2E2E2E2E2E2E2E2E2E2E2E2E2E2E2E2E2BEE2E2E2E2DCE2E2E2E2E2E2E2E2E2E2E2E2E2E2E2E2E2E2E2E2E2E2E2E2E2E2E2E2E2E2E2E2E2E2E2E2E2E2E2E2E2E2DCE2BEE2E2E2E2E2E2E2E2E2E2E2E2E2E2E2E2E2E2E2E2E2E2BEE2E2E2DC2D2828E2DCDCE22828E2E2E2E2E22DE228
310
E2E2E22828E2E2E2E228282DE2E2E2DCBEBEE2E2E2DC28E2E2E2F5E2E228F5E2E2E2E2E22DF5E2E2E2E2E2E2E2E2E2E228E2E2E2E2E2DCBEE2E2E2E2E2E2E2E2E2E2E2E2E2E2E2E2E2E2E2E2E2E2E2E2E2E2E2E2E2E2E2E2E2E2E2E2E2E2E2E2E2E2E2E2E2E2E2E2E2E2E2E2E2E2E2E2E2E2E2E2E2E2E2E2E2E2E2E2E2E2E2
310
E2E2E2E2E2E2E2E2E2E2E2E2E2E2E2E2E2E2E2E2E2E2E2E2E2E2E2E2E2E2E2E2E2E2BEE2E2E2E2DCE2E2E2E2E2E2E2E2E2E2E2E2E2E2E2E2E2E2E2E2E2E2E2E2E2E2E2E2E2E2E2E2E2E2E2E2E2E2E2E2E2E2DCE2BEE2E2E2E2E2E2E2E2E2E2E2E2E2E2E2E2E2E2E2E2E2E2BEE2E2E2DC2D2828E2DCDCE22828E2E2E2E2E22D
310
E228E2E2E22828E2E2E2E228282DE2E2E2DCBEBEE2E2E2DC28E2E2E2F5E2E228F5E2E2E2E2E22DF5E2E2E2E2E2E2E2E2E2E228E2E2E2E2E2DCBEE2E2E2E2E2E2E2E2E2E2E2E2E2E2E2E2E2E2E2E2E2E2E2E2E2E2E2E2E2E2E2E2E2E2E2E2E2E2E2E2E2E2E2E2E2E2E2E2E2E2E2E2E2E2E2E2E2E2E2E2E2E2E2E2E2E2E2E2E2
310
E2E2E2E2E2E2E2E2E2E2E2E2E2E2E2E2E2E2E2E2E2E2E2E2E2E2E2E2E2E2E2E2E2E2E2E2BEE2E2E2E2DCE2E2E2E2E2E2E2E2E2E2E2E2E2E2E2E2E2E2E2E2E2E2E2E2E2E2E2E2E2E2E2E2E2E2E2E2E2E2E2E2E2E2DCE2BEE2E2E2E2E2E2E2E2E2E2E2E2E2E2E2E2E2E2E2E2E2E2BEE2E2E2DC2D2828E2DCDCE22828E2E2E2E2
310
E22DE2282828282828E2E2E2E228282DE2E2E2DCBEBEE2E2E2DC28E2E2E2F5E2E228F5E2E2E2E2E22DF5E2E2E2E2E2E2E2E2E2E228E2E2E2E2E2DCBEE2E2E2E2E2E2E2E2E2E2E2E2E2E2E2E2E2E2E2E2E2E2E2E2E2E2E2E2E2E2E2E2E2E2E2E2E2E2E2E2E2E2E2E2E2E2E2E2E2E2E2E2E2E2E2E2E2E2E2E2E2E2E2E2E2E2E2
310
E2E2E2E2E2E2E2E2E2E2E2E2E2E2E2E2E2E2E2E2E2E2E2E2E2E2E2E2E2E2E2E2E2E2E2E2E2E2BEE2E2E2E2DCE2E2E2E2E2E2E2E2E2E2E2E2E2E2E2E2E2E2E2E2E2E2E2E2E2E2E2E2E2E2E2E2E2E2E2E2E2E2E2E2E2E2DCE2BEE2E2E2E2E2E2E2E2E2E2E2E2E2E2E2E2E2E2E2E2E2E2BEE2E2E2DC2D2828282828282828E2E2
310
E2E2E22DE22828E22828282828282828282DE2E2E2DCBEBEE2E2E2DC28E2E2E2E2E2E228F5E2E2E2E2E22DF5E2E2E2E2E2E2E2E2E2E228E2E2E2E2E2DCBEE2E2E2E2E2E2E2E2E2E2E2E2E2E2E2E2E2E2E2E2E2E2E2E2E2E2E2E2E2E2E2E2E2E2E2E2E2E2E2E2E2E2E2E2E2E2E2E2E2E2E2E2E2E2E2E2E2E2E2E2E2E2E2E2E2
310
E2E2E2E2E2E2E2E2E2E2E2E2E2E2E2E2E2E2E2E2E2E2E2E2E2E2E2E2E2E2E2E2E2E2E2E2E2E2E2E2BEE2E2E2E2DCE2E2E22D2D2D2D2D2D2D2D2D2D2D2D2D2DBEBEBE2D2D2D2D2D2D2D2D2D2D2D2D2DF5E2E2E2E2E2E2E2E2DCE2BEE2E2E2E2E2E2E2E2E2E2E2E2E2E2E2E2E2E2E2E2E2E2BEE2E2E2DC2D2828282828282828
310
E2E2E2E2E22DE22828282828282828282828282DE2E2E2DCBEBEE2E2E2DC28E2E2E2E2E2E228F5E2E2E2E2E22DF5E2E2E2E2E2E2E2E2E2E228E2E2E2E2E2DCBEE2E2E2E2E2E2E2E2E2E2E2E2E2E2E2E2E2E2E2E2E2E2E2E2E2E2E2E2E2E2E2E2E2E2E2E2E2E2E2E2E2E2E2E2E2E2E2E2E2E2E2E2E2E2E2E2E2E2E2E2E2E2E2
310
E2E2E2E2E2E2E2E2E2E2E2E2E2E2E2E2E2E2E2E2E2E2E2E2E2E2E2E2E2E2E2E2E2E2E2E2E2E2E2E2E2E2BEE2E2E2E2DCE2E2E22DE2E22D2D2D2D2D2D2D2D2D2D2DBEBEBEBE2D2D2D2D2D2DBE2D2D2D2D2D2DE2E2E2E2E2E2E2E2DCE2BEE2E2E2E2E2E2E2E2E2E2E2E2E2E2E2E2E2E2E2E2E2E2BEE2E2E2DC2D2828E2E2E2E2
310
E228E2E2E2E2E22DE2282828E2E2E2E2E2E2E228282DE2E2E2DCBEBEE2E2E2DC28E2E2E2E2E2E228F5E2E2E2E2E22DF5E2E2E2E2E2E2E2E2E2E228E2E2E2E2E2DCBEE2E2E2E2E2E2E2E2E2E2E2E2E2E2E2E2E2E2E2E2E2E2E2E2E2E2E2E2E2E2E2E2E2E2E2E2E2E2E2E2E2E2E2E2E2E2E2E2E2E2E2E2E2E2E2E2E2E2E2E2E2
310
E2E2E2E2E2E2E2E2E2E2E2E2E2E2E2E2E2E2E2E2E2E2E2E2E2E2E2E2E2E2E2E2E2E2E2E2E2E2E2E2E2E2E2E2BEE2E2E2E2DCE2E2E22DE2E22DE2E2E2E2E2E2E2E2E2E2E2E2E2E2E2E2E2E2E2E22D2DE2E2E2E22DE2E2E2E2E2E2E2E2DCE2BEE2E2E2E2E2E2E2E2E2E2E2E2E2E2E2E2E2E2E2E2E2E2BEE2E2E2BE2D2828E2E2
310
E2E2E228E2E2E2E2E2BEE2282828E2E2E2E2E2E2E22828BEE2E2E2DCBEBEE2E2E2DC28E2E2E2E2E2E228F5E2E2E2E2BE2DF5E2E2E2E2E2E2E2E2E2E228E2E2E2E2E2DCBEE2E2E2E2E2E2E2E2E2E2E2E2E2E2E2E2E2E2E2E2E2E2E2E2E2E2E2E2E2E2E2E2E2E2E2E2E2E2E2E2E2E2E2E2E2E2E2E2E2E2E2E2E2E2E2E2E2E2E2
310
E2E2E2E2E2E2E2E2E2E2E2E2E2E2E2E2E2E2E2E2E2E2E2E2E2E2E2E2E2E2E2E2E2E2E2E2E2E2E2E2E2E2E2E2E2E2BEE2E2E2E2DCE2E2E22DE2E22DE2E2E2E2E2E2E2E2E2E2E2E2E2E2E2E2E2E2BE2DF5DCDCDCF52D2D2DE2E2E2E2E2E2E2DCE2BEE2E2E2E2E2E2E2E2E2E2E2E2E2E2E2E2E2E2E2E2E2E2BEE2E2E2BE2D2828
310
E2E2E2E2E228E2E2E2E2E2BEE2282828E2E2E2E2E2E2E22828BEE2E2E2DCBEBEE2E2E2DC28E2E2E2E2E2E228F5E2E2E2E2BE2DF5E2E2E2E2E2E2E2E2E2E228E2E2E2E2E2DCBEE2E2E2E2E2E2E2E2E2E2E2E2E2E2E2E2E2E2E2E2E2E2E2E2E2E2E2E2E2E2E2E2E2E2E2E2E2E2E2E2E2E2E2E2E2E2E2E2E2E2E2E2E2E2E2E2E2
310
E2E2E2E2E2E2E2E2E2E2E2E2E2E2E2E2E2E2E2E2E2E2E2E2E2E2E2E2E2E2E2E2E2E2E2E2E2E2E2E2E2E2E2E2E2E2E2E2BEE2E2E2E2DCE2E2E22DE2E22DE2E2E2E2E2E2E2E2E2E2E2E2E2E2E2E2E2DCDCF5F52D2828DCE22D2DE2E2E2E2E2E2E2DCE2BEE2E2E2E2E2E2E2E2E2E2E2E2E2E2E2E2E2E2E2E2E2E2BEE2E2E2DC2D
310
2828E2282828E228E2E2E2E2E22DE2282828E2E2E2E2E2E2E22828BEE2E2E2DCBEBEE2E2E2DC28E2E2E2E2E2E228F5E2E2E2E2E22DF5E2E2E2E2E2E2E2E2E2E228E2E2E2E2E2DCBEE2E2E2E2E2E2E2E2E2E2E2E2E2E2E2E2E2E2E2E2E2E2E2E2E2E2E2E2E2E2E2E2E2E2E2E2E2E2E2E2E2E2E2E2E2E2E2E2E2E2E2E2E2E2E2
310
E2E2E2E2E2E2E2E2E2E2E2E2E2E2E2E2E2E2E2E2E2E2E2E2E2E2E2E2E2E2E2E2E2E2E2E2E2E2E2E2E2E2E2E2E2E2E2E2E2E2BEE2E2E2E2DCE2E2E22DE2E22DE2E2E2E2E2E2E2E2E2E2E2E2E2E2E2E2DCE2E22D2DE2E2E2DCE22D2DE2E2E2E2E2E2E2DCE2BEE2E2E2E2E2E2E2E2E2E2E2E2E2E2E2E2E2E2E2E2E2E2BEE2E2E2
310
DC2D2828E2BEBE28E228E2E2E2E2E22DE2282828E2E2E2E2E2E2E228282DE2E2E2DCBEBEE2E2E2DC28E2E2E2E2E2E228F5E2E2E2E2E22DF5E2E2E2E2E2E2E2E2E2E228E2E2E2E2E2DCBEE2E2E2E2E2E2E2E2E2E2E2E2E2E2E2E2E2E2E2E2E2E2E2E2E2E2E2E2E2E2E2E2E2E2E2E2E2E2E2E2E2E2E2E2E2E2E2E2E2E2E2E2E2
310
E2E2E2E2E2E2E2E2E2E2E2E2E2E2E2E2E2E2E2E2E2E2E2E2E2E2E2E2E2E2E2E2E2E2E2E2E2E2E2E2E2E2E2E2E2E2E2E2E2E2E2E2BEE2E2E2E2DCE2E2E22DE2E22DE2E2E2E2E2E2E2E2E2E2E22D2DE2E2E2DCE2E2E2BEE2E2E2DCE22D2DE2E2E2E2E2E2E2DCE2BEE2E2E2E2E2E2E2E2E2E2E2E2E2E2E2E2E2E2E2E2E2E2BEE2
310
E2E2DC2D2828E228E228E228E2E2E2E2E22DE2282828E2E2E2E2E2E2E228282DE2E2E2DCBEBEE2E2E2DC28E2E2E2E2E2E228F5E2E2E2E2E22DF5E2E2E2E2E2E2E2E2E2E228E2E2E2E2E2DCBEE2E2E2E2E2E2E2E2E2E2E2E2E2E2E2E2E2E2E2E2E2E2E2E2E2E2E2E2E2E2E2E2E2E2E2E2E2E2E2E2E2E2E2E2E2E2E2E2E2E2E2
310
E2E2E2E2E2E2E2E2E2E2E2E2E2E2E2E2E2E2E2E2E2E2E2E2E2E2E2E2E2E2E2E2E2E2E2E2E2E2E2E2E2E2E2E2E2E2E2E2E2E2E2E2E2E2BEE2E2E2E2DCBEF52D2DE2E22DDCDCDCDCDCDCDCDCDCDCDCF5DCDCDCDCDCE2E2E22DE2E2E2DCBE2D2DE2E2E2E2E2E2E2DCE2BEE2E2E2E2E2E2E2E2E2E2E2E2E2E2E2E2E2E2E2E2E2E2
310
BEE2E2E2DC2D2828E2282828E228E2E2E2E2E22DE2282828E2E2E2E2E2E2E228282DE2E2E2DCBEBEE2E2E2DC28E2E2E2E2E2E228F5E2E2E2E2E22DF5E2E2E2E2E2E2E2E2E2E228E2E2E2E2E2DCBEE2E2E2E2E2E2E2E2E2E2E2E2E2E2E2E2E2E2E2E2E2E2E2E2E2E2E2E2E2E2E2E2E2E2E2E2E2E2E2E2E2E2E2E2E2E2E2E2E2
310
E2E2E2E2E2E2E2E2E2E2E2E2E2E2E2E2E2E2E2E2E2E2E2E2E2E2E2E2E2E2E2E2E2E2E2E2E2E2E2E2E2E2E2E2E2E2E2E2E2E2E2E2E2E2E2E2BEE2E2E2E2DCF5F52D2DE2E2F5282828F528282828282828F52D28282828282828F52D282828BEF52DF5F5F52DF5F5F5DCE2BEE2E2E2E2E2E2E2E2E2E2E2E2E2E2E2E2E2E2E2E2
310
E2E2BEE2E2E2DC2D2828E2E2E2E2E228E2E2E2E2E22DE2282828E2E2E2E2E2E2E228282DE2E2E2DCBEBEE2E2E2DC28E2E2E2E2E2E228F5E2E2E2E2E22DF5E2E2E2E2E2E2E2E2E2E228E2E2E2E2E2DCBEE2E2E2E2E2E2E2E2E2E2E2E2E2E2E2E2E2E2E2E2E2E2E2E2E2E2E2E2E2E2E2E2E2E2E2E2E2E2E2E2E2E2E2E2E2E2E2
310
E2E2E2E2E2E2E2E2E2E2E2E2E2E2E2E2E2E2E2E2E2E2E2E2E2E2E2E2E2E2E2E2E2E2E2E2E2E2E2E2E2E2E2E2E2E2E2E2E2E2E2E2E2E2E2E2E2E2BEE2E2E2E2DCE2F52D2DE2E2DCBEDCBEBEE2E2E2F52D2D2D2D2D2D2D2DBEBE2D2D2D2D2D2D2D2D2D2D2DF5E2BE2DE2F5DCE2BEE2E2E2E2E2E2E2E2E2E2E2E2E2E2E2E2E2E2
310
E2E2E2E2BEE2E2E2DC2D2828E2E2E2E2E228E2E2E2E2E22DE2282828E2E2E2E2E2E2E228282DE2E2E2DCBEBEE2E2E2DC28E2E2E2E2E2E228F5E2E2E2E2E22DF5E2E2E2E2E2E2E2E2E2E228E2E2E2E2E2DCBEE2E2E2E2E2E2E2E2E2E2E2E2E2E2E2E2E2E2E2E2E2E2E2E2E2E2E2E2E2E2E2E2E2E2E2E2E2E2E2E2E2E2E2E2E2
310
E2E2E2E2E2E2E2E2E2E2E2E2E2E2E2E2E2E2E2E2E2E2E2E2E2E2E2E2E2E2E2E2E2E2E2E2E2E2E2E2E2E2E2E2E2E2E2E2E2E2E2E2E2E2E2E2E2E2E2E2BEE2E2E2E2DCE2F52DF5DCDC28BEDCF52D2DE2E2DCDCF52D2D2D2D2D2D2DBEBE2D2D2D2D2D2D2D2D2D2DBEBEBEF52D2DDCE2BEE2E2E2E2E2E2E2E2E2E2E2E2E2E2E2E2
310
E2E2E2E2E2E2BEE2E2E2DC2D2828F52DBEE2E228E2E2E2E2E22DE228282828E2E2E2E2E2E228282DE2E2E2DCBEBEE2E2E2DC28E2E2E2E2E2E228F5E2E2E2E2E22DF5E2E2E2E2E2E2E2E2E2E228E2E2E2E2E2DCBEE2E2E2E2E2E2E2E2E2E2E2E2E2E2E2E2E2E2E2E2E2E2E2E2E2E2E2E2E2E2E2E2E2E2E2E2E2E2E2E2E2E2E2
310
E2E2E2E2E2E2E2E2E2E2E2E2E2E2E2E2E2E2E2E2E2E2E2E2E2E2E2E2E2E2E2E2E2E2E2E2E2E2E2E2E2E2E2E2E2E2E2E2E2E2E2E2E2E2E2E2E2E2E2E2E2E2BEE2E2E2E2DCE2BEBEDCDCDC28E2DCDCBEE2E2BEDCDCF5DCBEE2E2E2E2E2E2E2E2BEE2E2E2E2E22D2DBEBEBEBEBEE22DDCE2BEE2E2E2E2E2E2E2E2E2E2E2E2E2E2
310
E2E2E2E2E2E2E2E2BEE2E2E2DC2D2828282828282828E2E2E2E2E22DE22828282828282828282828282DE2E2E2DCBEBEE2E2E2DC28E2E2E2E2E2E228F5E2E2E2E2E22DF5E2E2E2E2E2E2E2E2E2E228E2E2E2E2E2DCBEE2E2E2E2E2E2E2E2E2E2E2E2E2E2E2E2E2E2E2E2E2E2E2E2E2E2E2E2E2E2E2E2E2E2E2E2E2E2E2E2E2
310
E2E2E2E2E2E2E2E2E2E2E2E2E2E2E2E2E2E2E2E2E2E2E2E2E2E2E2E2E2E2E2E2E2E2E2E2E2E2E2E2E2E2E2E2E2E2E2E2E2E2E2E2E2E2E2E2E2E2E2E2E2E2E2E2BEE2E2E2E2DCE2F5BEF52DF5F5BEDCE2BEE2E2BEDCDCDCDCBEE2E2E2E22D2D2DE2BEE2E2E2E2E2F52DBE2D2DE2E2E2E2DCE2BEE2E2E2E2E2E2E2E2E2E2E2E2
310
E2E2E2E2E2E2E2E2E2E2BEE2E2E2DC2D282D2DBEBE282828E2E2E2E2E22DE22828E2E2E2E2E2E2E2E2E2282DE2E2E2DCBEBEE2E2E2DC28E2BEBEBEBEE228F5E2E2E2E2E22DF5E2E2E2E2E2E2E2E2E2E228E2E2E2E2E2DCBEE2E2E2E2E2E2E2E2E2E2E2E2E2E2E2E2E2E2E2E2E2E2E2E2E2E2E2E2E2E2E2E2E2E2E2E2E2E2E2
310
E2E2E2E2E2E2E2E2E2E2E2E2E2E2E2E2E2E2E2E2E2E2E2E2E2E2E2E2E2E2E2E2E2E2E2E2E2E2E2E2E2E2E2E2E2E2E2E2E2E2E2E2E2E2E2E2E2E2E2E2E2E2E2E2E2E2BEE2E2E2E2DC2D2D2DBEDCDCBEBEDCF52D2DE2E2DCDCDCDC2DE2E2E2E2E2E2E2E22DE2E2BEDCDCBE2D2DF5BEF5E2E2E2DCE2BEE2E2E2E2E2E2E2E2E2E2
310
E2E2E2E2E2E2E2E2E2E2E2E2BEE2E2E2DC2DBEF5F52828282828E2E2E2E2E22DBEBEBEE2E2E2E2E2E2E2E2E2282DE2E2E2DCBEBEE2E2E2DC28E2BEBEBEBEE228F5E2E2E2E2E22DF5E2E2E2E2E2E2E2E2E2E228E2E2E2E2E2DCBEE2E2E2E2E2E2E2E2E2E2E2E2E2E2E2E2E2E2E2E2E2E2E2E2E2E2E2E2E2E2E2E2E2E2E2E2E2
310
E2E2E2E2E2E2E2E2E2E2E2E2E2E2E2E2E2E2E2E2E2E2E2E2E2E2E2E2E2E2E2E2E2E2E2E2E2E2E2E2E2E2E2E2E2E2E2E2E2E2E2E2E2E2E2E2E2E2E2E2E2E2E2E2E2E2E2E2BEE2E2E2E22DF5BE2DE2E2E2DCBEDCBEBEE2E2E2E2E2E2E22D2DE2E2E2E2E2E2E22D2DE2BEDCDCDC2D2DF5E2BE2DE2F5DCE2BEE2E2E2E2E2E2E2E2
310
E2E2E2E2E2E2E2E2E2E2E2E2E2E2BEE2E2E22D2DBEBEDC282828DC28E2E2E2E2E22DBEBEBEE2BEE2E2E2E2E2E2E2282DE2E2E2DCBEBEE2E2E2DC28E2E2E2E2E2E228F5E2E2E2E2E22DF5E2E2E2E2E2E2E2E2E2E228E2E2E2E2E2DCBEE2E2E2E2E2E2E2E2E2E2E2E2E2E2E2E2E2E2E2E2E2E2E2E2E2E2E2E2E2E2E2E2E2E2E2
310
E2E2E2E2E2E2E2E2E2E2E2E2E2E2E2E2E2E2E2E2E2E2E2E2E2E2E2E2E2E2E2E2E2E2E2E2E2E2E2E2E2E2E2E2E2E2E2E2E2E2E2E2E2E2E2E2E2E2E2E2E2E2E2E2E2E2E2E2E2E2BEE2E2E2E22DF5F5F52DE2E2DC2828F5F5282828282828282DF5282828282828282DF5282828BEDC2D2DF5F5F52DF5F5DCE2BEE2E2E2E2E2E2
310
E2E2E2E2E2E2E2E2E2E2E2E2E2E2E2E2BEE2E2E2BE2D0F0F282828282828E2E2E2E2E22DE22828F5F50F0F0F0F0F0F0F282DE2E2E2DCBEBEE2E2E2DC28E2E2E2E2E2E228F5E2E2E2E22D2DF5E2E2E2E2E2E2E2E2E2E228E2E2E2E2E2DCBEE2E2E2E2E2E2E2E2E2E2E2E2E2E2E2E2E2E2E2E2E2E2E2E2E2E2E2E2E2E2E2E2E2
310
E2E2E2E2E2E2E2E2E2E2E2E2E2E2E2E2E2E2E2E2E2E2E2E2E2E2E2E2E2E2E2E2E2E2E2E2E2E2E2E2E2E2E2E2E2E2E2E2E2E2E2E2E2E2E2E2E2E2E2E2E2E2E2E2E2E2E2E2E2E2E2E2BEE2E2E2E2DCE2E2E2E2E2E2DCDCDCDCDCDCDCDCDCDCDCDCF5F5DCDCDCDCE2E2E22DE2E2E2DCBEE22DE22DE2E2E2E2BEDCE2BEE2E2E2E2
310
E2E2E2E2E2E2E2E2E2E2E2E2E2E2E2E2E2E2BEE2E2E22D2D0F0F0F0F0F0F0F28E2E2E2E2E2F52DF5F5F5F5F5F5F5F5F5F5F5F52DE2E2E2DCBEBEE2E2E2DCF5F5F5F5F5F5F528F5E2E2E2E22DF5F5F5F5F5F5F5F5F5F5F5F5F5E2E2E2E2E2DCBEE2E2E2E2E2E2E2E2E2E2E2E2E2E2E2E2E2E2E2E2E2E2E2E2E2E2E2E2E2E2E2
310
E2E2E2E2E2E2E2E2E2E2E2E2E2E2E2E2E2E2E2E2E2E2E2E2E2E2E2E2E2E2E2E2E2E2E2E2E2E2E2E2E2E2E2E2E2E2E2E2E2E2E2E2E2E2E2E2E2E2E2E2E2E2E2E2E2E2E2E2E2E2E2E2E2E2BEE2E2E2E2DCE2E2E2E2E2E2E2E2E2E2E2E2E2E2E2E2E2E2BEE2E2E2E2DCE2E2E2BEE2E2E2DCE2E22DE22D2DBEBE2DF5DCE2BEE2E2
310
E2E2E2E2E2E2E2E2E2E2E2E2E2E2E2E2E2E2E2E2BEE2E2E2DCDCDCDCDCDCDCDCDCDCDCDCDCDCDCDCDCDCDCDCDCDCDCDCDCDCDCDCDCDCDCDCDCDCBEBEE2E2E2DCDCDCDCDCDCDCDCDCDCDCDCDCDCDCDCDCDCDCDCDCDCDCDCDCDCDCDCDCDCDCDCDCDCBEE2E2E2E2E2E2E2E2E2E2E2E2E2E2E2E2E2E2E2E2E2E2E2E2E2E2E2E2E2
310
E2E2E2E2E2E2E2E2E2E2E2E2E2E2E2E2E2E2E2E2E2E2E2E2E2E2E2E2E2E2E2E2E2E2E2E2E2E2E2E2E2E2E2E2E2E2E2E2E2E2E2E2E2E2E2E2E2E2E2E2E2E2E2E2E2E2E2E2E2E2E2E2E2E2E2E2BEE2E2E2E2DCE2E2E2E2E2E2E2E2E2E2E2E2E2E2E2E2E2E2E2E2E2E2E2DCE2E22D2DE2E2E2DCE2E22DE2E2E2E2E2E2E2DCE2BE
310
E2E2E2E2E2E2E2E2E2E2E2E2E2E2E2E2E2E2E2E2E2E2BEBEBEBEBEBEBEBEBEBEBEBEBEBEBEBEBEBEBEBEBEBEBEBEBEBEBEBEBEBEBEBEBEBEBEBEBEBEBEBEBEBEBEBEBEBEBEBEBEBEBEBEBEBEBEBEBEBEBEBEBEBEBEBEBEBEBEBEBEBEBEBEBEBEBEBEBEBEE2E2E2E2E2E2E2E2E2E2E2E2E2E2E2E2E2E2E2E2E2E2E2E2E2E2E2
310
E2E2E2E2E2E2E2E2E2E2E2E2E2E2E2E2E2E2E2E2E2E2E2E2E2E2E2E2E2E2E2E2E2E2E2E2E2E2E2E2E2E2E2E2E2E2E2E2E2E2E2E2E2E2E2E2E2E2E2E2E2E2E2E2E2E2E2E2E2E2E2E2E2E2E2E2E2E2BEE2E2E2E2DCE2E2E2E2E2E2E2E2E2E2E2E2E2E2E2E2E2E2E2E2E2E2E2E2DCDCF5F52D2828DCE2E22DE2E2E2E2E2E2E2DC
310
E2BEE2E2E2E2E2E2E2E2E2E2E2E2E2E2E2E2E2E2E2E2E2E2E2E2E2E2E2E2E2E2E2E2E2E2E2E2E2E2E2E2E2E2E2E2E2E2E2E2E2E2E2E2E2E2E2E2E2E2E2E2E2E2E2E2E2E2E2E2E2E2E2E2E2E2E2E2E2E2E2E2E2E2E2E2E2E2E2E2E2E2E2E2E2E2E2E2E2E2E2E2E2E2E2E2E2E2E2E2E2E2E2E2E2E2E2E2E2E2E2E2E2E2E2E2E2
310
E2E2E2E2E2E2E2E2E2E2E2E2E2E2E2E2E2E2E2E2E2E2E2E2E2E2E2E2E2E2E2E2E2E2E2E2E2E2E2E2E2E2E2E2E2E2E2E2E2E2E2E2E2E2E2E2E2E2E2E2E2E2E2E2E2E2E2E2E2E2E2E2E2E2E2E2E2E2E2E2BEE2E2E2E2DCE2E2E2E2E2E2E2E2E2E2E2E2E2E2E2E2E2E2E2E2E2E2E2E2E2BE2DF5DCDCDCF52D2DF5E2E2E2E2E2E2
310
E2DCE2BEE2E2E2E2E2E2E2E2E2E2E2E2E2E2E2E2E2E2E2E2E2E2E2E2E2E2E2E2E2E2E2E2E2E2E2E2E2E2E2E2E2E2E2E2E2E2E2E2E2E2E2E2E2E2E2E2E2E2E2E2E2E2E2E2E2E2E2E2E2E2E2E2E2E2E2E2E2E2E2E2E2E2E2E2E2E2E2E2E2E2E2E2E2E2E2E2E2E2E2E2E2E2E2E2E2E2E2E2E2E2E2E2E2E2E2E2E2E2E2E2E2E2E2
310
E2E2E2E2E2E2E2E2E2E2E2E2E2E2E2E2E2E2E2E2E2E2E2E2E2E2E2E2E2E2E2E2E2E2E2E2E2E2E2E2E2E2E2E2E2E2E2E2E2E2E2E2E2E2E2E2E2E2E2E2E2E2E2E2E2E2E2E2E2E2E2E2E2E2E2E2E2E2E2E2E2E2BEE2E2E2E2DCE2E2E2E2E2E2E2E2E2E2E2E2E2E2E2E2E2E2E2E2E2E2E2E2E2E22D2D2DE2E22DE2E2E2E2E2E2E2
310
E2E2E2DCE2BEE2E2E2E2E2E2E2E2E2E2E2E2E2E2E2E2E2E2E2E2E2E2E2E2E2E2E2E2E2E2E2E2E2E2E2E2E2E2E2E2E2E2E2E2E2E2E2E2E2E2E2E2E2E2E2E2E2E2E2E2E2E2E2E2E2E2E2E2E2E2E2E2E2E2E2E2E2E2E2E2E2E2E2E2E2E2E2E2E2E2E2E2E2E2E2E2E2E2E2E2E2E2E2E2E2E2E2E2E2E2E2E2E2E2E2E2E2E2E2E2E2
310
E2E2E2E2E2E2E2E2E2E2E2E2E2E2E2E2E2E2E2E2E2E2E2E2E2E2E2E2E2E2E2E2E2E2E2E2E2E2E2E2E2E2E2E2E2E2E2E2E2E2E2E2E2E2E2E2E2E2E2E2E2E2E2E2E2E2E2E2E2E2E2E2E2E2E2E2E2E2E2E2E2E2E2E2BEE2E2E2E2DCE2E2E2E2E2E2E2E2E2E2E2E2E2E2E2E2E2E2E2E2E2E2E2E2E2E22D2DE2E22D2DE2E2E2E2E2
310
E2E2E2E2E2DCE2BEE2E2E2E2E2E2E2E2E2E2E2E2E2E2E2E2E2E2E2E2E2E2E2E2E2E2E2E2E2E2E2E2E2E2E2E2E2E2E2E2E2E2E2E2E2E2E2E2E2E2E2E2E2E2E2E2E2E2E2E2E2E2E2E2E2E2E2E2E2E2E2E2E2E2E2E2E2E2E2E2E2E2E2E2E2E2E2E2E2E2E2E2E2E2E2E2E2E2E2E2E2E2E2E2E2E2E2E2E2E2E2E2E2E2E2E2E2E2E2
310
E2E2E2E2E2E2E2E2E2E2E2E2E2E2E2E2E2E2E2E2E2E2E2E2E2E2E2E2E2E2E2E2E2E2E2E2E2E2E2E2E2E2E2E2E2E2E2E2E2E2E2E2E2E2E2E2E2E2E2E2E2E2E2E2E2E2E2E2E2E2E2E2E2E2E2E2E2E2E2E2E2E2E2E2E2E2BEE2E2E2E2DCE2E2E2E2E2E2E2E2E2E2E2E2E2E2E2E2E2E2E2E2E2E2E2E2E2E22D2DBEBE2DF5E2E2E2
310
E2E2E2E2E2E2E2DCE2BEE2E2E2E2E2E2E2E2E2E2E2E2E2E2E2E2E2E2E2E2E2E2E2E2E2E2E2E2E2E2E2E2E2E2E2E2E2E2E2E2E2E2E2E2E2E2E2E2E2E2E2E2E2E2E2E2E2E2E2E2E2E2E2E2E2E2E2E2E2E2E2E2E2E2E2E2E2E2E2E2E2E2E2E2E2E2E2E2E2E2E2E2E2E2E2E2E2E2E2E2E2E2E2E2E2E2E2E2E2E2E2E2E2E2E2E2E2
310
E2E2E2E2E2E2E2E2E2E2E2E2E2E2E2E2E2E2E2E2E2E2E2E2E2E2E2E2E2E2E2E2E2E2E2E2E2E2E2E2E2E2E2E2E2E2E2E2E2E2E2E2E2E2E2E2E2E2E2E2E2E2E2E2E2E2E2E2E2E2E2E2E2E2E2E2E2E2E2E2E2E2E2E2E2E2E2E2BEE2E2E2E2DCE2E2E2E2E2E2E2E2E2E2E2E2E2E2E2E2E2E2E2E2E2E2E2E2E2E2E2E2E2E2E2E2E2
310
E2E2E2E2E2E2E2E2E2DCE2BEE2E2E2E2E2E2E2E2E2E2E2E2E2E2E2E2E2E2E2E2E2E2E2E2E2E2E2E2E2E2E2E2E2E2E2E2E2E2E2E2E2E2E2E2E2E2E2E2E2E2E2E2E2E2E2E2E2E2E2E2E2E2E2E2E2E2E2E2E2E2E2E2E2E2E2E2E2E2E2E2E2E2E2E2E2E2E2E2E2E2E2E2E2E2E2E2E2E2E2E2E2E2E2E2E2E2E2E2E2E2E2E2E2E2E2
310
E2E2E2E2E2E2E2E2E2E2E2E2E2E2E2E2E2E2E2E2E2E2E2E2E2E2E2E2E2E2E2E2E2E2E2E2E2E2E2E2E2E2E2E2E2E2E2E2E2E2E2E2E2E2E2E2E2E2E2E2E2E2E2E2E2E2E2E2E2E2E2E2E2E2E2E2E2E2E2E2E2E2E2E2E2E2E2E2E2E2BEE2E2E2E2DCE2E2E2E2E2E22D2D2D2D2D2D2D2D2D2D2D2D2DBEBE2D2D2D2D2D2D2D2D2D2D
310
2D2DF5E2E2E2E2E2E2E2E2DCE2BEE2E2E2E2E2E2E2E2E2E2E2E2E2E2E2E2E2E2E2E2E2E2E2E2E2E2E2E2E2E2E2E2E2E2E2E2E2E2E2E2E2E2E2E2E2E2E2E2E2E2E2E2E2E2E2E2E2E2E2E2E2E2E2E2E2E2E2E2E2E2E2E2E2E2E2E2E2E2E2E2E2E2E2E2E2E2E2E2E2E2E2E2E2E2E2E2E2E2E2E2E2E2E2E2E2E2E2E2E2E2E2E2E2
310
E2E2E2E2E2E2E2E2E2E2E2E2E2E2E2E2E2E2E2E2E2E2E2E2E2E2E2E2E2E2E2E2E2E2E2E2E2E2E2E2E2E2E2E2E2E2E2E2E2E2E2E2E2E2E2E2E2E2E2E2E2E2E2E2E2E2E2E2E2E2E2E2E2E2E2E2E2E2E2E2E2E2E2E2E2E2E2E2E2E2E2E2BEE2E2E2E2DCE2E2E2E2E22D2DBEBEE2BE2DE2E2E2E2E2E2E2BEBEE2E2E2E2E2E2E2E2
310
E2BEBEE22DE2E2E2E2E2E2E2E2DCE2BEE2E2E2E2E2E2E2E2E2E2E2E2E2E2E2E2E2E2E2E2E2E2E2E2E2E2E2E2E2E2E2E2E2E2E2E2E2E2E2E2E2E2E2E2E2E2E2E2E2E2E2E2E2E2E2E2E2E2E2E2E2E2E2E2E2E2E2E2E2E2E2E2E2E2E2E2E2E2E2E2E2E2E2E2E2E2E2E2E2E2E2E2E2E2E2E2E2E2E2E2E2E2E2E2E2E2E2E2E2E2E2
310
E2E2E2E2E2E2E2E2E2E2E2E2E2E2E2E2E2E2E2E2E2E2E2E2E2E2E2E2E2E2E2E2E2E2E2E2E2E2E2E2E2E2E2E2E2E2E2E2E2E2E2E2E2E2E2E2E2E2E2E2E2E2E2E2E2E2E2E2E2E2E2E2E2E2E2E2E2E2E2E2E2E2E2E2E2E2E2E2E2E2E2E2E2E2BEE2E2E2E2DCE2E2E2E2BEBEF5BEBE28F5F52D2DF52828F5F5BEBE282828282828
310
28F528BEBEBEF5BEE2E2E2E2E2E2E2DCE2BEE2E2E2E2E2E2E2E2E2E2E2E2E2E2E2E2E2E2E2E2E2E2E2E2E2E2E2E2E2E2E2E2E2E2E2E2E2E2E2E2E2E2E2E2E2E2E2E2E2E2E2E2E2E2E2E2E2E2E2E2E2E2E2E2E2E2E2E2E2E2E2E2E2E2E2E2E2E2E2E2E2E2E2E2E2E2E2E2E2E2E2E2E2E2E2E2E2E2E2E2E2E2E2E2E2E2E2E2E2
310
E2E2E2E2E2E2E2E2E2E2E2E2E2E2E2E2E2E2E2E2E2E2E2E2E2E2E2E2E2E2E2E2E2E2E2E2E2E2E2E2E2E2E2E2E2E2E2E2E2E2E2E2E2E2E2E2E2E2E2E2E2E2E2E2E2E2E2E2E2E2E2E2E2E2E2E2E2E2E2E2E2E2E2E2E2E2E2E2E2E2E2E2E2E2E2E2BEE2E2E2E2DCE2E2E2E2BEF5F5F5F5F5F52DF5BEF52DF5F5BEF5BEF5F5F5E2
310
E2E2E2E2E2E2F5F52DBEE2E2E2E2E2E2E2DCE2BEE2E2E2E2E2E2E2E2E2E2E2E2E2E2E2E2E2E2E2E2E2E2E2E2E2E2E2E2E2E2E2E2E2E2E2E2E2E2E2E2E2E2E2E2E2E2E2E2E2E2E2E2E2E2E2E2E2E2E2E2E2E2E2E2E2E2E2E2E2E2E2E2E2E2E2E2E2E2E2E2E2E2E2E2E2E2E2E2E2E2E2E2E2E2E2E2E2E2E2E2E2E2E2E2E2E2E2
310
E2E2E2E2E2E2E2E2E2E2E2E2E2E2E2E2E2E2E2E2E2E2E2E2E2E2E2E2E2E2E2E2E2E2E2E2E2E2E2E2E2E2E2E2E2E2E2E2E2E2E2E2E2E2E2E2E2E2E2E2E2E2E2E2E2E2E2E2E2E2E2E2E2E2E2E2E2E2E2E2E2E2E2E2E2E2E2E2E2E2E2E2E2E2E2E2E2E2BEE2E2E2E2DCE2E2E2E2E22DBEF52DE2E22D2DBEBE2D2D2DE2E2E2E2E2
310
F5E2E2E2E2E2E2E2F52D2DF5E2E2E2E2E2E2E2DCE2BEE2E2E2E2E2E2E2E2E2E2E2E2E2E2E2E2E2E2E2E2E2E2E2E2E2E2E2E2E2E2E2E2E2E2E2E2E2E2E2E2E2E2E2E2E2E2E2E2E2E2E2E2E2E2E2E2E2E2E2E2E2E2E2E2E2E2E2E2E2E2E2E2E2E2E2E2E2E2E2E2E2E2E2E2E2E2E2E2E2E2E2E2E2E2E2E2E2E2E2E2E2E2E2E2E2
310
E2E2E2E2E2E2E2E2E2E2E2E2E2E2E2E2E2E2E2E2E2E2E2E2E2E2E2E2E2E2E2E2E2E2E2E2E2E2E2E2E2E2E2E2E2E2E2E2E2E2E2E2E2E2E2E2E2E2E2E2E2E2E2E2E2E2E2E2E2E2E2E2E2E2E2E2E2E2E2E2E2E2E2E2E2E2E2E2E2E2E2E2E2E2E2E2E2E2E2E2BEE2E2E2E2DCE2E2E2E2E2E2BEBEE2E2E2E2BEBE2D2DF5BE2DE2E2
310
E2E2F5F5F5F5F5E2E2E2BEBEF5E2E2E2E2E2E2E2E2DCE2BEE2E2E2E2E2E2E2E2E2E2E2E2E2E2E2E2E2E2E2E2E2E2E2E2E2E2E2E2E2E2E2E2E2E2E2E2E2E2E2E2E2E2E2E2E2E2E2E2E2E2E2E2E2E2E2E2E2E2E2E2E2E2E2E2E2E2E2E2E2E2E2E2E2E2E2E2E2E2E2E2E2E2E2E2E2E2E2E2E2E2E2E2E2E2E2E2E2E2E2E2E2E2E2
310
E2E2E2E2E2E2E2E2E2E2E2E2E2E2E2E2E2E2E2E2E2E2E2E2E2E2E2E2E2E2E2E2E2E2E2E2E2E2E2E2E2E2E2E2E2E2E2E2E2E2E2E2E2E2E2E2E2E2E2E2E2E2E2E2E2E2E2E2E2E2E2E2E2E2E2E2E2E2E2E2E2E2E2E2E2E2E2E2E2E2E2E2E2E2E2E2E2E2E2E2E2E2BEE2E2E2E2DCE2E2E2E2E2E2E2E2E2E2E2E2E2BEF5E2BEBEE2
310
E2E2E2E2E2F5F5F5F5282828F5E2E2E2E2E2E2E2E2E2E2DCE2BEE2E2E2E2E2E2E2E2E2E2E2E2E2E2E2E2E2E2E2E2E2E2E2E2E2E2E2E2E2E2E2E2E2E2E2E2E2E2E2E2E2E2E2E2E2E2E2E2E2E2E2E2E2E2E2E2E2E2E2E2E2E2E2E2E2E2E2E2E2E2E2E2E2E2E2E2E2E2E2E2E2E2E2E2E2E2E2E2E2E2E2E2E2E2E2E2E2E2E2E2E2
310
E2E2E2E2E2E2E2E2E2E2E2E2E2E2E2E2E2E2E2E2E2E2E2E2E2E2E2E2E2E2E2E2E2E2E2E2E2E2E2E2E2E2E2E2E2E2E2E2E2E2E2E2E2E2E2E2E2E2E2E2E2E2E2E2E2E2E2E2E2E2E2E2E2E2E2E2E2E2E2E2E2E2E2E2E2E2E2E2E2E2E2E2E2E2E2E2E2E2E2E2E2E2E2E2BEE2E2E2E2DCE2E2E2E2E2E2E2E2E2E2E2E2E2E2E2E2E2
310
E2E2E2E2E2E2E2E2E2E2E2E2E2E2E2E2E2E2E2E2E2E2E2E2E2DCE2BEE2E2E2E2E2E2E2E2E2E2E2E2E2E2E2E2E2E2E2E2E2E2E2E2E2E2E2E2E2E2E2E2E2E2E2E2E2E2E2E2E2E2E2E2E2E2E2E2E2E2E2E2E2E2E2E2E2E2E2E2E2E2E2E2E2E2E2E2E2E2E2E2E2E2E2E2E2E2E2E2E2E2E2E2E2E2E2E2E2E2E2E2E2E2E2E2E2E2E2
310
E2E2E2E2E2E2E2E2E2E2E2E2E2E2E2E2E2E2E2E2E2E2E2E2E2E2E2E2E2E2E2E2E2E2E2E2E2E2E2E2E2E2E2E2E2E2E2E2E2E2E2E2E2E2E2E2E2E2E2E2E2E2E2E2E2E2E2E2E2E2E2E2E2E2E2E2E2E2E2E2E2E2E2E2E2E2E2E2E2E2E2E2E2E2E2E2E2E2E2E2E2E2E2E2E2E2BEE2E2E2E2DCE2E2E2E2E2E2E2E2E2E2E2E2E2E2E2
310
E2E2E2E2E2E2E2E2E2E2E2E2E2E2E2E2E2E2E2E2E2E2E2E2E2E2E2DCE2BEE2E2E2E2E2E2E2E2E2E2E2E2E2E2E2E2E2E2E2E2E2E2E2E2E2E2E2E2E2E2E2E2E2E2E2E2E2E2E2E2E2E2E2E2E2E2E2E2E2E2E2E2E2E2E2E2E2E2E2E2E2E2E2E2E2E2E2E2E2E2E2E2E2E2E2E2E2E2E2E2E2E2E2E2E2E2E2E2E2E2E2E2E2E2E2E2E2
310
E2E2E2E2E2E2E2E2E2E2E2E2E2E2E2E2E2E2E2E2E2E2E2E2E2E2E2E2E2E2E2E2E2E2E2E2E2E2E2E2E2E2E2E2E2E2E2E2E2E2E2E2E2E2E2E2E2E2E2E2E2E2E2E2E2E2E2E2E2E2E2E2E2E2E2E2E2E2E2E2E2E2E2E2E2E2E2E2E2E2E2E2E2E2E2E2E2E2E2E2E2E2E2E2E2E2E2E2BEE2E2E2E2DCE2E2E2E2E2E2E2E2E2E2E2E2E2
310
E2E2E2E2E2E2E2E2E2E2E2E2E2E2E2E2E2E2E2E2E2E2E2E2E2E2E2E2E2DCE2BEE2E2E2E2E2E2E2E2E2E2E2E2E2E2E2E2E2E2E2E2E2E2E2E2E2E2E2E2E2E2E2E2E2E2E2E2E2E2E2E2E2E2E2E2E2E2E2E2E2E2E2E2E2E2E2E2E2E2E2E2E2E2E2E2E2E2E2E2E2E2E2E2E2E2E2E2E2E2E2E2E2E2E2E2E2E2E2E2E2E2E2E2E2E2E2
310
E2E2E2E2E2E2E2E2E2E2E2E2E2E2E2E2E2E2E2E2E2E2E2E2E2E2E2E2E2E2E2E2E2E2E2E2E2E2E2E2E2E2E2E2E2E2E2E2E2E2E2E2E2E2E2E2E2E2E2E2E2E2E2E2E2E2E2E2E2E2E2E2E2E2E2E2E2E2E2E2E2E2E2E2E2E2E2E2E2E2E2E2E2E2E2E2E2E2E2E2E2E2E2E2E2E2E2E2E2E2BEE2E2E2E2DCE2E2E2E2E2E2E2E2E2E2E2
310
E2E2E2E2E2E2E2E2E2E2E2E2E2E2E2E2E2E2E2E2E2E2E2E2E2E2E2E2E2E2E2DCE2BEE2E2E2E2E2E2E2E2E2E2E2E2E2E2E2E2E2E2E2E2E2E2E2E2E2E2E2E2E2E2E2E2E2E2E2E2E2E2E2E2E2E2E2E2E2E2E2E2E2E2E2E2E2E2E2E2E2E2E2E2E2E2E2E2E2E2E2E2E2E2E2E2E2E2E2E2E2E2E2E2E2E2E2E2E2E2E2E2E2E2E2E2E2
310
E2E2E2E2E2E2E2E2E2E2E2E2E2E2E2E2E2E2E2E2E2E2E2E2E2E2E2E2E2E2E2E2E2E2E2E2E2E2E2E2E2E2E2E2E2E2E2E2E2E2E2E2E2E2E2E2E2E2E2E2E2E2E2E2E2E2E2E2E2E2E2E2E2E2E2E2E2E2E2E2E2E2E2E2E2E2E2E2E2E2E2E2E2E2E2E2E2E2E2E2E2E2E2E2E2E2E2E2E2E2E2E2BEE2E2E2E2DCE2E2E2E2E2E2E2E2E2
310
E2E2E2E2E2E2E2E2E2E2E2E2E2E2E2E2E2E2E2E2E2E2E2E2E2E2E2E2E2E2E2E2E2DCE2BEE2E2E2E2E2E2E2E2E2E2E2E2E2E2E2E2E2E2E2E2E2E2E2E2E2E2E2E2E2E2E2E2E2E2E2E2E2E2E2E2E2E2E2E2E2E2E2E2E2E2E2E2E2E2E2E2E2E2E2E2E2E2E2E2E2E2E2E2E2E2E2E2E2E2E2E2E2E2E2E2E2E2E2E2E2E2E2E2E2E2E2
310
E2E2E2E2E2E2E2E2E2E2E2E2E2E2E2E2E2E2E2E2E2E2E2E2E2E2E2E2E2E2E2E2E2E2E2E2E2E2E2E2E2E2E2E2E2E2E2E2E2E2E2E2E2E2E2E2E2E2E2E2E2E2E2E2E2E2E2E2E2E2E2E2E2E2E2E2E2E2E2E2E2E2E2E2E2E2E2E2E2E2E2E2E2E2E2E2E2E2E2E2E2E2E2E2E2E2E2E2E2E2E2E2E2E2BEE2E2E2E2DCE2E2E2E2E2E2E2
310
E2E2E2E2E2E2E2E2E2E2E2E2E2E2E2E2E2E2E2E2E2E2E2E2E2E2E2E2E2E2E2E2E2E2E2DCE2BEE2E2E2E2E2E2E2E2E2E2E2E2E2E2E2E2E2E2E2E2E2E2E2E2E2E2E2E2E2E2E2E2E2E2E2E2E2E2E2E2E2E2E2E2E2E2E2E2E2E2E2E2E2E2E2E2E2E2E2E2E2E2E2E2E2E2E2E2E2E2E2E2E2E2E2E2E2E2E2E2E2E2E2E2E2E2E2E2E2
310
E2E2E2E2E2E2E2E2E2E2E2E2E2E2E2E2E2E2E2E2E2E2E2E2E2E2E2E2E2E2E2E2E2E2E2E2E2E2E2E2E2E2E2E2E2E2E2E2E2E2E2E2E2E2E2E2E2E2E2E2E2E2E2E2E2E2E2E2E2E2E2E2E2E2E2E2E2E2E2E2E2E2E2E2E2E2E2E2E2E2E2E2E2E2E2E2E2E2E2E2E2E2E2E2E2E2E2E2E2E2E2E2E2E2E2E2BEE2E2E2E2DCE2E2E2E2E2
310
E2E2E2E2E2E2E2E2E2E2E2E2E2E2E2E2E2E2E2E2E2E2E2E2E2E2E2E2E2E2E2E2E2E2E2E2E2DCE2BEE2E2E2E2E2E2E2E2E2E2E2E2E2E2E2E2E2E2E2E2E2E2E2E2E2E2E2E2E2E2E2E2E2E2E2E2E2E2E2E2E2E2E2E2E2E2E2E2E2E2E2E2E2E2E2E2E2E2E2E2E2E2E2E2E2E2E2E2E2E2E2E2E2E2E2E2E2E2E2E2E2E2E2E2E2E2E2
310
E2E2E2E2E2E2E2E2E2E2E2E2E2E2E2E2E2E2E2E2E2E2E2E2E2E2E2E2E2E2E2E2E2E2E2E2E2E2E2E2E2E2E2E2E2E2E2E2E2E2E2E2E2E2E2E2E2E2E2E2E2E2E2E2E2E2E2E2E2E2E2E2E2E2E2E2E2E2E2E2E2E2E2E2E2E2E2E2E2E2E2E2E2E2E2E2E2E2E2E2E2E2E2E2E2E2E2E2E2E2E2E2E2E2E2E2E2E2BEE2E2E2E2DCE2E2E2
310
E2E2E2E2E2E2E2E2E2E2E2E2E2E2E2E2E2E2E2E2E2E2E2E2E2E2E2E2E2E2E2E2E2E2E2E2E2E2E2DCE2BEE2E2E2E2E2E2E2E2E2E2E2E2E2E2E2E2E2E2E2E2E2E2E2E2E2E2E2E2E2E2E2E2E2E2E2E2E2E2E2E2E2E2E2E2E2E2E2E2E2E2E2E2E2E2E2E2E2E2E2E2E2E2E2E2E2E2E2E2E2E2E2E2E2E2E2E2E2E2E2E2E2E2E2E2E2
310
E2E2E2E2E2E2E2E2E2E2E2E2E2E2E2E2E2E2E2E2E2E2E2E2E2E2E2E2E2E2E2E2E2E2E2E2E2E2E2E2E2E2E2E2E2E2E2E2E2E2E2E2E2E2E2E2E2E2E2E2E2E2E2E2E2E2E2E2E2E2E2E2E2E2E2E2E2E2E2E2E2E2E2E2E2E2E2E2E2E2E2E2E2E2E2E2E2E2E2E2E2E2E2E2E2E2E2E2E2E2E2E2E2E2E2E2E2E2E2E2BEE2E2E2E2DCE2
310
E2E2E2E2E2E2E2E2E2E2E2E2E2E2E2E2E2E2E2E2E2E2E2E2E2E2E2E2E2E2E2E2E2E2E2E2E2E2E2E2E2DCE2BEE2E2E2E2E2E2E2E2E2E2E2E2E2E2E2E2E2E2E2E2E2E2E2E2E2E2E2E2E2E2E2E2E2E2E2E2E2E2E2E2E2E2E2E2E2E2E2E2E2E2E2E2E2E2E2E2E2E2E2E2E2E2E2E2E2E2E2E2E2E2E2E2E2E2E2E2E2E2E2E2E2E2E2
310
E2E2E2E2E2E2E2E2E2E2E2E2E2E2E2E2E2E2E2E2E2E2E2E2E2E2E2E2E2E2E2E2E2E2E2E2E2E2E2E2E2E2E2E2E2E2E2E2E2E2E2E2E2E2E2E2E2E2E2E2E2E2E2E2E2E2E2E2E2E2E2E2E2E2E2E2E2E2E2E2E2E2E2E2E2E2E2E2E2E2E2E2E2E2E2E2E2E2E2E2E2E2E2E2E2E2E2E2E2E2E2E2E2E2E2E2E2E2E2E2E2E2BEE2E2E2E2
310
DCE2E2E2E2E2E2E2E2E2E2E2E2E2E2E2E2E2E2E2E2E2E2E2E2E2E2E2E2E2E2E2E2E2E2E2E2E2E2E2E2E2E2DCE2BEE2E2E2E2E2E2E2E2E2E2E2E2E2E2E2E2E2E2E2E2E2E2E2E2E2E2E2E2E2E2E2E2E2E2E2E2E2E2E2E2E2E2E2E2E2E2E2E2E2E2E2E2E2E2E2E2E2E2E2E2E2E2E2E2E2E2E2E2E2E2E2E2E2E2E2E2E2E2E2E2E2
310
E2E2E2E2E2E2E2E2E2E2E2E2E2E2E2E2E2E2E2E2E2E2E2E2E2E2E2E2E2E2E2E2E2E2E2E2E2E2E2E2E2E2E2E2E2E2E2E2E2E2E2E2E2E2E2E2E2E2E2E2E2E2E2E2E2E2E2E2E2E2E2E2E2E2E2E2E2E2E2E2E2E2E2E2E2E2E2E2E2E2E2E2E2E2E2E2E2E2E2E2E2E2E2E2E2E2E2E2E2E2E2E2E2E2E2E2E2E2E2E2E2E2E2E2BEE2E2
310
E2E2DCE2E2E2E2E2E2E2E2E2E2E2E2E2E2E2E2E2E2E2E2E2E2E2E2E2E2E2E2E2E2E2E2E2E2E2E2E2E2E2E2E2E2DCE2BEE2E2E2E2E2E2E2E2E2E2E2E2E2E2E2E2E2E2E2E2E2E2E2E2E2E2E2E2E2E2E2E2E2E2E2E2E2E2E2E2E2E2E2E2E2E2E2E2E2E2E2E2E2E2E2E2E2E2E2E2E2E2E2E2E2E2E2E2E2E2E2E2E2E2E2E2E2E2E2
310
E2E2E2E2E2E2E2E2E2E2E2E2E2E2E2E2E2E2E2E2E2E2E2E2E2E2E2E2E2E2E2E2E2E2E2E2E2E2E2E2E2E2E2E2E2E2E2E2E2E2E2E2E2E2E2E2E2E2E2E2E2E2E2E2E2E2E2E2E2E2E2E2E2E2E2E2E2E2E2E2E2E2E2E2E2E2E2E2E2E2E2E2E2E2E2E2E2E2E2E2E2E2E2E2E2E2E2E2E2E2E2E2E2E2E2E2E2E2E2E2E2E2E2E2E2E2BE
310
E2E2E2E2DCE2E2E2E2E2E2E2E2E2E2E2E2E2E2E2E2E2E2E2E2E2E2E2E2E2E2E2E2E2E2E2E2E2E2E2E2E2E2E2E2E2E2DCE2BEE2E2E2E2E2E2E2E2E2E2E2E2E2E2E2E2E2E2E2E2E2E2E2E2E2E2E2E2E2E2E2E2E2E2E2E2E2E2E2E2E2E2E2E2E2E2E2E2E2E2E2E2E2E2E2E2E2E2E2E2E2E2E2E2E2E2E2E2E2E2E2E2E2E2E2E2E2
310
E2E2E2E2E2E2E2E2E2E2E2E2E2E2E2E2E2E2E2E2E2E2E2E2E2E2E2E2E2E2E2E2E2E2E2E2E2E2E2E2E2E2E2E2E2E2E2E2E2E2E2E2E2E2E2E2E2E2E2E2E2E2E2E2E2E2E2E2E2E2E2E2E2E2E2E2E2E2E2E2E2E2E2E2E2E2E2E2E2E2E2E2E2E2E2E2E2E2E2E2E2E2E2E2E2E2E2E2E2E2E2E2E2E2E2E2E2E2E2E2E2E2E2E2E2E2E2
310
E2BEE2E2E2E2DCE2E2E2E2E2E2E2E2E2E2E2E2E2E2E2E2E2E2E2E2E2E2E2E2E2E2E2E2E2E2E2E2E2E2E2E2E2E2E2E2E2E2DCE2BEE2E2E2E2E2E2E2E2E2E2E2E2E2E2E2E2E2E2E2E2E2E2E2E2E2E2E2E2E2E2E2E2E2E2E2E2E2E2E2E2E2E2E2E2E2E2E2E2E2E2E2E2E2E2E2E2E2E2E2E2E2E2E2E2E2E2E2E2E2E2E2E2E2E2E2
310
E2E2E2E2E2E2E2E2E2E2E2E2E2E2E2E2E2E2E2E2E2E2E2E2E2E2E2E2E2E2E2E2E2E2E2E2E2E2E2E2E2E2E2E2E2E2E2E2E2E2E2E2E2E2E2E2E2E2E2E2E2E2E2E2E2E2E2E2E2E2E2E2E2E2E2E2E2E2E2E2E2E2E2E2E2E2E2E2E2E2E2E2E2E2E2E2E2E2E2E2E2E2E2E2E2E2E2E2E2E2E2E2E2E2E2E2E2E2E2E2E2E2E2E2E2E2E2
310
E2E2E2BEE2E2E2E2DCE2E2E2E2E2E2E2E2E2E2E2E2E2E2E2E2E2E2E2E2E2E2E2E2E2E2E2E2E2E2E2E2E2E2E2E2E2E2E2E2E2E2DCE2BEE2E2E2E2E2E2E2E2E2E2E2E2E2E2E2E2E2E2E2E2E2E2E2E2E2E2E2E2E2E2E2E2E2E2E2E2E2E2E2E2E2E2E2E2E2E2E2E2E2E2E2E2E2E2E2E2E2E2E2E2E2E2E2E2E2E2E2E2E2E2E2E2E2
310
E2E2E2E2E2E2E2E2E2E2E2E2E2E2E2E2E2E2E2E2E2E2E2E2E2E2E2E2E2E2E2E2E2E2E2E2E2E2E2E2E2E2E2E2E2E2E2E2E2E2E2E2E2E2E2E2E2E2E2E2E2E2E2E2E2E2E2E2E2E2E2E2E2E2E2E2E2E2E2E2E2E2E2E2E2E2E2E2E2E2E2E2E2E2E2E2E2E2E2E2E2E2E2E2E2E2E2E2E2E2E2E2E2E2E2E2E2E2E2E2E2E2E2E2E2E2E2
310
E2E2E2E2E2BEE2E2E2E2DCE2E2E2E2E2E2E2E2E2E2E2E2E2E2E2E2E2E2E2E2E2E2E2E2E2E2E2E2E2E2E2E2E2E2E2E2E2E2E2E2E2E2DCE2BEE2E2E2E2E2E2E2E2E2E2E2E2E2E2E2E2E2E2E2E2E2E2E2E2E2E2E2E2E2E2E2E2E2E2E2E2E2E2E2E2E2E2E2E2E2E2E2E2E2E2E2E2E2E2E2E2E2E2E2E2E2E2E2E2E2E2E2E2E2E2E2
310
E2E2E2E2E2E2E2E2E2E2E2E2E2E2E2E2E2E2E2E2E2E2E2E2E2E2E2E2E2E2E2E2E2E2E2E2E2E2E2E2E2E2E2E2E2E2E2E2E2E2E2E2E2E2E2E2E2E2E2E2E2E2E2E2E2E2E2E2E2E2E2E2E2E2E2E2E2E2E2E2E2E2E2E2E2E2E2E2E2E2E2E2E2E2E2E2E2E2E2E2E2E2E2E2E2E2E2E2E2E2E2E2E2E2E2E2E2E2E2E2E2E2E2E2E2E2E2
310
E2E2E2E2E2E2E2BEE2E2E2E2DCE2E2E2E2E2E2E2E2E2E2E2E2E2E2E2E2E2E2E2E2E2E2E2E2E2E2E2E2E2E2E2E2E2E2E2E2E2E2E2E2E2E2DCE2BEE2E2E2E2E2E2E2E2E2E2E2E2E2E2E2E2E2E2E2E2E2E2E2E2E2E2E2E2E2E2E2E2E2E2E2E2E2E2E2E2E2E2E2E2E2E2E2E2E2E2E2E2E2E2E2E2E2E2E2E2E2E2E2E2E2E2E2E2E2
310
E2E2E2E2E2E2E2E2E2E2E2E2E2E2E2E2E2E2E2E2E2E2E2E2E2E2E2E2E2E2E2E2E2E2E2E2E2E2E2E2E2E2E2E2E2E2E2E2E2E2E2E2E2E2E2E2E2E2E2E2E2E2E2E2E2E2E2E2E2E2E2E2E2E2E2E2E2E2E2E2E2E2E2E2E2E2E2E2E2E2E2E2E2E2E2E2E2E2E2E2E2E2E2E2E2E2E2E2E2E2E2E2E2E2E2E2E2E2E2E2E2E2E2E2E2E2E2
310
E2E2E2E2E2E2E2E2E2BEE2E2E2E2DCE2E2E2E2E2E2E2E2E2E2E2E2E2E2E2E2E2E2E2E2E2E2E2E2E2E2E2E2E2E2E2E2E2E2E2E2E2E2E2E2E2E2DCE2BEE2E2E2E2E2E2E2E2E2E2E2E2E2E2E2E2E2E2E2E2E2E2E2E2E2E2E2E2E2E2E2E2E2E2E2E2E2E2E2E2E2E2E2E2E2E2E2E2E2E2E2E2E2E2E2E2E2E2E2E2E2E2E2E2E2E2E2
310
E2E2E2E2E2E2E2E2E2E2E2E2E2E2E2E2E2E2E2E2E2E2E2E2E2E2E2E2E2E2E2E2E2E2E2E2E2E2E2E2E2E2E2E2E2E2E2E2E2E2E2E2E2E2E2E2E2E2E2E2E2E2E2E2E2E2E2E2E2E2E2E2E2E2E2E2E2E2E2E2E2E2E2E2E2E2E2E2E2E2E2E2E2E2E2E2E2E2E2E2E2E2E2E2E2E2E2E2E2E2E2E2E2E2E2E2E2E2E2E2E2E2E2E2E2E2E2
310
E2E2E2E2E2E2E2E2E2E2E2BEE2E2E2E2DCDCDCDCDCDCDCDCDCDCDCDCDCDCDCDCDCDCDCDCDCDCDCDCDCDCDCDCDCDCDCDCDCDCDCDCDCDCDCDCDCDCDCDCE2BEE2E2E2E2E2E2E2E2E2E2E2E2E2E2E2E2E2E2E2E2E2E2E2E2E2E2E2E2E2E2E2E2E2E2E2E2E2E2E2E2E2E2E2E2E2E2E2E2E2E2E2E2E2E2E2E2E2E2E2E2E2E2E2E2E2
310
E2E2E2E2E2E2E2E2E2E2E2E2E2E2E2E2E2E2E2E2E2E2E2E2E2E2E2E2E2E2E2E2E2E2E2E2E2E2E2E2E2E2E2E2E2E2E2E2E2E2E2E2E2E2E2E2E2E2E2E2E2E2E2E2E2E2E2E2E2E2E2E2E2E2E2E2E2E2E2E2E2E2E2E2E2E2E2E2E2E2E2E2E2E2E2E2E2E2E2E2E2E2E2E2E2E2E2E2E2E2E2E2E2E2E2E2E2E2E2E2E2E2E2E2E2E2E2
310
E2E2E2E2E2E2E2E2E2E2E2E2E2BEBEBEBEBEBEBEBEBEBEBEBEBEBEBEBEBEBEBEBEBEBEBEBEBEBEBEBEBEBEBEBEBEBEBEBEBEBEBEBEBEBEBEBEBEBEBEBEBEBEBEE2E2E2E2E2E2E2E2E2E2E2E2E2E2E2E2E2E2E2E2E2E2E2E2E2E2E2E2E2E2E2E2E2E2E2E2E2E2E2E2E2E2E2E2E2E2E2E2E2E2E2E2E2E2E2E2E2E2E2E2E2E2E2
310
E2E2E2E2E2E2E2E2E2E2E2E2E2E2E2E2E2E2E2E2E2E2E2E2E2E2E2E2E2E2E2E2E2E2E2E2E2E2E2E2E2E2E2E2E2E2E2E2E2E2E2E2E2E2E2E2E2E2E2E2E2E2E2E2E2E2E2E2E2E2E2E2E2E2E2E2E2E2E2E2E2E2E2E2E2E2E2E2E2E2E2E2E2E2E2E2E2E2E2E2E2E2E2E2E2E2E2E2E2E2E2E2E2E2E2E2E2E2E2E2E2E2E2E2E2E2E2
310
E2E2E2E2E2E2E2E2E2E2E2E2E2E2E2E2E2E2E2E2E2E2E2E2E2E2E2E2E2E2E2E2E2E2E2E2E2E2E2E2E2E2E2E2E2E2E2E2E2E2E2E2E2E2E2E2E2E2E2E2E2E2E2E2E2E2E2E2E2E2E2E2E2E2E2E2E2E2E2E2E2E2E2E2E2E2E2E2E2E2E2E2E2E2E2E2E2E2E2E2E2E2E2E2E2E2E2E2E2E2E2E2E2E2E2E2E2E2E2E2E2E2E2E2E2E2E2
310
E2E2E2E2E2E2E2E2E2E2E2E2E2E2E2E2E2E2E2E2E2E2E2E2E2E2E2E2E2E2E2E2E2E2E2E2E2E2E2E2E2E2E2E2E2E2E2E2E2E2E2E2E2E2E2E2E2E2E2E2E2E2E2E2E2E2E2E2E2E2E2E2E2E2E2E2E2E2E2E2E2E2E2E2E2E2E2E2E2E2E2E2E2E2E2E2E2E2E2E2E2E2E2E2E2E2E2E2E2E2E2E2E2E2E2E2E2E2E2E2E2E2E2E2E2E2E2
310
E2E2E2E2E2E2E2E2E2E2E2E2E2E2E2E2E2E2E2E2E2E2E2E2E2E2E2E2E2E2E2E2E2E2E2E2E2E2E2E2E2E2E2E2E2E2E2E2E2E2E2E2E2E2E2E2E2E2E2E2E2E2E2E2E2E2E2E2E2E2E2E2E2E2E2E2E2E2E2E2E2E2E2E2E2E2E2E2E2E2E2E2E2E2E2E2E2E2E2E2E2E2E2E2E2E2E2E2E2E2E2E2E2E2E2E2E2E2E2E2E2E2E2E2E2E2E2
310
E2E2E2E2E2E2E2E2E2E2E2E2E2E2E2E2E2E2E2E2E2E2E2E2E2E2E2E2E2E2E2E2E2E2E2E2E2E2E2E2E2E2E2E2E2E2E2E2E2E2E2E2E2E2E2E2E2E2E2E2E2E2E2E2E2E2E2E2E2E2E2E2E2E2E2E2E2E2E2E2E2E2E2E2E2E2E2E2E2E2E2E2E2E2E2E2E2E2E2E2E2E2E2E2E2E2E2E2E2E2E2E2E2E2E2E2E2E2E2E2E2E2E2E2E2E2E2
310
E2E2E2E2E2E2E2E2E2E2E2E2E2E2E2E2E2E2E2E2E2E2E2E2E2E2E2E2E2E2E2E2E2E2E2E2E2E2E2E2E2E2E2E2E2E2E2E2E2E2E2E2E2E2E2E2E2E2E2E2E2E2E2E2E2E2E2E2E2E2E2E2E2E2E2E2E2E2E2E2E2E2E2E2E2E2E2E2E2E2E2E2E2E2E2E2E2E2E2E2E2E2E2E2E2E2E2E2E2E2E2E2E2E2E2E2E2E2E2E2E2E2E2E2E2E2E2
310
E2E2E2E2E2E2E2E2E2E2E2E2E2E2E2E2E2E2E2E2E2E2E2E2E2E2E2E2E2E2E2E2E2E2E2E2E2E2E2E2E2E2E2E2E2E2E2E2E2E2E2E2E2E2E2E2E2E2E2E2E2E2E2E2E2E2E2E2E2E2E2E2E2E2E2E2E2E2E2E2E2E2E2E2E2E2E2E2E2E2E2E2E2E2E2E2E2E2E2E2E2E2E2E2E2E2E2E2E2E2E2E2E2E2E2E2E2E2E2E2E2E2E2E2E2E2E2
310
E2E2E2E2E2E2E2E2E2E2E2E2E2E2E2E2E2E2E2E2E2E2E2E2E2E2E2E2E2E2E2E2E2E2E2E2E2E2E2E2E2E2E2E2E2E2E2E2E2E2E2E2E2E2E2E2E2E2E2E2E2E2E2E2E2E2E2E2E2E2E2E2E2E2E2E2E2E2E2E2E2E2E2E2E2E2E2E2E2E2E2E2E2E2E2E2E2E2E2E2E2E2E2E2E2E2E2E2E2E2E2E2E2E2E2E2E2E2E2E2E2E2E2E2E2E2E2
310
E2E2E2E2E2E2E2E2E2E2E2E2E2E2E2E2E2E2E2E2E2E2E2E2E2E2E2E2E2E2E2E2E2E2E2E2E2E2E2E2E2E2E2E2E2E2E2E2E2E2E2E2E2E2E2E2E2E2E2E2E2E2E2E2E2E2E2E2E2E2E2E2E2E2E2E2E2E2E2E2E2E2E2E2E2E2E2E2E2E2E2E2E2E2E2E2E2E2E2E2E2E2E2E2E2E2E2E2E2E2E2E2E2E2E2E2E2E2E2E2E2E2E2E2E2E2E2
310
E2E2E2E2E2E2E2E2E2E2E2E2E2E2E2E2E2E2E2E2E2E2E2E2E2E2E2E2E2E2E2E2E2E2E2E2E2E2E2E2E2E2E2E2E2E2E2E2E2E2E2E2E2E2E2E2E2E2E2E2E2E2E2E2E2E2E2E2E2E2E2E2E2E2E2E2E2E2E2E2E2E2E2E2E2E2E2E2E2E2E2E2E2E2E2E2E2E2E2E2E2E2E2E2E2E2E2E2E2E2E2E2E2E2E2E2E2E2E2E2E2E2E2E2E2E2E2
310
E2E2E2E2E2E2E2E2E2E2E2E2E2E2E2E2E2E2E2E2E2E2E2E2E2E2E2E2E2E2E2E2E2E2E2E2E2E2E2E2E2E2E2E2E2E2E2E2E2E2E2E2E2E2E2E2E2E2E2E2E2E2E2E2E2E2E2E2E2E2E2E2E2E2E2E2E2E2E2E2E2E2E2E2E2E2E2E2E2E2E2E2E2E2E2E2E2E2E2E2E2E2E2E2E2E2E2E2E2E2E2E2E2E2E2E2E2E2E2E2E2E2E2E2E2E2E2
310
E2E2E2E2E2E2E2E2E2E2E2E2E2E2E2E2E2E2E2E2E2E2E2E2E2E2E2E2E2E2E2E2E2E2E2E2E2E2E2E2E2E2E2E2E2E2E2E2E2E2E2E2E2E2E2E2E2E2E2E2E2E2E2E2E2E2E2E2E2E2E2E2E2E2E2E2E2E2E2E2E2E2E2E2E2E2E2E2E2E2E2E2E2E2E2E2E2E2E2E2E2E2E2E2E2E2E2E2E2E2E2E2E2E2E2E2E2E2E2E2E2E2E2E2E2E2E2
310
E2E2E2E2E2E2E2E2E2E2E2E2E2E2E2E2E2E2E2E2E2E2E2E2E2E2E2E2E2E2E2E2E2E2E2E2E2E2E2E2E2E2E2E2E2E2E2E2E2E2E2E2E2E2E2E2E2E2E2E2E2E2E2E2E2E2E2E2E2E2E2E2E2E2E2E2E2E2E2E2E2E2E2E2E2E2E2E2E2E2E2E2E2E2E2E2E2E2E2E2E2E2E2E2E2E2E2E2E2E2E2E2E2E2E2E2E2E2E2E2E2E2E2E2E2E2E2
310
E2E2E2E2E2E2E2E2E2E2E2E2E2E2E2E2E2E2E2E2E2E2E2E2E2E2E2E2E2E2E2E2E2E2E2E2E2E2E2E2E2E2E2E2E2E2E2E2E2E2E2E2E2E2E2E2E2E2E2E2E2E2E2E2E2E2E2E2E2E2E2E2E2E2E2E2E2E2E2E2E2E2E2E2E2E2E2E2E2E2E2E2E2E2E2E2E2E2E2E2E2E2E2E2E2E2E2E2E2E2E2E2E2E2E2E2E2E2E2E2E2E2E2E2E2E2E2
310
E2E2E2E2E2E2E2E2E2E2E2E2E2E2E2E2E2E2E2E2E2E2E2E2E2E2E2E2E2E2E2E2E2E2E2E2E2E2E2E2E2E2E2E2E2E2E2E2E2E2E2E2E2E2E2E2E2E2E2E2E2E2E2E2E2E2E2E2E2E2E2E2E2E2E2E2E2E2E2E2E2E2E2E2E2E2E2E2E2E2E2E2E2E2E2E2E2E2E2E2E2E2E2E2E2E2E2E2E2E2E2E2E2E2E2E2E2E2E2E2E2E2E2E2E2E2E2
310
E2E2E2E2E2E2E2E2E2E2E2E2E2E2E2E2E2E2E2E2E2E2E2E2E2E2E2E2E2E2E2E2E2E2E2E2E2E2E2E2E2E2E2E2E2E2E2E2E2E2E2E2E2E2E2E2E2E2E2E2E2E2E2E2E2E2E2E2E2E2E2E2E2E2E2E2E2E2E2E2E2E2E2E2E2E2E2E2E2E2E2E2E2E2E2E2E2E2E2E2E2E2E2E2E2E2E2E2E2E2E2E2E2E2E2E2E2E2E2E2E2E2E2E2E2E2E2
310
E2E2E2E2E2E2E2E2E2E2E2E2E2E2E2E2E2E2E2E2E2E2E2E2E2E2E2E2E2E2E2E2E2E2E2E2E2E2E2E2E2E2E2E2E2E2E2E2E2E2E2E2E2E2E2E2E2E2E2E2E2E2E2E2E2E2E2E2E2E2E2E2E2E2E2E2E2E2E2E2E2E2E2E2E2E2E2E2E2E2E2E2E2E2E2E2E2E2E2E2E2E2E2E2E2E2E2E2E2E2E2E2E2E2E2E2E2E2E2E2E2E2E2E2E2E2E2
310
E2E2E2E2E2E2E2E2E2E2E2E2E2E2E2E2E2E2E2E2E2E2E2E2E2E2E2E2E2E2E2E2E2E2E2E2E2E2E2E2E2E2E2E2E2E2E2E2E2E2E2E2E2E2E2E2E2E2E2E2E2E2E2E2E2E2E2E2E2E2E2E2E2E2E2E2E2E2E2E2E2E2E2E2E2E2E2E2E2E2E2E2E2E2E2E2E2E2E2E2E2E2E2E2E2E2E2E2E2E2E2E2E2E2E2E2E2E2E2E2E2E2E2E2E2E2E2
310
E2E2E2E2E2E2E2E2E2E2E2E2E2E2E2E2E2E2E2E2E2E2E2E2E2E2E2E2E2E2E2E2E2E2E2E2E2E2E2E2E2E2E2E2E2E2E2E2E2E2E2E2E2E2E2E2E2E2E2E2E2E2E2E2E2E2E2E2E2E2E2E2E2E2E2E2E2E2E2E2E2E2E2E2E2E2E2E2E2E2E2E2E2E2E2E2E2E2E2E2E2E2E2E2E2E2E2E2E2E2E2E2E2E2E2E2E2E2E2E2E2E2E2E2E2E2E2
310
E2E2E2E2E2E2E2E2E2E2E2E2E2E2E2E2E2E2E2E2E2E2E2E2E2E2E2E2E2E2E2E2E2E2E2E2E2E2E2E2E2E2E2E2E2E2E2E2E2E2E2E2E2E2E2E2E2E2E2E2E2E2E2E2E2E2E2E2E2E2E2E2E2E2E2E2E2E2E2E2E2E2E2E2E2E2E2E2E2E2E2E2E2E2E2E2E2E2E2E2E2E2E2E2E2E2E2E2E2E2E2E2E2E2E2E2E2E2E2E2E2E2E2E2E2E2E2
310
E2E2E2E2E2E2E2E2E2E2E2E2E2E2E2E2E2E2E2E2E2E2E2E2E2E2E2E2E2E2E2E2E2E2E2E2E2E2E2E2E2E2E2E2E2E2E2E2E2E2E2E2E2E2E2E2E2E2E2E2E2E2E2E2E2E2E2E2E2E2E2E2E2E2E2E2E2E2E2E2E2E2E2E2E2E2E2E2E2E2E2E2E2E2E2E2E2E2E2E2E2E2E2E2E2E2E2E2E2E2E2E2E2E2E2E2E2E2E2E2E2E2E2E2E2E2E2
310
E2E2E2E2E2E2E2E2E2E2E2E2E2E2E2E2E2E2E2E2E2E2E2E2E2E2E2E2E2E2E2E2E2E2E2E2E2E2E2E2E2E2E2E2E2E2E2E2E2E2E2E2E2E2E2E2E2E2E2E2E2E2E2E2E2E2E2E2E2E2E2E2E2E2E2E2E2E2E2E2E2E2E2E2E2E2E2E2E2E2E2E2E2E2E2E2E2E2E2E2E2E2E2E2E2E2E2E2E2E2E2E2E2E2E2E2E2E2E2E2E2E2E2E2E2E2E2
310
E2E2E2E2E2E2E2E2E2E2E2E2E2E2E2E2E2E2E2E2E2E2E2E2E2E2E2E2E2E2E2E2E2E2E2E2E2E2E2E2E2E2E2E2E2E2E2E2E2E2E2E2E2E2E2E2E2E2E2E2E2E2E2E2E2E2E2E2E2E2E2E2E2E2E2E2E2E2E2E2E2E2E2E2E2E2E2E2E2E2E2E2E2E2E2E2E2E2E2E2E2E2E2E2E2E2E2E2E2E2E2E2E2E2E2E2E2E2E2E2E2E2E2E2E2E2E2
310
E2E2E2E2E2E2E2E2E2E2E2E2E2E2E2E2E2E2E2E2E2E2E2E2E2E2E2E2E2E2E2E2E2E2E2E2E2E2E2E2E2E2E2E2E2E2E2E2E2E2E2E2E2E2E2E2E2E2E2E2E2E2E2E2E2E2E2E2E2E2E2E2E2E2E2E2E2E2E2E2E2E2E2E2E2E2E2E2E2E2E2E2E2E2E2E2E2E2E2E2E2E2E2E2E2E2E2E2E2E2E2E2E2E2E2E2E2E2E2E2E2E2E2E2E2E2E2
310
E2E2E2E2E2E2E2E2E2E2E2E2E2E2E2E2E2E2E2E2E2E2E2E2E2E2E2E2E2E2E2E2E2E2E2E2E2E2E2E2E2E2E2E2E2E2E2E2E2E2E2E2E2E2E2E2E2E2E2E2E2E2E2E2E2E2E2E2E2E2E2E2E2E2E2E2E2E2E2E2E2E2E2E2E2E2E2E2E2E2E2E2E2E2E2E2E2E2E2E2E2E2E2E2E2E2E2E2E2E2E2E2E2E2E2E2E2E2E2E2E2E2E2E2E2E2E2
310
E2E2E2E2E2E2E2E2E2E2E2E2E2E2E2E2E2E2E2E2E2E2E2E2E2E2E2E2E2E2E2E2E2E2E2E2E2E2E2E2E2E2E2E2E2E2E2E2E2E2E2E2E2E2E2E2E2E2E2E2E2E2E2E2E2E2E2E2E2E2E2E2E2E2E2E2E2E2E2E2E2E2E2E2E2E2E2E2E2E2E2E2E2E2E2E2E2E2E2E2E2E2E2E2E2E2E2E2E2E2E2E2E2E2E2E2E2E2E2E2E2E2E2E2E2E2E2
310
E2E2E2E2E2E2E2E2E2E2E2E2E2E2E2E2E2E2E2E2E2E2E2E2E2E2E2E2E2E2E2E2E2E2E2E2E2E2E2E2E2E2E2E2E2E2E2E2E2E2E2E2E2E2E2E2E2E2E2E2E2E2E2E2E2E2E2E2E2E2E2E2E2E2E2E2E2E2E2E2E2E2E2E2E2E2E2E2E2E2E2E2E2E2E2E2E2E2E2E2E2E2E2E2E2E2E2E2E2E2E2E2E2E2E2E2E2E2E2E2E2E2E2E2E2E2E2
310
E2E2E2E2E2E2E2E2E2E2E2E2E2E2E2E2E2E2E2E2E2E2E2E2E2E2
  0
XRECORD
  5
46
102
{ACAD_REACTORS
330
45
102
}
330
45
100
AcDbXrecord
280
     1
270
     1
271
     1
  0
XRECORD
  5
47
102
{ACAD_REACTORS
330
45
102
}
330
45
100
AcDbXrecord
280
     1
270
     1
271
     1
  0
XRECORD
  5
48
102
{ACAD_REACTORS
330
45
102
}
330
45
100
AcDbXrecord
280
     1
270
     1
271
     1
  0
XRECORD
  5
49
102
{ACAD_REACTORS
330
45
102
}
330
45
100
AcDbXrecord
280
     1
270
     1
271
     1
  0
XRECORD
  5
4A
102
{ACAD_REACTORS
330
45
102
}
330
45
100
AcDbXrecord
280
     1
270
     1
271
     1
  0
XRECORD
  5
4B
102
{ACAD_REACTORS
330
45
102
}
330
45
100
AcDbXrecord
280
     1
270
     1
271
     1
  0
XRECORD
  5
3E
102
{ACAD_REACTORS
330
3D
102
}
330
3D
100
AcDbXrecord
280
     1
270
     1
271
     1
  0
XRECORD
  5
3F
102
{ACAD_REACTORS
330
3D
102
}
330
3D
100
AcDbXrecord
280
     1
270
     1
271
     1
  0
XRECORD
  5
40
102
{ACAD_REACTORS
330
3D
102
}
330
3D
100
AcDbXrecord
280
     1
270
     1
271
     1
  0
XRECORD
  5
41
102
{ACAD_REACTORS
330
3D
102
}
330
3D
100
AcDbXrecord
280
     1
270
     1
271
     1
  0
XRECORD
  5
42
102
{ACAD_REACTORS
330
3D
102
}
330
3D
100
AcDbXrecord
280
     1
270
     1
271
     1
  0
XRECORD
  5
43
102
{ACAD_REACTORS
330
3D
102
}
330
3D
100
AcDbXrecord
280
     1
270
     1
271
     1
  0
XRECORD
  5
F
102
{ACAD_REACTORS
330
E
102
}
330
E
100
AcDbXrecord
280
     1
270
     1
271
     1
  0
XRECORD
  5
10
102
{ACAD_REACTORS
330
E
102
}
330
E
100
AcDbXrecord
280
     1
270
     1
271
     1
  0
XRECORD
  5
11
102
{ACAD_REACTORS
330
E
102
}
330
E
100
AcDbXrecord
280
     1
270
     1
271
     1
  0
XRECORD
  5
12
102
{ACAD_REACTORS
330
E
102
}
330
E
100
AcDbXrecord
280
     1
270
     1
271
     1
  0
XRECORD
  5
13
102
{ACAD_REACTORS
330
E
102
}
330
E
100
AcDbXrecord
280
     1
270
     1
271
     1
  0
XRECORD
  5
14
102
{ACAD_REACTORS
330
E
102
}
330
E
100
AcDbXrecord
280
     1
270
     1
271
     1
  0
CELLSTYLEMAP
  5
35B
102
{ACAD_REACTORS
330
55
102
}
330
55
100
AcDbCellStyleMap
 90
        3
300
CELLSTYLE
  1
TABLEFORMAT_BEGIN
 90
        5
170
     1
 91
        0
 92
    32768
 62
   257
 93
        1
300
CONTENTFORMAT
  1
CONTENTFORMAT_BEGIN
 90
        0
 91
        0
 92
      512
 93
        0
300

 40
0.0
140
1.0
 94
        5
 62
     0
340
26
144
6.0
309
CONTENTFORMAT_END
171
     1
301
MARGIN
  1
CELLMARGIN_BEGIN
 40
1.5
 40
1.5
 40
1.5
 40
1.5
 40
4.5
 40
4.5
309
CELLMARGIN_END
 94
        6
 95
        1
302
GRIDFORMAT
  1
GRIDFORMAT_BEGIN
 90
        0
 91
        1
 62
     0
 92
       -2
340
0
 93
        0
 40
1.125
309
GRIDFORMAT_END
 95
        2
302
GRIDFORMAT
  1
GRIDFORMAT_BEGIN
 90
        0
 91
        1
 62
     0
 92
       -2
340
0
 93
        0
 40
1.125
309
GRIDFORMAT_END
 95
        4
302
GRIDFORMAT
  1
GRIDFORMAT_BEGIN
 90
        0
 91
        1
 62
     0
 92
       -2
340
0
 93
        0
 40
1.125
309
GRIDFORMAT_END
 95
        8
302
GRIDFORMAT
  1
GRIDFORMAT_BEGIN
 90
        0
 91
        1
 62
     0
 92
       -2
340
0
 93
        0
 40
1.125
309
GRIDFORMAT_END
 95
       16
302
GRIDFORMAT
  1
GRIDFORMAT_BEGIN
 90
        0
 91
        1
 62
     0
 92
       -2
340
0
 93
        0
 40
1.125
309
GRIDFORMAT_END
 95
       32
302
GRIDFORMAT
  1
GRIDFORMAT_BEGIN
 90
        0
 91
        1
 62
     0
 92
       -2
340
0
 93
        0
 40
1.125
309
GRIDFORMAT_END
309
TABLEFORMAT_END
  1
CELLSTYLE_BEGIN
 90
        1
 91
        1
300
_TITLE
309
CELLSTYLE_END
300
CELLSTYLE
  1
TABLEFORMAT_BEGIN
 90
        5
170
     1
 91
        0
 92
        0
 62
   257
 93
        1
300
CONTENTFORMAT
  1
CONTENTFORMAT_BEGIN
 90
        0
 91
        0
 92
      512
 93
        0
300

 40
0.0
140
1.0
 94
        5
 62
     0
340
26
144
4.5
309
CONTENTFORMAT_END
171
     1
301
MARGIN
  1
CELLMARGIN_BEGIN
 40
1.5
 40
1.5
 40
1.5
 40
1.5
 40
4.5
 40
4.5
309
CELLMARGIN_END
 94
        6
 95
        1
302
GRIDFORMAT
  1
GRIDFORMAT_BEGIN
 90
        0
 91
        1
 62
     0
 92
       -2
340
0
 93
        0
 40
1.125
309
GRIDFORMAT_END
 95
        2
302
GRIDFORMAT
  1
GRIDFORMAT_BEGIN
 90
        0
 91
        1
 62
     0
 92
       -2
340
0
 93
        0
 40
1.125
309
GRIDFORMAT_END
 95
        4
302
GRIDFORMAT
  1
GRIDFORMAT_BEGIN
 90
        0
 91
        1
 62
     0
 92
       -2
340
0
 93
        0
 40
1.125
309
GRIDFORMAT_END
 95
        8
302
GRIDFORMAT
  1
GRIDFORMAT_BEGIN
 90
        0
 91
        1
 62
     0
 92
       -2
340
0
 93
        0
 40
1.125
309
GRIDFORMAT_END
 95
       16
302
GRIDFORMAT
  1
GRIDFORMAT_BEGIN
 90
        0
 91
        1
 62
     0
 92
       -2
340
0
 93
        0
 40
1.125
309
GRIDFORMAT_END
 95
       32
302
GRIDFORMAT
  1
GRIDFORMAT_BEGIN
 90
        0
 91
        1
 62
     0
 92
       -2
340
0
 93
        0
 40
1.125
309
GRIDFORMAT_END
309
TABLEFORMAT_END
  1
CELLSTYLE_BEGIN
 90
        2
 91
        1
300
_HEADER
309
CELLSTYLE_END
300
CELLSTYLE
  1
TABLEFORMAT_BEGIN
 90
        5
170
     1
 91
        0
 92
        0
 62
   257
 93
        1
300
CONTENTFORMAT
  1
CONTENTFORMAT_BEGIN
 90
        0
 91
        0
 92
      512
 93
        0
300

 40
0.0
140
1.0
 94
        2
 62
     0
340
26
144
4.5
309
CONTENTFORMAT_END
171
     1
301
MARGIN
  1
CELLMARGIN_BEGIN
 40
1.5
 40
1.5
 40
1.5
 40
1.5
 40
4.5
 40
4.5
309
CELLMARGIN_END
 94
        6
 95
        1
302
GRIDFORMAT
  1
GRIDFORMAT_BEGIN
 90
        0
 91
        1
 62
     0
 92
       -2
340
0
 93
        0
 40
1.125
309
GRIDFORMAT_END
 95
        2
302
GRIDFORMAT
  1
GRIDFORMAT_BEGIN
 90
        0
 91
        1
 62
     0
 92
       -2
340
0
 93
        0
 40
1.125
309
GRIDFORMAT_END
 95
        4
302
GRIDFORMAT
  1
GRIDFORMAT_BEGIN
 90
        0
 91
        1
 62
     0
 92
       -2
340
0
 93
        0
 40
1.125
309
GRIDFORMAT_END
 95
        8
302
GRIDFORMAT
  1
GRIDFORMAT_BEGIN
 90
        0
 91
        1
 62
     0
 92
       -2
340
0
 93
        0
 40
1.125
309
GRIDFORMAT_END
 95
       16
302
GRIDFORMAT
  1
GRIDFORMAT_BEGIN
 90
        0
 91
        1
 62
     0
 92
       -2
340
0
 93
        0
 40
1.125
309
GRIDFORMAT_END
 95
       32
302
GRIDFORMAT
  1
GRIDFORMAT_BEGIN
 90
        0
 91
        1
 62
     0
 92
       -2
340
0
 93
        0
 40
1.125
309
GRIDFORMAT_END
309
TABLEFORMAT_END
  1
CELLSTYLE_BEGIN
 90
        3
 91
        2
300
_DATA
309
CELLSTYLE_END
  0
ENDSEC
  0
EOF
