  0
SECTION
  2
HEADER
  9
$ACADVER
  1
AC1024
  9
$ACADMAINTVER
 70
    10
  9
$DWGCODEPAGE
  3
ANSI_1252
  9
$INSBASE
 10
0.0
 20
0.0
 30
0.0
  9
$EXTMIN
 10
-908.4452687405246
 20
-0.0000000000003411
 30
0.0
  9
$EXTMAX
 10
2110.18016280258
 20
1039.841936982397
 30
0.0
  9
$LIMMIN
 10
0.0
 20
-0.0000000000002274
  9
$LIMMAX
 10
420.0
 20
593.9999999999997
  9
$ORTHOMODE
 70
     1
  9
$REGENMODE
 70
     1
  9
$FILLMODE
 70
     1
  9
$QTEXTMODE
 70
     0
  9
$MIRRTEXT
 70
     0
  9
$LTSCALE
 40
15.0
  9
$ATTMODE
 70
     1
  9
$TEXTSIZE
 40
5.0
  9
$TRACEWID
 40
1.0
  9
$TEXTSTYLE
  7
Standard
  9
$CLAYER
  8
07-99
  9
$CELTYPE
  6
ByLayer
  9
$CECOLOR
 62
   256
  9
$CELTSCALE
 40
1.0
  9
$DISPSILH
 70
     0
  9
$DIMSCALE
 40
1.0
  9
$DIMASZ
 40
2.5
  9
$DIMEXO
 40
1.0
  9
$DIMDLI
 40
10.0
  9
$DIMRND
 40
0.0
  9
$DIMDLE
 40
0.0
  9
$DIMEXE
 40
1.0
  9
$DIMTP
 40
0.0
  9
$DIMTM
 40
0.0
  9
$DIMTXT
 40
2.5
  9
$DIMCEN
 40
0.0
  9
$DIMTSZ
 40
0.0
  9
$DIMTOL
 70
     0
  9
$DIMLIM
 70
     0
  9
$DIMTIH
 70
     0
  9
$DIMTOH
 70
     0
  9
$DIMSE1
 70
     0
  9
$DIMSE2
 70
     0
  9
$DIMTAD
 70
     1
  9
$DIMZIN
 70
     8
  9
$DIMBLK
  1

  9
$DIMASO
 70
     1
  9
$DIMSHO
 70
     1
  9
$DIMPOST
  1

  9
$DIMAPOST
  1

  9
$DIMALT
 70
     0
  9
$DIMALTD
 70
     3
  9
$DIMALTF
 40
0.03937007874016
  9
$DIMLFAC
 40
1.0
  9
$DIMTOFL
 70
     1
  9
$DIMTVP
 40
0.0
  9
$DIMTIX
 70
     0
  9
$DIMSOXD
 70
     0
  9
$DIMSAH
 70
     0
  9
$DIMBLK1
  1

  9
$DIMBLK2
  1

  9
$DIMSTYLE
  2
Wagner
  9
$DIMCLRD
 70
     4
  9
$DIMCLRE
 70
     4
  9
$DIMCLRT
 70
     1
  9
$DIMTFAC
 40
1.0
  9
$DIMGAP
 40
1.0
  9
$DIMJUST
 70
     0
  9
$DIMSD1
 70
     0
  9
$DIMSD2
 70
     0
  9
$DIMTOLJ
 70
     0
  9
$DIMTZIN
 70
     8
  9
$DIMALTZ
 70
     0
  9
$DIMALTTZ
 70
     0
  9
$DIMUPT
 70
     0
  9
$DIMDEC
 70
     8
  9
$DIMTDEC
 70
     8
  9
$DIMALTU
 70
     2
  9
$DIMALTTD
 70
     3
  9
$DIMTXSTY
  7
Standard
  9
$DIMAUNIT
 70
     0
  9
$DIMADEC
 70
     1
  9
$DIMALTRND
 40
0.0
  9
$DIMAZIN
 70
     2
  9
$DIMDSEP
 70
    46
  9
$DIMATFIT
 70
     3
  9
$DIMFRAC
 70
     0
  9
$DIMLDRBLK
  1

  9
$DIMLUNIT
 70
     2
  9
$DIMLWD
 70
    -2
  9
$DIMLWE
 70
    -2
  9
$DIMTMOVE
 70
     0
  9
$DIMFXL
 40
1.0
  9
$DIMFXLON
 70
     0
  9
$DIMJOGANG
 40
0.7853981633974483
  9
$DIMTFILL
 70
     0
  9
$DIMTFILLCLR
 70
     0
  9
$DIMARCSYM
 70
     0
  9
$DIMLTYPE
  6

  9
$DIMLTEX1
  6

  9
$DIMLTEX2
  6

  9
$DIMTXTDIRECTION
 70
     0
  9
$LUNITS
 70
     2
  9
$LUPREC
 70
     1
  9
$SKETCHINC
 40
1.0
  9
$FILLETRAD
 40
0.0
  9
$AUNITS
 70
     0
  9
$AUPREC
 70
     0
  9
$MENU
  1
.
  9
$ELEVATION
 40
0.0
  9
$PELEVATION
 40
0.0
  9
$THICKNESS
 40
0.0
  9
$LIMCHECK
 70
     0
  9
$CHAMFERA
 40
0.0
  9
$CHAMFERB
 40
0.0
  9
$CHAMFERC
 40
20.0
  9
$CHAMFERD
 40
0.0
  9
$SKPOLY
 70
     0
  9
$TDCREATE
 40
2453171.322436088
  9
$TDUCREATE
 40
2453171.280769421
  9
$TDUPDATE
 40
2459179.492676817
  9
$TDUUPDATE
 40
2459179.451010150
  9
$TDINDWG
 40
3.0723438426
  9
$TDUSRTIMER
 40
3.0723438426
  9
$USRTIMER
 70
     1
  9
$ANGBASE
 50
0.0
  9
$ANGDIR
 70
     0
  9
$PDMODE
 70
     0
  9
$PDSIZE
 40
0.0
  9
$PLINEWID
 40
0.0
  9
$SPLFRAME
 70
     0
  9
$SPLINETYPE
 70
     6
  9
$SPLINESEGS
 70
     8
  9
$HANDSEED
  5
313
  9
$SURFTAB1
 70
     6
  9
$SURFTAB2
 70
     6
  9
$SURFTYPE
 70
     6
  9
$SURFU
 70
     6
  9
$SURFV
 70
     6
  9
$UCSBASE
  2

  9
$UCSNAME
  2

  9
$UCSORG
 10
0.0
 20
0.0
 30
0.0
  9
$UCSXDIR
 10
1.0
 20
0.0
 30
0.0
  9
$UCSYDIR
 10
0.0
 20
1.0
 30
0.0
  9
$UCSORTHOREF
  2

  9
$UCSORTHOVIEW
 70
     0
  9
$UCSORGTOP
 10
0.0
 20
0.0
 30
0.0
  9
$UCSORGBOTTOM
 10
0.0
 20
0.0
 30
0.0
  9
$UCSORGLEFT
 10
0.0
 20
0.0
 30
0.0
  9
$UCSORGRIGHT
 10
0.0
 20
0.0
 30
0.0
  9
$UCSORGFRONT
 10
0.0
 20
0.0
 30
0.0
  9
$UCSORGBACK
 10
0.0
 20
0.0
 30
0.0
  9
$PUCSBASE
  2

  9
$PUCSNAME
  2

  9
$PUCSORG
 10
0.0
 20
0.0
 30
0.0
  9
$PUCSXDIR
 10
1.0
 20
0.0
 30
0.0
  9
$PUCSYDIR
 10
0.0
 20
1.0
 30
0.0
  9
$PUCSORTHOREF
  2

  9
$PUCSORTHOVIEW
 70
     0
  9
$PUCSORGTOP
 10
0.0
 20
0.0
 30
0.0
  9
$PUCSORGBOTTOM
 10
0.0
 20
0.0
 30
0.0
  9
$PUCSORGLEFT
 10
0.0
 20
0.0
 30
0.0
  9
$PUCSORGRIGHT
 10
0.0
 20
0.0
 30
0.0
  9
$PUCSORGFRONT
 10
0.0
 20
0.0
 30
0.0
  9
$PUCSORGBACK
 10
0.0
 20
0.0
 30
0.0
  9
$USERI1
 70
     0
  9
$USERI2
 70
     0
  9
$USERI3
 70
     0
  9
$USERI4
 70
     0
  9
$USERI5
 70
     0
  9
$USERR1
 40
0.0
  9
$USERR2
 40
0.0
  9
$USERR3
 40
0.0
  9
$USERR4
 40
0.0
  9
$USERR5
 40
0.0
  9
$WORLDVIEW
 70
     1
  9
$SHADEDGE
 70
     3
  9
$SHADEDIF
 70
    70
  9
$TILEMODE
 70
     1
  9
$MAXACTVP
 70
    64
  9
$PINSBASE
 10
0.0
 20
0.0
 30
0.0
  9
$PLIMCHECK
 70
     0
  9
$PEXTMIN
 10
1.000000000000000E+20
 20
1.000000000000000E+20
 30
1.000000000000000E+20
  9
$PEXTMAX
 10
-1.000000000000000E+20
 20
-1.000000000000000E+20
 30
-1.000000000000000E+20
  9
$PLIMMIN
 10
0.0
 20
0.0
  9
$PLIMMAX
 10
420.0
 20
297.0
  9
$UNITMODE
 70
     0
  9
$VISRETAIN
 70
     1
  9
$PLINEGEN
 70
     0
  9
$PSLTSCALE
 70
     1
  9
$TREEDEPTH
 70
  3020
  9
$CMLSTYLE
  2
Standard
  9
$CMLJUST
 70
     0
  9
$CMLSCALE
 40
20.0
  9
$PROXYGRAPHICS
 70
     1
  9
$MEASUREMENT
 70
     1
  9
$CELWEIGHT
370
    -1
  9
$ENDCAPS
280
     0
  9
$JOINSTYLE
280
     0
  9
$LWDISPLAY
290
     0
  9
$INSUNITS
 70
     4
  9
$HYPERLINKBASE
  1

  9
$STYLESHEET
  1

  9
$XEDIT
290
     1
  9
$CEPSNTYPE
380
     0
  9
$PSTYLEMODE
290
     1
  9
$FINGERPRINTGUID
  2
{64AC2B22-A667-4FE8-AABE-032C4C5E0171}
  9
$VERSIONGUID
  2
{68F3FA41-F49B-4E19-BBBD-2520FDA8B418}
  9
$EXTNAMES
290
     1
  9
$PSVPSCALE
 40
0.0
  9
$OLESTARTUP
290
     0
  9
$SORTENTS
280
   127
  9
$INDEXCTL
280
     0
  9
$HIDETEXT
280
     1
  9
$XCLIPFRAME
280
     0
  9
$HALOGAP
280
     0
  9
$OBSCOLOR
 70
   257
  9
$OBSLTYPE
280
     0
  9
$INTERSECTIONDISPLAY
280
     0
  9
$INTERSECTIONCOLOR
 70
   257
  9
$DIMASSOC
280
     1
  9
$PROJECTNAME
  1

  9
$CAMERADISPLAY
290
     0
  9
$LENSLENGTH
 40
50.0
  9
$CAMERAHEIGHT
 40
0.0
  9
$STEPSPERSEC
 40
2.0
  9
$STEPSIZE
 40
6.0
  9
$3DDWFPREC
 40
2.0
  9
$PSOLWIDTH
 40
0.25
  9
$PSOLHEIGHT
 40
4.0
  9
$LOFTANG1
 40
1.570796326794896
  9
$LOFTANG2
 40
1.570796326794896
  9
$LOFTMAG1
 40
0.0
  9
$LOFTMAG2
 40
0.0
  9
$LOFTPARAM
 70
     7
  9
$LOFTNORMALS
280
     1
  9
$LATITUDE
 40
37.795
  9
$LONGITUDE
 40
-122.394
  9
$NORTHDIRECTION
 40
0.0
  9
$TIMEZONE
 70
 -8000
  9
$LIGHTGLYPHDISPLAY
280
     1
  9
$TILEMODELIGHTSYNCH
280
     1
  9
$CMATERIAL
347
3D
  9
$SOLIDHIST
280
     1
  9
$SHOWHIST
280
     1
  9
$DWFFRAME
280
     2
  9
$DGNFRAME
280
     0
  9
$REALWORLDSCALE
290
     1
  9
$INTERFERECOLOR
 62
     1
  9
$INTERFEREOBJVS
345
57
  9
$INTERFEREVPVS
346
58
  9
$CSHADOW
280
     0
  9
$SHADOWPLANELOCATION
 40
0.0
  0
ENDSEC
  0
SECTION
  2
CLASSES
  0
CLASS
  1
ACDBDICTIONARYWDFLT
  2
AcDbDictionaryWithDefault
  3
ObjectDBX Classes
 90
        0
 91
        1
280
     0
281
     0
  0
CLASS
  1
MATERIAL
  2
AcDbMaterial
  3
ObjectDBX Classes
 90
     1153
 91
        3
280
     0
281
     0
  0
CLASS
  1
VISUALSTYLE
  2
AcDbVisualStyle
  3
ObjectDBX Classes
 90
     4095
 91
        3
280
     0
281
     0
  0
CLASS
  1
TABLESTYLE
  2
AcDbTableStyle
  3
ObjectDBX Classes
 90
     4095
 91
        1
280
     0
281
     0
  0
CLASS
  1
SCALE
  2
AcDbScale
  3
ObjectDBX Classes
 90
     1153
 91
       33
280
     0
281
     0
  0
CLASS
  1
MLEADERSTYLE
  2
AcDbMLeaderStyle
  3
ACDB_MLEADERSTYLE_CLASS
 90
     4095
 91
        0
280
     0
281
     0
  0
CLASS
  1
SORTENTSTABLE
  2
AcDbSortentsTable
  3
ObjectDBX Classes
 90
        0
 91
        8
280
     0
281
     0
  0
CLASS
  1
CELLSTYLEMAP
  2
AcDbCellStyleMap
  3
ObjectDBX Classes
 90
     1152
 91
        1
280
     0
281
     0
  0
CLASS
  1
DICTIONARYVAR
  2
AcDbDictionaryVar
  3
ObjectDBX Classes
 90
        0
 91
        6
280
     0
281
     0
  0
CLASS
  1
DIMASSOC
  2
AcDbDimAssoc
  3
"AcDbDimAssoc|Product Desc:     AcDim ARX App For Dimension|Company:          Autodesk, Inc.|WEB Address:      www.autodesk.com"
 90
        0
 91
        0
280
     0
281
     0
  0
CLASS
  1
ACAD_TABLE
  2
AcDbTable
  3
ObjectDBX Classes
 90
     1025
 91
        0
280
     0
281
     1
  0
CLASS
  1
TABLECONTENT
  2
AcDbTableContent
  3
ObjectDBX Classes
 90
     1152
 91
        0
280
     0
281
     0
  0
CLASS
  1
TABLEGEOMETRY
  2
AcDbTableGeometry
  3
ObjectDBX Classes
 90
     1152
 91
        0
280
     0
281
     0
  0
CLASS
  1
PLOTSETTINGS
  2
AcDbPlotSettings
  3
ObjectDBX Classes
 90
        0
 91
        0
280
     0
281
     0
  0
CLASS
  1
SOLID_BACKGROUND
  2
AcDbSolidBackground
  3
SCENEOE
 90
     4095
 91
        0
280
     0
281
     0
  0
CLASS
  1
NPOCOLLECTION
  2
AcDbImpNonPersistentObjectsCollection
  3
ObjectDBX Classes
 90
     1153
 91
        0
280
     0
281
     0
  0
CLASS
  1
ACDBASSOCNETWORK
  2
AcDbAssocNetwork
  3
ObjectDBX Classes
 90
     1025
 91
        0
280
     0
281
     0
  0
CLASS
  1
ACDBASSOC2DCONSTRAINTGROUP
  2
AcDbAssoc2dConstraintGroup
  3
ObjectDBX Classes
 90
     1025
 91
        0
280
     0
281
     0
  0
CLASS
  1
ACDBASSOCGEOMDEPENDENCY
  2
AcDbAssocGeomDependency
  3
ObjectDBX Classes
 90
     1025
 91
        0
280
     0
281
     0
  0
CLASS
  1
ACDB_DYNAMICBLOCKPURGEPREVENTER_VERSION
  2
AcDbDynamicBlockPurgePreventer
  3
ObjectDBX Classes
 90
     1153
 91
        0
280
     0
281
     0
  0
CLASS
  1
AEC_REFEDIT_STATUS_TRACKER
  2
AecDbRefEditStatusTracker
  3
AecArchBase60|Product Desc: Autodesk Architectural Desktop 2007 |Company: Autodesk,Inc. |WEB Address: www.autodesk.com
 90
      129
 91
        0
280
     0
281
     0
  0
ENDSEC
  0
SECTION
  2
TABLES
  0
TABLE
  2
VPORT
  5
2E
102
{ACAD_XDICTIONARY
360
32
102
}
330
0
100
AcDbSymbolTable
 70
     1
  0
VPORT
  5
2F
330
2E
100
AcDbSymbolTableRecord
100
AcDbViewportTableRecord
  2
*Active
 70
     0
 10
0.0
 20
0.0
 11
1.0
 21
1.0
 12
-313.6404012231105
 22
294.4643734525017
 13
0.0
 23
0.0
 14
10.0
 24
10.0
 15
100.0
 25
100.0
 16
0.0
 26
0.0
 36
1.0
 17
0.0
 27
0.0
 37
0.0
 40
854.4942429372515
 41
2.203703703703703
 42
50.0
 43
0.0
 44
0.0
 50
0.0
 51
0.0
 71
     0
 72
  1000
 73
     1
 74
     0
 75
     0
 76
     0
 77
     0
 78
     0
281
     0
 65
     1
110
0.0
120
0.0
130
0.0
111
1.0
121
0.0
131
0.0
112
0.0
122
1.0
132
0.0
 79
     0
146
0.0
348
30
 60
     3
 61
     5
292
     1
282
     1
141
0.0
142
0.0
 63
   250
421
  3355443
  0
ENDTAB
  0
TABLE
  2
LTYPE
  5
29
330
0
100
AcDbSymbolTable
 70
     4
  0
LTYPE
  5
2A
330
29
100
AcDbSymbolTableRecord
100
AcDbLinetypeTableRecord
  2
ByBlock
 70
     0
  3

 72
    65
 73
     0
 40
0.0
  0
LTYPE
  5
2B
330
29
100
AcDbSymbolTableRecord
100
AcDbLinetypeTableRecord
  2
ByLayer
 70
     0
  3

 72
    65
 73
     0
 40
0.0
  0
LTYPE
  5
15
330
29
100
AcDbSymbolTableRecord
100
AcDbLinetypeTableRecord
  2
Continuous
 70
     0
  3
Solid line
 72
    65
 73
     0
 40
0.0
  0
LTYPE
  5
82
330
29
100
AcDbSymbolTableRecord
100
AcDbLinetypeTableRecord
  2
VERDECKT
 70
     0
  3
Verdeckt __ __ __ __ __ __ __ __ __ __ __ __ __
 72
    65
 73
     2
 40
0.375
 49
0.25
 74
     0
 49
-0.125
 74
     0
  0
LTYPE
  5
8B
330
29
100
AcDbSymbolTableRecord
100
AcDbLinetypeTableRecord
  2
STRICHPUNKT
 70
     0
  3
Strichpunkt __ . __ . __ . __ . __ . __ . __ . 
 72
    65
 73
     4
 40
1.0
 49
0.5
 74
     0
 49
-0.25
 74
     0
 49
0.0
 74
     0
 49
-0.25
 74
     0
  0
LTYPE
  5
53
330
29
100
AcDbSymbolTableRecord
100
AcDbLinetypeTableRecord
  2
AUSGEZOGEN
 70
     0
  3
Ausgezogene Linie
 72
    65
 73
     0
 40
0.0
  0
ENDTAB
  0
TABLE
  2
LAYER
  5
20
102
{ACAD_XDICTIONARY
360
21
102
}
330
0
100
AcDbSymbolTable
 70
    13
  0
LAYER
  5
6
102
{ACAD_XDICTIONARY
360
7
102
}
330
20
100
AcDbSymbolTableRecord
100
AcDbLayerTableRecord
  2
0
 70
     0
 62
     7
  6
Continuous
370
    -3
390
9
347
C
  0
LAYER
  5
19D
102
{ACAD_XDICTIONARY
360
19E
102
}
330
20
100
AcDbSymbolTableRecord
100
AcDbLayerTableRecord
  2
01-01
 70
     0
 62
     2
  6
Continuous
370
    -3
390
9
347
C
  0
LAYER
  5
DA
102
{ACAD_XDICTIONARY
360
DB
102
}
330
20
100
AcDbSymbolTableRecord
100
AcDbLayerTableRecord
  2
09-01
 70
     0
 62
     7
  6
Continuous
370
    -3
390
9
347
C
  0
LAYER
  5
E6
330
20
100
AcDbSymbolTableRecord
100
AcDbLayerTableRecord
  2
Defpoints
 70
     0
 62
     7
  6
Continuous
290
     0
370
    -3
390
9
347
C
  0
LAYER
  5
7F
102
{ACAD_XDICTIONARY
360
80
102
}
330
20
100
AcDbSymbolTableRecord
100
AcDbLayerTableRecord
  2
03-01
 70
     0
 62
     3
  6
VERDECKT
370
    -3
390
9
347
C
  0
LAYER
  5
88
102
{ACAD_XDICTIONARY
360
89
102
}
330
20
100
AcDbSymbolTableRecord
100
AcDbLayerTableRecord
  2
05-01
 70
     0
 62
     1
  6
STRICHPUNKT
370
    -3
390
9
347
C
  0
LAYER
  5
216
102
{ACAD_XDICTIONARY
360
217
102
}
330
20
100
AcDbSymbolTableRecord
100
AcDbLayerTableRecord
  2
01-99
 70
     0
 62
     2
  6
Continuous
370
    -3
390
9
347
C
  0
LAYER
  5
253
102
{ACAD_XDICTIONARY
360
254
102
}
330
20
100
AcDbSymbolTableRecord
100
AcDbLayerTableRecord
  2
06-99
 70
     0
 62
     1
  6
AUSGEZOGEN
370
    -3
390
9
347
C
  0
LAYER
  5
21C
102
{ACAD_XDICTIONARY
360
21D
102
}
330
20
100
AcDbSymbolTableRecord
100
AcDbLayerTableRecord
  2
02-99
 70
     0
 62
     1
  6
AUSGEZOGEN
370
    -3
390
9
347
C
  0
LAYER
  5
23D
102
{ACAD_XDICTIONARY
360
23E
102
}
330
20
100
AcDbSymbolTableRecord
100
AcDbLayerTableRecord
  2
08-99
 70
     0
 62
     7
  6
Continuous
370
    -3
390
9
347
C
  0
LAYER
  5
2DF
102
{ACAD_XDICTIONARY
360
2E0
102
}
330
20
100
AcDbSymbolTableRecord
100
AcDbLayerTableRecord
  2
EBENE_1
 70
     0
 62
     7
  6
Continuous
370
    -3
390
9
347
C
  0
LAYER
  5
180
102
{ACAD_XDICTIONARY
360
181
102
}
330
20
100
AcDbSymbolTableRecord
100
AcDbLayerTableRecord
  2
02-01
 70
     0
 62
     1
  6
Continuous
370
    -3
390
9
347
C
  0
LAYER
  5
51
102
{ACAD_XDICTIONARY
360
52
102
}
330
20
100
AcDbSymbolTableRecord
100
AcDbLayerTableRecord
  2
07-99
 70
     0
 62
     6
  6
AUSGEZOGEN
370
    -3
390
9
347
C
  0
ENDTAB
  0
TABLE
  2
STYLE
  5
26
330
0
100
AcDbSymbolTable
 70
     3
  0
STYLE
  5
27
330
26
100
AcDbSymbolTableRecord
100
AcDbTextStyleTableRecord
  2
Standard
 70
     0
 40
0.0
 41
1.0
 50
0.0
 71
     0
 42
5.0
  3
txt
  4

  0
STYLE
  5
240
330
26
100
AcDbSymbolTableRecord
100
AcDbTextStyleTableRecord
  2
ROMANS8
 70
     0
 40
0.0
 41
1.0
 50
0.0
 71
     0
 42
2.5
  3
ROMANS8
  4

  0
STYLE
  5
266
330
26
100
AcDbSymbolTableRecord
100
AcDbTextStyleTableRecord
  2
ROMAND8
 70
     0
 40
0.0
 41
1.0
 50
0.0
 71
     0
 42
3.5
  3
ROMAND8
  4

  0
ENDTAB
  0
TABLE
  2
VIEW
  5
2C
330
0
100
AcDbSymbolTable
 70
     0
  0
ENDTAB
  0
TABLE
  2
UCS
  5
2D
330
0
100
AcDbSymbolTable
 70
     0
  0
ENDTAB
  0
TABLE
  2
APPID
  5
33
330
0
100
AcDbSymbolTable
 70
     5
  0
APPID
  5
25
330
33
100
AcDbSymbolTableRecord
100
AcDbRegAppTableRecord
  2
ACAD
 70
     0
  0
APPID
  5
36
330
33
100
AcDbSymbolTableRecord
100
AcDbRegAppTableRecord
  2
ACAD_DSTYLE_DIMJOGGED_JOGANGLE_SYMBOL
 70
     0
  0
APPID
  5
37
330
33
100
AcDbSymbolTableRecord
100
AcDbRegAppTableRecord
  2
ACAD_DSTYLE_DIMJAG
 70
     0
  0
APPID
  5
38
330
33
100
AcDbSymbolTableRecord
100
AcDbRegAppTableRecord
  2
ACAD_DSTYLE_DIMTALN
 70
     0
  0
APPID
  5
1B
330
33
100
AcDbSymbolTableRecord
100
AcDbRegAppTableRecord
  2
ACAD_PSEXT
 70
     0
  0
ENDTAB
  0
TABLE
  2
DIMSTYLE
  5
34
330
0
100
AcDbSymbolTable
 70
     2
100
AcDbDimStyleTable
 71
     1
340
35
  0
DIMSTYLE
105
35
330
34
100
AcDbSymbolTableRecord
100
AcDbDimStyleTableRecord
  2
Wagner
 70
     0
 41
2.5
 42
1.0
 43
10.0
 44
1.0
 73
     0
 74
     0
 77
     1
 78
     8
 79
     2
140
2.5
141
0.0
143
0.03937007874016
147
1.0
171
     3
172
     1
176
     4
177
     4
178
     1
179
     1
271
     8
272
     8
274
     3
283
     0
284
     8
340
27
1001
ACAD_DSTYLE_DIMJOGGED_JOGANGLE_SYMBOL
1070
   384
1040
0.7853981633974483
1001
ACAD_DSTYLE_DIMJAG
1070
   388
1040
1.5
1001
ACAD_DSTYLE_DIMTALN
1070
   392
1070
     0
  0
DIMSTYLE
105
EA
102
{ACAD_REACTORS
330
F8
330
EB
330
D9
330
2C9
330
2BC
330
296
330
203
330
1F6
102
}
330
34
100
AcDbSymbolTableRecord
100
AcDbDimStyleTableRecord
  2
Wagner$0
 70
     0
 41
2.5
 42
1.0
 43
10.0
 44
1.0
 73
     0
 74
     0
 77
     1
 78
     8
 79
     2
140
2.5
141
0.0
143
0.03937007874016
147
1.0
171
     3
172
     1
174
     1
176
     4
177
     4
178
     1
179
     1
271
     8
272
     8
274
     3
279
     2
283
     0
284
     8
340
27
1001
ACAD_DSTYLE_DIMJOGGED_JOGANGLE_SYMBOL
1070
   384
1040
0.7853981633974483
1001
ACAD_DSTYLE_DIMJAG
1070
   388
1040
1.5
1001
ACAD_DSTYLE_DIMTALN
1070
   392
1070
     0
  0
ENDTAB
  0
TABLE
  2
BLOCK_RECORD
  5
1
330
0
100
AcDbSymbolTable
 70
    12
  0
BLOCK_RECORD
  5
2
102
{ACAD_XDICTIONARY
360
3
102
}
330
1
100
AcDbSymbolTableRecord
100
AcDbBlockTableRecord
  2
*Model_Space
340
17
 70
     0
280
     1
281
     0
  0
BLOCK_RECORD
  5
1C
330
1
100
AcDbSymbolTableRecord
100
AcDbBlockTableRecord
  2
*Paper_Space
340
1F
 70
     0
280
     1
281
     0
  0
BLOCK_RECORD
  5
211
102
{ACAD_XDICTIONARY
360
212
102
}
330
1
100
AcDbSymbolTableRecord
100
AcDbBlockTableRecord
  2
DIN A4
340
0
102
{BLKREFS
331
210
102
}
 70
     4
280
     1
281
     0
  0
BLOCK_RECORD
  5
133
330
1
100
AcDbSymbolTableRecord
100
AcDbBlockTableRecord
  2
Sensor-Betätigungsmodul
340
0
310
2800000020000000200000000100080000000000000400000000000000000000000000000000000000000000000080000080000000808000800000008000800080800000C0C0C000C0DCC000F0CAA6000020400000206000002080000020A0000020C0000020E00000400000004020000040400000406000004080000040A0
310
000040C0000040E00000600000006020000060400000606000006080000060A0000060C0000060E00000800000008020000080400000806000008080000080A0000080C0000080E00000A0000000A0200000A0400000A0600000A0800000A0A00000A0C00000A0E00000C0000000C0200000C0400000C0600000C0800000C0
310
A00000C0C00000C0E00000E0000000E0200000E0400000E0600000E0800000E0A00000E0C00000E0E00040000000400020004000400040006000400080004000A0004000C0004000E00040200000402020004020400040206000402080004020A0004020C0004020E000404000004040200040404000404060004040800040
310
40A0004040C0004040E00040600000406020004060400040606000406080004060A0004060C0004060E00040800000408020004080400040806000408080004080A0004080C0004080E00040A0000040A0200040A0400040A0600040A0800040A0A00040A0C00040A0E00040C0000040C0200040C0400040C0600040C08000
310
40C0A00040C0C00040C0E00040E0000040E0200040E0400040E0600040E0800040E0A00040E0C00040E0E00080000000800020008000400080006000800080008000A0008000C0008000E00080200000802020008020400080206000802080008020A0008020C0008020E00080400000804020008040400080406000804080
310
008040A0008040C0008040E00080600000806020008060400080606000806080008060A0008060C0008060E00080800000808020008080400080806000808080008080A0008080C0008080E00080A0000080A0200080A0400080A0600080A0800080A0A00080A0C00080A0E00080C0000080C0200080C0400080C0600080C0
310
800080C0A00080C0C00080C0E00080E0000080E0200080E0400080E0600080E0800080E0A00080E0C00080E0E000C0000000C0002000C0004000C0006000C0008000C000A000C000C000C000E000C0200000C0202000C0204000C0206000C0208000C020A000C020C000C020E000C0400000C0402000C0404000C0406000C0
310
408000C040A000C040C000C040E000C0600000C0602000C0604000C0606000C0608000C060A000C060C000C060E000C0800000C0802000C0804000C0806000C0808000C080A000C080C000C080E000C0A00000C0A02000C0A04000C0A06000C0A08000C0A0A000C0A0C000C0A0E000C0C00000C0C02000C0C04000C0C06000
310
C0C08000C0C0A000F0FBFF00A4A0A000808080000000FF0000FF000000FFFF00FF000000FF00FF00FFFF0000FFFFFF000000000000000000000000000000000000000000000000000000000000000000000000000000000000000000000000000000FFFF0000000000000000000000000000000000000000000000FAFFFFFF
310
FFFFFFFF00FFFF000000000000000000000000000000000000000000FF000000FFFF0000FF00FF0000000000000000000000000000000000000000FFFA0000000000FF0000FF0000000000000000000000000000000000000000FFFFFA000000000000FFFFFAFAFF000000000000000000000000000000000000FFFFFA0000
310
00F900000000FFFAFF000000000000000000000000000000000000FFFFFA0000F9F9F9000000FFFAFF000000000000000000000000000000000000FFFFFA000000F900000000FFFAFF000000000000000000000000000000000000FFFFFA0000000000000000FFFAFF000000000000000000000000000000000000FFFFFA00
310
00000000000000FFFAFF00000000000000000000000000000000000000FFFA0000000000000000FFFAFF00000000000000000000000000000000000000FF000000000000000000FFFAFF00000000000000000000000000000000000000FF000000000000000000FFFAFF00000000000000000000000000000000000000FF00
310
0000000000000000FFFAFF00000000000000000000000000000000000000FF000000000000000000FFFAFF00000000000000000000000000000000000000FF000000000000000000FFFAFF00000000000000000000000000000000000000FF000000000000000000FF000000000000000000000000000000000000000000FF
310
000000000000000000FF000000000000000000000000000000000000000000FF000000000000000000FF000000000000000000000000000000000000000000FF000000000000000000FF0000000000000000000000000000000000000000FFFF000000000000000000FF0000000000000000000000000000000000000000FF
310
FF00000000F9000000FFFF0000000000000000000000000000000000000000FFFF000000F9F9F90000FF000000000000000000000000000000000000000000FFFF00000000F90000FFFF000000000000000000000000000000000000000000FFFF00000000000000FFFF000000000000000000000000000000000000000000
310
FFFF000000000000FFFF0000000000000000000000000000000000000000000000FF00FAFAFAFA00FFFF0000000000000000000000000000000000000000000000FFFFFAFFFFFAFFFF00000000000000000000000000000000000000000000000000FFFAFAFAFA00FF00000000000000000000000000000000000000000000
310
000000FFFFFFFFFFFF0000000000000000000000000000000000000000000000000000000000000000000000000000000000000000000000
102
{BLKREFS
331
132
102
}
 70
     4
280
     1
281
     0
  0
BLOCK_RECORD
  5
17B
102
{ACAD_XDICTIONARY
360
17C
102
}
330
1
100
AcDbSymbolTableRecord
100
AcDbBlockTableRecord
  2
desipumpe_emodul_sa
340
0
102
{BLKREFS
331
17A
102
}
 70
     0
280
     1
281
     0
  0
BLOCK_RECORD
  5
B5
102
{ACAD_XDICTIONARY
360
B6
102
}
330
1
100
AcDbSymbolTableRecord
100
AcDbBlockTableRecord
  2
e-modul vorderansicht
340
0
102
{BLKREFS
331
B4
102
}
 70
     0
280
     1
281
     0
  0
BLOCK_RECORD
  5
F9
330
1
100
AcDbSymbolTableRecord
100
AcDbBlockTableRecord
  2
*D4
340
0
 70
     0
280
     1
281
     0
  0
BLOCK_RECORD
  5
EC
330
1
100
AcDbSymbolTableRecord
100
AcDbBlockTableRecord
  2
*D5
340
0
 70
     0
280
     1
281
     0
  0
BLOCK_RECORD
  5
DD
330
1
100
AcDbSymbolTableRecord
100
AcDbBlockTableRecord
  2
*D6
340
0
 70
     0
280
     1
281
     0
  0
BLOCK_RECORD
  5
2CA
330
1
100
AcDbSymbolTableRecord
100
AcDbBlockTableRecord
  2
*D7
340
0
 70
     0
280
     1
281
     0
  0
BLOCK_RECORD
  5
2BD
330
1
100
AcDbSymbolTableRecord
100
AcDbBlockTableRecord
  2
*D8
340
0
 70
     0
280
     1
281
     0
  0
BLOCK_RECORD
  5
297
330
1
100
AcDbSymbolTableRecord
100
AcDbBlockTableRecord
  2
*D9
340
0
 70
     0
280
     1
281
     0
  0
BLOCK_RECORD
  5
204
330
1
100
AcDbSymbolTableRecord
100
AcDbBlockTableRecord
  2
*D10
340
0
 70
     0
280
     1
281
     0
  0
BLOCK_RECORD
  5
1F7
330
1
100
AcDbSymbolTableRecord
100
AcDbBlockTableRecord
  2
*D11
340
0
 70
     0
280
     1
281
     0
  0
ENDTAB
  0
ENDSEC
  0
SECTION
  2
BLOCKS
  0
BLOCK
  5
5
330
2
100
AcDbEntity
  8
0
100
AcDbBlockBegin
  2
*Model_Space
 70
     0
 10
0.0
 20
0.0
 30
0.0
  3
*Model_Space
  1

  0
ENDBLK
  5
16
330
2
100
AcDbEntity
  8
0
100
AcDbBlockEnd
  0
BLOCK
  5
1D
330
1C
100
AcDbEntity
 67
     1
  8
0
100
AcDbBlockBegin
  2
*Paper_Space
 70
     0
 10
0.0
 20
0.0
 30
0.0
  3
*Paper_Space
  1

  0
ENDBLK
  5
1E
330
1C
100
AcDbEntity
 67
     1
  8
0
100
AcDbBlockEnd
  0
BLOCK
  5
214
330
211
100
AcDbEntity
  8
0
100
AcDbBlockBegin
  2
DIN A4
 70
     2
 10
0.0
 20
0.0
 30
0.0
  3
DIN A4
  1

  0
LINE
  5
215
330
211
100
AcDbEntity
  8
01-99
100
AcDbLine
 10
204.0000075739527
 20
290.9999979434973
 30
0.0
 11
20.0000075739529
 21
290.9999979434973
 31
0.0
  0
LINE
  5
219
330
211
100
AcDbEntity
  8
01-99
100
AcDbLine
 10
204.0000075122353
 20
290.9999979871026
 30
0.0
 11
204.0000075122355
 21
5.999997987102574
 31
0.0
  0
LINE
  5
21A
330
211
100
AcDbEntity
  8
01-99
100
AcDbLine
 10
20.0000075122355
 20
5.99999798710246
 30
0.0
 11
20.0000075122355
 21
290.9999979871026
 31
0.0
  0
LWPOLYLINE
  5
21B
330
211
100
AcDbEntity
  8
02-99
100
AcDbPolyline
 90
        4
 70
     1
 43
0.0
 10
0.0000075122354986
 20
-0.0000020128974256
 10
210.0000075122355
 20
-0.0000020128974256
 10
210.0000075122355
 20
296.9999979871026
 10
0.0000075122354986
 20
296.9999979871026
  0
LINE
  5
21F
330
211
100
AcDbEntity
  8
01-99
100
AcDbLine
 10
20.0000075122355
 20
5.99999798710246
 30
0.0
 11
204.0000075122355
 21
5.999997987102631
 31
0.0
  0
LINE
  5
220
330
211
100
AcDbEntity
  8
01-99
100
AcDbLine
 10
70.0000075122355
 20
11.11110909810247
 30
0.0
 11
20.0000075122355
 21
11.11110909810247
 31
0.0
  0
LINE
  5
221
330
211
100
AcDbEntity
  8
01-99
100
AcDbLine
 10
70.0000075122355
 20
16.22222020910249
 30
0.0
 11
20.0000075122355
 21
16.22222020910249
 31
0.0
  0
LINE
  5
222
330
211
100
AcDbEntity
  8
01-99
100
AcDbLine
 10
70.0000075122355
 20
21.3333313201025
 30
0.0
 11
20.0000075122355
 21
21.33333132010244
 31
0.0
  0
LINE
  5
223
330
211
100
AcDbEntity
  8
01-99
100
AcDbLine
 10
115.0000075122355
 20
26.44444243110252
 30
0.0
 11
20.0000075122355
 21
26.44444243110246
 31
0.0
  0
LINE
  5
224
330
211
100
AcDbEntity
  8
01-99
100
AcDbLine
 10
115.0000075122355
 20
31.55555354210253
 30
0.0
 11
20.0000075122355
 21
31.55555354210247
 31
0.0
  0
LINE
  5
225
330
211
100
AcDbEntity
  8
01-99
100
AcDbLine
 10
45.0000075122355
 20
5.99999798710246
 30
0.0
 11
45.0000075122355
 21
11.11110909810247
 31
0.0
  0
LINE
  5
226
330
211
100
AcDbEntity
  8
01-99
100
AcDbLine
 10
28.0000075122355
 20
11.11110909810247
 30
0.0
 11
28.0000075122355
 21
36.66666465376915
 31
0.0
  0
LINE
  5
227
330
211
100
AcDbEntity
  8
01-99
100
AcDbLine
 10
70.0000075122355
 20
5.99999798710246
 30
0.0
 11
70.0000075122355
 21
51.99999798710246
 31
0.0
  0
LINE
  5
228
330
211
100
AcDbEntity
  8
01-99
100
AcDbLine
 10
115.0000075122355
 20
5.99999798710246
 30
0.0
 11
115.0000075122355
 21
51.99999798710246
 31
0.0
  0
LINE
  5
229
330
211
100
AcDbEntity
  8
01-99
100
AcDbLine
 10
144.5000075122355
 20
5.99999798710246
 30
0.0
 11
144.5000075122355
 21
16.22222020910254
 31
0.0
  0
LINE
  5
22A
330
211
100
AcDbEntity
  8
01-99
100
AcDbLine
 10
177.0000075122355
 20
5.99999798710246
 30
0.0
 11
177.0000075122355
 21
16.2222202091026
 31
0.0
  0
LINE
  5
22B
330
211
100
AcDbEntity
  8
01-99
100
AcDbLine
 10
148.5000075122355
 20
36.6666646537692
 30
0.0
 11
148.5000075122355
 21
51.99999798710257
 31
0.0
  0
LINE
  5
22C
330
211
100
AcDbEntity
  8
01-99
100
AcDbLine
 10
182.0000075122355
 20
36.6666646537692
 30
0.0
 11
182.0000075122355
 21
51.99999798710257
 31
0.0
  0
LINE
  5
22D
330
211
100
AcDbEntity
  8
01-99
100
AcDbLine
 10
78.00000751223549
 20
21.33333132043583
 30
0.0
 11
78.00000751223549
 21
36.6666646537692
 31
0.0
  0
LINE
  5
22E
330
211
100
AcDbEntity
  8
01-99
100
AcDbLine
 10
60.00319585166497
 20
11.11110909810247
 30
0.0
 11
60.00319585166497
 21
36.66666465376915
 31
0.0
  0
LINE
  5
22F
330
211
100
AcDbEntity
  8
01-99
100
AcDbLine
 10
48.00319585166497
 20
11.11110909810247
 30
0.0
 11
48.00319585166497
 21
36.66666465376915
 31
0.0
  0
LINE
  5
230
330
211
100
AcDbEntity
  8
01-99
100
AcDbLine
 10
204.0000075122355
 20
51.99999798710257
 30
0.0
 11
20.00000751223368
 21
51.99999798710246
 31
0.0
  0
LINE
  5
231
330
211
100
AcDbEntity
  8
01-99
100
AcDbLine
 10
115.0000075122355
 20
21.33333132043583
 30
0.0
 11
70.0000075122355
 21
21.33333132043583
 31
0.0
  0
LINE
  5
232
330
211
100
AcDbEntity
  8
01-99
100
AcDbLine
 10
115.0000075122355
 20
36.6666646537692
 30
0.0
 11
20.0000075122355
 21
36.66666465376909
 31
0.0
  0
LINE
  5
233
330
211
100
AcDbEntity
  8
01-99
100
AcDbLine
 10
92.0000075122355
 20
21.33333132043583
 30
0.0
 11
92.0000075122355
 21
51.99999798710251
 31
0.0
  0
LINE
  5
234
330
211
100
AcDbEntity
  8
01-99
100
AcDbLine
 10
70.0000075122355
 20
36.66666465376915
 30
0.0
 11
78.00000751223549
 21
31.55555355376919
 31
0.0
  0
LINE
  5
235
330
211
100
AcDbEntity
  8
01-99
100
AcDbLine
 10
70.0000075122355
 20
31.55555355376919
 30
0.0
 11
78.00000751223549
 21
36.6666646537692
 31
0.0
  0
LINE
  5
236
330
211
100
AcDbEntity
  8
01-99
100
AcDbLine
 10
204.0000075122355
 20
44.33333132043583
 30
0.0
 11
115.0000075122355
 21
44.33333132043578
 31
0.0
  0
LINE
  5
237
330
211
100
AcDbEntity
  8
01-99
100
AcDbLine
 10
115.0000075122355
 20
16.22222020910249
 30
0.0
 11
204.0000075122355
 21
16.2222202091026
 31
0.0
  0
LINE
  5
238
330
211
100
AcDbEntity
  8
01-99
100
AcDbLine
 10
115.0000075122355
 20
36.6666646537692
 30
0.0
 11
204.0000075122355
 21
36.66666465376926
 31
0.0
  0
LINE
  5
239
330
211
100
AcDbEntity
  8
01-99
100
AcDbLine
 10
92.0000075122355
 20
41.77777576510249
 30
0.0
 11
70.0000075122355
 21
41.77777576510249
 31
0.0
  0
LINE
  5
23A
330
211
100
AcDbEntity
  8
01-99
100
AcDbLine
 10
92.0000075122355
 20
46.8888868761025
 30
0.0
 11
70.0000075122355
 21
46.88888687610244
 31
0.0
  0
LINE
  5
23B
330
211
100
AcDbEntity
  8
01-99
100
AcDbLine
 10
20.00000751223368
 20
51.99999798710246
 30
0.0
 11
20.00000751223368
 21
5.99999798710246
 31
0.0
  0
TEXT
  5
23C
330
211
100
AcDbEntity
  8
08-99
100
AcDbText
 10
116.4997086805418
 20
32.66987169496042
 30
0.0
 40
2.5
  1
Benennung/Teil:
 51
15.0
  7
ROMANS8
100
AcDbText
  0
TEXT
  5
241
330
211
100
AcDbEntity
  8
08-99
100
AcDbText
 10
178.5028349598029
 20
12.01760068133313
 30
0.0
 40
2.7
  1
Ident-Nr.
 51
15.0
  7
ROMANS8
100
AcDbText
  0
TEXT
  5
242
330
211
100
AcDbEntity
  8
08-99
100
AcDbText
 10
93.50002924540357
 20
33.0555749488849
 30
0.0
 40
2.5
  1
Name:
 51
15.0
  7
ROMANS8
100
AcDbText
  0
TEXT
  5
243
330
211
100
AcDbEntity
  8
08-99
100
AcDbText
 10
79.50777665478042
 20
33.04841594810694
 30
0.0
 40
2.5
  1
Datum:
 50
0.102528160689452
 41
0.8933771909280748
 51
15.0
  7
ROMANS8
 72
     5
 11
90.67497366186243
 21
33.06839915456692
 31
0.0
100
AcDbText
  0
TEXT
  5
244
330
211
100
AcDbEntity
  8
08-99
100
AcDbText
 10
29.50001559397086
 20
33.05597508608236
 30
0.0
 40
1.6
  1
Änderung:
 51
15.0
  7
ROMANS8
100
AcDbText
  0
TEXT
  5
245
330
211
100
AcDbEntity
  8
08-99
100
AcDbText
 10
46.49994558798837
 20
9.111117286264914
 30
0.0
 40
1.0
  1
ERSETZT.DURCH:
 51
15.0
  7
ROMANS8
100
AcDbText
  0
TEXT
  5
246
330
211
100
AcDbEntity
  8
08-99
100
AcDbText
 10
21.49936832790721
 20
9.110852190038713
 30
0.0
 40
1.0
  1
ERSETZT.FÜR:
 51
15.0
  7
ROMANS8
100
AcDbText
  0
TEXT
  5
247
330
211
100
AcDbEntity
  8
08-99
100
AcDbText
 10
145.9909143543897
 20
12.61295485116625
 30
0.0
 40
2.112
  1
AUFTRAGS.NR.:
 51
15.0
  7
ROMANS8
100
AcDbText
  0
TEXT
  5
248
330
211
100
AcDbEntity
  8
08-99
100
AcDbText
 10
116.5034717172479
 20
12.61092664313281
 30
0.0
 40
2.112
  1
Sonder-Nr:
 51
15.0
  7
ROMANS8
100
AcDbText
  0
TEXT
  5
249
330
211
100
AcDbEntity
  8
08-99
100
AcDbText
 10
99.69631500731376
 20
49.92370649414477
 30
0.0
 40
1.349999999999999
  1
Format
 51
15.0
  7
ROMANS8
100
AcDbText
  0
TEXT
  5
24A
330
211
100
AcDbEntity
  8
08-99
100
AcDbText
 10
98.30438725900334
 20
44.6416167802032
 30
0.0
 40
1.822499999999999
  1
Normen
 51
15.0
  7
ROMANS8
100
AcDbText
  0
TEXT
  5
24B
330
211
100
AcDbEntity
  8
08-99
100
AcDbText
 10
21.50003711613706
 20
33.05556582266059
 30
0.0
 40
1.6
  1
Zust.
 51
15.0
  7
ROMANS8
100
AcDbText
  0
TEXT
  5
24C
330
211
100
AcDbEntity
  8
08-99
100
AcDbText
 10
49.50318821340468
 20
33.05555723859902
 30
0.0
 40
1.6
  1
Datum:
 51
15.0
  7
ROMANS8
100
AcDbText
  0
TEXT
  5
24D
330
211
100
AcDbEntity
  8
08-99
100
AcDbText
 10
61.50322112916754
 20
33.05556204504791
 30
0.0
 40
1.6
  1
Name:
 51
15.0
  7
ROMANS8
100
AcDbText
  0
TEXT
  5
24E
330
211
100
AcDbEntity
  8
08-99
100
AcDbText
 10
71.1545619578267
 20
28.03813755505132
 30
0.0
 40
1.6
  1
Erst.
 51
15.0
  7
ROMANS8
100
AcDbText
  0
TEXT
  5
24F
330
211
100
AcDbEntity
  8
08-99
100
AcDbText
 10
70.51718787454618
 20
23.1974490465235
 30
0.0
 40
1.6
  1
Bearb.
 51
15.0
  7
ROMANS8
100
AcDbText
  0
TEXT
  5
250
330
211
100
AcDbEntity
  8
08-99
100
AcDbText
 10
149.4308124240035
 20
41.61949547980938
 30
0.0
 40
2.0
  1
Zuschnittsbreite:
 51
15.0
  7
ROMANS8
100
AcDbText
  0
TEXT
  5
251
330
211
100
AcDbEntity
  8
08-99
100
AcDbText
 10
115.9850022862677
 20
41.73762161521608
 30
0.0
 40
2.0
  1
Zuschnittslänge:
 51
15.0
  7
ROMANS8
100
AcDbText
  0
LWPOLYLINE
  5
252
330
211
100
AcDbEntity
  8
06-99
100
AcDbPolyline
 90
      133
 70
     1
 43
0.010692
 10
93.76754732423549
 20
18.87656283643588
 10
94.00905465623557
 20
19.08724513243589
 10
93.92285931623556
 20
19.22625538843579
 10
93.82427194823552
 20
19.35180441643592
 10
93.71363469623569
 20
19.46393854843592
 10
93.59130396023548
 20
19.56271124443577
 10
93.45762188423558
 20
19.64816170843585
 10
93.31293417623559
 20
19.72033627243581
 10
93.15759367223554
 20
19.77928839643584
 10
92.99194251623569
 20
19.82505728443584
 10
92.81632998023557
 20
19.85768926843593
 10
92.63110533623573
 20
19.87723780843589
 10
92.43661429223564
 20
19.88374210843585
 10
92.27568900023554
 20
19.87767974443585
 10
92.11994932823543
 20
19.85975638843581
 10
91.96972672823566
 20
19.83036051643597
 10
91.82535621623562
 20
19.78988773243583
 10
91.68716924423554
 20
19.73873364043595
 10
91.55549013623559
 20
19.67729028043584
 10
91.43066103623565
 20
19.60594969243584
 10
91.31300626823557
 20
19.52510391643579
 10
91.20285728423553
 20
19.43514499243588
 10
91.10055266423561
 20
19.33647208843587
 10
91.00641316823569
 20
19.22947011643589
 10
90.92077737623563
 20
19.11454180843589
 10
90.84397674023561
 20
18.99207207643587
 10
90.77633914823563
 20
18.86245652443591
 10
90.71819961623559
 20
18.72608719243584
 10
90.66988603223562
 20
18.58336324843583
 10
90.63172984823566
 20
18.43466960443584
 10
90.60406964423547
 20
18.28040542843581
 10
90.5872261802356
 20
18.12095919643588
 10
90.58154160023562
 20
17.95672651243586
 10
90.58715490023557
 20
17.78762184043592
 10
90.60380590823573
 20
17.62428728443586
 10
90.63119524823539
 20
17.46704004043585
 10
90.66902354423545
 20
17.31619374043578
 10
90.71699498423553
 20
17.17206201643586
 10
90.77481375623566
 20
17.03495850043589
 10
90.84218404823563
 20
16.90519326043585
 10
90.91880648423559
 20
16.78308349243582
 10
91.00438525223561
 20
16.66893926443583
 10
91.09862810423559
 20
16.56307777243586
 10
91.2012285362355
 20
16.46580908443587
 10
91.31190142823554
 20
16.37745039643579
 10
91.43034027623562
 20
16.29831177643592
 10
91.55625283223551
 20
16.2287068564359
 10
91.6893397202355
 20
16.16895283243582
 10
91.82930869223552
 20
16.11935977243587
 10
91.9758568082357
 20
16.08024130843591
 10
92.1286953842355
 20
16.05191107243593
 10
92.28751791623555
 20
16.03468269643588
 10
92.45203572023561
 20
16.02886981243591
 10
92.61603318023563
 20
16.03412314843587
 10
92.77336596023557
 20
16.0497619804359
 10
92.92384516823554
 20
16.07559385243587
 10
93.06728191223546
 20
16.11142630843591
 10
93.20349086423565
 20
16.15707045643586
 10
93.33227956823547
 20
16.21233740443585
 10
93.45346269623556
 20
16.27703469643586
 10
93.56684422823562
 20
16.35097700443589
 10
93.67224596423559
 20
16.43397187243585
 10
93.76946832023557
 20
16.52582328043587
 10
93.85832953223555
 20
16.62635302843586
 10
93.93864070823568
 20
16.73535796843583
 10
94.01020939223556
 20
16.85265990043587
 10
94.07284669223557
 20
16.97805924043587
 10
94.12636728023565
 20
17.11137066043579
 10
94.17058226423549
 20
17.25240170443584
 10
94.20529562423556
 20
17.40096348043585
 10
94.23032916023558
 20
17.55686709643589
 10
94.2454868522357
 20
17.71992366043582
 10
94.25057980823547
 20
17.88993715243583
 10
94.25057980823547
 20
17.88993715243583
 10
94.25057980823547
 20
17.94131934043588
 10
92.6164715522356
 20
17.94131934043588
 10
92.6164715522356
 20
17.65354772443584
 10
93.88573312823544
 20
17.65354772443584
 10
93.87499479623548
 20
17.49100437643585
 10
93.84766248023552
 20
17.33635885243586
 10
93.80444185223566
 20
17.19027405643589
 10
93.74603858423554
 20
17.05341645643585
 10
93.67316547623572
 20
16.92644182843588
 10
93.58653176423562
 20
16.81002376843588
 10
93.4868359922356
 20
16.70481448843588
 10
93.37479452423556
 20
16.61148758443585
 10
93.2511130322355
 20
16.53069526843586
 10
93.11649718823563
 20
16.46310757243589
 10
92.9716562282355
 20
16.40938383643583
 10
92.81729938823563
 20
16.37019052843595
 10
92.65413234023563
 20
16.34618698843581
 10
92.48286432023567
 20
16.3380396844359
 10
92.31820395623563
 20
16.34599096843584
 10
92.15990889623553
 20
16.3693743724358
 10
92.00857076423554
 20
16.40748066043585
 10
91.86477762023541
 20
16.45960416043584
 10
91.7291103962356
 20
16.52503563643586
 10
91.60216071623555
 20
16.60306585243592
 10
91.48451307623558
 20
16.69299270043586
 10
91.37675910023554
 20
16.79410338043595
 10
91.27948328423569
 20
16.90569222043587
 10
91.19327012423552
 20
17.02705354843584
 10
91.11871124423558
 20
17.15747456443586
 10
91.05639114023555
 20
17.29625316043587
 10
91.00689787223556
 20
17.44268010043583
 10
90.97081950023541
 20
17.5960425844359
 10
90.94874052023547
 20
17.75564206843597
 10
90.94125255623557
 20
17.92076575243578
 10
90.94763924423572
 20
18.08913980443589
 10
90.96654270023558
 20
18.25115211643583
 10
90.99756375623568
 20
18.40630372843583
 10
91.04030680823555
 20
18.55409924443586
 10
91.09437981623548
 20
18.69404326843585
 10
91.15938361223554
 20
18.82564396843588
 10
91.23492259223556
 20
18.9483988204359
 10
91.32060471623564
 20
19.06181955643586
 10
91.41603081623546
 20
19.16540365243594
 10
91.52081241623548
 20
19.25865927643582
 10
91.63454322023566
 20
19.34108746843589
 10
91.75683831623567
 20
19.41219639643589
 10
91.88729497223542
 20
19.47148710043586
 10
92.02552114823564
 20
19.51846418443586
 10
92.17112480423569
 20
19.55263225243584
 10
92.32370320823568
 20
19.57349947243585
 10
92.48286432023567
 20
19.58056332043588
 10
92.66056892423561
 20
19.57164619243588
 10
92.83032224423564
 20
19.54500885643586
 10
92.99178570023562
 20
19.50081882043588
 10
93.14462071223559
 20
19.43924359243584
 10
93.28848870023561
 20
19.36045780843585
 10
93.42305464823565
 20
19.26462541243592
 10
93.54797997623554
 20
19.15192104043586
 10
93.66292254023566
 20
19.02250863643593
  0
LWPOLYLINE
  5
256
330
211
100
AcDbEntity
  8
06-99
100
AcDbPolyline
 90
       12
 70
     1
 43
0.010692
 10
90.43900298423549
 20
12.25281181243593
 10
92.32227048023563
 20
12.25281181243593
 10
92.46760683623554
 20
13.00767770443588
 10
91.56487771223558
 20
13.00767770443588
 10
91.62106060823546
 20
13.29950515243581
 10
92.41872301223557
 20
13.29950515243581
 10
92.55580870823544
 20
14.01156027643583
 10
91.75814630423545
 20
14.01156027643583
 10
91.80985281623547
 20
14.28005421643581
 10
92.68923417623549
 20
14.28005421643581
 10
92.83455984023559
 20
15.03490585243588
 10
90.97464010823561
 20
15.03490585243588
  0
LWPOLYLINE
  5
257
330
211
100
AcDbEntity
  8
06-99
100
AcDbPolyline
 90
        4
 70
     1
 43
0.010692
 10
76.60861942823558
 20
12.88042508443584
 10
89.06586862823544
 20
12.88042508443584
 10
88.94229049223557
 20
12.25209544843585
 10
76.48504485623553
 20
12.25209544843585
  0
SOLID
  5
258
330
211
100
AcDbEntity
  8
06-99
100
AcDbTrace
 10
76.60861942823558
 20
12.88042508443584
 30
0.0
 11
89.06586862823544
 21
12.88042508443584
 31
0.0
 12
76.48504485623553
 22
12.25209544843585
 32
0.0
 13
88.94229049223557
 23
12.25209544843585
 33
0.0
  0
LWPOLYLINE
  5
259
330
211
100
AcDbEntity
  8
06-99
100
AcDbPolyline
 90
       10
 70
     1
 43
0.010692
 10
82.3458504002356
 20
16.02886981243591
 10
83.32219038023552
 20
19.10266656043586
 10
84.33965535623546
 20
16.02886981243591
 10
85.56780619223562
 20
19.80153132043585
 10
85.22351666423551
 20
19.80153132043585
 10
84.33965535623546
 20
16.89302932843583
 10
83.32219038023552
 20
19.9454100004358
 10
82.3458504002356
 20
16.86733645243589
 10
81.42601764023565
 20
19.80153132043585
 10
81.07658882423564
 20
19.80153132043585
  0
LWPOLYLINE
  5
25A
330
211
100
AcDbEntity
  8
06-99
100
AcDbPolyline
 90
        3
 70
     1
 43
0.010692
 10
87.32442338423565
 20
17.65868344843591
 10
87.97704168023555
 20
19.25683094443582
 10
88.6039706642355
 20
17.65868344843591
  0
LWPOLYLINE
  5
25B
330
211
100
AcDbEntity
  8
06-99
100
AcDbPolyline
 90
        7
 70
     1
 43
0.010692
 10
86.38318880423563
 20
16.12735738843582
 10
86.72320153223555
 20
16.12735738843582
 10
87.21136974023549
 20
17.37092608843585
 10
88.71187076423566
 20
17.37092608843585
 10
89.17949964023549
 20
16.12735738843582
 10
89.54434632023552
 20
16.12735738843582
 10
87.99759883223558
 20
19.9454100004358
  0
LWPOLYLINE
  5
25C
330
211
100
AcDbEntity
  8
06-99
100
AcDbPolyline
 90
        8
 70
     1
 43
0.010692
 10
98.92981243223543
 20
12.25281181243593
 10
100.0043869442354
 20
12.25281181243593
 10
100.1574144122356
 20
12.60301045243585
 10
100.9122803042355
 20
12.60301045243585
 10
100.9343521562355
 20
12.25281181243593
 10
102.0082815842354
 20
12.25281181243593
 10
101.5711569842355
 20
15.03490585243588
 10
100.4583193682355
 20
15.03490585243588
  0
LWPOLYLINE
  5
25D
330
211
100
AcDbEntity
  8
06-99
100
AcDbPolyline
 90
       34
 70
     1
 43
0.010692
 10
96.0434642642356
 20
13.66137589243584
 10
96.07848769223544
 20
13.66137589243584
 10
96.0642316922356
 20
13.48699650043591
 10
96.06380757623552
 20
13.33509882043586
 10
96.06790617623554
 20
13.20222577243589
 10
96.09523849223561
 20
12.25281181243593
 10
96.9668360762354
 20
12.25281181243593
 10
98.31569602823542
 20
15.03490585243588
 10
97.31181345623557
 20
15.03490585243588
 10
96.85792023623552
 20
13.80922843243581
 10
96.80781752423563
 20
13.66872486043581
 10
96.74884758023544
 20
13.48671138043579
 10
96.69003445223545
 20
13.26059696443593
 10
96.66670094423549
 20
13.26059696443593
 10
96.6884270882355
 20
13.45803187243587
 10
96.69298544423558
 20
13.61569254043581
 10
96.69194475623548
 20
13.73531107243588
 10
96.67756045223544
 20
15.03490585243588
 10
95.97329266823548
 20
15.03490585243588
 10
95.45849068823557
 20
13.73531107243588
 10
95.41138886423542
 20
13.61569254043581
 10
95.35523448023562
 20
13.45803187243587
 10
95.30092981223551
 20
13.26059696443593
 10
95.27759630423545
 20
13.26059696443593
 10
95.30585169623558
 20
13.48671138043579
 10
95.31697137623556
 20
13.66872486043581
 10
95.32096662023551
 20
13.80922843243581
 10
95.33903966423546
 20
15.03490585243588
 10
94.33451200823553
 20
15.03490585243588
 10
94.61274279623561
 20
12.25281181243593
 10
95.48433681623547
 20
12.25281181243593
 10
95.87724643223557
 20
13.20222577243589
 10
95.93252050823551
 20
13.33509882043586
 10
95.99058519623557
 20
13.48699650043591
  0
LWPOLYLINE
  5
25E
330
211
100
AcDbEntity
  8
06-99
100
AcDbPolyline
 90
       10
 70
     1
 43
0.010692
 10
100.4520752402354
 20
13.26448172443588
 10
100.5983667482354
 20
13.57965693643587
 10
100.6731180842355
 20
13.74409276843596
 10
100.7541598802355
 20
13.94570824843589
 10
100.8288363722355
 20
14.19056217643595
 10
100.8482958122355
 20
14.19056217643595
 10
100.8286724282354
 20
13.94570824843589
 10
100.8320796122355
 20
13.74409276843596
 10
100.8435129242355
 20
13.57965693643587
 10
100.8684181562356
 20
13.26448172443588
  0
LWPOLYLINE
  5
25F
330
211
100
AcDbEntity
  8
06-99
100
AcDbPolyline
 90
       23
 70
     1
 43
0.010692
 10
103.5867130322356
 20
12.25281181243593
 10
104.5672478402354
 20
12.25281181243593
 10
104.7440436242355
 20
13.17110136043584
 10
105.0536340482356
 20
12.25281181243593
 10
106.1742447482354
 20
12.25281181243593
 10
105.6490750922355
 20
13.38511243243585
 10
105.8084357882355
 20
13.42380678043588
 10
105.9537079922354
 20
13.49881472443587
 10
106.0813562162355
 20
13.60690015243585
 10
106.1878378442354
 20
13.74481626043587
 10
106.2696066962354
 20
13.90931980843584
 10
106.3231201562354
 20
14.09716755643586
 10
106.3446075122355
 20
14.26808986843588
 10
106.3403093282354
 20
14.42329850443593
 10
106.3102362962355
 20
14.56225886443587
 10
106.2543991082354
 20
14.68443278443578
 10
106.1728155842354
 20
14.78928566443591
 10
106.0654999802355
 20
14.87627577643587
 10
105.9324594242355
 20
14.94487208443587
 10
105.7737153002354
 20
14.99453286043592
 10
105.5892711722355
 20
15.02472350443588
 10
105.3791519882354
 20
15.03490585243588
 10
104.1223501562355
 20
15.03490585243588
  0
LWPOLYLINE
  5
260
330
211
100
AcDbEntity
  8
06-99
100
AcDbPolyline
 90
        9
 70
     1
 43
0.010692
 10
104.9650401362355
 20
14.31896240443586
 10
105.1206907082355
 20
14.31896240443586
 10
105.2773605842356
 20
14.28538239643581
 10
105.3582277442354
 20
14.19040892443593
 10
105.3632244722355
 20
14.04269894443587
 10
105.3008722922355
 20
13.89699906043591
 10
105.1832994962355
 20
13.80577848043589
 10
105.0158200082354
 20
13.77421926043581
 10
104.8601694362355
 20
13.77421926043581
  0
LWPOLYLINE
  5
261
330
211
100
AcDbEntity
  8
06-99
100
AcDbPolyline
 90
       12
 70
     1
 43
0.010692
 10
100.5798090002356
 20
16.12735738843582
 10
102.3989066762356
 20
16.12735738843582
 10
102.3989066762356
 20
16.4408218804358
 10
100.9138270802356
 20
16.4408218804358
 10
100.9138270802356
 20
18.02353012843594
 10
102.3989066762356
 20
18.02353012843594
 10
102.3989066762356
 20
18.33699462043592
 10
100.9138270802356
 20
18.33699462043592
 10
100.9138270802356
 20
19.48806682843587
 10
102.3989066762356
 20
19.48806682843587
 10
102.3989066762356
 20
19.80153132043585
 10
100.5798090002356
 20
19.80153132043585
  0
LWPOLYLINE
  5
262
330
211
100
AcDbEntity
  8
06-99
100
AcDbPolyline
 90
        8
 70
     1
 43
0.010692
 10
95.85303261623565
 20
16.12735738843582
 10
96.18705426023556
 20
16.12735738843582
 10
96.18705426023556
 20
19.09753083643585
 10
98.76667389623552
 20
16.01858410843584
 10
98.76667389623552
 20
19.80153132043585
 10
98.4326665082356
 20
19.80153132043585
 10
98.4326665082356
 20
16.88274362443587
 10
95.85303261623565
 20
19.95568144843582
  0
LWPOLYLINE
  5
263
330
211
100
AcDbEntity
  8
06-99
100
AcDbPolyline
 90
       19
 70
     1
 43
0.010692
 10
104.4484312082357
 20
19.5086239804358
 10
104.7824385962356
 20
19.5086239804358
 10
104.9866237202355
 20
19.50030560443588
 10
105.1604542562355
 20
19.47385716043584
 10
105.3049031762356
 20
19.42705471243579
 10
105.4209256322356
 20
19.35767076043584
 10
105.5094874682356
 20
19.26347780443581
 10
105.5715509642355
 20
19.14224834443593
 10
105.6080855282355
 20
18.9917477524358
 10
105.6200498762355
 20
18.80975922043586
 10
105.6074547002355
 20
18.63100680043584
 10
105.5693840522356
 20
18.48585933643585
 10
105.5054245082356
 20
18.37130168443593
 10
105.4151448242355
 20
18.28432582843589
 10
105.2981315762356
 20
18.22192018843589
 10
105.1539570842356
 20
18.18106962043583
 10
104.9821972322354
 20
18.15876967243594
 10
104.7824385962356
 20
18.15200520043589
 10
104.4484312082357
 20
18.15200520043589
  0
LWPOLYLINE
  5
264
330
211
100
AcDbEntity
  8
06-99
100
AcDbPolyline
 90
       29
 70
     1
 43
0.010692
 10
106.3446075122355
 20
16.12735738843582
 10
105.0239637482355
 20
17.87965144843588
 10
105.2123817362357
 20
17.89225018843592
 10
105.3829084442356
 20
17.92941914443582
 10
105.5344069562356
 20
17.99022811243594
 10
105.6657296642355
 20
18.07375401643588
 10
105.7757360882356
 20
18.17905596043584
 10
105.8632821842355
 20
18.30521443243589
 10
105.9272310362355
 20
18.45129210043592
 10
105.9664386002355
 20
18.6163587604359
 10
105.9797608322353
 20
18.79948777243589
 10
105.9699455762357
 20
18.97455145243589
 10
105.9404891162357
 20
19.13261485243589
 10
105.8913629402356
 20
19.27374568843589
 10
105.8225492282356
 20
19.39801167643577
 10
105.7340230322356
 20
19.50548409643591
 10
105.6257594042356
 20
19.59623422843589
 10
105.4977369602356
 20
19.67032622443582
 10
105.3499307522354
 20
19.72783136443587
 10
105.1823193962355
 20
19.76882449243589
 10
104.9948815082355
 20
19.79336619643589
 10
104.7875885762355
 20
19.80153132043585
 10
104.7875885762355
 20
19.80153132043585
 10
104.1144131282356
 20
19.80153132043585
 10
104.1144131282356
 20
16.12735738843582
 10
104.4484312082357
 20
16.12735738843582
 10
104.4484312082357
 20
17.87965144843588
 10
104.6488456202355
 20
17.87965144843588
 10
105.9386465282355
 20
16.12735738843582
  0
TEXT
  5
265
330
211
100
AcDbEntity
  8
06-99
100
AcDbText
 10
85.6083656112951
 20
9.63320697282171
 30
0.0
 40
1.4256
  1
GmbH & Co KG
 41
1.199203187251
 51
15.0
  7
ROMAND8
 72
     5
 11
106.0419656112951
 21
9.63320697282171
 31
0.0
100
AcDbText
  0
TEXT
  5
267
330
211
100
AcDbEntity
  8
06-99
100
AcDbText
 10
85.70982236587898
 20
7.391013700398161
 30
0.0
 40
1.4256
  1
72774 Reutlingen
 50
0.5663244663116128
 41
1.087840993687879
 51
15.0
  7
ROMAND8
 72
     5
 11
105.943422365879
 21
7.59101370039815
 31
0.0
100
AcDbText
  0
TEXT
  5
268
330
211
100
AcDbEntity
  8
08-99
100
AcDbText
 10
73.414125712073
 20
48.45008961754581
 30
0.0
 40
2.25
  1
Zul. Abw.
 51
15.0
  7
ROMANS8
100
AcDbText
  0
TEXT
  5
269
330
211
100
AcDbEntity
  8
08-99
100
AcDbText
 10
123.2099338325191
 20
49.28616214647601
 30
0.0
 40
2.0
  1
Mat. Art.
 51
15.0
  7
ROMANS8
100
AcDbText
  0
TEXT
  5
26A
330
211
100
AcDbEntity
  8
08-99
100
AcDbText
 10
155.4865384826082
 20
49.4043113704472
 30
0.0
 40
2.0
  1
Oberfläche:
 51
15.0
  7
ROMANS8
100
AcDbText
  0
TEXT
  5
26B
330
211
100
AcDbEntity
  8
08-99
100
AcDbText
 10
184.762545350816
 20
41.73764470378046
 30
0.0
 40
2.0
  1
Blech Dicke:
 51
15.0
  7
ROMANS8
100
AcDbText
  0
TEXT
  5
26C
330
211
100
AcDbEntity
  8
08-99
100
AcDbText
 10
187.4380355407932
 20
49.28616214647604
 30
0.0
 40
2.0
  1
Maßstab:
 51
15.0
  7
ROMANS8
100
AcDbText
  0
LINE
  5
26D
330
211
100
AcDbEntity
  8
01-99
100
AcDbLine
 10
115.0000075122355
 20
46.8888868761025
 30
0.0
 11
92.0000075122355
 21
46.8888868761025
 31
0.0
  0
LINE
  5
26E
330
211
100
AcDbEntity
  8
01-99
100
AcDbLine
 10
115.0000075122355
 20
44.33333132043578
 30
0.0
 11
92.0000075122355
 21
44.33333132043578
 31
0.0
  0
LINE
  5
26F
330
211
100
AcDbEntity
  8
01-99
100
AcDbLine
 10
115.0000075122355
 20
40.49999798710246
 30
0.0
 11
92.00000751223544
 21
40.49999798710246
 31
0.0
  0
ATTDEF
  5
270
330
211
100
AcDbEntity
  8
06-99
100
AcDbText
 10
116.4954542514127
 20
26.18783668438471
 30
0.0
 40
4.0
  1

 41
0.9
  7
ROMANS8
100
AcDbAttributeDefinition
280
     0
  3
Benennung/Teil
  2
TEILE
 70
     0
280
     0
  0
ATTDEF
  5
271
330
211
100
AcDbEntity
  8
06-99
100
AcDbText
 10
116.4954542514127
 20
19.29547648609889
 30
0.0
 40
4.0
  1

 41
0.9
  7
ROMANS8
100
AcDbAttributeDefinition
280
     0
  3
Benennung/Teil2
  2
TEILE2
 70
     0
280
     0
  0
ATTDEF
  5
272
330
211
100
AcDbEntity
  8
06-99
100
AcDbText
 10
191.3473937239501
 20
45.33333132043583
 30
0.0
 40
3.375
  1

  7
ROMANS8
100
AcDbAttributeDefinition
280
     0
  3
Maßstab
  2
:
 70
     0
280
     0
  0
ATTDEF
  5
273
330
211
100
AcDbEntity
  8
06-99
100
AcDbText
 10
92.99707531160292
 20
27.44168345513378
 30
0.0
 40
2.5
  1

 41
0.9
  7
ROMANS8
100
AcDbAttributeDefinition
280
     0
  3
Name
  2
NAME
 70
     0
280
     0
  0
ATTDEF
  5
274
330
211
100
AcDbEntity
  8
06-99
100
AcDbText
 10
79.49315396412956
 20
27.46123316121373
 30
0.0
 40
2.5
  1

 50
359.9144597696142
 41
0.9542572414211148
  7
ROMANS8
 72
     5
 11
90.73974463267431
 21
27.44444245376917
 31
0.0
100
AcDbAttributeDefinition
280
     0
  3
Datum
  2
DATUM
 70
     0
280
     0
  0
ATTDEF
  5
275
330
211
100
AcDbEntity
  8
06-99
100
AcDbText
 10
178.5063514793938
 20
7.4928977873912
 30
0.0
 40
2.99376
  1

  7
ROMANS8
100
AcDbAttributeDefinition
280
     0
  3
Ident-Nummer
  2
ID.NR
 70
     0
280
     0
  0
ATTDEF
  5
276
330
211
100
AcDbEntity
  8
06-99
100
AcDbText
 10
116.731273767946
 20
37.66666463154695
 30
0.0
 40
3.0
  1

 41
0.9
  7
ROMANS8
100
AcDbAttributeDefinition
280
     0
  3
Zuschnitts.Länge
  2
LÄNGE
 70
     0
280
     0
  0
ATTDEF
  5
277
330
211
100
AcDbEntity
  8
06-99
100
AcDbText
 10
150.1808124240052
 20
37.67810185754732
 30
0.0
 40
3.0
  1

 41
0.9
  7
ROMANS8
100
AcDbAttributeDefinition
280
     0
  3
Zuschnitts Breite
  2
BREITE
 70
     0
280
     0
  0
ATTDEF
  5
278
330
211
100
AcDbEntity
  8
06-99
100
AcDbText
 10
190.6090996389673
 20
37.66666465376926
 30
0.0
 40
3.09375
  1

  7
ROMANS8
100
AcDbAttributeDefinition
280
     0
  3
Blech.Dicke
  2
1.0
 70
     0
280
     0
  0
ATTDEF
  5
279
330
211
100
AcDbEntity
  8
06-99
100
AcDbText
 10
164.1277931136382
 20
45.33333132043594
 30
0.0
 40
3.0
  1

  7
ROMANS8
 72
     1
 11
164.1277931136382
 21
45.33333132043594
 31
0.0
100
AcDbAttributeDefinition
280
     0
  3
Oberfläche
  2
IV
 70
     0
280
     0
  0
ATTDEF
  5
27A
330
211
100
AcDbEntity
  8
06-99
100
AcDbText
 10
123.2747480483513
 20
45.3333313204358
 30
0.0
 40
3.375
  1
1.4301
  7
ROMANS8
100
AcDbAttributeDefinition
280
     0
  3
Mat.Art
  2
1.4301
 70
     0
280
     0
  0
ATTDEF
  5
27B
330
211
100
AcDbEntity
  8
06-99
100
AcDbText
 10
146.0006413991156
 20
7.504394591457128
 30
0.0
 40
3.168
  1

 41
0.9
  7
ROMANS8
100
AcDbAttributeDefinition
280
     0
  3
Auftrags Nr.
  2
AUFTRAGS.NR.
 70
     0
280
     0
  0
ATTDEF
  5
27C
330
211
100
AcDbEntity
  8
06-99
100
AcDbText
 10
116.5000075122355
 20
7.499997987102517
 30
0.0
 40
3.168
  1

 41
0.9
  7
ROMANS8
100
AcDbAttributeDefinition
280
     0
  3
Sonder-NR,WPS
  2
SONDER-NR
 70
     0
280
     0
  0
ATTDEF
  5
27D
330
211
100
AcDbEntity
  8
06-99
100
AcDbText
 10
46.4997585072438
 20
6.601808056362358
 30
0.0
 40
1.5
  1

 41
0.9
  7
ROMANS8
100
AcDbAttributeDefinition
280
     0
  3
ERSETZT.Durch
  2
ERSETZT.DURCH
 70
     0
280
     0
  0
ATTDEF
  5
27E
330
211
100
AcDbEntity
  8
06-99
100
AcDbText
 10
21.49947529243403
 20
6.597454384974923
 30
0.0
 40
1.5
  1

 41
0.9
  7
ROMANS8
100
AcDbAttributeDefinition
280
     0
  3
ERSETZT.Für
  2
ERSETZT.FÜR
 70
     0
280
     0
  0
ATTDEF
  5
27F
330
211
100
AcDbEntity
  8
06-99
100
AcDbText
 10
99.97308015867309
 20
47.66850912711049
 30
0.0
 40
1.287
  1
DIN A4
  7
ROMANS8
 72
     1
 11
103.2518658729588
 21
47.66850912711049
 31
0.0
100
AcDbAttributeDefinition
280
     0
  3
Format
  2
FORMAT
 70
     0
280
     0
  0
ATTDEF
  5
280
330
211
100
AcDbEntity
  8
06-99
100
AcDbText
 10
95.9874465096418
 20
37.19696532096725
 30
0.0
 40
2.34
  1
DIN 2768
  7
ROMANS8
 72
     1
 11
104.0103036524989
 21
37.19696532096725
 31
0.0
100
AcDbAttributeDefinition
280
     0
  3
Norm / Kanten
  2
NORM2
 70
     0
280
     0
  0
ATTDEF
  5
281
330
211
100
AcDbEntity
  8
06-99
100
AcDbText
 10
92.81173222392748
 20
41.03029865430056
 30
0.0
 40
2.34
  1
DIN 6930-M
  7
ROMANS8
 72
     1
 11
103.5088750810703
 21
41.03029865430056
 31
0.0
100
AcDbAttributeDefinition
280
     0
  3
Norm / Fräsen
  2
NORM1
 70
     0
280
     0
  0
ENDBLK
  5
282
330
211
100
AcDbEntity
  8
0
100
AcDbBlockEnd
  0
BLOCK
  5
134
330
133
100
AcDbEntity
  8
0
100
AcDbBlockBegin
  2
Sensor-Betätigungsmodul
 70
     0
 10
0.0
 20
0.0
 30
0.0
  3
Sensor-Betätigungsmodul
  1

  0
LINE
  5
135
330
133
100
AcDbEntity
  8
0
100
AcDbLine
 10
-0.0000000000003411
 20
8.599999999999795
 30
0.0
 11
0.0
 21
2.5
 31
0.0
  0
LINE
  5
136
330
133
100
AcDbEntity
  8
0
100
AcDbLine
 10
-0.0000000000002274
 20
-20.49999999999994
 30
0.0
 11
-0.0000000000001137
 21
-67.5
 31
0.0
  0
LINE
  5
137
330
133
100
AcDbEntity
  8
03-01
100
AcDbLine
 10
2.79999999999984
 20
-65.39999999999986
 30
0.0
 11
2.79999999999984
 21
-102.7055531081737
 31
0.0
  0
LINE
  5
138
330
133
100
AcDbEntity
  8
0
100
AcDbLine
 10
-0.0000000000001137
 20
-90.5
 30
0.0
 11
-0.0000000000001137
 21
-96.39999999999993
 31
0.0
  0
LINE
  5
139
330
133
100
AcDbEntity
  8
03-01
100
AcDbLine
 10
-1.200000000000159
 20
-0.0000000000000568
 30
0.0
 11
-1.200000000000045
 21
-20.50000000000006
 31
0.0
  0
LINE
  5
13A
330
133
100
AcDbEntity
  8
0
100
AcDbLine
 10
-3.300000000000068
 20
0.5
 30
0.0
 11
-3.300000000000068
 21
-20.50000000000006
 31
0.0
  0
ARC
  5
13B
330
133
100
AcDbEntity
  8
0
100
AcDbCircle
 10
-1.300000000000068
 20
0.5
 30
0.0
 40
2.0
100
AcDbArc
 50
90.0
 51
180.0
  0
LINE
  5
13C
330
133
100
AcDbEntity
  8
0
100
AcDbLine
 10
42.99999999999989
 20
-27.2820219666524
 30
0.0
 11
42.99999999999977
 21
-45.0
 31
0.0
  0
LINE
  5
13D
330
133
100
AcDbEntity
  8
0
100
AcDbLine
 10
42.99999999999966
 20
-93.00000000000006
 30
0.0
 11
42.99999999999977
 21
-96.15658297858965
 31
0.0
  0
LINE
  5
13E
330
133
100
AcDbEntity
  8
0
100
AcDbLine
 10
49.99999999999977
 20
-45.0
 30
0.0
 11
49.99999999999989
 21
-93.00000000000006
 31
0.0
  0
LINE
  5
13F
330
133
100
AcDbEntity
  8
0
100
AcDbLine
 10
31.36940242224194
 20
-104.8999999999999
 30
0.0
 11
8.499999999999886
 21
-104.8999999999999
 31
0.0
  0
LINE
  5
140
330
133
100
AcDbEntity
  8
0
100
AcDbLine
 10
24.17361915066488
 20
14.60000000000013
 30
0.0
 11
5.999999999999658
 21
14.60000000000008
 31
0.0
  0
LINE
  5
141
330
133
100
AcDbEntity
  8
03-01
100
AcDbLine
 10
22.33680957533227
 20
11.60000000000019
 30
0.0
 11
7.836809575332267
 21
11.60000000000013
 31
0.0
  0
LINE
  5
142
330
133
100
AcDbEntity
  8
03-01
100
AcDbLine
 10
22.33680957533227
 20
3.100000000000136
 30
0.0
 11
7.836809575332267
 21
3.100000000000079
 31
0.0
  0
ARC
  5
143
330
133
100
AcDbEntity
  8
0
100
AcDbCircle
 10
5.999999999999658
 20
8.600000000000079
 30
0.0
 40
6.0
100
AcDbArc
 50
90.0
 51
180.0000000000032
  0
LINE
  5
144
330
133
100
AcDbEntity
  8
03-01
100
AcDbLine
 10
2.79999999999984
 20
-65.39999999999986
 30
0.0
 11
-0.0000000000001137
 21
-65.39999999999986
 31
0.0
  0
ARC
  5
145
330
133
100
AcDbEntity
  8
0
100
AcDbCircle
 10
8.499999999999886
 20
-96.39999999999993
 30
0.0
 40
8.5
100
AcDbArc
 50
180.0
 51
270.0
  0
LINE
  5
146
330
133
100
AcDbEntity
  8
0
100
AcDbLine
 10
25.00728896843054
 20
7.5
 30
0.0
 11
2.499999999999886
 21
7.5
 31
0.0
  0
ARC
  5
147
330
133
100
AcDbEntity
  8
0
100
AcDbCircle
 10
25.00728896843054
 20
-1.0
 30
0.0
 40
8.5
100
AcDbArc
 50
20.00000000000065
 51
90.0
  0
LINE
  5
148
330
133
100
AcDbEntity
  8
0
100
AcDbLine
 10
49.99999999999977
 20
-45.0
 30
0.0
 11
42.99999999999977
 21
-45.0
 31
0.0
  0
LINE
  5
149
330
133
100
AcDbEntity
  8
0
100
AcDbLine
 10
49.99999999999989
 20
-93.00000000000006
 30
0.0
 11
42.99999999999966
 21
-93.00000000000006
 31
0.0
  0
LINE
  5
14A
330
133
100
AcDbEntity
  8
03-01
100
AcDbLine
 10
47.49999999999988
 20
-90.50000000000006
 30
0.0
 11
42.99999999999966
 21
-90.50000000000006
 31
0.0
  0
ARC
  5
14B
330
133
100
AcDbEntity
  8
0
100
AcDbCircle
 10
2.499999999999886
 20
5.0
 30
0.0
 40
2.5
100
AcDbArc
 50
90.0
 51
180.0
  0
LINE
  5
14C
330
133
100
AcDbEntity
  8
0
100
AcDbLine
 10
-0.0000000000001137
 20
2.5
 30
0.0
 11
-1.300000000000068
 21
2.5
 31
0.0
  0
LINE
  5
14D
330
133
100
AcDbEntity
  8
03-01
100
AcDbLine
 10
-0.0000000000001137
 20
0.0
 30
0.0
 11
-1.200000000000159
 21
-0.0000000000000568
 31
0.0
  0
LINE
  5
14E
330
133
100
AcDbEntity
  8
0
100
AcDbLine
 10
-0.0000000000001137
 20
-20.5
 30
0.0
 11
-3.300000000000068
 21
-20.50000000000006
 31
0.0
  0
LINE
  5
14F
330
133
100
AcDbEntity
  8
0
100
AcDbLine
 10
-3.300000000000068
 20
-69.5
 30
0.0
 11
-3.300000000000068
 21
-90.50000000000006
 31
0.0
  0
ARC
  5
150
330
133
100
AcDbEntity
  8
0
100
AcDbCircle
 10
-1.300000000000068
 20
-69.5
 30
0.0
 40
2.0
100
AcDbArc
 50
90.0
 51
180.0
  0
LINE
  5
151
330
133
100
AcDbEntity
  8
0
100
AcDbLine
 10
-0.0000000000001137
 20
-67.5
 30
0.0
 11
-1.300000000000068
 21
-67.5
 31
0.0
  0
LINE
  5
152
330
133
100
AcDbEntity
  8
0
100
AcDbLine
 10
-0.0000000000001137
 20
-90.5
 30
0.0
 11
-3.300000000000068
 21
-90.50000000000006
 31
0.0
  0
LINE
  5
153
330
133
100
AcDbEntity
  8
03-01
100
AcDbLine
 10
-1.200000000000159
 20
-70.00000000000006
 30
0.0
 11
-1.200000000000045
 21
-90.50000000000006
 31
0.0
  0
LINE
  5
154
330
133
100
AcDbEntity
  8
03-01
100
AcDbLine
 10
-0.0000000000001137
 20
-70.0
 30
0.0
 11
-1.200000000000159
 21
-70.00000000000006
 31
0.0
  0
LINE
  5
155
330
133
100
AcDbEntity
  8
03-01
100
AcDbLine
 10
48.19999999999982
 20
-45.0
 30
0.0
 11
47.49999999999988
 21
-90.50000000000006
 31
0.0
  0
LINE
  5
156
330
133
100
AcDbEntity
  8
03-01
100
AcDbLine
 10
0.0
 20
2.5
 30
0.0
 11
-0.0000000000002274
 21
-20.49999999999994
 31
0.0
  0
LINE
  5
157
330
133
100
AcDbEntity
  8
03-01
100
AcDbLine
 10
-0.0000000000001137
 20
-67.5
 30
0.0
 11
-0.0000000000001137
 21
-90.5
 31
0.0
  0
LINE
  5
158
330
133
100
AcDbEntity
  8
03-01
100
AcDbLine
 10
42.99999999999977
 20
-45.0
 30
0.0
 11
42.99999999999977
 21
-93.00000000000006
 31
0.0
  0
ARC
  5
159
330
133
100
AcDbEntity
  8
0
100
AcDbCircle
 10
16.7755654402124
 20
-102.3
 30
0.0
 40
1.0
100
AcDbArc
 50
270.0
 51
305.9497089065583
  0
ARC
  5
15A
330
133
100
AcDbEntity
  8
0
100
AcDbCircle
 10
40.5999999999999
 20
-85.02246509265711
 30
0.0
 40
1.000000000000005
100
AcDbArc
 50
305.9497089065583
 51
0.0
  0
LINE
  5
15B
330
133
100
AcDbEntity
  8
0
100
AcDbLine
 10
8.899999999999863
 20
-103.3
 30
0.0
 11
16.7755654402124
 21
-103.3
 31
0.0
  0
ARC
  5
15C
330
133
100
AcDbEntity
  8
0
100
AcDbCircle
 10
8.899999999999863
 20
-95.80000000000001
 30
0.0
 40
7.500000000000014
100
AcDbArc
 50
180.0
 51
270.0
  0
LINE
  5
15D
330
133
100
AcDbEntity
  8
0
100
AcDbLine
 10
1.399999999999863
 20
3.900000000000034
 30
0.0
 11
1.399999999999863
 21
-95.80000000000001
 31
0.0
  0
ARC
  5
15E
330
133
100
AcDbEntity
  8
0
100
AcDbCircle
 10
3.399999999999863
 20
3.900000000000034
 30
0.0
 40
2.0
100
AcDbArc
 50
90.0
 51
180.0
  0
LINE
  5
15F
330
133
100
AcDbEntity
  8
0
100
AcDbLine
 10
24.79999999999995
 20
5.900000000000034
 30
0.0
 11
3.399999999999863
 21
5.900000000000034
 31
0.0
  0
ARC
  5
160
330
133
100
AcDbEntity
  8
0
100
AcDbCircle
 10
24.79999999999995
 20
-1.599999999999965
 30
0.0
 40
7.500000000000028
100
AcDbArc
 50
20.00000000001707
 51
90.0
  0
LINE
  5
161
330
133
100
AcDbEntity
  8
0
100
AcDbLine
 10
41.1030671952758
 20
-24.46377598564897
 30
0.0
 11
31.8476946558942
 21
0.9651510749426392
 31
0.0
  0
LINE
  5
162
330
133
100
AcDbEntity
  8
0
100
AcDbLine
 10
42.41863686437603
 20
-23.98494778499304
 30
0.0
 11
29.81177487538037
 21
10.65212085995415
 31
0.0
  0
ARC
  5
163
330
133
100
AcDbEntity
  8
0
100
AcDbCircle
 10
24.17361915066488
 20
8.600000000000136
 30
0.0
 40
6.0
100
AcDbArc
 50
20.00000000000065
 51
90.0
  0
ARC
  5
164
330
133
100
AcDbEntity
  8
0
100
AcDbCircle
 10
33.3599999999999
 20
-27.2820219666524
 30
0.0
 40
8.23999999999998
100
AcDbArc
 50
0.0
 51
20.00000000001707
  0
ARC
  5
165
330
133
100
AcDbEntity
  8
0
100
AcDbCircle
 10
33.3599999999999
 20
-27.2820219666524
 30
0.0
 40
9.639999999999981
100
AcDbArc
 50
0.0
 51
20.00000000001707
  0
LINE
  5
166
330
133
100
AcDbEntity
  8
0
100
AcDbLine
 10
41.59999999999991
 20
-85.02246509265711
 30
0.0
 11
41.59999999999991
 21
-27.2820219666524
 31
0.0
  0
LINE
  5
167
330
133
100
AcDbEntity
  8
0
100
AcDbLine
 10
17.36264035541512
 20
-103.1095326083237
 30
0.0
 11
41.18707491520285
 21
-85.83199770098081
 31
0.0
  0
CIRCLE
  5
168
330
133
100
AcDbEntity
  8
0
100
AcDbCircle
 10
21.51766465965579
 20
-13.60883232982866
 30
0.0
 40
1.75
  0
CIRCLE
  5
169
330
133
100
AcDbEntity
  8
0
100
AcDbCircle
 10
21.51766465965488
 20
-83.60883232982866
 30
0.0
 40
1.75
  0
LINE
  5
16A
330
133
100
AcDbEntity
  8
05-01
  6
Continuous
100
AcDbLine
 10
21.51766465965579
 20
-16.35883232982866
 30
0.0
 11
21.51766465965579
 21
-10.85883232982866
 31
0.0
  0
LINE
  5
16B
330
133
100
AcDbEntity
  8
05-01
  6
Continuous
100
AcDbLine
 10
18.76766465965579
 20
-13.60883232982866
 30
0.0
 11
24.2676646596558
 21
-13.60883232982866
 31
0.0
  0
LINE
  5
16C
330
133
100
AcDbEntity
  8
05-01
  6
Continuous
100
AcDbLine
 10
21.51766465965488
 20
-86.35883232982866
 30
0.0
 11
21.51766465965488
 21
-80.85883232982865
 31
0.0
  0
LINE
  5
16D
330
133
100
AcDbEntity
  8
05-01
  6
Continuous
100
AcDbLine
 10
18.76766465965488
 20
-83.60883232982866
 30
0.0
 11
24.26766465965489
 21
-83.60883232982866
 31
0.0
  0
ARC
  5
16E
330
133
100
AcDbEntity
  8
03-01
100
AcDbCircle
 10
7.836809575332267
 20
7.350000000000136
 30
0.0
 40
4.25
100
AcDbArc
 50
90.0
 51
270.0
  0
ARC
  5
16F
330
133
100
AcDbEntity
  8
03-01
100
AcDbCircle
 10
22.33680957533227
 20
7.350000000000136
 30
0.0
 40
4.25
100
AcDbArc
 50
270.0
 51
90.0
  0
LINE
  5
170
330
133
100
AcDbEntity
  8
0
100
AcDbLine
 10
34.62971126714365
 20
-107.2924552718343
 30
0.0
 11
45.93049885575431
 21
-105.2998058666647
 31
0.0
  0
ARC
  5
171
330
133
100
AcDbEntity
  8
0
100
AcDbCircle
 10
34.57761641703382
 20
-106.9970130158991
 30
0.0
 40
0.3
100
AcDbArc
 50
215.0
 51
280.0000769541884
  0
LWPOLYLINE
  5
172
330
133
100
AcDbEntity
  8
0
100
AcDbPolyline
 90
        9
 70
     0
 43
0.0
 10
43.52176514692359
 20
-105.7245339446396
 10
43.81734085507446
 20
-105.672439485106
 10
44.10155442781501
 20
-105.6223119788498
 10
44.36348703928047
 20
-105.5761183791489
 10
44.59306550450378
 20
-105.5356468253465
 10
44.78147951192909
 20
-105.5024172358842
 10
44.92147964663558
 20
-105.4777409129471
 10
45.00769404001289
 20
-105.4625417285294
 10
45.03680345840507
 20
-105.4574157290788
  0
LINE
  5
173
330
133
100
AcDbEntity
  8
0
100
AcDbLine
 10
32.51655529494406
 20
-104.5383040885779
 30
0.0
 11
42.14715287270189
 21
-97.79488706716769
 31
0.0
  0
ARC
  5
174
330
133
100
AcDbEntity
  8
0
100
AcDbCircle
 10
40.99999999999977
 20
-96.15658297858971
 30
0.0
 40
2.0
100
AcDbArc
 50
304.9999999999974
 51
0.0
  0
ARC
  5
175
330
133
100
AcDbEntity
  8
0
100
AcDbCircle
 10
31.36940242224194
 20
-102.8999999999999
 30
0.0
 40
2.0
100
AcDbArc
 50
270.0
 51
304.9999999999974
  0
LINE
  5
176
330
133
100
AcDbEntity
  8
0
100
AcDbLine
 10
32.49851813927865
 20
-104.5507869933884
 30
0.0
 11
34.33187080374717
 21
-107.1690859468044
 31
0.0
  0
LINE
  5
177
330
133
100
AcDbEntity
  8
0
100
AcDbLine
 10
41.50925962223914
 20
-98.2415447297147
 30
0.0
 11
46.12414961893114
 21
-104.8322906798243
 31
0.0
  0
ARC
  5
178
330
133
100
AcDbEntity
  8
0
100
AcDbCircle
 10
45.87840400564448
 20
-105.0043636107296
 30
0.0
 40
0.3
100
AcDbArc
 50
280.0000769541884
 51
35.00000000000003
  0
ENDBLK
  5
179
330
133
100
AcDbEntity
  8
0
100
AcDbBlockEnd
  0
BLOCK
  5
17E
330
17B
100
AcDbEntity
  8
0
100
AcDbBlockBegin
  2
desipumpe_emodul_sa
 70
     0
 10
0.0
 20
0.0
 30
0.0
  3
desipumpe_emodul_sa
  1

  0
LINE
  5
17F
330
17B
100
AcDbEntity
  8
02-01
100
AcDbLine
 10
-5.248327739536762
 20
3.650009632110595
 30
0.0
 11
-6.430027914070478
 21
3.650009632110595
 31
0.0
  0
LINE
  5
182
330
17B
100
AcDbEntity
  8
02-01
100
AcDbLine
 10
6.430027914070706
 20
3.650009632110595
 30
0.0
 11
5.312562920153141
 21
3.650009632110595
 31
0.0
  0
LINE
  5
183
330
17B
100
AcDbEntity
  8
02-01
100
AcDbLine
 10
-7.42987560875008
 20
4.632557198360132
 30
0.0
 11
-7.497382350265979
 21
8.500009775161743
 31
0.0
  0
ARC
  5
184
330
17B
100
AcDbEntity
  8
02-01
100
AcDbCircle
 10
-6.430027914070478
 20
4.650009632110595
 30
0.0
 40
1.0
100
AcDbArc
 50
181.0000015651683
 51
270.0
  0
LINE
  5
185
330
17B
100
AcDbEntity
  8
02-01
100
AcDbLine
 10
7.497382350265979
 20
8.500009775161743
 30
0.0
 11
7.429875608750307
 21
4.632557198360132
 31
0.0
  0
ARC
  5
186
330
17B
100
AcDbEntity
  8
02-01
100
AcDbCircle
 10
6.430027914070706
 20
4.650009632110595
 30
0.0
 40
1.0
100
AcDbArc
 50
270.0
 51
358.9999984348317
  0
LINE
  5
187
330
17B
100
AcDbEntity
  8
02-01
100
AcDbLine
 10
5.322081036865711
 20
3.651633858680725
 30
0.0
 11
4.823907278478145
 21
0.8263587951660156
 31
0.0
  0
LINE
  5
188
330
17B
100
AcDbEntity
  8
02-01
100
AcDbLine
 10
-4.823909141123294
 20
0.8263587951660156
 30
0.0
 11
-5.324219353497028
 21
3.663763403892517
 31
0.0
  0
ARC
  5
189
330
17B
100
AcDbEntity
  8
02-01
100
AcDbCircle
 10
3.839099527169082
 20
1.000003814697379
 30
0.0
 40
1.000000000000002
100
AcDbArc
 50
270.0
 51
349.999999999995
  0
ARC
  5
18A
330
17B
100
AcDbEntity
  8
02-01
100
AcDbCircle
 10
-3.839099735185527
 20
1.000003814697379
 30
0.0
 40
1.000000000000002
100
AcDbArc
 50
189.9999999999986
 51
270.0
  0
SPLINE
  5
18B
330
17B
100
AcDbEntity
  8
02-01
100
AcDbSpline
210
0.0
220
0.0
230
1.0
 70
     8
 71
     3
 72
    17
 73
    13
 74
     0
 42
0.0000000001
 43
0.0000000001
 40
0.0
 40
0.0
 40
0.0
 40
0.0
 40
0.0600543499638597
 40
0.1648234495280559
 40
0.2723661016691685
 40
0.3832407533501493
 40
0.4895330601902239
 40
0.5863420781005051
 40
0.6814648365672097
 40
0.7837911670314727
 40
0.8936449548470841
 40
1.0
 40
1.0
 40
1.0
 40
1.0
 10
-5.248327739536762
 20
3.677144646644592
 30
0.0
 10
-5.258854618867644
 20
3.673321900339033
 30
0.0
 10
-5.287746390489928
 20
3.662830100275641
 30
0.0
 10
-4.694444456982864
 20
3.879315889234817
 30
0.0
 10
-3.585124810742854
 20
4.221656364279965
 30
0.0
 10
-2.015985082593715
 20
4.562347790263174
 30
0.0
 10
-0.2361049607654877
 20
4.715266383826815
 30
0.0
 10
1.478322220405289
 20
4.626835714039088
 30
0.0
 10
2.997739763296522
 20
4.365092733475876
 30
0.0
 10
4.255208798731246
 20
4.025054598710767
 30
0.0
 10
5.150242755353701
 20
3.715311837926606
 30
0.0
 10
5.259043076093121
 20
3.673788226582928
 30
0.0
 10
5.312562920153141
 20
3.653362393379211
 30
0.0
  0
LINE
  5
18C
330
17B
100
AcDbEntity
  8
02-01
100
AcDbLine
 10
-3.8390988484025
 20
0.0
 30
0.0
 11
3.8390988484025
 21
0.0
 31
0.0
  0
LINE
  5
18D
330
17B
100
AcDbEntity
  8
03-01
100
AcDbLine
 10
81.29098828954079
 20
235.0349042111381
 30
0.0
 11
81.3445896619396
 21
233.5000038146973
 31
0.0
  0
ARC
  5
18E
330
17B
100
AcDbEntity
  8
03-01
100
AcDbCircle
 10
80.29159749589314
 20
235.0000037588179
 30
0.0
 40
1.0
100
AcDbArc
 50
2.000054786238757
 51
90.0
  0
LINE
  5
18F
330
17B
100
AcDbEntity
  8
03-01
100
AcDbLine
 10
-16.20181229099592
 20
235.0349016921362
 30
0.0
 11
-16.25540970194174
 21
233.5000038146973
 31
0.0
  0
LINE
  5
190
330
17B
100
AcDbEntity
  8
03-01
100
AcDbLine
 10
63.38865442297333
 20
236.0000037588179
 30
0.0
 11
80.29159749589314
 21
236.0000037588179
 31
0.0
  0
LINE
  5
191
330
17B
100
AcDbEntity
  8
03-01
100
AcDbLine
 10
59.30052356041301
 20
236.0000037588179
 30
0.0
 11
-13.19521386176336
 21
236.0000037588179
 31
0.0
  0
SPLINE
  5
192
330
17B
100
AcDbEntity
  8
03-01
100
AcDbSpline
210
0.0
220
0.0
230
1.0
 70
    24
 71
     3
 72
     9
 73
     5
 74
     0
 42
0.0000000001
 43
0.0000000001
 40
0.0
 40
0.0
 40
0.0
 40
0.0
 40
0.5000826474199004
 40
1.0
 40
1.0
 40
1.0
 40
1.0
 10
-13.19521386176336
 20
236.0000037588179
 30
0.0
 10
-13.49304028724964
 20
236.0000037588179
 30
0.0
 10
-14.0885946961514
 20
236.0000037588179
 30
0.0
 10
-14.55315879835723
 20
236.0000037588179
 30
0.0
 10
-14.78540245443571
 20
236.0000037588179
 30
0.0
  0
SPLINE
  5
193
330
17B
100
AcDbEntity
  8
03-01
100
AcDbSpline
210
0.0
220
0.0
230
1.0
 70
    24
 71
     3
 72
     8
 73
     4
 74
     0
 42
0.0000000001
 43
0.0000000001
 40
0.0
 40
0.0
 40
0.0
 40
0.0
 40
0.4052512809765209
 40
0.4052512809765209
 40
0.4052512809765209
 40
0.4052512809765209
 10
-14.78540245443571
 20
236.0000037588179
 30
0.0
 10
-14.93844579943425
 20
236.0000037588179
 30
0.0
 10
-15.09148914443244
 20
236.0000037588179
 30
0.0
 10
-15.20242054602818
 20
236.0000037588179
 30
0.0
  0
LINE
  5
194
330
17B
100
AcDbEntity
  8
03-01
100
AcDbLine
 10
81.04458358138812
 20
222.3444543778896
 30
0.0
 11
79.58839003294179
 21
222.2936033099038
 31
0.0
  0
ARC
  5
195
330
17B
100
AcDbEntity
  8
03-01
100
AcDbCircle
 10
81.03411232514417
 20
222.6442714353455
 30
0.0
 40
0.3000000000000114
100
AcDbArc
 50
271.9999999999906
 51
0.0
  0
LINE
  5
196
330
17B
100
AcDbEntity
  8
03-01
100
AcDbLine
 10
81.33411314338458
 20
222.6442713290453
 30
0.0
 11
81.33411314338458
 21
225.5000034347176
 31
0.0
  0
LINE
  5
197
330
17B
100
AcDbEntity
  8
03-01
100
AcDbLine
 10
79.73458897322439
 20
233.5000038146974
 30
0.0
 11
-16.26541186124075
 21
233.5000038146973
 31
0.0
  0
LINE
  5
198
330
17B
100
AcDbEntity
  8
03-01
100
AcDbLine
 10
78.20972334593546
 20
116.6164278984069
 30
0.0
 11
79.73458897322427
 21
233.5000038146973
 31
0.0
  0
LINE
  5
199
330
17B
100
AcDbEntity
  8
03-01
100
AcDbLine
 10
76.10990203173355
 20
116.6438222121107
 30
0.0
 11
77.63441027222097
 21
233.5000038146973
 31
0.0
  0
ARC
  5
19A
330
17B
100
AcDbEntity
  8
03-01
100
AcDbCircle
 10
73.2101484845607
 20
116.6816501249516
 30
0.0
 40
5.000000000000079
100
AcDbArc
 50
295.3789003297117
 51
359.252560509999
  0
ARC
  5
19B
330
17B
100
AcDbEntity
  8
03-01
100
AcDbCircle
 10
73.2101484845607
 20
116.6816501249516
 30
0.0
 40
2.900000000000078
100
AcDbArc
 50
295.3789003297117
 51
359.252560509999
  0
LINE
  5
19C
330
17B
100
AcDbEntity
  8
01-01
100
AcDbLine
 10
74.75876342505228
 20
111.882209777832
 30
0.0
 11
75.35315956920396
 21
112.1641844511031
 31
0.0
  0
LINE
  5
1A0
330
17B
100
AcDbEntity
  8
03-01
100
AcDbLine
 10
-14.68107570844768
 20
112.4726682901382
 30
0.0
 11
75.90912457082208
 21
112.4726682901382
 31
0.0
  0
LWPOLYLINE
  5
1A1
330
17B
100
AcDbEntity
  8
01-01
100
AcDbPolyline
 90
        4
 70
   128
 43
0.0
 10
71.6885356232525
 20
110.4257479310035
 10
72.70260807126772
 20
110.9068021178245
 10
73.72768875211488
 20
111.3930866122245
 10
74.75876342505228
 20
111.882209777832
  0
LINE
  5
1A2
330
17B
100
AcDbEntity
  8
03-01
100
AcDbLine
 10
49.36485830694448
 20
99.83575344085688
 30
0.0
 11
71.6885356232525
 21
110.4257479310035
 31
0.0
  0
LINE
  5
1A3
330
17B
100
AcDbEntity
  8
03-01
100
AcDbLine
 10
48.4647927713379
 20
101.7330889493037
 30
0.0
 11
74.45674981661841
 21
114.0632565107461
 31
0.0
  0
ARC
  5
1A4
330
17B
100
AcDbEntity
  8
03-01
100
AcDbCircle
 10
51.50787022271538
 20
95.31829101482861
 30
0.0
 40
5.000000000000079
100
AcDbArc
 50
115.3789003297262
 51
142.4760722372708
  0
ARC
  5
1A5
330
17B
100
AcDbEntity
  8
03-01
100
AcDbCircle
 10
51.50787022271538
 20
95.31829101482861
 30
0.0
 40
7.100000000000079
100
AcDbArc
 50
115.3789003297262
 51
142.4760722372708
  0
SPLINE
  5
1A6
330
17B
100
AcDbEntity
  8
03-01
100
AcDbSpline
210
0.0
220
0.0
230
1.0
 70
     8
 71
     3
 72
    10
 73
     6
 74
     0
 42
0.0000000001
 43
0.0000000001
 40
0.0
 40
0.0
 40
0.0
 40
0.0
 40
0.5
 40
0.5
 40
1.0
 40
1.0
 40
1.0
 40
1.0
 10
46.69488601464877
 20
96.67298028285342
 30
0.0
 10
46.78330167759281
 20
96.98710633340926
 30
0.0
 10
46.89961081785895
 20
97.28384690758668
 30
0.0
 10
47.18311063699547
 20
97.84730648250121
 30
0.0
 10
47.351900709554
 20
98.11573806748214
 30
0.0
 10
47.54237501652392
 20
98.36375448853386
 30
0.0
  0
SPLINE
  5
1A7
330
17B
100
AcDbEntity
  8
03-01
100
AcDbSpline
210
0.0
220
0.0
230
1.0
 70
     8
 71
     3
 72
    12
 73
     8
 74
     0
 42
0.0000000001
 43
0.0000000001
 40
0.0
 40
0.0
 40
0.0
 40
0.0
 40
0.4970186212892235
 40
0.4970186212892235
 40
0.9135240146987644
 40
0.9135240146987644
 40
1.0
 40
1.0
 40
1.0
 40
1.0
 10
44.67343264726093
 20
97.24194977542442
 30
0.0
 10
44.79778688950114
 20
97.68375958246593
 30
0.0
 10
44.96288642136448
 20
98.10577493961154
 30
0.0
 10
45.32856974502886
 20
98.83459770868041
 30
0.0
 10
45.52277628327101
 20
99.15567338867806
 30
0.0
 10
45.78402745182074
 20
99.51989080230868
 30
0.0
 10
45.8299491229692
 20
99.58175738371819
 30
0.0
 10
45.87686702992323
 20
99.64284914748981
 30
0.0
  0
LINE
  5
1A8
330
17B
100
AcDbEntity
  8
03-01
100
AcDbLine
 10
-14.4843729212879
 20
97.44653105735791
 30
0.0
 11
46.983408427742
 21
97.44653105735773
 31
0.0
  0
LINE
  5
1A9
330
17B
100
AcDbEntity
  8
03-01
100
AcDbLine
 10
49.02546387165791
 20
54.49999868869776
 30
0.0
 11
51.4254635199905
 21
54.49999868869776
 31
0.0
  0
LINE
  5
1AA
330
17B
100
AcDbEntity
  8
03-01
100
AcDbLine
 10
51.4254635199905
 20
54.49999868869776
 30
0.0
 11
52.12546419352299
 21
8.500009775161686
 31
0.0
  0
LINE
  5
1AB
330
17B
100
AcDbEntity
  8
03-01
100
AcDbLine
 10
53.39574486097859
 20
56.46815331701947
 30
0.0
 11
54.12523266417821
 21
8.530441071112647
 31
0.0
  0
LINE
  5
1AC
330
17B
100
AcDbEntity
  8
03-01
100
AcDbLine
 10
49.02546387165791
 20
8.500009775161686
 30
0.0
 11
49.02546387165791
 21
54.49999868869776
 31
0.0
  0
LINE
  5
1AD
330
17B
100
AcDbEntity
  8
03-01
100
AcDbLine
 10
47.0254638716579
 20
8.500009775161686
 30
0.0
 11
47.0254638716579
 21
54.0000027418136
 31
0.0
  0
ARC
  5
1AE
330
17B
100
AcDbEntity
  8
03-01
100
AcDbCircle
 10
51.50787022271538
 20
95.31829101482861
 30
0.0
 40
5.000000000000039
100
AcDbArc
 50
164.279917781628
 51
179.2499999999976
  0
ARC
  5
1AF
330
17B
100
AcDbEntity
  8
03-01
100
AcDbCircle
 10
51.50787022271538
 20
95.31829101482861
 30
0.0
 40
7.100000000000038
100
AcDbArc
 50
164.279917781628
 51
179.2499999999976
  0
LINE
  5
1B0
330
17B
100
AcDbEntity
  8
03-01
100
AcDbLine
 10
-13.31999991089105
 20
8.500009775161743
 30
0.0
 11
55.37092778831715
 21
8.500009775161686
 31
0.0
  0
LINE
  5
1B1
330
17B
100
AcDbEntity
  8
03-01
100
AcDbLine
 10
-16.26540931670592
 20
233.5000038146973
 30
0.0
 11
-13.31999991089105
 21
8.500009775161743
 31
0.0
  0
LINE
  5
1B2
330
17B
100
AcDbEntity
  8
03-01
100
AcDbLine
 10
-14.16522938942376
 20
233.5000038146972
 30
0.0
 11
-11.22017982275838
 21
8.527497908503733
 31
0.0
  0
LINE
  5
1B3
330
17B
100
AcDbEntity
  8
03-01
100
AcDbLine
 10
45.99928286094035
 20
56.5000027418136
 30
0.0
 11
46.50829825550329
 21
95.38373351097101
 31
0.0
  0
LINE
  5
1B4
330
17B
100
AcDbEntity
  8
03-01
100
AcDbLine
 10
43.95553681429674
 20
60.81099183737894
 30
0.0
 11
44.40847816722748
 21
95.41122163337087
 31
0.0
  0
LINE
  5
1B5
330
17B
100
AcDbEntity
  8
03-01
100
AcDbLine
 10
52.95975413173443
 20
56.5000027418136
 30
0.0
 11
45.99928286094035
 21
56.5000027418136
 31
0.0
  0
ARC
  5
1B6
330
17B
100
AcDbEntity
  8
03-01
100
AcDbCircle
 10
52.95975342543733
 20
53.50000381469732
 30
0.0
 40
3.000000000000047
100
AcDbArc
 50
359.2499999999976
 51
90.0
  0
LINE
  5
1B7
330
17B
100
AcDbEntity
  8
03-01
100
AcDbLine
 10
55.37092778831726
 20
8.500009775161686
 30
0.0
 11
55.959495715797
 21
53.46073210239405
 31
0.0
  0
LINE
  5
1B8
330
17B
100
AcDbEntity
  8
03-01
100
AcDbLine
 10
83.08352436870348
 20
225.9912774898112
 30
0.0
 11
83.21458753198397
 21
233.5000038146973
 31
0.0
  0
LINE
  5
1B9
330
17B
100
AcDbEntity
  8
03-01
100
AcDbLine
 10
83.21458753198397
 20
233.5000038146973
 30
0.0
 11
79.73458897322427
 21
233.5000038146973
 31
0.0
  0
LINE
  5
1BA
330
17B
100
AcDbEntity
  8
03-01
100
AcDbLine
 10
79.63022079743826
 20
225.5000034347176
 30
0.0
 11
82.58359786123049
 21
225.5000034347176
 31
0.0
  0
ARC
  5
1BB
330
17B
100
AcDbEntity
  8
03-01
100
AcDbCircle
 10
82.58359940500804
 20
226.0000038146974
 30
0.0
 40
0.5000000000001137
100
AcDbArc
 50
270.0
 51
358.9999999999852
  0
LINE
  5
1BC
330
17B
100
AcDbEntity
  8
02-01
100
AcDbLine
 10
4.823907278478145
 20
0.8263587951660156
 30
0.0
 11
-4.823909141123294
 21
0.8263587951660156
 31
0.0
  0
LINE
  5
1BD
330
17B
100
AcDbEntity
  8
03-01
100
AcDbLine
 10
32.28897555369787
 20
34.29607200622553
 30
0.0
 11
43.95553681429674
 21
60.81099183737894
 31
0.0
  0
LINE
  5
1BE
330
17B
100
AcDbEntity
  8
03-01
100
AcDbLine
 10
34.57279590633351
 20
30.79607200622553
 30
0.0
 11
44.7825223975812
 21
54.0000027418136
 31
0.0
  0
LINE
  5
1BF
330
17B
100
AcDbEntity
  8
03-01
100
AcDbLine
 10
-11.55096336849419
 20
34.2960720062257
 30
0.0
 11
32.28897555369787
 21
34.29607200622553
 31
0.0
  0
LINE
  5
1C0
330
17B
100
AcDbEntity
  8
03-01
100
AcDbLine
 10
-11.50514588763462
 20
30.79607200622559
 30
0.0
 11
34.57279590633351
 21
30.79607200622553
 31
0.0
  0
LINE
  5
1C1
330
17B
100
AcDbEntity
  8
03-01
100
AcDbLine
 10
-0.749998725950718
 20
0.0
 30
0.0
 11
-0.45000109821558
 21
1.50001049041748
 31
0.0
  0
LINE
  5
1C2
330
17B
100
AcDbEntity
  8
03-01
100
AcDbLine
 10
0.4499992355704308
 20
1.50001049041748
 30
0.0
 11
0.7500005885958672
 21
0.0
 31
0.0
  0
ARC
  5
1C3
330
17B
100
AcDbEntity
  8
03-01
100
AcDbCircle
 10
-15.20242097770597
 20
235.000003758818
 30
0.0
 40
1.0
100
AcDbArc
 50
89.99997526668449
 51
178.0000904930565
  0
LINE
  5
1C4
330
17B
100
AcDbEntity
  8
03-01
100
AcDbLine
 10
61.34458899169317
 20
234.5000038277357
 30
0.0
 11
61.34458899169317
 21
235.0000038277358
 31
0.0
  0
ARC
  5
1C5
330
17B
100
AcDbEntity
  8
03-01
100
AcDbCircle
 10
61.34458899169317
 20
237.5891056809305
 30
0.0
 40
2.589101853194733
100
AcDbArc
 50
217.8622888067927
 51
322.1377111932073
  0
LINE
  5
1C6
330
17B
100
AcDbEntity
  8
03-01
100
AcDbLine
 10
47.0254638716579
 20
54.0000027418136
 30
0.0
 11
44.7825223975812
 21
54.0000027418136
 31
0.0
  0
LINE
  5
1C7
330
17B
100
AcDbEntity
  8
03-01
100
AcDbLine
 10
61.34458899169317
 20
235.0000038277358
 30
0.0
 11
61.34458899169317
 21
234.5000038277358
 31
0.0
  0
LINE
  5
1C8
330
17B
100
AcDbEntity
  8
03-01
100
AcDbLine
 10
61.34458899169317
 20
234.5000038277358
 30
0.0
 11
62.54458893090498
 21
233.5000038146973
 31
0.0
  0
LINE
  5
1C9
330
17B
100
AcDbEntity
  8
03-01
100
AcDbLine
 10
60.34458897865488
 20
233.5000038146974
 30
0.0
 11
58.34458897865466
 21
231.5000038146974
 31
0.0
  0
LINE
  5
1CA
330
17B
100
AcDbEntity
  8
03-01
100
AcDbLine
 10
58.34458897865466
 20
231.5000038146974
 30
0.0
 11
-14.03904797178961
 21
231.5000038146974
 31
0.0
  0
LINE
  5
1CB
330
17B
100
AcDbEntity
  8
03-01
100
AcDbLine
 10
60.34458897865488
 20
233.5000038146974
 30
0.0
 11
61.34458899169317
 21
234.5000038277357
 31
0.0
  0
LINE
  5
1CC
330
17B
100
AcDbEntity
  8
03-01
100
AcDbLine
 10
-14.06522938942385
 20
233.5000038146972
 30
0.0
 11
-14.03904797178961
 21
231.5000038146974
 31
0.0
  0
LINE
  5
1CD
330
17B
100
AcDbEntity
  8
03-01
100
AcDbLine
 10
-0.45000109821558
 20
1.50001049041748
 30
0.0
 11
-0.45000109821558
 21
8.500009775161743
 31
0.0
  0
LINE
  5
1CE
330
17B
100
AcDbEntity
  8
03-01
100
AcDbLine
 10
-0.45000109821558
 20
1.50001049041748
 30
0.0
 11
0.4499992355704308
 21
1.50001049041748
 31
0.0
  0
LINE
  5
1CF
330
17B
100
AcDbEntity
  8
03-01
100
AcDbLine
 10
0.4499992355704308
 20
1.50001049041748
 30
0.0
 11
0.4499992355704308
 21
8.500009775161743
 31
0.0
  0
LINE
  5
1D0
330
17B
100
AcDbEntity
  8
03-01
100
AcDbLine
 10
-7.000289137003619
 20
236.5349059925728
 30
0.0
 11
-7.002117440379379
 21
236.4825540594757
 31
0.0
  0
ARC
  5
1D1
330
17B
100
AcDbEntity
  8
03-01
100
AcDbCircle
 10
-7.501812290995985
 20
236.5000037588179
 30
0.0
 40
0.4999999999999858
100
AcDbArc
 50
270.0
 51
358.0000000000745
  0
ARC
  5
1D2
330
17B
100
AcDbEntity
  8
03-01
100
AcDbCircle
 10
-6.000893932810527
 20
236.5000039488076
 30
0.0
 40
1.0
100
AcDbArc
 50
89.9997441100297
 51
177.999862906136
  0
LINE
  5
1D3
330
17B
100
AcDbEntity
  8
03-01
100
AcDbLine
 10
53.49666455501164
 20
236.5349059925728
 30
0.0
 11
53.4984928583874
 21
236.4825540594757
 31
0.0
  0
ARC
  5
1D4
330
17B
100
AcDbEntity
  8
03-01
100
AcDbCircle
 10
53.99818770900401
 20
236.5000037588179
 30
0.0
 40
0.4999999999999858
100
AcDbArc
 50
181.9999999999255
 51
270.0
  0
ARC
  5
1D5
330
17B
100
AcDbEntity
  8
03-01
100
AcDbCircle
 10
52.49726935081866
 20
236.5000039488076
 30
0.0
 40
1.0
100
AcDbArc
 50
2.000137093863965
 51
90.00025588997031
  0
LINE
  5
1D6
330
17B
100
AcDbEntity
  8
03-01
100
AcDbLine
 10
-6.000889466688022
 20
237.5000039487976
 30
0.0
 11
52.49726488469616
 21
237.5000039487976
 31
0.0
  0
LINE
  5
1D7
330
17B
100
AcDbEntity
  8
02-01
100
AcDbLine
 10
52.95757487675928
 20
50.67228140801302
 30
0.0
 11
55.68847808804571
 21
13.31275596626386
 31
0.0
  0
ARC
  5
1D8
330
17B
100
AcDbEntity
  8
02-01
100
AcDbCircle
 10
54.69113908109926
 20
13.23985256975101
 30
0.0
 40
1.0
100
AcDbArc
 50
274.1807659203193
 51
4.180765920319331
  0
CIRCLE
  5
1D9
330
17B
100
AcDbEntity
  8
02-01
100
AcDbCircle
 10
48.959495715797
 20
50.5000027418136
 30
0.0
 40
1.9
  0
CIRCLE
  5
1DA
330
17B
100
AcDbEntity
  8
02-01
100
AcDbCircle
 10
49.10817755938149
 20
21.03242914456297
 30
0.0
 40
2.5
  0
LINE
  5
1DB
330
17B
100
AcDbEntity
  8
02-01
100
AcDbLine
 10
45.11882153159575
 20
20.74081555851166
 30
0.0
 11
45.71508801858141
 21
12.58372200113541
 31
0.0
  0
ARC
  5
1DC
330
17B
100
AcDbEntity
  8
02-01
100
AcDbCircle
 10
46.71242702552786
 20
12.65662539764827
 30
0.0
 40
1.0
100
AcDbArc
 50
184.1807659203193
 51
274.1807659203193
  0
LINE
  5
1DD
330
17B
100
AcDbEntity
  8
02-01
100
AcDbLine
 10
44.72958730223445
 20
50.31773446990183
 30
0.0
 11
45.11882153159575
 21
20.74081555851166
 31
0.0
  0
ARC
  5
1DE
330
17B
100
AcDbEntity
  8
02-01
100
AcDbCircle
 10
48.84888392912166
 20
50.37194468878505
 30
0.0
 40
4.119653316495944
100
AcDbArc
 50
4.180765920319331
 51
180.7539727630313
  0
LINE
  5
1DF
330
17B
100
AcDbEntity
  8
02-01
100
AcDbLine
 10
46.78533042204072
 20
11.65928639070176
 30
0.0
 11
54.76404247761212
 21
12.2425135628045
 31
0.0
  0
ENDBLK
  5
1E0
330
17B
100
AcDbEntity
  8
0
100
AcDbBlockEnd
  0
BLOCK
  5
B8
330
B5
100
AcDbEntity
  8
0
100
AcDbBlockBegin
  2
e-modul vorderansicht
 70
     0
 10
0.0
 20
0.0
 30
0.0
  3
e-modul vorderansicht
  1

  0
LINE
  5
B9
330
B5
100
AcDbEntity
  8
05-01
100
AcDbLine
 10
149.7474353286316
 20
-181.0605591484591
 30
0.0
 11
149.7474353286316
 21
-220.5605591484601
 31
0.0
  0
LINE
  5
BA
330
B5
100
AcDbEntity
  8
05-01
100
AcDbLine
 10
138.747435328632
 20
-181.0605591484591
 30
0.0
 11
138.7474353286311
 21
-220.5605591484601
 31
0.0
  0
LINE
  5
BB
330
B5
100
AcDbEntity
  8
05-01
100
AcDbLine
 10
184.7474353286311
 20
-101.06055914846
 30
0.0
 11
184.7474353286311
 21
-220.5605591484601
 31
0.0
  0
LINE
  5
BC
330
B5
100
AcDbEntity
  8
05-01
100
AcDbLine
 10
109.2474353286316
 20
-108.5605591484601
 30
0.0
 11
109.2474353286316
 21
-220.5605591484601
 31
0.0
  0
LINE
  5
BD
330
B5
100
AcDbEntity
  8
05-01
100
AcDbLine
 10
109.2474353286316
 20
-183.5605591484601
 30
0.0
 11
109.2474353286316
 21
-206.56055914846
 31
0.0
  0
LINE
  5
BE
330
B5
100
AcDbEntity
  8
05-01
100
AcDbLine
 10
114.8474353286315
 20
-183.5605591484601
 30
0.0
 11
114.8474353286315
 21
-206.56055914846
 31
0.0
  0
LINE
  5
BF
330
B5
100
AcDbEntity
  8
05-01
100
AcDbLine
 10
112.3474353286315
 20
-186.0605591484601
 30
0.0
 11
112.3474353286315
 21
-206.56055914846
 31
0.0
  0
LINE
  5
C0
330
B5
100
AcDbEntity
  8
05-01
100
AcDbLine
 10
109.2474353286316
 20
-220.5605591484601
 30
0.0
 11
184.7474353286311
 21
-220.5605591484601
 31
0.0
  0
LINE
  5
C1
330
B5
100
AcDbEntity
  8
05-01
100
AcDbLine
 10
138.747435328632
 20
-181.0605591484591
 30
0.0
 11
149.7474353286316
 21
-181.0605591484591
 31
0.0
  0
LINE
  5
C2
330
B5
100
AcDbEntity
  8
05-01
100
AcDbLine
 10
109.2474353286316
 20
-108.5605591484601
 30
0.0
 11
184.7474353286311
 21
-108.5605591484601
 31
0.0
  0
LINE
  5
C3
330
B5
100
AcDbEntity
  8
05-01
100
AcDbLine
 10
109.2474353286316
 20
-206.56055914846
 30
0.0
 11
114.8474353286315
 21
-206.56055914846
 31
0.0
  0
LINE
  5
C4
330
B5
100
AcDbEntity
  8
05-01
100
AcDbLine
 10
109.2474353286316
 20
-183.5605591484601
 30
0.0
 11
114.8474353286315
 21
-183.5605591484601
 31
0.0
  0
LINE
  5
C5
330
B5
100
AcDbEntity
  8
05-01
100
AcDbLine
 10
161.8474353286315
 20
-183.5605591484601
 30
0.0
 11
161.8474353286315
 21
-206.56055914846
 31
0.0
  0
LINE
  5
C6
330
B5
100
AcDbEntity
  8
05-01
100
AcDbLine
 10
164.3474353286315
 20
-186.0605591484601
 30
0.0
 11
164.3474353286315
 21
-206.56055914846
 31
0.0
  0
LINE
  5
C7
330
B5
100
AcDbEntity
  8
05-01
100
AcDbLine
 10
166.8474353286315
 20
-206.56055914846
 30
0.0
 11
161.8474353286315
 21
-206.56055914846
 31
0.0
  0
LINE
  5
C8
330
B5
100
AcDbEntity
  8
05-01
100
AcDbLine
 10
164.3474353286315
 20
-186.0605591484601
 30
0.0
 11
161.8474353286315
 21
-186.0605591484601
 31
0.0
  0
LINE
  5
C9
330
B5
100
AcDbEntity
  8
05-01
100
AcDbLine
 10
166.8474353286315
 20
-183.5605591484601
 30
0.0
 11
161.8474353286315
 21
-183.5605591484601
 31
0.0
  0
LINE
  5
CA
330
B5
100
AcDbEntity
  8
05-01
100
AcDbLine
 10
109.2474353286316
 20
-113.5605591484601
 30
0.0
 11
109.2474353286316
 21
-136.5605591484601
 31
0.0
  0
LINE
  5
CB
330
B5
100
AcDbEntity
  8
05-01
100
AcDbLine
 10
114.8474353286315
 20
-113.5605591484601
 30
0.0
 11
114.8474353286315
 21
-136.5605591484601
 31
0.0
  0
LINE
  5
CC
330
B5
100
AcDbEntity
  8
05-01
100
AcDbLine
 10
112.3474353286315
 20
-116.06055914846
 30
0.0
 11
112.3474353286315
 21
-136.5605591484601
 31
0.0
  0
LINE
  5
CD
330
B5
100
AcDbEntity
  8
05-01
100
AcDbLine
 10
109.2474353286316
 20
-136.5605591484601
 30
0.0
 11
114.8474353286315
 21
-136.5605591484601
 31
0.0
  0
LINE
  5
CE
330
B5
100
AcDbEntity
  8
05-01
100
AcDbLine
 10
112.3474353286315
 20
-116.06055914846
 30
0.0
 11
114.8474353286315
 21
-116.06055914846
 31
0.0
  0
LINE
  5
CF
330
B5
100
AcDbEntity
  8
05-01
100
AcDbLine
 10
109.2474353286316
 20
-113.5605591484601
 30
0.0
 11
114.8474353286315
 21
-113.5605591484601
 31
0.0
  0
LINE
  5
D0
330
B5
100
AcDbEntity
  8
05-01
100
AcDbLine
 10
166.8474353286315
 20
-108.5605591484601
 30
0.0
 11
166.8474353286315
 21
-220.5605591484601
 31
0.0
  0
LINE
  5
D1
330
B5
100
AcDbEntity
  8
05-01
100
AcDbLine
 10
161.8474353286315
 20
-113.5605591484601
 30
0.0
 11
161.8474353286315
 21
-136.5605591484601
 31
0.0
  0
LINE
  5
D2
330
B5
100
AcDbEntity
  8
05-01
100
AcDbLine
 10
164.3474353286315
 20
-116.06055914846
 30
0.0
 11
164.3474353286315
 21
-136.5605591484601
 31
0.0
  0
LINE
  5
D3
330
B5
100
AcDbEntity
  8
05-01
100
AcDbLine
 10
166.8474353286315
 20
-136.5605591484601
 30
0.0
 11
161.8474353286315
 21
-136.5605591484601
 31
0.0
  0
LINE
  5
D4
330
B5
100
AcDbEntity
  8
05-01
100
AcDbLine
 10
164.3474353286315
 20
-116.06055914846
 30
0.0
 11
161.8474353286315
 21
-116.06055914846
 31
0.0
  0
LINE
  5
D5
330
B5
100
AcDbEntity
  8
05-01
100
AcDbLine
 10
166.8474353286315
 20
-113.5605591484601
 30
0.0
 11
161.8474353286315
 21
-113.5605591484601
 31
0.0
  0
LINE
  5
D6
330
B5
100
AcDbEntity
  8
05-01
100
AcDbLine
 10
184.7474353286311
 20
-101.06055914846
 30
0.0
 11
181.7474353286311
 21
-101.06055914846
 31
0.0
  0
LINE
  5
D7
330
B5
100
AcDbEntity
  8
05-01
100
AcDbLine
 10
181.7474353286311
 20
-101.06055914846
 30
0.0
 11
181.7474353286311
 21
-108.5605591484601
 31
0.0
  0
ENDBLK
  5
D8
330
B5
100
AcDbEntity
  8
0
100
AcDbBlockEnd
  0
BLOCK
  5
FA
330
F9
100
AcDbEntity
  8
0
100
AcDbBlockBegin
  2
*D4
 70
     1
 10
0.0
 20
0.0
 30
0.0
  3
*D4
  1

  0
LINE
  5
FB
330
F9
100
AcDbEntity
  8
09-01
 62
     4
370
    -2
100
AcDbLine
 10
-400.8552854009613
 20
571.6025228044054
 30
0.0
 11
-413.5031118106344
 21
571.6025228044054
 31
0.0
  0
LINE
  5
FC
330
F9
100
AcDbEntity
  8
09-01
 62
     4
370
    -2
100
AcDbLine
 10
-386.3552854009613
 20
556.594327165716
 30
0.0
 11
-413.5031118106344
 21
556.594327165716
 31
0.0
  0
LINE
  5
FD
330
F9
100
AcDbEntity
  8
09-01
 62
     4
370
    -2
100
AcDbLine
 10
-411.5031118106344
 20
566.6025228044055
 30
0.0
 11
-411.5031118106344
 21
561.5943271657161
 31
0.0
  0
MTEXT
  5
FE
330
F9
100
AcDbEntity
  8
09-01
 62
     1
100
AcDbMText
 10
-416.0559767492427
 20
558.8870816332626
 30
0.0
 40
5.0
 41
0.0
 46
0.0
 71
     5
 72
     1
  1
15
 11
0.0000000000000001
 21
1.0
 31
0.0
 73
     1
 44
1.0
  0
SOLID
  5
FF
330
F9
100
AcDbEntity
  8
09-01
 62
     4
100
AcDbTrace
 10
-412.3364451439677
 20
566.6025228044055
 30
0.0
 11
-410.6697784773011
 21
566.6025228044055
 31
0.0
 12
-411.5031118106344
 22
571.6025228044054
 32
0.0
 13
-411.5031118106344
 23
571.6025228044054
 33
0.0
  0
SOLID
  5
100
330
F9
100
AcDbEntity
  8
09-01
 62
     4
100
AcDbTrace
 10
-412.3364451439677
 20
561.5943271657161
 30
0.0
 11
-410.6697784773011
 21
561.5943271657161
 31
0.0
 12
-411.5031118106344
 22
556.594327165716
 32
0.0
 13
-411.5031118106344
 23
556.594327165716
 33
0.0
  0
POINT
  5
101
330
F9
100
AcDbEntity
  8
Defpoints
 62
     0
100
AcDbPoint
 10
-398.8552854009613
 20
571.6025228044054
 30
0.0
  0
POINT
  5
102
330
F9
100
AcDbEntity
  8
Defpoints
 62
     0
100
AcDbPoint
 10
-384.3552854009613
 20
556.594327165716
 30
0.0
  0
POINT
  5
103
330
F9
100
AcDbEntity
  8
Defpoints
 62
     0
100
AcDbPoint
 10
-411.5031118106344
 20
556.594327165716
 30
0.0
  0
ENDBLK
  5
104
330
F9
100
AcDbEntity
  8
0
100
AcDbBlockEnd
  0
BLOCK
  5
ED
330
EC
100
AcDbEntity
  8
0
100
AcDbBlockBegin
  2
*D5
 70
     1
 10
0.0
 20
0.0
 30
0.0
  3
*D5
  1

  0
LINE
  5
EE
330
EC
100
AcDbEntity
  8
09-01
 62
     4
370
    -2
100
AcDbLine
 10
-386.3552854009613
 20
556.594327165716
 30
0.0
 11
-413.5031118106343
 21
556.594327165716
 31
0.0
  0
LINE
  5
EF
330
EC
100
AcDbEntity
  8
09-01
 62
     4
370
    -2
100
AcDbLine
 10
-364.6552854009624
 20
313.594327165716
 30
0.0
 11
-413.5031118106344
 21
313.5943271657161
 31
0.0
  0
LINE
  5
F0
330
EC
100
AcDbEntity
  8
09-01
 62
     4
370
    -2
100
AcDbLine
 10
-411.5031118106343
 20
551.594327165716
 30
0.0
 11
-411.5031118106344
 21
318.5943271657161
 31
0.0
  0
SOLID
  5
F1
330
EC
100
AcDbEntity
  8
09-01
 62
     4
100
AcDbTrace
 10
-412.3364451439677
 20
551.594327165716
 30
0.0
 11
-410.669778477301
 21
551.594327165716
 31
0.0
 12
-411.5031118106343
 22
556.594327165716
 32
0.0
 13
-411.5031118106343
 23
556.594327165716
 33
0.0
  0
SOLID
  5
F2
330
EC
100
AcDbEntity
  8
09-01
 62
     4
100
AcDbTrace
 10
-412.3364451439677
 20
318.5943271657161
 30
0.0
 11
-410.6697784773011
 21
318.5943271657161
 31
0.0
 12
-411.5031118106344
 22
313.5943271657161
 32
0.0
 13
-411.5031118106344
 23
313.5943271657161
 33
0.0
  0
MTEXT
  5
F3
330
EC
100
AcDbEntity
  8
09-01
 62
     1
100
AcDbMText
 10
-416.0031118106345
 20
435.0943271657159
 30
0.0
 40
5.0
 41
0.0
 46
0.0
 71
     5
 72
     1
  1
243
 11
0.0000000000000001
 21
1.0
 31
0.0
 73
     1
 44
1.0
  0
POINT
  5
F4
330
EC
100
AcDbEntity
  8
Defpoints
 62
     0
100
AcDbPoint
 10
-384.3552854009613
 20
556.594327165716
 30
0.0
  0
POINT
  5
F5
330
EC
100
AcDbEntity
  8
Defpoints
 62
     0
100
AcDbPoint
 10
-362.6552854009624
 20
313.594327165716
 30
0.0
  0
POINT
  5
F6
330
EC
100
AcDbEntity
  8
Defpoints
 62
     0
100
AcDbPoint
 10
-411.5031118106344
 20
313.5943271657161
 30
0.0
  0
ENDBLK
  5
F7
330
EC
100
AcDbEntity
  8
0
100
AcDbBlockEnd
  0
BLOCK
  5
DE
330
DD
100
AcDbEntity
  8
0
100
AcDbBlockBegin
  2
*D6
 70
     1
 10
0.0
 20
0.0
 30
0.0
  3
*D6
  1

  0
LINE
  5
DF
330
DD
100
AcDbEntity
  8
09-01
 62
     4
370
    -2
100
AcDbLine
 10
-364.6552854009624
 20
313.594327165716
 30
0.0
 11
-413.5031118106344
 21
313.5943271657161
 31
0.0
  0
LINE
  5
E0
330
DD
100
AcDbEntity
  8
09-01
 62
     4
370
    -2
100
AcDbLine
 10
-400.8552854009613
 20
274.2025228044049
 30
0.0
 11
-413.5031118106344
 21
274.2025228044049
 31
0.0
  0
LINE
  5
E1
330
DD
100
AcDbEntity
  8
09-01
 62
     4
370
    -2
100
AcDbLine
 10
-411.5031118106344
 20
308.5943271657161
 30
0.0
 11
-411.5031118106344
 21
279.2025228044049
 31
0.0
  0
SOLID
  5
E2
330
DD
100
AcDbEntity
  8
09-01
 62
     4
100
AcDbTrace
 10
-412.3364451439677
 20
308.5943271657161
 30
0.0
 11
-410.6697784773011
 21
308.5943271657161
 31
0.0
 12
-411.5031118106344
 22
313.5943271657161
 32
0.0
 13
-411.5031118106344
 23
313.5943271657161
 33
0.0
  0
SOLID
  5
E3
330
DD
100
AcDbEntity
  8
09-01
 62
     4
100
AcDbTrace
 10
-412.3364451439677
 20
279.2025228044049
 30
0.0
 11
-410.6697784773011
 21
279.2025228044049
 31
0.0
 12
-411.5031118106344
 22
274.2025228044049
 32
0.0
 13
-411.5031118106344
 23
274.2025228044049
 33
0.0
  0
MTEXT
  5
E4
330
DD
100
AcDbEntity
  8
09-01
 62
     1
100
AcDbMText
 10
-416.0031118106345
 20
293.8984249850604
 30
0.0
 40
5.0
 41
0.0
 46
0.0
 71
     5
 72
     1
  1
39.4
 11
0.0000000000000001
 21
1.0
 31
0.0
 73
     1
 44
1.0
  0
POINT
  5
E5
330
DD
100
AcDbEntity
  8
Defpoints
 62
     0
100
AcDbPoint
 10
-362.6552854009624
 20
313.594327165716
 30
0.0
  0
POINT
  5
E7
330
DD
100
AcDbEntity
  8
Defpoints
 62
     0
100
AcDbPoint
 10
-398.8552854009613
 20
274.2025228044049
 30
0.0
  0
POINT
  5
E8
330
DD
100
AcDbEntity
  8
Defpoints
 62
     0
100
AcDbPoint
 10
-411.5031118106344
 20
274.2025228044049
 30
0.0
  0
ENDBLK
  5
E9
330
DD
100
AcDbEntity
  8
0
100
AcDbBlockEnd
  0
BLOCK
  5
2CB
330
2CA
100
AcDbEntity
  8
0
100
AcDbBlockBegin
  2
*D7
 70
     1
 10
0.0
 20
0.0
 30
0.0
  3
*D7
  1

  0
LINE
  5
2CC
330
2CA
100
AcDbEntity
  8
09-01
 62
     4
370
    -2
100
AcDbLine
 10
-112.9381879920813
 20
571.6025228044054
 30
0.0
 11
-97.4964264114887
 21
571.6025228044054
 31
0.0
  0
LINE
  5
2CD
330
2CA
100
AcDbEntity
  8
09-01
 62
     4
370
    -2
100
AcDbLine
 10
-112.9381879920465
 20
292.8905043991417
 30
0.0
 11
-97.49642641148875
 21
292.8905043991417
 31
0.0
  0
LINE
  5
2CE
330
2CA
100
AcDbEntity
  8
09-01
 62
     4
370
    -2
100
AcDbLine
 10
-99.49642641148869
 20
566.6025228044055
 30
0.0
 11
-99.49642641148876
 21
297.8905043991417
 31
0.0
  0
SOLID
  5
2CF
330
2CA
100
AcDbEntity
  8
09-01
 62
     4
100
AcDbTrace
 10
-100.329759744822
 20
566.6025228044055
 30
0.0
 11
-98.66309307815537
 21
566.6025228044055
 31
0.0
 12
-99.49642641148869
 22
571.6025228044054
 32
0.0
 13
-99.49642641148869
 23
571.6025228044054
 33
0.0
  0
SOLID
  5
2D0
330
2CA
100
AcDbEntity
  8
09-01
 62
     4
100
AcDbTrace
 10
-100.3297597448221
 20
297.8905043991417
 30
0.0
 11
-98.66309307815543
 21
297.8905043991417
 31
0.0
 12
-99.49642641148876
 22
292.8905043991417
 32
0.0
 13
-99.49642641148876
 23
292.8905043991417
 33
0.0
  0
MTEXT
  5
2D1
330
2CA
100
AcDbEntity
  8
09-01
 62
     1
100
AcDbMText
 10
-103.9964264114888
 20
432.2465136017735
 30
0.0
 40
5.0
 41
0.0
 46
0.0
 71
     5
 72
     1
  1
278.7
 11
0.0000000000000001
 21
1.0
 31
0.0
 73
     1
 44
1.0
  0
POINT
  5
2D2
330
2CA
100
AcDbEntity
  8
Defpoints
 62
     0
100
AcDbPoint
 10
-114.9381879920813
 20
571.6025228044054
 30
0.0
  0
POINT
  5
2D3
330
2CA
100
AcDbEntity
  8
Defpoints
 62
     0
100
AcDbPoint
 10
-114.9381879920465
 20
292.8905043991417
 30
0.0
  0
POINT
  5
2D4
330
2CA
100
AcDbEntity
  8
Defpoints
 62
     0
100
AcDbPoint
 10
-99.49642641148876
 20
292.8905043991417
 30
0.0
  0
ENDBLK
  5
2D5
330
2CA
100
AcDbEntity
  8
0
100
AcDbBlockEnd
  0
BLOCK
  5
2BE
330
2BD
100
AcDbEntity
  8
0
100
AcDbBlockBegin
  2
*D8
 70
     1
 10
0.0
 20
0.0
 30
0.0
  3
*D8
  1

  0
LINE
  5
2BF
330
2BD
100
AcDbEntity
  8
09-01
 62
     4
370
    -2
100
AcDbLine
 10
-234.2381879920449
 20
271.6025228044054
 30
0.0
 11
-234.2381879920449
 21
248.8004711180292
 31
0.0
  0
LINE
  5
2C0
330
2BD
100
AcDbEntity
  8
09-01
 62
     4
370
    -2
100
AcDbLine
 10
-114.9381879920465
 20
290.8905043991417
 30
0.0
 11
-114.9381879920465
 21
248.8004711180292
 31
0.0
  0
LINE
  5
2C1
330
2BD
100
AcDbEntity
  8
09-01
 62
     4
370
    -2
100
AcDbLine
 10
-229.2381879920449
 20
250.8004711180293
 30
0.0
 11
-119.9381879920465
 21
250.8004711180293
 31
0.0
  0
SOLID
  5
2C2
330
2BD
100
AcDbEntity
  8
09-01
 62
     4
100
AcDbTrace
 10
-229.2381879920449
 20
251.6338044513626
 30
0.0
 11
-229.2381879920449
 21
249.9671377846959
 31
0.0
 12
-234.2381879920449
 22
250.8004711180293
 32
0.0
 13
-234.2381879920449
 23
250.8004711180293
 33
0.0
  0
SOLID
  5
2C3
330
2BD
100
AcDbEntity
  8
09-01
 62
     4
100
AcDbTrace
 10
-119.9381879920465
 20
251.6338044513626
 30
0.0
 11
-119.9381879920465
 21
249.9671377846959
 31
0.0
 12
-114.9381879920465
 22
250.8004711180293
 32
0.0
 13
-114.9381879920465
 23
250.8004711180293
 33
0.0
  0
MTEXT
  5
2C4
330
2BD
100
AcDbEntity
  8
09-01
 62
     1
100
AcDbMText
 10
-174.5881879920457
 20
255.3004711180292
 30
0.0
 40
5.0
 41
0.0
 46
0.0
 71
     5
 72
     1
  1
119.3
 73
     1
 44
1.0
  0
POINT
  5
2C5
330
2BD
100
AcDbEntity
  8
Defpoints
 62
     0
100
AcDbPoint
 10
-234.2381879920449
 20
273.6025228044054
 30
0.0
  0
POINT
  5
2C6
330
2BD
100
AcDbEntity
  8
Defpoints
 62
     0
100
AcDbPoint
 10
-114.9381879920465
 20
292.8905043991417
 30
0.0
  0
POINT
  5
2C7
330
2BD
100
AcDbEntity
  8
Defpoints
 62
     0
100
AcDbPoint
 10
-114.9381879920465
 20
250.8004711180293
 30
0.0
  0
ENDBLK
  5
2C8
330
2BD
100
AcDbEntity
  8
0
100
AcDbBlockEnd
  0
BLOCK
  5
298
330
297
100
AcDbEntity
  8
0
100
AcDbBlockBegin
  2
*D9
 70
     1
 10
0.0
 20
0.0
 30
0.0
  3
*D9
  1

  0
LINE
  5
299
330
297
100
AcDbEntity
  8
09-01
 62
     4
370
    -2
100
AcDbLine
 10
-231.2381879920449
 20
273.6025228044054
 30
0.0
 11
-251.4225839192914
 21
273.6025228044054
 31
0.0
  0
LINE
  5
29A
330
297
100
AcDbEntity
  8
09-01
 62
     4
370
    -2
100
AcDbLine
 10
-236.238187992081
 20
571.6025228044054
 30
0.0
 11
-251.4225839192913
 21
571.6025228044054
 31
0.0
  0
LINE
  5
29B
330
297
100
AcDbEntity
  8
09-01
 62
     4
370
    -2
100
AcDbLine
 10
-249.4225839192914
 20
278.6025228044055
 30
0.0
 11
-249.4225839192913
 21
566.6025228044055
 31
0.0
  0
SOLID
  5
29C
330
297
100
AcDbEntity
  8
09-01
 62
     4
100
AcDbTrace
 10
-250.2559172526248
 20
278.6025228044055
 30
0.0
 11
-248.5892505859581
 21
278.6025228044055
 31
0.0
 12
-249.4225839192914
 22
273.6025228044054
 32
0.0
 13
-249.4225839192914
 23
273.6025228044054
 33
0.0
  0
SOLID
  5
29D
330
297
100
AcDbEntity
  8
09-01
 62
     4
100
AcDbTrace
 10
-250.2559172526247
 20
566.6025228044055
 30
0.0
 11
-248.589250585958
 21
566.6025228044055
 31
0.0
 12
-249.4225839192913
 22
571.6025228044054
 32
0.0
 13
-249.4225839192913
 23
571.6025228044054
 33
0.0
  0
MTEXT
  5
29E
330
297
100
AcDbEntity
  8
09-01
 62
     1
100
AcDbMText
 10
-253.9225839192914
 20
422.6025228044054
 30
0.0
 40
5.0
 41
0.0
 46
0.0
 71
     5
 72
     1
  1
298
 11
0.0000000000000001
 21
1.0
 31
0.0
 73
     1
 44
1.0
  0
POINT
  5
29F
330
297
100
AcDbEntity
  8
Defpoints
 62
     0
100
AcDbPoint
 10
-229.2381879920449
 20
273.6025228044054
 30
0.0
  0
POINT
  5
2A0
330
297
100
AcDbEntity
  8
Defpoints
 62
     0
100
AcDbPoint
 10
-234.2381879920811
 20
571.6025228044054
 30
0.0
  0
POINT
  5
2A1
330
297
100
AcDbEntity
  8
Defpoints
 62
     0
100
AcDbPoint
 10
-249.4225839192913
 20
571.6025228044054
 30
0.0
  0
ENDBLK
  5
2A2
330
297
100
AcDbEntity
  8
0
100
AcDbBlockEnd
  0
BLOCK
  5
205
330
204
100
AcDbEntity
  8
0
100
AcDbBlockBegin
  2
*D10
 70
     1
 10
0.0
 20
0.0
 30
0.0
  3
*D10
  1

  0
LINE
  5
206
330
204
100
AcDbEntity
  8
09-01
 62
     4
370
    -2
100
AcDbLine
 10
-398.8552854009613
 20
249.2239068827093
 30
0.0
 11
-398.8552854009613
 21
259.1879723477577
 31
0.0
  0
LINE
  5
207
330
204
100
AcDbEntity
  8
09-01
 62
     4
370
    -2
100
AcDbLine
 10
-312.8552854009613
 20
249.2239068827093
 30
0.0
 11
-312.8552854009613
 21
259.1879723477577
 31
0.0
  0
LINE
  5
208
330
204
100
AcDbEntity
  8
09-01
 62
     4
370
    -2
100
AcDbLine
 10
-393.8552854009613
 20
257.1879723477577
 30
0.0
 11
-317.8552854009613
 21
257.1879723477577
 31
0.0
  0
SOLID
  5
209
330
204
100
AcDbEntity
  8
09-01
 62
     4
100
AcDbTrace
 10
-393.8552854009613
 20
258.0213056810911
 30
0.0
 11
-393.8552854009613
 21
256.3546390144245
 31
0.0
 12
-398.8552854009613
 22
257.1879723477577
 32
0.0
 13
-398.8552854009613
 23
257.1879723477577
 33
0.0
  0
SOLID
  5
20A
330
204
100
AcDbEntity
  8
09-01
 62
     4
100
AcDbTrace
 10
-317.8552854009613
 20
258.0213056810911
 30
0.0
 11
-317.8552854009613
 21
256.3546390144245
 31
0.0
 12
-312.8552854009613
 22
257.1879723477577
 32
0.0
 13
-312.8552854009613
 23
257.1879723477577
 33
0.0
  0
MTEXT
  5
20B
330
204
100
AcDbEntity
  8
09-01
 62
     1
100
AcDbMText
 10
-355.8552854009613
 20
261.6879723477577
 30
0.0
 40
5.0
 41
0.0
 46
0.0
 71
     5
 72
     1
  1
86
 73
     1
 44
1.0
  0
POINT
  5
20C
330
204
100
AcDbEntity
  8
Defpoints
 62
     0
100
AcDbPoint
 10
-398.8552854009613
 20
247.2239068827093
 30
0.0
  0
POINT
  5
20D
330
204
100
AcDbEntity
  8
Defpoints
 62
     0
100
AcDbPoint
 10
-312.8552854009613
 20
247.2239068827093
 30
0.0
  0
POINT
  5
20E
330
204
100
AcDbEntity
  8
Defpoints
 62
     0
100
AcDbPoint
 10
-312.8552854009613
 20
257.1879723477577
 30
0.0
  0
ENDBLK
  5
20F
330
204
100
AcDbEntity
  8
0
100
AcDbBlockEnd
  0
BLOCK
  5
1F8
330
1F7
100
AcDbEntity
  8
0
100
AcDbBlockBegin
  2
*D11
 70
     1
 10
0.0
 20
0.0
 30
0.0
  3
*D11
  1

  0
LINE
  5
1F9
330
1F7
100
AcDbEntity
  8
09-01
 62
     4
370
    -2
100
AcDbLine
 10
-310.8552854009613
 20
247.2239068827093
 30
0.0
 11
-298.3319971824794
 21
247.2239068827093
 31
0.0
  0
LINE
  5
1FA
330
1F7
100
AcDbEntity
  8
09-01
 62
     4
370
    -2
100
AcDbLine
 10
-320.1552854009615
 20
127.9239068827091
 30
0.0
 11
-298.3319971824794
 21
127.9239068827091
 31
0.0
  0
LINE
  5
1FB
330
1F7
100
AcDbEntity
  8
09-01
 62
     4
370
    -2
100
AcDbLine
 10
-300.3319971824794
 20
242.2239068827094
 30
0.0
 11
-300.3319971824794
 21
132.9239068827091
 31
0.0
  0
SOLID
  5
1FC
330
1F7
100
AcDbEntity
  8
09-01
 62
     4
100
AcDbTrace
 10
-301.1653305158127
 20
242.2239068827094
 30
0.0
 11
-299.4986638491461
 21
242.2239068827094
 31
0.0
 12
-300.3319971824794
 22
247.2239068827093
 32
0.0
 13
-300.3319971824794
 23
247.2239068827093
 33
0.0
  0
SOLID
  5
1FD
330
1F7
100
AcDbEntity
  8
09-01
 62
     4
100
AcDbTrace
 10
-301.1653305158127
 20
132.9239068827091
 30
0.0
 11
-299.4986638491461
 21
132.9239068827091
 31
0.0
 12
-300.3319971824794
 22
127.9239068827091
 32
0.0
 13
-300.3319971824794
 23
127.9239068827091
 33
0.0
  0
MTEXT
  5
1FE
330
1F7
100
AcDbEntity
  8
09-01
 62
     1
100
AcDbMText
 10
-304.8319971824794
 20
187.5739068827092
 30
0.0
 40
5.0
 41
0.0
 46
0.0
 71
     5
 72
     1
  1
119.3
 11
0.0000000000000001
 21
1.0
 31
0.0
 73
     1
 44
1.0
  0
POINT
  5
1FF
330
1F7
100
AcDbEntity
  8
Defpoints
 62
     0
100
AcDbPoint
 10
-312.8552854009613
 20
247.2239068827093
 30
0.0
  0
POINT
  5
200
330
1F7
100
AcDbEntity
  8
Defpoints
 62
     0
100
AcDbPoint
 10
-322.1552854009615
 20
127.9239068827091
 30
0.0
  0
POINT
  5
201
330
1F7
100
AcDbEntity
  8
Defpoints
 62
     0
100
AcDbPoint
 10
-300.3319971824794
 20
127.9239068827091
 30
0.0
  0
ENDBLK
  5
202
330
1F7
100
AcDbEntity
  8
0
100
AcDbBlockEnd
  0
ENDSEC
  0
SECTION
  2
ENTITIES
  0
ELLIPSE
  5
7A
330
2
100
AcDbEntity
  8
0
100
AcDbEllipse
 10
-358.8552854009613
 20
290.1554050640518
 30
0.0
 11
-6.999999999999985
 21
0.0000000000000568
 31
0.0
210
0.0
220
0.0
230
1.0
 40
0.173648177666938
 41
0.0
 42
3.141592653589793
  0
LINE
  5
7B
330
2
100
AcDbEntity
  8
0
100
AcDbLine
 10
-351.8552854009613
 20
290.1554050640518
 30
0.0
 11
-351.8552854009613
 21
292.9984906823356
 31
0.0
  0
LINE
  5
7C
330
2
100
AcDbEntity
  8
0
100
AcDbLine
 10
-365.8552854009613
 20
290.1554050640519
 30
0.0
 11
-365.8552854009613
 21
292.9984906823356
 31
0.0
  0
LINE
  5
7D
330
2
100
AcDbEntity
  8
0
100
AcDbLine
 10
-313.6729772963509
 20
282.4182449995595
 30
0.0
 11
-398.0375935055718
 21
282.4182449995595
 31
0.0
  0
LINE
  5
7E
330
2
100
AcDbEntity
  8
03-01
100
AcDbLine
 10
-314.8552854009613
 20
565.6025228044054
 30
0.0
 11
-314.8552854009613
 21
421.6025228044542
 31
0.0
  0
LINE
  5
83
330
2
100
AcDbEntity
  8
03-01
100
AcDbLine
 10
-313.8552854009613
 20
421.6025228044542
 30
0.0
 11
-314.8552854009613
 21
421.6025228044542
 31
0.0
  0
LINE
  5
84
330
2
100
AcDbEntity
  8
0
100
AcDbLine
 10
-313.8552854009613
 20
287.2741898058448
 30
0.0
 11
-314.8552854009613
 21
287.2741898058448
 31
0.0
  0
LINE
  5
85
330
2
100
AcDbEntity
  8
0
100
AcDbLine
 10
-396.8552854009613
 20
273.6025228044046
 30
0.0
 11
-396.8552854009613
 21
288.8230005186236
 31
0.0
  0
LINE
  5
86
330
2
100
AcDbEntity
  8
0
100
AcDbLine
 10
-314.8552854009613
 20
273.6025228044046
 30
0.0
 11
-314.8552854009613
 21
287.2741898058448
 31
0.0
  0
LINE
  5
87
330
2
100
AcDbEntity
  8
05-01
100
AcDbLine
 10
-402.0638409164207
 20
280.6025228044055
 30
0.0
 11
-394.7638409164206
 21
280.6025228044055
 31
0.0
  0
LINE
  5
8C
330
2
100
AcDbEntity
  8
05-01
100
AcDbLine
 10
-317.2145156920801
 20
280.6025228044055
 30
0.0
 11
-309.9145156920799
 21
280.6025228044055
 31
0.0
  0
ARC
  5
8D
330
2
100
AcDbEntity
  8
03-01
100
AcDbCircle
 10
-381.6552854009628
 20
441.5943271657164
 30
0.0
 40
5.0
100
AcDbArc
 50
180.0
 51
270.0
  0
LINE
  5
8E
330
2
100
AcDbEntity
  8
03-01
100
AcDbLine
 10
-381.6552854009628
 20
436.5943271657164
 30
0.0
 11
-336.6552854009624
 21
436.5943271657164
 31
0.0
  0
ARC
  5
8F
330
2
100
AcDbEntity
  8
03-01
100
AcDbCircle
 10
-381.6552854009628
 20
461.5943271657164
 30
0.0
 40
5.0
100
AcDbArc
 50
90.0
 51
180.0
  0
LINE
  5
90
330
2
100
AcDbEntity
  8
03-01
100
AcDbLine
 10
-381.6552854009628
 20
466.5943271657164
 30
0.0
 11
-336.6552854009624
 21
466.5943271657164
 31
0.0
  0
ARC
  5
91
330
2
100
AcDbEntity
  8
03-01
100
AcDbCircle
 10
-336.6552854009624
 20
461.5943271657164
 30
0.0
 40
5.0
100
AcDbArc
 50
0.0
 51
90.0
  0
ARC
  5
92
330
2
100
AcDbEntity
  8
03-01
100
AcDbCircle
 10
-336.6552854009624
 20
441.5943271657164
 30
0.0
 40
5.0
100
AcDbArc
 50
270.0
 51
0.0
  0
LINE
  5
93
330
2
100
AcDbEntity
  8
03-01
100
AcDbLine
 10
-331.6552854009624
 20
461.5943271657164
 30
0.0
 11
-331.6552854009624
 21
441.5943271657164
 31
0.0
  0
LINE
  5
94
330
2
100
AcDbEntity
  8
03-01
100
AcDbLine
 10
-386.6552854009628
 20
461.5943271657167
 30
0.0
 11
-386.6552854009628
 21
441.5943271657167
 31
0.0
  0
ARC
  5
95
330
2
100
AcDbEntity
  8
03-01
100
AcDbCircle
 10
-330.8552854009613
 20
544.5943271657161
 30
0.0
 40
6.25
100
AcDbArc
 50
113.5781784782928
 51
66.4218215217072
  0
LINE
  5
96
330
2
100
AcDbEntity
  8
05-01
100
AcDbLine
 10
-323.6052854009613
 20
544.5943271657161
 30
0.0
 11
-338.1052854009613
 21
544.5943271657161
 31
0.0
  0
LINE
  5
97
330
2
100
AcDbEntity
  8
05-01
100
AcDbLine
 10
-327.3552854009613
 20
556.594327165716
 30
0.0
 11
-334.3552854009613
 21
556.594327165716
 31
0.0
  0
LINE
  5
98
330
2
100
AcDbEntity
  8
03-01
100
AcDbLine
 10
-328.3552854009613
 20
556.594327165716
 30
0.0
 11
-328.3552854009613
 21
550.3225467844113
 31
0.0
  0
ARC
  5
99
330
2
100
AcDbEntity
  8
03-01
100
AcDbCircle
 10
-330.8552854009613
 20
556.594327165716
 30
0.0
 40
2.5
100
AcDbArc
 50
0.0
 51
180.0
  0
LINE
  5
9A
330
2
100
AcDbEntity
  8
03-01
100
AcDbLine
 10
-333.3552854009613
 20
550.3225467844113
 30
0.0
 11
-333.3552854009613
 21
556.594327165716
 31
0.0
  0
LINE
  5
9B
330
2
100
AcDbEntity
  8
05-01
100
AcDbLine
 10
-330.8552854009613
 20
560.094327165716
 30
0.0
 11
-330.8552854009613
 21
537.344327165716
 31
0.0
  0
ARC
  5
9C
330
2
100
AcDbEntity
  8
03-01
100
AcDbCircle
 10
-380.8552854009613
 20
544.5943271657161
 30
0.0
 40
6.25
100
AcDbArc
 50
113.5781784781791
 51
66.42182152182091
  0
LINE
  5
9D
330
2
100
AcDbEntity
  8
05-01
100
AcDbLine
 10
-388.1052854009613
 20
544.5943271657161
 30
0.0
 11
-373.6052854009613
 21
544.5943271657161
 31
0.0
  0
LINE
  5
9E
330
2
100
AcDbEntity
  8
05-01
100
AcDbLine
 10
-384.3552854009613
 20
556.594327165716
 30
0.0
 11
-377.3552854009613
 21
556.594327165716
 31
0.0
  0
LINE
  5
9F
330
2
100
AcDbEntity
  8
03-01
100
AcDbLine
 10
-383.3552854009613
 20
556.594327165716
 30
0.0
 11
-383.3552854009613
 21
550.3225467844113
 31
0.0
  0
ARC
  5
A0
330
2
100
AcDbEntity
  8
03-01
100
AcDbCircle
 10
-380.8552854009613
 20
556.594327165716
 30
0.0
 40
2.5
100
AcDbArc
 50
0.0
 51
180.0
  0
LINE
  5
A1
330
2
100
AcDbEntity
  8
03-01
100
AcDbLine
 10
-378.3552854009613
 20
550.3225467844113
 30
0.0
 11
-378.3552854009613
 21
556.594327165716
 31
0.0
  0
LINE
  5
A2
330
2
100
AcDbEntity
  8
05-01
100
AcDbLine
 10
-380.8552854009613
 20
560.094327165716
 30
0.0
 11
-380.8552854009613
 21
537.344327165716
 31
0.0
  0
LINE
  5
A3
330
2
100
AcDbEntity
  8
05-01
100
AcDbLine
 10
-362.6552854009624
 20
313.594327165716
 30
0.0
 11
-355.6552854009624
 21
313.594327165716
 31
0.0
  0
ARC
  5
A4
330
2
100
AcDbEntity
  8
03-01
100
AcDbCircle
 10
-359.1552854009624
 20
301.594327165716
 30
0.0
 40
6.25
100
AcDbArc
 50
113.5781784781791
 51
66.42182152182091
  0
LINE
  5
A5
330
2
100
AcDbEntity
  8
05-01
100
AcDbLine
 10
-366.4052854009624
 20
301.594327165716
 30
0.0
 11
-351.9052854009624
 21
301.594327165716
 31
0.0
  0
LINE
  5
A6
330
2
100
AcDbEntity
  8
03-01
100
AcDbLine
 10
-361.6552854009624
 20
313.594327165716
 30
0.0
 11
-361.6552854009624
 21
307.3225467844104
 31
0.0
  0
ARC
  5
A7
330
2
100
AcDbEntity
  8
03-01
100
AcDbCircle
 10
-359.1552854009624
 20
313.594327165716
 30
0.0
 40
2.5
100
AcDbArc
 50
0.0
 51
180.0
  0
LINE
  5
A8
330
2
100
AcDbEntity
  8
03-01
100
AcDbLine
 10
-356.6552854009624
 20
307.3225467844104
 30
0.0
 11
-356.6552854009624
 21
313.594327165716
 31
0.0
  0
LINE
  5
A9
330
2
100
AcDbEntity
  8
05-01
100
AcDbLine
 10
-359.1552854009624
 20
317.0943271657161
 30
0.0
 11
-359.1552854009624
 21
294.3443271657161
 31
0.0
  0
CIRCLE
  5
AA
330
2
100
AcDbEntity
  8
03-01
100
AcDbCircle
 10
-355.8552854009613
 20
504.5943271657169
 30
0.0
 40
3.25
  0
LINE
  5
AB
330
2
100
AcDbEntity
  8
05-01
100
AcDbLine
 10
-355.8552854009613
 20
508.8443271657169
 30
0.0
 11
-355.8552854009613
 21
500.3443271657169
 31
0.0
  0
LINE
  5
AC
330
2
100
AcDbEntity
  8
05-01
100
AcDbLine
 10
-360.1052854009613
 20
504.5943271657169
 30
0.0
 11
-351.6052854009613
 21
504.5943271657169
 31
0.0
  0
ARC
  5
AD
330
2
100
AcDbEntity
  8
03-01
100
AcDbCircle
 10
-355.8552854009613
 20
544.594327165717
 30
0.0
 40
6.25
100
AcDbArc
 50
113.5781784781791
 51
66.42182152182091
  0
LINE
  5
AE
330
2
100
AcDbEntity
  8
05-01
100
AcDbLine
 10
-363.1052854009613
 20
544.594327165717
 30
0.0
 11
-348.6052854009613
 21
544.594327165717
 31
0.0
  0
LINE
  5
AF
330
2
100
AcDbEntity
  8
05-01
100
AcDbLine
 10
-359.3552854009613
 20
556.594327165717
 30
0.0
 11
-352.3552854009613
 21
556.594327165717
 31
0.0
  0
LINE
  5
B0
330
2
100
AcDbEntity
  8
03-01
100
AcDbLine
 10
-358.3552854009613
 20
556.594327165717
 30
0.0
 11
-358.3552854009613
 21
550.3225467844122
 31
0.0
  0
ARC
  5
B1
330
2
100
AcDbEntity
  8
03-01
100
AcDbCircle
 10
-355.8552854009613
 20
556.594327165717
 30
0.0
 40
2.5
100
AcDbArc
 50
0.0
 51
180.0
  0
LINE
  5
B2
330
2
100
AcDbEntity
  8
03-01
100
AcDbLine
 10
-353.3552854009613
 20
550.3225467844122
 30
0.0
 11
-353.3552854009613
 21
556.594327165717
 31
0.0
  0
LINE
  5
B3
330
2
100
AcDbEntity
  8
05-01
100
AcDbLine
 10
-355.8552854009613
 20
560.094327165717
 30
0.0
 11
-355.8552854009613
 21
537.344327165717
 31
0.0
  0
INSERT
  5
B4
330
2
100
AcDbEntity
  8
05-01
100
AcDbBlockReference
  2
e-modul vorderansicht
 10
-501.5027207295952
 20
507.1548863141772
 30
0.0
  0
DIMENSION
  5
D9
330
2
100
AcDbEntity
  8
09-01
100
AcDbDimension
280
     0
  2
*D6
 10
-411.5031118106344
 20
274.2025228044049
 30
0.0
 11
-416.0031118106345
 21
293.8984249850604
 31
0.0
 71
     5
 42
39.39180436131119
 73
     0
 74
     0
 75
     0
  3
Wagner$0
100
AcDbAlignedDimension
 13
-362.6552854009624
 23
313.594327165716
 33
0.0
 14
-398.8552854009613
 24
274.2025228044049
 34
0.0
 50
90.0
100
AcDbRotatedDimension
1001
ACAD
1000
DSTYLE
1002
{
1070
    40
1040
2.0
1070
   271
1070
     1
1002
}
  0
DIMENSION
  5
EB
330
2
100
AcDbEntity
  8
09-01
100
AcDbDimension
280
     0
  2
*D5
 10
-411.5031118106344
 20
313.5943271657161
 30
0.0
 11
-416.0031118106345
 21
435.0943271657159
 31
0.0
 71
     5
 42
243.0
 73
     0
 74
     0
 75
     0
  3
Wagner$0
100
AcDbAlignedDimension
 13
-384.3552854009613
 23
556.594327165716
 33
0.0
 14
-362.6552854009624
 24
313.594327165716
 34
0.0
 50
90.0
100
AcDbRotatedDimension
1001
ACAD
1000
DSTYLE
1002
{
1070
    40
1040
2.0
1002
}
  0
DIMENSION
  5
F8
330
2
100
AcDbEntity
  8
09-01
100
AcDbDimension
280
     0
  2
*D4
 10
-411.5031118106344
 20
556.594327165716
 30
0.0
 11
-416.0559767492427
 21
558.8870816332626
 31
0.0
 70
   128
 71
     5
 42
15.00819563868936
 73
     0
 74
     0
 75
     0
  3
Wagner$0
100
AcDbAlignedDimension
 13
-398.8552854009613
 23
571.6025228044054
 33
0.0
 14
-384.3552854009613
 24
556.594327165716
 34
0.0
 50
90.0
100
AcDbRotatedDimension
1001
ACAD
1000
DSTYLE
1002
{
1070
    40
1040
2.0
1070
   271
1070
     1
1002
}
  0
LINE
  5
105
330
2
100
AcDbEntity
  8
05-01
100
AcDbLine
 10
-359.3552854009613
 20
380.5025228044055
 30
0.0
 11
-352.3552854009613
 21
380.5025228044055
 31
0.0
  0
LINE
  5
106
330
2
100
AcDbEntity
  8
05-01
100
AcDbLine
 10
-355.8552854009613
 20
384.0025228044055
 30
0.0
 11
-355.8552854009613
 21
326.0025228044055
 31
0.0
  0
LINE
  5
107
330
2
100
AcDbEntity
  8
05-01
100
AcDbLine
 10
-359.3552854009613
 20
329.502522804406
 30
0.0
 11
-352.3552854009613
 21
329.502522804406
 31
0.0
  0
LWPOLYLINE
  5
108
330
2
100
AcDbEntity
  8
0
100
AcDbPolyline
 90
        9
 70
     0
 43
0.0
 10
-355.8552854009613
 20
327.0025228044056
 10
-355.8552854009613
 20
327.0025228044056
 42
0.4142135623730951
 10
-353.3552854009613
 20
329.5025228044055
 10
-353.3552854009613
 20
380.5025228044055
 42
0.4142135623730951
 10
-355.8552854009613
 20
383.0025228044056
 10
-355.8552854009613
 20
383.0025228044056
 42
0.4142135623730951
 10
-358.3552854009613
 20
380.5025228044055
 10
-358.3552854009613
 20
329.5025228044055
 42
0.4142135623730951
 10
-355.8552854009613
 20
327.0025228044056
 42
0.4142135623730951
  0
LINE
  5
109
330
2
100
AcDbEntity
  8
03-01
100
AcDbLine
 10
-315.5569341995303
 20
234.2134626236375
 30
0.0
 11
-314.5575433725112
 21
234.1785631269349
 31
0.0
  0
ARC
  5
10A
330
2
100
AcDbEntity
  8
03-01
100
AcDbCircle
 10
-325.8605238594753
 20
224.5656193511867
 30
0.0
 40
3.0
100
AcDbArc
 50
0.0
 51
90.0
  0
LINE
  5
10B
330
2
100
AcDbEntity
  8
03-01
100
AcDbLine
 10
-322.8605238594753
 20
224.5656193511867
 30
0.0
 11
-322.8605238594753
 21
133.0460200651769
 31
0.0
  0
ARC
  5
10C
330
2
100
AcDbEntity
  8
03-01
100
AcDbCircle
 10
-390.8500469424469
 20
133.0460200651769
 30
0.0
 40
3.0
100
AcDbArc
 50
180.0
 51
270.0
  0
LINE
  5
10D
330
2
100
AcDbEntity
  8
03-01
100
AcDbLine
 10
-393.8500469424468
 20
224.5656193511867
 30
0.0
 11
-393.8500469424468
 21
133.0460200651769
 31
0.0
  0
ARC
  5
10E
330
2
100
AcDbEntity
  8
03-01
100
AcDbCircle
 10
-390.8500469424471
 20
224.5656193511867
 30
0.0
 40
3.0
100
AcDbArc
 50
90.0
 51
180.0
  0
LINE
  5
10F
330
2
100
AcDbEntity
  8
03-01
100
AcDbLine
 10
-390.8500469424471
 20
227.5656193511867
 30
0.0
 11
-325.8605238594753
 21
227.5656193511867
 31
0.0
  0
ARC
  5
110
330
2
100
AcDbEntity
  8
03-01
100
AcDbCircle
 10
-325.8605238594753
 20
133.0460200651769
 30
0.0
 40
3.0
100
AcDbArc
 50
270.0
 51
0.0
  0
LINE
  5
111
330
2
100
AcDbEntity
  8
03-01
100
AcDbLine
 10
-390.8500469424469
 20
130.0460200651769
 30
0.0
 11
-325.8605238594753
 21
130.0460200651769
 31
0.0
  0
LINE
  5
112
330
2
100
AcDbEntity
  8
03-01
100
AcDbLine
 10
-329.0045815701124
 20
193.4739068827085
 30
0.0
 11
-333.7045815701124
 21
193.4739068827085
 31
0.0
  0
LINE
  5
113
330
2
100
AcDbEntity
  8
03-01
100
AcDbLine
 10
-387.695509492838
 20
193.4739068827085
 30
0.0
 11
-382.995509492838
 21
193.4739068827085
 31
0.0
  0
LINE
  5
114
330
2
100
AcDbEntity
  8
03-01
100
AcDbLine
 10
-334.4045815701124
 20
198.1739068827086
 30
0.0
 11
-330.5045815701124
 21
198.1739068827086
 31
0.0
  0
LINE
  5
115
330
2
100
AcDbEntity
  8
03-01
100
AcDbLine
 10
-386.195509492838
 20
198.1739068827086
 30
0.0
 11
-382.2955094928384
 21
198.1739068827086
 31
0.0
  0
LINE
  5
116
330
2
100
AcDbEntity
  8
03-01
100
AcDbLine
 10
-333.7045815701122
 20
196.6739068827086
 30
0.0
 11
-329.0045815701124
 21
196.6739068827086
 31
0.0
  0
LINE
  5
117
330
2
100
AcDbEntity
  8
03-01
100
AcDbLine
 10
-387.695509492838
 20
196.6739068827086
 30
0.0
 11
-382.995509492838
 21
196.6739068827086
 31
0.0
  0
LINE
  5
118
330
2
100
AcDbEntity
  8
03-01
100
AcDbLine
 10
-387.695509492838
 20
131.2739068827085
 30
0.0
 11
-329.0045815701124
 21
131.2739068827085
 31
0.0
  0
LINE
  5
119
330
2
100
AcDbEntity
  8
03-01
100
AcDbLine
 10
-334.4045815701124
 20
200.2739068827077
 30
0.0
 11
-334.4045815701124
 21
198.1739068827086
 31
0.0
  0
LINE
  5
11A
330
2
100
AcDbEntity
  8
03-01
100
AcDbLine
 10
-333.7045815701124
 20
196.6739068827086
 30
0.0
 11
-333.7045815701124
 21
193.4739068827085
 31
0.0
  0
LINE
  5
11B
330
2
100
AcDbEntity
  8
03-01
100
AcDbLine
 10
-329.0045815701124
 20
193.4739068827085
 30
0.0
 11
-329.0045815701124
 21
131.2739068827085
 31
0.0
  0
LINE
  5
11C
330
2
100
AcDbEntity
  8
03-01
100
AcDbLine
 10
-330.5045815701124
 20
200.2739068827085
 30
0.0
 11
-330.5045815701124
 21
198.1739068827086
 31
0.0
  0
LINE
  5
11D
330
2
100
AcDbEntity
  8
03-01
100
AcDbLine
 10
-329.0045815701124
 20
200.2739068827085
 30
0.0
 11
-329.0045815701124
 21
196.6739068827086
 31
0.0
  0
LINE
  5
11E
330
2
100
AcDbEntity
  8
03-01
100
AcDbLine
 10
-382.2955094928382
 20
200.2739068827085
 30
0.0
 11
-382.2955094928382
 21
198.1739068827086
 31
0.0
  0
LINE
  5
11F
330
2
100
AcDbEntity
  8
03-01
100
AcDbLine
 10
-382.995509492838
 20
196.6739068827086
 30
0.0
 11
-382.995509492838
 21
193.4739068827085
 31
0.0
  0
LINE
  5
120
330
2
100
AcDbEntity
  8
03-01
100
AcDbLine
 10
-387.695509492838
 20
193.4739068827085
 30
0.0
 11
-387.695509492838
 21
131.2739068827085
 31
0.0
  0
LINE
  5
121
330
2
100
AcDbEntity
  8
03-01
100
AcDbLine
 10
-386.195509492838
 20
200.2739068827085
 30
0.0
 11
-386.195509492838
 21
198.1739068827086
 31
0.0
  0
LINE
  5
122
330
2
100
AcDbEntity
  8
03-01
100
AcDbLine
 10
-387.695509492838
 20
200.2739068827085
 30
0.0
 11
-387.695509492838
 21
196.6739068827086
 31
0.0
  0
LINE
  5
123
330
2
100
AcDbEntity
  8
03-01
100
AcDbLine
 10
-330.5045815701124
 20
200.2739068827085
 30
0.0
 11
-329.0045815701124
 21
200.2739068827085
 31
0.0
  0
LINE
  5
124
330
2
100
AcDbEntity
  8
03-01
100
AcDbLine
 10
-382.2955094928382
 20
200.2739068827085
 30
0.0
 11
-334.4045815701124
 21
200.2739068827077
 31
0.0
  0
LINE
  5
125
330
2
100
AcDbEntity
  8
03-01
100
AcDbLine
 10
-387.695509492838
 20
200.2739068827085
 30
0.0
 11
-386.195509492838
 21
200.2739068827085
 31
0.0
  0
LINE
  5
126
330
2
100
AcDbEntity
  8
05-01
100
AcDbLine
 10
-388.8552854009613
 20
244.8239068827088
 30
0.0
 11
-388.8552854009613
 21
243.7239068827084
 31
0.0
  0
LINE
  5
127
330
2
100
AcDbEntity
  8
05-01
100
AcDbLine
 10
-386.3552854009613
 20
246.9239068827091
 30
0.0
 11
-386.3552854009613
 21
243.7239068827084
 31
0.0
  0
LINE
  5
128
330
2
100
AcDbEntity
  8
05-01
100
AcDbLine
 10
-391.3552854009613
 20
246.9239068827091
 30
0.0
 11
-391.3552854009613
 21
243.7239068827084
 31
0.0
  0
LINE
  5
129
330
2
100
AcDbEntity
  8
05-01
100
AcDbLine
 10
-314.8552854009618
 20
243.7239068827084
 30
0.0
 11
-314.8552854009618
 21
201.2239068827085
 31
0.0
  0
LINE
  5
12A
330
2
100
AcDbEntity
  8
05-01
100
AcDbLine
 10
-391.3552854009613
 20
243.7239068827084
 30
0.0
 11
-391.3552854009613
 21
201.2239068827085
 31
0.0
  0
LINE
  5
12B
330
2
100
AcDbEntity
  8
03-01
100
AcDbLine
 10
-314.1552854009619
 20
245.6977242853136
 30
0.0
 11
-314.1552854009619
 21
247.2239068827084
 31
0.0
  0
LINE
  5
12C
330
2
100
AcDbEntity
  8
03-01
100
AcDbLine
 10
-315.1375202440665
 20
246.2239068827084
 30
0.0
 11
-315.5569341995303
 21
234.2134626236375
 31
0.0
  0
LINE
  5
12D
330
2
100
AcDbEntity
  8
03-01
100
AcDbLine
 10
-314.5575433725112
 20
234.1785631269349
 30
0.0
 11
-314.1552854009619
 21
245.6977242853136
 31
0.0
  0
LINE
  5
12E
330
2
100
AcDbEntity
  8
05-01
100
AcDbLine
 10
-386.3552854009613
 20
244.8239068827088
 30
0.0
 11
-388.8552854009613
 21
244.8239068827088
 31
0.0
  0
LINE
  5
12F
330
2
100
AcDbEntity
  8
05-01
100
AcDbLine
 10
-314.8552854009618
 20
201.2239068827085
 30
0.0
 11
-391.3552854009613
 21
201.2239068827085
 31
0.0
  0
LINE
  5
130
330
2
100
AcDbEntity
  8
05-01
100
AcDbLine
 10
-314.8552854009618
 20
243.7239068827084
 30
0.0
 11
-391.3552854009613
 21
243.7239068827084
 31
0.0
  0
LINE
  5
131
330
2
100
AcDbEntity
  8
05-01
100
AcDbLine
 10
-386.3552854009613
 20
246.9239068827091
 30
0.0
 11
-391.3552854009613
 21
246.9239068827091
 31
0.0
  0
INSERT
  5
132
330
2
100
AcDbEntity
  8
05-01
100
AcDbBlockReference
  2
Sensor-Betätigungsmodul
 10
-231.5381879920437
 20
391.4943271657171
 30
0.0
  0
INSERT
  5
17A
330
2
100
AcDbEntity
  8
09-01
100
AcDbBlockReference
  2
desipumpe_emodul_sa
 10
-134.2257130357525
 20
291.9943284770193
 30
0.0
 41
-1.0
  0
LINE
  5
1E1
330
2
100
AcDbEntity
  8
01-01
100
AcDbLine
 10
-375.8375202440664
 20
555.6025228044045
 30
0.0
 11
-375.8375202440664
 21
555.6025228044045
 31
0.0
  0
LINE
  5
1E2
330
2
100
AcDbEntity
  8
03-01
100
AcDbLine
 10
-313.6729772963509
 20
284.4984906823356
 30
0.0
 11
-313.6729772963509
 21
570.1025228044054
 31
0.0
  0
LINE
  5
1E3
330
2
100
AcDbEntity
  8
0
100
AcDbLine
 10
-313.8552854009613
 20
273.6025228044046
 30
0.0
 11
-313.8552854009613
 21
285.9738111617587
 31
0.0
  0
LINE
  5
1E4
330
2
100
AcDbEntity
  8
0
100
AcDbLine
 10
-397.8552854009613
 20
273.6025228044046
 30
0.0
 11
-397.8552854009613
 21
285.9738111617587
 31
0.0
  0
LINE
  5
1E5
330
2
100
AcDbEntity
  8
05-01
100
AcDbLine
 10
-355.8552854009613
 20
205.2239068827093
 30
0.0
 11
-355.8552854009613
 21
226.7239068827093
 31
0.0
  0
LINE
  5
1E6
330
2
100
AcDbEntity
  8
05-01
100
AcDbLine
 10
-366.3552854009613
 20
215.7239068827093
 30
0.0
 11
-345.3552854009613
 21
215.7239068827093
 31
0.0
  0
CIRCLE
  5
1E7
330
2
100
AcDbEntity
  8
0
100
AcDbCircle
 10
-355.8552854009613
 20
215.7239068827093
 30
0.0
 40
8.5
  0
CIRCLE
  5
1E8
330
2
100
AcDbEntity
  8
0
100
AcDbCircle
 10
-355.8552854009613
 20
215.7239068827093
 30
0.0
 40
5.799999999999999
  0
LINE
  5
1E9
330
2
100
AcDbEntity
  8
0
100
AcDbLine
 10
-357.1052854009613
 20
212.5284787206653
 30
0.0
 11
-354.6052854009613
 21
212.5284787206653
 31
0.0
  0
LINE
  5
1EA
330
2
100
AcDbEntity
  8
0
100
AcDbLine
 10
-357.1052854009613
 20
220.5239068827093
 30
0.0
 11
-354.6052854009613
 21
220.5239068827093
 31
0.0
  0
LWPOLYLINE
  5
1EB
330
2
100
AcDbEntity
  8
0
100
AcDbPolyline
 90
        2
 70
     0
 43
0.0
 10
-357.1052854009613
 20
218.7225153565953
 10
-357.1052854009613
 20
220.5239068827093
  0
LWPOLYLINE
  5
1EC
330
2
100
AcDbEntity
  8
0
100
AcDbPolyline
 90
        2
 70
     0
 43
0.0
 10
-357.1052854009613
 20
212.5284787206653
 10
-357.1052854009613
 20
214.392388337673
  0
LWPOLYLINE
  5
1ED
330
2
100
AcDbEntity
  8
0
100
AcDbPolyline
 90
        2
 70
     0
 43
0.0
 10
-354.6052854009613
 20
218.7225153565953
 10
-354.6052854009613
 20
220.5239068827093
  0
LWPOLYLINE
  5
1EE
330
2
100
AcDbEntity
  8
0
100
AcDbPolyline
 90
        2
 70
     0
 43
0.0
 10
-354.6052854009613
 20
212.5284787206653
 10
-354.6052854009613
 20
214.392388337673
  0
ARC
  5
1EF
330
2
100
AcDbEntity
  8
0
100
AcDbCircle
 10
-355.8552854009613
 20
216.5574518471341
 30
0.0
 40
2.5
100
AcDbArc
 50
299.9999999999997
 51
60.00000000000028
  0
ARC
  5
1F0
330
2
100
AcDbEntity
  8
0
100
AcDbCircle
 10
-355.8552854009613
 20
216.5574518471341
 30
0.0
 40
2.5
100
AcDbArc
 50
119.9999999999997
 51
240.0000000000003
  0
CIRCLE
  5
1F1
330
2
100
AcDbEntity
  8
0
100
AcDbCircle
 10
-355.8552854009613
 20
215.7239068827093
 30
0.0
 40
6.75
  0
CIRCLE
  5
1F2
330
2
100
AcDbEntity
  8
0
100
AcDbCircle
 10
-355.8552854009613
 20
215.7239068827093
 30
0.0
 40
7.25
  0
LINE
  5
1F3
330
2
100
AcDbEntity
  8
05-01
100
AcDbLine
 10
-227.2381879920449
 20
277.9525228044056
 30
0.0
 11
-227.2381879920449
 21
283.2525228044056
 31
0.0
  0
LINE
  5
1F4
330
2
100
AcDbEntity
  8
05-01
100
AcDbLine
 10
-224.5881879920448
 20
280.6025228044055
 30
0.0
 11
-229.888187992045
 21
280.6025228044055
 31
0.0
  0
CIRCLE
  5
1F5
330
2
100
AcDbEntity
  8
03-01
100
AcDbCircle
 10
-227.2381879920449
 20
280.6025228044055
 30
0.0
 40
1.649999999999999
  0
DIMENSION
  5
1F6
330
2
100
AcDbEntity
  8
09-01
100
AcDbDimension
280
     0
  2
*D11
 10
-300.3319971824794
 20
127.9239068827091
 30
0.0
 11
-304.8319971824794
 21
187.5739068827092
 31
0.0
 71
     5
 42
119.3000000000002
 73
     0
 74
     0
 75
     0
  3
Wagner$0
100
AcDbAlignedDimension
 13
-312.8552854009613
 23
247.2239068827093
 33
0.0
 14
-322.1552854009615
 24
127.9239068827091
 34
0.0
 50
90.0
100
AcDbRotatedDimension
1001
ACAD
1000
DSTYLE
1002
{
1070
    40
1040
2.0
1002
}
  0
DIMENSION
  5
203
330
2
100
AcDbEntity
  8
09-01
100
AcDbDimension
280
     0
  2
*D10
 10
-312.8552854009613
 20
257.1879723477577
 30
0.0
 11
-355.8552854009613
 21
261.6879723477577
 31
0.0
 71
     5
 42
86.0
 73
     0
 74
     0
 75
     0
  3
Wagner$0
100
AcDbAlignedDimension
 13
-398.8552854009613
 23
247.2239068827093
 33
0.0
 14
-312.8552854009613
 24
247.2239068827093
 34
0.0
100
AcDbRotatedDimension
1001
ACAD
1000
DSTYLE
1002
{
1070
    40
1040
2.0
1002
}
  0
INSERT
  5
210
330
2
100
AcDbEntity
  8
09-01
100
AcDbBlockReference
 66
     1
  2
DIN A4
 10
-462.7420274631044
 20
0.0000040257946239
 30
0.0
 41
2.0
 42
2.0
 43
2.0
  0
ATTRIB
  5
283
330
210
100
AcDbEntity
  8
06-99
100
AcDbText
 10
-229.7511189602792
 20
52.37567739456427
 30
0.0
 40
8.0
  1
Desinfektionsmittelspender PP102e-7
 41
0.75
  7
ROMANS8
100
AcDbAttribute
280
     0
  2
TEILE
 70
     0
280
     0
  0
ATTRIB
  5
284
330
210
100
AcDbEntity
  8
06-99
100
AcDbText
 10
-229.7511189602792
 20
38.59095699799218
 30
0.0
 40
8.0
  1
abschließbar
 41
0.9
  7
ROMANS8
100
AcDbAttribute
280
     0
  2
TEILE2
 70
     0
280
     0
  0
ATTRIB
  5
285
330
210
100
AcDbEntity
  8
06-99
100
AcDbText
 10
-80.04724001520434
 20
90.66666666666788
 30
0.0
 40
6.75
  1
1:2
  7
ROMANS8
100
AcDbAttribute
280
     0
  2
:
 70
     0
280
     0
  0
ATTRIB
  5
286
330
210
100
AcDbEntity
  8
06-99
100
AcDbText
 10
-276.7478768398987
 20
54.88337093606242
 30
0.0
 40
5.0
  1
Häberle
 41
0.9
  7
ROMANS8
100
AcDbAttribute
280
     0
  2
NAME
 70
     0
280
     0
  0
ATTRIB
  5
287
330
210
100
AcDbEntity
  8
06-99
100
AcDbText
 10
-303.7557195348454
 20
54.92247034822139
 30
0.0
 40
5.0
  1
23.04.2020
 50
359.9144597696136
 41
0.5429394649464966
  7
ROMANS8
 72
     5
 11
-281.2625381977559
 21
54.88888893333205
 31
0.0
100
AcDbAttribute
280
     0
  2
DATUM
 70
     0
280
     0
  0
ATTRIB
  5
288
330
210
100
AcDbEntity
  8
06-99
100
AcDbText
 10
-105.729324504317
 20
14.98579960057759
 30
0.0
 40
5.98752
  1
727820
  7
ROMANS8
100
AcDbAttribute
280
     0
  2
ID.NR
 70
     0
280
     0
  0
ATTRIB
  5
289
330
210
100
AcDbEntity
  8
06-99
100
AcDbText
 10
-229.2794799272124
 20
75.33333328888875
 30
0.0
 40
6.0
  1

 41
0.9
  7
ROMANS8
100
AcDbAttribute
280
     0
  2
LÄNGE
 70
     0
280
     0
  0
ATTRIB
  5
28A
330
210
100
AcDbEntity
  8
06-99
100
AcDbText
 10
-162.380402615094
 20
75.35620774088966
 30
0.0
 40
6.0
  1

 41
0.9
  7
ROMANS8
100
AcDbAttribute
280
     0
  2
BREITE
 70
     0
280
     0
  0
ATTRIB
  5
28B
330
210
100
AcDbEntity
  8
06-99
100
AcDbText
 10
-81.52382818516981
 20
75.33333333333212
 30
0.0
 40
6.187500000000001
  1

  7
ROMANS8
100
AcDbAttribute
280
     0
  2
1.0
 70
     0
280
     0
  0
ATTRIB
  5
28C
330
210
100
AcDbEntity
  8
06-99
100
AcDbText
 10
-134.4864412358281
 20
90.66666666666788
 30
0.0
 40
6.0
  1

  7
ROMANS8
 72
     1
 11
-134.4864412358281
 21
90.66666666666788
 31
0.0
100
AcDbAttribute
280
     0
  2
IV
 70
     0
280
     0
  0
ATTRIB
  5
28D
330
210
100
AcDbEntity
  8
06-99
100
AcDbText
 10
-216.1925313664019
 20
90.66666666666788
 30
0.0
 40
6.75
  1
1.4404
  7
ROMANS8
100
AcDbAttribute
280
     0
  2
1.4301
 70
     0
280
     0
  0
ATTRIB
  5
28E
330
210
100
AcDbEntity
  8
06-99
100
AcDbText
 10
-170.7407446648733
 20
15.00879320870808
 30
0.0
 40
6.336
  1

 41
0.9000000000000001
  7
ROMANS8
100
AcDbAttribute
280
     0
  2
AUFTRAGS.NR.
 70
     0
280
     0
  0
ATTRIB
  5
28F
330
210
100
AcDbEntity
  8
06-99
100
AcDbText
 10
-229.7420124386335
 20
15.0
 30
0.0
 40
6.336
  1

 41
0.9000000000000001
  7
ROMANS8
100
AcDbAttribute
280
     0
  2
SONDER-NR
 70
     0
280
     0
  0
ATTRIB
  5
290
330
210
100
AcDbEntity
  8
06-99
100
AcDbText
 10
-369.7425104486169
 20
13.20362013851991
 30
0.0
 40
3.0
  1

 41
0.9
  7
ROMANS8
100
AcDbAttribute
280
     0
  2
ERSETZT.DURCH
 70
     0
280
     0
  0
ATTRIB
  5
291
330
210
100
AcDbEntity
  8
06-99
100
AcDbText
 10
-419.7430768782364
 20
13.19491279574504
 30
0.0
 40
3.0
  1

 41
0.9
  7
ROMANS8
100
AcDbAttribute
280
     0
  2
ERSETZT.FÜR
 70
     0
280
     0
  0
ATTRIB
  5
292
330
210
100
AcDbEntity
  8
06-99
100
AcDbText
 10
-262.7958671457583
 20
95.33702228001493
 30
0.0
 40
2.574
  1
DIN A4
  7
ROMANS8
 72
     1
 11
-256.2382957171869
 21
95.33702228001493
 31
0.0
100
AcDbAttribute
280
     0
  2
FORMAT
 70
     0
280
     0
  0
ATTRIB
  5
293
330
210
100
AcDbEntity
  8
06-99
100
AcDbText
 10
-270.7671344438209
 20
74.3939346677289
 30
0.0
 40
4.68
  1
DIN 2768
  7
ROMANS8
 72
     1
 11
-254.7214201581066
 21
74.3939346677289
 31
0.0
100
AcDbAttribute
280
     0
  2
NORM2
 70
     0
280
     0
  0
ATTRIB
  5
294
330
210
100
AcDbEntity
  8
06-99
100
AcDbText
 10
-277.1185630152496
 20
82.06060133439677
 30
0.0
 40
4.68
  1
DIN 6930-M
  7
ROMANS8
 72
     1
 11
-255.7242773009639
 21
82.06060133439677
 31
0.0
100
AcDbAttribute
280
     0
  2
NORM1
 70
     0
280
     0
  0
SEQEND
  5
295
330
210
100
AcDbEntity
  8
09-01
  0
DIMENSION
  5
296
330
2
100
AcDbEntity
  8
09-01
100
AcDbDimension
280
     0
  2
*D9
 10
-249.4225839192913
 20
571.6025228044054
 30
0.0
 11
-253.9225839192914
 21
422.6025228044054
 31
0.0
 71
     5
 42
298.0
 73
     0
 74
     0
 75
     0
  3
Wagner$0
100
AcDbAlignedDimension
 13
-229.2381879920449
 23
273.6025228044054
 33
0.0
 14
-234.2381879920811
 24
571.6025228044054
 34
0.0
 50
90.0
100
AcDbRotatedDimension
1001
ACAD
1000
DSTYLE
1002
{
1070
    40
1040
2.0
1002
}
  0
LINE
  5
2A3
330
2
100
AcDbEntity
  8
09-01
100
AcDbLine
 10
-234.2381879920815
 20
570.1025228044054
 30
0.0
 11
-234.2381879920811
 21
571.6025228044054
 31
0.0
  0
LINE
  5
2A4
330
2
100
AcDbEntity
  8
09-01
100
AcDbLine
 10
-114.9381879920813
 20
570.1025228044054
 30
0.0
 11
-114.9381879920813
 21
571.6025228044054
 31
0.0
  0
LINE
  5
2A5
330
2
100
AcDbEntity
  8
0
100
AcDbLine
 10
-117.2381879920133
 20
292.8905043991422
 30
0.0
 11
-226.0226507483765
 21
273.7088685333201
 31
0.0
  0
LINE
  5
2A6
330
2
100
AcDbEntity
  8
05-01
100
AcDbLine
 10
-229.888187992045
 20
280.6025228044055
 30
0.0
 11
-224.588187992045
 21
280.6025228044055
 31
0.0
  0
LINE
  5
2A7
330
2
100
AcDbEntity
  8
05-01
100
AcDbLine
 10
-227.2381879920449
 20
277.9525228044058
 30
0.0
 11
-227.2381879920449
 21
283.2525228044056
 31
0.0
  0
CIRCLE
  5
2A8
330
2
100
AcDbEntity
  8
01-01
100
AcDbCircle
 10
-227.2381879920449
 20
280.6025228044055
 30
0.0
 40
1.649999999999999
  0
ARC
  5
2A9
330
2
100
AcDbEntity
  8
0
100
AcDbCircle
 10
-227.2381879920449
 20
280.6025228044055
 30
0.0
 40
7.0
100
AcDbArc
 50
180.0
 51
280.0000000000052
  0
LINE
  5
2AA
330
2
100
AcDbEntity
  8
0
100
AcDbLine
 10
-114.9381879920813
 20
570.1025228044056
 30
0.0
 11
-114.9381879920465
 21
292.890504399142
 31
0.0
  0
LINE
  5
2AB
330
2
100
AcDbEntity
  8
0
100
AcDbLine
 10
-234.2381879920813
 20
570.1025228044056
 30
0.0
 11
-234.2381879920449
 21
280.6025228044055
 31
0.0
  0
LINE
  5
2AC
330
2
100
AcDbEntity
  8
0
100
AcDbLine
 10
-114.9381879920465
 20
292.890504399142
 30
0.0
 11
-117.2381879920131
 21
292.8905043991422
 31
0.0
  0
LINE
  5
2AD
330
2
100
AcDbEntity
  8
05-01
100
AcDbLine
 10
-202.7381879920815
 20
576.3617739815761
 30
0.0
 11
-202.7381879920815
 21
556.711773981576
 31
0.0
  0
LINE
  5
2AE
330
2
100
AcDbEntity
  8
0
100
AcDbLine
 10
-194.2381879920815
 20
571.6025228044091
 30
0.0
 11
-194.2381879920815
 21
573.402522804409
 31
0.0
  0
LINE
  5
2AF
330
2
100
AcDbEntity
  8
0
100
AcDbLine
 10
-211.2381879920815
 20
573.4025228044091
 30
0.0
 11
-211.2381879920815
 21
571.6025228044091
 31
0.0
  0
LINE
  5
2B0
330
2
100
AcDbEntity
  8
0
100
AcDbLine
 10
-194.2381879920815
 20
573.402522804409
 30
0.0
 11
-211.2381879920815
 21
573.4025228044091
 31
0.0
  0
LINE
  5
2B1
330
2
100
AcDbEntity
  8
0
100
AcDbLine
 10
-195.4881879920815
 20
574.902522804409
 30
0.0
 11
-194.2381879920815
 21
573.402522804409
 31
0.0
  0
LINE
  5
2B2
330
2
100
AcDbEntity
  8
0
100
AcDbLine
 10
-209.9881879920815
 20
574.9025228044091
 30
0.0
 11
-211.2381879920815
 21
573.4025228044091
 31
0.0
  0
LINE
  5
2B3
330
2
100
AcDbEntity
  8
0
100
AcDbLine
 10
-209.9881879920815
 20
574.9025228044091
 30
0.0
 11
-195.4881879920815
 21
574.902522804409
 31
0.0
  0
LINE
  5
2B4
330
2
100
AcDbEntity
  8
05-01
100
AcDbLine
 10
-230.888187992045
 20
280.6025228044055
 30
0.0
 11
-223.5881879920448
 21
280.6025228044055
 31
0.0
  0
LINE
  5
2B5
330
2
100
AcDbEntity
  8
05-01
100
AcDbLine
 10
-227.2381879920449
 20
276.9525228044049
 30
0.0
 11
-227.2381879920449
 21
284.2525228044051
 31
0.0
  0
LINE
  5
2B6
330
2
100
AcDbEntity
  8
0
100
AcDbLine
 10
-114.9381879920813
 20
571.6025228044054
 30
0.0
 11
-234.2381879920811
 21
571.6025228044054
 31
0.0
  0
LINE
  5
2B7
330
2
100
AcDbEntity
  8
0
100
AcDbLine
 10
-114.9381879920813
 20
570.1025228044054
 30
0.0
 11
-234.2381879920815
 21
570.1025228044054
 31
0.0
  0
CIRCLE
  5
2B8
330
2
100
AcDbEntity
  8
01-01
100
AcDbCircle
 10
-227.2381879920449
 20
280.6025228044055
 30
0.0
 40
1.649999999999999
  0
LINE
  5
2B9
330
2
100
AcDbEntity
  8
05-01
100
AcDbLine
 10
-224.5881879920448
 20
280.6025228044055
 30
0.0
 11
-229.888187992045
 21
280.6025228044055
 31
0.0
  0
LINE
  5
2BA
330
2
100
AcDbEntity
  8
05-01
100
AcDbLine
 10
-227.2381879920449
 20
277.9525228044058
 30
0.0
 11
-227.2381879920449
 21
283.2525228044051
 31
0.0
  0
CIRCLE
  5
2BB
330
2
100
AcDbEntity
  8
01-01
100
AcDbCircle
 10
-227.2381879920449
 20
280.6025228044055
 30
0.0
 40
1.649999999999999
  0
DIMENSION
  5
2BC
330
2
100
AcDbEntity
  8
09-01
100
AcDbDimension
280
     0
  2
*D8
 10
-114.9381879920465
 20
250.8004711180293
 30
0.0
 11
-174.5881879920457
 21
255.3004711180292
 31
0.0
 71
     5
 42
119.2999999999983
 73
     0
 74
     0
 75
     0
  3
Wagner$0
100
AcDbAlignedDimension
 13
-234.2381879920449
 23
273.6025228044054
 33
0.0
 14
-114.9381879920465
 24
292.8905043991417
 34
0.0
 50
180.0
100
AcDbRotatedDimension
1001
ACAD
1000
DSTYLE
1002
{
1070
   271
1070
     1
1070
    40
1040
2.0
1002
}
  0
DIMENSION
  5
2C9
330
2
100
AcDbEntity
  8
09-01
100
AcDbDimension
280
     0
  2
*D7
 10
-99.49642641148876
 20
292.8905043991417
 30
0.0
 11
-103.9964264114888
 21
432.2465136017735
 31
0.0
 71
     5
 42
278.7120184052637
 73
     0
 74
     0
 75
     0
  3
Wagner$0
100
AcDbAlignedDimension
 13
-114.9381879920813
 23
571.6025228044054
 33
0.0
 14
-114.9381879920465
 24
292.8905043991417
 34
0.0
 50
90.0
100
AcDbRotatedDimension
1001
ACAD
1000
DSTYLE
1002
{
1070
   271
1070
     1
1070
    40
1040
2.0
1002
}
  0
LINE
  5
2D6
330
2
100
AcDbEntity
  8
05-01
100
AcDbLine
 10
-355.8552854009615
 20
556.7525228044054
 30
0.0
 11
-355.8552854009615
 21
576.9025228044053
 31
0.0
  0
LINE
  5
2D7
330
2
100
AcDbEntity
  8
0
100
AcDbLine
 10
-347.3552854009615
 20
571.6025228044054
 30
0.0
 11
-347.3552854009615
 21
573.4025228044053
 31
0.0
  0
LINE
  5
2D8
330
2
100
AcDbEntity
  8
0
100
AcDbLine
 10
-364.3552854009615
 20
573.4025228044055
 30
0.0
 11
-364.3552854009615
 21
571.6025228044054
 31
0.0
  0
LINE
  5
2D9
330
2
100
AcDbEntity
  8
0
100
AcDbLine
 10
-347.3552854009615
 20
573.4025228044053
 30
0.0
 11
-364.3552854009615
 21
573.4025228044055
 31
0.0
  0
LINE
  5
2DA
330
2
100
AcDbEntity
  8
0
100
AcDbLine
 10
-348.6052854009615
 20
574.9025228044054
 30
0.0
 11
-347.3552854009615
 21
573.4025228044053
 31
0.0
  0
LINE
  5
2DB
330
2
100
AcDbEntity
  8
0
100
AcDbLine
 10
-363.1052854009615
 20
574.9025228044055
 30
0.0
 11
-364.3552854009615
 21
573.4025228044055
 31
0.0
  0
LINE
  5
2DC
330
2
100
AcDbEntity
  8
0
100
AcDbLine
 10
-363.1052854009615
 20
574.9025228044055
 30
0.0
 11
-348.6052854009615
 21
574.9025228044054
 31
0.0
  0
LINE
  5
2DD
330
2
100
AcDbEntity
  8
01-01
100
AcDbLine
 10
-375.8552854009613
 20
555.6025228044054
 30
0.0
 11
-375.8552854009613
 21
555.6025228044054
 31
0.0
  0
LWPOLYLINE
  5
2DE
330
2
100
AcDbEntity
  8
EBENE_1
  6
Continuous
 62
     1
100
AcDbPolyline
 90
        9
 70
     1
 43
0.0135
 10
-341.6909823859662
 20
530.9600967439109
 10
-341.4944538859663
 20
530.9600967439109
 10
-341.2966383859662
 20
530.9176977439092
 10
-341.1945333859662
 20
530.7977817439096
 10
-341.1882243859663
 20
530.6112792439107
 10
-341.2669518859664
 20
530.4273147439107
 10
-341.4154023859662
 20
530.3121372439091
 10
-341.6268663859662
 20
530.2722897439107
 10
-341.8233948859663
 20
530.2722897439107
  0
LWPOLYLINE
  5
2E2
330
2
100
AcDbEntity
  8
EBENE_1
  6
Continuous
 62
     1
100
AcDbPolyline
 90
       19
 70
     1
 43
0.0135
 10
-342.7854768859663
 20
537.512699743911
 10
-342.3637503859664
 20
537.512699743911
 10
-342.1059408859662
 20
537.5021967439097
 10
-341.8864578859662
 20
537.4688022439113
 10
-341.7040728859661
 20
537.4097082439111
 10
-341.5575798859661
 20
537.3221022439102
 10
-341.4457593859663
 20
537.2031717439094
 10
-341.3673963859662
 20
537.05010424391
 10
-341.3212668859662
 20
536.8600782439098
 10
-341.3061603859662
 20
536.6302947439107
 10
-341.3220633859662
 20
536.4045972439107
 10
-341.3701323859661
 20
536.2213302439104
 10
-341.4508893859663
 20
536.0766867439106
 10
-341.5648788859662
 20
535.9668687439116
 10
-341.7126228859663
 20
535.8880737439103
 10
-341.8946613859662
 20
535.8364947439112
 10
-342.1115298859663
 20
535.8083382439108
 10
-342.3637503859664
 20
535.7997972439116
 10
-342.7854768859663
 20
535.7997972439116
  0
LWPOLYLINE
  5
2E3
330
2
100
AcDbEntity
  8
EBENE_1
  6
Continuous
 62
     1
100
AcDbPolyline
 90
       12
 70
     1
 43
0.0135
 10
-347.6701008859661
 20
533.2434237439101
 10
-345.3732603859662
 20
533.2434237439101
 10
-345.3732603859662
 20
533.6392122439101
 10
-347.2483608859661
 20
533.6392122439101
 10
-347.2483608859661
 20
535.6375812439109
 10
-345.3732603859662
 20
535.6375812439109
 10
-345.3732603859662
 20
536.0333697439091
 10
-347.2483608859661
 20
536.0333697439091
 10
-347.2483608859661
 20
537.4867437439097
 10
-345.3732603859662
 20
537.4867437439097
 10
-345.3732603859662
 20
537.8825322439115
 10
-347.6701008859661
 20
537.8825322439115
  0
LWPOLYLINE
  5
2E4
330
2
100
AcDbEntity
  8
EBENE_1
  6
Continuous
 62
     1
100
AcDbPolyline
 90
       29
 70
     1
 43
0.0135
 10
-340.391314885966
 20
533.2434237439101
 10
-342.0587943859662
 20
535.4559162439109
 10
-341.8208928859663
 20
535.4718237439101
 10
-341.6055813859661
 20
535.5187542439107
 10
-341.4142953859662
 20
535.5955332439116
 10
-341.2484838859662
 20
535.7009952439112
 10
-341.1095868859663
 20
535.8339522439091
 10
-340.9990488859662
 20
535.9932432439091
 10
-340.9183053859663
 20
536.1776847439105
 10
-340.8688008859663
 20
536.3861022439104
 10
-340.8519798859663
 20
536.6173257439113
 10
-340.8643728859661
 20
536.8383657439099
 10
-340.9015653859662
 20
537.0379407439104
 10
-340.9635933859663
 20
537.216136243911
 10
-341.0504793859661
 20
537.3730377439096
 10
-341.1622548859662
 20
537.5087352439114
 10
-341.2989513859661
 20
537.6233187439102
 10
-341.4605958859661
 20
537.71686924391
 10
-341.647219885966
 20
537.7894767439101
 10
-341.8588503859662
 20
537.8412357439101
 10
-342.0955143859662
 20
537.8722227439102
 10
-342.3572478859662
 20
537.8825322439115
 10
-342.3572478859662
 20
537.8825322439115
 10
-343.2072168859663
 20
537.8825322439115
 10
-343.2072168859663
 20
533.2434237439101
 10
-342.7854768859663
 20
533.2434237439101
 10
-342.7854768859663
 20
535.4559162439109
 10
-342.5324283859661
 20
535.4559162439109
 10
-340.9038918859662
 20
533.2434237439101
  0
LWPOLYLINE
  5
2E5
330
2
100
AcDbEntity
  8
EBENE_1
  6
Continuous
 62
     1
100
AcDbPolyline
 90
       23
 70
     1
 43
0.0135
 10
-343.4312943859661
 20
528.35132074391
 10
-342.1932453859663
 20
528.35132074391
 10
-341.9700183859664
 20
529.5107772439114
 10
-341.5791213859661
 20
528.35132074391
 10
-340.1642088859662
 20
528.35132074391
 10
-340.8273018859661
 20
529.7809932439104
 10
-340.6260888859661
 20
529.82984974391
 10
-340.4426643859663
 20
529.9245567439101
 10
-340.2814923859662
 20
530.0610282439102
 10
-340.1470458859662
 20
530.23516474391
 10
-340.043802385966
 20
530.4428712439111
 10
-339.9762348859663
 20
530.68005274391
 10
-339.9491043859662
 20
530.89586374391
 10
-339.9545313859662
 20
531.0918342439108
 10
-339.9925023859662
 20
531.2672892439113
 10
-340.0630038859663
 20
531.4215492439107
 10
-340.1660133859664
 20
531.5539392439095
 10
-340.3015128859663
 20
531.6637752439091
 10
-340.4694933859662
 20
531.7503867439099
 10
-340.6699278859662
 20
531.8130897439114
 10
-340.9028118859662
 20
531.8512092439105
 10
-341.1681138859663
 20
531.86406574391
 10
-342.7549848859662
 20
531.86406574391
  0
LWPOLYLINE
  5
2E6
330
2
100
AcDbEntity
  8
EBENE_1
  6
Continuous
 62
     1
100
AcDbPolyline
 90
        8
 70
     1
 43
0.0135
 10
-349.3112193859663
 20
528.35132074391
 10
-347.9544333859662
 20
528.35132074391
 10
-347.7612168859662
 20
528.7934907439103
 10
-346.8081033859662
 20
528.7934907439103
 10
-346.7802348859661
 20
528.35132074391
 10
-345.4242633859662
 20
528.35132074391
 10
-345.9761883859662
 20
531.86406574391
 10
-347.3812863859662
 20
531.86406574391
  0
LWPOLYLINE
  5
2E7
330
2
100
AcDbEntity
  8
EBENE_1
  6
Continuous
 62
     1
100
AcDbPolyline
 90
       10
 70
     1
 43
0.0135
 10
-347.3891703859663
 20
529.6286817439104
 10
-347.2044588859662
 20
530.0266302439104
 10
-347.1100758859661
 20
530.2342512439099
 10
-347.0077503859661
 20
530.4888162439092
 10
-346.9134618859662
 20
530.7979752439096
 10
-346.8888918859661
 20
530.7979752439096
 10
-346.9136688859662
 20
530.4888162439092
 10
-346.9093668859662
 20
530.2342512439099
 10
-346.8949308859663
 20
530.0266302439104
 10
-346.8634848859663
 20
529.6286817439104
  0
LWPOLYLINE
  5
2E8
330
2
100
AcDbEntity
  8
EBENE_1
  6
Continuous
 62
     1
100
AcDbPolyline
 90
      133
 70
     1
 43
0.0135
 10
-356.2714413859662
 20
536.714642743911
 10
-355.9665078859662
 20
536.9806557439114
 10
-356.0753403859662
 20
537.1561737439114
 10
-356.1998193859663
 20
537.3146952439092
 10
-356.3395128859663
 20
537.4562787439099
 10
-356.4939708859663
 20
537.5809917439109
 10
-356.6627613859664
 20
537.688883743911
 10
-356.8454478859662
 20
537.7800132439115
 10
-357.0415848859661
 20
537.8544477439099
 10
-357.2507403859663
 20
537.9122367439103
 10
-357.4724733859662
 20
537.9534387439107
 10
-357.7063428859663
 20
537.9781212439102
 10
-357.9519123859664
 20
537.9863337439092
 10
-358.1551008859662
 20
537.9786792439099
 10
-358.351741885966
 20
537.9560487439102
 10
-358.5414168859663
 20
537.9189327439108
 10
-358.7237028859663
 20
537.8678307439113
 10
-358.8981813859664
 20
537.80324224391
 10
-359.0644428859662
 20
537.7256622439108
 10
-359.2220553859663
 20
537.6355857439103
 10
-359.3706093859662
 20
537.5335077439103
 10
-359.5096863859662
 20
537.4199232439095
 10
-359.6388588859663
 20
537.2953362439111
 10
-359.7577218859663
 20
537.1602327439104
 10
-359.8658478859661
 20
537.0151212439104
 10
-359.9628183859663
 20
536.8604877439102
 10
-360.0482193859662
 20
536.6968317439095
 10
-360.1216278859661
 20
536.5246482439106
 10
-360.1826298859662
 20
536.3444412439093
 10
-360.2308068859664
 20
536.1566967439102
 10
-360.2657313859663
 20
535.9619187439093
 10
-360.2869983859664
 20
535.7605977439106
 10
-360.2941758859663
 20
535.5532332439106
 10
-360.2870883859662
 20
535.3397172439108
 10
-360.2660643859663
 20
535.1334867439109
 10
-360.2314818859663
 20
534.9349422439099
 10
-360.1837188859663
 20
534.7444797439093
 10
-360.1231488859662
 20
534.5624952439102
 10
-360.0501453859663
 20
534.3893847439103
 10
-359.9650818859661
 20
534.2255397439112
 10
-359.8683363859661
 20
534.0713607439101
 10
-359.7602823859661
 20
533.9272392439106
 10
-359.6412888859664
 20
533.7935757439099
 10
-359.5117428859662
 20
533.6707617439096
 10
-359.3720043859662
 20
533.5591977439107
 10
-359.2224603859663
 20
533.4592752439093
 10
-359.0634798859662
 20
533.3713902439103
 10
-358.8954408859663
 20
533.2959432439093
 10
-358.7187123859662
 20
533.2333257439095
 10
-358.5336768859661
 20
533.1839337439105
 10
-358.3406988859663
 20
533.1481632439099
 10
-358.1401653859662
 20
533.1264102439108
 10
-357.9324408859664
 20
533.119070743909
 10
-357.7253733859661
 20
533.1257037439099
 10
-357.5267208859664
 20
533.1454497439099
 10
-357.3367218859662
 20
533.1780657439103
 10
-357.1556148859663
 20
533.223308743909
 10
-356.9836338859661
 20
533.2809402439107
 10
-356.8210218859663
 20
533.350721743911
 10
-356.6680128859662
 20
533.4324102439095
 10
-356.5248543859661
 20
533.5257717439108
 10
-356.3917713859662
 20
533.6305632439107
 10
-356.2690158859662
 20
533.746537243911
 10
-356.1568173859662
 20
533.87346874391
 10
-356.0554143859663
 20
534.0111012439101
 10
-355.9650498859662
 20
534.1592097439097
 10
-355.8859623859662
 20
534.3175422439108
 10
-355.8183858859661
 20
534.4858647439105
 10
-355.7625588859662
 20
534.6639342439102
 10
-355.7187288859664
 20
534.8515122439094
 10
-355.6871208859661
 20
535.0483602439108
 10
-355.6679823859661
 20
535.2542397439101
 10
-355.6615518859662
 20
535.4689032439109
 10
-355.6615518859662
 20
535.4689032439109
 10
-355.6615518859662
 20
535.5337797439097
 10
-357.7248198859663
 20
535.5337797439097
 10
-357.7248198859663
 20
535.1704317439107
 10
-356.1222168859663
 20
535.1704317439107
 10
-356.1357753859661
 20
534.9652002439106
 10
-356.1702858859662
 20
534.7699407439104
 10
-356.224857385966
 20
534.5854902439096
 10
-356.2985988859662
 20
534.4126902439093
 10
-356.3906103859663
 20
534.2523687439097
 10
-356.4999963859664
 20
534.1053762439115
 10
-356.6258748859661
 20
533.9725362439094
 10
-356.7673413859661
 20
533.8546992439114
 10
-356.9235048859662
 20
533.7526887439107
 10
-357.0934743859662
 20
533.6673507439099
 10
-357.2763543859662
 20
533.5995177439108
 10
-357.4712493859663
 20
533.5500312439108
 10
-357.6772683859663
 20
533.5197237439096
 10
-357.8935158859663
 20
533.5094367439105
 10
-358.1014203859661
 20
533.5194762439096
 10
-358.3012878859663
 20
533.5490007439111
 10
-358.4923713859662
 20
533.5971147439104
 10
-358.6739283859663
 20
533.6629272439095
 10
-358.8452253859664
 20
533.7455427439108
 10
-359.0055153859662
 20
533.8440657439096
 10
-359.1540603859662
 20
533.9576097439094
 10
-359.2901133859661
 20
534.0852747439093
 10
-359.4129363859663
 20
534.2261697439098
 10
-359.521791385966
 20
534.3794037439111
 10
-359.6159313859662
 20
534.5440767439104
 10
-359.6946183859661
 20
534.7193022439096
 10
-359.7571098859662
 20
534.9041847439111
 10
-359.8026633859663
 20
535.0978242439104
 10
-359.8305408859662
 20
535.2993387439092
 10
-359.8399953859662
 20
535.5078282439099
 10
-359.8319313859661
 20
535.7204217439102
 10
-359.8080633859663
 20
535.9249827439107
 10
-359.7688953859663
 20
536.1208812439108
 10
-359.7149268859662
 20
536.3074917439099
 10
-359.6466528859662
 20
536.4841887439106
 10
-359.5645773859662
 20
536.6503512439103
 10
-359.4691998859662
 20
536.8053447439105
 10
-359.3610153859663
 20
536.9485527439101
 10
-359.2405278859662
 20
537.0793407439105
 10
-359.1082278859663
 20
537.1970877439107
 10
-358.9646283859663
 20
537.3011637439104
 10
-358.8102153859661
 20
537.3909477439101
 10
-358.6454973859663
 20
537.4658097439096
 10
-358.4709693859663
 20
537.5251242439098
 10
-358.2871263859663
 20
537.5682657439101
 10
-358.0944768859663
 20
537.5946132439094
 10
-357.8935158859663
 20
537.6035322439093
 10
-357.6691413859662
 20
537.5922732439103
 10
-357.4548063859661
 20
537.5586402439112
 10
-357.2509383859663
 20
537.5028447439108
 10
-357.0579648859661
 20
537.4250982439116
 10
-356.8763133859661
 20
537.32562124391
 10
-356.7064068859663
 20
537.2046207439106
 10
-356.5486728859662
 20
537.06231724391
 10
-356.4035433859662
 20
536.8989177439106
  0
LWPOLYLINE
  5
2E9
330
2
100
AcDbEntity
  8
EBENE_1
  6
Continuous
 62
     1
100
AcDbPolyline
 90
        3
 70
     1
 43
0.0135
 10
-364.4066988859663
 20
535.1769162439104
 10
-363.5826858859662
 20
537.1947792439096
 10
-362.7911088859662
 20
535.1769162439104
  0
LWPOLYLINE
  5
2EA
330
2
100
AcDbEntity
  8
EBENE_1
  6
Continuous
 62
     1
100
AcDbPolyline
 90
        7
 70
     1
 43
0.0135
 10
-365.5951263859661
 20
533.2434237439101
 10
-365.1658173859662
 20
533.2434237439101
 10
-364.5494433859663
 20
534.8135862439103
 10
-362.6548713859663
 20
534.8135862439103
 10
-362.0644308859662
 20
533.2434237439101
 10
-361.6037658859664
 20
533.2434237439101
 10
-363.5567298859662
 20
538.0641972439116
  0
LWPOLYLINE
  5
2EB
330
2
100
AcDbEntity
  8
EBENE_1
  6
Continuous
 62
     1
100
AcDbPolyline
 90
       12
 70
     1
 43
0.0135
 10
-360.0319383859662
 20
528.35132074391
 10
-357.6540753859663
 20
528.35132074391
 10
-357.4705698859661
 20
529.3044342439097
 10
-358.6103793859663
 20
529.3044342439097
 10
-358.5394413859662
 20
529.6729032439107
 10
-357.5322918859661
 20
529.6729032439107
 10
-357.3592038859663
 20
530.5719627439102
 10
-358.3663533859663
 20
530.5719627439102
 10
-358.3010673859662
 20
530.9109702439108
 10
-357.1907373859663
 20
530.9109702439108
 10
-357.0072453859661
 20
531.86406574391
 10
-359.3556288859661
 20
531.86406574391
  0
LWPOLYLINE
  5
2EC
330
2
100
AcDbEntity
  8
EBENE_1
  6
Continuous
 62
     1
100
AcDbPolyline
 90
        4
 70
     1
 43
0.0135
 10
-376.2346653859663
 20
529.1437617439114
 10
-361.7656938859661
 20
529.1437617439114
 10
-361.9217268859661
 20
528.3504162439093
 10
-376.3906938859661
 20
528.3504162439093
  0
SOLID
  5
2ED
330
2
100
AcDbEntity
  8
EBENE_1
 62
     1
100
AcDbTrace
 10
-376.2346653859663
 20
529.1437617439114
 30
0.0
 11
-361.7656938859661
 21
529.1437617439114
 31
0.0
 12
-376.3906938859661
 22
528.3504162439093
 32
0.0
 13
-361.9217268859661
 23
528.3504162439093
 33
0.0
  0
LWPOLYLINE
  5
2EE
330
2
100
AcDbEntity
  8
EBENE_1
  6
Continuous
 62
     1
100
AcDbPolyline
 90
       10
 70
     1
 43
0.0135
 10
-370.6927758859663
 20
533.119070743909
 10
-369.4600233859662
 20
537.0001272439112
 10
-368.1753453859662
 20
533.119070743909
 10
-366.6246498859664
 20
537.8825322439115
 10
-367.0593588859663
 20
537.8825322439115
 10
-368.1753453859662
 20
534.2101812439104
 10
-369.4600233859662
 20
538.0641972439116
 10
-370.6927758859663
 20
534.1777407439113
 10
-371.8541808859663
 20
537.8825322439115
 10
-372.2953788859663
 20
537.8825322439115
  0
LWPOLYLINE
  5
2EF
330
2
100
AcDbEntity
  8
EBENE_1
  6
Continuous
 62
     1
100
AcDbPolyline
 90
       34
 70
     1
 43
0.0135
 10
-352.9555983859664
 20
530.1298107439106
 10
-352.9113768859661
 20
530.1298107439106
 10
-352.9293768859661
 20
529.9096347439099
 10
-352.9299123859664
 20
529.7178447439109
 10
-352.9247373859662
 20
529.5500757439112
 10
-352.8902268859663
 20
528.35132074391
 10
-351.7897248859663
 20
528.35132074391
 10
-350.0866188859664
 20
531.86406574391
 10
-351.3541473859664
 20
531.86406574391
 10
-351.9272448859663
 20
530.3164932439103
 10
-351.9905058859663
 20
530.1390897439104
 10
-352.0649628859662
 20
529.9092747439098
 10
-352.1392218859662
 20
529.6237767439106
 10
-352.1686833859662
 20
529.6237767439106
 10
-352.1412513859662
 20
529.8730632439109
 10
-352.1354958859663
 20
530.0721297439103
 10
-352.1368098859662
 20
530.2231632439107
 10
-352.1549718859662
 20
531.86406574391
 10
-353.0441988859664
 20
531.86406574391
 10
-353.6942013859662
 20
530.2231632439107
 10
-353.7536733859663
 20
530.0721297439103
 10
-353.8245753859663
 20
529.8730632439109
 10
-353.8931418859661
 20
529.6237767439106
 10
-353.9226033859663
 20
529.6237767439106
 10
-353.8869273859662
 20
529.9092747439098
 10
-353.8728873859664
 20
530.1390897439104
 10
-353.8678428859662
 20
530.3164932439103
 10
-353.8450233859662
 20
531.86406574391
 10
-355.1133663859662
 20
531.86406574391
 10
-354.7620648859661
 20
528.35132074391
 10
-353.6615673859663
 20
528.35132074391
 10
-353.1654693859662
 20
529.5500757439112
 10
-353.0956788859662
 20
529.7178447439109
 10
-353.0223648859662
 20
529.9096347439099
  0
LWPOLYLINE
  5
2F0
330
2
100
AcDbEntity
  8
EBENE_1
  6
Continuous
 62
     1
100
AcDbPolyline
 90
        8
 70
     1
 43
0.0135
 10
-353.6382528859663
 20
533.2434237439101
 10
-353.2165083859663
 20
533.2434237439101
 10
-353.2165083859663
 20
536.9936427439097
 10
-349.9594128859663
 20
533.1060837439109
 10
-349.9594128859663
 20
537.8825322439115
 10
-350.3811393859662
 20
537.8825322439115
 10
-350.3811393859662
 20
534.1971942439104
 10
-353.6382528859663
 20
538.077166243911
  0
ARC
  5
2F1
330
2
100
AcDbEntity
  8
09-01
100
AcDbCircle
 10
-322.1729772963509
 20
284.4984906823356
 30
0.0
 40
8.5
100
AcDbArc
 50
0.0
 51
90.0
  0
ARC
  5
2F2
330
2
100
AcDbEntity
  8
09-01
100
AcDbCircle
 10
-322.2787100856156
 20
283.5756591883201
 30
0.0
 40
9.423424684654264
100
AcDbArc
 50
0.0
 51
89.35711592102467
  0
ARC
  5
2F3
330
2
100
AcDbEntity
  8
09-01
100
AcDbCircle
 10
-389.5375935055718
 20
284.4984906823356
 30
0.0
 40
8.5
100
AcDbArc
 50
90.0
 51
180.0
  0
ARC
  5
2F4
330
2
100
AcDbEntity
  8
09-01
100
AcDbCircle
 10
-389.431860716307
 20
283.5756591883201
 30
0.0
 40
9.42342468465425
100
AcDbArc
 50
90.64288407897532
 51
180.0
  0
LINE
  5
2F5
330
2
100
AcDbEntity
  8
09-01
100
AcDbLine
 10
-389.5375935055718
 20
292.9984906823356
 30
0.0
 11
-322.1729772962835
 21
292.9984906823356
 31
0.0
  0
LINE
  5
2F6
330
2
100
AcDbEntity
  8
09-01
100
AcDbLine
 10
-398.8552854009613
 20
570.1025228044054
 30
0.0
 11
-312.8552854009613
 21
570.1025228044054
 31
0.0
  0
LINE
  5
2F7
330
2
100
AcDbEntity
  8
09-01
100
AcDbLine
 10
-313.6729772963509
 20
273.6025228044054
 30
0.0
 11
-313.6729772963509
 21
284.4984906823356
 31
0.0
  0
LINE
  5
2F8
330
2
100
AcDbEntity
  8
09-01
100
AcDbLine
 10
-398.0375935055718
 20
273.6025228044054
 30
0.0
 11
-398.0375935055718
 21
284.4984906823356
 31
0.0
  0
LINE
  5
2F9
330
2
100
AcDbEntity
  8
09-01
100
AcDbLine
 10
-312.8552854009613
 20
273.6025228044054
 30
0.0
 11
-312.8552854009613
 21
571.6025228044054
 31
0.0
  0
LINE
  5
2FA
330
2
100
AcDbEntity
  8
09-01
100
AcDbLine
 10
-398.8552854009613
 20
273.6025228044046
 30
0.0
 11
-398.8552854009613
 21
571.6025228044054
 31
0.0
  0
LINE
  5
2FB
330
2
100
AcDbEntity
  8
09-01
100
AcDbLine
 10
-398.8552854009613
 20
571.6025228044054
 30
0.0
 11
-312.8552854009613
 21
571.6025228044054
 31
0.0
  0
LINE
  5
2FC
330
2
100
AcDbEntity
  8
0
100
AcDbLine
 10
-312.8552854009613
 20
247.2239068827093
 30
0.0
 11
-312.8552854009613
 21
137.2239068827093
 31
0.0
  0
ARC
  5
2FD
330
2
100
AcDbEntity
  8
0
100
AcDbCircle
 10
-322.1552854009615
 20
137.2239068827093
 30
0.0
 40
9.3
100
AcDbArc
 50
270.0
 51
0.0
  0
LINE
  5
2FE
330
2
100
AcDbEntity
  8
0
100
AcDbLine
 10
-398.8552854009613
 20
247.2239068827093
 30
0.0
 11
-398.8552854009613
 21
137.2239068827093
 31
0.0
  0
ARC
  5
2FF
330
2
100
AcDbEntity
  8
0
100
AcDbCircle
 10
-389.5552854009613
 20
137.2239068827093
 30
0.0
 40
9.3
100
AcDbArc
 50
180.0
 51
270.0
  0
LINE
  5
300
330
2
100
AcDbEntity
  8
0
100
AcDbLine
 10
-389.5552854009613
 20
127.92390688271
 30
0.0
 11
-322.1552854009615
 21
127.92390688271
 31
0.0
  0
LINE
  5
301
330
2
100
AcDbEntity
  8
0
100
AcDbLine
 10
-312.8552854009613
 20
247.2239068827093
 30
0.0
 11
-398.8552854009613
 21
247.2239068827093
 31
0.0
  0
LINE
  5
302
330
2
100
AcDbEntity
  8
03-01
100
AcDbLine
 10
-314.3584133977372
 20
546.2513427221529
 30
0.0
 11
-314.3552855486212
 21
546.2513419741153
 31
0.0
  0
LINE
  5
303
330
2
100
AcDbEntity
  8
03-01
100
AcDbLine
 10
-313.8552854009613
 20
565.6025228044054
 30
0.0
 11
-313.8552854009613
 21
273.6025228044054
 31
0.0
  0
LINE
  5
304
330
2
100
AcDbEntity
  8
0
100
AcDbLine
 10
-398.8552854009613
 20
273.6025228044046
 30
0.0
 11
-312.8552854009613
 21
273.6025228044054
 31
0.0
  0
ENDSEC
  0
SECTION
  2
OBJECTS
  0
DICTIONARY
  5
B
330
0
100
AcDbDictionary
281
     1
  3
ACAD_COLOR
350
4D
  3
ACAD_GROUP
350
3A
  3
ACAD_LAYOUT
350
18
  3
ACAD_MATERIAL
350
D
  3
ACAD_MLEADERSTYLE
350
50
  3
ACAD_MLINESTYLE
350
3B
  3
ACAD_PLOTSETTINGS
350
3C
  3
ACAD_PLOTSTYLENAME
350
A
  3
ACAD_SCALELIST
350
4E
  3
ACAD_TABLESTYLE
350
4F
  3
ACAD_VISUALSTYLE
350
31
  3
ACDB_RECOMPOSE_DATA
350
312
  3
AcDbVariableDictionary
350
309
  0
DICTIONARY
  5
32
330
2E
100
AcDbDictionary
280
     1
281
     1
  0
DICTIONARY
  5
21
330
20
100
AcDbDictionary
280
     1
281
     1
  3
ACAD_LAYERFILTERS
360
22
  3
ACAD_LAYERSTATES
360
23
  3
ACLYDICTIONARY
360
24
  0
DICTIONARY
  5
7
330
6
100
AcDbDictionary
280
     1
281
     1
  3
ADSK_XREC_LAYER_RECONCILED
360
8
  0
DICTIONARY
  5
19E
330
19D
100
AcDbDictionary
280
     1
281
     1
  3
ADSK_XREC_LAYER_RECONCILED
360
19F
  0
DICTIONARY
  5
DB
330
DA
100
AcDbDictionary
280
     1
281
     1
  3
ADSK_XREC_LAYER_RECONCILED
360
DC
  0
DICTIONARY
  5
80
330
7F
100
AcDbDictionary
280
     1
281
     1
  3
ADSK_XREC_LAYER_RECONCILED
360
81
  0
DICTIONARY
  5
89
330
88
100
AcDbDictionary
280
     1
281
     1
  3
ADSK_XREC_LAYER_RECONCILED
360
8A
  0
DICTIONARY
  5
217
330
216
100
AcDbDictionary
280
     1
281
     1
  3
ADSK_XREC_LAYER_RECONCILED
360
218
  0
DICTIONARY
  5
254
330
253
100
AcDbDictionary
280
     1
281
     1
  3
ADSK_XREC_LAYER_RECONCILED
360
255
  0
DICTIONARY
  5
21D
330
21C
100
AcDbDictionary
280
     1
281
     1
  3
ADSK_XREC_LAYER_RECONCILED
360
21E
  0
DICTIONARY
  5
23E
330
23D
100
AcDbDictionary
280
     1
281
     1
  3
ADSK_XREC_LAYER_RECONCILED
360
23F
  0
DICTIONARY
  5
2E0
330
2DF
100
AcDbDictionary
280
     1
281
     1
  3
ADSK_XREC_LAYER_RECONCILED
360
2E1
  0
DICTIONARY
  5
181
330
180
100
AcDbDictionary
280
     1
281
     1
  0
DICTIONARY
  5
52
330
51
100
AcDbDictionary
280
     1
281
     1
  0
DICTIONARY
  5
3
330
2
100
AcDbDictionary
280
     1
281
     1
  3
ACAD_SORTENTS
360
308
  0
DICTIONARY
  5
212
330
211
100
AcDbDictionary
280
     1
281
     1
  3
ACAD_SORTENTS
360
307
  0
DICTIONARY
  5
17C
330
17B
100
AcDbDictionary
280
     1
281
     1
  3
ACAD_SORTENTS
360
305
  0
DICTIONARY
  5
B6
330
B5
100
AcDbDictionary
280
     1
281
     1
  3
ACAD_SORTENTS
360
306
  0
DICTIONARY
  5
4D
102
{ACAD_REACTORS
330
B
102
}
330
B
100
AcDbDictionary
281
     1
  0
DICTIONARY
  5
3A
102
{ACAD_REACTORS
330
B
102
}
330
B
100
AcDbDictionary
281
     1
  0
DICTIONARY
  5
18
102
{ACAD_REACTORS
330
B
102
}
330
B
100
AcDbDictionary
281
     1
  3
Layout1
350
1F
  3
Model
350
17
  0
DICTIONARY
  5
D
102
{ACAD_REACTORS
330
B
102
}
330
B
100
AcDbDictionary
281
     1
  3
ByBlock
350
45
  3
ByLayer
350
3D
  3
Global
350
C
  0
DICTIONARY
  5
50
102
{ACAD_REACTORS
330
B
102
}
330
B
100
AcDbDictionary
281
     1
  0
DICTIONARY
  5
3B
102
{ACAD_REACTORS
330
B
102
}
330
B
100
AcDbDictionary
281
     1
  3
Standard
350
54
  0
DICTIONARY
  5
3C
102
{ACAD_REACTORS
330
B
102
}
330
B
100
AcDbDictionary
281
     1
  0
ACDBDICTIONARYWDFLT
  5
A
102
{ACAD_REACTORS
330
B
102
}
330
B
100
AcDbDictionary
281
     1
  3
Normal
350
9
100
AcDbDictionaryWithDefault
340
9
  0
DICTIONARY
  5
4E
102
{ACAD_REACTORS
330
B
102
}
330
B
100
AcDbDictionary
281
     1
  3
A0
350
59
  3
A1
350
5A
  3
A2
350
5B
  3
A3
350
5C
  3
A4
350
5D
  3
A5
350
5E
  3
A6
350
5F
  3
A7
350
60
  3
A8
350
61
  3
A9
350
62
  3
B0
350
63
  3
B1
350
64
  3
B2
350
65
  3
B3
350
66
  3
B4
350
67
  3
B5
350
68
  3
B6
350
69
  3
B7
350
6A
  3
B8
350
6B
  3
B9
350
6C
  3
C0
350
6D
  3
C1
350
6E
  3
C2
350
6F
  3
C3
350
70
  3
C4
350
71
  3
C5
350
72
  3
C6
350
73
  3
C7
350
74
  3
C8
350
75
  3
C9
350
76
  3
D0
350
77
  3
D1
350
78
  3
D2
350
79
  0
DICTIONARY
  5
4F
102
{ACAD_REACTORS
330
B
102
}
330
B
100
AcDbDictionary
281
     1
  3
Standard
350
55
  0
DICTIONARY
  5
31
102
{ACAD_REACTORS
330
B
102
}
330
B
100
AcDbDictionary
281
     1
  3
2dWireframe
350
30
  3
3dWireframe
350
58
  3
Realistic
350
57
  0
XRECORD
  5
312
102
{ACAD_REACTORS
330
B
102
}
330
B
100
AcDbXrecord
280
     1
 90
        1
330
55
  0
DICTIONARY
  5
309
102
{ACAD_REACTORS
330
B
102
}
330
B
100
AcDbDictionary
281
     1
  3
CANNOSCALE
350
30C
  3
CMLEADERSTYLE
350
30B
  3
CTABLESTYLE
350
30A
  3
LAYEREVAL
350
30E
  3
LAYERNOTIFY
350
30F
  3
LIGHTINGUNITS
350
30D
  0
DICTIONARY
  5
22
102
{ACAD_REACTORS
330
21
102
}
330
21
100
AcDbDictionary
281
     1
  0
DICTIONARY
  5
23
102
{ACAD_REACTORS
330
21
102
}
330
21
100
AcDbDictionary
281
     1
  0
DICTIONARY
  5
24
102
{ACAD_REACTORS
330
21
102
}
330
21
100
AcDbDictionary
281
     1
1001
ACAD
1000
<All
  0
XRECORD
  5
8
102
{ACAD_REACTORS
330
7
102
}
330
7
100
AcDbXrecord
280
     1
290
     1
  0
XRECORD
  5
19F
102
{ACAD_REACTORS
330
19E
102
}
330
19E
100
AcDbXrecord
280
     1
290
     1
  0
XRECORD
  5
DC
102
{ACAD_REACTORS
330
DB
102
}
330
DB
100
AcDbXrecord
280
     1
290
     1
  0
XRECORD
  5
81
102
{ACAD_REACTORS
330
80
102
}
330
80
100
AcDbXrecord
280
     1
290
     1
  0
XRECORD
  5
8A
102
{ACAD_REACTORS
330
89
102
}
330
89
100
AcDbXrecord
280
     1
290
     1
  0
XRECORD
  5
218
102
{ACAD_REACTORS
330
217
102
}
330
217
100
AcDbXrecord
280
     1
290
     1
  0
XRECORD
  5
255
102
{ACAD_REACTORS
330
254
102
}
330
254
100
AcDbXrecord
280
     1
290
     1
  0
XRECORD
  5
21E
102
{ACAD_REACTORS
330
21D
102
}
330
21D
100
AcDbXrecord
280
     1
290
     1
  0
XRECORD
  5
23F
102
{ACAD_REACTORS
330
23E
102
}
330
23E
100
AcDbXrecord
280
     1
290
     1
  0
XRECORD
  5
2E1
102
{ACAD_REACTORS
330
2E0
102
}
330
2E0
100
AcDbXrecord
280
     1
290
     1
  0
SORTENTSTABLE
  5
308
102
{ACAD_REACTORS
330
3
102
}
330
3
100
AcDbSortentsTable
330
2
331
12E
  5
1E1
331
B4
  5
2B7
331
B0
  5
2BB
331
12A
  5
1E5
331
AC
  5
2D7
331
EB
  5
2B5
331
126
  5
1E9
331
122
  5
1ED
331
A8
  5
2DB
331
302
  5
7C
331
11E
  5
1F1
331
A4
  5
2E2
331
A0
  5
2E6
331
11A
  5
1F5
331
203
  5
118
331
9C
  5
2EA
331
116
  5
296
331
112
  5
2A6
331
98
  5
2EE
331
2FE
  5
84
331
2FA
  5
8C
331
2BB
  5
B0
331
2F6
  5
90
331
2F2
  5
94
331
10E
  5
2AA
331
94
  5
2F2
331
90
  5
2F6
331
10A
  5
2AE
331
1F3
  5
11C
331
8C
  5
2FA
331
106
  5
2B2
331
2B7
  5
B4
331
2B3
  5
105
331
2EE
  5
98
331
2AF
  5
109
331
2EA
  5
9C
331
2AB
  5
10D
331
2E6
  5
A0
331
2E2
  5
A4
331
1EF
  5
120
331
1EB
  5
124
331
1E7
  5
128
331
84
  5
2FE
331
1E3
  5
12C
331
7C
  5
302
331
2A7
  5
111
331
2A3
  5
115
331
2DE
  5
A5
331
2DA
  5
A9
331
2D6
  5
AD
331
B3
  5
2B8
331
12D
  5
1E2
331
AF
  5
2BC
331
129
  5
1E6
331
AB
  5
2D8
331
125
  5
1EA
331
121
  5
1EE
331
301
  5
7D
331
A7
  5
2DC
331
11D
  5
1F2
331
A3
  5
2E3
331
9F
  5
2E7
331
119
  5
1F6
331
9B
  5
2EB
331
115
  5
2A3
331
111
  5
2A7
331
2FD
  5
85
331
2F9
  5
8D
331
2BA
  5
B1
331
2F5
  5
91
331
2F1
  5
95
331
97
  5
2EF
331
1F6
  5
119
331
10D
  5
2AB
331
93
  5
2F3
331
8F
  5
2F7
331
109
  5
2AF
331
1F2
  5
11D
331
105
  5
2B3
331
2B6
  5
D9
331
2B2
  5
106
331
2ED
  5
99
331
2AE
  5
10A
331
2E9
  5
9D
331
2AA
  5
10E
331
2E5
  5
A1
331
1EE
  5
121
331
1EA
  5
125
331
87
  5
2FB
331
1E6
  5
129
331
83
  5
2FF
331
1E2
  5
12D
331
7B
  5
303
331
130
  5
132
331
2A6
  5
112
331
2DD
  5
A6
331
2D9
  5
AA
331
B2
  5
2B9
331
12C
  5
1E3
331
AE
  5
2C9
331
128
  5
1E7
331
AA
  5
2D9
331
124
  5
1EB
331
120
  5
1EF
331
296
  5
116
331
304
  5
7A
331
2C9
  5
AE
331
300
  5
7E
331
A6
  5
2DD
331
A2
  5
2E4
331
11C
  5
1F3
331
9E
  5
2E8
331
118
  5
203
331
9A
  5
2EC
331
D9
  5
2B6
331
114
  5
2A4
331
110
  5
2A8
331
2FC
  5
86
331
2F8
  5
8E
331
2B9
  5
B2
331
2F4
  5
92
331
2F0
  5
96
331
96
  5
2F0
331
1F5
  5
11A
331
10C
  5
2AC
331
92
  5
2F4
331
8E
  5
2F8
331
108
  5
2B0
331
1F1
  5
11E
331
2B5
  5
EB
331
2B1
  5
107
331
2EC
  5
9A
331
2AD
  5
10B
331
2E8
  5
9E
331
2A9
  5
10F
331
2E4
  5
A2
331
1ED
  5
122
331
1E9
  5
126
331
86
  5
2FC
331
1E5
  5
12A
331
7E
  5
300
331
F8
  5
2B4
331
1E1
  5
12E
331
7A
  5
304
331
2A5
  5
113
331
2DC
  5
A7
331
2D8
  5
AB
331
12F
  5
17A
331
B1
  5
2BA
331
12B
  5
1E4
331
210
  5
117
331
AD
  5
2D6
331
127
  5
1E8
331
123
  5
1EC
331
A9
  5
2DA
331
303
  5
7B
331
11F
  5
1F0
331
A5
  5
2DE
331
A1
  5
2E5
331
11B
  5
1F4
331
9D
  5
2E9
331
117
  5
210
331
99
  5
2ED
331
113
  5
2A5
331
2FF
  5
83
331
2FB
  5
87
331
2BC
  5
AF
331
2F7
  5
8F
331
2F3
  5
93
331
2B8
  5
B3
331
10F
  5
2A9
331
95
  5
2F1
331
17A
  5
12F
331
91
  5
2F5
331
10B
  5
2AD
331
1F4
  5
11B
331
1F0
  5
11F
331
8D
  5
2F9
331
107
  5
2B1
331
2B4
  5
F8
331
2EF
  5
97
331
2B0
  5
108
331
2EB
  5
9B
331
2AC
  5
10C
331
2E7
  5
9F
331
2A8
  5
110
331
2E3
  5
A3
331
1EC
  5
123
331
1E8
  5
127
331
85
  5
2FD
331
1E4
  5
12B
331
7D
  5
301
331
132
  5
130
331
2A4
  5
114
331
2DB
  5
A8
331
2D7
  5
AC
  0
SORTENTSTABLE
  5
307
102
{ACAD_REACTORS
330
212
102
}
330
212
100
AcDbSortentsTable
330
211
  0
SORTENTSTABLE
  5
305
102
{ACAD_REACTORS
330
17C
102
}
330
17C
100
AcDbSortentsTable
330
17B
  0
SORTENTSTABLE
  5
306
102
{ACAD_REACTORS
330
B6
102
}
330
B6
100
AcDbSortentsTable
330
B5
  0
LAYOUT
  5
1F
102
{ACAD_REACTORS
330
18
102
}
330
18
100
AcDbPlotSettings
  1

  2

  4

  6

 40
0.0
 41
0.0
 42
0.0
 43
0.0
 44
0.0
 45
0.0
 46
0.0
 47
0.0
 48
0.0
 49
0.0
140
0.0
141
0.0
142
1.0
143
1.0
 70
   688
 72
     0
 73
     0
 74
     5
  7

 75
    16
147
1.0
 76
     0
 77
     2
 78
   300
148
0.0
149
0.0
100
AcDbLayout
  1
Layout1
 70
     1
 71
     1
 10
0.0
 20
0.0
 11
420.0
 21
297.0
 12
0.0
 22
0.0
 32
0.0
 14
1.000000000000000E+20
 24
1.000000000000000E+20
 34
1.000000000000000E+20
 15
-1.000000000000000E+20
 25
-1.000000000000000E+20
 35
-1.000000000000000E+20
146
0.0
 13
0.0
 23
0.0
 33
0.0
 16
1.0
 26
0.0
 36
0.0
 17
0.0
 27
1.0
 37
0.0
 76
     0
330
1C
  0
LAYOUT
  5
17
102
{ACAD_XDICTIONARY
360
19
102
}
102
{ACAD_REACTORS
330
18
102
}
330
18
100
AcDbPlotSettings
  1

  2
\\SRV-DC\Kyocera_TASKalfa_4052ci_SW
  4
A4
  6

 40
5.027082920074462
 41
5.11175537109375
 42
5.069412231445312
 43
5.027069091796875
 44
210.0156707763672
 45
297.0106506347656
 46
0.0
 47
2.064496
 48
0.0
 49
-0.0000000000002274
140
420.0
141
593.9999999999997
142
1.0
143
2.100848999038186
 70
  3760
 72
     1
 73
     0
 74
     4
  7
monochrome.ctb
 75
     0
147
0.4759980372020177
 76
     1
 77
     2
 78
   300
148
0.0
149
0.0000000000002274
100
AcDbLayout
  1
Model
 70
     1
 71
     0
 10
0.0
 20
0.0
 11
12.0
 21
9.0
 12
0.0
 22
0.0
 32
0.0
 14
0.0
 24
0.0
 34
0.0
 15
0.0
 25
0.0
 35
0.0
146
0.0
 13
0.0
 23
0.0
 33
0.0
 16
1.0
 26
0.0
 36
0.0
 17
0.0
 27
1.0
 37
0.0
 76
     0
330
2
331
2F
1001
ACAD_PSEXT
1000
\\SRV-DC\Kyocera_TASKalfa_4052ci_SW
1000
Microsoft enhanced Point and Print compatibility driver
1000
\\SRV-DC
1000

1070
     0
  0
MATERIAL
  5
45
102
{ACAD_XDICTIONARY
360
46
102
}
102
{ACAD_REACTORS
330
D
102
}
330
D
100
AcDbMaterial
  1
ByBlock
 72
     0
 43
0.0008202099737533
 43
0.0
 43
0.0
 43
0.0
 43
0.0
 43
0.0008202099737533
 43
0.0
 43
0.0
 43
0.0
 43
0.0
 43
1.0
 43
0.0
 43
0.0
 43
0.0
 43
0.0
 43
1.0
 77
     0
 47
0.0008202099737533
 47
0.0
 47
0.0
 47
0.0
 47
0.0
 47
0.0008202099737533
 47
0.0
 47
0.0
 47
0.0
 47
0.0
 47
1.0
 47
0.0
 47
0.0
 47
0.0
 47
0.0
 47
1.0
171
     0
 49
0.0008202099737533
 49
0.0
 49
0.0
 49
0.0
 49
0.0
 49
0.0008202099737533
 49
0.0
 49
0.0
 49
0.0
 49
0.0
 49
1.0
 49
0.0
 49
0.0
 49
0.0
 49
0.0
 49
1.0
175
     0
142
0.0008202099737533
142
0.0
142
0.0
142
0.0
142
0.0
142
0.0008202099737533
142
0.0
142
0.0
142
0.0
142
0.0
142
1.0
142
0.0
142
0.0
142
0.0
142
0.0
142
1.0
179
     0
144
0.0008202099737533
144
0.0
144
0.0
144
0.0
144
0.0
144
0.0008202099737533
144
0.0
144
0.0
144
0.0
144
0.0
144
1.0
144
0.0
144
0.0
144
0.0
144
0.0
144
1.0
147
0.0008202099737533
147
0.0
147
0.0
147
0.0
147
0.0
147
0.0008202099737533
147
0.0
147
0.0
147
0.0
147
0.0
147
1.0
147
0.0
147
0.0
147
0.0
147
0.0
147
1.0
  0
MATERIAL
  5
3D
102
{ACAD_XDICTIONARY
360
3E
102
}
102
{ACAD_REACTORS
330
D
102
}
330
D
100
AcDbMaterial
  1
ByLayer
 72
     0
 43
0.0008202099737533
 43
0.0
 43
0.0
 43
0.0
 43
0.0
 43
0.0008202099737533
 43
0.0
 43
0.0
 43
0.0
 43
0.0
 43
1.0
 43
0.0
 43
0.0
 43
0.0
 43
0.0
 43
1.0
 77
     0
 47
0.0008202099737533
 47
0.0
 47
0.0
 47
0.0
 47
0.0
 47
0.0008202099737533
 47
0.0
 47
0.0
 47
0.0
 47
0.0
 47
1.0
 47
0.0
 47
0.0
 47
0.0
 47
0.0
 47
1.0
171
     0
 49
0.0008202099737533
 49
0.0
 49
0.0
 49
0.0
 49
0.0
 49
0.0008202099737533
 49
0.0
 49
0.0
 49
0.0
 49
0.0
 49
1.0
 49
0.0
 49
0.0
 49
0.0
 49
0.0
 49
1.0
175
     0
142
0.0008202099737533
142
0.0
142
0.0
142
0.0
142
0.0
142
0.0008202099737533
142
0.0
142
0.0
142
0.0
142
0.0
142
1.0
142
0.0
142
0.0
142
0.0
142
0.0
142
1.0
179
     0
144
0.0008202099737533
144
0.0
144
0.0
144
0.0
144
0.0
144
0.0008202099737533
144
0.0
144
0.0
144
0.0
144
0.0
144
1.0
144
0.0
144
0.0
144
0.0
144
0.0
144
1.0
147
0.0008202099737533
147
0.0
147
0.0
147
0.0
147
0.0
147
0.0008202099737533
147
0.0
147
0.0
147
0.0
147
0.0
147
1.0
147
0.0
147
0.0
147
0.0
147
0.0
147
1.0
  0
MATERIAL
  5
C
102
{ACAD_XDICTIONARY
360
E
102
}
102
{ACAD_REACTORS
330
D
102
}
330
D
100
AcDbMaterial
  1
Global
 72
     0
 43
0.0008202099737533
 43
0.0
 43
0.0
 43
0.0
 43
0.0
 43
0.0008202099737533
 43
0.0
 43
0.0
 43
0.0
 43
0.0
 43
1.0
 43
0.0
 43
0.0
 43
0.0
 43
0.0
 43
1.0
 77
     0
 47
0.0008202099737533
 47
0.0
 47
0.0
 47
0.0
 47
0.0
 47
0.0008202099737533
 47
0.0
 47
0.0
 47
0.0
 47
0.0
 47
1.0
 47
0.0
 47
0.0
 47
0.0
 47
0.0
 47
1.0
171
     0
 49
0.0008202099737533
 49
0.0
 49
0.0
 49
0.0
 49
0.0
 49
0.0008202099737533
 49
0.0
 49
0.0
 49
0.0
 49
0.0
 49
1.0
 49
0.0
 49
0.0
 49
0.0
 49
0.0
 49
1.0
175
     0
142
0.0008202099737533
142
0.0
142
0.0
142
0.0
142
0.0
142
0.0008202099737533
142
0.0
142
0.0
142
0.0
142
0.0
142
1.0
142
0.0
142
0.0
142
0.0
142
0.0
142
1.0
179
     0
144
0.0008202099737533
144
0.0
144
0.0
144
0.0
144
0.0
144
0.0008202099737533
144
0.0
144
0.0
144
0.0
144
0.0
144
1.0
144
0.0
144
0.0
144
0.0
144
0.0
144
1.0
147
0.0008202099737533
147
0.0
147
0.0
147
0.0
147
0.0
147
0.0008202099737533
147
0.0
147
0.0
147
0.0
147
0.0
147
1.0
147
0.0
147
0.0
147
0.0
147
0.0
147
1.0
  0
MLINESTYLE
  5
54
102
{ACAD_REACTORS
330
3B
102
}
330
3B
100
AcDbMlineStyle
  2
STANDARD
 70
     0
  3

 62
   256
 51
90.0
 52
90.0
 71
     2
 49
0.5
 62
   256
  6
BYLAYER
 49
-0.5
 62
   256
  6
BYLAYER
  0
ACDBPLACEHOLDER
  5
9
102
{ACAD_REACTORS
330
A
102
}
330
A
  0
SCALE
  5
59
102
{ACAD_REACTORS
330
4E
102
}
330
4E
100
AcDbScale
 70
     0
300
1:1
140
1.0
141
1.0
290
     1
  0
SCALE
  5
5A
102
{ACAD_REACTORS
330
4E
102
}
330
4E
100
AcDbScale
 70
     0
300
1:2
140
1.0
141
2.0
290
     0
  0
SCALE
  5
5B
102
{ACAD_REACTORS
330
4E
102
}
330
4E
100
AcDbScale
 70
     0
300
1:4
140
1.0
141
4.0
290
     0
  0
SCALE
  5
5C
102
{ACAD_REACTORS
330
4E
102
}
330
4E
100
AcDbScale
 70
     0
300
1:5
140
1.0
141
5.0
290
     0
  0
SCALE
  5
5D
102
{ACAD_REACTORS
330
4E
102
}
330
4E
100
AcDbScale
 70
     0
300
1:8
140
1.0
141
8.0
290
     0
  0
SCALE
  5
5E
102
{ACAD_REACTORS
330
4E
102
}
330
4E
100
AcDbScale
 70
     0
300
1:10
140
1.0
141
10.0
290
     0
  0
SCALE
  5
5F
102
{ACAD_REACTORS
330
4E
102
}
330
4E
100
AcDbScale
 70
     0
300
1:16
140
1.0
141
16.0
290
     0
  0
SCALE
  5
60
102
{ACAD_REACTORS
330
4E
102
}
330
4E
100
AcDbScale
 70
     0
300
1:20
140
1.0
141
20.0
290
     0
  0
SCALE
  5
61
102
{ACAD_REACTORS
330
4E
102
}
330
4E
100
AcDbScale
 70
     0
300
1:30
140
1.0
141
30.0
290
     0
  0
SCALE
  5
62
102
{ACAD_REACTORS
330
4E
102
}
330
4E
100
AcDbScale
 70
     0
300
1:40
140
1.0
141
40.0
290
     0
  0
SCALE
  5
63
102
{ACAD_REACTORS
330
4E
102
}
330
4E
100
AcDbScale
 70
     0
300
1:50
140
1.0
141
50.0
290
     0
  0
SCALE
  5
64
102
{ACAD_REACTORS
330
4E
102
}
330
4E
100
AcDbScale
 70
     0
300
1:100
140
1.0
141
100.0
290
     0
  0
SCALE
  5
65
102
{ACAD_REACTORS
330
4E
102
}
330
4E
100
AcDbScale
 70
     0
300
2:1
140
2.0
141
1.0
290
     0
  0
SCALE
  5
66
102
{ACAD_REACTORS
330
4E
102
}
330
4E
100
AcDbScale
 70
     0
300
4:1
140
4.0
141
1.0
290
     0
  0
SCALE
  5
67
102
{ACAD_REACTORS
330
4E
102
}
330
4E
100
AcDbScale
 70
     0
300
8:1
140
8.0
141
1.0
290
     0
  0
SCALE
  5
68
102
{ACAD_REACTORS
330
4E
102
}
330
4E
100
AcDbScale
 70
     0
300
10:1
140
10.0
141
1.0
290
     0
  0
SCALE
  5
69
102
{ACAD_REACTORS
330
4E
102
}
330
4E
100
AcDbScale
 70
     0
300
100:1
140
100.0
141
1.0
290
     0
  0
SCALE
  5
6A
102
{ACAD_REACTORS
330
4E
102
}
330
4E
100
AcDbScale
 70
     0
300
1/128" = 1'-0"
140
0.0078125
141
12.0
290
     0
  0
SCALE
  5
6B
102
{ACAD_REACTORS
330
4E
102
}
330
4E
100
AcDbScale
 70
     0
300
1/64" = 1'-0"
140
0.015625
141
12.0
290
     0
  0
SCALE
  5
6C
102
{ACAD_REACTORS
330
4E
102
}
330
4E
100
AcDbScale
 70
     0
300
1/32" = 1'-0"
140
0.03125
141
12.0
290
     0
  0
SCALE
  5
6D
102
{ACAD_REACTORS
330
4E
102
}
330
4E
100
AcDbScale
 70
     0
300
1/16" = 1'-0"
140
0.0625
141
12.0
290
     0
  0
SCALE
  5
6E
102
{ACAD_REACTORS
330
4E
102
}
330
4E
100
AcDbScale
 70
     0
300
3/32" = 1'-0"
140
0.09375
141
12.0
290
     0
  0
SCALE
  5
6F
102
{ACAD_REACTORS
330
4E
102
}
330
4E
100
AcDbScale
 70
     0
300
1/8" = 1'-0"
140
0.125
141
12.0
290
     0
  0
SCALE
  5
70
102
{ACAD_REACTORS
330
4E
102
}
330
4E
100
AcDbScale
 70
     0
300
3/16" = 1'-0"
140
0.1875
141
12.0
290
     0
  0
SCALE
  5
71
102
{ACAD_REACTORS
330
4E
102
}
330
4E
100
AcDbScale
 70
     0
300
1/4" = 1'-0"
140
0.25
141
12.0
290
     0
  0
SCALE
  5
72
102
{ACAD_REACTORS
330
4E
102
}
330
4E
100
AcDbScale
 70
     0
300
3/8" = 1'-0"
140
0.375
141
12.0
290
     0
  0
SCALE
  5
73
102
{ACAD_REACTORS
330
4E
102
}
330
4E
100
AcDbScale
 70
     0
300
1/2" = 1'-0"
140
0.5
141
12.0
290
     0
  0
SCALE
  5
74
102
{ACAD_REACTORS
330
4E
102
}
330
4E
100
AcDbScale
 70
     0
300
3/4" = 1'-0"
140
0.75
141
12.0
290
     0
  0
SCALE
  5
75
102
{ACAD_REACTORS
330
4E
102
}
330
4E
100
AcDbScale
 70
     0
300
1" = 1'-0"
140
1.0
141
12.0
290
     0
  0
SCALE
  5
76
102
{ACAD_REACTORS
330
4E
102
}
330
4E
100
AcDbScale
 70
     0
300
1-1/2" = 1'-0"
140
1.5
141
12.0
290
     0
  0
SCALE
  5
77
102
{ACAD_REACTORS
330
4E
102
}
330
4E
100
AcDbScale
 70
     0
300
3" = 1'-0"
140
3.0
141
12.0
290
     0
  0
SCALE
  5
78
102
{ACAD_REACTORS
330
4E
102
}
330
4E
100
AcDbScale
 70
     0
300
6" = 1'-0"
140
6.0
141
12.0
290
     0
  0
SCALE
  5
79
102
{ACAD_REACTORS
330
4E
102
}
330
4E
100
AcDbScale
 70
     0
300
1'-0" = 1'-0"
140
12.0
141
12.0
290
     0
  0
TABLESTYLE
  5
55
102
{ACAD_XDICTIONARY
360
56
102
}
102
{ACAD_REACTORS
330
4F
102
}
330
4F
100
AcDbTableStyle
280
     0
  3
Standard
 70
     0
 71
     0
 40
1.5
 41
1.5
280
     0
281
     0
  7
Standard
140
4.5
170
     2
 62
     0
 63
     7
283
     0
 90
      512
 91
        0
  1

274
    -2
284
     1
 64
     0
275
    -2
285
     1
 65
     0
276
    -2
286
     1
 66
     0
277
    -2
287
     1
 67
     0
278
    -2
288
     1
 68
     0
279
    -2
289
     1
 69
     0
  7
Standard
140
6.0
170
     5
 62
     0
 63
     7
283
     0
 90
      512
 91
        0
  1

274
    -2
284
     1
 64
     0
275
    -2
285
     1
 65
     0
276
    -2
286
     1
 66
     0
277
    -2
287
     1
 67
     0
278
    -2
288
     1
 68
     0
279
    -2
289
     1
 69
     0
  7
Standard
140
4.5
170
     5
 62
     0
 63
     7
283
     0
 90
      512
 91
        0
  1

274
    -2
284
     1
 64
     0
275
    -2
285
     1
 65
     0
276
    -2
286
     1
 66
     0
277
    -2
287
     1
 67
     0
278
    -2
288
     1
 68
     0
279
    -2
289
     1
 69
     0
  0
VISUALSTYLE
  5
30
102
{ACAD_REACTORS
330
31
102
}
330
31
100
AcDbVisualStyle
  2
2dWireframe
 70
     4
177
     2
291
     0
 71
     0
176
     1
 72
     2
176
     1
 73
     0
176
     1
 90
        0
176
     1
 40
0.6
176
     1
 41
30.0
176
     1
 63
     7
176
     1
 74
     1
176
     1
 91
        4
176
     1
 64
     7
176
     1
 65
   257
176
     1
 75
     1
176
     1
175
     1
176
     1
 42
1.0
176
     1
 92
        0
176
     1
 66
   257
176
     1
 43
1.0
176
     1
 76
     1
176
     1
 77
     6
176
     1
 78
     2
176
     1
 67
     7
176
     1
 79
     5
176
     1
170
     0
176
     1
171
     0
176
     1
290
     0
176
     1
 93
        1
176
     1
 44
0.0
176
     1
173
     0
176
     1
  0
VISUALSTYLE
  5
58
102
{ACAD_REACTORS
330
31
102
}
330
31
100
AcDbVisualStyle
  2
3dWireframe
 70
     5
177
     2
291
     0
 71
     0
176
     1
 72
     2
176
     1
 73
     0
176
     1
 90
        0
176
     1
 40
0.6
176
     1
 41
30.0
176
     1
 63
     7
176
     1
 74
     1
176
     1
 91
        4
176
     1
 64
     7
176
     1
 65
   257
176
     1
 75
     1
176
     1
175
     1
176
     1
 42
1.0
176
     1
 92
        0
176
     1
 66
   257
176
     1
 43
1.0
176
     1
 76
     1
176
     1
 77
     6
176
     1
 78
     2
176
     1
 67
     7
176
     1
 79
     5
176
     1
170
     0
176
     1
171
     0
176
     1
290
     0
176
     1
 93
        1
176
     1
 44
0.0
176
     1
173
     0
176
     1
  0
VISUALSTYLE
  5
57
102
{ACAD_REACTORS
330
31
102
}
330
31
100
AcDbVisualStyle
  2
Realistic
 70
     8
177
     2
291
     0
 71
     2
176
     1
 72
     2
176
     1
 73
     0
176
     1
 90
        0
176
     1
 40
0.6
176
     1
 41
30.0
176
     1
 63
     7
176
     1
 74
     1
176
     1
 91
        0
176
     1
 64
     7
176
     1
 65
   257
176
     1
 75
     1
176
     1
175
     1
176
     1
 42
1.0
176
     1
 92
        8
176
     1
 66
     8
176
     1
 43
1.0
176
     1
 76
     1
176
     1
 77
     6
176
     1
 78
     2
176
     1
 67
     7
176
     1
 79
     5
176
     1
170
     0
176
     1
171
     0
176
     1
290
     0
176
     1
 93
       13
176
     1
 44
0.0
176
     1
173
     0
176
     1
  0
DICTIONARYVAR
  5
30C
102
{ACAD_REACTORS
330
309
102
}
330
309
100
DictionaryVariables
280
     0
  1
1:1
  0
DICTIONARYVAR
  5
30B
102
{ACAD_REACTORS
330
309
102
}
330
309
100
DictionaryVariables
280
     0
  1
STANDARD
  0
DICTIONARYVAR
  5
30A
102
{ACAD_REACTORS
330
309
102
}
330
309
100
DictionaryVariables
280
     0
  1
STANDARD
  0
DICTIONARYVAR
  5
30E
102
{ACAD_REACTORS
330
309
102
}
330
309
100
DictionaryVariables
280
     0
  1
1
  0
DICTIONARYVAR
  5
30F
102
{ACAD_REACTORS
330
309
102
}
330
309
100
DictionaryVariables
280
     0
  1
15
  0
DICTIONARYVAR
  5
30D
102
{ACAD_REACTORS
330
309
102
}
330
309
100
DictionaryVariables
280
     0
  1
0
  0
DICTIONARY
  5
19
330
17
100
AcDbDictionary
280
     1
281
     1
  3
ADSK_XREC_LAYOUTTHUMBNAIL
360
1A
  0
DICTIONARY
  5
46
330
45
100
AcDbDictionary
280
     1
281
     1
  3
BUMPTILE
360
47
  3
DIFFUSETILE
360
48
  3
OPACITYTILE
360
49
  3
REFLECTIONTILE
360
4A
  3
REFRACTIONTILE
360
4B
  3
SPECULARTILE
360
4C
  0
DICTIONARY
  5
3E
330
3D
100
AcDbDictionary
280
     1
281
     1
  3
BUMPTILE
360
3F
  3
DIFFUSETILE
360
40
  3
OPACITYTILE
360
41
  3
REFLECTIONTILE
360
42
  3
REFRACTIONTILE
360
43
  3
SPECULARTILE
360
44
  0
DICTIONARY
  5
E
330
C
100
AcDbDictionary
280
     1
281
     1
  3
BUMPTILE
360
F
  3
DIFFUSETILE
360
10
  3
OPACITYTILE
360
11
  3
REFLECTIONTILE
360
12
  3
REFRACTIONTILE
360
13
  3
SPECULARTILE
360
14
  0
DICTIONARY
  5
56
330
55
100
AcDbDictionary
280
     1
281
     1
  3
ACAD_ROUNDTRIP_2008_TABLESTYLE_CELLSTYLEMAP
360
310
  0
XRECORD
  5
1A
102
{ACAD_REACTORS
330
19
102
}
330
19
100
AcDbXrecord
280
     1
310
280000000001000074000000010008000000000000740000000000000000000000010000000000000000000000000000FFFFFF000000000000000000000000000000000000000000000000000000000000000000330000006600000099000000CC000000FF00000000330000333300006633000099330000CC330000FF3300
310
0000660000336600006666000099660000CC660000FF66000000990000339900006699000099990000CC990000FF99000000CC000033CC000066CC000099CC0000CCCC0000FFCC000000FF000033FF000066FF000099FF0000CCFF0000FFFF000000003300330033006600330099003300CC003300FF003300003333003333
310
33006633330099333300CC333300FF33330000663300336633006666330099663300CC663300FF66330000993300339933006699330099993300CC993300FF99330000CC330033CC330066CC330099CC3300CCCC3300FFCC330000FF330033FF330066FF330099FF3300CCFF3300FFFF330000006600330066006600660099
310
006600CC006600FF00660000336600333366006633660099336600CC336600FF33660000666600336666006666660099666600CC666600FF66660000996600339966006699660099996600CC996600FF99660000CC660033CC660066CC660099CC6600CCCC6600FFCC660000FF660033FF660066FF660099FF6600CCFF6600
310
FFFF660000009900330099006600990099009900CC009900FF00990000339900333399006633990099339900CC339900FF33990000669900336699006666990099669900CC669900FF66990000999900339999006699990099999900CC999900FF99990000CC990033CC990066CC990099CC9900CCCC9900FFCC990000FF99
310
0033FF990066FF990099FF9900CCFF9900FFFF99000000CC003300CC006600CC009900CC00CC00CC00FF00CC000033CC003333CC006633CC009933CC00CC33CC00FF33CC000066CC003366CC006666CC009966CC00CC66CC00FF66CC000099CC003399CC006699CC009999CC00CC99CC00FF99CC0000CCCC0033CCCC0066CC
310
CC0099CCCC00CCCCCC00FFCCCC0000FFCC0033FFCC0066FFCC0099FFCC00CCFFCC00FFFFCC000000FF003300FF006600FF009900FF00CC00FF00FF00FF000033FF003333FF006633FF009933FF00CC33FF00FF33FF000066FF003366FF006666FF009966FF00CC66FF00FF66FF000099FF003399FF006699FF009999FF00CC
310
99FF00FF99FF0000CCFF0033CCFF0066CCFF0099CCFF00CCCCFF00FFCCFF0000FFFF0033FFFF0066FFFF0099FFFF00CCFFFF00FFFFFF00000000000D0D0D001A1A1A00282828003535350043434300505050005D5D5D006B6B6B00787878008686860093939300A1A1A100AEAEAE00BBBBBB00C9C9C900D6D6D600E4E4E400
310
F1F1F100FFFFFF0000000000000000000000000000000000000000000000000000000000000000000000000000000000E2E2E2E2E2E2E2E2E2E2E2E2E2E2E2E2E2E2E2E2E2E2E2E2E2E2E2E2E2E2E2E2E2E2E2E2E2E2E2E2E2E2E2E2E2E2E2E2E2E2E2E2E2E2E2E2E2E2E2E2E2E2E2E2E2E2E2E2E2E2E2E2E2E2E2E2E2E2E2
310
E2E2E2E2E2E2E2E2E2E2E2E2E2E2E2E2E2E2E2E2E2E2E2E2E2E2E2E2E2E2E2E2E2E2E2E2E2E2E2E2E2E2E2E2E2E2E2E2E2E2E2E2E2E2E2E2E2E2E2E2E2E2E2E2E2E2E2E2E2E2E2E2E2E2E2E2E2E2E2E2E2E2E2E2E2E2E2E2E2E2E2E2E2E2E2E2E2E2E2E2E2E2E2E2E2E2E2E2E2E2E2E2E2E2E2E2E2E2E2E2E2E2E2E2E2E2E2
310
E2E2E2E2E2E2E2E2E2E2E2E2E2E2E2E2E2E2E2E2E2E2E2E2E2E2E2E2E2E2E2E2E2E2E2E2E2E2E2E2E2E2E2E2E2E2E2E2E2E2E2E2E2E2E2E2E2E2E2E2E2E2E2E2E2E2E2E2E2E2E2E2E2E2E2E2E2E2E2E2E2E2E2E2E2E2E2E2E2E2E2E2E2E2E2E2E2E2E2E2E2E2E2E2E2E2E2E2E2E2E2E2E2E2E2E2E2E2E2E2E2E2E2E2E2E2E2
310
E2E2E2E2E2E2E2E2E2E2E2E2E2E2E2E2E2E2E2E2E2E2E2E2E2E2E2E2E2E2E2E2E2E2E2E2E2E2E2E2E2E2E2E2E2E2E2E2E2E2E2E2E2E2E2E2E2E2E2E2E2E2E2E2E2E2E2E2E2E2E2E2E2E2E2E2E2E2E2E2E2E2E2E2E2E2E2E2E2E2E2E2E2E2E2E2E2E2E2E2E2E2E2E2E2E2E2E2E2E2E2E2E2E2E2E2E2E2E2E2E2E2E2E2E2E2E2
310
E2E2E2E2E2E2E2E2E2E2E2E2E2E2E2E2E2E2E2E2E2E2E2E2E2E2E2E2E2E2E2E2E2E2E2E2E2E2E2E2E2E2E2E2E2E2E2E2E2E2E2E2E2E2E2E2E2E2E2E2E2E2E2E2E2E2E2E2E2E2E2E2E2E2E2E2E2E2E2E2E2E2E2E2E2E2E2E2E2E2E2E2E2E2E2E2E2E2E2E2E2E2E2E2E2E2E2E2E2E2E2E2E2E2E2E2E2E2E2E2E2E2E2E2E2E2E2
310
E2E2E2E2E2E2E2E2E2E2E2E2E2E2E2E2E2E2E2E2E2E2E2E2E2E2E2E2E2E2E2E2E2E2E2E2E2E2E2E2E2E2E2E2E2E2E2E2E2E2E2E2E2E2E2E2E2E2E2E2E2E2E2E2E2E2E2E2E2E2E2E2E2E2E2E2E2E2E2E2E2E2E2E2E2E2E2E2E2E2E2E2E2E2E2E2E2E2E2E2E2E2E2E2E2E2E2E2E2E2E2E2E2E2E2E2E2E2E2E2E2E2E2E2E2E2E2
310
E2E2E2E2E2E2E2E2E2E2E2E2E2E2E2E2E2E2E2E2E2E2E2E2E2E2E2E2E2E2E2E2E2E2E2E2E2E2E2E2E2E2E2E2E2E2E2E2E2E2E2E2E2E2E2E2E2E2E2E2E2E2E2E2E2E2E2E2E2E2E2E2E2E2E2E2E2E2E2E2E2E2E2E2E2E2E2E2E2E2E2E2E2E2E2E2E2E2E2E2E2E2E2E2E2E2E2E2E2E2E2E2E2E2E2E2E2E2E2E2E2E2E2E2E2E2E2
310
E2E2E2E2E2E2E2E2E2E2E2E2E2E2E2E2E2E2E2E2E2E2E2E2E2E2E2E2E2E2E2E2E2E2E2E2E2E2E2E2E2E2E2E2E2E2E2E2E2E2E2E2E2E2E2E2E2E2E2E2E2E2E2E2E2E2E2E2E2E2E2E2E2E2E2E2E2E2E2E2E2E2E2E2E2E2E2E2E2E2E2E2E2E2E2E2E2E2E2E2E2E2E2E2E2E2E2E2E2E2E2E2E2E2E2E2E2E2E2E2E2E2E2E2E2E2E2
310
E2E2E2E2E2E2E2E2E2E2E2E2E2E2E2E2E2E2E2E2E2E2E2E2E2E2E2E2E2E2E2E2E2E2E2E2E2E2E2E2E2E2E2E2E2E2E2E2E2E2E2E2E2E2E2E2E2E2E2E2E2E2E2E2E2E2E2E2E2E2E2E2E2E2E2E2E2E2E2E2E2E2E2E2E2E2E2E2E2E2E2E2E2E2E2E2E2E2E2E2E2E2E2E2E2E2E2E2E2E2E2E2E2E2E2E2E2E2E2E2E2E2E2E2E2E2E2
310
E2E2E2E2E2E2E2E2E2E2E2E2E2E2E2E2E2E2E2E2E2E2E2E2E2E2E2E2E2E2E2E2E2E2E2E2E2E2E2E2E2E2E2E2E2E2E2E2E2E2E2E2E2E2E2E2E2E2E2E2E2E2E2E2E2E2E2E2E2E2E2E2E2E2E2E2E2E2E2E2E2E2E2E2E2E2E2E2E2E2E2E2E2E2E2E2E2E2E2E2E2E2E2E2E2E2E2E2E2E2E2E2E2E2E2E2E2E2E2E2E2E2E2E2E2E2E2
310
E2E2E2E2E2E2E2E2E2E2E2E2E2E2E2E2E2E2E2E2E2E2E2E2E2E2E2E2E2E2E2E2E2E2E2E2E2E2E2E2E2E2E2E2E2E2E2E2E2E2E2E2E2E2E2E2E2E2E2E2E2E2E2E2E2E2E2E2E2E2E2E2E2E2E2E2E2E2E2E2E2E2E2E2E2E2E2E2E2E2E2E2E2E2E2E2E2E2E2E2E2E2E2E2E2E2E2E2E2E2E2E2E2E2E2E2E2E2E2E2E2E2E2E2E2E2E2
310
E2E2E2E2E2E2E2E2E2E2E2E2E2E2E2E2E2E2E2E2E2E2E2E2E2E2E2E2E2E2E2E2E2E2E2E2E2E2E2E2E2E2E2E2E2E2E2E2E2E2E2E2E2E2E2E2E2E2E2E2E2E2E2E2E2E2E2E2E2E2E2E2E2E2E2E2E2E2E2E2E2E2E2E2E2E2E2E2E2E2E2E2E2E2E2E2E2E2E2E2E2E2E2E2E2E2E2E2E2E2E2E2E2E2E2E2E2E2E2E2E2E2E2E2E2E2E2
310
E2E2E2E2E2E2E2E2E2E2E2E2E2E2E2E2E2E2E2E2E2E2E2E2E2E2E2E2E2E2E2E2E2E2E2E2E2E2E2E2E2E2E2E2E2E2E2E2E2E2E2E2E2E2E2E2E2E2E2E2E2E2E2E2E2E2E2E2E2E2E2E2E2E2E2E2E2E2E2E2E2E2E2E2E2E2E2E2E2E2E2E2E2E2E2E2E2E2E2E2E2E2E2E2E2E2E2E2E2E2E2E2E2E2E2E2E2E2E2E2E2E2E2E2E2E2E2
310
E2E2E2E2E2E2E2E2E2E2E2E2E2E2E2E2E2E2E2E2E2E2E2E2E2E2E2E2E2E2E2E2E2E2E2E2E2E2E2E2E2E2E2E2E2E2E2E2E2E2E2E2E2E2E2E2E2E2E2E2E2E2E2E2E2E2E2E2E2E2E2E2E2E2E2E2E2E2E2E2E2E2E2E2E2E2E2E2E2E2E2E2E2E2E2E2E2E2E2E2E2E2E2E2E2E2E2E2E2E2E2E2E2E2E2E2E2E2E2E2E2E2E2E2E2E2E2
310
E2E2E2E2E2E2E2E2E2E2E2E2E2E2E2E2E2E2E2E2E2E2E2E2E2E2E2E2E2E2E2E2E2E2E2E2E2E2E2E2E2E2E2E2E2E2E2E2E2E2E2E2E2E2E2E2E2E2E2E2E2E2E2E2E2E2E2E2E2E2E2E2E2E2E2E2E2E2E2E2E2E2E2E2E2E2E2E2E2E2E2E2E2E2E2E2E2E2E2E2E2E2E2E2E2E2E2E2E2E2E2E2E2E2E2E2E2E2E2E2E2E2E2E2E2E2E2
310
E2E2E2E2E2E2E2E2E2E2E2E2E2E2E2E2E2E2E2E2E2E2E2E2E2E2E2E2E2E2E2E2E2E2E2E2E2E2E2E2E2E2E2E2E2E2E2E2E2E2E2E2E2E2E2E2E2E2E2E2E2E2E2E2E2E2E2E2E2E2E2E2E2E2E2E2E2E2E2E2E2E2E2E2E2E2E2E2E2E2E2E2E2E2E2E2E2E2E2E2E2E2E2E2E2E2E2E2E2E2E2E2E2E2E2E2E2E2E2E2E2E2E2E2E2E2E2
310
E2E2E2E2E2E2E2E2E2E2E2E2E2E2E2E2E2E2E2E2E2E2E2E2E2E2E2E2E2E2E2E2E2E2E2E2E2E2E2E2E2E2E2E2E2E2E2E2E2E2E2E2E2E2E2E2E2E2E2E2E2E2E2E2E2E2E2E2E2E2E2E2E2E2E2E2E2E2E2E2E2E2E2E2E2E2E2E2E2E2E2E2E2E2E2E2E2E2E2E2E2E2E2E2E2E2E2E2E2E2E2E2E2E2E2E2E2E2E2E2E2E2E2E2E2E2E2
310
E2E2E2E2E2E2E2E2E2E2E2E2E2E2E2E2E2E2E2E2E2E2E2E2E2E2E2E2E2E2E2E2E2E2E2E2E2E2E2E2E2E2E2E2E2E2E2E2E2E2E2E2E2E2E2E2E2E2E2E2E2E2E2E2E2E2E2E2E2E2E2E2E2E2E2E2E2E2E2E2E2E2E2E2E2E2E2E2E2E2E2E2E2E2E2E2E2E2E2E2E2E2E2E2E2E2E2E2E2E2E2E2E2E2E2E2E2E2E2E2E2E2E2E2E2E2E2
310
E2E2E2E2E2E2E2E2E2E2E2E2E2E2E2E2E2E2E2E2E2E2E2E2E2E2E2E2E2E2E2E2E2E2E2E2E2E2E2E2E2E2E2E2E2E2E2E2E2E2E2E2E2E2E2E2E2E2E2E2E2E2E2E2E2E2E2E2E2E2E2E2E2E2E2E2E2E2E2E2E2E2E2E2E2E2E2E2E2E2E2E2E2E2E2E2E2E2E2E2E2E2E2E2E2E2E2E2E2E2E2E2E2E2E2E2E2E2E2E2E2E2E2E2E2E2E2
310
E2E2E2E2E2E2E2E2E2E2E2E2E2E2E2E2E2E2E2E2E2E2E2E2E2E2E2E2E2E2E2E2E2E2E2E2E2E2E2E2E2E2E2E2E2E2E2E2E2E2E2E2E2E2E2E2E2E2E2E2E2E2E2E2E2E2E2E2E2E2E2E2E2E2E2E2E2E2E2E2E2E2E2E2E2E2E2E2E2E2E2E2E2E2E2E2E2E2E2E2E2E2E2E2E2E2E2E2E2E2E2E2E2E2E2E2E2E2E2E2E2E2E2E2E2E2E2
310
E2E2E2E2E2E2E2E2E2E2E2E2E2E2E2E2E2E2E2E2E2E2E2E2E2E2E2E2E2E2E2E2E2E2E2E2E2E2E2E2E2E2E2E2E2E2E2E2E2E2E2E2E2E2E2E2E2E2E2E2E2E2E2E2E2E2E2E2E2E2E2E2E2E2E2E2E2E2E2E2E2E2E2E2E2E2E2E2E2E2E2E2E2E2E2E2E2E2E2E2E2E2E2E2E2E2E2E2E2E2E2E2E2E2E2E2E2E2E2E2E2E2E2E2E2E2E2
310
E2E2E2E2E2E2E2E2E2E2E2E2E2E2E2E2E2E2E2E2E2E2E2E2E2E2E2E2E2E2E2E2E2E2E2E2E2E2E2E2E2E2E2E2E2E2E2E2E2E2E2E2E2E2E2E2E2E2E2E2E2E2E2E2E2E2E2E2E2E2E2E2E2E2E2E2E2E2E2E2E2E2E2E2E2E2E2E2E2E2E2E2E2E2E2E2E2E2E2E2E2E2E2E2E2E2E2E2E2E2E2E2E2E2E2E2E2E2E2E2E2E2E2E2E2E2E2
310
E2E2E2E2E2E2E2E2E2E2E2E2E2E2E2E2E2E2E2E2E2E2E2E2E2E2E2E2E2E2E2E2E2E2E2E2E2E2E2E2E2E2E2E2E2E2E2E2E2E2E2E2E2E2E2E2E2E2E2E2E2E2E2E2E2E2E2E2E2E2E2E2E2E2E2E2E2E2E2E2E2E2E2E2E2E2E2E2E2E2E2E2E2E2E2E2E2E2E2E2E2E2E2E2E2E2E2E2E2E2E2E2E2E2E2E2E2E2E2E2E2E2E2E2E2E2E2
310
E2E2E2E2E2E2E2E2E2E2E2E2E2E2E2E2E2E2E2E2E2E2E2E2E2E2E2E2E2E2E2E2E2E2E2E2E2E2E2E2E2E2E2E2E2E2E2E2E2E2E2E2E2E2E2E2E2E2E2E2E2E2E2E2E2E2E2E2E2E2E2E2E2E2E2E2E2E2E2E2E2E2E2E2E2E2E2E2E2E2E2E2E2E2E2E2E2E2E2E2E2E2E2E2E2E2E2E2E2E2E2E2E2E2E2E2E2E2E2E2E2E2E2E2E2E2E2
310
E2E2E2E2E2E2E2E2E2E2E2E2E2E2E2E2E2E2E2E2E2E2E2E2E2E2E2E2E2E2E2E2E2E2E2E2E2E2E2E2E2E2E2E2E2E2E2E2E2E2E2E2E2E2E2E2E2E2E2E2E2E2E2E2E2E2E2E2E2E2E2E2E2E2E2E2E2E2E2E2E2E2E2E2E2E2E2E2E2E2E2E2E2E2E2E2E2E2E2E2E2E2E2E2E2E2E2E2E2E2E2E2E2E2E2E2E2E2E2E2E2E2E2E2E2E2E2
310
E2E2E2E2E2E2E2E2E2E2E2E2E2E2E2E2E2E2E2E2E2E2E2E2E2E2E2E2E2E2E2E2E2E2E2E2E2E2E2E2E2E2E2E2E2E2E2E2E2E2E2E2E2E2E2E2E2E2E2E2E2E2E2E2E2E2E2E2E2E2E2E2E2E2E2E2E2E2E2E2E2E2E2E2E2E2E2E2E2E2E2E2E2E2E2E2E2E2E2E2E2E2E2E2E2E2E2E2E2E2E2E2E2E2E2E2E2E2E2E2E2E2E2E2E2E2E2
310
E2E2E2E2E2E2E2E2E2E2E2E2E2E2E2E2E2E2E2E2E2E2E2E2E2E2E2E2E2E2E2E2E2E2E2E2E2E2E2E2E2E2E2E2E2E2E2E2E2E2E2E2E2E2E2E2E2E2E2E2E2E2E2E2E2E2E2E2E2E2E2E2E2E2E2E2E2E2E2E2E2E2E2E2E2E2E2E2E2E2E2E2E2E2E2E2E2E2E2E2E2E2E2E2E2E2E2E2E2E2E2E2E2E2E2E2E2E2E2E2E2E2E2E2E2E2E2
310
E2E2E2E2E2E2E2E2E2E2E2E2E2E2E2E2E2E2E2E2E2E2E2E2E2E2E2E2E2E2E2E2E2E2E2E2E2E2E2E2E2E2E2E2E2E2E2E2E2E2E2E2E2E2E2E2E2E2E2E2E2E2E2E2E2E2E2E2E2E2E2E2E2E2E2E2E2E2E2E2E2E2E2E2E2E2E2E2E2E2E2E2E2E2E2E2E2E2E2E2E2E2E2E2E2E2E2E2E2E2E2E2E2E2E2E2E2E2E2E2E2E2E2E2E2E2E2
310
E2E2E2E2E2E2E2E2E2E2E2E2E2E2E2E2E2E2E2E2E2E2E2E2E2E2E2E2E2E2E2E2E2E2E2E2E2E2E2E2E2E2E2E2E2E2E2E2E2E2E2E2E2E2E2E2E2E2E2E2E2E2E2E2E2E2E2E2E2E2E2E2E2E2E2E2E2E2E2E2E2E2E2E2E2E2E2E2E2E2E2E2E2E2E2E2E2E2E2E2E2E2E2E2E2E2E2E2E2E2E2E2E2E2E2E2E2E2E2E2E2E2E2E2E2E2E2
310
E2E2E2E2E2E2E2E2E2E2E2E2E2E2E2E2E2E2E2E2E2E2E2E2E2E2E2E2E2E2E2E2E2E2E2E2E2E2E2E2E2E2E2E2E2E2E2E2E2E2E2E2E2E2E2E2E2E2E2E2E2E2E2E2E2E2E2E2E2E2E2E2E2E2E2E2E2E2E2E2E2E2E2E2E2E2E2E2E2E2E2E2E2E2E2E2E2E2E2E2E2E2E2E2E2E2E2E2E2E2E2E2E2E2E2E2E2E2E2E2E2E2E2E2E2E2E2
310
E2E2E2E2E2E2E2E2E2E2E2E2E2E2E2E2E2E2E2E2E2E2E2E2E2E2E2E2E2E2E2E2E2E2E2E2E2E2E2E2E2E2E2E2E2E2E2E2E2E2E2E2E2E2E2E2E2E2E2E2E2E2E2E2E2E2E2E2E2E2E2E2E2E2E2E2E2E2E2E2E2E2E2E2E2E2E2E2E2E2E2E2E2E2E2E2E2E2E2E2E2E2E2E2E2E2E2E2E2E2E2E2E2E2E2E2E2E2E2E2E2E2E2E2E2E2E2
310
E2E2E2E2E2E2E2E2E2E2E2E2E2E2E2E2E2E2E2E2E2E2E2E2E2E2E2E2E2E2E2E2E2E2E2E2E2E2E2E2E2E2E2E2E2E2E2E2E2E2E2E2E2E2E2E2E2E2E2E2E2E2E2E2E2E2E2E2E2E2E2E2E2E2E2E2E2E2E2E2E2E2E2E2E2E2E2E2E2E2E2E2E2E2E2E2E2E2E2E2E2E2E2E2E2E2E2E2E2E2E2E2E2E2E2E2E2E2E2E2E2E2E2E2E2E2E2
310
E2E2E2E2E2E2E2E2E2E2E2E2E2E2E2E2E2E2E2E2E2E2E2E2E2E2E2E2E2E2E2E2E2E2E2E2E2E2E2E2E2E2E2E2E2E2E2E2E2E2E2E2E2E2E2E2E2E2E2E2E2E2E2E2E2E2E2E2E2E2E2E2E2E2E2E2E2E2E2E2E2E2E2E2E2E2E2E2E2E2E2E2E2E2E2E2E2E2E2E2E2E2E2E2E2E2E2E2E2E2E2E2E2E2E2E2E2E2E2E2E2E2E2E2E2E2E2
310
E2E2E2E2E2E2E2E2E2E2E2E2E2E2E2E2E2E2E2E2E2E2E2E2E2E2E2E2E2E2E2E2E2E2E2E2E2E2E2E2E2E2E2E2E2E2E2E2E2E2E2E2E2E2E2E2E2E2E2E2E2E2E2E2E2E2E2E2E2E2E2E2E2E2E2E2E2E2E2E2E2E2E2E2E2E2E2E2E2E2E2E2E2E2E2E2E2E2E2E2E2E2E2E2E2E2E2E2E2E2E2E2E2E2E2E2E2E2E2E2E2E2E2E2E2E2E2
310
E2E2E2E2E2E2E2E2E2E2E2E2E2E2E2E2E2E2E2E2E2E2E2E2E2E2E2E2E2E2E2E2E2E2E2E2E2E2E2E2E2E2E2E2E2E2E2E2E2E2E2E2E2E2E2E2E2E2E2E2E2E2E2E2E2E2E2E2E2E2E2E2E2E2E2E2E2E2E2E2E2E2E2E2E2E2E2E2E2E2E2E2E2E2E2E2E2E2E2E2E2E2E2E2E2E2E2E2E2E2E2E2E2E2E2E2E2E2E2E2E2E2E2E2E2E2E2
310
E2E2E2E2E2E2E2E2E2E2E2E2E2E2E2E2E2E2E2E2E2E2E2E2E2E2E2E2E2E2E2E2E2E2E2E2E2E2E2E2E2E2E2E2E2E2E2E2E2E2E2E2E2E2E2E2E2E2E2E2E2E2E2E2E2E2E2E2E2E2E2E2E2E2E2E2E2E2E2E2E2E2E2E2E2E2E2E2E2E2E2E2E2E2E2E2E2E2E2E2E2E2E2E2E2E2E2E2E2E2E2E2E2E2E2E2E2E2E2E2E2E2E2E2E2E2E2
310
E2E2E2E2E2E2E2E2E2E2E2E2E2E2E2E2E2E2E2E2E2E2E2E2E2E2E2E2E2E2E2E2E2E2E2E2E2E2E2E2E2E2E2E2E2E2E2E2E2E2E2E2E2E2E2E2E2E2E2E2E2E2E2E2E2E2E2E2E2E2E2E2E2E2E2E2E2E2E2E2E2E2E2E2E2E2E2E2E2E2E2E2E2E2E2E2E2E2E2E2E2E2E2E2E2E2E2E2E2E2E2E2E2E2E2E2E2E2E2E2E2E2E2E2E2E2E2
310
E2E2E2E2E2E2E2E2E2E2E2E2E2E2E2E2E2E2E2E2E2E2E2E2E2E2E2E2E2E2E2E2E2E2E2E2E2E2E2E2E2E2E2E2E2E2E2E2E2E2E2E2E2E2E2E2E2E2E2E2E2E2E2E2E2E2E2E2E2E2E2E2E2E2E2E2E2E2E2E2E2E2E2E2E2E2E2E2E2E2E2E2E2E2E2E2E2E2E2E2E2E2E2E2E2E2E2E2E2E2E2E2E2E2E2E2E2E2E2E2E2E2E2E2E2E2E2
310
E2E2E2E2E2E2E2E2E2E2E2E2E2E2E2E2E2E2E2E2E2E2E2E2E2E2E2E2E2E2E2E2E2E2E2E2E2E2E2E2E2E2E2E2E2E2E2E2E2E2E2E2E2E2E2E2E2E2E2E2E2E2E2E2E2E2E2E2E2E2E2E2E2E2E2E2E2E2E2E2E2E2E2E2E2E2E2E2E2E2E2E2E2E2E2E2E2E2E2E2E2E2E2E2E2E2E2E2E2E2E2E2E2E2E2E2E2E2E2E2E2E2E2E2E2E2E2
310
E2E2E2E2E2E2E2E2E2E2E2E2E2E2E2E2E2E2E2E2E2E2E2E2E2E2E2E2E2E2E2E2E2E2E2E2E2E2E2E2E2E2E2E2E2E2E2E2E2E2E2E2E2E2E2E2E2E2E2E2E2E2E2E2E2E2E2E2E2E2E2E2E2E2E2E2E2E2E2E2E2E2E2E2E2E2E2E2E2E2E2E2E2E2E2E2E2E2E2E2E2E2E2E2E2E2E2E2E2E2E2E2E2E2E2E2E2E2E2E2E2E2E2E2E2E2E2
310
E2E2E2E2E2E2E2E2E2E2E2E2E2E2E2E2E2E2E2E2E2E2E2E2E2E2E2E2E2E2E2E2E2E2E2E2E2E2E2E2E2E2E2E2E2E2E2E2E2E2E2E2E2E2E2E2E2E2E2E2E2E2E2E2E2E2E2E2E2E2E2E2E2E2E2E2E2E2E2E2E2E2E2E2E2E2E2E2E2E2E2E2E2E2E2E2E2E2E2E2E2E2E2E2E2E2E2E2E2E2E2E2E2E2E2E2E2E2E2E2E2E2E2E2E2E2E2
310
E2E2E2E2E2E2E2E2E2E2E2E2E2E2E2E2E2E2E2E2E2E2E2E2E2E2E2E2E2E2E2E2E2E2E2E2E2E2E2E2E2E2E2E2E2E2E2E2E2E2E2E2E2E2E2E2E2E2E2E2E2E2E2E2E2E2E2E2E2E2E2E2E2E2E2E2E2E2E2E2E2E2E2E2E2E2E2E2E2E2E2E2E2E2E2E2E2E2E2E2E2E2E2E2E2E2E2E2E2E2E2E2E2E2E2E2E2E2E2E2E2E2E2E2E2E2E2
310
E2E2E2E2E2E2E2E2E2E2E2E2E2E2E2E2E2E2E2E2E2E2E2E2E2E2E2E2E2E2E2E2E2E2E2E2E2E2E2E2E2E2E2E2E2E2E2E2E2E2E2E2E2E2E2E2E2E2E2E2E2E2E2E2E2E2E2E2E2E2E2E2E2E2E2E2E2E2E2E2E2E2E2E2E2E2E2E2E2E2E2E2E2E2E2E2E2E2E2E2E2E2E2E2E2E2E2E2E2E2E2E2E2E2E2E2E2E2E2E2E2E2E2E2E2E2E2
310
E2E2E2E2E2E2E2E2E2E2E2E2E2E2E2E2E2E2E2E2E2E2E2E2E2E2E2E2E2E2E2E2E2E2E2E2E2E2E2E2E2E2E2E2E2E2E2E2E2E2E2E2E2E2E2E2E2E2E2E2E2E2E2E2E2E2E2E2E2E2E2E2E2E2E2E2E2E2E2E2E2E2E2E2E2E2E2E2E2E2E2E2E2E2E2E2E2E2E2E2E2E2E2E2E2E2E2E2E2E2E2E2E2E2E2E2E2E2E2E2E2E2E2E2E2E2E2
310
E2E2E2E2E2E2E2E2E2E2E2E2E2E2E2E2E2E2E2E2E2E2E2E2E2E2E2E2E2E2E2E2E2E2E2E2E2E2E2E2E2E2E2E2E2E2E2E2E2E2E2E2E2E2E2E2E2E2E2E2E2E2E2E2E2E2E2E2E2E2E2E2E2E2E2E2E2E2E2E2E2E2E2E2E2E2E2E2E2E2E2E2E2E2E2E2E2E2E2E2E2E2E2E2E2E2E2E2E2E2E2E2E2E2E2E2E2E2E2E2E2E2E2E2E2E2E2
310
E2E2E2E2E2E2E2E2E2E2E2E2E2E2E2E2E2E2E2E2E2E2E2E2E2E2E2E2E2E2E2E2E2E2E2E2E2E2E2E2E2E2E2E2E2E2E2E2E2E2E2E2E2E2E2E2E2E2E2E2E2E2E2E2E2E2E2E2E2E2E2E2E2E2E2E2E2E2E2E2E2E2E2E2E2E2E2E2E2E2E2E2E2E2E2E2E2E2E2E2E2E2E2E2E2E2E2E2E2E2E2E2E2E2E2E2E2E2E2E2E2E2E2E2E2E2E2
310
E2E2E2E2E2E2E2E2E2E2E2E2E2E2E2E2E2E2E2E2E2E2E2E2E2E2E2E2E2E2E2E2E2E2E2E2E2E2E2E2E2E2E2E2E2E2E2E2E2E2E2E2E2E2E2E2E2E2E2E2E2E2E2E2E2E2E2E2E2E2E2E2E2E2E2E2E2E2E2E2E2E2E2E2E2E2E2E2E2E2E2E2E2E2E2E2E2E2E2E2E2E2E2E2E2E2E2E2E2E2E2E2E2E2E2E2E2E2E2E2E2E2E2E2E2E2E2
310
E2E2E2E2E2E2E2E2E2E2E2E2E2E2E2E2E2E2E2E2E2E2E2E2E2E2E2E2E2E2E2E2E2E2E2E2E2E2E2E2E2E2E2E2E2E2E2E2E2E2E2E2E2E2E2E2E2E2E2E2E2E2E2E2E2E2E2E2E2E2E2E2E2E2E2E2E2E2E2E2E2E2E2E2E2E2E2E2E2E2E2E2E2E2E2E2E2E2E2E2E2E2E2E2E2E2E2E2E2E2E2E2E2E2E2E2E2E2E2E2E2E2E2E2E2E2E2
310
E2E2E2E2E2E2E2E2E2E2E2E2E2E2E2E2E2E2E2E2E2E2E2E2E2E2E2E2E2E2E2E2E2E2E2E2E2E2E2E2E2E2E2E2E2E2E2E2E2E2E2E2E2E2E2E2E2E2E2E2E2E2E2E2E2E2E2E2E2E2E2E2E2E2E2E2E2E2E2E2E2E2E2E2E2E2E2E2E2E2E2E2E2E2E2E2E2E2E2E2E2E2E2E2E2E2E2E2E2E2E2E2E2E2E2E2E2E2E2E2E2E2E2E2E2E2E2
310
E2E2E2E2E2E2E2E2E2E2E2E2E2E2E2E2E2E2E2E2E2E2E2E2E2E2E2E2E2E2E2E2E2E2E2E2E2E2E2E2E2E2E2E2E2E2E2E2E2E2E2E2E2E2E2E2E2E2E2E2E2E2E2E2E2E2E2E2E2E2E2E2E2E2E2E2E2E2E2E2E2E2E2E2E2E2E2E2E2E2E2E2E2E2E2E2E2E2E2E2E2E2E2E2E2E2E2E2E2E2E2E2E2E2E2E2E2E2E2E2E2E2E2E2E2E2E2
310
E2E2E2E2E2E2E2E2E2E2E2E2E2E2E2E2E2E2E2E2E2E2E2E2E2E2E2E2E2E2E2E2E2E2E2E2E2E2E2E2E2E2E2E2E2E2E2E2E2E2E2E2E2E2E2E2E2E2E2E2E2E2E2E2E2E2E2E2E2E2E2E2E2E2E2E2E2E2E2E2E2E2E2E2E2E2E2E2E2E2E2E2E2E2E2E2E2E2E2E2E2E2E2E2E2E2E2E2E2E2E2E2E2E2E2E2E2E2E2E2E2E2E2E2E2E2E2
310
E2E2E2E2E2E2E2E2E2E2E2E2E2E2E2E2E2E2E2E2E2E2E2E2E2E2E2E2E2E2E2E2E2E2E2E2E2E2E2E2E2E2E2E2E2E2E2E2E2E2E2E2E2E2E2E2E2E2E2E2E2E2E2E2E2E2E2E2E2E2E2E2E2E2E2E2E2E2E2E2E2E2E2E2E2E2E2E2E2E2E2E2E2E2E2E2E2E2E2E2E2E2E2E2E2E2E2E2E2E2E2E2E2E2E2E2E2E2E2E2E2E2E2E2E2E2E2
310
E2E2E2E2E2E2E2E2E2E2E2E2E2E2E2E2E2E2E2E2E2E2E2E2E2E2E2E2E2E2E2E2E2E2E2E2E2E2E2E2E2E2E2E2E2E2E2E2E2E2E2E2E2E2E2E2E2E2E2E2E2E2E2E2E2E2E2E2E2E2E2E2E2E2E2E2E2E2E2E2E2E2E2E2E2E2E2E2E2E2E2E2E2E2E2E2E2E2E2E2E2E2E2E2E2E2E2E2E2E2E2E2E2E2E2E2E2E2E2E2E2E2E2E2E2E2E2
310
E2E2E2E2E2E2E2E2E2E2E2E2E2E2E2E2E2E2E2E2E2E2E2E2E2E2E2E2E2E2E2E2E2E2E2E2E2E2E2E2E2E2E2E2E2E2E2E2E2E2E2E2E2E2E2E2E2E2E2E2E2E2E2E2E2E2E2E2E2E2E2E2E2E2E2E2E2E2E2E2E2E2E2E2E2E2E2E2E2E2E2E2E2E2E2E2E2E2E2E2E2E2E2E2E2E2E2E2E2E2E2E2E2E2E2E2E2E2E2E2E2E2E2E2E2E2E2
310
E2E2E2E2E2E2E2E2E2E2E2E2E2E2E2E2E2E2E2E2E2E2E2E2E2E2E2E2E2E2E2E2E2E2E2E2E2E2E2E2E2E2E2E2E2E2E2E2E2E2E2E2E2E2E2E2E2E2E2E2E2E2E2E2E2E2E2E2E2E2E2E2E2E2E2E2E2E2E2E2E2E2E2E2E2E2E2E2E2E2E2E2E2E2E2E2E2E2E2E2E2E2E2E2E2E2E2E2E2E2E2E2E2E2E2E2E2E2E2E2E2E2E2E2E2E2E2
310
E2E2E2E2E2E2E2E2E2E2E2E2E2E2E2E2E2E2E2E2E2E2E2E2E2E2E2E2E2E2E2E2E2E2E2E2E2E2E2E2E2E2E2E2E2E2E2E2E2E2E2E2E2E2E2E2E2E2E2E2E2E2E2E2E2E2E2E2E2E2E2E2E2E2E2E2E2E2E2E2E2E2E2E2E2E2E2E2E2E2E2E2E2E2E2E2E2E2E2E2E2E2E2E2E2E2E2E2E2E2E2E2E2E2E2E2E2E2E2E2E2E2E2E2E2E2E2
310
E2E2E2E2E2E2E2E2E2E2E2E2E2E2E2E2E2E2E2E2E2E2E2E2E2E2E2E2E2E2E2E2E2E2E2E2E2E2E2E2E2E2E2E2E2E2E2E2E2E2E2E2E2E2E2E2E2E2E2E2E2E2E2E2E2E2E2E2E2E2E2E2E2E2E2E2E2E2E2E2E2E2E2E2E2E2E2E2E2E2E2E2E2E2E2E2E2E2E2E2E2E2E2E2E2E2E2E2E2E2E2E2E2E2E2E2E2E2E2E2E2E2E2E2E2E2E2
310
E2E2E2E2E2E2E2E2E2E2E2E2E2E2E2E2E2E2E2E2E2E2E2E2E2E2E2E2E2E2E2E2E2E2E2E2E2E2E2E2E2E2E2E2E2E2E2E2E2E2E2E2E2E2E2E2E2E2E2E2E2E2E2E2E2E2E2E2E2E2E2E2E2E2E2E2E2E2E2E2E2E2E2E2E2E2E2E2E2E2E2E2E2E2E2E2E2E2E2E2E2E2E2E2E2E2E2E2E2E2E2E2E2E2E2E2E2E2E2E2E2E2E2E2E2E2E2
310
E2E2E2E2E2E2E2E2E2E2E2E2E2E2E2E2E2E2E2E2E2E2E2E2E2E2E2E2E2E2E2E2E2E2E2E2E2E2E2E2E2E2E2E2E2E2E2E2E2E2E2E2E2E2E2E2E2E2E2E2E2E2E2E2E2E2E2E2E2E2E2E2E2E2E2E2E2E2E2E2E2E2E2E2E2E2E2E2E2E2E2E2E2E2E2E2E2E2E2E2E2E2E2E2E2E2E2E2E2E2E2E2E2E2E2E2E2E2E2E2E2E2E2E2E2E2E2
310
E2E2E2E2E2E2E2E2E2E2E2E2E2E2E2E2E2E2E2E2E2E2E2E2E2E2E2E2E2E2E2E2E2E2E2E2E2E2E2E2E2E2E2E2E2E2E2E2E2E2E2E2E2E2E2E2E2E2E2E2E2E2E2E2E2E2E2E2E2E2E2E2E2E2E2E2E2E2E2E2E2E2E2E2E2E2E2E2E2E2E2E2E2E2E2E2E2E2E2E2E2E2E2E2E2E2E2E2E2E2E2E2E2E2E2E2E2E2E2E2E2E2E2E2E2E2E2
310
E2E2E2E2E2E2E2E2E2E2E2E2E2E2E2E2E2E2E2E2E2E2E2E2E2E2E2E2E2E2E2E2E2E2E2E2E2E2E2E2E2E2E2E2E2E2E2E2E2E2E2E2E2E2E2E2E2E2E2E2E2E2E2E2E2E2E2E2E2E2E2E2E2E2E2E2E2E2E2E2E2E2E2E2E2E2E2E2E2E2E2E2E2E2E2E2E2E2E2E2E2E2E2E2E2E2E2E2E2E2E2E2E2E2E2E2E2E2E2E2E2E2E2E2E2E2E2
310
E2E2E2E2E2E2E2E2E2E2E2E2E2E2E2E2E2E2E2E2E2E2E2E2E2E2E2E2E2E2E2E2E2E2E2E2E2E2E2E2E2E2E2E2E2E2E2E2E2E2E2E2E2E2E2E2E2E2E2E2E2E2E2E2E2E2E2E2E2E2E2E2E2E2E2E2E2E2E2E2E2E2E2E2E2E2E2E2E2E2E2E2E2E2E2E2E2E2E2E2E2E2E2E2E2E2E2E2E2E2E2E2E2E2E2E2E2E2E2E2E2E2E2E2E2E2E2
310
E2E2E2E2E2E2E2E2E2E2E2E2E2E2E2E2E2E2E2E2E2E2E2E2E2E2E2E2E2E2E2E2E2E2E2E2E2E2E2E2E2E2E2E2E2E2E2E2E2E2E2E2E2E2E2E2E2E2E2E2E2E2E2E2E2E2E2E2E2E2E2E2E2E2E2E2E2E2E2E2E2E2E2E2E2E2E2E2E2E2E2E2E2E2E2E2E2E2E2E2E2E2E2E2E2E2E2E2E2E2E2E2E2E2E2E2E2E2E2E2E2E2E2E2E2E2E2
310
E2E2E2E2E2E2E2E2E2E2E2E2E2E2E2E2E2E2E2E2E2E2E2E2E2E2E2E2E2E2E2E2E2E2E2E2E2E2E2E2E2E2E2E2E2E2E2E2E2E2E2E2E2E2E2E2E2E2E2E2E2E2E2E2E2E2E2E2E2E2E2E2E2E2E2E2E2E2E2E2E2E2E2E2E2E2E2E2E2E2E2E2E2E2E2E2E2E2E2E2E2E2E2E2E2E2E2E2E2E2E2E2E2E2E2E2E2E2E2E2E2E2E2E2E2E2E2
310
E2E2E2E2E2E2E2E2E2E2E2E2E2E2E2E2E2E2E2E2E2E2E2E2E2E2E2E2E2E2E2E2E2E2E2E2E2E2E2E2E2E2E2E2E2E2E2E2E2E2E2E2E2E2E2E2E2E2E2E2E2E2E2E2E2E2E2E2E2E2E2E2E2E2E2E2E2E2E2E2E2E2E2E2E2E2E2E2E2E2E2E2E2E2E2E2E2E2E2E2E2E2E2E2E2E2E2E2E2E2E2E2E2E2E2E2E2E2E2E2E2E2E2E2E2E2E2
310
E2E2E2E2E2E2E2E2E2E2E2E2E2E2E2E2E2E2E2E2E2E2E2E2E2E2E2E2E2E2E2E2E2E2E2E2E2E2E2E2E2E2E2E2E2E2E2E2E2E2E2E2E2E2E2E2E2E2E2E2E2E2E2E2E2E2E2E2E2E2E2E2E2E2E2E2E2E2E2E2E2E2E2E2E2E2E2E2E2E2E2E2E2E2E2E2E2E2E2E2E2E2E2E2E2E2E2E2E2E2E2E2E2E2E2E2E2E2E2E2E2E2E2E2E2E2E2
310
E2E2E2E2E2E2E2E2E2E2E2E2E2E2E2E2E2E2E2E2E2E2E2E2E2E2E2E2E2E2E2E2E2E2E2E2E2E2E2E2E2E2E2E2E2E2E2E2E2E2E2E2E2E2E2E2E2E2E2E2E2E2E2E2E2E2E2E2E2E2E2E2E2E2E2E2E2E2E2E2E2E2E2E2E2E2E2E2E2E2E2E2E2E2E2E2E2E2E2E2E2E2E2E2E2E2E2E2E2E2E2E2E2E2E2E2E2E2E2E2E2E2E2E2E2E2E2
310
E2E2E2E2E2E2E2E2E2E2E2E2E2E2E2E2E2E2E2E2E2E2E2E2E2E2E2E2E2E2E2E2E2E2E2E2E2E2E2E2E2E2E2E2E2E2E2E2E2E2E2E2E2E2E2E2E2E2E2E2E2E2E2E2E2E2E2E2E2E2E2E2E2E2E2E2E2E2E2E2E2E2E2E2E2E2E2E2E2E2E2E2E2E2E2E2E2E2E2E2E2E2E2E2E2E2E2E2E2E2E2E2E2E2E2E2E2E2E2E2E2E2E2E2E2E2E2
310
E2E2E2E2E2E2E2E2E2E2E2E2E2E2E2E2E2E2E2E2E2E2E2E2E2E2E2E2E2E2E2E2E2E2E2E2E2E2E2E2E2E2E2E2E2E2E2E2E2E2E2E2E2E2E2E2E2E2E2E2E2E2E2E2E2E2E2E2E2E2E2E2E2E2E2E2E2E2E2E2E2E2E2E2E2E2E2E2E2E2E2E2E2E2E2E2E2E2E2E2E2E2E2E2E2E2E2E2E2E2E2E2E2E2E2E2E2E2E2E2E2E2E2E2E2E2E2
310
E2E2E2E2E2E2E2E2E2E2E2E2E2E2E2E2E2E2E2E2E2E2E2E2E2E2E2E2E2E2E2E2E2E2E2E2E2E2E2E2E2E2E2E2E2E2E2E2E2E2E2E2E2E2E2E2E2E2E2E2E2E2E2E2E2E2E2E2E2E2E2E2E2E2E2E2E2E2E2E2E2E2E2E2E2E2E2E2E2E2E2E2E2E2E2E2E2E2E2E2E2E2E2E2E2E2E2E2E2E2E2E2E2E2E2E2E2E2E2E2E2E2E2E2E2E2E2
310
E2E2E2E2E2E2E2E2E2E2E2E2E2E2E2E2E2E2E2E2E2E2E2E2E2E2E2E2E2E2E2E2E2E2E2E2E2E2E2E2E2E2E2E2E2E2E2E2E2E2E2E2E2E2E2E2E2E2E2E2E2E2E2E2E2E2E2E2E2E2E2E2E2E2E2E2E2E2E2E2E2E2E2E2E2E2E2E2E2E2E2E2E2E2E2E2E2E2E2E2E2E2E2E2E2E2E2E2E2E2E2E2E2E2E2E2E2E2E2E2E2E2E2E2E2E2E2
310
E2E2E2E2E2E2E2E2E2E2E2E2E2E2E2E2E2E2E2E2E2E2E2E2E2E2E2E2E2E2E2E2E2E2E2E2E2E2E2E2E2E2E2E2E2E2E2E2E2E2E2E2E2E2E2E2E2E2E2E2E2E2E2E2E2E2E2E2E2E2E2E2E2E2E2E2E2E2E2E2E2E2E2E2E2E2E2E2E2E2E2E2E2E2E2E2E2E2E2E2E2E2E2E2E2E2E2E2E2E2E2E2E2E2E2E2E2E2E2E2E2E2E2E2E2E2E2
310
E2E2E2E2E2E2E2E2E2E2E2E2E2E2E2E2E2E2E2E2E2E2E2E2E2E2E2E2E2E2E2E2E2E2E2E2E2E2E2E2E2E2E2E2E2E2E2E2E2E2E2E2E2E2E2E2E2E2E2E2E2E2E2E2E2E2E2E2E2E2E2E2E2E2E2E2E2E2E2E2E2E2E2E2E2E2E2E2E2E2E2E2E2E2E2E2E2E2E2E2E2E2E2E2E2E2E2E2E2E2E2E2E2E2E2E2E2E2E2E2E2E2E2E2E2E2E2
310
E2E2E2E2E2E2E2E2E2E2E2E2E2E2E2E2E2E2E2E2E2E2E2E2E2E2E2E2E2E2E2E2E2E2E2E2E2E2E2E2E2E2E2E2E2E2E2E2E2E2E2E2E2E2E2E2E2E2E2E2E2E2E2E2E2E2E2E2E2E2E2E2E2E2E2E2E2E2E2E2E2E2E2E2E2E2E2E2E2E2E2E2E2E2E2E2E2E2E2E2E2E2E2E2E2E2E2E2E2E2E2E2E2E2E2E2E2E2E2E2E2E2E2E2E2E2E2
310
E2E2E2E2E2E2E2E2E2E2E2E2E2E2E2E2E2E2E2E2E2E2E2E2E2E2E2E2E2E2E2E2E2E2E2E2E2E2E2E2E2E2E2E2E2E2E2E2E2E2E2E2E2E2E2E2E2E2E2E2E2E2E2E2E2E2E2E2E2E2E2E2E2E2E2E2E2E2E2E2E2E2E2E2E2E2E2E2E2E2E2E2E2E2E2E2E2E2E2E2E2E2E2E2E2E2E2E2E2E2E2E2E2E2E2E2E2E2E2E2E2E2E2E2E2E2E2
310
E2E2E2E2E2E2E2E2E2E2E2E2E2E2E2E2E2E2E2E2E2E2E2E2E2E2E2E2E2E2E2E2E2E2E2E2E2E2E2E2E2E2E2E2E2E2E2E2E2E2E2E2E2E2E2E2E2E2E2E2E2E2E2E2E2E2E2E2E2E2E2E2E2E2E2E2E2E2E2E2E2E2E2E2E2E2E2E2E2E2E2E2E2E2E2E2E2E2E2E2E2E2E2E2E2E2E2E2E2E2E2E2E2E2E2E2E2E2E2E2E2E2E2E2E2E2E2
310
E2E2E2E2E2E2E2E2E2E2E2E2E2E2E2E2E2E2E2E2E2E2E2E2E2E2E2E2E2E2E2E2E2E2E2E2E2E2E2E2E2E2E2E2E2E2E2E2E2E2E2E2E2E2E2E2E2E2E2E2E2E2E2E2E2E2E2E2E2E2E2E2E2E2E2E2E2E2E2E2E2E2E2E2E2E2E2E2E2E2E2E2E2E2E2E2E2E2E2E2E2E2E2E2E2E2E2E2E2E2E2E2E2E2E2E2E2E2E2E2E2E2E2E2E2E2E2
310
E2E2E2E2E2E2E2E2E2E2E2E2E2E2E2E2E2E2E2E2E2E2E2E2E2E2E2E2E2E2E2E2E2E2E2E2E2E2E2E2E2E2E2E2E2E2E2E2E2E2E2E2E2E2E2E2E2E2E2E2E2E2E2E2E2E2E2E2E2E2E2E2E2E2E2E2E2E2E2E2E2E2E2E2E2E2E2E2E2E2E2E2E2E2E2E2E2E2E2E2E2E2E2E2E2E2E2E2E2E2E2E2E2E2E2E2E2E2E2E2E2E2E2E2E2E2E2
310
E2E2E2E2E2E2E2E2E2E2E2E2E2E2E2E2E2E2E2E2E2E2E2E2E2E2E2E2E2E2E2E2E2E2E2E2E2E2E2E2E2E2E2E2E2E2E2E2E2E2E2E2E2E2E2E2E2E2E2E2E2E2E2E2E2E2E2E2E2E2E2E2E2E2E2E2E2E2E2E2E2E2E2E2E2E2E2E2E2E2E2E2E2E2E2E2E2E2E2E2E2E2E2E2E2E2E2E2E2E2E2E2E2E2E2E2E2E2E2E2E2E2E2E2E2E2E2
310
E2E2E2E2E2E2E2E2E2E2E2E2E2E2E2E2E2E2E2E2E2E2E2E2E2E2E2E2E2E2E2E2E2E2E2E2E2E2E2E2E2E2E2E2E2E2E2E2E2E2E2E2E2E2E2E2E2E2E2E2E2E2E2E2E2E2E2E2E2E2E2E2E2E2E2E2E2E2E2E2E2E2E2E2E2E2E2E2E2E2E2E2E2E2E2E2E2E2E2E2E2E2E2E2E2E2E2E2E2E2E2E2E2E2E2E2E2E2E2E2E2E2E2E2E2E2E2
310
E2E2E2E2E2E2E2E2E2E2E2E2E2E2E2E2E2E2E2E2E2E2E2E2E2E2E2E2E2E2E2E2E2E2E2E2E2E2E2E2E2E2E2E2E2E2E2E2E2E2E2E2E2E2E2E2E2E2E2E2E2E2E2E2E2E2E2E2E2E2E2E2E2E2E2E2E2E2E2E2E2E2E2E2E2E2E2E2E2E2E2E2E2E2E2E2E2E2E2E2E2E2E2E2E2E2E2E2E2E2E2E2E2E2E2E2E2E2E2E2E2E2E2E2E2E2E2
310
E2E2E2E2E2E2E2E2E2E2E2E2E2E2E2E2E2E2E2E2E2E2E2E2E2E2E2E2E2E2E2E2E2E2E2E2E2E2E2E2E2E2E2E2E2E2E2E2E2E2E2E2E2E2E2E2E2E2E2E2E2E2E2E2E2E2E2E2E2E2E2E2E2E2E2E2E2E2E2E2E2E2E2E2E2E2E2E2E2E2E2E2E2E2E2E2E2E2E2E2E2E2E2E2E2E2E2E2E2E2E2E2E2E2E2E2E2E2E2E2E2E2E2E2E2E2E2
310
E2E2E2E2E2E2E2E2E2E2E2E2E2E2E2E2E2E2E2E2E2E2E2E2E2E2E2E2E2E2E2E2E2E2E2E2E2E2E2E2E2E2E2E2E2E2E2E2E2E2E2E2E2E2E2E2E2E2E2E2E2E2E2E2E2E2E2E2E2E2E2E2E2E2E2E2E2E2E2E2E2E2E2E2E2E2E2E2E2E2E2E2E2E2E2E2E2E2E2E2E2E2E2E2E2E2E2E2E2E2E2E2E2E2E2E2E2E2E2E2E2E2E2E2E2E2E2
310
E2E2E2E2E2E2E2E2E2E2E2E2E2E2E2E2E2E2E2E2E2E2E2E2E2E2E2E2E2E2E2E2E2E2E2E2E2E2E2E2E2E2E2E2E2E2E2E2E2E2E2E2E2E2E2E2E2E2E2E2E2E2E2E2E2E2E2E2E2E2E2E2E2E2E2E2E2E2E2E2E2E2E2E2E2E2E2E2E2E2E2E2E2E2E2E2E2E2E2E2E2E2E2E2E2E2E2E2E2E2E2E2E2E2E2E2E2E2E2E2E2E2E2E2E2E2E2
310
E2E2E2E2E2E2E2E2E2E2E2E2E2E2E2E2E2E2E2E2E2E2E2E2E2E2E2E2E2E2E2E2E2E2E2E2E2E2E2E2E2E2E2E2E2E2E2E2E2E2E2E2E2E2E2E2E2E2E2E2E2E2E2E2E2E2E2E2E2E2E2E2E2E2E2E2E2E2E2E2E2E2E2E2E2E2E2E2E2E2E2E2E2E2E2E2E2E2E2E2E2E2E2E2E2E2E2E2E2E2E2E2E2E2E2E2E2E2E2E2E2E2E2E2E2E2E2
310
E2E2E2E2E2E2E2E2E2E2E2E2E2E2E2E2E2E2E2E2E2E2E2E2E2E2E2E2E2E2E2E2E2E2E2E2E2E2E2E2E2E2E2E2E2E2E2E2E2E2E2E2E2E2E2E2E2E2E2E2E2E2E2E2E2E2E2E2E2E2E2E2E2E2E2E2E2E2E2E2E2E2E2E2E2E2E2E2E2E2E2E2E2E2E2E2E2E2E2E2E2E2E2E2E2E2E2E2E2E2E2E2E2E2E2E2E2E2E2E2E2E2E2E2E2E2E2
310
E2E2E2E2E2E2E2E2E2E2E2E2E2E2E2E2E2E2E2E2E2E2E2E2E2E2E2E2E2E2E2E2E2E2E2E2E2E2E2E2E2E2E2E2E2E2E2E2E2E2E2E2E2E2E2E2E2E2E2E2E2E2E2E2E2E2E2E2E2E2E2E2E2E2E2E2E2E2E2E2E2E2E2E2E2E2E2E2E2E2E2E2E2E2E2E2E2E2E2E2E2E2E2E2E2E2E2E2E2E2E2E2E2E2E2E2E2E2E2E2E2E2E2E2E2E2E2
310
E2E2E2E2E2E2E2E2E2E2E2E2E2E2E2E2E2E2E2E2E2E2E2E2E2E2E2E2E2E2E2E2E2E2E2E2E2E2E2E2E2E2E2E2E2E2E2E2E2E2E2E2E2E2E2E2E2E2E2E2E2E2E2E2E2E2E2E2E2E2E2E2E2E2E2E2E2E2E2E2E2E2E2E2E2E2E2E2E2E2E2E2E2E2E2E2E2E2E2E2E2E2E2E2E2E2E2E2E2E2E2E2E2E2E2E2E2E2E2E2E2E2E2E2E2E2E2
310
E2E2E2E2E2E2E2E2E2E2E2E2E2E2E2E2E2E2E2E2E2E2E2E2E2E2E2E2E2E2E2E2E2E2E2E2E2E2E2E2E2E2E2E2E2E2E2E2E2E2E2E2E2E2E2E2E2E2E2E2E2E2E2E2E2E2E2E2E2E2E2E2E2E2E2E2E2E2E2E2E2E2E2E2E2E2E2E2E2E2E2E2E2E2E2E2E2E2E2E2E2E2E2E2E2E2E2E2E2E2E2E2E2E2E2E2E2E2E2E2E2E2E2E2E2E2E2
310
E2E2E2E2E2E2E2E2E2E2E2E2E2E2E2E2E2E2E2E2E2E2E2E2E2E2E2E2E2E2E2E2E2E2E2E2E2E2E2E2E2E2E2E2E2E2E2E2E2E2E2E2E2E2E2E2E2E2E2E2E2E2E2E2E2E2E2E2E2E2E2E2E2E2E2E2E2E2E2E2E2E2E2E2E2E2E2E2E2E2E2E2E2E2E2E2E2E2E2E2E2E2E2E2E2E2E2E2E2E2E2E2E2E2E2E2E2E2E2E2E2E2E2E2E2E2E2
310
E2E2E2E2E2E2E2E2E2E2E2E2E2E2E2E2E2E2E2E2E2E2E2E2E2E2E2E2E2E2E2E2E2E2E2E2E2E2E2E2E2E2E2E2E2E2E2E2E2E2E2E2E2E2E2E2E2E2E2E2E2E2E2E2E2E2E2E2E2E2E2E2E2E2E2E2E2E2E2E2E2E2E2E2E2E2E2E2E2E2E2E2E2E2E2E2E2E2E2E2E2E2E2E2E2E2E2E2E2E2E2E2E2E2E2E2E2E2E2E2E2E2E2E2E2E2E2
310
E2E2E2E2E2E2E2E2E2E2E2E2E2E2E2E2E2E2E2E2E2E2E2E2E2E2E2E2E2E2E2E2E2E2E2E2E2E2E2E2E2E2E2E2E2E2E2E2E2E2E2E2E2E2E2E2E2E2E2E2E2E2E2E2E2E2E2E2E2E2E2E2E2E2E2E2E2E2E2E2E2E2E2E2E2E2E2E2E2E2E2E2E2E2E2E2E2E2E2E2E2E2E2E2E2E2E2E2E2E2E2E2E2E2E2E2E2E2E2E2E2E2E2E2E2E2E2
310
E2E2E2E2E2E2E2E2E2E2E2E2E2E2E2E2E2E2E2E2E2E2E2E2E2E2E2E2E2E2E2E2E2E2E2E2E2E2E2E2E2E2E2E2E2E2E2E2E2E2E2E2E2E2E2E2E2E2E2E2E2E2E2E2E2E2E2E2E2E2E2E2E2E2E2E2E2E2E2E2E2E2E2E2E2E2E2E2E2E2E2E2E2E2E2E2E2E2E2E2E2E2E2E2E2E2E2E2E2E2E2E2E2E2E2E2E2E2E2E2E2E2E2E2E2E2E2
310
E2E2E2E2E2E2E2E2E2E2E2E2E2E2E2E2E2E2E2E2E2E2E2E2E2E2E2E2E2E2E2E2E2E2E2E2E2E2E2E2E2E2E2E2E2E2E2E2E2E2E2E2E2E2E2E2E2E2E2E2E2E2E2E2E2E2E2E2E2E2E2E2E2E2E2E2E2E2E2E2E2E2E2E2E2E2E2E2E2E2E2E2E2E2E2E2E2E2E2E2E2E2E2E2E2E2E2E2E2E2E2E2E2E2E2E2E2E2E2E2E2E2E2E2E2E2E2
310
E2E2E2E2E2E2E2E2E2E2E2E2E2E2E2E2E2E2E2E2E2E2E2E2E2E2E2E2E2E2E2E2E2E2E2E2E2E2E2E2E2E2E2E2E2E2E2E2E2E2E2E2E2E2E2E2E2E2E2E2E2E2E2E2E2E2E2E2E2E2E2E2E2E2E2E2E2E2E2E2E2E2E2E2E2E2E2E2E2E2E2E2E2E2E2E2E2E2E2E2E2E2E2E2E2E2E2E2E2E2E2E2E2E2E2E2E2E2E2E2E2E2E2E2E2E2E2
310
E2E2E2E2E2E2E2E2E2E2E2E2E2E2E2E2E2E2E2E2E2E2E2E2E2E2E2E2E2E2E2E2E2E2E2E2E2E2E2E2E2E2E2E2E2E2E2E2E2E2E2E2E2E2E2E2E2E2E2E2E2E2E2E2E2E2E2E2E2E2E2E2E2E2E2E2E2E2E2E2E2E2E2E2E2E2E2E2E2E2E2E2E2E2E2E2E2E2E2E2E2E2E2E2E2E2E2E2E2E2E2E2E2E2E2E2E2E2E2E2E2E2E2E2E2E2E2
310
E2E2E2E2E2E2E2E2E2E2E2E2E2E2E2E2E2E2E2E2E2E2E2E2E2E2E2E2E2E2E2E2E2E2E2E2E2E2E2E2E2E2E2E2E2E2E2E2E2E2E2E2E2E2E2E2E2E2E2E2E2E2E2E2E2E2E2E2E2E2E2E2E2E2E2E2E2E2E2E2E2E2E2E2E2E2E2E2E2E2E2E2E2E2E2E2E2E2E2E2E2E2E2E2E2E2E2E2E2E2E2E2E2E2E2E2E2E2E2E2E2E2E2E2E2E2E2
310
E2E2E2E2E2E2E2E2E2E2E2E2E2E2E2E2E2E2E2E2E2E2E2E2E2E2E2E2E2E2E2E2E2E2E2E2E2E2E2E2E2E2E2E2E2E2E2E2E2E2E2E2E2E2E2E2E2E2E2E2E2E2E2E2E2E2E2E2E2E2E2E2E2E2E2E2E2E2E2E2E2E2E2E2E2E2E2E2E2E2E2E2E2E2E2E2E2E2E2E2E2E2E2E2E2E2E2E2E2E2E2E2E2E2E2E2E2E2E2E2E2E2E2E2E2E2E2
310
E2E2E2E2E2E2E2E2E2E2E2E2E2E2E2E2E2E2E2E2E2E2E2E2E2E2E2E2E2E2E2E2E2E2E2E2E2E2E2E2E2E2E2E2E2E2E2E2E2E2E2E2E2E2E2E2E2E2E2E2E2E2E2E2E2E2E2E2E2E2E2E2E2E2E2E2E2E2E2E2E2E2E2E2E2E2E2E2E2E2E2E2E2E2E2E2E2E2E2E2E2E2E2E2E2E2E2E2E2E2E2E2E2E2E2E2E2E2E2E2E2E2E2E2E2E2E2
310
E2E2E2E2E2E2E2E2E2E2E2E2E2E2E2E2E2E2E2E2E2E2E2E2E2E2E2E2E2E2E2E2E2E2E2E2E2E2E2E2E2E2E2E2E2E2E2E2E2E2E2E2E2E2E2E2E2E2E2E2E2E2E2E2E2E2E2E2E2E2E2E2E2E2E2E2E2E2E2E2E2E2E2E2E2E2E2E2E2E2E2E2E2E2E2E2E2E2E2E2E2E2E2E2E2E2E2E2E2E2E2E2E2E2E2E2E2E2E2E2E2E2E2E2E2E2E2
310
E2E2E2E2E2E2E2E2E2E2E2E2E2E2E2E2E2E2E2E2E2E2E2E2E2E2E2E2E2E2E2E2E2E2E2E2E2E2E2E2E2E2E2E2E2E2E2E2E2E2E2E2E2E2E2E2E2E2E2E2E2E2E2E2E2E2E2E2E2E2E2E2E2E2E2E2E2E2E2E2E2E2E2E2E2E2E2E2E2E2E2E2E2E2E2E2E2E2E2E2E2E2E2E2E2E2E2E2E2E2E2E2E2E2E2E2E2E2E2E2E2E2E2E2E2E2E2
310
E2E2E2E2E2E2E2E2E2E2E2E2E2E2E2E2E2E2E2E2E2E2E2E2E2E2E2E2E2E2E2E2E2E2E2E2E2E2E2E2E2E2E2E2E2E2E2E2E2E2E2E2E2E2E2E2E2E2E2E2E2E2E2E2E2E2E2E2E2E2E2E2E2E2E2E2E2E2E2E2E2E2E2E2E2E2E2E2E2E2E2E2E2E2E2E2E2E2E2E2E2E2E2E2E2E2E2E2E2E2E2E2E2E2E2E2E2E2E2E2E2E2E2E2E2E2E2
310
E2E2E2E2E2E2E2E2E2E2E2E2E2E2E2E2E2E2E2E2E2E2E2E2E2E2E2E2E2E2E2E2E2E2E2E2E2E2E2E2E2E2E2E2E2E2E2E2E2E2E2E2E2E2E2E2E2E2E2E2E2E2E2E2E2E2E2E2E2E2E2E2E2E2E2E2E2E2E2E2E2E2E2E2E2E2E2E2E2E2E2E2E2E2E2E2E2E2E2E2E2E2E2E2E2E2E2E2E2E2E2E2E2E2E2E2E2E2E2E2E2E2E2E2E2E2E2
310
E2E2E2E2E2E2E2E2E2E2E2E2E2E2E2E2E2E2E2E2E2E2E2E2E2E2E2E2E2E2E2E2E2E2E2E2E2E2E2E2E2E2E2E2E2E2E2E2E2E2E2E2E2E2E2E2E2E2E2E2E2E2E2E2E2E2E2E2E2E2E2E2E2E2E2E2E2E2E2E2E2E2E2E2E2E2E2E2E2E2E2E2E2E2E2E2E2E2E2E2E2E2E2E2E2E2E2E2E2E2E2E2E2E2E2E2E2E2E2E2E2E2E2E2E2E2E2
310
E2E2E2E2E2E2E2E2E2E2E2E2E2E2E2E2E2E2E2E2E2E2E2E2E2E2E2E2E2E2E2E2E2E2E2E2E2E2E2E2E2E2E2E2E2E2E2E2E2E2E2E2E2E2E2E2E2E2E2E2E2E2E2E2E2E2E2E2E2E2E2E2E2E2E2E2E2E2E2E2E2E2E2E2E2E2E2E2E2E2E2E2E2E2E2E2E2E2E2E2E2E2E2E2E2E2E2E2E2E2E2E2E2E2E2E2E2E2E2E2E2E2E2E2E2E2E2
310
E2E2E2E2E2E2E2E2E2E2E2E2E2E2E2E2E2E2E2E2E2E2E2E2E2E2E2E2E2E2E2E2E2E2E2E2E2E2E2E2E2E2E2E2E2E2E2E2E2E2E2E2E2E2E2E2E2E2E2E2E2E2E2E2E2E2E2E2E2E2E2E2E2E2E2E2E2E2E2E2E2E2E2E2E2E2E2E2E2E2E2E2E2E2E2E2E2E2E2E2E2E2E2E2E2E2E2E2E2E2E2E2E2E2E2E2E2E2E2E2E2E2E2E2E2E2E2
310
E2E2E2E2E2E2E2E2E2E2E2E2E2E2E2E2E2E2E2E2E2E2E2E2E2E2E2E2E2E2E2E2E2E2E2E2E2E2E2E2E2E2E2E2E2E2E2E2E2E2E2E2E2E2E2E2E2E2E2E2E2E2E2E2E2E2E2E2E2E2E2E2E2E2E2E2E2E2E2E2E2E2E2E2E2E2E2E2E2E2E2E2E2E2E2E2E2E2E2E2E2E2E2E2E2E2E2E2E2E2E2E2E2E2E2E2E2E2E2E2E2E2E2E2E2E2E2
310
E2E2E2E2E2E2E2E2E2E2E2E2E2E2E2E2E2E2E2E2E2E2E2E2E2E2E2E2E2E2E2E2E2E2E2E2E2E2E2E2E2E2E2E2E2E2E2E2E2E2E2E2E2E2E2E2E2E2E2E2E2E2E2E2E2E2E2E2E2E2E2E2E2E2E2E2E2E2E2E2E2E2E2E2E2E2E2E2E2E2E2E2E2E2E2E2E2E2E2E2E2E2E2E2E2E2E2E2E2E2E2E2E2E2E2E2E2E2E2E2E2E2E2E2E2E2E2
310
E2E2E2E2E2E2E2E2E2E2E2E2E2E2E2E2E2E2E2E2E2E2E2E2E2E2E2E2E2E2E2E2E2E2E2E2E2E2E2E2E2E2E2E2E2E2E2E2E2E2E2E2E2E2E2E2E2E2E2E2E2E2E2E2E2E2E2E2E2E2E2E2E2E2E2E2E2E2E2E2E2E2E2E2E2E2E2E2E2E2E2E2E2E2E2E2E2E2E2E2E2E2E2E2E2E2E2E2E2E2E2E2E2E2E2E2E2E2E2E2E2E2E2E2E2E2E2
310
E2E2E2E2E2E2E2E2E2E2E2E2E2E2E2E2E2E2E2E2E2E2E2E2E2E2E2E2E2E2E2E2E2E2E2E2E2E2E2E2E2E2E2E2E2E2E2E2E2E2E2E2E2E2E2E2E2E2E2E2E2E2E2E2E2E2E2E2E2E2E2E2E2E2E2E2E2E2E2E2E2E2E2E2E2E2E2E2E2E2E2E2E2E2E2E2E2E2E2E2E2E2E2E2E2E2E2E2E2E2E2E2E2E2E2E2E2E2E2E2E2E2E2E2E2E2E2
310
E2E2E2E2E2E2E2E2E2E2E2E2E2E2E2E2E2E2E2E2E2E2E2E2E2E2E2E2E2E2E2E2E2E2E2E2E2E2E2E2E2E2E2E2E2E2E2E2E2E2E2E2E2E2E2E2E2E2E2E2E2E2E2E2E2E2E2E2E2E2E2E2E2E2E2E2E2E2E2E2E2E2E2E2E2E2E2E2E2E2E2E2E2E2E2E2E2E2E2E2E2E2E2E2E2E2E2E2E2E2E2E2E2E2E2E2E2E2E2E2E2E2E2E2E2E2E2
310
E2E2E2E2E2E2E2E2E2E2E2E2E2E2E2E2E2E2E2E2E2E2E2E2E2E2E2E2E2E2E2E2E2E2E2E2E2E2E2E2E2E2E2E2E2E2E2E2E2E2E2E2E2E2E2E2E2E2E2E2E2E2E2E2E2E2E2E2E2E2E2E2E2E2E2E2E2E2E2E2E2E2E2E2E2E2E2E2E2E2E2E2E2E2E2E2E2E2E2E2E2E2E2E2BEBEBEBEBEBEBEBEBEBEBEBEBEBEBEBEBEBEBEBEBEBEBE
310
BEBEBEBEBEBEBEBEBEBEBEBEBEBEBEE2BEBEBEBEBEBEBEBEBEBEBEBEBEBEBEBEBEBEBEBEBEBEBEBEBEBEBEBEBEBEBEBEBEBEBEBEBEBEE2E2BEBEBEBEBEBEBEBEBEBEBEBEBEBEBEBEBEBEBEBEBEBEBEBEBEBEBEBEBEBEBEBEBEBEBEBEBEBEBEBEBEBEBEBEBEBEBEBEBEBEBEBEBEBEBEBEBEBEBEBEBEBEBEBEBEBEBEBEBEBEBE
310
BEBEBEBEBEBEBEBEBEBEBEBEBEBEBEBEBEBEBEBEBEBEBEBEBEBEBEBEBEBEBEE2E2E2E2E2E2E2E2E2E2E2E2E2E2E2E2E2E2E2E2E2E2E2E2E2E2E2E2E2E2E2E2E2E2E2E2E2E2E2E2E2E2E2E2E2E2E2E2E2E2E2E2E2E2E2E2E2E2E2E2E2E2E2E2E2E2E2E2E2E2E2E2E2E2E2BEE2E2E2DCDCDCDCDCDCDCDCDCDCDCBEBEBEBEBEF5
310
F5BEBEBEDCDCDCDCDCDCBEBEBEBEDCDCBEE2BEE2E2E2DCDCDCDCDCDCDCDCDCDCDCBEBEBEBEDCDCDCDCDCDCDCDCDCDCDCDCBEBEBEBEDCDCBEE2E2BEE2E2E2DCDCDCDCDCDCDCDCDCDCDCBEBEBEBEBEF5F5BEBEBEDCDCDCDCDCDCBEBEBEBEDCDCBEDCDCDCDCDCDCDCDCDCDCDCDCDCDCDCDCDCDCDCDCDCDCDCDCDCDCDCDCDCDCDC
310
DCDCDCDCDCDCDCDCDCDCDCDCF5DCDCDCDCDCDCDCDCDCDCDCDCDCDCDCDCDCDCDCBEE2E2E2E2E2E2E2E2E2E2E2E2E2E2E2E2E2E2E2E2E2E2E2E2E2E2E2E2E2E2E2E2E2E2E2E2E2E2E2E2E2E2E2E2E2E2E2E2E2E2E2E2E2E2E2E2E2E2E2E2E2E2E2E2E2E2E2E2E2E2E2E2E2E2E2BEE2E2E2F5F5F5DCF5F5F5DCDCE2BEBEBEBEBE
310
BEDCBEF5F5BEDCF5F5F5F5F5BEBEBEBEE2DCBEE2BEE2E2E2F5F5F5DCF5F5F5DCDCBEBEBEBEBEBEBEF5F5F5F5E2F5F5F5F5F5F5BEBEBEBEE2DCBEE2E2BEE2E2E2F5F5F5DCF5F5F5F5DCE2BEBEBEBEBEBEDCBEF5F5BEDCF5F5F5F5F5BEBEBEBEF5DCBEDCE2E2E2E2E2E2E2E2E2E2E2E2E2E2E2E2E2E2E2E2E2F5F5F5F5DCDCF5
310
F5F5F5DCDCE2E2BEBEBEBEBEBEE2BEF5F5BEBEBEDCE2E2E2E2E2E2DCBEBEBEBEE2DCBEE2E2E2E2E2E2E2E2E2E2E2E2E2E2E2E2E2E2E2E2E2E2E2E2E2E2E2E2E2E2E2E2E2E2E2E2E2E2E2E2E2E2E2E2E2E2E2E2E2E2E2E2E2E2E2E2E2E2E2E2E2E2E2E2E2E2E2E2E2E2E2E2E2E2E2BEE2E2E2DCDCDCDCDCDCDCDCDCE2BEBEBE
310
BEBEBEDCBEBEBEF5F5BEF5F5F5DCF5F5F5F5DCDCBEE2BEE2E2E2DCDCDCDCDCDCDCDCDCE2BEBEBEBEBEBEBEBEBEBEBEBEBEF5F5F5DCF5F5F5F5DCDCBEE2E2BEE2E2E2DCDCDCDCDCDCDCDCDCE2BEBEBEBEBEBEDCBEBEBEF5F5BEF5F5F5DCF5F5F5F5DCDCBEDCE2E2E2E2E2E2E2E2E2E2E2E2E2E2E2E2E2E2E2E2E2DCE2DCE2E2
310
E2DCE2E2DCE2DCBEBEBEBEBEBEBEBEE2F5F5F5F5F5E2DCF5F5F5F5F5F5DCF5F5F5F5F5DCBEE2E2E2E2E2E2E2E2E2E2E2E2E2E2E2E2E2E2E2E2E2E2E2E2E2E2E2E2E2E2E2E2E2E2E2E2E2E2E2E2E2E2E2E2E2E2E2E2E2E2E2E2E2E2E2E2E2E2E2E2E2E2E2E2E2E2E2E2E2E2E2E2E2E2E2BEE2E2E2DCDCDCDCDCDCDCDCDCF5F5
310
BEBEBEDCDCDCBEBEBEBEBEBEE2BEE2E2E2E2E2E2E2DCBEE2BEE2E2E2DCDCDCDCDCDCDCDCF5F5F5BEBEBEDCDCBEBEBEBEBEBEBEE2BEE2E2E2E2E2E2E2DCBEE2E2BEE2E2E2DCDCDCDCDCDCDCDCDCF5F5BEBEBEDCDCDCBEBEBEBEBEBEE2BEE2E2E2E2E2E2E2DCBEDCE2E2E2E2E2E2E2E2E2E2E2E2E2E2E2E2E2E2E2E2E2DCDCDC
310
DCDCDCDCDCDCDCDCDCE2BEBEBEBEBEBEBEE2DCDCDCDCDCF5F5DCDCDCDCDCDCDCDCDCDCDCDCDCBEE2E2E2E2E2E2E2E2E2E2E2E2E2E2E2E2E2E2E2E2E2E2E2E2E2E2E2E2E2E2E2E2E2E2E2E2E2E2E2E2E2E2E2E2E2E2E2E2E2E2E2E2E2E2E2E2E2E2E2E2E2E2E2E2E2E2E2E2E2E2E2E2E2E2E2BEE2E2E2DCDCDCDCDCDCDCDCDC
310
F5BEBEBEBEBEDCDCBEBEBEBEBEBEBEBEBEBEBEBEBEBEBEDCBEE2BEE2E2E2DCDCDCDCDCDCDCDCF5F5BEBEBEBEBEDCBEBEBEBEBEBEBEBEBEBEBEBEBEBEBEBEDCBEE2E2BEE2E2E2DCDCDCDCDCDCDCDCDCF5BEBEBEBEBEBEDCBEBEBEBEBEBEBEBEBEBEBEBEBEBEBEDCBEDCE2E2E2E2E2E2E2E2E2E2E2E2E2E2E2E2E2E2E2E2E2DC
310
DCDCDCDCDCDCDCDCDCDCF5F5F5DCDCDCDCDCDCDCDCE2E2E2E2E2E2E2E2E2E2E2E2E2E2E2E2E2E2DCBEE2E2E2E2E2E2E2E2E2E2E2E2E2E2E2E2E2E2E2E2E2E2E2E2E2E2E2E2E2E2E2E2E2E2E2E2E2E2E2E2E2E2E2E2E2E2E2E2E2E2E2E2E2E2E2E2E2E2E2E2E2E2E2E2E2E2E2E2E2E2E2E2E2E2E2BEE2E2E2F5F5F5F5DCF5F5
310
F5F5DCF5F5F5F5F5DCDCF5F5F5F5F5F5DCDCDCDCDCDCDCDCDCDCBEE2BEE2E2E2F5F5F5F5DCF5F5F5F5DCF5F5F5F5F5DCF5F5F5F5F5F5DCDCDCDCDCDCDCDCDCDCDCBEE2E2BEE2E2E2F5F5F5F5DCF5F5F5F5DCF5F5F5F5F5F5DCF5F5F5F5F5F5DCDCDCDCDCDCDCDCDCDCBEDCE2E2E2E2E2F5E2E2E2E2E2E2E2E2E2E2E2E2E2E2
310
E2DCDCDCDCDCDCDCDCDCDCDCF5F5BEBEBEBEBEBEBEDCBEBEBEBEBEBEBEBEBEBEBEBEBEBEE2E2E2E2E2DCBEE2E2E2E2E2E2E2E2E2E2E2E2E2E2E2E2E2E2E2E2E2E2E2E2E2E2E2E2E2E2E2E2E2E2E2E2E2E2E2E2E2E2E2E2E2E2E2E2E2E2E2E2E2E2E2E2E2E2E2E2E2E2E2E2E2E2E2E2E2E2E2E2E2E2E2BEE2E2E2DCE2E2E2E2
310
E2E2E2DCDCDCDCBEBEBEBEBEF5F5F5F5F5F5F5F5F5F5F5F5F5F5F5F5BEE2BEE2E2E2DCE2E2E2E2E2E2E2DCDCDCDCBEBEBEBEBEF5F5F5F5E2F5F5F5F5F5E2F5F5F5F5DCBEE2E2BEE2E2E2DCE2E2E2E2E2E2E2DCDCDCDCBEBEBEBEBEF5F5F5F5F5F5F5F5F5F5F5F5F5F5F5F5BEDCE2E2E2E2E2F5E2E2E2E2E2E2E2E2E2E2E2E2
310
E2E2E2F5F5F5F5F5F5DCF5F5F5F5F5DCBEBEBEBEBEBEDCDCBEBEF5BEF5F5BEBEBEBEBEBEE2BEBEE2E2E2E2DCBEE2E2E2E2E2E2E2E2E2E2E2E2E2E2E2E2E2E2E2E2E2E2E2E2E2E2E2E2E2E2E2E2E2E2E2E2E2E2E2E2E2E2E2E2E2E2E2E2E2E2E2E2E2E2E2E2E2E2E2E2E2E2E2E2E2E2E2E2E2E2E2E2E2E2E2BEE2E2E2DCE2E2
310
E2E2E2E2E2DCF5F5F5BEBEBEBEBEF5BEBEBEBEF5F5F5F5F5F5F5F5BEBEF5BEE2BEE2E2E2DCE2E2E2E2E2E2E2DCF5F5F5BEBEBEBEBEBEBEBEBEDCF5F5F5F5F5DCF5BEBEBEDCBEE2E2BEE2E2E2DCE2E2E2E2E2E2E2DCF5F5F5BEBEBEBEBEF5BEBEBEBEF5F5F5F5F5F5DCF5BEBEF5BEDCE2E2E2E2E2F5E2E2E2E2E2E2E2E2E2E2
310
E2E2E2E2E2DCF5F5F5DCDCDCF5DCF5DCDCDCF5F5F5F5BEBEBEBEF5F5DCDCDCF5F5DCDCDCDCDCDCDCDCDCBEBEDCDCBEE2E2E2E2E2E2E2E2E2E2E2E2E2E2E2E2E2E2E2E2E2E2E2E2E2E2E2E2E2E2E2E2E2E2E2E2E2E2E2E2E2E2E2E2E2E2E2E2E2E2E2E2E2E2E2E2E2E2E2E2E2E2E2E2E2E2E2E2E2E2E2E2E2E2E2BEE2E2E2DC
310
DCDCDCDCDCDCDCDCF5F5F5F5DCBEBEDCDCF5F5F5DCDCF5F5F5F5DCDCF5F5F5DCBEE2BEE2E2E2DCDCDCDCDCDCDCDCDCF5F5F5DCBEBEBEDCF5F5F5F5DCDCF5F5F5F5DCDCF5F5F5DCBEE2E2BEE2E2E2DCDCDCDCDCDCDCDCDCF5F5F5F5DCBEBEDCDCF5F5F5DCDCF5F5F5F5DCDCF5F5F5DCBEDCE2E2E2E2E2F5E2E2E2E2E2E2E2E2
310
E2E2E2E2E2E2E2DCE2E2E2E2E2E2E2E2E2E2DCDCDCDCDCBEBEBEBEBEBEF5F5F5F5F5E2F5F5F5F5F5F5F5DCF5BEBEBEF5BEE2E2E2E2E2E2E2E2E2E2E2E2E2E2E2E2E2E2E2E2E2E2E2E2E2E2E2E2E2E2E2E2E2E2E2E2E2E2E2E2E2E2E2E2E2E2E2E2E2E2E2E2E2E2E2E2E2E2E2E2E2E2E2E2E2E2E2E2E2E2E2E2E2E2E2BEE2E2
310
E2DCE2E2E2E2E2E2E2E2E2E2E2E2E2E2E2E2E2E2E2E2E2E2E2E2E2E2E2E2E2E2E2DCBEE2BEE2E2E2DCE2E2E2E2E2E2E2E2E2E2E2E2E2E2E2E2E2E2E2E2E2E2E2E2E2E2E2E2E2E2E2DCBEE2E2BEE2E2E2DCE2E2E2E2E2E2E2E2E2E2E2E2E2E2E2E2E2E2E2E2E2E2E2E2E2E2E2E2E2E2E2DCBEDCE2E2E2E2E2F5E2E2E2E2E2E2
310
E2E2E2E2E2E2E2E2E2DCE2E2E2E2E2E2E2E2E2E2DCDCDCDCDCDCDCBEBEDCDCDCBEBEBEBEDCF5F5F5BEBEF5DCDCF5BEBEBEBEBEE2E2E2E2E2E2E2E2E2E2E2E2E2E2E2E2E2E2E2E2E2E2E2E2E2E2E2E2E2E2E2E2E2E2E2E2E2E2E2E2E2E2E2E2E2E2E2E2E2E2E2E2E2E2E2E2E2E2E2E2E2E2E2E2E2E2E2E2E2E2E2E2E2E2E2BE
310
E2E2E2DCE2E2E2E2E2E2E2E2E2E2E2E2E2E2E2E2E2E2E2E2E2E2E2E2E2E2E2E2E2E2E2DCBEE2BEE2E2E2DCE2282828282828282DF5E2E2E2E2E2E2E2E2E2E2E2E2E2E2E2E2E2E2E2E2E2DCBEE2E2BEE2E2E2DCE228282828282828F5F52DE2E2E2E2E2E2E2E2E2E2E2E2E2E2E2E2E2E2E2E2DCBEDCE2E2E2BEBEF5E2E2E2E2
310
E2E2E2E2E2E2E2E2E2E2E2DCDCDCDCDCDCDCDCDCDCDCDCF5F5F5F5DCF5BEBEDCDCDCBEBEBEBEDCDCDCF5BEBEF5DCDCDCF5BEBEBEBEE2E2E2E2E2E2E2E2E2E2E2E2E2E2E2E2E2E2E2E2E2E2E2E2E2E2E2E2E2E2E2E2E2E2E2E2E2E2E2E2E2E2E2E2E2E2E2E2E2E2E2E2E2E2E2E2E2E2E2E2E2E2E2E2E2E2E2E2E2E2E2E2E2E2
310
E2BEE2E2E2DCE2E2E2E2E2E2E2E2E2E2E2E2E2E2E2E2E2E2E2E2E2E2E2E2E2E2E2E2E2E2E2DCBEE2BEE2E2E2DCE2282828282828280F2DE2E2E2E2E2E2E2E2E2E2E2E2E2E2E2E2E2E2E2E2E2DCBEE2E2BEE2E2E2DCE2282828282828280F2DE2E2E2E2E2E2E2E2E2E2E2E2E2E2E2E2E2E2E2E2E2DCBEDCE2E2E2E2BEBEE2E2
310
E2E2E2E2E2E2E2E2E2E2E2E2E2E2E2E2E2E2E2E2E2E2E2E2E2E2E2E2E2E2E2E2E2E2E2E2E2E2E2E2E2E2E2E2E2E2E2E2E2E2E2E2E2DCBEE2E2E2E2E2E2E2E2E2E2E2E2E2E2E2E2E2E2E2E2E2E2E2E2E2E2E2E2E2E2E2E2E2E2E2E2E2E2E2E2E2E2E2E2E2E2E2E2E2E2E2E2E2E2E2E2E2E2E2E2E2E2E2E2E2E2E2E2E2E2E2E2
310
E2E2E2BEE2E2E2DCE2E2E2E2E2E2E2E2E2E2E2E2E2E2E2E2E2E2E2E2E2E2E2E2E2E2E2E2E2E2E2DCBEE2BEE2E2E2DCE228280F0F0F28280F2DE2E2E2E2E2E2E2E2E2E2E2E2E2E2E2E2E2E2E2E2E2DCBEE2E2BEE2E2E2DCE228280F0F0F0F280F2DE2E2E2E2E2E2E2E2E2E2E2E2E2E2E2E2E2E2E2E2E2DCBEDCE2E2E2E2E22D
310
2D2DE2E2E2E2E2E2E2E2E2E2E2E2E2E2E2E2E2E2E2E2E2E2E2E2E2E2E2E2E2E2E2E2E2E2E2E2E2E2E2E2E2E2E2E2E2E2E2E2E2E2E2E2E2DCBEE2E2E2E2E2E2E2E2E2E2E2E2E2E2E2E2E2E2E2E2E2E2E2E2E2E2E2E2E2E2E2E2E2E2E2E2E2E2E2E2E2E2E2E2E2E2E2E2E2E2E2E2E2E2E2E2E2E2E2E2E2E2E2E2E2E2E2E2E2E2
310
E2E2E2E2E2BEE2E2E2DCE2E2E2E2E2E2E2E2E2E2E2E2E2E2E2E2E2E2E2E2E2E2E2E2E2E2E2E2E2E2E2DCBEE2BEE2E2E2DCE22828E2E2E228280F2DE2E2E2E2E2E2E2E2E2E2E2E2E2E2E2E2E2E2E2E2E2DCBEE2E2BEE2E2E2DCE22828E2E2E2E2280F2DE2E2E2E2E2E2E2E2E2E2E2E2E2E2E2E2E2E2E2E2E2DCBEDCE2E2E2E2
310
E2F5E2F5E2E2E2E2E2E2E2E2E2E2E2E2E2E2E2E2E2E2E2E2E2E2E2E2E2E2E2E2E2E2E2E2E2E2E2E2E2E2E2E2E2E2E2E2E2E2E2E2E2E2E2E2E2DCBEE2E2E2E2E2E2E2E2E2E2E2E2E2E2E2E2E2E2E2E2E2E2E2E2E2E2E2E2E2E2E2E2E2E2E2E2E2E2E2E2E2E2E2E2E2E2E2E2E2E2E2E2E2E2E2E2E2E2E2E2E2E2E2E2E2E2E2E2
310
E2E2E2E2E2E2E2BEE2E2E2DCE2E2E2E2E2E2E2E2E2E2E2E2E2E2E2E2E2E2E2E2E2E2E2E2E2E2E2E2E2E2E2DCBEE2BEE2E2E2DCE2282828E22828280F2DE2E2E2E2E2E2E2E2E2E2E2E2E2E2E2E2E2E2E2E2E2DCBEE2E2BEE2E2E2DCE2282828282828280F2DE2E2E2E2E2E2E2E2E2E2E2E2E2E2E2E2E2E2E2E2E2DCBEDCE2E2
310
E2E22DF5E2BEBEE2E2E2E2E2E2E2E2E2E2E2E2E2E2E2E2E2E2E2E2E2E2E2E2E2E2E2E2E2E2E2E2E2E2E2E2E2E2E2E2E2E2E2E2E2E2E2E2E2E2E2E2DCBEE2E2E2E2E2E2E2E2E2E2E2E2E2E2E2E2E2E2E2E2E2E2E2E2E2E2E2E2E2E2E2E2E2E2E2E2E2E2E2E2E2E2E2E2E2E2E2E2E2E2E2E2E2E2E2E2E2E2E2E2E2E2E2E2E2E2
310
E2E2E2E2E2E2E2E2E2BEE2E2E2DCE2E2E2E2E2E2E2E2E2E2E2E2E2E2E2E2E2E2E2E2E2E2E2E2E2E2E2E2E2E2E2DCBEE2BEE2E2E2DCE2282828282828280FBEE2E2E2E2E2E2E2E2E2E2E2E2E2E2E2E2E2E2E2E2E2DCBEE2E2BEE2E2E2DCE2282828282828280FBEE2E2E2E2E2E2E2E2E2E2E2E2E2E2E2E2E2E2E2E2E2DCBEDC
310
E2E2E2E22DF5F5BE2DE2E2E2E2E2E2E2E2E2E2E2E2E2E2E2E2E2E2E2E2E2E2E2E2E2E2E2E2E2E2E2E2E2E2E2E2E2E2E2E2E2E2E2E2E2E2E2E2E2E2E2E2DCBEE2E2E2E2E2E2E2E2E2E2E2E2E2E2E2E2E2E2E2E2E2E2E2E2E2E2E2E2E2E2E2E2E2E2E2E2E2E2E2E2E2E2E2E2E2E2E2E2E2E2E2E2E2E2E2E2E2E2E2E2E2E2E2E2
310
E2E2E2E2E2E2E2E2E2E2E2BEE2E2E2DCE2E2E2E2E2E2E2E2E2E2E2E2E2E2E2E2E2E2E2E2E2E2E2E2E2E2E2E2E2E2E2DCBEE2BEE2E2E2DCE228282828282828BEBEE2E2E2E2E2E2E2E2E2E2E2E2E2E2E2E2E2E2E2E2E2DCBEE2E2BEE2E2E2DCE228282828282828BEBEE2E2E2E2E2E2E2E2E2E2E2E2E2E2E2E2E2E2E2E2E2DC
310
BEDCE2E2E2BEE2F5F52DE2E2E2E2E2E2E2E2E2E2E2E2E2E2E2E2E2E2E2E2E2E2E2E2E2E2E2E2E2E2E2E2E2E2E2E2E2E2E2E2E2E2E2E2E2E2E2E2E2E2E2E2E2DCBEE2E2E2E2E2E2E2E2E2E2E2E2E2E2E2E2E2E2E2E2E2E2E2E2E2E2E2E2E2E2E2E2E2E2E2E2E2E2E2E2E2E2E2E2E2E2E2E2E2E2E2E2E2E2E2E2E2E2E2E2E2E2
310
E2E2E2E2E2E2E2E2E2E2E2E2E2BEE2E2E2DCE2E2E2E2E2E2E2E2E2E2F5F5F5F5F5F5F5F5E2E2E2E2E2E2E2E2E2E2E2E2E2DCBEE2BEE2E2E2DCE228282828282828BE2DE2E2E2E2E2E2E2E2E2E2E2E2E2E2E2E2E2E2E2E2E2DCBEE2E2BEE2E2E2DCE228282828282828BE2DE2E2E2E2E2E2E2E2E2E2E2E2E2E2E2E2E2E2E2E2
310
E2DCBEDCE2E2E2BEE2F52D2DE2E2E2E2E2E2E2E2E2E2E2E2E2E2E2E2E2E2E2E2E2E2E2E2E2E2E2E2E2E2E2E2E2E2E2E2E2E2E2E2E2E2E2E2E2E2E2E2E2E2E2E2E2DCBEE2E2E2E2E2E2E2E2E2E2E2E2E2E2E2E2E2E2E2E2E2E2E2E2E2E2E2E2E2E2E2E2E2E2E2E2E2E2E2E2E2E2E2E2E2E2E2E2E2E2E2E2E2E2E2E2E2E2E2E2
310
E2E2E2E2E2E2E2E2E2E2E2E2E2E2E2BEE2E2E2DCE2E2E2E2E2E2E2E2E2E2F5F5F5F5F5F5F5F5E2E2E2E2E2E2E2E2E2E2E2E2E2DCBEE2BEE2E2E2DCE2280F2828280F28BE2DE2E2E2E2E2E2E2E2E2E2E2E2E2E2E2E2E2E2E2E2E2DCBEE2E2BEE2E2E2DCE228BE0F28282828BE2DE2E2E2E2E2E2E2E2E2E2E2E2E2E2E2E2E2E2
310
E2E2E2DCBEDCE2E2E2BEF5F5F5E2E2E2E2E2E2E2E2E2E2E2E22DF52D2D2D2D2D2D2D2D2D2D2DBEBE2D2D2D2D2D2D2D2D2D2D2D2DE2E2E2E2E2E2E2E2E2E2E2E2E2E2E2DCBEE2E2E2E2E2E2E2E2E2E2E2E2E2E2E2E2E2E2E2E2E2E2E2E2E2E2E2E2E2E2E2E2E2E2E2E2E2E2E2E2E2E2E2E2E2E2E2E2E2E2E2E2E2E2E2E2E2E2
310
E2E2E2E2E2E2E2E2E2E2E2E2E2E2E2E2E2BEE2E2E2DCE2E2E2E2E2E2E2E2E2E2F5F5F5F5F5F5F5F5E2E2E2E2E2E2E2E2E2E2E2E2E2DCBEE2BEE2E2E2DCE228282828282828282DE2E2E2E2E2E2E2E2E2E2E2E2E2E2E2E2E2E2E2E2E2DCBEE2E2BEE2E2E2DCE228282828282828282DE2E2E2E2E2E2E2E2E2E2E2E2E2E2E2E2
310
E2E2E2E2E2DCBEDCE2E2E2E22D2D2DE2E2E2E2E2E2E2E2E2E2E2BEBEF5282828F5F5282828282828F5F52DF52828F5F5F528282828F5E2E2E2E2E2E2E2E2E2E2E2E2E2E2E2DCBEE2E2E2E2E2E2E2E2E2E2E2E2E2E2E2E2E2E2E2E2E2E2E2E2E2E2E2E2E2E2E2E2E2E2E2E2E2E2E2E2E2E2E2E2E2E2E2E2E2E2E2E2E2E2E2E2
310
E2E2E2E2E2E2E2E2E2E2E2E2E2E2E2E2E2E2E2BEE2E2E2DCE2E2E2E2E2E2E2E2E2E2F5F5E2E2E2E2E2F5E2E2E2E2E2E2E2E2E2E2E2E2E2DCBEE2BEE2E2E2DCE2F5F5F5F5F5F528BE2DE2E2E2E2E2E2E2E2E2E2E2E2E2E2E2E2E2E2E2E2E2DCBEE2E2BEE2E2E2DCE228F5F5F5F5F528BE2D2DE2E2E2E2E2E2E2E2E2E2E2E2E2
310
E2E2E2E2E2E2E2DCBEDCE2E2E2E2E2F5E2E2E2E2E2E2E2E2E2E2E2E2BEBEF5F5F5BE2DF5F5F5F5F5F528F5F52D2DF5F5F5F5F5F5F5F5F5BEE2E2E2E2E2E2E2E2E2E2E2E2E2E2E2DCBEE2E2E2E2E2E2E2E2E2E2E2E2E2E2E2E2E2E2E2E2E2E2E2E2E2E2E2E2E2E2E2E2E2E2E2E2E2E2E2E2E2E2E2E2E2E2E2E2E2E2E2E2E2E2
310
E2E2E2E2E2E2E2E2E2E2E2E2E2E2E2E2E2E2E2E2E2BEE2E2E2DCE2E2E2E2E2E2E2E2E2E2F5F5E2E2E2E2E2F5E2E2E2E2E2E2E2E2E2E2E2E2E2DCBEE2BEE2E2E2DCE22D2D2DBEBE2D2DF5E2E2E2E2E2E22D2D2D2DBEBEBE2D2D2DF5E2E2E2E2E2DCBEE2E2BEE2E2E2DCE22D2D2DBEBE2D2DF5E2E2E2E2E2E22D2D2D2D2DBEBE
310
2D2D2D2DF5E2E2E2E2DCBEDCE2E2E2E2E2F5F5F5F5E2E2E2E2E2E2E2E2E2BEF5F5F5E2E22DE2E2E2E2E2E2E2E2E2E2E2E2E2E2E2E2E2E2E2E2E2E2E2E2E2E2E2E2E2E2E2E2E2E2E2E2DCBEE2E2E2E2E2E2E2E2E2E2E2E2E2E2E2E2E2E2E2E2E2E2E2E2E2E2E2E2E2E2E2E2E2E2E2E2E2E2E2E2E2E2E2E2E2E2E2E2E2E2E2E2
310
E2E2E2E2E2E2E2E2E2E2E2E2E2E2E2E2E2E2E2E2E2E2E2BEE2E2E2DCE2E2E2E2E2E2E2E2E2E2F5F5E2F5F5E2E2F5E2E2E2E2E2E2E2E2E2E2E2E2E2DCBEE2BEE2E2E2DCE2E2E2E2BEBEE2E2E2E2E2E2E2E2E22DE2E2E2E2E2E2E2E2E22DE2E2E2E2E2DCBEE2E2BEE2E2E2DCE2E2E2E2BEBEE2E2E2E2E2E2E2E2E22DE2E2E2E2
310
E2E2E2E2E2E22DE2E2E2E2DCBEDCE2E2E2E2E2BEBEBEE2E2E2E2E2E2E2E2E2E2E22DBEF52DE2E2E2E2E2E2E2E2E2E2E2E2E2E2E2E2E2E2E2E2E2E2E2E2E2E2E2E2E2E2E2E2E2E2E2E2E2E2DCBEE2E2E2E2E2E2E2E2E2E2E2E2E2E2E2E2E2E2E2E2E2E2E2E2E2E2E2E2E2E2E2E2E2E2E2E2E2E2E2E2E2E2E2E2E2E2E2E2E2E2
310
E2E2E2E2E2E2E2E2E2E2E2E2E2E2E2E2E2E2E2E2E2E2E2E2E2BEE2E2E2DCE2E2E2E2E2E2E2E2E2E2F5F5E2F5F5E2E2F5E2E2E2E2E2E2E2E2E2E2E2E2E2DCBEE2BEE2E2E2F5BEF5F5F5F5F5F5F5F5E2E2E2E22D2DBE28F5F50F0FE2E2E2E22DE2E2E2E2E2DCBEE2E2BEE2E2E2DCF5F5F5F5F5F5F5F5F5BEE2E2E2E22DF528F5
310
F50F0FE2E2E2E2E22DE2E2E2E2DCBEDCE2E2E2E2E2E2E2E2E2E2E2E2E2E2E2E2E2E2E2E2E2E2E2E2E2E2E2E2E2E2E2E2E2E2E2E2E2E2E2E2E2E2E2E2E2E2E2E2E2E2E2E2E2E2E2E2E2E2E2E2E2DCBEE2E2E2E2E2E2E2E2E2E2E2E2E2E2E2E2E2E2E2E2E2E2E2E2E2E2E2E2E2E2E2E2E2E2E2E2E2E2E2E2E2E2E2E2E2E2E2E2
310
E2E2E2E2E2E2E2E2E2E2E2E2E2E2E2E2E2E2E2E2E2E2E2E2E2E2E2BEE2E2E2DCE2E2E2E2E2E2E2E2E2E2F5F5E2F5F5E2E2F5E2E2E2E2E2E2E2E2E2E2E2E2E2DCBEE2BEE2E2E2BEE228BEF5F5F5BEBEF5E2E2E2E2E22D282828280F0F0F0F0F0F0F2DF5E2E2E2DCBEE2E2BEE2E2E2BEBE28BEBEF5F5BEBEF5E2E2E2E2E22D28
310
28C3C3C30F0F0F0F0F0FF5F5E2E2E2DCBEDCE2E2E2E2E2E2E2E2E2E2E2E2E2E2E2E2E2E2E2E2E2E2E2E2E2E2E2E2E2E2E2E2E2E2E2E2E2E2E2E2E2E2E2E2E2E2E2E2E2E2E2E2E2E2E2E2E2E2E2E2E2DCBEE2E2E2E2E2E2E2E2E2E2E2E2E2E2E2E2E2E2E2E2E2E2E2E2E2E2E2E2E2E2E2E2E2E2E2E2E2E2E2E2E2E2E2E2E2E2
310
E2E2E2E2E2E2E2E2E2E2E2E2E2E2E2E2E2E2E2E2E2E2E2E2E2E2E2E2E2BEE2E2E2DCE2E2E2E2E2E2E2E2E2E2F5F5E2F5F5E2E2F5E2E2E2E2E2E2E2E2E2E2E2E2E2DCBEE2BEE2E2E2BEE2282828282828E2BEE2E2E2E2E22DBE28282828BE0F0F0F0F0FE22DE2E2E2DCBEE2E2BEE2E2E2BEBE28282828282828BEE2E2E2E2E2
310
2D2828C3C3C3280F0F0F0F0FF52DE2E2E2DCBEDCE2E2E2E2E2E2E2E2E2E2E2E2E2E2E2E2E2E2E2E2E2E2E2E2E2E2E2E2E2E2E2E2E2E2E2E2E2E2E2E2E2E2E2E2E2E2E2E2E2E2E2E2E2E2E2E2E2E2E2E2E2DCBEE2E2E2E2E2E2E2E2E2E2E2E2E2E2E2E2E2E2E2E2E2E2E2E2E2E2E2E2E2E2E2E2E2E2E2E2E2E2E2E2E2E2E2E2
310
E2E2E2E2E2E2E2E2E2E2E2E2E2E2E2E2E2E2E2E2E2E2E2E2E2E2E2E2E2E2E2BEE2E2E2DCE2E2E2E2E2E2E2E2E2E2F5F5E2F5F5E2E2F5E2E2E2E2E2E2E2E2E2E2E2E2E2DCBEE2BEE2E2E22D2D28282DBE2828E2BEE2E2E2E2E22DBE28BEE2BEBEE2E2E2E228E22DE2E2E2DCBEE2E2BEE2E2E2DC2D282828BE282828BEE2E2E2
310
E2E22D28BEBEBEBE28E2E2E2E228F52DE2E2E2DCBEDCE2E2E2E2E2E2E2E2E2E2E2E2E2E2E2E2E2E2E2E2E2E2E2E2E2E2E2E2E2E2E2E2E2E2E2E2E2E2E2E2E2E2E2E2E2E2E2E2E2E2E2E2E2E2E2E2E2E2E2E2E2DCBEE2E2E2E2E2E2E2E2E2E2E2E2E2E2E2E2E2E2E2E2E2E2E2E2E2E2E2E2E2E2E2E2E2E2E2E2E2E2E2E2E2E2
310
E2E2E2E2E2E2E2E2E2E2E2E2E2E2E2E2E2E2E2E2E2E2E2E2E2E2E2E2E2E2E2E2E2BEE2E2E2DCE2E2E2E2E2E2E2E2E2E2F5F5E2F5F5E2E2F5E2E2E2E2E2E2E2E2E2E2E2E2E2DCBEE2BEE2E2E22D2D282828BE2828E2BEE2E2E2E2E22DBE28E2E2BEBE2828282828E22DE2E2E2DCBEE2E2BEE2E2E2DC2D282828BE282828BEE2
310
E2E2E2E22D28BEE2E2BE282828282828F52DE2E2E2DCBEDCE2E2E2E2E2E2E2E2E2E2E2E2E2E2E2E2E22D2D2D2D2D2D2D2D2D2D2D2D2DBEBE2D2D2D2D2D2D2D2D2D2D2D2D2DF5E2E2E2E2E2E2E2E2E2E2E2E2E2E2E2DCBEE2E2E2E2E2E2E2E2E2E2E2E2E2E2E2E2E2E2E2E2E2E2E2E2E2E2E2E2E2E2E2E2E2E2E2E2E2E2E2E2
310
E2E2E2E2E2E2E2E2E2E2E2E2E2E2E2E2E2E2E2E2E2E2E2E2E2E2E2E2E2E2E2E2E2E2E2BEE2E2E2DCE2E2E2E2E2E2E2E2E2E2F5F5E2E2E2E2E2F5E2E2E2E2E2E2E2E2E2E2E2E2E2DCBEE2BEE2E2E22DE22828E2BEBE28E2BEE2E2E2E2E22DBE28E2E2BEBE28E2E2E228E22DE2E2E2DCBEE2E2BEE2E2E2DC2D2828E2BEBE2828
310
BEE2E2E2E2E22DBEBEE2E2BE2828E2E2E228F52DE2E2E2DCBEDCE2E2E2E2E2E2E2E2E2E2E2E2E2E2E2E2E22DE2E2E2E2E2E2E2E2E2E2E22D2DBEE2E2E2E2E2E2E2E2E2E2E22DE22DE2E2E2E2E2E2E2E2E2E2E2E2E2E2E2DCBEE2E2E2E2E2E2E2E2E2E2E2E2E2E2E2E2E2E2E2E2E2E2E2E2E2E2E2E2E2E2E2E2E2E2E2E2E2E2
310
E2E2E2E2E2E2E2E2E2E2E2E2E2E2E2E2E2E2E2E2E2E2E2E2E2E2E2E2E2E2E2E2E2E2E2E2E2BEE2E2E2DCE2E2E2E2E2E2E2E2E2E2F5F5E2E2E2E2E2F5E2E2E2E2E2E2E2E2E2E2E2E2E2DCBEE2BEE2E2E22DE22828E2BEF528E2BEE2E2E2E2E22DBE28E2E2BEBEE2E2E2E228E22DE2E2E2DCBEE2E2BEE2E2E2DC2D2828E2F5BE
310
2828BEE2E2E2E2E22DBEBEE2E2BE2828E2E2E228F52DE2E2E2DCBEDCE2E2E2E2E2E2E2E2E2E2E2E2E2E2E22D2D2D2D2DF5DCDCDCDCDCDCDCDCBE2DF5E2E2E2E2E2E2E2E2E2E2E2BEF5DCE2E2E2E2E2E2E2E2E2E2E2E2E2E2E2DCBEE2E2E2E2E2E2E2E2E2E2E2E2E2E2E2E2E2E2E2E2E2E2E2E2E2E2E2E2E2E2E2E2E2E2E2E2
310
E2E2E2E2E2E2E2E2E2E2E2E2E2E2E2E2E2E2E2E2E2E2E2E2E2E2E2E2E2E2E2E2E2E2E2E2E2E2E2BEE2E2E2DCE2E2E2E2E2E2E2E2E2E2F5F5E2E2E2E2E2F5E2E2E2E2E2E2E2E2E2E2E2E2E2DCBEE2BEE2E2E22DE228E2E2BEF5BEE2BEE2E2E2E2E22DBE28E2E2BE28E2E2E2E228E22DE2E2E2DCBEE2E2BEE2E2E2DC2D28E2E2
310
F5BEBEE2BEE2E2E2E2E22DBEBEE2E2BE28E2E2E2E228F52DE2E2E2DCBEDCE2E2E2E2E2E2E2E22D2DF5F52D2DE22DE22DE2E2DC2828282828282828F5F5DCDCDCDCBEF5F5F5DCDCDCDCF5F528E2E2E2E2E2E2E2E2E2E2E2E2E2E2E2DCBEE2E2E2E2E2E2E2E2E2E2E2E2E2E2E2E2E2E2E2E2E2E2E2E2E2E2E2E2E2E2E2E2E2E2
310
E2E2E2E2E2E2E2E2E2E2E2E2E2E2E2E2E2E2E2E2E2E2E2E2E2E2E2E2E2E2E2E2E2E2E2E2E2E2E2E2E2BEE2E2E2DCE2E2E2E2E2E2E2E2E2E2F5F5E2E2E2E2E2F5E2E2E2E2E2E2E2E2E2E2E2E2E2DCBEE2BEE2E2E22DE2282828BE2828E2BEE2E2E2E2E22DBE28E2E2BE28E2E2E2E228E22DE2E2E2DCBEE2E2BEE2E2E2DC2D28
310
2828F5282828BEE2E2E2E2E22D28BEE2E2BE28E2E2E2E228F52DE2E2E2DCBEDCE2E2E2E2E2E2E2E22D2DF52DF5E2E22DE22DE2E2DCDCDCE2E2E2E2E2DCDCDCDCE2DCDCBEBEDCBEDCDCDCDC2DE2DCE2E2E2E2E2E2E2E2E2E2E2E2E2E2E2DCBEE2E2E2E2E2E2E2E2E2E2E2E2E2E2E2E2E2E2E2E2E2E2E2E2E2E2E2E2E2E2E2E2
310
E2E2E2E2E2E2E2E2E2E2E2E2E2E2E2E2E2E2E2E2E2E2E2E2E2E2E2E2E2E2E2E2E2E2E2E2E2E2E2E2E2E2E2BEE2E2E2DCE2E2E2E2E2E2E2E2E2E2F5F5E2E2E2E2E2F5E2E2E2E2E2E2E2E2E2E2E2E2E2DCBEE2BEE2E2E22DE22828E2BE2828E2BEE2E2E2E2E22DBE28BEBEBE28E2E2E2E228E22DE2E2E2DCBEE2E2BEE2E2E2DC
310
2D282828BE282828BEE2E2E2E2E22D28BEBEBEBE28E2E2E2E228F52DE2E2E2DCBEDCE2E2E2E2E2E2E2E22DE2F5BEBEE2E22DE2F5DCDCF5BEDCE2E2E2E2E2DC2DE2DCE2DCDCDC2DF5BEDCDCDC2828E2DCE2E2E2E2E2E2E2E2E2E2E2E2E2E2E2DCBEE2E2E2E2E2E2E2E2E2E2E2E2E2E2E2E2E2E2E2E2E2E2E2E2E2E2E2E2E2E2
310
E2E2E2E2E2E2E2E2E2E2E2E2E2E2E2E2E2E2E2E2E2E2E2E2E2E2E2E2E2E2E2E2E2E2E2E2E2E2E2E2E2E2E2E2E2BEE2E2E2DCE2E2E2E2E2E2E2E2E2E2F5F5E2E2E2E2E2F5E2E2E2E2E2E2E2E2E2E2E2E2E2DCBEE2BEE2E2E22DE2282828282828E2BEE2E2E2E2E22D282828BE28282828282828E22DE2E2E2DCBEE2E2BEE2E2
310
E2DC2D28282828282828BEE2E2E2E2E22D2828282828282828282828F52DE2E2E2DCBEDCE2E2E2E2E2E2E2E2BEE2F5E2BEE2E2BEBE2DDCF5F5BEDCE2DCDCE2E2DCBEE2DCDCDCDCDC28F5F5E2E2DCBEDCE2DCE2E2E2E2E2E2E2E2E2E2E2E2E2E2E2DCBEE2E2E2E2E2E2E2E2E2E2E2E2E2E2E2E2E2E2E2E2E2E2E2E2E2E2E2E2
310
E2E2E2E2E2E2E2E2E2E2E2E2E2E2E2E2E2E2E2E2E2E2E2E2E2E2E2E2E2E2E2E2E2E2E2E2E2E2E2E2E2E2E2E2E2E2E2BEE2E2E2DCE2E2E2E2E2E2E2E2E2E2F5F5E2E2E2E2E2F5E2E2E2E2E2E2E2E2E2E2E2E2E2DCBEE2BEE2E2E22DE2282828282828BEBEE2E2E2E2E22D282828BE28282828282828E22DE2E2E2DCBEE2E2BE
310
E2E2E2DC2D28282828282828BEE2E2E2E2E22DBE28282828282828282828F52DE2E2E2DCBEDCE2E2E2E2E2E2E2E2BEE22DBEE2E2E2BEE2DCDCDC28DCDCE2DCDCE2E2DCBEE2DCDCE2DCDCE2E2BEE2E2DCBEDCE2DCE2E2E2E2E2E2E2E2E2E2E2E2E2E2E2DCBEE2E2E2E2E2E2E2E2E2E2E2E2E2E2E2E2E2E2E2E2E2E2E2E2E2E2
310
E2E2E2E2E2E2E2E2E2E2E2E2E2E2E2E2E2E2E2E2E2E2E2E2E2E2E2E2E2E2E2E2E2E2E2E2E2E2E2E2E2E2E2E2E2E2E2E2E2BEE2E2E2DCE2E2E2E2E2E2E2E2E2E2F5F5E2E2E2E2E2F5E2E2E2E2E2E2E2E2E2E2E2E2E2DCBEE2BEE2E2E22DE2282828282828E228E2E2E2E2BE2D282828E2E2E2E2E2E2E228E22DE2E2E2DCBEE2
310
E2BEE2E2E2DC2D282828E228282828E2E2E2E2BEBE282828E2E2E2E2E2E2E228F52DE2E2E2DCBEDCE2E2E2E2E2E2E2E2BEBEBEBEE2E2E22DE2DCDCDCDCDCDCE2E2E2E2E2DC2DE2DCDCDCDCDC28F52DE2E2DC28DCE2DCE2E2E2E2E2E2E2E2E2E2E2E2E2E2E2DCBEE2E2E2E2E2E2E2E2E2E2E2E2E2E2E2E2E2E2E2E2E2E2E2E2
310
E2E2E2E2E2E2E2E2E2E2E2E2E2E2E2E2E2E2E2E2E2E2E2E2E2E2E2E2E2E2E2E2E2E2E2E2E2E2E2E2E2E2E2E2E2E2E2E2E2E2E2BEE2E2E2DCE2E2E2E2E2E2E2E2E2E2F5F5E2E2E2E2E2F5E2E2E2E2E2E2E2E2E2E2E2E2E2DCBEE2BEE2E2E2BEE228E2282828E2E228E2E2E2E2BE2D282828E2E2E2E2E2E2E228BE2DE2E2E2DC
310
BEE2E2BEE2E2E2BEBE28E2282828E2E228E2E2E2E2BEBE282828E2E2E2E2E2E2E228F5BEE2E2E2DCBEDCE2E2E2E2E2E2E2BEBEF5F5BEBEE2E22DE2E2E2E2DCDCDCE2E2E2E2E2DC2D2DDCE2DCDCDCF5282DDCDCDC2828E2DCE2E2E2E2E2E2E2E2E2E2E2E2E2E2E2DCBEE2E2E2E2E2E2E2E2E2E2E2E2E2E2E2E2E2E2E2E2E2E2
310
E2E2E2E2E2E2E2E2E2E2E2E2E2E2E2E2E2E2E2E2E2E2E2E2E2E2E2E2E2E2E2E2E2E2E2E2E2E2E2E2E2E2E2E2E2E2E2E2E2E2E2E2E2BEE2E2E2DCE2E2E2E2E2E2E2E2E2E2F5F5E2E2E2E2E2F5E2E2E2E2E2E2E2E2E2E2E2E2E2DCBEE2BEE2E2E2BEE2282828282828E228E2E2E2E2E22D282828E2E2E2E2E2E2E228BE2DE2E2
310
E2DCBEE2E2BEE2E2E2BEBE2828282828282828E2E2E2E2E22D282828E2E2E2E2E2E2E228F5BEE2E2E2DCBEDCE2E2E2E2E2E2E2BEBEBE2DF5BEE2E22D2DE2E2E2DC2828282828282828F5F52828DCDCBE2DDC2DDCDCDCDCDCBEDCE2E2E2E2E2E2E2E2E2E2E2E2E2E2E2DCBEE2E2E2E2E2E2E2E2E2E2E2E2E2E2E2E2E2E2E2E2
310
E2E2E2E2E2E2E2E2E2E2E2E2E2E2E2E2E2E2E2E2E2E2E2E2E2E2E2E2E2E2E2E2E2E2E2E2E2E2E2E2E2E2E2E2E2E2E2E2E2E2E2E2E2E2E2BEE2E2E2DCE2E2E2E2E2E2E2E2E2E2F5F5E2E2E2E2E2F5E2E2E2E2E2E2E2E2E2E2E2E2E2DCBEE2BEE2E2E22DE22828E2E2E228E228E2E2E2E2E22D282828E2E2E2E2E2E2E228E22D
310
E2E2E2DCBEE2E2BEE2E2E2DC2D2828E2E2E2E22828E2E2E2E2E22D282828E2E2E2E2E2E2E228F52DE2E2E2DCBEDCE2E2E2E2E2E2E2BEE22DF5BEBEE2E2F52D2D2D2DDCDCDCDCDCDCDCDCDCBE2DF5DCDCDCDCDCDCDCDCDCDCDCDCDCDCE2E2E2E2E2E2E2E2E2E2E2E2E2E2E2DCBEE2E2E2E2E2E2E2E2E2E2E2E2E2E2E2E2E2E2
310
E2E2E2E2E2E2E2E2E2E2E2E2E2E2E2E2E2E2E2E2E2E2E2E2E2E2E2E2E2E2E2E2E2E2E2E2E2E2E2E2E2E2E2E2E2E2E2E2E2E2E2E2E2E2E2E2E2BEE2E2E2DCE2E2E2E2E2E2E2E2E2E2F5F5E2E2E2E2E2F5E2E2E2E2E2E2E2E2E2E2E2E2E2DCBEE2BEE2E2E22DE2282828282828E228E2E2E2E2E22D282828E2E2E2E2E2E2E228
310
E22DE2E2E2DCBEE2E2BEE2E2E2DC2D2828282828282828E2E2E2E2E22D282828E2E2E2E2E2E2E228F52DE2E2E2DCBEDCE2E2E2E2E2E2E2BEBEBEBEBEE2E2E2E2E2E2E2E2E2E2E2E2E2E2E2E2E22DE2E2E2E2E2E2E2E2E2E2E2E2E2E2E2E2E2E2E2E2E2E2E2E2E2E2E2E2E2E2E2DCBEE2E2E2E2E2E2E2E2E2E2E2E2E2E2E2E2
310
E2E2E2E2E2E2E2E2E2E2E2E2E2E2E2E2E2E2E2E2E2E2E2E2E2E2E2E2E2E2E2E2E2E2E2E2E2E2E2E2E2E2E2E2E2E2E2E2E2E2E2E2E2E2E2E2E2E2E2BEE2E2E2DCE2E2E2E2E2E2E2E2E2E2F5F5E2E2E2E2E2F5E2E2E2E2E2E2E2E2E2E2E2E2E2DCBEE2BEE2E2E22DE228E2E2E2E2E2E228E2E2E2E2E22D282828E2E2E2E2E2E2
310
E228E22DE2E2E2DCBEE2E2BEE2E2E2DC2D28E2E2E2E2E2E228E2E2E2E2E22D282828E2E2E2E2E2E2E228F52DE2E2E2DCBEDCE2E2E2E2E2E2E2E2E2E2E2E2E2E2E2E2E2E2E2E2E2E2E2E2E2E2E2E2E2E2E2E2E2E2E2E2E2E2E2E2E2E2E2E2E2E2E2E2E2E2E2E2E2E2E2E2E2E2E2E2E2DCBEE2E2E2E2E2E2E2E2E2E2E2E2E2E2
310
E2E2E2E2E2E2E2E2E2E2E2E2E2E2E2E2E2E2E2E2E2E2E2E2E2E2E2E2E2E2E2E2E2E2E2E2E2E2E2E2E2E2E2E2E2E2E2E2E2E2E2E2E2E2E2E2E2E2E2E2E2BEE2E2E2DCE2E2E2E2E2E2E2E2E2E2F5F5E2E2E2E2E2F5E2E2E2E2E2E2E2E2E2E2E2E2E2DCBEE2BEE2E2E22DE228E2E2E2E2E2E228E2E2E2E2E22D282828E2E2E2E2
310
E2E2E228E22DE2E2E2DCBEE2E2BEE2E2E2DC2D28E2E2E2E2E2E228E2E2E2E2E22D282828E2E2E2E2E2E2E228F52DE2E2E2DCBEDCE2E2E2E2E2E2E2E2E2E2E2E2E2E2E2E2E2E2E2E2E2E2E2E2E2E2E2E2E2E2E2E2E2E2E2E2E2E2E2E2E2E2E2E2E2E2E2E2E2E2E2E2E2E2E2E2E2E2E2E2E2DCBEE2E2E2E2E2E2E2E2E2E2E2E2
310
E2E2E2E2E2E2E2E2E2E2E2E2E2E2E2E2E2E2E2E2E2E2E2E2E2E2E2E2E2E2E2E2E2E2E2E2E2E2E2E2E2E2E2E2E2E2E2E2E2E2E2E2E2E2E2E2E2E2E2E2E2E2E2BEE2E2E2DCE2E2E2E2E2E2E2E2E2E2F5F5E2E2E2E2E2F5E2E2E2E2E2E2E2E2E2E2E2E2E2DCBEE2BEE2E2E22DE228E2E228E2E2E228E2E2E2E2E22D282828E2E2
310
E2E2E2E2E228E22DE2E2E2DCBEE2E2BEE2E2E2DC2D28E2E22828E2E228E2E2E2E2E22D282828E2E2E2E2E2E2E228F52DE2E2E2DCBEDCE2E2E2E2E2E2E2E2E2E2E2E2E2E2E2E2E2E2E2E2E2E2E2E2E2E2E2E2E2E2E2E2E2E2E2E2E2E2E2E2E2E2E2E2E2E2E2E2E2E2E2E2E2E2E2E2E2E2E2E2E2DCBEE2E2E2E2E2E2E2E2E2E2
310
E2E2E2E2E2E2E2E2E2E2E2E2E2E2E2E2E2E2E2E2E2E2E2E2E2E2E2E2E2E2E2E2E2E2E2E2E2E2E2E2E2E2E2E2E2E2E2E2E2E2E2E2E2E2E2E2E2E2E2E2E2E2E2E2E2BEE2E2E2DCE2E2E2E2E2E2E2E2E2E2F5F5F5F5F5F5F5F5E2E2E2E2E2E2E2E2E2E2E2E2E2DCBEE2BEE2E2E22DE228E2E22828E2E228E2E2E2E2E22D282828
310
E2E2E2E2E2E2E228E22DE2E2E2DCBEE2E2BEE2E2E2DC2D28E2E22828E2E228E2E2E2E2E22D282828E2E2E2E2E2E2E228F52DE2E2E2DCBEDCDCDCDCDCDCDCDCDCDCDCDCDCDCDCDCDCDCDCDCDCDCDCDCDCDCDCDCDCDCDCDCDCDCDCDCDCDCDCDCDCDCDCDCDCDCDCDCDCDCDCDCDCDCDCDCDCDCDCDCDCDCDCBEE2E2E2E2E2E2E2E2
310
E2E2E2E2E2E2E2E2E2E2E2E2E2E2E2E2E2E2E2E2E2E2E2E2E2E2E2E2E2E2E2E2E2E2E2E2E2E2E2E2E2E2E2E2E2E2E2E2E2E2E2E2E2E2E2E2E2E2E2E2E2E2E2E2E2E2E2BEE2E2E2DCE2E2E2E2E2E2E2E2E2E2E2E2E2E2E2E2E2E2E2E2E2E2E2E2E2E2E2E2E2E2E2DCBEE2BEE2E2E22DE228E2E2E2E2E2E228E2E2E2E2E22D28
310
2828E228282828282828E22DE2E2E2DCBEE2E2BEE2E2E2DC2D28E2E2E2E2E2E228E2E2E2E2E22D282828E228282828282828F52DE2E2E2DCBEBEBEBEBEBEBEBEBEBEBEBEBEBEBEBEBEBEBEBEBEBEBEBEBEBEBEBEBEBEBEBEBEBEBEBEBEBEBEBEBEBEBEBEBEBEBEBEBEBEBEBEBEBEBEBEBEBEBEBEBEBEBEBEBEE2E2E2E2E2E2
310
E2E2E2E2E2E2E2E2E2E2E2E2E2E2E2E2E2E2E2E2E2E2E2E2E2E2E2E2E2E2E2E2E2E2E2E2E2E2E2E2E2E2E2E2E2E2E2E2E2E2E2E2E2E2E2E2E2E2E2E2E2E2E2E2E2E2E2E2E2BEE2E2E2DCE2E2E2E2E2E2E2E2E2E2E2E2E2E2E2E2E2E2E2E2E2E2E2E2E2E2E2E2E2E2E2DCBEE2BEE2E2E22DE228E2BEBEBEBEE228E2E2E2E2E2
310
2D2828282828282828282828E22DE2E2E2DCBEE2E2BEE2E2E2DC2D28E2BEBEBEBEE228E2E2E2E2E22D2828282828282828282828F52DE2E2E2DCBEE2E2E2E2E2E2E2E2E2E2E2E2E2E2E2E2E2E2E2E2E2E2E2E2E2E2E2E2E2E2E2E2E2E2E2E2E2E2E2E2E2E2E2E2E2E2E2E2E2E2E2E2E2E2E2E2E2E2E2E2E2E2E2E2E2E2E2E2
310
E2E2E2E2E2E2E2E2E2E2E2E2E2E2E2E2E2E2E2E2E2E2E2E2E2E2E2E2E2E2E2E2E2E2E2E2E2E2E2E2E2E2E2E2E2E2E2E2E2E2E2E2E2E2E2E2E2E2E2E2E2E2E2E2E2E2E2E2E2E2E2BEE2E2E2DCE2E2E2E2E2E2E2E2E2E2E2E2E2E2E2E2E2E2E2E2E2E2E2E2E2E2E2E2E2E2E2DCBEE2BEE2E2E22DE22828282828282828E2E2E2
310
E2E22D2828E2E2E2E2E2E2E2E228E22DE2E2E2DCBEE2E2BEE2E2E2DC2D2828282828282828E2E2E2E2E22D2828E2E2E2E2E2E2E2E228F52DE2E2E2DCBEE2E2E2E2E2E2E2E2E2E2E2E2E2E2E2E2E2E2E2E2E2E2E2E2E2E2E2E2E2E2E2E2E2E2E2E2E2E2E2E2E2E2E2E2E2E2E2E2E2E2E2E2E2E2E2E2E2E2E2E2E2E2E2E2E2E2
310
E2E2E2E2E2E2E2E2E2E2E2E2E2E2E2E2E2E2E2E2E2E2E2E2E2E2E2E2E2E2E2E2E2E2E2E2E2E2E2E2E2E2E2E2E2E2E2E2E2E2E2E2E2E2E2E2E2E2E2E2E2E2E2E2E2E2E2E2E2E2E2E2E2BEE2E2E2DCE2E2E2E2E2E2E2E2E2E2E2E2E2E2E2E2E2E2E2E2E2E2E2E2E2E2E2E2E2E2E2DCBEE2BEE2E2E22D2D2828282828282828E2
310
E2E2E2E22D2828F5F5E2E2E2E2E2E228E22DE2E2E2DCBEE2E2BEE2E2E2BE2D2828282828282828E2E2E2E2E22D282828F5E2E2E2E2E2E228F52DE2E2E2DCBEE2E2E2E2E2E2E2E2E2E2E2E2E2E2E2E2E2E2E2E2E2E2E2E2E2E2E2E2E2E2E2E2E2E2E2E2E2E2E2E2E2E2E2E2E2E2E2E2E2E2E2E2E2E2E2E2E2E2E2E2E2E2E2E2
310
E2E2E2E2E2E2E2E2E2E2E2E2E2E2E2E2E2E2E2E2E2E2E2E2E2E2E2E2E2E2E2E2E2E2E2E2E2E2E2E2E2E2E2E2E2E2E2E2E2E2E2E2E2E2E2E2E2E2E2E2E2E2E2E2E2E2E2E2E2E2E2E2E2E2E2BEE2E2E2DCE2E2E2E2E2E2E2E2E2E2E2E2E2E2E2E2E2E2E2E2E2E2E2E2E2E2E2E2E2E2E2DCBEE2BEE2E2E22D2D28BE28BE2828BE
310
28E2E2E2E2E22D2828F5F5F5F5F5F5F5F5F5E22DE2E2E2DCBEE2E2BEE2E2E2BE2D28BE2828BE28BE28E2E2E2E2E22D282828F5F5F5F5F5F5F528F52DE2E2E2DCBEE2E2E2E2E2E2E2E2E2E2E2E2E2E2E2E2E2E2E2E2E2E2E2E2E2E2E2E2E2E2E2E2E2E2E2E2E2E2E2E2E2E2E2E2E2E2E2E2E2E2E2E2E2E2E2E2E2E2E2E2E2E2
310
E2E2E2E2E2E2E2E2E2E2E2E2E2E2E2E2E2E2E2E2E2E2E2E2E2E2E2E2E2E2E2E2E2E2E2E2E2E2E2E2E2E2E2E2E2E2E2E2E2E2E2E2E2E2E2E2E2E2E2E2E2E2E2E2E2E2E2E2E2E2E2E2E2E2E2E2E2BEE2E2E2DCDCDCDCDCDCDCDCDCDCDCDCDCDCDCDCDCDCDCDCDCDCDCDCDCDCDCDCDCDCDCDCDCBEE2BEE2E2E22D2DF5DCDCDCDC
310
DCDCDCDCDCDCDCDCDCDCDCDCDCDCDCDCDCDCDCDCDCDCDCDCDCDCBEE2E2BEE2E2E2DC2DF5DCDCDCDCDCDCDCDCDCDCDCDCDCDCDCDCDCDCDCDCDCDCDCDCDCDCDCDCDCDCBEE2E2E2E2E2E2E2E2E2E2E2E2E2E2E2E2E2E2E2E2E2E2E2E2E2E2E2E2E2E2E2E2E2E2E2E2E2E2E2E2E2E2E2E2E2E2E2E2E2E2E2E2E2E2E2E2E2E2E2E2
310
E2E2E2E2E2E2E2E2E2E2E2E2E2E2E2E2E2E2E2E2E2E2E2E2E2E2E2E2E2E2E2E2E2E2E2E2E2E2E2E2E2E2E2E2E2E2E2E2E2E2E2E2E2E2E2E2E2E2E2E2E2E2E2E2E2E2E2E2E2E2E2E2E2E2E2E2E2E2E2BEBEBEBEBEBEBEBEBEBEBEBEBEBEBEBEBEBEBEBEBEBEBEBEBEBEBEBEBEBEBEBEBEBEBEBEBEBEE2BEBEBEBEBEBEBEBEBE
310
BEBEBEBEBEBEBEBEBEBEBEBEBEBEBEBEBEBEBEBEBEBEBEBEBEBEBEBEBEE2E2BEBEBEBEBEBEBEBEBEBEBEBEBEBEBEBEBEBEBEBEBEBEBEBEBEBEBEBEBEBEBEBEBEBEBEBEBEBEE2E2E2E2E2E2E2E2E2E2E2E2E2E2E2E2E2E2E2E2E2E2E2E2E2E2E2E2E2E2E2E2E2E2E2E2E2E2E2E2E2E2E2E2E2E2E2E2E2E2E2E2E2E2E2E2E2E2
310
E2E2E2E2E2E2E2E2E2E2E2E2E2E2E2E2E2E2E2E2E2E2E2E2E2E2E2E2E2E2E2E2E2E2E2E2E2E2E2E2E2E2E2E2E2E2E2E2E2E2E2E2E2E2E2E2E2E2E2E2E2E2E2E2E2E2E2E2E2E2E2E2E2E2E2E2E2E2E2E2E2E2E2E2E2E2E2E2E2E2E2E2E2E2E2E2E2E2E2E2E2E2E2E2E2E2E2E2E2E2E2E2E2E2E2E2E2E2E2E2E2E2E2E2E2E2E2
310
E2E2E2E2E2E2E2E2E2E2E2E2E2E2E2E2E2E2E2E2E2E2E2E2E2E2E2E2E2E2E2E2E2E2E2E2E2E2E2E2E2E2E2E2E2E2E2E2E2E2E2E2E2E2E2E2E2E2E2E2E2E2E2E2E2E2E2E2E2E2E2E2E2E2E2E2E2E2E2E2E2E2E2E2E2E2E2E2E2E2E2E2E2E2E2E2E2E2E2E2E2E2E2E2E2E2E2E2E2E2E2E2E2E2E2E2E2E2E2E2E2E2E2E2E2E2E2
310
E2E2E2E2E2E2E2E2E2E2E2E2E2E2E2E2E2E2E2E2E2E2E2E2E2E2E2E2E2E2E2E2E2E2E2E2E2E2E2E2E2E2E2E2E2E2E2E2E2E2E2E2E2E2E2E2E2E2E2E2E2E2E2E2E2E2E2E2E2E2E2E2E2E2E2E2E2E2E2E2E2E2E2E2E2E2E2E2E2E2E2E2E2E2E2E2E2E2E2E2E2E2E2E2E2E2E2E2E2E2E2E2E2E2E2E2E2E2E2E2E2E2E2E2E2E2E2
310
E2E2E2E2E2E2E2E2E2E2E2E2E2E2E2E2E2E2E2E2E2E2E2E2E2E2E2E2E2E2E2E2E2E2E2E2E2E2E2E2E2E2E2E2E2E2E2E2E2E2E2E2E2E2E2E2E2E2E2E2E2E2E2E2E2E2E2E2E2E2E2E2E2E2E2E2E2E2E2E2E2E2E2E2E2E2E2E2E2E2E2E2E2E2E2E2E2E2E2E2E2E2E2E2E2E2E2E2E2E2E2E2E2E2E2E2E2E2E2E2E2E2E2E2E2E2E2
310
E2E2E2E2E2E2E2E2E2E2E2E2E2E2E2E2E2E2E2E2E2E2E2E2E2E2E2E2E2E2E2E2E2E2E2E2E2E2E2E2E2E2E2E2E2E2E2E2E2E2E2E2E2E2E2E2E2E2E2E2E2E2E2E2E2E2E2E2E2E2E2E2E2E2E2E2E2E2E2E2E2E2E2E2E2E2E2E2E2E2E2E2E2E2E2E2E2E2E2E2E2E2E2E2E2E2E2E2E2E2E2E2E2E2E2E2E2E2E2E2E2E2E2E2E2E2E2
310
E2E2E2E2E2E2E2E2E2E2E2E2E2E2E2E2E2E2E2E2E2E2E2E2E2E2E2E2E2E2E2E2E2E2E2E2E2E2E2E2E2E2E2E2E2E2E2E2E2E2E2E2E2E2E2E2E2E2E2E2E2E2E2E2E2E2E2E2E2E2E2E2E2E2E2E2E2E2E2E2E2E2E2E2E2E2E2E2E2E2E2E2E2E2E2E2E2E2E2E2E2E2E2E2E2E2E2E2E2E2E2E2E2E2E2E2E2E2E2E2E2E2E2E2E2E2E2
310
E2E2E2E2E2E2E2E2E2E2E2E2E2E2E2E2E2E2E2E2E2E2E2E2E2E2E2E2E2E2E2E2E2E2E2E2E2E2E2E2E2E2E2E2E2E2E2E2E2E2E2E2E2E2E2E2E2E2E2E2E2E2E2E2E2E2E2E2E2E2E2E2E2E2E2E2E2E2E2E2E2E2E2E2E2E2E2E2E2E2E2E2E2E2E2E2E2E2E2E2E2E2E2E2E2E2E2E2E2E2E2E2E2E2E2E2E2E2E2E2E2E2E2E2E2E2E2
310
E2E2E2E2E2E2E2E2E2E2E2E2E2E2E2E2E2E2E2E2E2E2E2E2E2E2E2E2E2E2E2E2E2E2E2E2E2E2E2E2E2E2E2E2E2E2E2E2E2E2E2E2E2E2E2E2E2E2E2E2E2E2E2E2E2E2E2E2E2E2E2E2E2E2E2E2E2E2E2E2E2E2E2E2E2E2E2E2E2E2E2E2E2E2E2E2E2E2E2E2E2E2E2E2E2E2E2E2E2E2E2E2E2E2E2E2E2E2E2E2E2E2E2E2E2E2E2
310
E2E2E2E2E2E2E2E2E2E2E2E2E2E2E2E2E2E2E2E2E2E2E2E2E2E2E2E2E2E2E2E2E2E2E2E2E2E2E2E2E2E2E2E2E2E2E2E2E2E2E2E2E2E2E2E2E2E2E2E2E2E2E2E2E2E2E2E2E2E2E2E2E2E2E2E2E2E2E2E2E2E2E2E2E2E2E2E2E2E2E2E2E2E2E2E2E2E2E2E2E2E2E2E2E2E2E2E2E2E2E2E2E2E2E2E2E2E2E2E2E2E2E2E2E2E2E2
310
E2E2E2E2E2E2E2E2E2E2E2E2E2E2E2E2E2E2E2E2E2E2E2E2E2E2E2E2E2E2E2E2E2E2E2E2E2E2E2E2E2E2E2E2E2E2E2E2E2E2E2E2E2E2E2E2E2E2E2E2E2E2E2E2E2E2E2E2E2E2E2E2E2E2E2E2E2E2E2E2E2E2E2E2E2E2E2E2E2E2E2E2E2E2E2E2E2E2E2E2E2E2E2E2E2E2E2E2E2E2E2E2E2E2E2E2E2E2E2E2E2E2E2E2E2E2E2
310
E2E2E2E2E2E2E2E2E2E2E2E2E2E2E2E2E2E2E2E2E2E2E2E2E2E2E2E2E2E2E2E2E2E2E2E2E2E2E2E2E2E2E2E2E2E2E2E2E2E2E2E2E2E2E2E2E2E2E2E2E2E2E2E2E2E2E2E2E2E2E2E2E2E2E2E2E2E2E2E2E2E2E2E2E2E2E2E2E2E2E2E2E2E2E2E2E2E2E2E2E2E2E2E2E2E2E2E2E2E2E2E2E2E2E2E2E2E2E2E2E2E2E2E2E2E2E2
310
E2E2E2E2E2E2E2E2E2E2E2E2E2E2E2E2E2E2E2E2E2E2E2E2E2E2E2E2E2E2E2E2E2E2E2E2E2E2E2E2E2E2E2E2E2E2E2E2E2E2E2E2E2E2E2E2E2E2E2E2E2E2E2E2E2E2E2E2E2E2E2E2E2E2E2E2E2E2E2E2E2E2E2E2E2E2E2E2E2E2E2E2E2E2E2E2E2E2E2E2E2E2E2E2E2E2E2E2E2E2E2E2E2E2E2E2E2E2E2E2E2E2E2E2E2E2E2
310
E2E2E2E2E2E2E2E2E2E2E2E2E2E2E2E2E2E2E2E2E2E2E2E2E2E2E2E2E2E2E2E2E2E2E2E2E2E2E2E2E2E2E2E2E2E2E2E2E2E2E2E2E2E2E2E2E2E2E2E2E2E2E2E2E2E2E2E2E2E2E2E2E2E2E2E2E2E2E2E2E2E2E2E2E2E2E2E2E2E2E2E2E2E2E2E2E2E2E2E2E2E2E2E2E2E2E2E2E2E2E2E2E2E2E2E2E2E2E2E2E2E2E2E2E2E2E2
310
E2E2E2E2E2E2E2E2E2E2E2E2E2E2E2E2E2E2E2E2E2E2E2E2E2E2E2E2E2E2E2E2E2E2E2E2E2E2E2E2E2E2E2E2E2E2E2E2E2E2E2E2E2E2E2E2E2E2E2E2E2E2E2E2E2E2E2E2E2E2E2E2E2E2E2E2E2E2E2E2E2E2E2E2E2E2E2E2E2E2E2E2E2E2E2E2E2E2E2E2E2E2E2E2E2E2E2E2E2E2E2E2E2E2E2E2E2E2E2E2E2E2E2E2E2E2E2
310
E2E2E2E2E2E2E2E2E2E2E2E2E2E2E2E2E2E2E2E2E2E2E2E2E2E2E2E2E2E2E2E2E2E2E2E2E2E2E2E2E2E2E2E2E2E2E2E2E2E2E2E2E2E2E2E2E2E2E2E2E2E2E2E2E2E2E2E2E2E2E2E2E2E2E2E2E2E2E2E2E2E2E2E2E2E2E2E2E2E2E2E2E2E2E2E2E2E2E2E2E2E2E2E2E2E2E2E2E2E2E2E2E2E2E2E2E2E2E2E2E2E2E2E2E2E2E2
310
E2E2E2E2E2E2E2E2E2E2E2E2E2E2E2E2E2E2E2E2E2E2E2E2E2E2E2E2E2E2E2E2E2E2E2E2E2E2E2E2E2E2E2E2E2E2E2E2E2E2E2E2E2E2E2E2E2E2E2E2E2E2E2E2E2E2E2E2E2E2E2E2E2E2E2E2E2E2E2E2E2E2E2E2E2E2E2E2E2E2E2E2E2E2E2E2E2E2E2E2E2E2E2E2E2E2E2E2E2E2E2E2E2E2E2E2E2E2E2E2E2E2E2E2E2E2E2
310
E2E2E2E2E2E2E2E2E2E2E2E2E2E2E2E2E2E2E2E2E2E2E2E2E2E2E2E2E2E2E2E2E2E2E2E2E2E2E2E2E2E2E2E2E2E2E2E2E2E2E2E2E2E2E2E2E2E2E2E2E2E2E2E2E2E2E2E2E2E2E2E2E2E2E2E2E2E2E2E2E2E2E2E2E2E2E2E2E2E2E2E2E2E2E2E2E2E2E2E2E2E2E2E2E2E2E2E2E2E2E2E2E2E2E2E2E2E2E2E2E2E2E2E2E2E2E2
310
E2E2E2E2E2E2E2E2E2E2E2E2E2E2E2E2E2E2E2E2E2E2E2E2E2E2E2E2E2E2E2E2E2E2E2E2E2E2E2E2E2E2E2E2E2E2E2E2E2E2E2E2E2E2E2E2E2E2E2E2E2E2E2E2E2E2E2E2E2E2E2E2E2E2E2E2E2E2E2E2E2E2E2E2E2E2E2E2E2E2E2E2E2E2E2E2E2E2E2E2E2E2E2E2E2E2E2E2E2E2E2E2E2E2E2E2E2E2E2E2E2E2E2E2E2E2E2
310
E2E2E2E2E2E2E2E2E2E2E2E2E2E2E2E2E2E2E2E2E2E2E2E2E2E2
  0
XRECORD
  5
47
102
{ACAD_REACTORS
330
46
102
}
330
46
100
AcDbXrecord
280
     1
270
     1
271
     1
  0
XRECORD
  5
48
102
{ACAD_REACTORS
330
46
102
}
330
46
100
AcDbXrecord
280
     1
270
     1
271
     1
  0
XRECORD
  5
49
102
{ACAD_REACTORS
330
46
102
}
330
46
100
AcDbXrecord
280
     1
270
     1
271
     1
  0
XRECORD
  5
4A
102
{ACAD_REACTORS
330
46
102
}
330
46
100
AcDbXrecord
280
     1
270
     1
271
     1
  0
XRECORD
  5
4B
102
{ACAD_REACTORS
330
46
102
}
330
46
100
AcDbXrecord
280
     1
270
     1
271
     1
  0
XRECORD
  5
4C
102
{ACAD_REACTORS
330
46
102
}
330
46
100
AcDbXrecord
280
     1
270
     1
271
     1
  0
XRECORD
  5
3F
102
{ACAD_REACTORS
330
3E
102
}
330
3E
100
AcDbXrecord
280
     1
270
     1
271
     1
  0
XRECORD
  5
40
102
{ACAD_REACTORS
330
3E
102
}
330
3E
100
AcDbXrecord
280
     1
270
     1
271
     1
  0
XRECORD
  5
41
102
{ACAD_REACTORS
330
3E
102
}
330
3E
100
AcDbXrecord
280
     1
270
     1
271
     1
  0
XRECORD
  5
42
102
{ACAD_REACTORS
330
3E
102
}
330
3E
100
AcDbXrecord
280
     1
270
     1
271
     1
  0
XRECORD
  5
43
102
{ACAD_REACTORS
330
3E
102
}
330
3E
100
AcDbXrecord
280
     1
270
     1
271
     1
  0
XRECORD
  5
44
102
{ACAD_REACTORS
330
3E
102
}
330
3E
100
AcDbXrecord
280
     1
270
     1
271
     1
  0
XRECORD
  5
F
102
{ACAD_REACTORS
330
E
102
}
330
E
100
AcDbXrecord
280
     1
270
     1
271
     1
  0
XRECORD
  5
10
102
{ACAD_REACTORS
330
E
102
}
330
E
100
AcDbXrecord
280
     1
270
     1
271
     1
  0
XRECORD
  5
11
102
{ACAD_REACTORS
330
E
102
}
330
E
100
AcDbXrecord
280
     1
270
     1
271
     1
  0
XRECORD
  5
12
102
{ACAD_REACTORS
330
E
102
}
330
E
100
AcDbXrecord
280
     1
270
     1
271
     1
  0
XRECORD
  5
13
102
{ACAD_REACTORS
330
E
102
}
330
E
100
AcDbXrecord
280
     1
270
     1
271
     1
  0
XRECORD
  5
14
102
{ACAD_REACTORS
330
E
102
}
330
E
100
AcDbXrecord
280
     1
270
     1
271
     1
  0
CELLSTYLEMAP
  5
310
102
{ACAD_REACTORS
330
56
102
}
330
56
100
AcDbCellStyleMap
 90
        3
300
CELLSTYLE
  1
TABLEFORMAT_BEGIN
 90
        5
170
     1
 91
        0
 92
    32768
 62
   257
 93
        1
300
CONTENTFORMAT
  1
CONTENTFORMAT_BEGIN
 90
        0
 91
        0
 92
      512
 93
        0
300

 40
0.0
140
1.0
 94
        5
 62
     0
340
27
144
6.0
309
CONTENTFORMAT_END
171
     1
301
MARGIN
  1
CELLMARGIN_BEGIN
 40
1.5
 40
1.5
 40
1.5
 40
1.5
 40
4.5
 40
4.5
309
CELLMARGIN_END
 94
        6
 95
        1
302
GRIDFORMAT
  1
GRIDFORMAT_BEGIN
 90
        0
 91
        1
 62
     0
 92
       -2
340
0
 93
        0
 40
1.125
309
GRIDFORMAT_END
 95
        2
302
GRIDFORMAT
  1
GRIDFORMAT_BEGIN
 90
        0
 91
        1
 62
     0
 92
       -2
340
0
 93
        0
 40
1.125
309
GRIDFORMAT_END
 95
        4
302
GRIDFORMAT
  1
GRIDFORMAT_BEGIN
 90
        0
 91
        1
 62
     0
 92
       -2
340
0
 93
        0
 40
1.125
309
GRIDFORMAT_END
 95
        8
302
GRIDFORMAT
  1
GRIDFORMAT_BEGIN
 90
        0
 91
        1
 62
     0
 92
       -2
340
0
 93
        0
 40
1.125
309
GRIDFORMAT_END
 95
       16
302
GRIDFORMAT
  1
GRIDFORMAT_BEGIN
 90
        0
 91
        1
 62
     0
 92
       -2
340
0
 93
        0
 40
1.125
309
GRIDFORMAT_END
 95
       32
302
GRIDFORMAT
  1
GRIDFORMAT_BEGIN
 90
        0
 91
        1
 62
     0
 92
       -2
340
0
 93
        0
 40
1.125
309
GRIDFORMAT_END
309
TABLEFORMAT_END
  1
CELLSTYLE_BEGIN
 90
        1
 91
        1
300
_TITLE
309
CELLSTYLE_END
300
CELLSTYLE
  1
TABLEFORMAT_BEGIN
 90
        5
170
     1
 91
        0
 92
        0
 62
   257
 93
        1
300
CONTENTFORMAT
  1
CONTENTFORMAT_BEGIN
 90
        0
 91
        0
 92
      512
 93
        0
300

 40
0.0
140
1.0
 94
        5
 62
     0
340
27
144
4.5
309
CONTENTFORMAT_END
171
     1
301
MARGIN
  1
CELLMARGIN_BEGIN
 40
1.5
 40
1.5
 40
1.5
 40
1.5
 40
4.5
 40
4.5
309
CELLMARGIN_END
 94
        6
 95
        1
302
GRIDFORMAT
  1
GRIDFORMAT_BEGIN
 90
        0
 91
        1
 62
     0
 92
       -2
340
0
 93
        0
 40
1.125
309
GRIDFORMAT_END
 95
        2
302
GRIDFORMAT
  1
GRIDFORMAT_BEGIN
 90
        0
 91
        1
 62
     0
 92
       -2
340
0
 93
        0
 40
1.125
309
GRIDFORMAT_END
 95
        4
302
GRIDFORMAT
  1
GRIDFORMAT_BEGIN
 90
        0
 91
        1
 62
     0
 92
       -2
340
0
 93
        0
 40
1.125
309
GRIDFORMAT_END
 95
        8
302
GRIDFORMAT
  1
GRIDFORMAT_BEGIN
 90
        0
 91
        1
 62
     0
 92
       -2
340
0
 93
        0
 40
1.125
309
GRIDFORMAT_END
 95
       16
302
GRIDFORMAT
  1
GRIDFORMAT_BEGIN
 90
        0
 91
        1
 62
     0
 92
       -2
340
0
 93
        0
 40
1.125
309
GRIDFORMAT_END
 95
       32
302
GRIDFORMAT
  1
GRIDFORMAT_BEGIN
 90
        0
 91
        1
 62
     0
 92
       -2
340
0
 93
        0
 40
1.125
309
GRIDFORMAT_END
309
TABLEFORMAT_END
  1
CELLSTYLE_BEGIN
 90
        2
 91
        1
300
_HEADER
309
CELLSTYLE_END
300
CELLSTYLE
  1
TABLEFORMAT_BEGIN
 90
        5
170
     1
 91
        0
 92
        0
 62
   257
 93
        1
300
CONTENTFORMAT
  1
CONTENTFORMAT_BEGIN
 90
        0
 91
        0
 92
      512
 93
        0
300

 40
0.0
140
1.0
 94
        2
 62
     0
340
27
144
4.5
309
CONTENTFORMAT_END
171
     1
301
MARGIN
  1
CELLMARGIN_BEGIN
 40
1.5
 40
1.5
 40
1.5
 40
1.5
 40
4.5
 40
4.5
309
CELLMARGIN_END
 94
        6
 95
        1
302
GRIDFORMAT
  1
GRIDFORMAT_BEGIN
 90
        0
 91
        1
 62
     0
 92
       -2
340
0
 93
        0
 40
1.125
309
GRIDFORMAT_END
 95
        2
302
GRIDFORMAT
  1
GRIDFORMAT_BEGIN
 90
        0
 91
        1
 62
     0
 92
       -2
340
0
 93
        0
 40
1.125
309
GRIDFORMAT_END
 95
        4
302
GRIDFORMAT
  1
GRIDFORMAT_BEGIN
 90
        0
 91
        1
 62
     0
 92
       -2
340
0
 93
        0
 40
1.125
309
GRIDFORMAT_END
 95
        8
302
GRIDFORMAT
  1
GRIDFORMAT_BEGIN
 90
        0
 91
        1
 62
     0
 92
       -2
340
0
 93
        0
 40
1.125
309
GRIDFORMAT_END
 95
       16
302
GRIDFORMAT
  1
GRIDFORMAT_BEGIN
 90
        0
 91
        1
 62
     0
 92
       -2
340
0
 93
        0
 40
1.125
309
GRIDFORMAT_END
 95
       32
302
GRIDFORMAT
  1
GRIDFORMAT_BEGIN
 90
        0
 91
        1
 62
     0
 92
       -2
340
0
 93
        0
 40
1.125
309
GRIDFORMAT_END
309
TABLEFORMAT_END
  1
CELLSTYLE_BEGIN
 90
        3
 91
        2
300
_DATA
309
CELLSTYLE_END
  0
ENDSEC
  0
EOF
