  0
SECTION
  2
HEADER
  9
$ACADVER
  1
AC1024
  9
$ACADMAINTVER
 70
     6
  9
$DWGCODEPAGE
  3
ANSI_1252
  9
$INSBASE
 10
0.0
 20
0.0
 30
0.0
  9
$EXTMIN
 10
-0.0456033555669819
 20
-0.0339069151716558
 30
-0.0000000000000053
  9
$EXTMAX
 10
1050.014054570391
 20
742.532131410685
 30
0.0000000000000099
  9
$LIMMIN
 10
0.0
 20
-0.0000000000001137
  9
$LIMMAX
 10
1049.999999999895
 20
742.4999999999259
  9
$ORTHOMODE
 70
     0
  9
$REGENMODE
 70
     1
  9
$FILLMODE
 70
     1
  9
$QTEXTMODE
 70
     0
  9
$MIRRTEXT
 70
     0
  9
$LTSCALE
 40
15.0
  9
$ATTMODE
 70
     1
  9
$TEXTSIZE
 40
12.0
  9
$TRACEWID
 40
1.0
  9
$TEXTSTYLE
  7
Standard
  9
$CLAYER
  8
09-01
  9
$CELTYPE
  6
ByLayer
  9
$CECOLOR
 62
   256
  9
$CELTSCALE
 40
1.0
  9
$DISPSILH
 70
     0
  9
$DIMSCALE
 40
2.0
  9
$DIMASZ
 40
2.5
  9
$DIMEXO
 40
1.0
  9
$DIMDLI
 40
10.0
  9
$DIMRND
 40
0.0
  9
$DIMDLE
 40
0.0
  9
$DIMEXE
 40
1.0
  9
$DIMTP
 40
0.0
  9
$DIMTM
 40
0.0
  9
$DIMTXT
 40
2.5
  9
$DIMCEN
 40
0.0
  9
$DIMTSZ
 40
0.0
  9
$DIMTOL
 70
     0
  9
$DIMLIM
 70
     0
  9
$DIMTIH
 70
     0
  9
$DIMTOH
 70
     0
  9
$DIMSE1
 70
     0
  9
$DIMSE2
 70
     0
  9
$DIMTAD
 70
     1
  9
$DIMZIN
 70
     8
  9
$DIMBLK
  1

  9
$DIMASO
 70
     1
  9
$DIMSHO
 70
     1
  9
$DIMPOST
  1

  9
$DIMAPOST
  1

  9
$DIMALT
 70
     0
  9
$DIMALTD
 70
     3
  9
$DIMALTF
 40
0.03937007874016
  9
$DIMLFAC
 40
1.0
  9
$DIMTOFL
 70
     1
  9
$DIMTVP
 40
0.0
  9
$DIMTIX
 70
     0
  9
$DIMSOXD
 70
     0
  9
$DIMSAH
 70
     0
  9
$DIMBLK1
  1

  9
$DIMBLK2
  1

  9
$DIMSTYLE
  2
Wagner
  9
$DIMCLRD
 70
     4
  9
$DIMCLRE
 70
     4
  9
$DIMCLRT
 70
     1
  9
$DIMTFAC
 40
1.0
  9
$DIMGAP
 40
1.0
  9
$DIMJUST
 70
     0
  9
$DIMSD1
 70
     0
  9
$DIMSD2
 70
     0
  9
$DIMTOLJ
 70
     0
  9
$DIMTZIN
 70
     8
  9
$DIMALTZ
 70
     0
  9
$DIMALTTZ
 70
     0
  9
$DIMUPT
 70
     0
  9
$DIMDEC
 70
     8
  9
$DIMTDEC
 70
     8
  9
$DIMALTU
 70
     2
  9
$DIMALTTD
 70
     3
  9
$DIMTXSTY
  7
Standard
  9
$DIMAUNIT
 70
     0
  9
$DIMADEC
 70
     1
  9
$DIMALTRND
 40
0.0
  9
$DIMAZIN
 70
     2
  9
$DIMDSEP
 70
    46
  9
$DIMATFIT
 70
     3
  9
$DIMFRAC
 70
     0
  9
$DIMLDRBLK
  1

  9
$DIMLUNIT
 70
     2
  9
$DIMLWD
 70
    -2
  9
$DIMLWE
 70
    -2
  9
$DIMTMOVE
 70
     0
  9
$DIMFXL
 40
1.0
  9
$DIMFXLON
 70
     0
  9
$DIMJOGANG
 40
0.7853981633974483
  9
$DIMTFILL
 70
     0
  9
$DIMTFILLCLR
 70
     0
  9
$DIMARCSYM
 70
     0
  9
$DIMLTYPE
  6

  9
$DIMLTEX1
  6

  9
$DIMLTEX2
  6

  9
$DIMTXTDIRECTION
 70
     0
  9
$LUNITS
 70
     2
  9
$LUPREC
 70
     1
  9
$SKETCHINC
 40
1.0
  9
$FILLETRAD
 40
0.0
  9
$AUNITS
 70
     0
  9
$AUPREC
 70
     0
  9
$MENU
  1
.
  9
$ELEVATION
 40
0.0
  9
$PELEVATION
 40
0.0
  9
$THICKNESS
 40
0.0
  9
$LIMCHECK
 70
     0
  9
$CHAMFERA
 40
0.0
  9
$CHAMFERB
 40
0.0
  9
$CHAMFERC
 40
20.0
  9
$CHAMFERD
 40
0.0
  9
$SKPOLY
 70
     0
  9
$TDCREATE
 40
2453171.364102755
  9
$TDUCREATE
 40
2453171.280769421
  9
$TDUPDATE
 40
2456927.478574653
  9
$TDUUPDATE
 40
2456927.395241320
  9
$TDINDWG
 40
2.7884866898
  9
$TDUSRTIMER
 40
2.7884866898
  9
$USRTIMER
 70
     1
  9
$ANGBASE
 50
0.0
  9
$ANGDIR
 70
     0
  9
$PDMODE
 70
     0
  9
$PDSIZE
 40
0.0
  9
$PLINEWID
 40
0.0
  9
$SPLFRAME
 70
     0
  9
$SPLINETYPE
 70
     6
  9
$SPLINESEGS
 70
     8
  9
$HANDSEED
  5
42B
  9
$SURFTAB1
 70
     6
  9
$SURFTAB2
 70
     6
  9
$SURFTYPE
 70
     6
  9
$SURFU
 70
     6
  9
$SURFV
 70
     6
  9
$UCSBASE
  2

  9
$UCSNAME
  2

  9
$UCSORG
 10
0.0
 20
0.0
 30
0.0
  9
$UCSXDIR
 10
1.0
 20
0.0
 30
0.0
  9
$UCSYDIR
 10
0.0
 20
1.0
 30
0.0
  9
$UCSORTHOREF
  2

  9
$UCSORTHOVIEW
 70
     0
  9
$UCSORGTOP
 10
0.0
 20
0.0
 30
0.0
  9
$UCSORGBOTTOM
 10
0.0
 20
0.0
 30
0.0
  9
$UCSORGLEFT
 10
0.0
 20
0.0
 30
0.0
  9
$UCSORGRIGHT
 10
0.0
 20
0.0
 30
0.0
  9
$UCSORGFRONT
 10
0.0
 20
0.0
 30
0.0
  9
$UCSORGBACK
 10
0.0
 20
0.0
 30
0.0
  9
$PUCSBASE
  2

  9
$PUCSNAME
  2

  9
$PUCSORG
 10
0.0
 20
0.0
 30
0.0
  9
$PUCSXDIR
 10
1.0
 20
0.0
 30
0.0
  9
$PUCSYDIR
 10
0.0
 20
1.0
 30
0.0
  9
$PUCSORTHOREF
  2

  9
$PUCSORTHOVIEW
 70
     0
  9
$PUCSORGTOP
 10
0.0
 20
0.0
 30
0.0
  9
$PUCSORGBOTTOM
 10
0.0
 20
0.0
 30
0.0
  9
$PUCSORGLEFT
 10
0.0
 20
0.0
 30
0.0
  9
$PUCSORGRIGHT
 10
0.0
 20
0.0
 30
0.0
  9
$PUCSORGFRONT
 10
0.0
 20
0.0
 30
0.0
  9
$PUCSORGBACK
 10
0.0
 20
0.0
 30
0.0
  9
$USERI1
 70
     0
  9
$USERI2
 70
     0
  9
$USERI3
 70
     0
  9
$USERI4
 70
     0
  9
$USERI5
 70
     0
  9
$USERR1
 40
0.0
  9
$USERR2
 40
0.0
  9
$USERR3
 40
0.0
  9
$USERR4
 40
0.0
  9
$USERR5
 40
0.0
  9
$WORLDVIEW
 70
     1
  9
$SHADEDGE
 70
     3
  9
$SHADEDIF
 70
    70
  9
$TILEMODE
 70
     1
  9
$MAXACTVP
 70
    64
  9
$PINSBASE
 10
0.0
 20
0.0
 30
0.0
  9
$PLIMCHECK
 70
     0
  9
$PEXTMIN
 10
1.000000000000000E+20
 20
1.000000000000000E+20
 30
1.000000000000000E+20
  9
$PEXTMAX
 10
-1.000000000000000E+20
 20
-1.000000000000000E+20
 30
-1.000000000000000E+20
  9
$PLIMMIN
 10
0.0
 20
0.0
  9
$PLIMMAX
 10
420.0
 20
297.0
  9
$UNITMODE
 70
     0
  9
$VISRETAIN
 70
     1
  9
$PLINEGEN
 70
     0
  9
$PSLTSCALE
 70
     1
  9
$TREEDEPTH
 70
  3020
  9
$CMLSTYLE
  2
Standard
  9
$CMLJUST
 70
     0
  9
$CMLSCALE
 40
20.0
  9
$PROXYGRAPHICS
 70
     1
  9
$MEASUREMENT
 70
     1
  9
$CELWEIGHT
370
    -1
  9
$ENDCAPS
280
     0
  9
$JOINSTYLE
280
     0
  9
$LWDISPLAY
290
     0
  9
$INSUNITS
 70
     4
  9
$HYPERLINKBASE
  1

  9
$STYLESHEET
  1

  9
$XEDIT
290
     1
  9
$CEPSNTYPE
380
     0
  9
$PSTYLEMODE
290
     1
  9
$FINGERPRINTGUID
  2
{CA791DA6-FDFB-4042-82DA-03CF4D7AA945}
  9
$VERSIONGUID
  2
{083B8439-691F-4DD7-B0CA-B91EAB549D40}
  9
$EXTNAMES
290
     1
  9
$PSVPSCALE
 40
0.0
  9
$OLESTARTUP
290
     0
  9
$SORTENTS
280
   127
  9
$INDEXCTL
280
     0
  9
$HIDETEXT
280
     1
  9
$XCLIPFRAME
280
     0
  9
$HALOGAP
280
     0
  9
$OBSCOLOR
 70
   257
  9
$OBSLTYPE
280
     0
  9
$INTERSECTIONDISPLAY
280
     0
  9
$INTERSECTIONCOLOR
 70
   257
  9
$DIMASSOC
280
     1
  9
$PROJECTNAME
  1

  9
$CAMERADISPLAY
290
     0
  9
$LENSLENGTH
 40
50.0
  9
$CAMERAHEIGHT
 40
0.0
  9
$STEPSPERSEC
 40
2.0
  9
$STEPSIZE
 40
6.0
  9
$3DDWFPREC
 40
2.0
  9
$PSOLWIDTH
 40
0.25
  9
$PSOLHEIGHT
 40
4.0
  9
$LOFTANG1
 40
1.570796326794896
  9
$LOFTANG2
 40
1.570796326794896
  9
$LOFTMAG1
 40
0.0
  9
$LOFTMAG2
 40
0.0
  9
$LOFTPARAM
 70
     7
  9
$LOFTNORMALS
280
     1
  9
$LATITUDE
 40
37.795
  9
$LONGITUDE
 40
-122.394
  9
$NORTHDIRECTION
 40
0.0
  9
$TIMEZONE
 70
 -8000
  9
$LIGHTGLYPHDISPLAY
280
     1
  9
$TILEMODELIGHTSYNCH
280
     1
  9
$CMATERIAL
347
3C
  9
$SOLIDHIST
280
     1
  9
$SHOWHIST
280
     1
  9
$DWFFRAME
280
     2
  9
$DGNFRAME
280
     0
  9
$REALWORLDSCALE
290
     1
  9
$INTERFERECOLOR
 62
     1
  9
$INTERFEREOBJVS
345
56
  9
$INTERFEREVPVS
346
57
  9
$CSHADOW
280
     0
  9
$SHADOWPLANELOCATION
 40
0.0
  0
ENDSEC
  0
SECTION
  2
CLASSES
  0
CLASS
  1
ACDBDICTIONARYWDFLT
  2
AcDbDictionaryWithDefault
  3
ObjectDBX Classes
 90
        0
 91
        1
280
     0
281
     0
  0
CLASS
  1
MATERIAL
  2
AcDbMaterial
  3
ObjectDBX Classes
 90
     1153
 91
        3
280
     0
281
     0
  0
CLASS
  1
VISUALSTYLE
  2
AcDbVisualStyle
  3
ObjectDBX Classes
 90
     4095
 91
        3
280
     0
281
     0
  0
CLASS
  1
TABLESTYLE
  2
AcDbTableStyle
  3
ObjectDBX Classes
 90
     4095
 91
        1
280
     0
281
     0
  0
CLASS
  1
SCALE
  2
AcDbScale
  3
ObjectDBX Classes
 90
     1153
 91
       33
280
     0
281
     0
  0
CLASS
  1
MLEADERSTYLE
  2
AcDbMLeaderStyle
  3
ACDB_MLEADERSTYLE_CLASS
 90
     4095
 91
        0
280
     0
281
     0
  0
CLASS
  1
SORTENTSTABLE
  2
AcDbSortentsTable
  3
ObjectDBX Classes
 90
        0
 91
        6
280
     0
281
     0
  0
CLASS
  1
CELLSTYLEMAP
  2
AcDbCellStyleMap
  3
ObjectDBX Classes
 90
     1152
 91
        1
280
     0
281
     0
  0
CLASS
  1
DICTIONARYVAR
  2
AcDbDictionaryVar
  3
ObjectDBX Classes
 90
        0
 91
        6
280
     0
281
     0
  0
CLASS
  1
DIMASSOC
  2
AcDbDimAssoc
  3
"AcDbDimAssoc|Product Desc:     AcDim ARX App For Dimension|Company:          Autodesk, Inc.|WEB Address:      www.autodesk.com"
 90
        0
 91
        0
280
     0
281
     0
  0
CLASS
  1
ACAD_TABLE
  2
AcDbTable
  3
ObjectDBX Classes
 90
     1025
 91
        0
280
     0
281
     1
  0
CLASS
  1
TABLECONTENT
  2
AcDbTableContent
  3
ObjectDBX Classes
 90
     1152
 91
        0
280
     0
281
     0
  0
CLASS
  1
TABLEGEOMETRY
  2
AcDbTableGeometry
  3
ObjectDBX Classes
 90
     1152
 91
        0
280
     0
281
     0
  0
CLASS
  1
PLOTSETTINGS
  2
AcDbPlotSettings
  3
ObjectDBX Classes
 90
        0
 91
        0
280
     0
281
     0
  0
CLASS
  1
SOLID_BACKGROUND
  2
AcDbSolidBackground
  3
SCENEOE
 90
     4095
 91
        0
280
     0
281
     0
  0
CLASS
  1
NPOCOLLECTION
  2
AcDbImpNonPersistentObjectsCollection
  3
ObjectDBX Classes
 90
     1153
 91
        0
280
     0
281
     0
  0
CLASS
  1
AEC_REFEDIT_STATUS_TRACKER
  2
AecDbRefEditStatusTracker
  3
AecArchBase60|Product Desc: Autodesk Architectural Desktop 2007 |Company: Autodesk,Inc. |WEB Address: www.autodesk.com
 90
      129
 91
        0
280
     0
281
     0
  0
ENDSEC
  0
SECTION
  2
TABLES
  0
TABLE
  2
VPORT
  5
2D
102
{ACAD_XDICTIONARY
360
31
102
}
330
0
100
AcDbSymbolTable
 70
     1
  0
VPORT
  5
2E
330
2D
100
AcDbSymbolTableRecord
100
AcDbViewportTableRecord
  2
*Active
 70
     0
 10
0.0
 20
0.0
 11
1.0
 21
1.0
 12
809.9369790377377
 22
362.8484278208555
 13
0.0
 23
0.0
 14
10.0
 24
10.0
 15
100.0
 25
100.0
 16
0.0
 26
0.0
 36
1.0
 17
0.0
 27
0.0
 37
0.0
 40
1196.962003741289
 41
1.937738246505718
 42
50.0
 43
0.0
 44
0.0
 50
0.0
 51
0.0
 71
     0
 72
  1000
 73
     1
 74
     0
 75
     0
 76
     0
 77
     0
 78
     0
281
     0
 65
     1
110
0.0
120
0.0
130
0.0
111
1.0
121
0.0
131
0.0
112
0.0
122
1.0
132
0.0
 79
     0
146
0.0
348
2F
 60
     3
 61
     5
292
     1
282
     1
141
0.0
142
0.0
 63
   250
421
  3355443
  0
ENDTAB
  0
TABLE
  2
LTYPE
  5
28
330
0
100
AcDbSymbolTable
 70
     4
  0
LTYPE
  5
29
330
28
100
AcDbSymbolTableRecord
100
AcDbLinetypeTableRecord
  2
ByBlock
 70
     0
  3

 72
    65
 73
     0
 40
0.0
  0
LTYPE
  5
2A
330
28
100
AcDbSymbolTableRecord
100
AcDbLinetypeTableRecord
  2
ByLayer
 70
     0
  3

 72
    65
 73
     0
 40
0.0
  0
LTYPE
  5
15
330
28
100
AcDbSymbolTableRecord
100
AcDbLinetypeTableRecord
  2
Continuous
 70
     0
  3
Solid line
 72
    65
 73
     0
 40
0.0
  0
LTYPE
  5
7D
330
28
100
AcDbSymbolTableRecord
100
AcDbLinetypeTableRecord
  2
VERDECKT
 70
     0
  3
Verdeckt __ __ __ __ __ __ __ __ __ __ __ __ __
 72
    65
 73
     2
 40
0.375
 49
0.25
 74
     0
 49
-0.125
 74
     0
  0
LTYPE
  5
D9
330
28
100
AcDbSymbolTableRecord
100
AcDbLinetypeTableRecord
  2
STRICHPUNKT
 70
     0
  3
Strichpunkt __ . __ . __ . __ . __ . __ . __ . 
 72
    65
 73
     4
 40
1.0
 49
0.5
 74
     0
 49
-0.25
 74
     0
 49
0.0
 74
     0
 49
-0.25
 74
     0
  0
LTYPE
  5
23B
330
28
100
AcDbSymbolTableRecord
100
AcDbLinetypeTableRecord
  2
AUSGEZOGEN
 70
     0
  3
Ausgezogene Linie
 72
    65
 73
     0
 40
0.0
  0
ENDTAB
  0
TABLE
  2
LAYER
  5
1F
102
{ACAD_XDICTIONARY
360
20
102
}
330
0
100
AcDbSymbolTable
 70
    11
  0
LAYER
  5
6
102
{ACAD_XDICTIONARY
360
7
102
}
330
1F
100
AcDbSymbolTableRecord
100
AcDbLayerTableRecord
  2
0
 70
     0
 62
     7
  6
Continuous
370
    -3
390
9
347
C
  0
LAYER
  5
1BA
102
{ACAD_XDICTIONARY
360
1BB
102
}
330
1F
100
AcDbSymbolTableRecord
100
AcDbLayerTableRecord
  2
01-01
 70
     0
 62
     2
  6
Continuous
370
    -3
390
9
347
C
  0
LAYER
  5
50
102
{ACAD_XDICTIONARY
360
51
102
}
330
1F
100
AcDbSymbolTableRecord
100
AcDbLayerTableRecord
  2
09-01
 70
     0
 62
     7
  6
Continuous
370
    -3
390
9
347
C
  0
LAYER
  5
B6
330
1F
100
AcDbSymbolTableRecord
100
AcDbLayerTableRecord
  2
Defpoints
 70
     0
 62
     7
  6
Continuous
290
     0
370
    -3
390
9
347
C
  0
LAYER
  5
7A
102
{ACAD_XDICTIONARY
360
7B
102
}
330
1F
100
AcDbSymbolTableRecord
100
AcDbLayerTableRecord
  2
03-01
 70
     0
 62
     3
  6
VERDECKT
370
    -3
390
9
347
C
  0
LAYER
  5
D6
102
{ACAD_XDICTIONARY
360
D7
102
}
330
1F
100
AcDbSymbolTableRecord
100
AcDbLayerTableRecord
  2
05-01
 70
     0
 62
     1
  6
STRICHPUNKT
370
    -3
390
9
347
C
  0
LAYER
  5
1F9
102
{ACAD_XDICTIONARY
360
1FA
102
}
330
1F
100
AcDbSymbolTableRecord
100
AcDbLayerTableRecord
  2
01-99
 70
     0
 62
     2
  6
Continuous
370
    -3
390
9
347
C
  0
LAYER
  5
238
102
{ACAD_XDICTIONARY
360
239
102
}
330
1F
100
AcDbSymbolTableRecord
100
AcDbLayerTableRecord
  2
06-99
 70
     0
 62
     1
  6
AUSGEZOGEN
370
    -3
390
9
347
C
  0
LAYER
  5
222
102
{ACAD_XDICTIONARY
360
223
102
}
330
1F
100
AcDbSymbolTableRecord
100
AcDbLayerTableRecord
  2
08-99
 70
     0
 62
     7
  6
Continuous
370
    -3
390
9
347
C
  0
LAYER
  5
1FE
102
{ACAD_XDICTIONARY
360
1FF
102
}
330
1F
100
AcDbSymbolTableRecord
100
AcDbLayerTableRecord
  2
02-01
 70
     0
 62
     1
  6
Continuous
370
    -3
390
9
347
C
  0
LAYER
  5
191
102
{ACAD_XDICTIONARY
360
192
102
}
330
1F
100
AcDbSymbolTableRecord
100
AcDbLayerTableRecord
  2
02TNR-01
 70
     0
 62
     1
  6
Continuous
370
    -3
390
9
347
C
  0
ENDTAB
  0
TABLE
  2
STYLE
  5
25
330
0
100
AcDbSymbolTable
 70
     3
  0
STYLE
  5
26
330
25
100
AcDbSymbolTableRecord
100
AcDbTextStyleTableRecord
  2
Standard
 70
     0
 40
0.0
 41
1.0
 50
0.0
 71
     0
 42
12.0
  3
txt
  4

  0
STYLE
  5
225
330
25
100
AcDbSymbolTableRecord
100
AcDbTextStyleTableRecord
  2
ROMANS8
 70
     0
 40
0.0
 41
1.0
 50
0.0
 71
     0
 42
2.5
  3
ROMANS8
  4

  0
STYLE
  5
37D
330
25
100
AcDbSymbolTableRecord
100
AcDbTextStyleTableRecord
  2
ROMAND8
 70
     0
 40
0.0
 41
1.0
 50
0.0
 71
     0
 42
3.5
  3
ROMAND8
  4

  0
ENDTAB
  0
TABLE
  2
VIEW
  5
2B
330
0
100
AcDbSymbolTable
 70
     0
  0
ENDTAB
  0
TABLE
  2
UCS
  5
2C
330
0
100
AcDbSymbolTable
 70
     0
  0
ENDTAB
  0
TABLE
  2
APPID
  5
32
330
0
100
AcDbSymbolTable
 70
     5
  0
APPID
  5
24
330
32
100
AcDbSymbolTableRecord
100
AcDbRegAppTableRecord
  2
ACAD
 70
     0
  0
APPID
  5
B9
330
32
100
AcDbSymbolTableRecord
100
AcDbRegAppTableRecord
  2
ACAD_DSTYLE_DIMRADIAL_EXTENSION
 70
     0
  0
APPID
  5
35
330
32
100
AcDbSymbolTableRecord
100
AcDbRegAppTableRecord
  2
ACAD_DSTYLE_DIMJOGGED_JOGANGLE_SYMBOL
 70
     0
  0
APPID
  5
36
330
32
100
AcDbSymbolTableRecord
100
AcDbRegAppTableRecord
  2
ACAD_DSTYLE_DIMJAG
 70
     0
  0
APPID
  5
37
330
32
100
AcDbSymbolTableRecord
100
AcDbRegAppTableRecord
  2
ACAD_DSTYLE_DIMTALN
 70
     0
  0
ENDTAB
  0
TABLE
  2
DIMSTYLE
  5
33
330
0
100
AcDbSymbolTable
 70
     2
100
AcDbDimStyleTable
 71
     1
340
34
  0
DIMSTYLE
105
34
102
{ACAD_REACTORS
330
3AD
330
AE
102
}
330
33
100
AcDbSymbolTableRecord
100
AcDbDimStyleTableRecord
  2
Wagner
 70
     0
 41
2.5
 42
1.0
 43
10.0
 44
1.0
 73
     0
 74
     0
 77
     1
 78
     8
 79
     2
140
2.5
141
0.0
143
0.03937007874016
147
1.0
171
     3
172
     1
176
     4
177
     4
178
     1
179
     1
271
     8
272
     8
274
     3
283
     0
284
     8
340
26
1001
ACAD_DSTYLE_DIMJOGGED_JOGANGLE_SYMBOL
1070
   384
1040
0.7853981633974483
1001
ACAD_DSTYLE_DIMJAG
1070
   388
1040
1.5
1001
ACAD_DSTYLE_DIMTALN
1070
   392
1070
     0
  0
DIMSTYLE
105
C7
102
{ACAD_REACTORS
330
17E
330
1D8
330
3B7
330
3C7
330
3D4
330
167
330
15A
330
14D
330
140
330
133
330
124
330
115
330
106
330
C8
330
BA
102
}
330
33
100
AcDbSymbolTableRecord
100
AcDbDimStyleTableRecord
  2
Wagner$0
 70
     0
 41
2.5
 42
1.0
 43
10.0
 44
1.0
 73
     0
 74
     0
 77
     1
 78
     8
 79
     2
140
2.5
141
0.0
143
0.03937007874016
147
1.0
171
     3
172
     1
174
     1
176
     4
177
     4
178
     1
179
     1
271
     8
272
     8
274
     3
279
     2
283
     0
284
     8
340
26
1001
ACAD_DSTYLE_DIMJOGGED_JOGANGLE_SYMBOL
1070
   384
1040
0.7853981633974483
1001
ACAD_DSTYLE_DIMJAG
1070
   388
1040
1.5
1001
ACAD_DSTYLE_DIMTALN
1070
   392
1070
     0
  0
ENDTAB
  0
TABLE
  2
BLOCK_RECORD
  5
1
330
0
100
AcDbSymbolTable
 70
    20
  0
BLOCK_RECORD
  5
2
102
{ACAD_XDICTIONARY
360
3
102
}
330
1
100
AcDbSymbolTableRecord
100
AcDbBlockTableRecord
  2
*Model_Space
340
17
 70
     0
280
     1
281
     0
  0
BLOCK_RECORD
  5
1B
330
1
100
AcDbSymbolTableRecord
100
AcDbBlockTableRecord
  2
*Paper_Space
340
1E
 70
     0
280
     1
281
     0
  0
BLOCK_RECORD
  5
1F4
102
{ACAD_XDICTIONARY
360
1F5
102
}
330
1
100
AcDbSymbolTableRecord
100
AcDbBlockTableRecord
  2
DIN A3
340
0
102
{BLKREFS
331
1F3
102
}
 70
     4
280
     1
281
     0
  0
BLOCK_RECORD
  5
18C
102
{ACAD_XDICTIONARY
360
18D
102
}
330
1
100
AcDbSymbolTableRecord
100
AcDbBlockTableRecord
  2
aaaaWagner
340
0
102
{BLKREFS
331
18B
102
}
 70
     4
280
     1
281
     0
  0
BLOCK_RECORD
  5
98
330
1
100
AcDbSymbolTableRecord
100
AcDbBlockTableRecord
  2
Innendeckel02-d
340
0
310
2800000020000000200000000100080000000000000400000000000000000000000000000000000000000000000080000080000000808000800000008000800080800000C0C0C000C0DCC000F0CAA6000020400000206000002080000020A0000020C0000020E00000400000004020000040400000406000004080000040A0
310
000040C0000040E00000600000006020000060400000606000006080000060A0000060C0000060E00000800000008020000080400000806000008080000080A0000080C0000080E00000A0000000A0200000A0400000A0600000A0800000A0A00000A0C00000A0E00000C0000000C0200000C0400000C0600000C0800000C0
310
A00000C0C00000C0E00000E0000000E0200000E0400000E0600000E0800000E0A00000E0C00000E0E00040000000400020004000400040006000400080004000A0004000C0004000E00040200000402020004020400040206000402080004020A0004020C0004020E000404000004040200040404000404060004040800040
310
40A0004040C0004040E00040600000406020004060400040606000406080004060A0004060C0004060E00040800000408020004080400040806000408080004080A0004080C0004080E00040A0000040A0200040A0400040A0600040A0800040A0A00040A0C00040A0E00040C0000040C0200040C0400040C0600040C08000
310
40C0A00040C0C00040C0E00040E0000040E0200040E0400040E0600040E0800040E0A00040E0C00040E0E00080000000800020008000400080006000800080008000A0008000C0008000E00080200000802020008020400080206000802080008020A0008020C0008020E00080400000804020008040400080406000804080
310
008040A0008040C0008040E00080600000806020008060400080606000806080008060A0008060C0008060E00080800000808020008080400080806000808080008080A0008080C0008080E00080A0000080A0200080A0400080A0600080A0800080A0A00080A0C00080A0E00080C0000080C0200080C0400080C0600080C0
310
800080C0A00080C0C00080C0E00080E0000080E0200080E0400080E0600080E0800080E0A00080E0C00080E0E000C0000000C0002000C0004000C0006000C0008000C000A000C000C000C000E000C0200000C0202000C0204000C0206000C0208000C020A000C020C000C020E000C0400000C0402000C0404000C0406000C0
310
408000C040A000C040C000C040E000C0600000C0602000C0604000C0606000C0608000C060A000C060C000C060E000C0800000C0802000C0804000C0806000C0808000C080A000C080C000C080E000C0A00000C0A02000C0A04000C0A06000C0A08000C0A0A000C0A0C000C0A0E000C0C00000C0C02000C0C04000C0C06000
310
C0C08000C0C0A000F0FBFF00A4A0A000808080000000FF0000FF000000FFFF00FF000000FF00FF00FFFF0000FFFFFF0000000000000000000000000000000000000000000000000000000000000000000000000000000000000000000000000000000000000000000000000000000000000000000000000000000000000000
310
00000000000000000000000000000000000000000000000000000000000000000000000000000000000000000000000000000000000000000000000000000000000000000000000000000000000000000000000000000000000000000000000000000000000000000000000000000000000000000000000000000000000000
310
000000000000000000000000000000000000000000000000000000000000000000000000000000000000000000000000000000000000000000000000000000000000000000000000000000000000000000000000000000000000000000000000000000000000000000000000000000000000000000FFFFFFFFFFFFFFFFFFFF
310
FFFFFFFFFFFFFFFFFFFFFFFFFFFFFFFF00000000FFFF0000000000000000000000000000000000000000000000000000FFFF0000FF00000000000000000000000000000000000000000000000000000000FF0000FF00000000000000000000000000000000000000000000000000000000FF0000FF00000000000000000000
310
000000000000000000000000000000000000FF0000FF00000000000000000000000000000000000000000000000000000000FF0000FF00000000000000000000000000000000000000000000000000000000FF0000FF00000000000000000000000000000000000000000000000000000000FF0000FF000000000000000000
310
00000000FFFF00000000000000000000000000FF0000FF000000000000000000000000FF0000FF000000000000000000000000FF0000FF0000000000000000000000FF00000000FF0000000000000000000000FF0000FFFFFFFFFFFFFFFFFFFFFFFF000000000000FFFFFFFFFFFFFFFFFFFFFFFF0000000000000000000000
310
00000000000000000000000000000000000000000000000000000000000000000000000000000000000000000000000000000000000000000000000000000000000000000000000000000000000000000000000000000000000000000000000000000000000000000000000000000000000000000000000000000000000000
310
00000000000000000000000000000000000000000000000000000000000000000000000000000000000000000000000000000000000000000000000000000000000000000000000000000000000000000000000000000000000000000000000000000000000000000000000000000000000000000000000000000000000000
310
0000000000000000000000000000000000000000000000000000000000000000000000000000000000000000000000000000000000000000
102
{BLKREFS
331
97
102
}
 70
     4
280
     1
281
     0
  0
BLOCK_RECORD
  5
3D5
330
1
100
AcDbSymbolTableRecord
100
AcDbBlockTableRecord
  2
*D3
340
0
 70
     0
280
     1
281
     0
  0
BLOCK_RECORD
  5
3C8
330
1
100
AcDbSymbolTableRecord
100
AcDbBlockTableRecord
  2
*D4
340
0
 70
     0
280
     1
281
     0
  0
BLOCK_RECORD
  5
3B8
330
1
100
AcDbSymbolTableRecord
100
AcDbBlockTableRecord
  2
*D5
340
0
 70
     0
280
     1
281
     0
  0
BLOCK_RECORD
  5
3AE
330
1
100
AcDbSymbolTableRecord
100
AcDbBlockTableRecord
  2
*D6
340
0
 70
     0
280
     1
281
     0
  0
BLOCK_RECORD
  5
1D9
330
1
100
AcDbSymbolTableRecord
100
AcDbBlockTableRecord
  2
*D7
340
0
 70
     0
280
     1
281
     0
  0
BLOCK_RECORD
  5
17F
330
1
100
AcDbSymbolTableRecord
100
AcDbBlockTableRecord
  2
*D8
340
0
 70
     0
280
     1
281
     0
  0
BLOCK_RECORD
  5
168
330
1
100
AcDbSymbolTableRecord
100
AcDbBlockTableRecord
  2
*D9
340
0
 70
     0
280
     1
281
     0
  0
BLOCK_RECORD
  5
15B
330
1
100
AcDbSymbolTableRecord
100
AcDbBlockTableRecord
  2
*D10
340
0
 70
     0
280
     1
281
     0
  0
BLOCK_RECORD
  5
14E
330
1
100
AcDbSymbolTableRecord
100
AcDbBlockTableRecord
  2
*D11
340
0
 70
     0
280
     1
281
     0
  0
BLOCK_RECORD
  5
141
330
1
100
AcDbSymbolTableRecord
100
AcDbBlockTableRecord
  2
*D12
340
0
 70
     0
280
     1
281
     0
  0
BLOCK_RECORD
  5
134
330
1
100
AcDbSymbolTableRecord
100
AcDbBlockTableRecord
  2
*D13
340
0
 70
     0
280
     1
281
     0
  0
BLOCK_RECORD
  5
125
330
1
100
AcDbSymbolTableRecord
100
AcDbBlockTableRecord
  2
*D14
340
0
 70
     0
280
     1
281
     0
  0
BLOCK_RECORD
  5
116
330
1
100
AcDbSymbolTableRecord
100
AcDbBlockTableRecord
  2
*D15
340
0
 70
     0
280
     1
281
     0
  0
BLOCK_RECORD
  5
107
330
1
100
AcDbSymbolTableRecord
100
AcDbBlockTableRecord
  2
*D16
340
0
 70
     0
280
     1
281
     0
  0
BLOCK_RECORD
  5
C9
330
1
100
AcDbSymbolTableRecord
100
AcDbBlockTableRecord
  2
*D17
340
0
 70
     0
280
     1
281
     0
  0
BLOCK_RECORD
  5
BB
330
1
100
AcDbSymbolTableRecord
100
AcDbBlockTableRecord
  2
*D18
340
0
 70
     0
280
     1
281
     0
  0
BLOCK_RECORD
  5
AF
330
1
100
AcDbSymbolTableRecord
100
AcDbBlockTableRecord
  2
*D19
340
0
 70
     0
280
     1
281
     0
  0
ENDTAB
  0
ENDSEC
  0
SECTION
  2
BLOCKS
  0
BLOCK
  5
5
330
2
100
AcDbEntity
  8
0
100
AcDbBlockBegin
  2
*Model_Space
 70
     0
 10
0.0
 20
0.0
 30
0.0
  3
*Model_Space
  1

  0
ENDBLK
  5
16
330
2
100
AcDbEntity
  8
0
100
AcDbBlockEnd
  0
BLOCK
  5
1C
330
1B
100
AcDbEntity
 67
     1
  8
0
100
AcDbBlockBegin
  2
*Paper_Space
 70
     0
 10
0.0
 20
0.0
 30
0.0
  3
*Paper_Space
  1

  0
ENDBLK
  5
1D
330
1B
100
AcDbEntity
 67
     1
  8
0
100
AcDbBlockEnd
  0
BLOCK
  5
1F7
330
1F4
100
AcDbEntity
  8
0
100
AcDbBlockBegin
  2
DIN A3
 70
     2
 10
0.0
 20
0.0
 30
0.0
  3
DIN A3
  1

  0
LINE
  5
1F8
330
1F4
100
AcDbEntity
  8
01-99
100
AcDbLine
 10
412.9999997697348
 20
290.0000007613509
 30
0.0
 11
6.999999769775513
 21
290.0000007613508
 31
0.0
  0
LINE
  5
1FC
330
1F4
100
AcDbEntity
  8
01-99
100
AcDbLine
 10
6.999999769775286
 20
7.000000761378942
 30
0.0
 11
6.999999769775513
 21
290.0000007613508
 31
0.0
  0
LINE
  5
1FD
330
1F4
100
AcDbEntity
  8
02-01
100
AcDbLine
 10
419.9999997697341
 20
297.0000007613501
 30
0.0
 11
-0.0000002302240318
 21
297.0000007613501
 31
0.0
  0
LINE
  5
200
330
1F4
100
AcDbEntity
  8
02-01
100
AcDbLine
 10
-0.0000002302240318
 20
297.0000007613501
 30
0.0
 11
-0.0000002302240318
 21
0.0000007613796242
 31
0.0
  0
LINE
  5
201
330
1F4
100
AcDbEntity
  8
02-01
100
AcDbLine
 10
-0.0000002302240318
 20
0.0000007613796242
 30
0.0
 11
419.9999997697341
 21
0.0000007613796242
 31
0.0
  0
LINE
  5
202
330
1F4
100
AcDbEntity
  8
02-01
100
AcDbLine
 10
419.9999997697341
 20
0.0000007613796242
 30
0.0
 11
419.9999997697341
 21
297.0000007613501
 31
0.0
  0
LINE
  5
203
330
1F4
100
AcDbEntity
  8
01-99
100
AcDbLine
 10
412.9999997697348
 20
290.0000007613509
 30
0.0
 11
412.9999997697348
 21
7.000000761379055
 31
0.0
  0
LINE
  5
204
330
1F4
100
AcDbEntity
  8
01-99
100
AcDbLine
 10
412.9999997697348
 20
7.000000761379055
 30
0.0
 11
6.999999769775286
 21
7.000000761378942
 31
0.0
  0
LINE
  5
205
330
1F4
100
AcDbEntity
  8
01-99
100
AcDbLine
 10
412.9999997697348
 20
53.00000076137905
 30
0.0
 11
228.999999769733
 21
53.00000076137894
 31
0.0
  0
LINE
  5
206
330
1F4
100
AcDbEntity
  8
01-99
100
AcDbLine
 10
228.999999769733
 20
53.00000076137894
 30
0.0
 11
228.999999769733
 21
7.000000761378942
 31
0.0
  0
LINE
  5
207
330
1F4
100
AcDbEntity
  8
01-99
100
AcDbLine
 10
278.9999997697348
 20
12.11111187237895
 30
0.0
 11
228.9999997697348
 21
12.11111187237895
 31
0.0
  0
LINE
  5
208
330
1F4
100
AcDbEntity
  8
01-99
100
AcDbLine
 10
278.9999997697348
 20
17.22222298337897
 30
0.0
 11
228.9999997697348
 21
17.22222298337897
 31
0.0
  0
LINE
  5
209
330
1F4
100
AcDbEntity
  8
01-99
100
AcDbLine
 10
278.9999997697348
 20
22.33333409437898
 30
0.0
 11
228.9999997697348
 21
22.33333409437893
 31
0.0
  0
LINE
  5
20A
330
1F4
100
AcDbEntity
  8
01-99
100
AcDbLine
 10
323.9999997697348
 20
27.444445205379
 30
0.0
 11
228.9999997697348
 21
27.44444520537894
 31
0.0
  0
LINE
  5
20B
330
1F4
100
AcDbEntity
  8
01-99
100
AcDbLine
 10
323.9999997697348
 20
32.55555631637901
 30
0.0
 11
228.9999997697348
 21
32.55555631637895
 31
0.0
  0
LINE
  5
20C
330
1F4
100
AcDbEntity
  8
01-99
100
AcDbLine
 10
253.9999997697348
 20
7.000000761378942
 30
0.0
 11
253.9999997697348
 21
12.11111187237895
 31
0.0
  0
LINE
  5
20D
330
1F4
100
AcDbEntity
  8
01-99
100
AcDbLine
 10
236.9999997697348
 20
12.11111187237895
 30
0.0
 11
236.9999997697348
 21
37.66666742804563
 31
0.0
  0
LINE
  5
20E
330
1F4
100
AcDbEntity
  8
01-99
100
AcDbLine
 10
278.9999997697348
 20
7.000000761378942
 30
0.0
 11
278.9999997697348
 21
53.00000076137894
 31
0.0
  0
LINE
  5
20F
330
1F4
100
AcDbEntity
  8
01-99
100
AcDbLine
 10
323.9999997697348
 20
7.000000761378942
 30
0.0
 11
323.9999997697348
 21
53.00000076137894
 31
0.0
  0
LINE
  5
210
330
1F4
100
AcDbEntity
  8
01-99
100
AcDbLine
 10
353.4999997697348
 20
7.000000761378942
 30
0.0
 11
353.4999997697348
 21
17.22222298337903
 31
0.0
  0
LINE
  5
211
330
1F4
100
AcDbEntity
  8
01-99
100
AcDbLine
 10
385.9999997697348
 20
7.000000761378942
 30
0.0
 11
385.9999997697348
 21
17.22222298337908
 31
0.0
  0
LINE
  5
212
330
1F4
100
AcDbEntity
  8
01-99
100
AcDbLine
 10
357.4999997697348
 20
37.66666742804569
 30
0.0
 11
357.4999997697348
 21
53.00000076137905
 31
0.0
  0
LINE
  5
213
330
1F4
100
AcDbEntity
  8
01-99
100
AcDbLine
 10
390.9999997697348
 20
37.66666742804569
 30
0.0
 11
390.9999997697348
 21
53.00000076137905
 31
0.0
  0
LINE
  5
214
330
1F4
100
AcDbEntity
  8
01-99
100
AcDbLine
 10
286.9999997697348
 20
22.33333409471232
 30
0.0
 11
286.9999997697348
 21
37.66666742804569
 31
0.0
  0
LINE
  5
215
330
1F4
100
AcDbEntity
  8
01-99
100
AcDbLine
 10
269.0031881091643
 20
12.11111187237895
 30
0.0
 11
269.0031881091643
 21
37.66666742804563
 31
0.0
  0
LINE
  5
216
330
1F4
100
AcDbEntity
  8
01-99
100
AcDbLine
 10
257.0031881091643
 20
12.11111187237895
 30
0.0
 11
257.0031881091643
 21
37.66666742804563
 31
0.0
  0
LINE
  5
217
330
1F4
100
AcDbEntity
  8
01-99
100
AcDbLine
 10
323.9999997697348
 20
22.33333409471232
 30
0.0
 11
278.9999997697348
 21
22.33333409471232
 31
0.0
  0
LINE
  5
218
330
1F4
100
AcDbEntity
  8
01-99
100
AcDbLine
 10
323.9999997697348
 20
37.66666742804569
 30
0.0
 11
228.9999997697348
 21
37.66666742804557
 31
0.0
  0
LINE
  5
219
330
1F4
100
AcDbEntity
  8
01-99
100
AcDbLine
 10
300.9999997697348
 20
22.33333409471232
 30
0.0
 11
300.9999997697348
 21
53.000000761379
 31
0.0
  0
LINE
  5
21A
330
1F4
100
AcDbEntity
  8
01-99
100
AcDbLine
 10
278.9999997697348
 20
37.66666742804563
 30
0.0
 11
286.9999997697348
 21
32.55555632804567
 31
0.0
  0
LINE
  5
21B
330
1F4
100
AcDbEntity
  8
01-99
100
AcDbLine
 10
278.9999997697348
 20
32.55555632804567
 30
0.0
 11
286.9999997697348
 21
37.66666742804569
 31
0.0
  0
LINE
  5
21C
330
1F4
100
AcDbEntity
  8
01-99
100
AcDbLine
 10
412.9999997697348
 20
45.33333409471231
 30
0.0
 11
323.9999997697349
 21
45.33333409471225
 31
0.0
  0
LINE
  5
21D
330
1F4
100
AcDbEntity
  8
01-99
100
AcDbLine
 10
323.9999997697348
 20
17.22222298337897
 30
0.0
 11
412.9999997697348
 21
17.22222298337908
 31
0.0
  0
LINE
  5
21E
330
1F4
100
AcDbEntity
  8
01-99
100
AcDbLine
 10
323.9999997697348
 20
37.66666742804569
 30
0.0
 11
412.9999997697348
 21
37.66666742804574
 31
0.0
  0
LINE
  5
21F
330
1F4
100
AcDbEntity
  8
01-99
100
AcDbLine
 10
300.9999997697348
 20
42.77777853937897
 30
0.0
 11
278.9999997697348
 21
42.77777853937897
 31
0.0
  0
LINE
  5
220
330
1F4
100
AcDbEntity
  8
01-99
100
AcDbLine
 10
300.9999997697348
 20
47.88888965037898
 30
0.0
 11
278.9999997697348
 21
47.88888965037893
 31
0.0
  0
TEXT
  5
221
330
1F4
100
AcDbEntity
  8
08-99
100
AcDbText
 10
325.4997009380411
 20
33.6698744692369
 30
0.0
 40
2.5
  1
Benennung/Teil:
 51
15.0
  7
ROMANS8
100
AcDbText
  0
TEXT
  5
226
330
1F4
100
AcDbEntity
  8
08-99
100
AcDbText
 10
387.5028272173022
 20
13.01760345560962
 30
0.0
 40
2.7
  1
Ident-Nr.
 51
15.0
  7
ROMANS8
100
AcDbText
  0
TEXT
  5
227
330
1F4
100
AcDbEntity
  8
08-99
100
AcDbText
 10
302.5000215029029
 20
34.05557772316138
 30
0.0
 40
2.5
  1
Name:
 51
15.0
  7
ROMANS8
100
AcDbText
  0
TEXT
  5
228
330
1F4
100
AcDbEntity
  8
08-99
100
AcDbText
 10
288.5077689122797
 20
34.04841872238342
 30
0.0
 40
2.5
  1
Datum:
 50
0.102528160689452
 41
0.8933771909280748
 51
15.0
  7
ROMANS8
 72
     5
 11
299.6749659193617
 21
34.0684019288434
 31
0.0
100
AcDbText
  0
TEXT
  5
229
330
1F4
100
AcDbEntity
  8
08-99
100
AcDbText
 10
238.5000078514702
 20
34.05597786035884
 30
0.0
 40
1.6
  1
Änderung:
 51
15.0
  7
ROMANS8
100
AcDbText
  0
TEXT
  5
22A
330
1F4
100
AcDbEntity
  8
08-99
100
AcDbText
 10
255.4999378454877
 20
10.11112006054139
 30
0.0
 40
1.0
  1
ERSETZT.DURCH:
 51
15.0
  7
ROMANS8
100
AcDbText
  0
TEXT
  5
22B
330
1F4
100
AcDbEntity
  8
08-99
100
AcDbText
 10
230.4993605854065
 20
10.11085496431519
 30
0.0
 40
1.0
  1
ERSETZT.FÜR:
 51
15.0
  7
ROMANS8
100
AcDbText
  0
TEXT
  5
22C
330
1F4
100
AcDbEntity
  8
08-99
100
AcDbText
 10
354.990906611889
 20
13.61295762544273
 30
0.0
 40
2.112
  1
AUFTRAGS.NR.:
 51
15.0
  7
ROMANS8
100
AcDbText
  0
TEXT
  5
22D
330
1F4
100
AcDbEntity
  8
08-99
100
AcDbText
 10
325.5034639747472
 20
13.61092941740929
 30
0.0
 40
2.112
  1
Sonder-Nr:
 51
15.0
  7
ROMANS8
100
AcDbText
  0
TEXT
  5
22E
330
1F4
100
AcDbEntity
  8
08-99
100
AcDbText
 10
308.6963072648131
 20
50.92370926842125
 30
0.0
 40
1.349999999999999
  1
Format
 51
15.0
  7
ROMANS8
100
AcDbText
  0
TEXT
  5
22F
330
1F4
100
AcDbEntity
  8
08-99
100
AcDbText
 10
307.3043795165026
 20
45.64161955447966
 30
0.0
 40
1.822499999999999
  1
Normen
 51
15.0
  7
ROMANS8
100
AcDbText
  0
TEXT
  5
230
330
1F4
100
AcDbEntity
  8
08-99
100
AcDbText
 10
230.5000293736364
 20
34.05556859693707
 30
0.0
 40
1.6
  1
Zust.
 51
15.0
  7
ROMANS8
100
AcDbText
  0
TEXT
  5
231
330
1F4
100
AcDbEntity
  8
08-99
100
AcDbText
 10
258.503180470904
 20
34.0555600128755
 30
0.0
 40
1.6
  1
Datum:
 51
15.0
  7
ROMANS8
100
AcDbText
  0
TEXT
  5
232
330
1F4
100
AcDbEntity
  8
08-99
100
AcDbText
 10
270.5032133866668
 20
34.05556481932439
 30
0.0
 40
1.6
  1
Name:
 51
15.0
  7
ROMANS8
100
AcDbText
  0
TEXT
  5
233
330
1F4
100
AcDbEntity
  8
08-99
100
AcDbText
 10
280.154554215326
 20
29.0381403293278
 30
0.0
 40
1.6
  1
Erst.
 51
15.0
  7
ROMANS8
100
AcDbText
  0
TEXT
  5
234
330
1F4
100
AcDbEntity
  8
08-99
100
AcDbText
 10
279.5171801320455
 20
24.19745182079998
 30
0.0
 40
1.6
  1
Bearb.
 51
15.0
  7
ROMANS8
100
AcDbText
  0
TEXT
  5
235
330
1F4
100
AcDbEntity
  8
08-99
100
AcDbText
 10
358.4308046815029
 20
42.61949825408587
 30
0.0
 40
2.0
  1
Zuschnittsbreite:
 51
15.0
  7
ROMANS8
100
AcDbText
  0
TEXT
  5
236
330
1F4
100
AcDbEntity
  8
08-99
100
AcDbText
 10
324.984994543767
 20
42.73762438949257
 30
0.0
 40
2.0
  1
Zuschnittslänge:
 51
15.0
  7
ROMANS8
100
AcDbText
  0
LINE
  5
237
330
1F4
100
AcDbEntity
  8
06-99
100
AcDbLine
 10
302.7675395817348
 20
19.87656561071236
 30
0.0
 11
303.0090469137349
 21
20.08724790671238
 31
0.0
  0
LINE
  5
23C
330
1F4
100
AcDbEntity
  8
06-99
100
AcDbLine
 10
303.0090469137349
 20
20.08724790671238
 30
0.0
 11
302.9228515737349
 21
20.22625816271227
 31
0.0
  0
LINE
  5
23D
330
1F4
100
AcDbEntity
  8
06-99
100
AcDbLine
 10
302.9228515737349
 20
20.22625816271227
 30
0.0
 11
302.8242642057348
 21
20.35180719071241
 31
0.0
  0
LINE
  5
23E
330
1F4
100
AcDbEntity
  8
06-99
100
AcDbLine
 10
302.8242642057348
 20
20.35180719071241
 30
0.0
 11
302.713626953735
 21
20.4639413227124
 31
0.0
  0
LINE
  5
23F
330
1F4
100
AcDbEntity
  8
06-99
100
AcDbLine
 10
302.713626953735
 20
20.4639413227124
 30
0.0
 11
302.5912962177348
 21
20.56271401871226
 31
0.0
  0
LINE
  5
240
330
1F4
100
AcDbEntity
  8
06-99
100
AcDbLine
 10
302.5912962177348
 20
20.56271401871226
 30
0.0
 11
302.4576141417349
 21
20.64816448271233
 31
0.0
  0
LINE
  5
241
330
1F4
100
AcDbEntity
  8
06-99
100
AcDbLine
 10
302.4576141417349
 20
20.64816448271233
 30
0.0
 11
302.3129264337349
 21
20.7203390467123
 31
0.0
  0
LINE
  5
242
330
1F4
100
AcDbEntity
  8
06-99
100
AcDbLine
 10
302.3129264337349
 20
20.7203390467123
 30
0.0
 11
302.1575859297349
 21
20.77929117071233
 31
0.0
  0
LINE
  5
243
330
1F4
100
AcDbEntity
  8
06-99
100
AcDbLine
 10
302.1575859297349
 20
20.77929117071233
 30
0.0
 11
301.991934773735
 21
20.82506005871232
 31
0.0
  0
LINE
  5
244
330
1F4
100
AcDbEntity
  8
06-99
100
AcDbLine
 10
301.991934773735
 20
20.82506005871232
 30
0.0
 11
301.8163222377349
 21
20.85769204271242
 31
0.0
  0
LINE
  5
245
330
1F4
100
AcDbEntity
  8
06-99
100
AcDbLine
 10
301.8163222377349
 20
20.85769204271242
 30
0.0
 11
301.631097593735
 21
20.87724058271238
 31
0.0
  0
LINE
  5
246
330
1F4
100
AcDbEntity
  8
06-99
100
AcDbLine
 10
301.631097593735
 20
20.87724058271238
 30
0.0
 11
301.436606549735
 21
20.88374488271234
 31
0.0
  0
LINE
  5
247
330
1F4
100
AcDbEntity
  8
06-99
100
AcDbLine
 10
301.436606549735
 20
20.88374488271234
 30
0.0
 11
301.2756812577348
 21
20.87768251871233
 31
0.0
  0
LINE
  5
248
330
1F4
100
AcDbEntity
  8
06-99
100
AcDbLine
 10
301.2756812577348
 20
20.87768251871233
 30
0.0
 11
301.1199415857348
 21
20.85975916271229
 31
0.0
  0
LINE
  5
249
330
1F4
100
AcDbEntity
  8
06-99
100
AcDbLine
 10
301.1199415857348
 20
20.85975916271229
 30
0.0
 11
300.969718985735
 21
20.83036329071246
 31
0.0
  0
LINE
  5
24A
330
1F4
100
AcDbEntity
  8
06-99
100
AcDbLine
 10
300.969718985735
 20
20.83036329071246
 30
0.0
 11
300.825348473735
 21
20.78989050671231
 31
0.0
  0
LINE
  5
24B
330
1F4
100
AcDbEntity
  8
06-99
100
AcDbLine
 10
300.825348473735
 20
20.78989050671231
 30
0.0
 11
300.6871615017349
 21
20.73873641471243
 31
0.0
  0
LINE
  5
24C
330
1F4
100
AcDbEntity
  8
06-99
100
AcDbLine
 10
300.6871615017349
 20
20.73873641471243
 30
0.0
 11
300.5554823937349
 21
20.67729305471232
 31
0.0
  0
LINE
  5
24D
330
1F4
100
AcDbEntity
  8
06-99
100
AcDbLine
 10
300.5554823937349
 20
20.67729305471232
 30
0.0
 11
300.4306532937349
 21
20.60595246671232
 31
0.0
  0
LINE
  5
24E
330
1F4
100
AcDbEntity
  8
06-99
100
AcDbLine
 10
300.4306532937349
 20
20.60595246671232
 30
0.0
 11
300.3129985257349
 21
20.52510669071228
 31
0.0
  0
LINE
  5
24F
330
1F4
100
AcDbEntity
  8
06-99
100
AcDbLine
 10
300.3129985257349
 20
20.52510669071228
 30
0.0
 11
300.2028495417349
 21
20.43514776671236
 31
0.0
  0
LINE
  5
250
330
1F4
100
AcDbEntity
  8
06-99
100
AcDbLine
 10
300.2028495417349
 20
20.43514776671236
 30
0.0
 11
300.1005449217349
 21
20.33647486271235
 31
0.0
  0
LINE
  5
251
330
1F4
100
AcDbEntity
  8
06-99
100
AcDbLine
 10
300.1005449217349
 20
20.33647486271235
 30
0.0
 11
300.006405425735
 21
20.22947289071237
 31
0.0
  0
LINE
  5
252
330
1F4
100
AcDbEntity
  8
06-99
100
AcDbLine
 10
300.006405425735
 20
20.22947289071237
 30
0.0
 11
299.920769633735
 21
20.11454458271237
 31
0.0
  0
LINE
  5
253
330
1F4
100
AcDbEntity
  8
06-99
100
AcDbLine
 10
299.920769633735
 20
20.11454458271237
 30
0.0
 11
299.8439689977349
 21
19.99207485071235
 31
0.0
  0
LINE
  5
254
330
1F4
100
AcDbEntity
  8
06-99
100
AcDbLine
 10
299.8439689977349
 20
19.99207485071235
 30
0.0
 11
299.7763314057349
 21
19.86245929871239
 31
0.0
  0
LINE
  5
255
330
1F4
100
AcDbEntity
  8
06-99
100
AcDbLine
 10
299.7763314057349
 20
19.86245929871239
 30
0.0
 11
299.7181918737349
 21
19.72608996671232
 31
0.0
  0
LINE
  5
256
330
1F4
100
AcDbEntity
  8
06-99
100
AcDbLine
 10
299.7181918737349
 20
19.72608996671232
 30
0.0
 11
299.6698782897349
 21
19.58336602271231
 31
0.0
  0
LINE
  5
257
330
1F4
100
AcDbEntity
  8
06-99
100
AcDbLine
 10
299.6698782897349
 20
19.58336602271231
 30
0.0
 11
299.631722105735
 21
19.43467237871232
 31
0.0
  0
LINE
  5
258
330
1F4
100
AcDbEntity
  8
06-99
100
AcDbLine
 10
299.631722105735
 20
19.43467237871232
 30
0.0
 11
299.6040619017348
 21
19.28040820271229
 31
0.0
  0
LINE
  5
259
330
1F4
100
AcDbEntity
  8
06-99
100
AcDbLine
 10
299.6040619017348
 20
19.28040820271229
 30
0.0
 11
299.5872184377349
 21
19.12096197071235
 31
0.0
  0
LINE
  5
25A
330
1F4
100
AcDbEntity
  8
06-99
100
AcDbLine
 10
299.5872184377349
 20
19.12096197071235
 30
0.0
 11
299.5815338577349
 21
18.95672928671234
 31
0.0
  0
LINE
  5
25B
330
1F4
100
AcDbEntity
  8
06-99
100
AcDbLine
 10
299.5815338577349
 20
18.95672928671234
 30
0.0
 11
299.5871471577349
 21
18.7876246147124
 31
0.0
  0
LINE
  5
25C
330
1F4
100
AcDbEntity
  8
06-99
100
AcDbLine
 10
299.5871471577349
 20
18.7876246147124
 30
0.0
 11
299.603798165735
 21
18.62429005871234
 31
0.0
  0
LINE
  5
25D
330
1F4
100
AcDbEntity
  8
06-99
100
AcDbLine
 10
299.603798165735
 20
18.62429005871234
 30
0.0
 11
299.6311875057347
 21
18.46704281471233
 31
0.0
  0
LINE
  5
25E
330
1F4
100
AcDbEntity
  8
06-99
100
AcDbLine
 10
299.6311875057347
 20
18.46704281471233
 30
0.0
 11
299.6690158017348
 21
18.31619651471226
 31
0.0
  0
LINE
  5
25F
330
1F4
100
AcDbEntity
  8
06-99
100
AcDbLine
 10
299.6690158017348
 20
18.31619651471226
 30
0.0
 11
299.7169872417348
 21
18.17206479071234
 31
0.0
  0
LINE
  5
260
330
1F4
100
AcDbEntity
  8
06-99
100
AcDbLine
 10
299.7169872417348
 20
18.17206479071234
 30
0.0
 11
299.774806013735
 21
18.03496127471237
 31
0.0
  0
LINE
  5
261
330
1F4
100
AcDbEntity
  8
06-99
100
AcDbLine
 10
299.774806013735
 20
18.03496127471237
 30
0.0
 11
299.8421763057349
 21
17.90519603471233
 31
0.0
  0
LINE
  5
262
330
1F4
100
AcDbEntity
  8
06-99
100
AcDbLine
 10
299.8421763057349
 20
17.90519603471233
 30
0.0
 11
299.9187987417349
 21
17.7830862667123
 31
0.0
  0
LINE
  5
263
330
1F4
100
AcDbEntity
  8
06-99
100
AcDbLine
 10
299.9187987417349
 20
17.7830862667123
 30
0.0
 11
300.0043775097349
 21
17.66894203871231
 31
0.0
  0
LINE
  5
264
330
1F4
100
AcDbEntity
  8
06-99
100
AcDbLine
 10
300.0043775097349
 20
17.66894203871231
 30
0.0
 11
300.0986203617349
 21
17.56308054671234
 31
0.0
  0
LINE
  5
265
330
1F4
100
AcDbEntity
  8
06-99
100
AcDbLine
 10
300.0986203617349
 20
17.56308054671234
 30
0.0
 11
300.2012207937348
 21
17.46581185871235
 31
0.0
  0
LINE
  5
266
330
1F4
100
AcDbEntity
  8
06-99
100
AcDbLine
 10
300.2012207937348
 20
17.46581185871235
 30
0.0
 11
300.3118936857348
 21
17.37745317071227
 31
0.0
  0
LINE
  5
267
330
1F4
100
AcDbEntity
  8
06-99
100
AcDbLine
 10
300.3118936857348
 20
17.37745317071227
 30
0.0
 11
300.430332533735
 21
17.2983145507124
 31
0.0
  0
LINE
  5
268
330
1F4
100
AcDbEntity
  8
06-99
100
AcDbLine
 10
300.430332533735
 20
17.2983145507124
 30
0.0
 11
300.5562450897348
 21
17.22870963071239
 31
0.0
  0
LINE
  5
269
330
1F4
100
AcDbEntity
  8
06-99
100
AcDbLine
 10
300.5562450897348
 20
17.22870963071239
 30
0.0
 11
300.6893319777348
 21
17.1689556067123
 31
0.0
  0
LINE
  5
26A
330
1F4
100
AcDbEntity
  8
06-99
100
AcDbLine
 10
300.6893319777348
 20
17.1689556067123
 30
0.0
 11
300.8293009497348
 21
17.11936254671235
 31
0.0
  0
LINE
  5
26B
330
1F4
100
AcDbEntity
  8
06-99
100
AcDbLine
 10
300.8293009497348
 20
17.11936254671235
 30
0.0
 11
300.975849065735
 21
17.0802440827124
 31
0.0
  0
LINE
  5
26C
330
1F4
100
AcDbEntity
  8
06-99
100
AcDbLine
 10
300.975849065735
 20
17.0802440827124
 30
0.0
 11
301.1286876417348
 21
17.05191384671241
 31
0.0
  0
LINE
  5
26D
330
1F4
100
AcDbEntity
  8
06-99
100
AcDbLine
 10
301.1286876417348
 20
17.05191384671241
 30
0.0
 11
301.2875101737348
 21
17.03468547071236
 31
0.0
  0
LINE
  5
26E
330
1F4
100
AcDbEntity
  8
06-99
100
AcDbLine
 10
301.2875101737348
 20
17.03468547071236
 30
0.0
 11
301.4520279777349
 21
17.02887258671239
 31
0.0
  0
LINE
  5
26F
330
1F4
100
AcDbEntity
  8
06-99
100
AcDbLine
 10
301.4520279777349
 20
17.02887258671239
 30
0.0
 11
301.616025437735
 21
17.03412592271235
 31
0.0
  0
LINE
  5
270
330
1F4
100
AcDbEntity
  8
06-99
100
AcDbLine
 10
301.616025437735
 20
17.03412592271235
 30
0.0
 11
301.7733582177349
 21
17.04976475471238
 31
0.0
  0
LINE
  5
271
330
1F4
100
AcDbEntity
  8
06-99
100
AcDbLine
 10
301.7733582177349
 20
17.04976475471238
 30
0.0
 11
301.9238374257349
 21
17.07559662671235
 31
0.0
  0
LINE
  5
272
330
1F4
100
AcDbEntity
  8
06-99
100
AcDbLine
 10
301.9238374257349
 20
17.07559662671235
 30
0.0
 11
302.0672741697348
 21
17.11142908271239
 31
0.0
  0
LINE
  5
273
330
1F4
100
AcDbEntity
  8
06-99
100
AcDbLine
 10
302.0672741697348
 20
17.11142908271239
 30
0.0
 11
302.203483121735
 21
17.15707323071234
 31
0.0
  0
LINE
  5
274
330
1F4
100
AcDbEntity
  8
06-99
100
AcDbLine
 10
302.203483121735
 20
17.15707323071234
 30
0.0
 11
302.3322718257348
 21
17.21234017871234
 31
0.0
  0
LINE
  5
275
330
1F4
100
AcDbEntity
  8
06-99
100
AcDbLine
 10
302.3322718257348
 20
17.21234017871234
 30
0.0
 11
302.4534549537349
 21
17.27703747071234
 31
0.0
  0
LINE
  5
276
330
1F4
100
AcDbEntity
  8
06-99
100
AcDbLine
 10
302.4534549537349
 20
17.27703747071234
 30
0.0
 11
302.5668364857349
 21
17.35097977871237
 31
0.0
  0
LINE
  5
277
330
1F4
100
AcDbEntity
  8
06-99
100
AcDbLine
 10
302.5668364857349
 20
17.35097977871237
 30
0.0
 11
302.6722382217349
 21
17.43397464671233
 31
0.0
  0
LINE
  5
278
330
1F4
100
AcDbEntity
  8
06-99
100
AcDbLine
 10
302.6722382217349
 20
17.43397464671233
 30
0.0
 11
302.7694605777349
 21
17.52582605471235
 31
0.0
  0
LINE
  5
279
330
1F4
100
AcDbEntity
  8
06-99
100
AcDbLine
 10
302.7694605777349
 20
17.52582605471235
 30
0.0
 11
302.8583217897349
 21
17.62635580271234
 31
0.0
  0
LINE
  5
27A
330
1F4
100
AcDbEntity
  8
06-99
100
AcDbLine
 10
302.8583217897349
 20
17.62635580271234
 30
0.0
 11
302.938632965735
 21
17.73536074271232
 31
0.0
  0
LINE
  5
27B
330
1F4
100
AcDbEntity
  8
06-99
100
AcDbLine
 10
302.938632965735
 20
17.73536074271232
 30
0.0
 11
303.0102016497349
 21
17.85266267471235
 31
0.0
  0
LINE
  5
27C
330
1F4
100
AcDbEntity
  8
06-99
100
AcDbLine
 10
303.0102016497349
 20
17.85266267471235
 30
0.0
 11
303.0728389497349
 21
17.97806201471235
 31
0.0
  0
LINE
  5
27D
330
1F4
100
AcDbEntity
  8
06-99
100
AcDbLine
 10
303.0728389497349
 20
17.97806201471235
 30
0.0
 11
303.126359537735
 21
18.11137343471228
 31
0.0
  0
LINE
  5
27E
330
1F4
100
AcDbEntity
  8
06-99
100
AcDbLine
 10
303.126359537735
 20
18.11137343471228
 30
0.0
 11
303.1705745217348
 21
18.25240447871232
 31
0.0
  0
LINE
  5
27F
330
1F4
100
AcDbEntity
  8
06-99
100
AcDbLine
 10
303.1705745217348
 20
18.25240447871232
 30
0.0
 11
303.2052878817349
 21
18.40096625471233
 31
0.0
  0
LINE
  5
280
330
1F4
100
AcDbEntity
  8
06-99
100
AcDbLine
 10
303.2052878817349
 20
18.40096625471233
 30
0.0
 11
303.2303214177349
 21
18.55686987071237
 31
0.0
  0
LINE
  5
281
330
1F4
100
AcDbEntity
  8
06-99
100
AcDbLine
 10
303.2303214177349
 20
18.55686987071237
 30
0.0
 11
303.245479109735
 21
18.7199264347123
 31
0.0
  0
LINE
  5
282
330
1F4
100
AcDbEntity
  8
06-99
100
AcDbLine
 10
303.245479109735
 20
18.7199264347123
 30
0.0
 11
303.2505720657348
 21
18.88993992671231
 31
0.0
  0
LINE
  5
283
330
1F4
100
AcDbEntity
  8
06-99
100
AcDbLine
 10
303.2505720657348
 20
18.88993992671231
 30
0.0
 11
303.2505720657348
 21
18.88993992671231
 31
0.0
  0
LINE
  5
284
330
1F4
100
AcDbEntity
  8
06-99
100
AcDbLine
 10
303.2505720657348
 20
18.88993992671231
 30
0.0
 11
303.2505720657348
 21
18.94132211471236
 31
0.0
  0
LINE
  5
285
330
1F4
100
AcDbEntity
  8
06-99
100
AcDbLine
 10
303.2505720657348
 20
18.94132211471236
 30
0.0
 11
301.6164638097349
 21
18.94132211471236
 31
0.0
  0
LINE
  5
286
330
1F4
100
AcDbEntity
  8
06-99
100
AcDbLine
 10
301.6164638097349
 20
18.94132211471236
 30
0.0
 11
301.6164638097349
 21
18.65355049871232
 31
0.0
  0
LINE
  5
287
330
1F4
100
AcDbEntity
  8
06-99
100
AcDbLine
 10
301.6164638097349
 20
18.65355049871232
 30
0.0
 11
302.8857253857347
 21
18.65355049871232
 31
0.0
  0
LINE
  5
288
330
1F4
100
AcDbEntity
  8
06-99
100
AcDbLine
 10
302.8857253857347
 20
18.65355049871232
 30
0.0
 11
302.8749870537348
 21
18.49100715071233
 31
0.0
  0
LINE
  5
289
330
1F4
100
AcDbEntity
  8
06-99
100
AcDbLine
 10
302.8749870537348
 20
18.49100715071233
 30
0.0
 11
302.8476547377348
 21
18.33636162671234
 31
0.0
  0
LINE
  5
28A
330
1F4
100
AcDbEntity
  8
06-99
100
AcDbLine
 10
302.8476547377348
 20
18.33636162671234
 30
0.0
 11
302.804434109735
 21
18.19027683071238
 31
0.0
  0
LINE
  5
28B
330
1F4
100
AcDbEntity
  8
06-99
100
AcDbLine
 10
302.804434109735
 20
18.19027683071238
 30
0.0
 11
302.7460308417349
 21
18.05341923071233
 31
0.0
  0
LINE
  5
28C
330
1F4
100
AcDbEntity
  8
06-99
100
AcDbLine
 10
302.7460308417349
 20
18.05341923071233
 30
0.0
 11
302.673157733735
 21
17.92644460271236
 31
0.0
  0
LINE
  5
28D
330
1F4
100
AcDbEntity
  8
06-99
100
AcDbLine
 10
302.673157733735
 20
17.92644460271236
 30
0.0
 11
302.586524021735
 21
17.81002654271236
 31
0.0
  0
LINE
  5
28E
330
1F4
100
AcDbEntity
  8
06-99
100
AcDbLine
 10
302.586524021735
 20
17.81002654271236
 30
0.0
 11
302.4868282497349
 21
17.70481726271237
 31
0.0
  0
LINE
  5
28F
330
1F4
100
AcDbEntity
  8
06-99
100
AcDbLine
 10
302.4868282497349
 20
17.70481726271237
 30
0.0
 11
302.3747867817349
 21
17.61149035871233
 31
0.0
  0
LINE
  5
290
330
1F4
100
AcDbEntity
  8
06-99
100
AcDbLine
 10
302.3747867817349
 20
17.61149035871233
 30
0.0
 11
302.2511052897348
 21
17.53069804271234
 31
0.0
  0
LINE
  5
291
330
1F4
100
AcDbEntity
  8
06-99
100
AcDbLine
 10
302.2511052897348
 20
17.53069804271234
 30
0.0
 11
302.116489445735
 21
17.46311034671237
 31
0.0
  0
LINE
  5
292
330
1F4
100
AcDbEntity
  8
06-99
100
AcDbLine
 10
302.116489445735
 20
17.46311034671237
 30
0.0
 11
301.9716484857348
 21
17.40938661071232
 31
0.0
  0
LINE
  5
293
330
1F4
100
AcDbEntity
  8
06-99
100
AcDbLine
 10
301.9716484857348
 20
17.40938661071232
 30
0.0
 11
301.8172916457349
 21
17.37019330271244
 31
0.0
  0
LINE
  5
294
330
1F4
100
AcDbEntity
  8
06-99
100
AcDbLine
 10
301.8172916457349
 20
17.37019330271244
 30
0.0
 11
301.654124597735
 21
17.3461897627123
 31
0.0
  0
LINE
  5
295
330
1F4
100
AcDbEntity
  8
06-99
100
AcDbLine
 10
301.654124597735
 20
17.3461897627123
 30
0.0
 11
301.482856577735
 21
17.33804245871238
 31
0.0
  0
LINE
  5
296
330
1F4
100
AcDbEntity
  8
06-99
100
AcDbLine
 10
301.482856577735
 20
17.33804245871238
 30
0.0
 11
301.318196213735
 21
17.34599374271232
 31
0.0
  0
LINE
  5
297
330
1F4
100
AcDbEntity
  8
06-99
100
AcDbLine
 10
301.318196213735
 20
17.34599374271232
 30
0.0
 11
301.1599011537348
 21
17.36937714671228
 31
0.0
  0
LINE
  5
298
330
1F4
100
AcDbEntity
  8
06-99
100
AcDbLine
 10
301.1599011537348
 20
17.36937714671228
 30
0.0
 11
301.0085630217349
 21
17.40748343471233
 31
0.0
  0
LINE
  5
299
330
1F4
100
AcDbEntity
  8
06-99
100
AcDbLine
 10
301.0085630217349
 20
17.40748343471233
 30
0.0
 11
300.8647698777347
 21
17.45960693471232
 31
0.0
  0
LINE
  5
29A
330
1F4
100
AcDbEntity
  8
06-99
100
AcDbLine
 10
300.8647698777347
 20
17.45960693471232
 30
0.0
 11
300.7291026537349
 21
17.52503841071234
 31
0.0
  0
LINE
  5
29B
330
1F4
100
AcDbEntity
  8
06-99
100
AcDbLine
 10
300.7291026537349
 20
17.52503841071234
 30
0.0
 11
300.6021529737349
 21
17.6030686267124
 31
0.0
  0
LINE
  5
29C
330
1F4
100
AcDbEntity
  8
06-99
100
AcDbLine
 10
300.6021529737349
 20
17.6030686267124
 30
0.0
 11
300.4845053337349
 21
17.69299547471234
 31
0.0
  0
LINE
  5
29D
330
1F4
100
AcDbEntity
  8
06-99
100
AcDbLine
 10
300.4845053337349
 20
17.69299547471234
 30
0.0
 11
300.3767513577348
 21
17.79410615471244
 31
0.0
  0
LINE
  5
29E
330
1F4
100
AcDbEntity
  8
06-99
100
AcDbLine
 10
300.3767513577348
 20
17.79410615471244
 30
0.0
 11
300.279475541735
 21
17.90569499471235
 31
0.0
  0
LINE
  5
29F
330
1F4
100
AcDbEntity
  8
06-99
100
AcDbLine
 10
300.279475541735
 20
17.90569499471235
 30
0.0
 11
300.1932623817348
 21
18.02705632271232
 31
0.0
  0
LINE
  5
2A0
330
1F4
100
AcDbEntity
  8
06-99
100
AcDbLine
 10
300.1932623817348
 20
18.02705632271232
 30
0.0
 11
300.1187035017349
 21
18.15747733871234
 31
0.0
  0
LINE
  5
2A1
330
1F4
100
AcDbEntity
  8
06-99
100
AcDbLine
 10
300.1187035017349
 20
18.15747733871234
 30
0.0
 11
300.0563833977349
 21
18.29625593471235
 31
0.0
  0
LINE
  5
2A2
330
1F4
100
AcDbEntity
  8
06-99
100
AcDbLine
 10
300.0563833977349
 20
18.29625593471235
 30
0.0
 11
300.0068901297349
 21
18.44268287471232
 31
0.0
  0
LINE
  5
2A3
330
1F4
100
AcDbEntity
  8
06-99
100
AcDbLine
 10
300.0068901297349
 20
18.44268287471232
 30
0.0
 11
299.9708117577347
 21
18.59604535871239
 31
0.0
  0
LINE
  5
2A4
330
1F4
100
AcDbEntity
  8
06-99
100
AcDbLine
 10
299.9708117577347
 20
18.59604535871239
 30
0.0
 11
299.9487327777348
 21
18.75564484271246
 31
0.0
  0
LINE
  5
2A5
330
1F4
100
AcDbEntity
  8
06-99
100
AcDbLine
 10
299.9487327777348
 20
18.75564484271246
 30
0.0
 11
299.9412448137349
 21
18.92076852671226
 31
0.0
  0
LINE
  5
2A6
330
1F4
100
AcDbEntity
  8
06-99
100
AcDbLine
 10
299.9412448137349
 20
18.92076852671226
 30
0.0
 11
299.947631501735
 21
19.08914257871237
 31
0.0
  0
LINE
  5
2A7
330
1F4
100
AcDbEntity
  8
06-99
100
AcDbLine
 10
299.947631501735
 20
19.08914257871237
 30
0.0
 11
299.9665349577349
 21
19.25115489071231
 31
0.0
  0
LINE
  5
2A8
330
1F4
100
AcDbEntity
  8
06-99
100
AcDbLine
 10
299.9665349577349
 20
19.25115489071231
 30
0.0
 11
299.997556013735
 21
19.40630650271231
 31
0.0
  0
LINE
  5
2A9
330
1F4
100
AcDbEntity
  8
06-99
100
AcDbLine
 10
299.997556013735
 20
19.40630650271231
 30
0.0
 11
300.0402990657349
 21
19.55410201871234
 31
0.0
  0
LINE
  5
2AA
330
1F4
100
AcDbEntity
  8
06-99
100
AcDbLine
 10
300.0402990657349
 20
19.55410201871234
 30
0.0
 11
300.0943720737348
 21
19.69404604271233
 31
0.0
  0
LINE
  5
2AB
330
1F4
100
AcDbEntity
  8
06-99
100
AcDbLine
 10
300.0943720737348
 20
19.69404604271233
 30
0.0
 11
300.1593758697349
 21
19.82564674271236
 31
0.0
  0
LINE
  5
2AC
330
1F4
100
AcDbEntity
  8
06-99
100
AcDbLine
 10
300.1593758697349
 20
19.82564674271236
 30
0.0
 11
300.2349148497349
 21
19.94840159471238
 31
0.0
  0
LINE
  5
2AD
330
1F4
100
AcDbEntity
  8
06-99
100
AcDbLine
 10
300.2349148497349
 20
19.94840159471238
 30
0.0
 11
300.3205969737349
 21
20.06182233071235
 31
0.0
  0
LINE
  5
2AE
330
1F4
100
AcDbEntity
  8
06-99
100
AcDbLine
 10
300.3205969737349
 20
20.06182233071235
 30
0.0
 11
300.4160230737348
 21
20.16540642671242
 31
0.0
  0
LINE
  5
2AF
330
1F4
100
AcDbEntity
  8
06-99
100
AcDbLine
 10
300.4160230737348
 20
20.16540642671242
 30
0.0
 11
300.5208046737348
 21
20.2586620507123
 31
0.0
  0
LINE
  5
2B0
330
1F4
100
AcDbEntity
  8
06-99
100
AcDbLine
 10
300.5208046737348
 20
20.2586620507123
 30
0.0
 11
300.634535477735
 21
20.34109024271237
 31
0.0
  0
LINE
  5
2B1
330
1F4
100
AcDbEntity
  8
06-99
100
AcDbLine
 10
300.634535477735
 20
20.34109024271237
 30
0.0
 11
300.756830573735
 21
20.41219917071237
 31
0.0
  0
LINE
  5
2B2
330
1F4
100
AcDbEntity
  8
06-99
100
AcDbLine
 10
300.756830573735
 20
20.41219917071237
 30
0.0
 11
300.8872872297347
 21
20.47148987471235
 31
0.0
  0
LINE
  5
2B3
330
1F4
100
AcDbEntity
  8
06-99
100
AcDbLine
 10
300.8872872297347
 20
20.47148987471235
 30
0.0
 11
301.025513405735
 21
20.51846695871234
 31
0.0
  0
LINE
  5
2B4
330
1F4
100
AcDbEntity
  8
06-99
100
AcDbLine
 10
301.025513405735
 20
20.51846695871234
 30
0.0
 11
301.171117061735
 21
20.55263502671232
 31
0.0
  0
LINE
  5
2B5
330
1F4
100
AcDbEntity
  8
06-99
100
AcDbLine
 10
301.171117061735
 20
20.55263502671232
 30
0.0
 11
301.323695465735
 21
20.57350224671234
 31
0.0
  0
LINE
  5
2B6
330
1F4
100
AcDbEntity
  8
06-99
100
AcDbLine
 10
301.323695465735
 20
20.57350224671234
 30
0.0
 11
301.482856577735
 21
20.58056609471237
 31
0.0
  0
LINE
  5
2B7
330
1F4
100
AcDbEntity
  8
06-99
100
AcDbLine
 10
301.482856577735
 20
20.58056609471237
 30
0.0
 11
301.6605611817349
 21
20.57164896671236
 31
0.0
  0
LINE
  5
2B8
330
1F4
100
AcDbEntity
  8
06-99
100
AcDbLine
 10
301.6605611817349
 20
20.57164896671236
 30
0.0
 11
301.830314501735
 21
20.54501163071234
 31
0.0
  0
LINE
  5
2B9
330
1F4
100
AcDbEntity
  8
06-99
100
AcDbLine
 10
301.830314501735
 20
20.54501163071234
 30
0.0
 11
301.9917779577349
 21
20.50082159471236
 31
0.0
  0
LINE
  5
2BA
330
1F4
100
AcDbEntity
  8
06-99
100
AcDbLine
 10
301.9917779577349
 20
20.50082159471236
 30
0.0
 11
302.1446129697349
 21
20.43924636671233
 31
0.0
  0
LINE
  5
2BB
330
1F4
100
AcDbEntity
  8
06-99
100
AcDbLine
 10
302.1446129697349
 20
20.43924636671233
 30
0.0
 11
302.2884809577349
 21
20.36046058271233
 31
0.0
  0
LINE
  5
2BC
330
1F4
100
AcDbEntity
  8
06-99
100
AcDbLine
 10
302.2884809577349
 20
20.36046058271233
 30
0.0
 11
302.423046905735
 21
20.2646281867124
 31
0.0
  0
LINE
  5
2BD
330
1F4
100
AcDbEntity
  8
06-99
100
AcDbLine
 10
302.423046905735
 20
20.2646281867124
 30
0.0
 11
302.5479722337349
 21
20.15192381471235
 31
0.0
  0
LINE
  5
2BE
330
1F4
100
AcDbEntity
  8
06-99
100
AcDbLine
 10
302.5479722337349
 20
20.15192381471235
 30
0.0
 11
302.662914797735
 21
20.02251141071241
 31
0.0
  0
LINE
  5
2BF
330
1F4
100
AcDbEntity
  8
06-99
100
AcDbLine
 10
302.662914797735
 20
20.02251141071241
 30
0.0
 11
302.7675395817348
 21
19.87656561071236
 31
0.0
  0
LINE
  5
2C0
330
1F4
100
AcDbEntity
  8
06-99
100
AcDbLine
 10
299.4389952417348
 20
13.25281458671242
 30
0.0
 11
301.3222627377349
 21
13.25281458671242
 31
0.0
  0
LINE
  5
2C1
330
1F4
100
AcDbEntity
  8
06-99
100
AcDbLine
 10
301.3222627377349
 20
13.25281458671242
 30
0.0
 11
301.4675990937349
 21
14.00768047871236
 31
0.0
  0
LINE
  5
2C2
330
1F4
100
AcDbEntity
  8
06-99
100
AcDbLine
 10
301.4675990937349
 20
14.00768047871236
 30
0.0
 11
300.5648699697349
 21
14.00768047871236
 31
0.0
  0
LINE
  5
2C3
330
1F4
100
AcDbEntity
  8
06-99
100
AcDbLine
 10
300.5648699697349
 20
14.00768047871236
 30
0.0
 11
300.6210528657348
 21
14.29950792671229
 31
0.0
  0
LINE
  5
2C4
330
1F4
100
AcDbEntity
  8
06-99
100
AcDbLine
 10
300.6210528657348
 20
14.29950792671229
 30
0.0
 11
301.4187152697349
 21
14.29950792671229
 31
0.0
  0
LINE
  5
2C5
330
1F4
100
AcDbEntity
  8
06-99
100
AcDbLine
 10
301.4187152697349
 20
14.29950792671229
 30
0.0
 11
301.5558009657348
 21
15.01156305071231
 31
0.0
  0
LINE
  5
2C6
330
1F4
100
AcDbEntity
  8
06-99
100
AcDbLine
 10
301.5558009657348
 20
15.01156305071231
 30
0.0
 11
300.7581385617348
 21
15.01156305071231
 31
0.0
  0
LINE
  5
2C7
330
1F4
100
AcDbEntity
  8
06-99
100
AcDbLine
 10
300.7581385617348
 20
15.01156305071231
 30
0.0
 11
300.8098450737348
 21
15.28005699071229
 31
0.0
  0
LINE
  5
2C8
330
1F4
100
AcDbEntity
  8
06-99
100
AcDbLine
 10
300.8098450737348
 20
15.28005699071229
 30
0.0
 11
301.6892264337348
 21
15.28005699071229
 31
0.0
  0
LINE
  5
2C9
330
1F4
100
AcDbEntity
  8
06-99
100
AcDbLine
 10
301.6892264337348
 20
15.28005699071229
 30
0.0
 11
301.8345520977349
 21
16.03490862671236
 31
0.0
  0
LINE
  5
2CA
330
1F4
100
AcDbEntity
  8
06-99
100
AcDbLine
 10
301.8345520977349
 20
16.03490862671236
 30
0.0
 11
299.9746323657349
 21
16.03490862671236
 31
0.0
  0
LINE
  5
2CB
330
1F4
100
AcDbEntity
  8
06-99
100
AcDbLine
 10
299.9746323657349
 20
16.03490862671236
 30
0.0
 11
299.4389952417348
 21
13.25281458671242
 31
0.0
  0
LINE
  5
2CC
330
1F4
100
AcDbEntity
  8
06-99
100
AcDbLine
 10
285.6086116857349
 20
13.88042785871232
 30
0.0
 11
298.0658608857348
 21
13.88042785871232
 31
0.0
  0
LINE
  5
2CD
330
1F4
100
AcDbEntity
  8
06-99
100
AcDbLine
 10
298.0658608857348
 20
13.88042785871232
 30
0.0
 11
297.9422827497349
 21
13.25209822271233
 31
0.0
  0
LINE
  5
2CE
330
1F4
100
AcDbEntity
  8
06-99
100
AcDbLine
 10
297.9422827497349
 20
13.25209822271233
 30
0.0
 11
285.4850371137349
 21
13.25209822271233
 31
0.0
  0
LINE
  5
2CF
330
1F4
100
AcDbEntity
  8
06-99
100
AcDbLine
 10
285.4850371137349
 20
13.25209822271233
 30
0.0
 11
285.6086116857349
 21
13.88042785871232
 31
0.0
  0
LINE
  5
2D0
330
1F4
100
AcDbEntity
  8
06-99
100
AcDbLine
 10
291.3458426577349
 20
17.02887258671239
 30
0.0
 11
292.3221826377348
 21
20.10266933471235
 31
0.0
  0
LINE
  5
2D1
330
1F4
100
AcDbEntity
  8
06-99
100
AcDbLine
 10
292.3221826377348
 20
20.10266933471235
 30
0.0
 11
293.3396476137348
 21
17.02887258671239
 31
0.0
  0
LINE
  5
2D2
330
1F4
100
AcDbEntity
  8
06-99
100
AcDbLine
 10
293.3396476137348
 20
17.02887258671239
 30
0.0
 11
294.5677984497349
 21
20.80153409471234
 31
0.0
  0
LINE
  5
2D3
330
1F4
100
AcDbEntity
  8
06-99
100
AcDbLine
 10
294.5677984497349
 20
20.80153409471234
 30
0.0
 11
294.2235089217348
 21
20.80153409471234
 31
0.0
  0
LINE
  5
2D4
330
1F4
100
AcDbEntity
  8
06-99
100
AcDbLine
 10
294.2235089217348
 20
20.80153409471234
 30
0.0
 11
293.3396476137348
 21
17.89303210271231
 31
0.0
  0
LINE
  5
2D5
330
1F4
100
AcDbEntity
  8
06-99
100
AcDbLine
 10
293.3396476137348
 20
17.89303210271231
 30
0.0
 11
292.3221826377348
 21
20.94541277471228
 31
0.0
  0
LINE
  5
2D6
330
1F4
100
AcDbEntity
  8
06-99
100
AcDbLine
 10
292.3221826377348
 20
20.94541277471228
 30
0.0
 11
291.3458426577349
 21
17.86733922671237
 31
0.0
  0
LINE
  5
2D7
330
1F4
100
AcDbEntity
  8
06-99
100
AcDbLine
 10
291.3458426577349
 20
17.86733922671237
 30
0.0
 11
290.426009897735
 21
20.80153409471234
 31
0.0
  0
LINE
  5
2D8
330
1F4
100
AcDbEntity
  8
06-99
100
AcDbLine
 10
290.426009897735
 20
20.80153409471234
 30
0.0
 11
290.0765810817349
 21
20.80153409471234
 31
0.0
  0
LINE
  5
2D9
330
1F4
100
AcDbEntity
  8
06-99
100
AcDbLine
 10
290.0765810817349
 20
20.80153409471234
 30
0.0
 11
291.3458426577349
 21
17.02887258671239
 31
0.0
  0
LINE
  5
2DA
330
1F4
100
AcDbEntity
  8
06-99
100
AcDbLine
 10
296.324415641735
 20
18.65868622271239
 30
0.0
 11
296.9770339377348
 21
20.2568337187123
 31
0.0
  0
LINE
  5
2DB
330
1F4
100
AcDbEntity
  8
06-99
100
AcDbLine
 10
296.9770339377348
 20
20.2568337187123
 30
0.0
 11
297.6039629217348
 21
18.65868622271239
 31
0.0
  0
LINE
  5
2DC
330
1F4
100
AcDbEntity
  8
06-99
100
AcDbLine
 10
297.6039629217348
 20
18.65868622271239
 30
0.0
 11
296.324415641735
 21
18.65868622271239
 31
0.0
  0
LINE
  5
2DD
330
1F4
100
AcDbEntity
  8
06-99
100
AcDbLine
 10
295.3831810617349
 20
17.12736016271231
 30
0.0
 11
295.7231937897349
 21
17.12736016271231
 31
0.0
  0
LINE
  5
2DE
330
1F4
100
AcDbEntity
  8
06-99
100
AcDbLine
 10
295.7231937897349
 20
17.12736016271231
 30
0.0
 11
296.2113619977348
 21
18.37092886271233
 31
0.0
  0
LINE
  5
2DF
330
1F4
100
AcDbEntity
  8
06-99
100
AcDbLine
 10
296.2113619977348
 20
18.37092886271233
 30
0.0
 11
297.711863021735
 21
18.37092886271233
 31
0.0
  0
LINE
  5
2E0
330
1F4
100
AcDbEntity
  8
06-99
100
AcDbLine
 10
297.711863021735
 20
18.37092886271233
 30
0.0
 11
298.1794918977348
 21
17.12736016271231
 31
0.0
  0
LINE
  5
2E1
330
1F4
100
AcDbEntity
  8
06-99
100
AcDbLine
 10
298.1794918977348
 20
17.12736016271231
 30
0.0
 11
298.5443385777348
 21
17.12736016271231
 31
0.0
  0
LINE
  5
2E2
330
1F4
100
AcDbEntity
  8
06-99
100
AcDbLine
 10
298.5443385777348
 20
17.12736016271231
 30
0.0
 11
296.9975910897349
 21
20.94541277471228
 31
0.0
  0
LINE
  5
2E3
330
1F4
100
AcDbEntity
  8
06-99
100
AcDbLine
 10
296.9975910897349
 20
20.94541277471228
 30
0.0
 11
295.3831810617349
 21
17.12736016271231
 31
0.0
  0
LINE
  5
2E4
330
1F4
100
AcDbEntity
  8
06-99
100
AcDbLine
 10
307.9298046897347
 20
13.25281458671242
 30
0.0
 11
309.0043792017348
 21
13.25281458671242
 31
0.0
  0
LINE
  5
2E5
330
1F4
100
AcDbEntity
  8
06-99
100
AcDbLine
 10
309.0043792017348
 20
13.25281458671242
 30
0.0
 11
309.1574066697349
 21
13.60301322671233
 31
0.0
  0
LINE
  5
2E6
330
1F4
100
AcDbEntity
  8
06-99
100
AcDbLine
 10
309.1574066697349
 20
13.60301322671233
 30
0.0
 11
309.9122725617349
 21
13.60301322671233
 31
0.0
  0
LINE
  5
2E7
330
1F4
100
AcDbEntity
  8
06-99
100
AcDbLine
 10
309.9122725617349
 20
13.60301322671233
 30
0.0
 11
309.9343444137348
 21
13.25281458671242
 31
0.0
  0
LINE
  5
2E8
330
1F4
100
AcDbEntity
  8
06-99
100
AcDbLine
 10
309.9343444137348
 20
13.25281458671242
 30
0.0
 11
311.0082738417347
 21
13.25281458671242
 31
0.0
  0
LINE
  5
2E9
330
1F4
100
AcDbEntity
  8
06-99
100
AcDbLine
 10
311.0082738417347
 20
13.25281458671242
 30
0.0
 11
310.5711492417348
 21
16.03490862671236
 31
0.0
  0
LINE
  5
2EA
330
1F4
100
AcDbEntity
  8
06-99
100
AcDbLine
 10
310.5711492417348
 20
16.03490862671236
 30
0.0
 11
309.4583116257348
 21
16.03490862671236
 31
0.0
  0
LINE
  5
2EB
330
1F4
100
AcDbEntity
  8
06-99
100
AcDbLine
 10
309.4583116257348
 20
16.03490862671236
 30
0.0
 11
307.9298046897347
 21
13.25281458671242
 31
0.0
  0
LINE
  5
2EC
330
1F4
100
AcDbEntity
  8
06-99
100
AcDbLine
 10
305.0434565217349
 20
14.66137866671232
 30
0.0
 11
305.0784799497348
 21
14.66137866671232
 31
0.0
  0
LINE
  5
2ED
330
1F4
100
AcDbEntity
  8
06-99
100
AcDbLine
 10
305.0784799497348
 20
14.66137866671232
 30
0.0
 11
305.0642239497349
 21
14.48699927471239
 31
0.0
  0
LINE
  5
2EE
330
1F4
100
AcDbEntity
  8
06-99
100
AcDbLine
 10
305.0642239497349
 20
14.48699927471239
 30
0.0
 11
305.0637998337348
 21
14.33510159471234
 31
0.0
  0
LINE
  5
2EF
330
1F4
100
AcDbEntity
  8
06-99
100
AcDbLine
 10
305.0637998337348
 20
14.33510159471234
 30
0.0
 11
305.0678984337348
 21
14.20222854671237
 31
0.0
  0
LINE
  5
2F0
330
1F4
100
AcDbEntity
  8
06-99
100
AcDbLine
 10
305.0678984337348
 20
14.20222854671237
 30
0.0
 11
305.0952307497349
 21
13.25281458671242
 31
0.0
  0
LINE
  5
2F1
330
1F4
100
AcDbEntity
  8
06-99
100
AcDbLine
 10
305.0952307497349
 20
13.25281458671242
 30
0.0
 11
305.9668283337347
 21
13.25281458671242
 31
0.0
  0
LINE
  5
2F2
330
1F4
100
AcDbEntity
  8
06-99
100
AcDbLine
 10
305.9668283337347
 20
13.25281458671242
 30
0.0
 11
307.3156882857347
 21
16.03490862671236
 31
0.0
  0
LINE
  5
2F3
330
1F4
100
AcDbEntity
  8
06-99
100
AcDbLine
 10
307.3156882857347
 20
16.03490862671236
 30
0.0
 11
306.3118057137349
 21
16.03490862671236
 31
0.0
  0
LINE
  5
2F4
330
1F4
100
AcDbEntity
  8
06-99
100
AcDbLine
 10
306.3118057137349
 20
16.03490862671236
 30
0.0
 11
305.8579124937348
 21
14.8092312067123
 31
0.0
  0
LINE
  5
2F5
330
1F4
100
AcDbEntity
  8
06-99
100
AcDbLine
 10
305.8579124937348
 20
14.8092312067123
 30
0.0
 11
305.8078097817349
 21
14.66872763471229
 31
0.0
  0
LINE
  5
2F6
330
1F4
100
AcDbEntity
  8
06-99
100
AcDbLine
 10
305.8078097817349
 20
14.66872763471229
 30
0.0
 11
305.7488398377348
 21
14.48671415471227
 31
0.0
  0
LINE
  5
2F7
330
1F4
100
AcDbEntity
  8
06-99
100
AcDbLine
 10
305.7488398377348
 20
14.48671415471227
 30
0.0
 11
305.6900267097347
 21
14.26059973871241
 31
0.0
  0
LINE
  5
2F8
330
1F4
100
AcDbEntity
  8
06-99
100
AcDbLine
 10
305.6900267097347
 20
14.26059973871241
 30
0.0
 11
305.6666932017348
 21
14.26059973871241
 31
0.0
  0
LINE
  5
2F9
330
1F4
100
AcDbEntity
  8
06-99
100
AcDbLine
 10
305.6666932017348
 20
14.26059973871241
 30
0.0
 11
305.6884193457348
 21
14.45803464671235
 31
0.0
  0
LINE
  5
2FA
330
1F4
100
AcDbEntity
  8
06-99
100
AcDbLine
 10
305.6884193457348
 20
14.45803464671235
 30
0.0
 11
305.6929777017349
 21
14.6156953147123
 31
0.0
  0
LINE
  5
2FB
330
1F4
100
AcDbEntity
  8
06-99
100
AcDbLine
 10
305.6929777017349
 20
14.6156953147123
 30
0.0
 11
305.6919370137348
 21
14.73531384671236
 31
0.0
  0
LINE
  5
2FC
330
1F4
100
AcDbEntity
  8
06-99
100
AcDbLine
 10
305.6919370137348
 20
14.73531384671236
 30
0.0
 11
305.6775527097348
 21
16.03490862671236
 31
0.0
  0
LINE
  5
2FD
330
1F4
100
AcDbEntity
  8
06-99
100
AcDbLine
 10
305.6775527097348
 20
16.03490862671236
 30
0.0
 11
304.9732849257348
 21
16.03490862671236
 31
0.0
  0
LINE
  5
2FE
330
1F4
100
AcDbEntity
  8
06-99
100
AcDbLine
 10
304.9732849257348
 20
16.03490862671236
 30
0.0
 11
304.4584829457349
 21
14.73531384671236
 31
0.0
  0
LINE
  5
2FF
330
1F4
100
AcDbEntity
  8
06-99
100
AcDbLine
 10
304.4584829457349
 20
14.73531384671236
 30
0.0
 11
304.4113811217347
 21
14.6156953147123
 31
0.0
  0
LINE
  5
300
330
1F4
100
AcDbEntity
  8
06-99
100
AcDbLine
 10
304.4113811217347
 20
14.6156953147123
 30
0.0
 11
304.355226737735
 21
14.45803464671235
 31
0.0
  0
LINE
  5
301
330
1F4
100
AcDbEntity
  8
06-99
100
AcDbLine
 10
304.355226737735
 20
14.45803464671235
 30
0.0
 11
304.3009220697348
 21
14.26059973871241
 31
0.0
  0
LINE
  5
302
330
1F4
100
AcDbEntity
  8
06-99
100
AcDbLine
 10
304.3009220697348
 20
14.26059973871241
 30
0.0
 11
304.2775885617348
 21
14.26059973871241
 31
0.0
  0
LINE
  5
303
330
1F4
100
AcDbEntity
  8
06-99
100
AcDbLine
 10
304.2775885617348
 20
14.26059973871241
 30
0.0
 11
304.3058439537349
 21
14.48671415471227
 31
0.0
  0
LINE
  5
304
330
1F4
100
AcDbEntity
  8
06-99
100
AcDbLine
 10
304.3058439537349
 20
14.48671415471227
 30
0.0
 11
304.3169636337349
 21
14.66872763471229
 31
0.0
  0
LINE
  5
305
330
1F4
100
AcDbEntity
  8
06-99
100
AcDbLine
 10
304.3169636337349
 20
14.66872763471229
 30
0.0
 11
304.3209588777348
 21
14.8092312067123
 31
0.0
  0
LINE
  5
306
330
1F4
100
AcDbEntity
  8
06-99
100
AcDbLine
 10
304.3209588777348
 20
14.8092312067123
 30
0.0
 11
304.3390319217348
 21
16.03490862671236
 31
0.0
  0
LINE
  5
307
330
1F4
100
AcDbEntity
  8
06-99
100
AcDbLine
 10
304.3390319217348
 20
16.03490862671236
 30
0.0
 11
303.3345042657348
 21
16.03490862671236
 31
0.0
  0
LINE
  5
308
330
1F4
100
AcDbEntity
  8
06-99
100
AcDbLine
 10
303.3345042657348
 20
16.03490862671236
 30
0.0
 11
303.6127350537349
 21
13.25281458671242
 31
0.0
  0
LINE
  5
309
330
1F4
100
AcDbEntity
  8
06-99
100
AcDbLine
 10
303.6127350537349
 20
13.25281458671242
 30
0.0
 11
304.4843290737348
 21
13.25281458671242
 31
0.0
  0
LINE
  5
30A
330
1F4
100
AcDbEntity
  8
06-99
100
AcDbLine
 10
304.4843290737348
 20
13.25281458671242
 30
0.0
 11
304.8772386897349
 21
14.20222854671237
 31
0.0
  0
LINE
  5
30B
330
1F4
100
AcDbEntity
  8
06-99
100
AcDbLine
 10
304.8772386897349
 20
14.20222854671237
 30
0.0
 11
304.9325127657348
 21
14.33510159471234
 31
0.0
  0
LINE
  5
30C
330
1F4
100
AcDbEntity
  8
06-99
100
AcDbLine
 10
304.9325127657348
 20
14.33510159471234
 30
0.0
 11
304.9905774537349
 21
14.48699927471239
 31
0.0
  0
LINE
  5
30D
330
1F4
100
AcDbEntity
  8
06-99
100
AcDbLine
 10
304.9905774537349
 20
14.48699927471239
 30
0.0
 11
305.0434565217349
 21
14.66137866671232
 31
0.0
  0
LINE
  5
30E
330
1F4
100
AcDbEntity
  8
06-99
100
AcDbLine
 10
309.4520674977348
 20
14.26448449871236
 30
0.0
 11
309.5983590057348
 21
14.57965971071235
 31
0.0
  0
LINE
  5
30F
330
1F4
100
AcDbEntity
  8
06-99
100
AcDbLine
 10
309.5983590057348
 20
14.57965971071235
 30
0.0
 11
309.6731103417349
 21
14.74409554271244
 31
0.0
  0
LINE
  5
310
330
1F4
100
AcDbEntity
  8
06-99
100
AcDbLine
 10
309.6731103417349
 20
14.74409554271244
 30
0.0
 11
309.7541521377349
 21
14.94571102271237
 31
0.0
  0
LINE
  5
311
330
1F4
100
AcDbEntity
  8
06-99
100
AcDbLine
 10
309.7541521377349
 20
14.94571102271237
 30
0.0
 11
309.8288286297349
 21
15.19056495071243
 31
0.0
  0
LINE
  5
312
330
1F4
100
AcDbEntity
  8
06-99
100
AcDbLine
 10
309.8288286297349
 20
15.19056495071243
 30
0.0
 11
309.8482880697349
 21
15.19056495071243
 31
0.0
  0
LINE
  5
313
330
1F4
100
AcDbEntity
  8
06-99
100
AcDbLine
 10
309.8482880697349
 20
15.19056495071243
 30
0.0
 11
309.8286646857348
 21
14.94571102271237
 31
0.0
  0
LINE
  5
314
330
1F4
100
AcDbEntity
  8
06-99
100
AcDbLine
 10
309.8286646857348
 20
14.94571102271237
 30
0.0
 11
309.8320718697348
 21
14.74409554271244
 31
0.0
  0
LINE
  5
315
330
1F4
100
AcDbEntity
  8
06-99
100
AcDbLine
 10
309.8320718697348
 20
14.74409554271244
 30
0.0
 11
309.8435051817348
 21
14.57965971071235
 31
0.0
  0
LINE
  5
316
330
1F4
100
AcDbEntity
  8
06-99
100
AcDbLine
 10
309.8435051817348
 20
14.57965971071235
 30
0.0
 11
309.868410413735
 21
14.26448449871236
 31
0.0
  0
LINE
  5
317
330
1F4
100
AcDbEntity
  8
06-99
100
AcDbLine
 10
309.868410413735
 20
14.26448449871236
 30
0.0
 11
309.4520674977348
 21
14.26448449871236
 31
0.0
  0
LINE
  5
318
330
1F4
100
AcDbEntity
  8
06-99
100
AcDbLine
 10
312.586705289735
 20
13.25281458671242
 30
0.0
 11
313.5672400977347
 21
13.25281458671242
 31
0.0
  0
LINE
  5
319
330
1F4
100
AcDbEntity
  8
06-99
100
AcDbLine
 10
313.5672400977347
 20
13.25281458671242
 30
0.0
 11
313.7440358817348
 21
14.17110413471232
 31
0.0
  0
LINE
  5
31A
330
1F4
100
AcDbEntity
  8
06-99
100
AcDbLine
 10
313.7440358817348
 20
14.17110413471232
 30
0.0
 11
314.053626305735
 21
13.25281458671242
 31
0.0
  0
LINE
  5
31B
330
1F4
100
AcDbEntity
  8
06-99
100
AcDbLine
 10
314.053626305735
 20
13.25281458671242
 30
0.0
 11
315.1742370057348
 21
13.25281458671242
 31
0.0
  0
LINE
  5
31C
330
1F4
100
AcDbEntity
  8
06-99
100
AcDbLine
 10
315.1742370057348
 20
13.25281458671242
 30
0.0
 11
314.6490673497349
 21
14.38511520671233
 31
0.0
  0
LINE
  5
31D
330
1F4
100
AcDbEntity
  8
06-99
100
AcDbLine
 10
314.6490673497349
 20
14.38511520671233
 30
0.0
 11
314.8084280457349
 21
14.42380955471236
 31
0.0
  0
LINE
  5
31E
330
1F4
100
AcDbEntity
  8
06-99
100
AcDbLine
 10
314.8084280457349
 20
14.42380955471236
 30
0.0
 11
314.9537002497348
 21
14.49881749871235
 31
0.0
  0
LINE
  5
31F
330
1F4
100
AcDbEntity
  8
06-99
100
AcDbLine
 10
314.9537002497348
 20
14.49881749871235
 30
0.0
 11
315.0813484737348
 21
14.60690292671233
 31
0.0
  0
LINE
  5
320
330
1F4
100
AcDbEntity
  8
06-99
100
AcDbLine
 10
315.0813484737348
 20
14.60690292671233
 30
0.0
 11
315.1878301017348
 21
14.74481903471235
 31
0.0
  0
LINE
  5
321
330
1F4
100
AcDbEntity
  8
06-99
100
AcDbLine
 10
315.1878301017348
 20
14.74481903471235
 30
0.0
 11
315.2695989537348
 21
14.90932258271232
 31
0.0
  0
LINE
  5
322
330
1F4
100
AcDbEntity
  8
06-99
100
AcDbLine
 10
315.2695989537348
 20
14.90932258271232
 30
0.0
 11
315.3231124137347
 21
15.09717033071234
 31
0.0
  0
LINE
  5
323
330
1F4
100
AcDbEntity
  8
06-99
100
AcDbLine
 10
315.3231124137347
 20
15.09717033071234
 30
0.0
 11
315.3445997697348
 21
15.26809264271236
 31
0.0
  0
LINE
  5
324
330
1F4
100
AcDbEntity
  8
06-99
100
AcDbLine
 10
315.3445997697348
 20
15.26809264271236
 30
0.0
 11
315.3403015857348
 21
15.42330127871241
 31
0.0
  0
LINE
  5
325
330
1F4
100
AcDbEntity
  8
06-99
100
AcDbLine
 10
315.3403015857348
 20
15.42330127871241
 30
0.0
 11
315.3102285537349
 21
15.56226163871236
 31
0.0
  0
LINE
  5
326
330
1F4
100
AcDbEntity
  8
06-99
100
AcDbLine
 10
315.3102285537349
 20
15.56226163871236
 30
0.0
 11
315.2543913657347
 21
15.68443555871226
 31
0.0
  0
LINE
  5
327
330
1F4
100
AcDbEntity
  8
06-99
100
AcDbLine
 10
315.2543913657347
 20
15.68443555871226
 30
0.0
 11
315.1728078417348
 21
15.78928843871239
 31
0.0
  0
LINE
  5
328
330
1F4
100
AcDbEntity
  8
06-99
100
AcDbLine
 10
315.1728078417348
 20
15.78928843871239
 30
0.0
 11
315.0654922377348
 21
15.87627855071235
 31
0.0
  0
LINE
  5
329
330
1F4
100
AcDbEntity
  8
06-99
100
AcDbLine
 10
315.0654922377348
 20
15.87627855071235
 30
0.0
 11
314.9324516817348
 21
15.94487485871235
 31
0.0
  0
LINE
  5
32A
330
1F4
100
AcDbEntity
  8
06-99
100
AcDbLine
 10
314.9324516817348
 20
15.94487485871235
 30
0.0
 11
314.7737075577347
 21
15.9945356347124
 31
0.0
  0
LINE
  5
32B
330
1F4
100
AcDbEntity
  8
06-99
100
AcDbLine
 10
314.7737075577347
 20
15.9945356347124
 30
0.0
 11
314.5892634297348
 21
16.02472627871236
 31
0.0
  0
LINE
  5
32C
330
1F4
100
AcDbEntity
  8
06-99
100
AcDbLine
 10
314.5892634297348
 20
16.02472627871236
 30
0.0
 11
314.3791442457348
 21
16.03490862671236
 31
0.0
  0
LINE
  5
32D
330
1F4
100
AcDbEntity
  8
06-99
100
AcDbLine
 10
314.3791442457348
 20
16.03490862671236
 30
0.0
 11
313.1223424137348
 21
16.03490862671236
 31
0.0
  0
LINE
  5
32E
330
1F4
100
AcDbEntity
  8
06-99
100
AcDbLine
 10
313.1223424137348
 20
16.03490862671236
 30
0.0
 11
312.586705289735
 21
13.25281458671242
 31
0.0
  0
LINE
  5
32F
330
1F4
100
AcDbEntity
  8
06-99
100
AcDbLine
 10
313.9650323937349
 20
15.31896517871234
 30
0.0
 11
314.1206829657349
 21
15.31896517871234
 31
0.0
  0
LINE
  5
330
330
1F4
100
AcDbEntity
  8
06-99
100
AcDbLine
 10
314.1206829657349
 20
15.31896517871234
 30
0.0
 11
314.2773528417349
 21
15.28538517071229
 31
0.0
  0
LINE
  5
331
330
1F4
100
AcDbEntity
  8
06-99
100
AcDbLine
 10
314.2773528417349
 20
15.28538517071229
 30
0.0
 11
314.3582200017347
 21
15.19041169871241
 31
0.0
  0
LINE
  5
332
330
1F4
100
AcDbEntity
  8
06-99
100
AcDbLine
 10
314.3582200017347
 20
15.19041169871241
 30
0.0
 11
314.3632167297349
 21
15.04270171871235
 31
0.0
  0
LINE
  5
333
330
1F4
100
AcDbEntity
  8
06-99
100
AcDbLine
 10
314.3632167297349
 20
15.04270171871235
 30
0.0
 11
314.3008645497348
 21
14.8970018347124
 31
0.0
  0
LINE
  5
334
330
1F4
100
AcDbEntity
  8
06-99
100
AcDbLine
 10
314.3008645497348
 20
14.8970018347124
 30
0.0
 11
314.1832917537348
 21
14.80578125471237
 31
0.0
  0
LINE
  5
335
330
1F4
100
AcDbEntity
  8
06-99
100
AcDbLine
 10
314.1832917537348
 20
14.80578125471237
 30
0.0
 11
314.0158122657348
 21
14.77422203471229
 31
0.0
  0
LINE
  5
336
330
1F4
100
AcDbEntity
  8
06-99
100
AcDbLine
 10
314.0158122657348
 20
14.77422203471229
 30
0.0
 11
313.8601616937349
 21
14.77422203471229
 31
0.0
  0
LINE
  5
337
330
1F4
100
AcDbEntity
  8
06-99
100
AcDbLine
 10
313.8601616937349
 20
14.77422203471229
 30
0.0
 11
313.9650323937349
 21
15.31896517871234
 31
0.0
  0
LINE
  5
338
330
1F4
100
AcDbEntity
  8
06-99
100
AcDbLine
 10
309.579801257735
 20
17.12736016271231
 30
0.0
 11
311.3988989337349
 21
17.12736016271231
 31
0.0
  0
LINE
  5
339
330
1F4
100
AcDbEntity
  8
06-99
100
AcDbLine
 10
311.3988989337349
 20
17.12736016271231
 30
0.0
 11
311.3988989337349
 21
17.44082465471229
 31
0.0
  0
LINE
  5
33A
330
1F4
100
AcDbEntity
  8
06-99
100
AcDbLine
 10
311.3988989337349
 20
17.44082465471229
 30
0.0
 11
309.913819337735
 21
17.44082465471229
 31
0.0
  0
LINE
  5
33B
330
1F4
100
AcDbEntity
  8
06-99
100
AcDbLine
 10
309.913819337735
 20
17.44082465471229
 30
0.0
 11
309.913819337735
 21
19.02353290271242
 31
0.0
  0
LINE
  5
33C
330
1F4
100
AcDbEntity
  8
06-99
100
AcDbLine
 10
309.913819337735
 20
19.02353290271242
 30
0.0
 11
311.3988989337349
 21
19.02353290271242
 31
0.0
  0
LINE
  5
33D
330
1F4
100
AcDbEntity
  8
06-99
100
AcDbLine
 10
311.3988989337349
 20
19.02353290271242
 30
0.0
 11
311.3988989337349
 21
19.3369973947124
 31
0.0
  0
LINE
  5
33E
330
1F4
100
AcDbEntity
  8
06-99
100
AcDbLine
 10
311.3988989337349
 20
19.3369973947124
 30
0.0
 11
309.913819337735
 21
19.3369973947124
 31
0.0
  0
LINE
  5
33F
330
1F4
100
AcDbEntity
  8
06-99
100
AcDbLine
 10
309.913819337735
 20
19.3369973947124
 30
0.0
 11
309.913819337735
 21
20.48806960271236
 31
0.0
  0
LINE
  5
340
330
1F4
100
AcDbEntity
  8
06-99
100
AcDbLine
 10
309.913819337735
 20
20.48806960271236
 30
0.0
 11
311.3988989337349
 21
20.48806960271236
 31
0.0
  0
LINE
  5
341
330
1F4
100
AcDbEntity
  8
06-99
100
AcDbLine
 10
311.3988989337349
 20
20.48806960271236
 30
0.0
 11
311.3988989337349
 21
20.80153409471234
 31
0.0
  0
LINE
  5
342
330
1F4
100
AcDbEntity
  8
06-99
100
AcDbLine
 10
311.3988989337349
 20
20.80153409471234
 30
0.0
 11
309.579801257735
 21
20.80153409471234
 31
0.0
  0
LINE
  5
343
330
1F4
100
AcDbEntity
  8
06-99
100
AcDbLine
 10
309.579801257735
 20
20.80153409471234
 30
0.0
 11
309.579801257735
 21
17.12736016271231
 31
0.0
  0
LINE
  5
344
330
1F4
100
AcDbEntity
  8
06-99
100
AcDbLine
 10
304.853024873735
 20
17.12736016271231
 30
0.0
 11
305.1870465177349
 21
17.12736016271231
 31
0.0
  0
LINE
  5
345
330
1F4
100
AcDbEntity
  8
06-99
100
AcDbLine
 10
305.1870465177349
 20
17.12736016271231
 30
0.0
 11
305.1870465177349
 21
20.09753361071233
 31
0.0
  0
LINE
  5
346
330
1F4
100
AcDbEntity
  8
06-99
100
AcDbLine
 10
305.1870465177349
 20
20.09753361071233
 30
0.0
 11
307.7666661537348
 21
17.01858688271232
 31
0.0
  0
LINE
  5
347
330
1F4
100
AcDbEntity
  8
06-99
100
AcDbLine
 10
307.7666661537348
 20
17.01858688271232
 30
0.0
 11
307.7666661537348
 21
20.80153409471234
 31
0.0
  0
LINE
  5
348
330
1F4
100
AcDbEntity
  8
06-99
100
AcDbLine
 10
307.7666661537348
 20
20.80153409471234
 30
0.0
 11
307.4326587657349
 21
20.80153409471234
 31
0.0
  0
LINE
  5
349
330
1F4
100
AcDbEntity
  8
06-99
100
AcDbLine
 10
307.4326587657349
 20
20.80153409471234
 30
0.0
 11
307.4326587657349
 21
17.88274639871235
 31
0.0
  0
LINE
  5
34A
330
1F4
100
AcDbEntity
  8
06-99
100
AcDbLine
 10
307.4326587657349
 20
17.88274639871235
 30
0.0
 11
304.853024873735
 21
20.95568422271231
 31
0.0
  0
LINE
  5
34B
330
1F4
100
AcDbEntity
  8
06-99
100
AcDbLine
 10
304.853024873735
 20
20.95568422271231
 30
0.0
 11
304.853024873735
 21
17.12736016271231
 31
0.0
  0
LINE
  5
34C
330
1F4
100
AcDbEntity
  8
06-99
100
AcDbLine
 10
313.448423465735
 20
20.50862675471228
 30
0.0
 11
313.7824308537349
 21
20.50862675471228
 31
0.0
  0
LINE
  5
34D
330
1F4
100
AcDbEntity
  8
06-99
100
AcDbLine
 10
313.7824308537349
 20
20.50862675471228
 30
0.0
 11
313.9866159777348
 21
20.50030837871236
 31
0.0
  0
LINE
  5
34E
330
1F4
100
AcDbEntity
  8
06-99
100
AcDbLine
 10
313.9866159777348
 20
20.50030837871236
 30
0.0
 11
314.1604465137349
 21
20.47385993471232
 31
0.0
  0
LINE
  5
34F
330
1F4
100
AcDbEntity
  8
06-99
100
AcDbLine
 10
314.1604465137349
 20
20.47385993471232
 30
0.0
 11
314.3048954337349
 21
20.42705748671227
 31
0.0
  0
LINE
  5
350
330
1F4
100
AcDbEntity
  8
06-99
100
AcDbLine
 10
314.3048954337349
 20
20.42705748671227
 30
0.0
 11
314.4209178897349
 21
20.35767353471232
 31
0.0
  0
LINE
  5
351
330
1F4
100
AcDbEntity
  8
06-99
100
AcDbLine
 10
314.4209178897349
 20
20.35767353471232
 30
0.0
 11
314.509479725735
 21
20.26348057871229
 31
0.0
  0
LINE
  5
352
330
1F4
100
AcDbEntity
  8
06-99
100
AcDbLine
 10
314.509479725735
 20
20.26348057871229
 30
0.0
 11
314.5715432217348
 21
20.14225111871241
 31
0.0
  0
LINE
  5
353
330
1F4
100
AcDbEntity
  8
06-99
100
AcDbLine
 10
314.5715432217348
 20
20.14225111871241
 30
0.0
 11
314.6080777857349
 21
19.99175052671228
 31
0.0
  0
LINE
  5
354
330
1F4
100
AcDbEntity
  8
06-99
100
AcDbLine
 10
314.6080777857349
 20
19.99175052671228
 30
0.0
 11
314.6200421337348
 21
19.80976199471234
 31
0.0
  0
LINE
  5
355
330
1F4
100
AcDbEntity
  8
06-99
100
AcDbLine
 10
314.6200421337348
 20
19.80976199471234
 30
0.0
 11
314.6074469577349
 21
19.63100957471232
 31
0.0
  0
LINE
  5
356
330
1F4
100
AcDbEntity
  8
06-99
100
AcDbLine
 10
314.6074469577349
 20
19.63100957471232
 30
0.0
 11
314.5693763097349
 21
19.48586211071233
 31
0.0
  0
LINE
  5
357
330
1F4
100
AcDbEntity
  8
06-99
100
AcDbLine
 10
314.5693763097349
 20
19.48586211071233
 30
0.0
 11
314.5054167657349
 21
19.37130445871241
 31
0.0
  0
LINE
  5
358
330
1F4
100
AcDbEntity
  8
06-99
100
AcDbLine
 10
314.5054167657349
 20
19.37130445871241
 30
0.0
 11
314.4151370817349
 21
19.28432860271238
 31
0.0
  0
LINE
  5
359
330
1F4
100
AcDbEntity
  8
06-99
100
AcDbLine
 10
314.4151370817349
 20
19.28432860271238
 30
0.0
 11
314.298123833735
 21
19.22192296271237
 31
0.0
  0
LINE
  5
35A
330
1F4
100
AcDbEntity
  8
06-99
100
AcDbLine
 10
314.298123833735
 20
19.22192296271237
 30
0.0
 11
314.1539493417349
 21
19.18107239471232
 31
0.0
  0
LINE
  5
35B
330
1F4
100
AcDbEntity
  8
06-99
100
AcDbLine
 10
314.1539493417349
 20
19.18107239471232
 30
0.0
 11
313.9821894897348
 21
19.15877244671242
 31
0.0
  0
LINE
  5
35C
330
1F4
100
AcDbEntity
  8
06-99
100
AcDbLine
 10
313.9821894897348
 20
19.15877244671242
 30
0.0
 11
313.7824308537349
 21
19.15200797471237
 31
0.0
  0
LINE
  5
35D
330
1F4
100
AcDbEntity
  8
06-99
100
AcDbLine
 10
313.7824308537349
 20
19.15200797471237
 30
0.0
 11
313.448423465735
 21
19.15200797471237
 31
0.0
  0
LINE
  5
35E
330
1F4
100
AcDbEntity
  8
06-99
100
AcDbLine
 10
313.448423465735
 20
19.15200797471237
 30
0.0
 11
313.448423465735
 21
20.50862675471228
 31
0.0
  0
LINE
  5
35F
330
1F4
100
AcDbEntity
  8
06-99
100
AcDbLine
 10
315.3445997697348
 20
17.12736016271231
 30
0.0
 11
314.0239560057348
 21
18.87965422271236
 31
0.0
  0
LINE
  5
360
330
1F4
100
AcDbEntity
  8
06-99
100
AcDbLine
 10
314.0239560057348
 20
18.87965422271236
 30
0.0
 11
314.212373993735
 21
18.8922529627124
 31
0.0
  0
LINE
  5
361
330
1F4
100
AcDbEntity
  8
06-99
100
AcDbLine
 10
314.212373993735
 20
18.8922529627124
 30
0.0
 11
314.3829007017349
 21
18.92942191871231
 31
0.0
  0
LINE
  5
362
330
1F4
100
AcDbEntity
  8
06-99
100
AcDbLine
 10
314.3829007017349
 20
18.92942191871231
 30
0.0
 11
314.5343992137349
 21
18.99023088671242
 31
0.0
  0
LINE
  5
363
330
1F4
100
AcDbEntity
  8
06-99
100
AcDbLine
 10
314.5343992137349
 20
18.99023088671242
 30
0.0
 11
314.6657219217349
 21
19.07375679071236
 31
0.0
  0
LINE
  5
364
330
1F4
100
AcDbEntity
  8
06-99
100
AcDbLine
 10
314.6657219217349
 20
19.07375679071236
 30
0.0
 11
314.7757283457349
 21
19.17905873471233
 31
0.0
  0
LINE
  5
365
330
1F4
100
AcDbEntity
  8
06-99
100
AcDbLine
 10
314.7757283457349
 20
19.17905873471233
 30
0.0
 11
314.8632744417348
 21
19.30521720671237
 31
0.0
  0
LINE
  5
366
330
1F4
100
AcDbEntity
  8
06-99
100
AcDbLine
 10
314.8632744417348
 20
19.30521720671237
 30
0.0
 11
314.9272232937349
 21
19.4512948747124
 31
0.0
  0
LINE
  5
367
330
1F4
100
AcDbEntity
  8
06-99
100
AcDbLine
 10
314.9272232937349
 20
19.4512948747124
 30
0.0
 11
314.9664308577349
 21
19.61636153471238
 31
0.0
  0
LINE
  5
368
330
1F4
100
AcDbEntity
  8
06-99
100
AcDbLine
 10
314.9664308577349
 20
19.61636153471238
 30
0.0
 11
314.9797530897347
 21
19.79949054671237
 31
0.0
  0
LINE
  5
369
330
1F4
100
AcDbEntity
  8
06-99
100
AcDbLine
 10
314.9797530897347
 20
19.79949054671237
 30
0.0
 11
314.969937833735
 21
19.97455422671237
 31
0.0
  0
LINE
  5
36A
330
1F4
100
AcDbEntity
  8
06-99
100
AcDbLine
 10
314.969937833735
 20
19.97455422671237
 30
0.0
 11
314.940481373735
 21
20.13261762671238
 31
0.0
  0
LINE
  5
36B
330
1F4
100
AcDbEntity
  8
06-99
100
AcDbLine
 10
314.940481373735
 20
20.13261762671238
 30
0.0
 11
314.8913551977349
 21
20.27374846271237
 31
0.0
  0
LINE
  5
36C
330
1F4
100
AcDbEntity
  8
06-99
100
AcDbLine
 10
314.8913551977349
 20
20.27374846271237
 30
0.0
 11
314.822541485735
 21
20.39801445071225
 31
0.0
  0
LINE
  5
36D
330
1F4
100
AcDbEntity
  8
06-99
100
AcDbLine
 10
314.822541485735
 20
20.39801445071225
 30
0.0
 11
314.7340152897349
 21
20.50548687071239
 31
0.0
  0
LINE
  5
36E
330
1F4
100
AcDbEntity
  8
06-99
100
AcDbLine
 10
314.7340152897349
 20
20.50548687071239
 30
0.0
 11
314.625751661735
 21
20.59623700271237
 31
0.0
  0
LINE
  5
36F
330
1F4
100
AcDbEntity
  8
06-99
100
AcDbLine
 10
314.625751661735
 20
20.59623700271237
 30
0.0
 11
314.4977292177349
 21
20.67032899871231
 31
0.0
  0
LINE
  5
370
330
1F4
100
AcDbEntity
  8
06-99
100
AcDbLine
 10
314.4977292177349
 20
20.67032899871231
 30
0.0
 11
314.3499230097348
 21
20.72783413871235
 31
0.0
  0
LINE
  5
371
330
1F4
100
AcDbEntity
  8
06-99
100
AcDbLine
 10
314.3499230097348
 20
20.72783413871235
 30
0.0
 11
314.1823116537348
 21
20.76882726671238
 31
0.0
  0
LINE
  5
372
330
1F4
100
AcDbEntity
  8
06-99
100
AcDbLine
 10
314.1823116537348
 20
20.76882726671238
 30
0.0
 11
313.9948737657348
 21
20.79336897071238
 31
0.0
  0
LINE
  5
373
330
1F4
100
AcDbEntity
  8
06-99
100
AcDbLine
 10
313.9948737657348
 20
20.79336897071238
 30
0.0
 11
313.7875808337349
 21
20.80153409471234
 31
0.0
  0
LINE
  5
374
330
1F4
100
AcDbEntity
  8
06-99
100
AcDbLine
 10
313.7875808337349
 20
20.80153409471234
 30
0.0
 11
313.7875808337349
 21
20.80153409471234
 31
0.0
  0
LINE
  5
375
330
1F4
100
AcDbEntity
  8
06-99
100
AcDbLine
 10
313.7875808337349
 20
20.80153409471234
 30
0.0
 11
313.1144053857349
 21
20.80153409471234
 31
0.0
  0
LINE
  5
376
330
1F4
100
AcDbEntity
  8
06-99
100
AcDbLine
 10
313.1144053857349
 20
20.80153409471234
 30
0.0
 11
313.1144053857349
 21
17.12736016271231
 31
0.0
  0
LINE
  5
377
330
1F4
100
AcDbEntity
  8
06-99
100
AcDbLine
 10
313.1144053857349
 20
17.12736016271231
 30
0.0
 11
313.448423465735
 21
17.12736016271231
 31
0.0
  0
LINE
  5
378
330
1F4
100
AcDbEntity
  8
06-99
100
AcDbLine
 10
313.448423465735
 20
17.12736016271231
 30
0.0
 11
313.448423465735
 21
18.87965422271236
 31
0.0
  0
LINE
  5
379
330
1F4
100
AcDbEntity
  8
06-99
100
AcDbLine
 10
313.448423465735
 20
18.87965422271236
 30
0.0
 11
313.6488378777349
 21
18.87965422271236
 31
0.0
  0
LINE
  5
37A
330
1F4
100
AcDbEntity
  8
06-99
100
AcDbLine
 10
313.6488378777349
 20
18.87965422271236
 30
0.0
 11
314.9386387857348
 21
17.12736016271231
 31
0.0
  0
LINE
  5
37B
330
1F4
100
AcDbEntity
  8
06-99
100
AcDbLine
 10
314.9386387857348
 20
17.12736016271231
 30
0.0
 11
315.3445997697348
 21
17.12736016271231
 31
0.0
  0
TEXT
  5
37C
330
1F4
100
AcDbEntity
  8
06-99
100
AcDbText
 10
294.6083578687944
 20
10.63320974709819
 30
0.0
 40
1.4256
  1
GmbH & Co KG
 41
1.199203187251
 51
15.0
  7
ROMAND8
 72
     5
 11
315.0419578687945
 21
10.63320974709819
 31
0.0
100
AcDbText
  0
TEXT
  5
37E
330
1F4
100
AcDbEntity
  8
06-99
100
AcDbText
 10
294.7098146233783
 20
8.391016474674643
 30
0.0
 40
1.4256
  1
72774 Reutlingen
 50
0.5663244663116128
 41
1.087840993687879
 51
15.0
  7
ROMAND8
 72
     5
 11
314.9434146233783
 21
8.591016474674631
 31
0.0
100
AcDbText
  0
TEXT
  5
37F
330
1F4
100
AcDbEntity
  8
08-99
100
AcDbText
 10
282.4141179695723
 20
49.4500923918223
 30
0.0
 40
2.25
  1
Zul. Abw.
 51
15.0
  7
ROMANS8
100
AcDbText
  0
TEXT
  5
380
330
1F4
100
AcDbEntity
  8
08-99
100
AcDbText
 10
332.2099260900184
 20
50.28616492075241
 30
0.0
 40
2.0
  1
Mat. Art.
 51
15.0
  7
ROMANS8
100
AcDbText
  0
TEXT
  5
381
330
1F4
100
AcDbEntity
  8
08-99
100
AcDbText
 10
364.4865307401076
 20
50.40431414472369
 30
0.0
 40
2.0
  1
Oberfläche:
 51
15.0
  7
ROMANS8
100
AcDbText
  0
TEXT
  5
382
330
1F4
100
AcDbEntity
  8
08-99
100
AcDbText
 10
393.7625376083154
 20
42.73764747805694
 30
0.0
 40
2.0
  1
Blech Dicke:
 51
15.0
  7
ROMANS8
100
AcDbText
  0
TEXT
  5
383
330
1F4
100
AcDbEntity
  8
08-99
100
AcDbText
 10
396.4380277982925
 20
50.28616492075252
 30
0.0
 40
2.0
  1
Maßstab:
 51
15.0
  7
ROMANS8
100
AcDbText
  0
LINE
  5
384
330
1F4
100
AcDbEntity
  8
01-99
100
AcDbLine
 10
323.9999997697348
 20
47.88888965037898
 30
0.0
 11
300.9999997697348
 21
47.88888965037898
 31
0.0
  0
LINE
  5
385
330
1F4
100
AcDbEntity
  8
01-99
100
AcDbLine
 10
323.9999997697348
 20
45.33333409471225
 30
0.0
 11
300.9999997697348
 21
45.33333409471225
 31
0.0
  0
LINE
  5
386
330
1F4
100
AcDbEntity
  8
01-99
100
AcDbLine
 10
323.9999997697349
 20
41.50000076137894
 30
0.0
 11
300.9999997697347
 21
41.50000076137897
 31
0.0
  0
ATTDEF
  5
387
330
1F4
100
AcDbEntity
  8
06-99
100
AcDbText
 10
325.495446508912
 20
27.18783945866119
 30
0.0
 40
4.5
  1

 41
0.9
  7
ROMANS8
100
AcDbAttributeDefinition
280
     0
  3
Benennung/Teil
  2
TEILE
 70
     0
280
     0
  0
ATTDEF
  5
388
330
1F4
100
AcDbEntity
  8
06-99
100
AcDbText
 10
325.495446508912
 20
19.89177436492207
 30
0.0
 40
4.5
  1

 41
0.9
  7
ROMANS8
100
AcDbAttributeDefinition
280
     0
  3
Benennung/Teil2
  2
TEILE2
 70
     0
280
     0
  0
ATTDEF
  5
389
330
1F4
100
AcDbEntity
  8
06-99
100
AcDbText
 10
400.3473859814493
 20
46.33333409471231
 30
0.0
 40
3.375
  1

  7
ROMANS8
100
AcDbAttributeDefinition
280
     0
  3
Maßstab
  2
:
 70
     0
280
     0
  0
ATTDEF
  5
38A
330
1F4
100
AcDbEntity
  8
06-99
100
AcDbText
 10
301.9970675691022
 20
28.44168622941026
 30
0.0
 40
2.5
  1

 41
0.9
  7
ROMANS8
100
AcDbAttributeDefinition
280
     0
  3
Name
  2
NAME
 70
     0
280
     0
  0
ATTDEF
  5
38B
330
1F4
100
AcDbEntity
  8
06-99
100
AcDbText
 10
288.4931462216289
 20
28.46123593549021
 30
0.0
 40
2.5
  1

 50
359.9144597696142
 41
0.9542572414211148
  7
ROMANS8
 72
     5
 11
299.7397368901736
 21
28.44444522804565
 31
0.0
100
AcDbAttributeDefinition
280
     0
  3
Datum
  2
DATUM
 70
     0
280
     0
  0
ATTDEF
  5
38C
330
1F4
100
AcDbEntity
  8
06-99
100
AcDbText
 10
387.5063437368931
 20
8.492900561667681
 30
0.0
 40
2.99376
  1

  7
ROMANS8
100
AcDbAttributeDefinition
280
     0
  3
Ident-Nummer
  2
ID.NR
 70
     0
280
     0
  0
ATTDEF
  5
38D
330
1F4
100
AcDbEntity
  8
06-99
100
AcDbText
 10
325.7312660254454
 20
38.66666740582343
 30
0.0
 40
3.0
  1

 41
0.9
  7
ROMANS8
100
AcDbAttributeDefinition
280
     0
  3
Zuschnitts.Länge
  2
LÄNGE
 70
     0
280
     0
  0
ATTDEF
  5
38E
330
1F4
100
AcDbEntity
  8
06-99
100
AcDbText
 10
359.1808046815046
 20
38.6781046318238
 30
0.0
 40
3.0
  1

 41
0.9
  7
ROMANS8
100
AcDbAttributeDefinition
280
     0
  3
Zuschnitts Breite
  2
BREITE
 70
     0
280
     0
  0
ATTDEF
  5
38F
330
1F4
100
AcDbEntity
  8
06-99
100
AcDbText
 10
399.6090918964667
 20
38.66666742804574
 30
0.0
 40
3.09375
  1

  7
ROMANS8
100
AcDbAttributeDefinition
280
     0
  3
Blech.Dicke
  2
1.0
 70
     0
280
     0
  0
ATTDEF
  5
390
330
1F4
100
AcDbEntity
  8
06-99
100
AcDbText
 10
373.1277853711375
 20
46.33333409471243
 30
0.0
 40
3.0
  1

  7
ROMANS8
 72
     1
 11
373.1277853711375
 21
46.33333409471243
 31
0.0
100
AcDbAttributeDefinition
280
     0
  3
Oberfläche
  2
IV
 70
     0
280
     0
  0
ATTDEF
  5
391
330
1F4
100
AcDbEntity
  8
06-99
100
AcDbText
 10
332.2747403058506
 20
46.33333409471219
 30
0.0
 40
3.375
  1
1.4301
  7
ROMANS8
100
AcDbAttributeDefinition
280
     0
  3
Mat.Art
  2
1.4301
 70
     0
280
     0
  0
ATTDEF
  5
392
330
1F4
100
AcDbEntity
  8
06-99
100
AcDbText
 10
355.0006336566149
 20
8.504397365733609
 30
0.0
 40
3.168
  1

 41
0.9
  7
ROMANS8
100
AcDbAttributeDefinition
280
     0
  3
Auftrags Nr.
  2
AUFTRAGS.NR.
 70
     0
280
     0
  0
ATTDEF
  5
393
330
1F4
100
AcDbEntity
  8
06-99
100
AcDbText
 10
325.4999997697348
 20
8.500000761378998
 30
0.0
 40
3.168
  1

 41
0.9
  7
ROMANS8
100
AcDbAttributeDefinition
280
     0
  3
Sonder-NR,WPS
  2
SONDER-NR
 70
     0
280
     0
  0
ATTDEF
  5
394
330
1F4
100
AcDbEntity
  8
06-99
100
AcDbText
 10
255.4997507647431
 20
7.601810830638839
 30
0.0
 40
1.5
  1

 41
0.9
  7
ROMANS8
100
AcDbAttributeDefinition
280
     0
  3
ERSETZT.Durch
  2
ERSETZT.DURCH
 70
     0
280
     0
  0
ATTDEF
  5
395
330
1F4
100
AcDbEntity
  8
06-99
100
AcDbText
 10
230.4994675499334
 20
7.597457159251405
 30
0.0
 40
1.5
  1

 41
0.9
  7
ROMANS8
100
AcDbAttributeDefinition
280
     0
  3
ERSETZT.Für
  2
ERSETZT.FÜR
 70
     0
280
     0
  0
ATTDEF
  5
396
330
1F4
100
AcDbEntity
  8
06-99
100
AcDbText
 10
309.0037152733153
 20
48.66851190138698
 30
0.0
 40
1.287
  1
DIN A3
  7
ROMANS8
 72
     1
 11
312.2518581304581
 21
48.66851190138698
 31
0.0
100
AcDbAttributeDefinition
280
     0
  3
Format
  2
FORMAT
 70
     0
280
     0
  0
ATTDEF
  5
397
330
1F4
100
AcDbEntity
  8
06-99
100
AcDbText
 10
304.9914283411633
 20
38.39666742804565
 30
0.0
 40
2.34
  1
DIN 2768
  7
ROMANS8
 72
     1
 11
313.0142854840205
 21
38.39666742804565
 31
0.0
100
AcDbAttributeDefinition
280
     0
  3
Norm / Kanten
  2
NORM2
 70
     0
280
     0
  0
ATTDEF
  5
398
330
1F4
100
AcDbEntity
  8
06-99
100
AcDbText
 10
301.8157140554491
 20
42.23000076137895
 30
0.0
 40
2.34
  1
DIN 6930-M
  7
ROMANS8
 72
     1
 11
312.5128569125919
 21
42.23000076137895
 31
0.0
100
AcDbAttributeDefinition
280
     0
  3
Norm / Fräsen
  2
NORM1
 70
     0
280
     0
  0
ENDBLK
  5
399
330
1F4
100
AcDbEntity
  8
0
100
AcDbBlockEnd
  0
BLOCK
  5
18F
330
18C
100
AcDbEntity
  8
0
100
AcDbBlockBegin
  2
aaaaWagner
 70
     0
 10
0.0
 20
0.0
 30
0.0
  3
aaaaWagner
  1

  0
LWPOLYLINE
  5
190
330
18C
100
AcDbEntity
  8
02TNR-01
100
AcDbPolyline
 90
      133
 70
     1
 43
0.0135
 10
2.64276749999999
 20
8.613321999999925
 10
2.947701000000051
 20
8.879334999999969
 10
2.838868499999989
 20
9.054852999999866
 10
2.714389500000038
 20
9.213374499999986
 10
2.57469600000013
 20
9.35495800000001
 10
2.420237999999926
 20
9.479670999999882
 10
2.25144750000004
 20
9.587562999999931
 10
2.068760999999994
 20
9.678692499999897
 10
1.872623999999973
 20
9.753126999999949
 10
1.663468500000135
 20
9.810915999999906
 10
1.441735500000049
 20
9.852118000000018
 10
1.20786600000008
 20
9.876800499999944
 10
0.9622965000000931
 20
9.885012999999958
 10
0.759108000000083
 20
9.8773584999999
 10
0.5624669999999697
 20
9.854727999999909
 10
0.372792000000004
 20
9.817611999999996
 10
0.1905060000001413
 20
9.766509999999925
 10
0.0160275000000638
 20
9.701921499999969
 10
-0.1502339999999549
 20
9.6243414999999
 10
-0.3078464999999824
 20
9.534264999999891
 10
-0.4564004999999725
 20
9.432186999999885
 10
-0.5954774999999018
 20
9.318602499999997
 10
-0.7246499999999969
 20
9.194015499999977
 10
-0.8435129999999162
 20
9.058911999999963
 10
-0.9516390000000001
 20
8.913800499999979
 10
-1.048609499999884
 20
8.759166999999933
 10
-1.134010499999931
 20
8.595510999999987
 10
-1.207418999999958
 20
8.42332749999997
 10
-1.268420999999875
 20
8.243120499999918
 10
-1.316597999999885
 20
8.05537599999991
 10
-1.351522499999987
 20
7.860597999999868
 10
-1.372789499999953
 20
7.659276999999974
 10
-1.379966999999965
 20
7.451912499999991
 10
-1.372879499999953
 20
7.238396500000021
 10
-1.351855499999942
 20
7.032165999999961
 10
-1.317273
 20
6.833621499999935
 10
-1.269509999999968
 20
6.643158999999855
 10
-1.208939999999984
 20
6.46117449999997
 10
-1.135936499999957
 20
6.288063999999963
 10
-1.050873000000024
 20
6.124218999999925
 10
-0.9541274999999131
 20
5.970039999999926
 10
-0.8460734999999885
 20
5.825918499999943
 10
-0.7270800000000009
 20
5.692254999999931
 10
-0.5975339999999961
 20
5.569440999999983
 10
-0.4577954999999747
 20
5.457876999999882
 10
-0.308251499999983
 20
5.357954499999948
 10
-0.1492709999999988
 20
5.270069499999976
 10
0.0187680000000228
 20
5.194622499999979
 10
0.1954964999999902
 20
5.132004999999992
 10
0.3805320000001302
 20
5.082613000000037
 10
0.5735100000000557
 20
5.046842500000025
 10
0.7740435000000617
 20
5.025089499999921
 10
0.9817679999999882
 20
5.017749999999921
 10
1.188835500000095
 20
5.024382999999943
 10
1.387488000000075
 20
5.044128999999998
 10
1.577487000000019
 20
5.076744999999959
 10
1.758594000000016
 20
5.121987999999987
 10
1.930574999999976
 20
5.179619500000001
 10
2.093186999999943
 20
5.24940099999992
 10
2.246196000000054
 20
5.331089499999961
 10
2.389354500000081
 20
5.424450999999976
 10
2.522437500000023
 20
5.529242499999895
 10
2.645193000000062
 20
5.645216499999946
 10
2.757391500000039
 20
5.772147999999901
 10
2.858794500000044
 20
5.909780499999897
 10
2.949159000000122
 20
6.057888999999931
 10
3.028246500000022
 20
6.21622149999996
 10
3.095823000000109
 20
6.384543999999891
 10
3.151650000000017
 20
6.562613499999883
 10
3.195480000000088
 20
6.750191499999914
 10
3.227088000000094
 20
6.947039499999959
 10
3.246226500000034
 20
7.152918999999883
 10
3.252657000000112
 20
7.367582499999912
 10
3.252657000000112
 20
7.367582499999912
 10
3.252657000000112
 20
7.432458999999994
 10
1.189389000000005
 20
7.432458999999994
 10
1.189389000000005
 20
7.069110999999907
 10
2.79199200000005
 20
7.069110999999907
 10
2.778433500000005
 20
6.863879499999995
 10
2.743922999999995
 20
6.668619999999918
 10
2.689351500000043
 20
6.48416949999995
 10
2.61561000000006
 20
6.311369499999955
 10
2.523598500000048
 20
6.151047999999946
 10
2.414212500000076
 20
6.004055499999935
 10
2.288334000000077
 20
5.871215499999948
 10
2.146867500000098
 20
5.753378499999939
 10
1.99070400000005
 20
5.651367999999933
 10
1.820734500000071
 20
5.566030000000012
 10
1.637854500000003
 20
5.49819699999989
 10
1.442959500000142
 20
5.448710500000004
 10
1.236940500000059
 20
5.418402999999898
 10
1.020693000000051
 20
5.408115999999949
 10
0.8127885000001242
 20
5.418155499999897
 10
0.6129210000000285
 20
5.447679999999877
 10
0.4218375000000379
 20
5.495793999999932
 10
0.2402805000000399
 20
5.561606499999925
 10
0.0689835000000585
 20
5.644221999999899
 10
-0.0913064999998596
 20
5.742744999999956
 10
-0.2398514999999861
 20
5.856288999999947
 10
-0.3759045000000469
 20
5.983954000000039
 10
-0.4987274999999727
 20
6.124848999999926
 10
-0.6075824999999213
 20
6.27808299999998
 10
-0.7017224999999599
 20
6.442755999999917
 10
-0.7804095000000189
 20
6.617981499999928
 10
-0.8429009999998697
 20
6.802863999999885
 10
-0.8884544999999661
 20
6.996503500000017
 10
-0.9163320000000112
 20
7.19801799999999
 10
-0.9257864999999583
 20
7.406507499999861
 10
-0.9177224999998543
 20
7.619100999999943
 10
-0.8938544999999749
 20
7.823661999999899
 10
-0.854686499999957
 20
8.019560499999897
 10
-0.8007179999999607
 20
8.206170999999926
 10
-0.7324439999999868
 20
8.382867999999916
 10
-0.6503685000000133
 20
8.549030499999958
 10
-0.5549909999999727
 20
8.704024000000003
 10
-0.446806499999866
 20
8.847231999999962
 10
-0.3263190000000122
 20
8.978020000000014
 10
-0.194018999999912
 20
9.095766999999909
 10
-0.0504194999998617
 20
9.199842999999987
 10
0.1039935000001151
 20
9.289626999999995
 10
0.2687114999999949
 20
9.364488999999935
 10
0.443239500000118
 20
9.423803499999962
 10
0.6270825000000287
 20
9.466944999999896
 10
0.8197320000000445
 20
9.493292499999938
 10
1.020693000000051
 20
9.50221149999993
 10
1.245067500000004
 20
9.490952499999934
 10
1.45940250000001
 20
9.457319499999925
 10
1.663270500000066
 20
9.401523999999994
 10
1.85624400000006
 20
9.323777499999891
 10
2.037895500000104
 20
9.224300499999912
 10
2.207802000000015
 20
9.10329999999999
 10
2.365536000000133
 20
8.960996499999964
 10
2.510665500000072
 20
8.797596999999939
  0
LWPOLYLINE
  5
193
330
18C
100
AcDbEntity
  8
02TNR-01
100
AcDbPolyline
 90
       12
 70
     1
 43
0.0135
 10
-1.117729499999995
 20
0.25
 10
1.260133500000165
 20
0.25
 10
1.443639000000075
 20
1.203113499999972
 10
0.3038295000001199
 20
1.203113499999972
 10
0.3747675000000754
 20
1.571582499999863
 10
1.381917000000157
 20
1.571582499999863
 10
1.555004999999937
 20
2.470641999999884
 10
0.5478555000000825
 20
2.470641999999884
 10
0.6131415000000971
 20
2.809649499999864
 10
1.723471500000073
 20
2.809649499999864
 10
1.906963500000074
 20
3.762744999999995
 10
-0.4414199999999937
 20
3.762744999999995
  0
LWPOLYLINE
  5
194
330
18C
100
AcDbEntity
  8
02TNR-01
100
AcDbPolyline
 90
        4
 70
     1
 43
0.0135
 10
-18.58033499999988
 20
1.042440999999939
 10
-2.851485000000025
 20
1.042440999999939
 10
-3.007518000000004
 20
0.2490954999999531
 10
-18.73636349999992
 20
0.2490954999999531
  0
SOLID
  5
195
330
18C
100
AcDbEntity
  8
02TNR-01
100
AcDbTrace
 10
-18.58033499999988
 20
1.042440999999939
 30
0.0
 11
-2.851485000000025
 21
1.042440999999939
 31
0.0
 12
-18.73636349999992
 22
0.2490954999999531
 32
0.0
 13
-3.007518000000004
 23
0.2490954999999531
 33
0.0
  0
LWPOLYLINE
  5
196
330
18C
100
AcDbEntity
  8
02TNR-01
100
AcDbPolyline
 90
       10
 70
     1
 43
0.0135
 10
-11.77856699999995
 20
5.017749999999921
 10
-10.54581449999989
 20
8.898806499999977
 10
-9.261136499999906
 20
5.017749999999921
 10
-7.710440999999946
 20
9.781211499999926
 10
-8.145149999999944
 20
9.781211499999926
 10
-9.261136499999906
 20
6.108860499999877
 10
-10.54581449999989
 20
9.962876499999879
 10
-11.77856699999995
 20
6.076419999999984
 10
-12.93997200000001
 20
9.781211499999926
 10
-13.38116999999988
 20
9.781211499999926
  0
LWPOLYLINE
  5
197
330
18C
100
AcDbEntity
  8
02TNR-01
100
AcDbPolyline
 90
        3
 70
     1
 43
0.0135
 10
-5.492489999999861
 20
7.075595499999963
 10
-4.668476999999938
 20
9.093458499999883
 10
-3.876899999999977
 20
7.075595499999963
  0
LWPOLYLINE
  5
198
330
18C
100
AcDbEntity
  8
02TNR-01
100
AcDbPolyline
 90
        7
 70
     1
 43
0.0135
 10
-6.68091749999985
 20
5.142102999999906
 10
-6.251608499999974
 20
5.142102999999906
 10
-5.63523449999991
 20
6.712265499999944
 10
-3.740662499999871
 20
6.712265499999944
 10
-3.150221999999985
 20
5.142102999999906
 10
-2.689556999999922
 20
5.142102999999906
 10
-4.642520999999987
 20
9.962876499999879
  0
LWPOLYLINE
  5
199
330
18C
100
AcDbEntity
  8
02TNR-01
100
AcDbPolyline
 90
        8
 70
     1
 43
0.0135
 10
9.602989500000035
 20
0.25
 10
10.95977550000009
 20
0.25
 10
11.15299200000004
 20
0.6921699999999192
 10
12.10610550000001
 20
0.6921699999999192
 10
12.13397400000008
 20
0.25
 10
13.48994549999998
 20
0.25
 10
12.93802049999999
 20
3.762744999999995
 10
11.53292250000004
 20
3.762744999999995
  0
LWPOLYLINE
  5
19A
330
18C
100
AcDbEntity
  8
02TNR-01
100
AcDbPolyline
 90
       34
 70
     1
 43
0.0135
 10
5.958610500000077
 20
2.028489999999919
 10
6.002832000000012
 20
2.028489999999919
 10
5.984831999999983
 20
1.808313999999995
 10
5.984296500000141
 20
1.616523999999913
 10
5.989471500000036
 20
1.448755000000005
 10
6.023982000000046
 20
0.25
 10
7.124483999999938
 20
0.25
 10
8.827589999999986
 20
3.762744999999995
 10
7.560061500000074
 20
3.762744999999995
 10
6.986964000000057
 20
2.215172499999937
 10
6.923703000000045
 20
2.037768999999912
 10
6.849245999999993
 20
1.807953999999881
 10
6.77498700000001
 20
1.522456000000033
 10
6.745525500000098
 20
1.522456000000033
 10
6.772957500000075
 20
1.771742499999959
 10
6.778713000000038
 20
1.970808999999917
 10
6.777399000000059
 20
2.121842499999956
 10
6.759236999999984
 20
3.762744999999995
 10
5.870010000000092
 20
3.762744999999995
 10
5.220007500000065
 20
2.121842499999956
 10
5.160535500000037
 20
1.970808999999917
 10
5.089633500000104
 20
1.771742499999959
 10
5.021067000000016
 20
1.522456000000033
 10
4.991605499999991
 20
1.522456000000033
 10
5.027281500000071
 20
1.807953999999881
 10
5.041321500000094
 20
2.037768999999912
 10
5.046366000000034
 20
2.215172499999937
 10
5.069185500000003
 20
3.762744999999995
 10
3.800842500000044
 20
3.762744999999995
 10
4.152144000000021
 20
0.25
 10
5.252641499999981
 20
0.25
 10
5.748739500000056
 20
1.448755000000005
 10
5.818530000000009
 20
1.616523999999913
 10
5.891844000000105
 20
1.808313999999995
  0
LWPOLYLINE
  5
19B
330
18C
100
AcDbEntity
  8
02TNR-01
100
AcDbPolyline
 90
       10
 70
     1
 43
0.0135
 10
11.52503850000005
 20
1.527360999999928
 10
11.7097500000001
 20
1.925309499999912
 10
11.80413300000009
 20
2.132930500000043
 10
11.9064585000001
 20
2.387495499999999
 10
12.00074700000004
 20
2.696654500000022
 10
12.02531700000008
 20
2.696654500000022
 10
12.00054
 20
2.387495499999999
 10
12.00484200000005
 20
2.132930500000043
 10
12.0192780000001
 20
1.925309499999912
 10
12.05072400000006
 20
1.527360999999928
  0
LWPOLYLINE
  5
19C
330
18C
100
AcDbEntity
  8
02TNR-01
100
AcDbPolyline
 90
       23
 70
     1
 43
0.0135
 10
15.4829145000001
 20
0.25
 10
16.72096350000004
 20
0.25
 10
16.9441905000001
 20
1.409456499999919
 10
17.33508749999998
 20
0.25
 10
18.75
 20
0.25
 10
18.08690700000011
 20
1.679672499999924
 10
18.28812000000016
 20
1.72852899999998
 10
18.47154450000005
 20
1.823235999999951
 10
18.63271650000001
 20
1.959707499999922
 10
18.76716300000009
 20
2.133843999999953
 10
18.87040650000006
 20
2.341550499999925
 10
18.93797400000005
 20
2.578731999999945
 10
18.96510450000016
 20
2.794542999999976
 10
18.9596775
 20
2.99051350000002
 10
18.92170650000003
 20
3.165968499999962
 10
18.85120500000005
 20
3.320228499999871
 10
18.74819550000006
 20
3.452618499999971
 10
18.61269600000003
 20
3.562454499999944
 10
18.44471550000003
 20
3.649065999999947
 10
18.244281
 20
3.711769000000003
 10
18.0113970000001
 20
3.74988849999994
 10
17.74609500000008
 20
3.762744999999995
 10
16.15922399999999
 20
3.762744999999995
  0
LWPOLYLINE
  5
19D
330
18C
100
AcDbEntity
  8
02TNR-01
100
AcDbPolyline
 90
        9
 70
     1
 43
0.0135
 10
17.22322650000001
 20
2.85877599999992
 10
17.41975500000012
 20
2.85877599999992
 10
17.61757050000005
 20
2.816376999999931
 10
17.71967549999999
 20
2.696460999999999
 10
17.72598450000009
 20
2.509958499999925
 10
17.64725700000008
 20
2.32599399999998
 10
17.4988065
 20
2.210816499999964
 10
17.28734250000002
 20
2.1709689999999
 10
17.09081400000002
 20
2.1709689999999
  0
LWPOLYLINE
  5
19E
330
18C
100
AcDbEntity
  8
02TNR-01
100
AcDbPolyline
 90
       12
 70
     1
 43
0.0135
 10
11.24410800000009
 20
5.142102999999906
 10
13.54094850000001
 20
5.142102999999906
 10
13.54094850000001
 20
5.537891499999943
 10
11.66584800000009
 20
5.537891499999943
 10
11.66584800000009
 20
7.536260500000025
 10
13.54094850000001
 20
7.536260500000025
 10
13.54094850000001
 20
7.932049000000006
 10
11.66584800000009
 20
7.932049000000006
 10
11.66584800000009
 20
9.385422999999946
 10
13.54094850000001
 20
9.385422999999946
 10
13.54094850000001
 20
9.781211499999926
 10
11.24410800000009
 20
9.781211499999926
  0
LWPOLYLINE
  5
19F
330
18C
100
AcDbEntity
  8
02TNR-01
100
AcDbPolyline
 90
        8
 70
     1
 43
0.0135
 10
5.275956000000064
 20
5.142102999999906
 10
5.697700499999996
 20
5.142102999999906
 10
5.697700499999996
 20
8.892321999999921
 10
8.954796000000101
 20
5.004762999999968
 10
8.954796000000101
 20
9.781211499999926
 10
8.53306950000001
 20
9.781211499999926
 10
8.53306950000001
 20
6.095873499999925
 10
5.275956000000064
 20
9.975845499999877
  0
LWPOLYLINE
  5
1A0
330
18C
100
AcDbEntity
  8
02TNR-01
100
AcDbPolyline
 90
       19
 70
     1
 43
0.0135
 10
16.12873200000001
 20
9.411378999999897
 10
16.55045849999999
 20
9.411378999999897
 10
16.80826800000011
 20
9.400875999999925
 10
17.02775099999996
 20
9.367481499999939
 10
17.21013600000015
 20
9.308387499999867
 10
17.35662900000011
 20
9.22078149999993
 10
17.46844950000002
 20
9.101850999999896
 10
17.5468125000001
 20
8.94878349999999
 10
17.59294199999999
 20
8.758757499999887
 10
17.60804850000011
 20
8.528973999999948
 10
17.59214550000013
 20
8.303276499999924
 10
17.54407650000007
 20
8.120009499999923
 10
17.46331950000012
 20
7.975366000000008
 10
17.34933000000001
 20
7.865547999999989
 10
17.20158600000002
 20
7.786752999999976
 10
17.01954750000004
 20
7.735173999999915
 10
16.80267900000001
 20
7.707017500000006
 10
16.55045849999999
 20
7.698476499999969
 10
16.12873200000001
 20
7.698476499999969
  0
LWPOLYLINE
  5
1A1
330
18C
100
AcDbEntity
  8
02TNR-01
100
AcDbPolyline
 90
       29
 70
     1
 43
0.0135
 10
18.52289400000006
 20
5.142102999999906
 10
16.85541450000005
 20
7.354595499999959
 10
17.09331600000007
 20
7.370502999999985
 10
17.30862750000006
 20
7.417433499999901
 10
17.49991350000005
 20
7.494212500000003
 10
17.66572500000006
 20
7.599674499999991
 10
17.80462199999999
 20
7.732631499999911
 10
17.91516000000001
 20
7.891922499999964
 10
17.99590350000005
 20
8.076364000000012
 10
18.04540800000006
 20
8.284781500000008
 10
18.062229
 20
8.51600499999995
 10
18.04983600000014
 20
8.737044999999966
 10
18.01264350000008
 20
8.936619999999891
 10
17.95061550000002
 20
9.114815499999963
 10
17.86372950000009
 20
9.271716999999853
 10
17.75195399999995
 20
9.407414499999958
 10
17.6152575000001
 20
9.521997999999939
 10
17.45361300000002
 20
9.615548499999931
 10
17.26698900000008
 20
9.688155999999935
 10
17.05535850000001
 20
9.739914999999996
 10
16.81869449999999
 20
9.770901999999978
 10
16.55696100000011
 20
9.781211499999926
 10
16.55696100000011
 20
9.781211499999926
 10
15.70699200000001
 20
9.781211499999926
 10
15.70699200000001
 20
5.142102999999906
 10
16.12873200000001
 20
5.142102999999906
 10
16.12873200000001
 20
7.354595499999959
 10
16.3817805000001
 20
7.354595499999959
 10
18.0103170000001
 20
5.142102999999906
  0
LWPOLYLINE
  5
1A2
330
18C
100
AcDbEntity
  8
02TNR-01
  6
VERDECKT
100
AcDbPolyline
 90
        4
 70
     1
 43
0.0
 10
-19.0
 20
0.0
 10
19.0
 20
0.0
 10
19.0
 20
10.0
 10
-19.0
 20
10.0
  0
ENDBLK
  5
1A3
330
18C
100
AcDbEntity
  8
0
100
AcDbBlockEnd
  0
BLOCK
  5
99
330
98
100
AcDbEntity
  8
0
100
AcDbBlockBegin
  2
Innendeckel02-d
 70
     0
 10
0.0
 20
0.0
 30
0.0
  3
Innendeckel02-d
  1

  0
LINE
  5
9A
330
98
100
AcDbEntity
  8
0
100
AcDbLine
 10
131.5
 20
105.1999999999993
 30
0.0
 11
37.07106799999929
 21
105.1999999999993
 31
0.0
  0
ARC
  5
9B
330
98
100
AcDbEntity
  8
0
100
AcDbCircle
 10
37.07106799999929
 20
100.1999999999993
 30
0.0
 40
5.0
100
AcDbArc
 50
90.0
 51
134.9999999999954
  0
LINE
  5
9C
330
98
100
AcDbEntity
  8
0
100
AcDbLine
 10
33.53553399999964
 20
103.7355339999999
 30
0.0
 11
3.535533999999643
 21
73.73553399999991
 31
0.0
  0
ARC
  5
9D
330
98
100
AcDbEntity
  8
0
100
AcDbCircle
 10
0.0
 20
77.27106800000047
 30
0.0
 40
5.0
100
AcDbArc
 50
225.0000000000046
 51
314.9999999999954
  0
LINE
  5
9E
330
98
100
AcDbEntity
  8
0
100
AcDbLine
 10
-3.535534000000552
 20
73.73553399999991
 30
0.0
 11
-33.53553400000055
 21
103.7355339999999
 31
0.0
  0
ARC
  5
9F
330
98
100
AcDbEntity
  8
0
100
AcDbCircle
 10
-37.0710680000002
 20
100.1999999999993
 30
0.0
 40
5.0
100
AcDbArc
 50
45.0000000000046
 51
90.0
  0
LINE
  5
A0
330
98
100
AcDbEntity
  8
0
100
AcDbLine
 10
-37.0710680000002
 20
105.1999999999993
 30
0.0
 11
-131.5000000000009
 21
105.1999999999993
 31
0.0
  0
LINE
  5
A1
330
98
100
AcDbEntity
  8
03-01
100
AcDbLine
 10
-130.7000000000007
 20
105.1999999999993
 30
0.0
 11
-130.7000000000007
 21
11.19999999999936
 31
0.0
  0
LINE
  5
A2
330
98
100
AcDbEntity
  8
0
100
AcDbLine
 10
-131.5000000000009
 20
105.1999999999993
 30
0.0
 11
-131.5000000000009
 21
11.19999999999936
 31
0.0
  0
LINE
  5
A3
330
98
100
AcDbEntity
  8
0
100
AcDbLine
 10
-131.5000000000009
 20
11.19999999999936
 30
0.0
 11
-130.7000000000007
 21
11.19999999999936
 31
0.0
  0
LINE
  5
A4
330
98
100
AcDbEntity
  8
0
100
AcDbLine
 10
-130.7000000000007
 20
11.19999999999936
 30
0.0
 11
-120.3000000000002
 21
1.000000000000454
 31
0.0
  0
LINE
  5
A5
330
98
100
AcDbEntity
  8
0
100
AcDbLine
 10
-120.3000000000002
 20
1.000000000000454
 30
0.0
 11
-120.3000000000002
 21
-0.0000000000004547
 31
0.0
  0
LINE
  5
A6
330
98
100
AcDbEntity
  8
03-01
100
AcDbLine
 10
-120.3000000000002
 20
0.7999999999997272
 30
0.0
 11
120.3000000000002
 21
0.7999999999997272
 31
0.0
  0
LINE
  5
A7
330
98
100
AcDbEntity
  8
0
100
AcDbLine
 10
-120.3000000000002
 20
0.0000000000004547
 30
0.0
 11
120.3000000000002
 21
-0.0000000000004547
 31
0.0
  0
LINE
  5
A8
330
98
100
AcDbEntity
  8
0
100
AcDbLine
 10
120.3000000000002
 20
-0.0000000000004547
 30
0.0
 11
120.3000000000002
 21
1.000000000000454
 31
0.0
  0
LINE
  5
A9
330
98
100
AcDbEntity
  8
0
100
AcDbLine
 10
120.3000000000002
 20
1.000000000000454
 30
0.0
 11
130.6999999999998
 21
11.19999999999936
 31
0.0
  0
LINE
  5
AA
330
98
100
AcDbEntity
  8
0
100
AcDbLine
 10
130.6999999999998
 20
11.19999999999936
 30
0.0
 11
131.5
 21
11.19999999999936
 31
0.0
  0
LINE
  5
AB
330
98
100
AcDbEntity
  8
03-01
100
AcDbLine
 10
130.6999999999998
 20
11.19999999999936
 30
0.0
 11
130.6999999999998
 21
105.1999999999993
 31
0.0
  0
LINE
  5
AC
330
98
100
AcDbEntity
  8
0
100
AcDbLine
 10
131.5
 20
11.19999999999936
 30
0.0
 11
131.5
 21
105.1999999999993
 31
0.0
  0
ENDBLK
  5
AD
330
98
100
AcDbEntity
  8
0
100
AcDbBlockEnd
  0
BLOCK
  5
3D6
330
3D5
100
AcDbEntity
  8
0
100
AcDbBlockBegin
  2
*D3
 70
     1
 10
0.0
 20
0.0
 30
0.0
  3
*D3
  1

  0
LINE
  5
3D7
330
3D5
100
AcDbEntity
  8
09-01
 62
     4
440
 16777216
370
    -2
100
AcDbLine
 10
145.9726671069129
 20
634.4958441169047
 30
0.0
 11
145.9726671069129
 21
659.7615247609464
 31
0.0
  0
LINE
  5
3D8
330
3D5
100
AcDbEntity
  8
09-01
 62
     4
440
 16777216
370
    -2
100
AcDbLine
 10
410.5726671069133
 20
634.4958441169047
 30
0.0
 11
410.5726671069133
 21
659.7615247609464
 31
0.0
  0
LINE
  5
3D9
330
3D5
100
AcDbEntity
  8
09-01
 62
     4
440
 16777216
370
    -2
100
AcDbLine
 10
150.9726671069129
 20
657.7615247609465
 30
0.0
 11
405.5726671069132
 21
657.7615247609465
 31
0.0
  0
SOLID
  5
3DA
330
3D5
100
AcDbEntity
  8
09-01
 62
     4
440
 16777216
100
AcDbTrace
 10
150.9726671069129
 20
658.5948580942798
 30
0.0
 11
150.9726671069129
 21
656.9281914276131
 31
0.0
 12
145.9726671069129
 22
657.7615247609465
 32
0.0
 13
145.9726671069129
 23
657.7615247609465
 33
0.0
  0
SOLID
  5
3DB
330
3D5
100
AcDbEntity
  8
09-01
 62
     4
440
 16777216
100
AcDbTrace
 10
405.5726671069132
 20
658.5948580942798
 30
0.0
 11
405.5726671069132
 21
656.9281914276131
 31
0.0
 12
410.5726671069133
 22
657.7615247609465
 32
0.0
 13
410.5726671069133
 23
657.7615247609465
 33
0.0
  0
MTEXT
  5
3DC
330
3D5
100
AcDbEntity
  8
09-01
 62
     1
440
 16777216
100
AcDbMText
 10
278.2726671069131
 20
662.2615247609465
 30
0.0
 40
5.0
 41
0.0
 46
0.0
 71
     5
 72
     1
  1
264.6
 73
     1
 44
1.0
  0
POINT
  5
3DD
330
3D5
100
AcDbEntity
  8
Defpoints
 62
     0
440
 16777216
100
AcDbPoint
 10
145.9726671069129
 20
632.4958441169046
 30
0.0
  0
POINT
  5
3DE
330
3D5
100
AcDbEntity
  8
Defpoints
 62
     0
440
 16777216
100
AcDbPoint
 10
410.5726671069133
 20
632.4958441169046
 30
0.0
  0
POINT
  5
3DF
330
3D5
100
AcDbEntity
  8
Defpoints
 62
     0
440
 16777216
100
AcDbPoint
 10
410.5726671069133
 20
657.7615247609465
 30
0.0
  0
ENDBLK
  5
3E0
330
3D5
100
AcDbEntity
  8
0
100
AcDbBlockEnd
  0
BLOCK
  5
3C9
330
3C8
100
AcDbEntity
  8
0
100
AcDbBlockBegin
  2
*D4
 70
     1
 10
0.0
 20
0.0
 30
0.0
  3
*D4
  1

  0
LINE
  5
3CA
330
3C8
100
AcDbEntity
  8
09-01
 62
     4
440
 16777216
370
    -2
100
AcDbLine
 10
544.0748169839507
 20
634.4958441169047
 30
0.0
 11
544.0748169839507
 21
647.0407485338937
 31
0.0
  0
LINE
  5
3CB
330
3C8
100
AcDbEntity
  8
09-01
 62
     4
440
 16777216
370
    -2
100
AcDbLine
 10
664.0748169839508
 20
634.4958441169056
 30
0.0
 11
664.0748169839508
 21
647.0407485338937
 31
0.0
  0
LINE
  5
3CC
330
3C8
100
AcDbEntity
  8
09-01
 62
     4
440
 16777216
370
    -2
100
AcDbLine
 10
549.0748169839507
 20
645.0407485338937
 30
0.0
 11
659.0748169839507
 21
645.0407485338937
 31
0.0
  0
SOLID
  5
3CD
330
3C8
100
AcDbEntity
  8
09-01
 62
     4
440
 16777216
100
AcDbTrace
 10
549.0748169839507
 20
645.8740818672271
 30
0.0
 11
549.0748169839507
 21
644.2074152005603
 31
0.0
 12
544.0748169839507
 22
645.0407485338937
 32
0.0
 13
544.0748169839507
 23
645.0407485338937
 33
0.0
  0
SOLID
  5
3CE
330
3C8
100
AcDbEntity
  8
09-01
 62
     4
440
 16777216
100
AcDbTrace
 10
659.0748169839507
 20
645.8740818672271
 30
0.0
 11
659.0748169839507
 21
644.2074152005603
 31
0.0
 12
664.0748169839508
 22
645.0407485338937
 32
0.0
 13
664.0748169839508
 23
645.0407485338937
 33
0.0
  0
MTEXT
  5
3CF
330
3C8
100
AcDbEntity
  8
09-01
 62
     1
440
 16777216
100
AcDbMText
 10
604.0748169839507
 20
649.5407485338937
 30
0.0
 40
5.0
 41
0.0
 46
0.0
 71
     5
 72
     1
  1
120
 73
     1
 44
1.0
  0
POINT
  5
3D0
330
3C8
100
AcDbEntity
  8
Defpoints
 62
     0
440
 16777216
100
AcDbPoint
 10
544.0748169839507
 20
632.4958441169046
 30
0.0
  0
POINT
  5
3D1
330
3C8
100
AcDbEntity
  8
Defpoints
 62
     0
440
 16777216
100
AcDbPoint
 10
664.0748169839508
 20
632.4958441169055
 30
0.0
  0
POINT
  5
3D2
330
3C8
100
AcDbEntity
  8
Defpoints
 62
     0
440
 16777216
100
AcDbPoint
 10
664.0748169839508
 20
645.0407485338937
 30
0.0
  0
ENDBLK
  5
3D3
330
3C8
100
AcDbEntity
  8
0
100
AcDbBlockEnd
  0
BLOCK
  5
3B9
330
3B8
100
AcDbEntity
  8
0
100
AcDbBlockBegin
  2
*D5
 70
     1
 10
0.0
 20
0.0
 30
0.0
  3
*D5
  1

  0
LINE
  5
3BA
330
3B8
100
AcDbEntity
  8
09-01
 62
     4
440
 16777216
370
    -2
100
AcDbLine
 10
395.5726671069133
 20
320.2213050887313
 30
0.0
 11
432.4210544112092
 21
320.2213050887313
 31
0.0
  0
LINE
  5
3BB
330
3B8
100
AcDbEntity
  8
09-01
 62
     4
440
 16777216
370
    -2
100
AcDbLine
 10
412.5726671069132
 20
632.4958441169046
 30
0.0
 11
432.4210544112093
 21
632.4958441169046
 31
0.0
  0
LINE
  5
3BC
330
3B8
100
AcDbEntity
  8
09-01
 62
     4
440
 16777216
370
    -2
100
AcDbLine
 10
430.4210544112092
 20
325.2213050887312
 30
0.0
 11
430.4210544112093
 21
627.4958441169046
 31
0.0
  0
SOLID
  5
3BD
330
3B8
100
AcDbEntity
  8
09-01
 62
     4
440
 16777216
100
AcDbTrace
 10
429.5877210778759
 20
325.2213050887312
 30
0.0
 11
431.2543877445425
 21
325.2213050887312
 31
0.0
 12
430.4210544112092
 22
320.2213050887313
 32
0.0
 13
430.4210544112092
 23
320.2213050887313
 33
0.0
  0
SOLID
  5
3BE
330
3B8
100
AcDbEntity
  8
09-01
 62
     4
440
 16777216
100
AcDbTrace
 10
429.5877210778759
 20
627.4958441169046
 30
0.0
 11
431.2543877445426
 21
627.4958441169046
 31
0.0
 12
430.4210544112093
 22
632.4958441169046
 32
0.0
 13
430.4210544112093
 23
632.4958441169046
 33
0.0
  0
MTEXT
  5
3BF
330
3B8
100
AcDbEntity
  8
09-01
 62
     1
440
 16777216
100
AcDbMText
 10
425.9210544112092
 20
476.358574602818
 30
0.0
 40
5.0
 41
0.0
 46
0.0
 71
     5
 72
     1
  1
312.3
 11
0.0000000000000001
 21
1.0
 31
0.0
 73
     1
 44
1.0
  0
POINT
  5
3C0
330
3B8
100
AcDbEntity
  8
Defpoints
 62
     0
440
 16777216
100
AcDbPoint
 10
393.5726671069133
 20
320.2213050887313
 30
0.0
  0
POINT
  5
3C1
330
3B8
100
AcDbEntity
  8
Defpoints
 62
     0
440
 16777216
100
AcDbPoint
 10
410.5726671069133
 20
632.4958441169046
 30
0.0
  0
POINT
  5
3C2
330
3B8
100
AcDbEntity
  8
Defpoints
 62
     0
440
 16777216
100
AcDbPoint
 10
430.4210544112093
 20
632.4958441169046
 30
0.0
  0
ENDBLK
  5
3C3
330
3B8
100
AcDbEntity
  8
0
100
AcDbBlockEnd
  0
BLOCK
  5
3AF
330
3AE
100
AcDbEntity
  8
0
100
AcDbBlockBegin
  2
*D6
 70
     1
 10
0.0
 20
0.0
 30
0.0
  3
*D6
  1

  0
LINE
  5
3B0
330
3AE
100
AcDbEntity
  8
09-01
 62
     4
440
 16777216
370
    -2
100
AcDbLine
 10
131.2290992460871
 20
127.2301066209631
 30
0.0
 11
145.2036665926816
 21
141.3039326319171
 31
0.0
  0
MTEXT
  5
3B1
330
3AE
100
AcDbEntity
  8
09-01
 62
     1
440
 16777216
100
AcDbMText
 10
133.2616618059837
 20
135.6637080986564
 30
0.0
 40
5.0
 41
0.0
 46
0.0
 71
     5
 72
     1
  1
R10
 11
0.7046000342820734
 21
0.7096046728212132
 31
0.0
 73
     1
 44
1.0
  0
LINE
  5
3B2
330
3AE
100
AcDbEntity
  8
09-01
 62
     4
440
 16777216
370
    -2
100
AcDbLine
 10
155.7726671069126
 20
151.9480027242352
 30
0.0
 11
148.726666764092
 21
144.8519559960232
 31
0.0
  0
SOLID
  5
3B3
330
3AE
100
AcDbEntity
  8
09-01
 62
     4
440
 16777216
100
AcDbTrace
 10
144.6123293653306
 20
141.8910993271522
 30
0.0
 11
145.7950038200326
 21
140.716765936682
 31
0.0
 12
148.726666764092
 22
144.8519559960232
 32
0.0
 13
148.726666764092
 23
144.8519559960232
 33
0.0
  0
POINT
  5
3B4
330
3AE
100
AcDbEntity
  8
Defpoints
 62
     0
440
 16777216
100
AcDbPoint
 10
148.726666764092
 20
144.8519559960232
 30
0.0
  0
POINT
  5
3B5
330
3AE
100
AcDbEntity
  8
Defpoints
 62
     0
440
 16777216
100
AcDbPoint
 10
155.7726671069126
 20
151.9480027242352
 30
0.0
  0
ENDBLK
  5
3B6
330
3AE
100
AcDbEntity
  8
0
100
AcDbBlockEnd
  0
BLOCK
  5
1DA
330
1D9
100
AcDbEntity
  8
0
100
AcDbBlockBegin
  2
*D7
 70
     1
 10
0.0
 20
0.0
 30
0.0
  3
*D7
  1

  0
LINE
  5
1DB
330
1D9
100
AcDbEntity
  8
09-01
 62
     4
440
 16777216
370
    -2
100
AcDbLine
 10
143.9726671069129
 20
632.4958441169046
 30
0.0
 11
116.7555311579622
 21
632.4958441169046
 31
0.0
  0
LINE
  5
1DC
330
1D9
100
AcDbEntity
  8
09-01
 62
     4
440
 16777216
370
    -2
100
AcDbLine
 10
143.9726671069129
 20
334.4958441169056
 30
0.0
 11
116.7555311579622
 21
334.4958441169056
 31
0.0
  0
LINE
  5
1DD
330
1D9
100
AcDbEntity
  8
09-01
 62
     4
440
 16777216
370
    -2
100
AcDbLine
 10
118.7555311579622
 20
627.4958441169046
 30
0.0
 11
118.7555311579622
 21
339.4958441169056
 31
0.0
  0
SOLID
  5
1DE
330
1D9
100
AcDbEntity
  8
09-01
 62
     4
440
 16777216
100
AcDbTrace
 10
117.9221978246289
 20
627.4958441169046
 30
0.0
 11
119.5888644912956
 21
627.4958441169046
 31
0.0
 12
118.7555311579622
 22
632.4958441169046
 32
0.0
 13
118.7555311579622
 23
632.4958441169046
 33
0.0
  0
SOLID
  5
1DF
330
1D9
100
AcDbEntity
  8
09-01
 62
     4
440
 16777216
100
AcDbTrace
 10
117.9221978246288
 20
339.4958441169056
 30
0.0
 11
119.5888644912955
 21
339.4958441169056
 31
0.0
 12
118.7555311579622
 22
334.4958441169056
 32
0.0
 13
118.7555311579622
 23
334.4958441169056
 33
0.0
  0
MTEXT
  5
1E0
330
1D9
100
AcDbEntity
  8
09-01
 62
     1
440
 16777216
100
AcDbMText
 10
114.2555311579621
 20
483.495844116905
 30
0.0
 40
5.0
 41
0.0
 46
0.0
 71
     5
 72
     1
  1
298
 11
0.0000000000000001
 21
1.0
 31
0.0
 73
     1
 44
1.0
  0
POINT
  5
1E1
330
1D9
100
AcDbEntity
  8
Defpoints
 62
     0
440
 16777216
100
AcDbPoint
 10
145.9726671069129
 20
632.4958441169046
 30
0.0
  0
POINT
  5
1E2
330
1D9
100
AcDbEntity
  8
Defpoints
 62
     0
440
 16777216
100
AcDbPoint
 10
145.9726671069129
 20
334.4958441169056
 30
0.0
  0
POINT
  5
1E3
330
1D9
100
AcDbEntity
  8
Defpoints
 62
     0
440
 16777216
100
AcDbPoint
 10
118.7555311579622
 20
334.4958441169056
 30
0.0
  0
ENDBLK
  5
1E4
330
1D9
100
AcDbEntity
  8
0
100
AcDbBlockEnd
  0
BLOCK
  5
180
330
17F
100
AcDbEntity
  8
0
100
AcDbBlockBegin
  2
*D8
 70
     1
 10
0.0
 20
0.0
 30
0.0
  3
*D8
  1

  0
LINE
  5
181
330
17F
100
AcDbEntity
  8
09-01
 62
     4
440
 16777216
370
    -2
100
AcDbLine
 10
665.8748169839509
 20
334.4958441169056
 30
0.0
 11
683.936819957511
 21
334.4958441169056
 31
0.0
  0
LINE
  5
182
330
17F
100
AcDbEntity
  8
09-01
 62
     4
440
 16777216
370
    -2
100
AcDbLine
 10
666.0748169839507
 20
632.4958441169055
 30
0.0
 11
683.936819957511
 21
632.4958441169055
 31
0.0
  0
LINE
  5
183
330
17F
100
AcDbEntity
  8
09-01
 62
     4
440
 16777216
370
    -2
100
AcDbLine
 10
681.936819957511
 20
339.4958441169056
 30
0.0
 11
681.936819957511
 21
627.4958441169055
 31
0.0
  0
SOLID
  5
184
330
17F
100
AcDbEntity
  8
09-01
 62
     4
440
 16777216
100
AcDbTrace
 10
681.1034866241776
 20
339.4958441169056
 30
0.0
 11
682.7701532908443
 21
339.4958441169056
 31
0.0
 12
681.936819957511
 22
334.4958441169056
 32
0.0
 13
681.936819957511
 23
334.4958441169056
 33
0.0
  0
SOLID
  5
185
330
17F
100
AcDbEntity
  8
09-01
 62
     4
440
 16777216
100
AcDbTrace
 10
681.1034866241776
 20
627.4958441169055
 30
0.0
 11
682.7701532908443
 21
627.4958441169055
 31
0.0
 12
681.936819957511
 22
632.4958441169055
 32
0.0
 13
681.936819957511
 23
632.4958441169055
 33
0.0
  0
MTEXT
  5
186
330
17F
100
AcDbEntity
  8
09-01
 62
     1
440
 16777216
100
AcDbMText
 10
677.4368199575109
 20
483.4958441169056
 30
0.0
 40
5.0
 41
0.0
 46
0.0
 71
     5
 72
     1
  1
298
 11
0.0000000000000001
 21
1.0
 31
0.0
 73
     1
 44
1.0
  0
POINT
  5
187
330
17F
100
AcDbEntity
  8
Defpoints
 62
     0
440
 16777216
100
AcDbPoint
 10
663.8748169839509
 20
334.4958441169056
 30
0.0
  0
POINT
  5
188
330
17F
100
AcDbEntity
  8
Defpoints
 62
     0
440
 16777216
100
AcDbPoint
 10
664.0748169839508
 20
632.4958441169055
 30
0.0
  0
POINT
  5
189
330
17F
100
AcDbEntity
  8
Defpoints
 62
     0
440
 16777216
100
AcDbPoint
 10
681.936819957511
 20
632.4958441169055
 30
0.0
  0
ENDBLK
  5
18A
330
17F
100
AcDbEntity
  8
0
100
AcDbBlockEnd
  0
BLOCK
  5
169
330
168
100
AcDbEntity
  8
0
100
AcDbBlockBegin
  2
*D9
 70
     1
 10
0.0
 20
0.0
 30
0.0
  3
*D9
  1

  0
LINE
  5
16A
330
168
100
AcDbEntity
  8
09-01
 62
     4
440
 16777216
370
    -2
100
AcDbLine
 10
143.9726671069129
 20
632.4958441169046
 30
0.0
 11
130.6284570033199
 21
632.4958441169046
 31
0.0
  0
LINE
  5
16B
330
168
100
AcDbEntity
  8
09-01
 62
     4
440
 16777216
370
    -2
100
AcDbLine
 10
160.7726671069131
 20
613.9958441169047
 30
0.0
 11
130.6284570033199
 21
613.9958441169047
 31
0.0
  0
LINE
  5
16C
330
168
100
AcDbEntity
  8
09-01
 62
     4
440
 16777216
370
    -2
100
AcDbLine
 10
132.6284570033199
 20
627.4958441169046
 30
0.0
 11
132.6284570033199
 21
618.9958441169046
 31
0.0
  0
SOLID
  5
16D
330
168
100
AcDbEntity
  8
09-01
 62
     4
440
 16777216
100
AcDbTrace
 10
131.7951236699865
 20
627.4958441169046
 30
0.0
 11
133.4617903366532
 21
627.4958441169046
 31
0.0
 12
132.6284570033199
 22
632.4958441169046
 32
0.0
 13
132.6284570033199
 23
632.4958441169046
 33
0.0
  0
SOLID
  5
16E
330
168
100
AcDbEntity
  8
09-01
 62
     4
440
 16777216
100
AcDbTrace
 10
131.7951236699865
 20
618.9958441169046
 30
0.0
 11
133.4617903366532
 21
618.9958441169046
 31
0.0
 12
132.6284570033199
 22
613.9958441169047
 32
0.0
 13
132.6284570033199
 23
613.9958441169047
 33
0.0
  0
MTEXT
  5
16F
330
168
100
AcDbEntity
  8
09-01
 62
     1
440
 16777216
100
AcDbMText
 10
128.1284570033198
 20
623.2458441169046
 30
0.0
 40
5.0
 41
0.0
 46
0.0
 71
     5
 72
     1
  1
18.5
 11
0.0000000000000001
 21
1.0
 31
0.0
 73
     1
 44
1.0
  0
POINT
  5
170
330
168
100
AcDbEntity
  8
Defpoints
 62
     0
440
 16777216
100
AcDbPoint
 10
145.9726671069129
 20
632.4958441169046
 30
0.0
  0
POINT
  5
171
330
168
100
AcDbEntity
  8
Defpoints
 62
     0
440
 16777216
100
AcDbPoint
 10
162.7726671069131
 20
613.9958441169047
 30
0.0
  0
POINT
  5
172
330
168
100
AcDbEntity
  8
Defpoints
 62
     0
440
 16777216
100
AcDbPoint
 10
132.6284570033199
 20
613.9958441169047
 30
0.0
  0
ENDBLK
  5
173
330
168
100
AcDbEntity
  8
0
100
AcDbBlockEnd
  0
BLOCK
  5
15C
330
15B
100
AcDbEntity
  8
0
100
AcDbBlockBegin
  2
*D10
 70
     1
 10
0.0
 20
0.0
 30
0.0
  3
*D10
  1

  0
LINE
  5
15D
330
15B
100
AcDbEntity
  8
09-01
 62
     4
440
 16777216
370
    -2
100
AcDbLine
 10
160.7726671069131
 20
613.9958441169047
 30
0.0
 11
130.6284570033199
 21
613.9958441169047
 31
0.0
  0
LINE
  5
15E
330
15B
100
AcDbEntity
  8
09-01
 62
     4
440
 16777216
370
    -2
100
AcDbLine
 10
160.7726671069131
 20
368.9958441169047
 30
0.0
 11
130.6284570033198
 21
368.9958441169047
 31
0.0
  0
LINE
  5
15F
330
15B
100
AcDbEntity
  8
09-01
 62
     4
440
 16777216
370
    -2
100
AcDbLine
 10
132.6284570033199
 20
608.9958441169046
 30
0.0
 11
132.6284570033198
 21
373.9958441169047
 31
0.0
  0
SOLID
  5
160
330
15B
100
AcDbEntity
  8
09-01
 62
     4
440
 16777216
100
AcDbTrace
 10
131.7951236699865
 20
608.9958441169046
 30
0.0
 11
133.4617903366532
 21
608.9958441169046
 31
0.0
 12
132.6284570033199
 22
613.9958441169047
 32
0.0
 13
132.6284570033199
 23
613.9958441169047
 33
0.0
  0
SOLID
  5
161
330
15B
100
AcDbEntity
  8
09-01
 62
     4
440
 16777216
100
AcDbTrace
 10
131.7951236699865
 20
373.9958441169047
 30
0.0
 11
133.4617903366532
 21
373.9958441169047
 31
0.0
 12
132.6284570033198
 22
368.9958441169047
 32
0.0
 13
132.6284570033198
 23
368.9958441169047
 33
0.0
  0
MTEXT
  5
162
330
15B
100
AcDbEntity
  8
09-01
 62
     1
440
 16777216
100
AcDbMText
 10
128.1284570033198
 20
491.4958441169046
 30
0.0
 40
5.0
 41
0.0
 46
0.0
 71
     5
 72
     1
  1
245
 11
0.0000000000000001
 21
1.0
 31
0.0
 73
     1
 44
1.0
  0
POINT
  5
163
330
15B
100
AcDbEntity
  8
Defpoints
 62
     0
440
 16777216
100
AcDbPoint
 10
162.7726671069131
 20
613.9958441169047
 30
0.0
  0
POINT
  5
164
330
15B
100
AcDbEntity
  8
Defpoints
 62
     0
440
 16777216
100
AcDbPoint
 10
162.7726671069131
 20
368.9958441169047
 30
0.0
  0
POINT
  5
165
330
15B
100
AcDbEntity
  8
Defpoints
 62
     0
440
 16777216
100
AcDbPoint
 10
132.6284570033198
 20
368.9958441169047
 30
0.0
  0
ENDBLK
  5
166
330
15B
100
AcDbEntity
  8
0
100
AcDbBlockEnd
  0
BLOCK
  5
14F
330
14E
100
AcDbEntity
  8
0
100
AcDbBlockBegin
  2
*D11
 70
     1
 10
0.0
 20
0.0
 30
0.0
  3
*D11
  1

  0
LINE
  5
150
330
14E
100
AcDbEntity
  8
09-01
 62
     4
440
 16777216
370
    -2
100
AcDbLine
 10
145.9726671069129
 20
634.4958441169047
 30
0.0
 11
145.9726671069129
 21
643.9812784302562
 31
0.0
  0
LINE
  5
151
330
14E
100
AcDbEntity
  8
09-01
 62
     4
440
 16777216
370
    -2
100
AcDbLine
 10
166.2726671069131
 20
619.4958441169046
 30
0.0
 11
166.2726671069131
 21
643.9812784302562
 31
0.0
  0
LINE
  5
152
330
14E
100
AcDbEntity
  8
09-01
 62
     4
440
 16777216
370
    -2
100
AcDbLine
 10
150.9726671069129
 20
641.9812784302562
 30
0.0
 11
161.2726671069131
 21
641.9812784302562
 31
0.0
  0
SOLID
  5
153
330
14E
100
AcDbEntity
  8
09-01
 62
     4
440
 16777216
100
AcDbTrace
 10
150.9726671069129
 20
642.8146117635896
 30
0.0
 11
150.9726671069129
 21
641.1479450969228
 31
0.0
 12
145.9726671069129
 22
641.9812784302562
 32
0.0
 13
145.9726671069129
 23
641.9812784302562
 33
0.0
  0
SOLID
  5
154
330
14E
100
AcDbEntity
  8
09-01
 62
     4
440
 16777216
100
AcDbTrace
 10
161.2726671069131
 20
642.8146117635896
 30
0.0
 11
161.2726671069131
 21
641.1479450969228
 31
0.0
 12
166.2726671069131
 22
641.9812784302562
 32
0.0
 13
166.2726671069131
 23
641.9812784302562
 33
0.0
  0
MTEXT
  5
155
330
14E
100
AcDbEntity
  8
09-01
 62
     1
440
 16777216
100
AcDbMText
 10
156.122667106913
 20
646.4812784302562
 30
0.0
 40
5.0
 41
0.0
 46
0.0
 71
     5
 72
     1
  1
20.3
 73
     1
 44
1.0
  0
POINT
  5
156
330
14E
100
AcDbEntity
  8
Defpoints
 62
     0
440
 16777216
100
AcDbPoint
 10
145.9726671069129
 20
632.4958441169046
 30
0.0
  0
POINT
  5
157
330
14E
100
AcDbEntity
  8
Defpoints
 62
     0
440
 16777216
100
AcDbPoint
 10
166.2726671069131
 20
617.4958441169046
 30
0.0
  0
POINT
  5
158
330
14E
100
AcDbEntity
  8
Defpoints
 62
     0
440
 16777216
100
AcDbPoint
 10
166.2726671069131
 20
641.9812784302562
 30
0.0
  0
ENDBLK
  5
159
330
14E
100
AcDbEntity
  8
0
100
AcDbBlockEnd
  0
BLOCK
  5
142
330
141
100
AcDbEntity
  8
0
100
AcDbBlockBegin
  2
*D12
 70
     1
 10
0.0
 20
0.0
 30
0.0
  3
*D12
  1

  0
LINE
  5
143
330
141
100
AcDbEntity
  8
09-01
 62
     4
440
 16777216
370
    -2
100
AcDbLine
 10
166.2726671069131
 20
619.4958441169046
 30
0.0
 11
166.2726671069131
 21
643.9812784302562
 31
0.0
  0
LINE
  5
144
330
141
100
AcDbEntity
  8
09-01
 62
     4
440
 16777216
370
    -2
100
AcDbLine
 10
390.2726671069131
 20
619.4958441169046
 30
0.0
 11
390.2726671069131
 21
643.9812784302562
 31
0.0
  0
LINE
  5
145
330
141
100
AcDbEntity
  8
09-01
 62
     4
440
 16777216
370
    -2
100
AcDbLine
 10
171.2726671069131
 20
641.9812784302562
 30
0.0
 11
385.2726671069131
 21
641.9812784302562
 31
0.0
  0
SOLID
  5
146
330
141
100
AcDbEntity
  8
09-01
 62
     4
440
 16777216
100
AcDbTrace
 10
171.2726671069131
 20
642.8146117635896
 30
0.0
 11
171.2726671069131
 21
641.1479450969228
 31
0.0
 12
166.2726671069131
 22
641.9812784302562
 32
0.0
 13
166.2726671069131
 23
641.9812784302562
 33
0.0
  0
SOLID
  5
147
330
141
100
AcDbEntity
  8
09-01
 62
     4
440
 16777216
100
AcDbTrace
 10
385.2726671069131
 20
642.8146117635896
 30
0.0
 11
385.2726671069131
 21
641.1479450969228
 31
0.0
 12
390.2726671069131
 22
641.9812784302562
 32
0.0
 13
390.2726671069131
 23
641.9812784302562
 33
0.0
  0
MTEXT
  5
148
330
141
100
AcDbEntity
  8
09-01
 62
     1
440
 16777216
100
AcDbMText
 10
278.2726671069131
 20
646.4812784302562
 30
0.0
 40
5.0
 41
0.0
 46
0.0
 71
     5
 72
     1
  1
224
 73
     1
 44
1.0
  0
POINT
  5
149
330
141
100
AcDbEntity
  8
Defpoints
 62
     0
440
 16777216
100
AcDbPoint
 10
166.2726671069131
 20
617.4958441169046
 30
0.0
  0
POINT
  5
14A
330
141
100
AcDbEntity
  8
Defpoints
 62
     0
440
 16777216
100
AcDbPoint
 10
390.2726671069131
 20
617.4958441169046
 30
0.0
  0
POINT
  5
14B
330
141
100
AcDbEntity
  8
Defpoints
 62
     0
440
 16777216
100
AcDbPoint
 10
390.2726671069131
 20
641.9812784302562
 30
0.0
  0
ENDBLK
  5
14C
330
141
100
AcDbEntity
  8
0
100
AcDbBlockEnd
  0
BLOCK
  5
135
330
134
100
AcDbEntity
  8
0
100
AcDbBlockBegin
  2
*D13
 70
     1
 10
0.0
 20
0.0
 30
0.0
  3
*D13
  1

  0
LINE
  5
136
330
134
100
AcDbEntity
  8
09-01
 62
     4
440
 16777216
370
    -2
100
AcDbLine
 10
390.2726671069131
 20
619.4958441169046
 30
0.0
 11
390.2726671069131
 21
643.9812784302562
 31
0.0
  0
LINE
  5
137
330
134
100
AcDbEntity
  8
09-01
 62
     4
440
 16777216
370
    -2
100
AcDbLine
 10
410.5726671069133
 20
634.4958441169047
 30
0.0
 11
410.5726671069133
 21
643.9812784302562
 31
0.0
  0
LINE
  5
138
330
134
100
AcDbEntity
  8
09-01
 62
     4
440
 16777216
370
    -2
100
AcDbLine
 10
395.2726671069131
 20
641.9812784302562
 30
0.0
 11
405.5726671069132
 21
641.9812784302562
 31
0.0
  0
SOLID
  5
139
330
134
100
AcDbEntity
  8
09-01
 62
     4
440
 16777216
100
AcDbTrace
 10
395.2726671069131
 20
642.8146117635896
 30
0.0
 11
395.2726671069131
 21
641.1479450969228
 31
0.0
 12
390.2726671069131
 22
641.9812784302562
 32
0.0
 13
390.2726671069131
 23
641.9812784302562
 33
0.0
  0
SOLID
  5
13A
330
134
100
AcDbEntity
  8
09-01
 62
     4
440
 16777216
100
AcDbTrace
 10
405.5726671069132
 20
642.8146117635896
 30
0.0
 11
405.5726671069132
 21
641.1479450969228
 31
0.0
 12
410.5726671069133
 22
641.9812784302562
 32
0.0
 13
410.5726671069133
 23
641.9812784302562
 33
0.0
  0
MTEXT
  5
13B
330
134
100
AcDbEntity
  8
09-01
 62
     1
440
 16777216
100
AcDbMText
 10
400.4226671069131
 20
646.4812784302562
 30
0.0
 40
5.0
 41
0.0
 46
0.0
 71
     5
 72
     1
  1
20.3
 73
     1
 44
1.0
  0
POINT
  5
13C
330
134
100
AcDbEntity
  8
Defpoints
 62
     0
440
 16777216
100
AcDbPoint
 10
390.2726671069131
 20
617.4958441169046
 30
0.0
  0
POINT
  5
13D
330
134
100
AcDbEntity
  8
Defpoints
 62
     0
440
 16777216
100
AcDbPoint
 10
410.5726671069133
 20
632.4958441169046
 30
0.0
  0
POINT
  5
13E
330
134
100
AcDbEntity
  8
Defpoints
 62
     0
440
 16777216
100
AcDbPoint
 10
410.5726671069133
 20
641.9812784302562
 30
0.0
  0
ENDBLK
  5
13F
330
134
100
AcDbEntity
  8
0
100
AcDbBlockEnd
  0
BLOCK
  5
126
330
125
100
AcDbEntity
  8
0
100
AcDbBlockBegin
  2
*D14
 70
     1
 10
0.0
 20
0.0
 30
0.0
  3
*D14
  1

  0
LINE
  5
127
330
125
100
AcDbEntity
  8
09-01
 62
     4
440
 16777216
370
    -2
100
AcDbLine
 10
171.7726671069131
 20
613.9958441169047
 30
0.0
 11
190.8663634197369
 21
613.9958441169047
 31
0.0
  0
LINE
  5
128
330
125
100
AcDbEntity
  8
09-01
 62
     4
440
 16777216
370
    -2
100
AcDbLine
 10
175.5226671069131
 20
601.9958441169046
 30
0.0
 11
190.8663634197369
 21
601.9958441169046
 31
0.0
  0
LINE
  5
129
330
125
100
AcDbEntity
  8
09-01
 62
     4
440
 16777216
370
    -2
100
AcDbLine
 10
188.8663634197369
 20
618.9958441169046
 30
0.0
 11
188.8663634197369
 21
623.9958441169046
 31
0.0
  0
LINE
  5
12A
330
125
100
AcDbEntity
  8
09-01
 62
     4
440
 16777216
370
    -2
100
AcDbLine
 10
188.8663634197369
 20
596.9958441169047
 30
0.0
 11
188.8663634197369
 21
591.9958441169046
 31
0.0
  0
LINE
  5
12B
330
125
100
AcDbEntity
  8
09-01
 62
     4
440
 16777216
370
    -2
100
AcDbLine
 10
188.8663634197369
 20
613.9958441169047
 30
0.0
 11
188.8663634197369
 21
601.9958441169046
 31
0.0
  0
SOLID
  5
12C
330
125
100
AcDbEntity
  8
09-01
 62
     4
440
 16777216
100
AcDbTrace
 10
188.0330300864035
 20
618.9958441169046
 30
0.0
 11
189.6996967530702
 21
618.9958441169046
 31
0.0
 12
188.8663634197369
 22
613.9958441169047
 32
0.0
 13
188.8663634197369
 23
613.9958441169047
 33
0.0
  0
SOLID
  5
12D
330
125
100
AcDbEntity
  8
09-01
 62
     4
440
 16777216
100
AcDbTrace
 10
188.0330300864035
 20
596.9958441169047
 30
0.0
 11
189.6996967530702
 21
596.9958441169047
 31
0.0
 12
188.8663634197369
 22
601.9958441169046
 32
0.0
 13
188.8663634197369
 23
601.9958441169046
 33
0.0
  0
MTEXT
  5
12E
330
125
100
AcDbEntity
  8
09-01
 62
     1
440
 16777216
100
AcDbMText
 10
184.3663634197367
 20
607.9958441169046
 30
0.0
 40
5.0
 41
0.0
 46
0.0
 71
     5
 72
     1
  1
12
 11
0.0000000000000001
 21
1.0
 31
0.0
 73
     1
 44
1.0
  0
POINT
  5
12F
330
125
100
AcDbEntity
  8
Defpoints
 62
     0
440
 16777216
100
AcDbPoint
 10
169.7726671069131
 20
613.9958441169047
 30
0.0
  0
POINT
  5
130
330
125
100
AcDbEntity
  8
Defpoints
 62
     0
440
 16777216
100
AcDbPoint
 10
173.5226671069131
 20
601.9958441169046
 30
0.0
  0
POINT
  5
131
330
125
100
AcDbEntity
  8
Defpoints
 62
     0
440
 16777216
100
AcDbPoint
 10
188.8663634197369
 20
601.9958441169046
 30
0.0
  0
ENDBLK
  5
132
330
125
100
AcDbEntity
  8
0
100
AcDbBlockEnd
  0
BLOCK
  5
117
330
116
100
AcDbEntity
  8
0
100
AcDbBlockBegin
  2
*D15
 70
     1
 10
0.0
 20
0.0
 30
0.0
  3
*D15
  1

  0
LINE
  5
118
330
116
100
AcDbEntity
  8
09-01
 62
     4
440
 16777216
370
    -2
100
AcDbLine
 10
160.0226671069131
 20
599.9958441169046
 30
0.0
 11
160.0226671069131
 21
580.6844565631158
 31
0.0
  0
LINE
  5
119
330
116
100
AcDbEntity
  8
09-01
 62
     4
440
 16777216
370
    -2
100
AcDbLine
 10
172.5226671069131
 20
599.9958441169046
 30
0.0
 11
172.5226671069131
 21
580.6844565631158
 31
0.0
  0
LINE
  5
11A
330
116
100
AcDbEntity
  8
09-01
 62
     4
440
 16777216
370
    -2
100
AcDbLine
 10
155.0226671069131
 20
582.6844565631159
 30
0.0
 11
150.0226671069131
 21
582.6844565631159
 31
0.0
  0
LINE
  5
11B
330
116
100
AcDbEntity
  8
09-01
 62
     4
440
 16777216
370
    -2
100
AcDbLine
 10
177.5226671069131
 20
582.6844565631159
 30
0.0
 11
182.5226671069131
 21
582.6844565631159
 31
0.0
  0
MTEXT
  5
11C
330
116
100
AcDbEntity
  8
09-01
 62
     1
440
 16777216
100
AcDbMText
 10
185.4045794792946
 20
586.958765578363
 30
0.0
 40
5.0
 41
0.0
 46
0.0
 71
     5
 72
     1
  1
12.5
 73
     1
 44
1.0
  0
LINE
  5
11D
330
116
100
AcDbEntity
  8
09-01
 62
     4
440
 16777216
370
    -2
100
AcDbLine
 10
160.0226671069131
 20
582.6844565631159
 30
0.0
 11
172.5226671069131
 21
582.6844565631159
 31
0.0
  0
SOLID
  5
11E
330
116
100
AcDbEntity
  8
09-01
 62
     4
440
 16777216
100
AcDbTrace
 10
155.0226671069131
 20
583.5177898964492
 30
0.0
 11
155.0226671069131
 21
581.8511232297825
 31
0.0
 12
160.0226671069131
 22
582.6844565631159
 32
0.0
 13
160.0226671069131
 23
582.6844565631159
 33
0.0
  0
SOLID
  5
11F
330
116
100
AcDbEntity
  8
09-01
 62
     4
440
 16777216
100
AcDbTrace
 10
177.5226671069131
 20
583.5177898964492
 30
0.0
 11
177.5226671069131
 21
581.8511232297825
 31
0.0
 12
172.5226671069131
 22
582.6844565631159
 32
0.0
 13
172.5226671069131
 23
582.6844565631159
 33
0.0
  0
POINT
  5
120
330
116
100
AcDbEntity
  8
Defpoints
 62
     0
440
 16777216
100
AcDbPoint
 10
160.0226671069131
 20
601.9958441169046
 30
0.0
  0
POINT
  5
121
330
116
100
AcDbEntity
  8
Defpoints
 62
     0
440
 16777216
100
AcDbPoint
 10
172.5226671069131
 20
601.9958441169046
 30
0.0
  0
POINT
  5
122
330
116
100
AcDbEntity
  8
Defpoints
 62
     0
440
 16777216
100
AcDbPoint
 10
172.5226671069131
 20
582.6844565631159
 30
0.0
  0
ENDBLK
  5
123
330
116
100
AcDbEntity
  8
0
100
AcDbBlockEnd
  0
BLOCK
  5
108
330
107
100
AcDbEntity
  8
0
100
AcDbBlockBegin
  2
*D16
 70
     1
 10
0.0
 20
0.0
 30
0.0
  3
*D16
  1

  0
LINE
  5
109
330
107
100
AcDbEntity
  8
09-01
 62
     4
440
 16777216
370
    -2
100
AcDbLine
 10
163.7726671069131
 20
370.9958441169046
 30
0.0
 11
163.7726671069131
 21
378.093941053771
 31
0.0
  0
LINE
  5
10A
330
107
100
AcDbEntity
  8
09-01
 62
     4
440
 16777216
370
    -2
100
AcDbLine
 10
168.7726671069131
 20
370.9958441169046
 30
0.0
 11
168.7726671069131
 21
378.093941053771
 31
0.0
  0
LINE
  5
10B
330
107
100
AcDbEntity
  8
09-01
 62
     4
440
 16777216
370
    -2
100
AcDbLine
 10
158.7726671069131
 20
376.093941053771
 30
0.0
 11
153.7726671069131
 21
376.093941053771
 31
0.0
  0
LINE
  5
10C
330
107
100
AcDbEntity
  8
09-01
 62
     4
440
 16777216
370
    -2
100
AcDbLine
 10
173.7726671069131
 20
376.093941053771
 30
0.0
 11
178.7726671069131
 21
376.093941053771
 31
0.0
  0
LINE
  5
10D
330
107
100
AcDbEntity
  8
09-01
 62
     4
440
 16777216
370
    -2
100
AcDbLine
 10
163.7726671069131
 20
376.093941053771
 30
0.0
 11
168.7726671069131
 21
376.093941053771
 31
0.0
  0
SOLID
  5
10E
330
107
100
AcDbEntity
  8
09-01
 62
     4
440
 16777216
100
AcDbTrace
 10
158.7726671069131
 20
376.9272743871043
 30
0.0
 11
158.7726671069131
 21
375.2606077204377
 31
0.0
 12
163.7726671069131
 22
376.093941053771
 32
0.0
 13
163.7726671069131
 23
376.093941053771
 33
0.0
  0
SOLID
  5
10F
330
107
100
AcDbEntity
  8
09-01
 62
     4
440
 16777216
100
AcDbTrace
 10
173.7726671069131
 20
376.9272743871043
 30
0.0
 11
173.7726671069131
 21
375.2606077204377
 31
0.0
 12
168.7726671069131
 22
376.093941053771
 32
0.0
 13
168.7726671069131
 23
376.093941053771
 33
0.0
  0
MTEXT
  5
110
330
107
100
AcDbEntity
  8
09-01
 62
     1
440
 16777216
100
AcDbMText
 10
166.2726671069131
 20
380.593941053771
 30
0.0
 40
5.0
 41
0.0
 46
0.0
 71
     5
 72
     1
  1
5
 73
     1
 44
1.0
  0
POINT
  5
111
330
107
100
AcDbEntity
  8
Defpoints
 62
     0
440
 16777216
100
AcDbPoint
 10
163.7726671069131
 20
368.9958441169047
 30
0.0
  0
POINT
  5
112
330
107
100
AcDbEntity
  8
Defpoints
 62
     0
440
 16777216
100
AcDbPoint
 10
168.7726671069131
 20
368.9958441169047
 30
0.0
  0
POINT
  5
113
330
107
100
AcDbEntity
  8
Defpoints
 62
     0
440
 16777216
100
AcDbPoint
 10
168.7726671069131
 20
376.093941053771
 30
0.0
  0
ENDBLK
  5
114
330
107
100
AcDbEntity
  8
0
100
AcDbBlockEnd
  0
BLOCK
  5
CA
330
C9
100
AcDbEntity
  8
0
100
AcDbBlockBegin
  2
*D17
 70
     1
 10
0.0
 20
0.0
 30
0.0
  3
*D17
  1

  0
LINE
  5
CB
330
C9
100
AcDbEntity
  8
09-01
 62
     4
370
    -2
100
AcDbLine
 10
145.9726671069129
 20
263.9480027242353
 30
0.0
 11
145.9726671069129
 21
278.8136460743226
 31
0.0
  0
LINE
  5
CC
330
C9
100
AcDbEntity
  8
09-01
 62
     4
370
    -2
100
AcDbLine
 10
410.5726671069133
 20
263.9480027242353
 30
0.0
 11
410.5726671069133
 21
278.8136460743226
 31
0.0
  0
LINE
  5
CD
330
C9
100
AcDbEntity
  8
09-01
 62
     4
370
    -2
100
AcDbLine
 10
150.9726671069129
 20
276.8136460743226
 30
0.0
 11
405.5726671069132
 21
276.8136460743226
 31
0.0
  0
SOLID
  5
CE
330
C9
100
AcDbEntity
  8
09-01
 62
     4
100
AcDbTrace
 10
150.9726671069129
 20
277.6469794076559
 30
0.0
 11
150.9726671069129
 21
275.9803127409893
 31
0.0
 12
145.9726671069129
 22
276.8136460743226
 32
0.0
 13
145.9726671069129
 23
276.8136460743226
 33
0.0
  0
SOLID
  5
CF
330
C9
100
AcDbEntity
  8
09-01
 62
     4
100
AcDbTrace
 10
405.5726671069132
 20
277.6469794076559
 30
0.0
 11
405.5726671069132
 21
275.9803127409893
 31
0.0
 12
410.5726671069133
 22
276.8136460743226
 32
0.0
 13
410.5726671069133
 23
276.8136460743226
 33
0.0
  0
MTEXT
  5
D0
330
C9
100
AcDbEntity
  8
09-01
 62
     1
100
AcDbMText
 10
278.2726671069131
 20
281.3136460743226
 30
0.0
 40
5.0
 41
0.0
 46
0.0
 71
     5
 72
     1
  1
264.6
 73
     1
 44
1.0
  0
POINT
  5
D1
330
C9
100
AcDbEntity
  8
Defpoints
 62
     0
100
AcDbPoint
 10
145.9726671069129
 20
261.9480027242353
 30
0.0
  0
POINT
  5
D2
330
C9
100
AcDbEntity
  8
Defpoints
 62
     0
100
AcDbPoint
 10
410.5726671069133
 20
261.9480027242353
 30
0.0
  0
POINT
  5
D3
330
C9
100
AcDbEntity
  8
Defpoints
 62
     0
100
AcDbPoint
 10
410.5726671069133
 20
276.8136460743226
 30
0.0
  0
ENDBLK
  5
D4
330
C9
100
AcDbEntity
  8
0
100
AcDbBlockEnd
  0
BLOCK
  5
BC
330
BB
100
AcDbEntity
  8
0
100
AcDbBlockBegin
  2
*D18
 70
     1
 10
0.0
 20
0.0
 30
0.0
  3
*D18
  1

  0
LINE
  5
BD
330
BB
100
AcDbEntity
  8
09-01
 62
     4
370
    -2
100
AcDbLine
 10
412.5726671069132
 20
261.9480027242353
 30
0.0
 11
429.0063742989359
 21
261.9480027242353
 31
0.0
  0
LINE
  5
BE
330
BB
100
AcDbEntity
  8
09-01
 62
     4
370
    -2
100
AcDbLine
 10
402.589667106914
 20
142.1480027242351
 30
0.0
 11
429.0063742989359
 21
142.1480027242351
 31
0.0
  0
LINE
  5
BF
330
BB
100
AcDbEntity
  8
09-01
 62
     4
370
    -2
100
AcDbLine
 10
427.0063742989359
 20
256.9480027242353
 30
0.0
 11
427.0063742989359
 21
147.1480027242351
 31
0.0
  0
SOLID
  5
C0
330
BB
100
AcDbEntity
  8
09-01
 62
     4
100
AcDbTrace
 10
426.1730409656026
 20
256.9480027242353
 30
0.0
 11
427.8397076322693
 21
256.9480027242353
 31
0.0
 12
427.0063742989359
 22
261.9480027242353
 32
0.0
 13
427.0063742989359
 23
261.9480027242353
 33
0.0
  0
SOLID
  5
C1
330
BB
100
AcDbEntity
  8
09-01
 62
     4
100
AcDbTrace
 10
426.1730409656026
 20
147.1480027242351
 30
0.0
 11
427.8397076322693
 21
147.1480027242351
 31
0.0
 12
427.0063742989359
 22
142.1480027242351
 32
0.0
 13
427.0063742989359
 23
142.1480027242351
 33
0.0
  0
MTEXT
  5
C2
330
BB
100
AcDbEntity
  8
09-01
 62
     1
100
AcDbMText
 10
422.5063742989359
 20
202.0480027242352
 30
0.0
 40
5.0
 41
0.0
 46
0.0
 71
     5
 72
     1
  1
119.8
 11
0.0000000000000001
 21
1.0
 31
0.0
 73
     1
 44
1.0
  0
POINT
  5
C3
330
BB
100
AcDbEntity
  8
Defpoints
 62
     0
100
AcDbPoint
 10
410.5726671069133
 20
261.9480027242353
 30
0.0
  0
POINT
  5
C4
330
BB
100
AcDbEntity
  8
Defpoints
 62
     0
100
AcDbPoint
 10
400.589667106914
 20
142.1480027242351
 30
0.0
  0
POINT
  5
C5
330
BB
100
AcDbEntity
  8
Defpoints
 62
     0
100
AcDbPoint
 10
427.0063742989359
 20
142.1480027242351
 30
0.0
  0
ENDBLK
  5
C6
330
BB
100
AcDbEntity
  8
0
100
AcDbBlockEnd
  0
BLOCK
  5
B0
330
AF
100
AcDbEntity
  8
0
100
AcDbBlockBegin
  2
*D19
 70
     1
 10
0.0
 20
0.0
 30
0.0
  3
*D19
  1

  0
LINE
  5
B1
330
AF
100
AcDbEntity
  8
09-01
 62
     4
370
    -2
100
AcDbLine
 10
131.2290992460867
 20
127.2301066209636
 30
0.0
 11
145.2036665926815
 21
141.3039326319173
 31
0.0
  0
MTEXT
  5
B2
330
AF
100
AcDbEntity
  8
09-01
 62
     1
100
AcDbMText
 10
133.2616618059835
 20
135.6637080986569
 30
0.0
 40
5.0
 41
0.0
 46
0.0
 71
     5
 72
     1
  1
R10
 11
0.7046000342820913
 21
0.7096046728211956
 31
0.0
 73
     1
 44
1.0
  0
LINE
  5
B3
330
AF
100
AcDbEntity
  8
09-01
 62
     4
370
    -2
100
AcDbLine
 10
155.7726671069129
 20
151.9480027242352
 30
0.0
 11
148.726666764092
 21
144.8519559960233
 31
0.0
  0
SOLID
  5
B4
330
AF
100
AcDbEntity
  8
09-01
 62
     4
100
AcDbTrace
 10
144.6123293653305
 20
141.8910993271524
 30
0.0
 11
145.7950038200325
 21
140.7167659366823
 31
0.0
 12
148.726666764092
 22
144.8519559960233
 32
0.0
 13
148.726666764092
 23
144.8519559960233
 33
0.0
  0
POINT
  5
B5
330
AF
100
AcDbEntity
  8
Defpoints
 62
     0
100
AcDbPoint
 10
148.726666764092
 20
144.8519559960233
 30
0.0
  0
POINT
  5
B7
330
AF
100
AcDbEntity
  8
Defpoints
 62
     0
100
AcDbPoint
 10
155.7726671069129
 20
151.9480027242352
 30
0.0
  0
ENDBLK
  5
B8
330
AF
100
AcDbEntity
  8
0
100
AcDbBlockEnd
  0
ENDSEC
  0
SECTION
  2
ENTITIES
  0
LINE
  5
79
330
2
100
AcDbEntity
  8
03-01
100
AcDbLine
 10
560.5748169839507
 20
618.4958441169055
 30
0.0
 11
559.5748169839508
 21
618.4958441169055
 31
0.0
  0
LINE
  5
7E
330
2
100
AcDbEntity
  8
03-01
100
AcDbLine
 10
559.5748169839508
 20
627.4958441169055
 30
0.0
 11
559.5748169839508
 21
618.4958441169055
 31
0.0
  0
LINE
  5
7F
330
2
100
AcDbEntity
  8
03-01
100
AcDbLine
 10
560.5748169839507
 20
628.4958441169055
 30
0.0
 11
560.5748169839507
 21
618.4958441169055
 31
0.0
  0
LINE
  5
80
330
2
100
AcDbEntity
  8
03-01
100
AcDbLine
 10
559.5748169839508
 20
627.4958441169055
 30
0.0
 11
545.0748169839507
 21
627.4958441169055
 31
0.0
  0
LINE
  5
81
330
2
100
AcDbEntity
  8
03-01
100
AcDbLine
 10
560.5748169839507
 20
628.4958441169055
 30
0.0
 11
544.0748169839507
 21
628.4958441169055
 31
0.0
  0
LINE
  5
82
330
2
100
AcDbEntity
  8
03-01
100
AcDbLine
 10
545.0748169839507
 20
627.4958441169055
 30
0.0
 11
545.0748169839512
 21
334.4958441169056
 31
0.0
  0
LINE
  5
83
330
2
100
AcDbEntity
  8
03-01
100
AcDbLine
 10
565.0748169839507
 20
339.4958441169056
 30
0.0
 11
565.0748169839507
 21
357.9958441169056
 31
0.0
  0
LINE
  5
84
330
2
100
AcDbEntity
  8
03-01
100
AcDbLine
 10
567.0748169839507
 20
359.9958441169056
 30
0.0
 11
574.0748169839507
 21
359.9958441169056
 31
0.0
  0
ARC
  5
85
330
2
100
AcDbEntity
  8
03-01
100
AcDbCircle
 10
574.0748169839507
 20
357.9958441169056
 30
0.0
 40
2.0
100
AcDbArc
 50
0.0
 51
90.0
  0
ARC
  5
86
330
2
100
AcDbEntity
  8
03-01
100
AcDbCircle
 10
567.0748169839507
 20
357.9958441169056
 30
0.0
 40
2.0
100
AcDbArc
 50
90.0
 51
180.0
  0
ARC
  5
87
330
2
100
AcDbEntity
  8
03-01
100
AcDbCircle
 10
581.0748169839508
 20
337.0044660882577
 30
0.0
 40
5.0
100
AcDbArc
 50
180.0
 51
270.0
  0
ARC
  5
88
330
2
100
AcDbEntity
  8
03-01
100
AcDbCircle
 10
560.0748169839508
 20
339.4958441169056
 30
0.0
 40
5.0
100
AcDbArc
 50
270.0
 51
0.0
  0
LINE
  5
89
330
2
100
AcDbEntity
  8
03-01
100
AcDbLine
 10
576.0748169839508
 20
357.9958441169056
 30
0.0
 11
576.0748169839508
 21
337.0044660882577
 31
0.0
  0
ARC
  5
8A
330
2
100
AcDbEntity
  8
03-01
100
AcDbCircle
 10
645.5748169839507
 20
337.0044660882577
 30
0.0
 40
5.0
100
AcDbArc
 50
270.0
 51
0.0
  0
LINE
  5
8B
330
2
100
AcDbEntity
  8
03-01
100
AcDbLine
 10
581.0748169839508
 20
332.0044660882577
 30
0.0
 11
645.5748169839507
 21
332.0044660882577
 31
0.0
  0
LINE
  5
8C
330
2
100
AcDbEntity
  8
03-01
100
AcDbLine
 10
650.5748169839507
 20
360.9958441169056
 30
0.0
 11
576.8928590144387
 21
360.9958441169056
 31
0.0
  0
ARC
  5
8D
330
2
100
AcDbEntity
  8
03-01
100
AcDbCircle
 10
645.5748169839507
 20
420.9958441169055
 30
0.0
 40
5.0
100
AcDbArc
 50
0.0
 51
90.0
  0
LINE
  5
8E
330
2
100
AcDbEntity
  8
03-01
100
AcDbLine
 10
650.5748169839507
 20
337.0044660882577
 30
0.0
 11
650.5748169839507
 21
420.9958441169055
 31
0.0
  0
ARC
  5
8F
330
2
100
AcDbEntity
  8
03-01
100
AcDbCircle
 10
587.5748169839507
 20
604.4958441169056
 30
0.0
 40
3.0
100
AcDbArc
 50
0.0
 51
90.0
  0
ARC
  5
90
330
2
100
AcDbEntity
  8
03-01
100
AcDbCircle
 10
554.0748169839507
 20
624.4958441169055
 30
0.0
 40
3.0
100
AcDbArc
 50
0.0
 51
90.0
  0
LINE
  5
91
330
2
100
AcDbEntity
  8
03-01
100
AcDbLine
 10
557.0748169839507
 20
608.4958441169056
 30
0.0
 11
557.0748169839507
 21
624.4958441169055
 31
0.0
  0
ARC
  5
92
330
2
100
AcDbEntity
  8
03-01
100
AcDbCircle
 10
558.0748169839507
 20
608.4958441169056
 30
0.0
 40
1.0
100
AcDbArc
 50
180.0
 51
270.0
  0
LINE
  5
93
330
2
100
AcDbEntity
  8
03-01
100
AcDbLine
 10
587.5748169839507
 20
607.4958441169055
 30
0.0
 11
558.0748169839507
 21
607.4958441169055
 31
0.0
  0
ARC
  5
94
330
2
100
AcDbEntity
  8
03-01
100
AcDbCircle
 10
593.5748169839508
 20
428.9958441169055
 30
0.0
 40
3.0
100
AcDbArc
 50
180.0
 51
270.0
  0
LINE
  5
95
330
2
100
AcDbEntity
  8
03-01
100
AcDbLine
 10
590.5748169839507
 20
428.9958441169055
 30
0.0
 11
590.5748169839507
 21
604.4958441169056
 31
0.0
  0
LINE
  5
96
330
2
100
AcDbEntity
  8
03-01
100
AcDbLine
 10
645.5748169839507
 20
425.9958441169056
 30
0.0
 11
593.5748169839508
 21
425.9958441169056
 31
0.0
  0
INSERT
  5
97
330
2
100
AcDbEntity
  8
03-01
100
AcDbBlockReference
  2
Innendeckel02-d
 10
278.2726671069131
 20
142.9480027242352
 30
0.0
  0
DIMENSION
  5
AE
330
2
100
AcDbEntity
  8
09-01
100
AcDbDimension
280
     0
  2
*D19
 10
155.7726671069129
 20
151.9480027242352
 30
0.0
 11
133.2616618059835
 21
135.6637080986569
 31
0.0
 70
     4
 71
     5
 42
10.0
 73
     0
 74
     0
 75
     0
  3
Wagner
100
AcDbRadialDimension
 15
148.726666764092
 25
144.8519559960233
 35
0.0
 40
0.0
1001
ACAD_DSTYLE_DIMRADIAL_EXTENSION
1070
   387
1070
     1
1070
   388
1040
3.141592653589793
1070
   390
1040
4.712388980384689
1001
ACAD
1000
DSTYLE
1002
{
1070
    40
1040
2.0
1002
}
  0
DIMENSION
  5
BA
330
2
100
AcDbEntity
  8
09-01
100
AcDbDimension
280
     0
  2
*D18
 10
427.0063742989359
 20
142.1480027242351
 30
0.0
 11
422.5063742989359
 21
202.0480027242352
 31
0.0
 71
     5
 42
119.8000000000002
 73
     0
 74
     0
 75
     0
  3
Wagner$0
100
AcDbAlignedDimension
 13
410.5726671069133
 23
261.9480027242353
 33
0.0
 14
400.589667106914
 24
142.1480027242351
 34
0.0
 50
90.0
100
AcDbRotatedDimension
1001
ACAD
1000
DSTYLE
1002
{
1070
    40
1040
2.0
1002
}
  0
DIMENSION
  5
C8
330
2
100
AcDbEntity
  8
09-01
100
AcDbDimension
280
     0
  2
*D17
 10
410.5726671069133
 20
276.8136460743226
 30
0.0
 11
278.2726671069131
 21
281.3136460743226
 31
0.0
 71
     5
 42
264.6000000000004
 73
     0
 74
     0
 75
     0
  3
Wagner$0
100
AcDbAlignedDimension
 13
145.9726671069129
 23
261.9480027242353
 33
0.0
 14
410.5726671069133
 24
261.9480027242353
 34
0.0
100
AcDbRotatedDimension
1001
ACAD
1000
DSTYLE
1002
{
1070
    40
1040
2.0
1002
}
  0
LINE
  5
D5
330
2
100
AcDbEntity
  8
05-01
100
AcDbLine
 10
144.0570270759308
 20
254.9480027242353
 30
0.0
 11
151.2470557933657
 21
254.9480027242353
 31
0.0
  0
ARC
  5
DA
330
2
100
AcDbEntity
  8
03-01
100
AcDbCircle
 10
170.0569383543743
 20
162.4480027242352
 30
0.0
 40
7.0
100
AcDbArc
 50
270.0
 51
0.0
  0
LINE
  5
DB
330
2
100
AcDbEntity
  8
03-01
100
AcDbLine
 10
148.7726671069131
 20
155.4480027242352
 30
0.0
 11
170.0569383543743
 21
155.4480027242352
 31
0.0
  0
LINE
  5
DC
330
2
100
AcDbEntity
  8
03-01
100
AcDbLine
 10
148.7726671069131
 20
229.4480027242353
 30
0.0
 11
170.0569383543743
 21
229.4480027242353
 31
0.0
  0
ARC
  5
DD
330
2
100
AcDbEntity
  8
03-01
100
AcDbCircle
 10
170.0569383543743
 20
222.4480027242353
 30
0.0
 40
7.0
100
AcDbArc
 50
0.0
 51
90.0
  0
LINE
  5
DE
330
2
100
AcDbEntity
  8
03-01
100
AcDbLine
 10
177.0569383543743
 20
222.4480027242353
 30
0.0
 11
177.0569383543743
 21
162.4480027242352
 31
0.0
  0
ARC
  5
DF
330
2
100
AcDbEntity
  8
03-01
100
AcDbCircle
 10
386.4883958594519
 20
162.4480027242352
 30
0.0
 40
7.0
100
AcDbArc
 50
180.0
 51
270.0
  0
LINE
  5
E0
330
2
100
AcDbEntity
  8
03-01
100
AcDbLine
 10
407.7726671069131
 20
155.4480027242352
 30
0.0
 11
386.4883958594519
 21
155.4480027242352
 31
0.0
  0
LINE
  5
E1
330
2
100
AcDbEntity
  8
03-01
100
AcDbLine
 10
407.7726671069131
 20
229.4480027242353
 30
0.0
 11
386.4883958594519
 21
229.4480027242353
 31
0.0
  0
ARC
  5
E2
330
2
100
AcDbEntity
  8
03-01
100
AcDbCircle
 10
386.4883958594519
 20
222.4480027242353
 30
0.0
 40
7.0
100
AcDbArc
 50
90.0
 51
180.0
  0
LINE
  5
E3
330
2
100
AcDbEntity
  8
03-01
100
AcDbLine
 10
379.4883958594519
 20
222.4480027242353
 30
0.0
 11
379.4883958594519
 21
162.4480027242352
 31
0.0
  0
ARC
  5
E4
330
2
100
AcDbEntity
  8
03-01
100
AcDbCircle
 10
400.772667106913
 20
234.6669270766643
 30
0.0
 40
7.0
100
AcDbArc
 50
270.0
 51
0.0
  0
ARC
  5
E5
330
2
100
AcDbEntity
  8
03-01
100
AcDbCircle
 10
155.7726671069131
 20
234.6669270766643
 30
0.0
 40
7.0
100
AcDbArc
 50
180.0
 51
270.0
  0
LINE
  5
E6
330
2
100
AcDbEntity
  8
03-01
100
AcDbLine
 10
400.772667106913
 20
227.6669270766642
 30
0.0
 11
155.7726671069131
 21
227.6669270766642
 31
0.0
  0
LINE
  5
E7
330
2
100
AcDbEntity
  8
03-01
100
AcDbLine
 10
406.8212164143906
 20
232.1937708002561
 30
0.0
 11
149.7241177994356
 21
232.1937708002561
 31
0.0
  0
ARC
  5
E8
330
2
100
AcDbEntity
  8
03-01
100
AcDbCircle
 10
162.9726671069134
 20
168.8755249812129
 30
0.0
 40
7.0
100
AcDbArc
 50
90.0
 51
180.0
  0
LINE
  5
E9
330
2
100
AcDbEntity
  8
03-01
100
AcDbLine
 10
393.5726671069133
 20
175.8755249812129
 30
0.0
 11
162.9726671069134
 21
175.8755249812129
 31
0.0
  0
LINE
  5
EA
330
2
100
AcDbEntity
  8
03-01
100
AcDbLine
 10
400.0846512710495
 20
171.443415603112
 30
0.0
 11
156.4606829427766
 21
171.443415603112
 31
0.0
  0
ARC
  5
EB
330
2
100
AcDbEntity
  8
03-01
100
AcDbCircle
 10
393.5726671069133
 20
168.8755249812129
 30
0.0
 40
7.0
100
AcDbArc
 50
0.0
 51
90.0
  0
LINE
  5
EC
330
2
100
AcDbEntity
  8
03-01
100
AcDbLine
 10
400.5726671069132
 20
168.8755249812129
 30
0.0
 11
400.5726671069132
 21
142.1480027242351
 31
0.0
  0
LINE
  5
ED
330
2
100
AcDbEntity
  8
03-01
100
AcDbLine
 10
155.9726671069133
 20
168.8755249812129
 30
0.0
 11
155.9726671069133
 21
142.1480027242351
 31
0.0
  0
LINE
  5
EE
330
2
100
AcDbEntity
  8
09-01
100
AcDbLine
 10
145.9726671069129
 20
261.9480027242353
 30
0.0
 11
410.5726671069133
 21
261.9480027242353
 31
0.0
  0
LINE
  5
EF
330
2
100
AcDbEntity
  8
05-01
100
AcDbLine
 10
412.4883071378953
 20
254.9480027242353
 30
0.0
 11
405.2982784204605
 21
254.9480027242353
 31
0.0
  0
ARC
  5
F0
330
2
100
AcDbEntity
  8
03-01
100
AcDbCircle
 10
400.772667106913
 20
151.9480027242352
 30
0.0
 40
9.0
100
AcDbArc
 50
270.0
 51
0.0
  0
LINE
  5
F1
330
2
100
AcDbEntity
  8
03-01
100
AcDbLine
 10
409.772667106913
 20
151.9480027242352
 30
0.0
 11
409.772667106913
 21
261.9480027242353
 31
0.0
  0
LINE
  5
F2
330
2
100
AcDbEntity
  8
03-01
100
AcDbLine
 10
155.7726671069131
 20
142.9480027242352
 30
0.0
 11
400.772667106913
 21
142.9480027242352
 31
0.0
  0
LINE
  5
F3
330
2
100
AcDbEntity
  8
03-01
100
AcDbLine
 10
146.7726671069131
 20
261.9480027242353
 30
0.0
 11
146.7726671069131
 21
151.9480027242352
 31
0.0
  0
ARC
  5
F4
330
2
100
AcDbEntity
  8
03-01
100
AcDbCircle
 10
155.7726671069131
 20
151.9480027242352
 30
0.0
 40
9.0
100
AcDbArc
 50
180.0
 51
270.0
  0
ARC
  5
F5
330
2
100
AcDbEntity
  8
0
100
AcDbCircle
 10
155.7726671069131
 20
151.9480027242352
 30
0.0
 40
9.8
100
AcDbArc
 50
180.0
 51
270.0
  0
ARC
  5
F6
330
2
100
AcDbEntity
  8
0
100
AcDbCircle
 10
400.772667106913
 20
151.9480027242352
 30
0.0
 40
9.8
100
AcDbArc
 50
270.0
 51
0.0
  0
LINE
  5
F7
330
2
100
AcDbEntity
  8
0
100
AcDbLine
 10
145.9726671069129
 20
261.9480027242353
 30
0.0
 11
145.9726671069129
 21
151.9480027242352
 31
0.0
  0
LINE
  5
F8
330
2
100
AcDbEntity
  8
0
100
AcDbLine
 10
410.5726671069133
 20
151.9480027242352
 30
0.0
 11
410.5726671069133
 21
261.9480027242353
 31
0.0
  0
LINE
  5
F9
330
2
100
AcDbEntity
  8
0
100
AcDbLine
 10
155.7726671069131
 20
142.1480027242351
 30
0.0
 11
400.772667106913
 21
142.1480027242351
 31
0.0
  0
LINE
  5
FA
330
2
100
AcDbEntity
  8
03-01
100
AcDbLine
 10
275.2726671069131
 20
245.4480027242353
 30
0.0
 11
295.2726671069131
 21
245.4480027242353
 31
0.0
  0
LINE
  5
FB
330
2
100
AcDbEntity
  8
03-01
100
AcDbLine
 10
275.2726671069131
 20
246.4480027242353
 30
0.0
 11
295.2726671069131
 21
246.4480027242353
 31
0.0
  0
LINE
  5
FC
330
2
100
AcDbEntity
  8
03-01
100
AcDbLine
 10
295.2726671069131
 20
245.4480027242353
 30
0.0
 11
295.2726671069131
 21
261.9480027242353
 31
0.0
  0
LINE
  5
FD
330
2
100
AcDbEntity
  8
03-01
100
AcDbLine
 10
275.2726671069131
 20
245.4480027242353
 30
0.0
 11
275.2726671069131
 21
261.9480027242353
 31
0.0
  0
LINE
  5
FE
330
2
100
AcDbEntity
  8
0
100
AcDbLine
 10
147.7726671069131
 20
261.9480027242353
 30
0.0
 11
408.772667106913
 21
261.9480027242353
 31
0.0
  0
LINE
  5
FF
330
2
100
AcDbEntity
  8
03-01
100
AcDbLine
 10
148.7726671069131
 20
260.9480027242353
 30
0.0
 11
407.7726671069131
 21
260.9480027242353
 31
0.0
  0
LINE
  5
100
330
2
100
AcDbEntity
  8
03-01
100
AcDbLine
 10
147.7726671069131
 20
155.4480027242352
 30
0.0
 11
148.7726671069131
 21
155.4480027242352
 31
0.0
  0
LINE
  5
101
330
2
100
AcDbEntity
  8
03-01
100
AcDbLine
 10
408.772667106913
 20
155.4480027242352
 30
0.0
 11
407.7726671069131
 21
155.4480027242352
 31
0.0
  0
LINE
  5
102
330
2
100
AcDbEntity
  8
03-01
100
AcDbLine
 10
147.7726671069131
 20
155.4480027242352
 30
0.0
 11
147.7726671069131
 21
261.9480027242353
 31
0.0
  0
LINE
  5
103
330
2
100
AcDbEntity
  8
03-01
100
AcDbLine
 10
408.772667106913
 20
261.9480027242353
 30
0.0
 11
408.772667106913
 21
155.4480027242352
 31
0.0
  0
LINE
  5
104
330
2
100
AcDbEntity
  8
03-01
100
AcDbLine
 10
148.7726671069131
 20
155.4480027242352
 30
0.0
 11
148.7726671069131
 21
260.9480027242353
 31
0.0
  0
LINE
  5
105
330
2
100
AcDbEntity
  8
03-01
100
AcDbLine
 10
407.7726671069131
 20
260.9480027242353
 30
0.0
 11
407.7726671069131
 21
155.4480027242352
 31
0.0
  0
DIMENSION
  5
106
330
2
100
AcDbEntity
  8
09-01
100
AcDbDimension
280
     0
  2
*D16
 10
168.7726671069131
 20
376.093941053771
 30
0.0
 11
166.2726671069131
 21
380.593941053771
 31
0.0
 71
     5
 42
5.0
 73
     0
 74
     0
 75
     0
  3
Wagner$0
100
AcDbAlignedDimension
 13
163.7726671069131
 23
368.9958441169047
 33
0.0
 14
168.7726671069131
 24
368.9958441169047
 34
0.0
100
AcDbRotatedDimension
1001
ACAD
1000
DSTYLE
1002
{
1070
    40
1040
2.0
1002
}
  0
DIMENSION
  5
115
330
2
100
AcDbEntity
  8
09-01
100
AcDbDimension
280
     0
  2
*D15
 10
172.5226671069131
 20
582.6844565631159
 30
0.0
 11
185.4045794792946
 21
586.958765578363
 31
0.0
 70
   128
 71
     5
 42
12.5
 73
     0
 74
     0
 75
     0
  3
Wagner$0
100
AcDbAlignedDimension
 13
160.0226671069131
 23
601.9958441169046
 33
0.0
 14
172.5226671069131
 24
601.9958441169046
 34
0.0
100
AcDbRotatedDimension
1001
ACAD
1000
DSTYLE
1002
{
1070
    40
1040
2.0
1002
}
  0
DIMENSION
  5
124
330
2
100
AcDbEntity
  8
09-01
100
AcDbDimension
280
     0
  2
*D14
 10
188.8663634197369
 20
601.9958441169046
 30
0.0
 11
184.3663634197367
 21
607.9958441169046
 31
0.0
 71
     5
 42
12.0
 73
     0
 74
     0
 75
     0
  3
Wagner$0
100
AcDbAlignedDimension
 13
169.7726671069131
 23
613.9958441169047
 33
0.0
 14
173.5226671069131
 24
601.9958441169046
 34
0.0
 50
90.0
100
AcDbRotatedDimension
1001
ACAD
1000
DSTYLE
1002
{
1070
    40
1040
2.0
1002
}
  0
DIMENSION
  5
133
330
2
100
AcDbEntity
  8
09-01
100
AcDbDimension
280
     0
  2
*D13
 10
410.5726671069133
 20
641.9812784302562
 30
0.0
 11
400.4226671069131
 21
646.4812784302562
 31
0.0
 71
     5
 42
20.30000000000018
 73
     0
 74
     0
 75
     0
  3
Wagner$0
100
AcDbAlignedDimension
 13
390.2726671069131
 23
617.4958441169046
 33
0.0
 14
410.5726671069133
 24
632.4958441169046
 34
0.0
100
AcDbRotatedDimension
1001
ACAD
1000
DSTYLE
1002
{
1070
    40
1040
2.0
1002
}
  0
DIMENSION
  5
140
330
2
100
AcDbEntity
  8
09-01
100
AcDbDimension
280
     0
  2
*D12
 10
390.2726671069131
 20
641.9812784302562
 30
0.0
 11
278.2726671069131
 21
646.4812784302562
 31
0.0
 71
     5
 42
224.0
 73
     0
 74
     0
 75
     0
  3
Wagner$0
100
AcDbAlignedDimension
 13
166.2726671069131
 23
617.4958441169046
 33
0.0
 14
390.2726671069131
 24
617.4958441169046
 34
0.0
100
AcDbRotatedDimension
1001
ACAD
1000
DSTYLE
1002
{
1070
    40
1040
2.0
1002
}
  0
DIMENSION
  5
14D
330
2
100
AcDbEntity
  8
09-01
100
AcDbDimension
280
     0
  2
*D11
 10
166.2726671069131
 20
641.9812784302562
 30
0.0
 11
156.122667106913
 21
646.4812784302562
 31
0.0
 71
     5
 42
20.30000000000018
 73
     0
 74
     0
 75
     0
  3
Wagner$0
100
AcDbAlignedDimension
 13
145.9726671069129
 23
632.4958441169046
 33
0.0
 14
166.2726671069131
 24
617.4958441169046
 34
0.0
100
AcDbRotatedDimension
1001
ACAD
1000
DSTYLE
1002
{
1070
    40
1040
2.0
1002
}
  0
DIMENSION
  5
15A
330
2
100
AcDbEntity
  8
09-01
100
AcDbDimension
280
     0
  2
*D10
 10
132.6284570033198
 20
368.9958441169047
 30
0.0
 11
128.1284570033198
 21
491.4958441169046
 31
0.0
 71
     5
 42
244.9999999999999
 73
     0
 74
     0
 75
     0
  3
Wagner$0
100
AcDbAlignedDimension
 13
162.7726671069131
 23
613.9958441169047
 33
0.0
 14
162.7726671069131
 24
368.9958441169047
 34
0.0
 50
90.0
100
AcDbRotatedDimension
1001
ACAD
1000
DSTYLE
1002
{
1070
    40
1040
2.0
1002
}
  0
DIMENSION
  5
167
330
2
100
AcDbEntity
  8
09-01
100
AcDbDimension
280
     0
  2
*D9
 10
132.6284570033199
 20
613.9958441169047
 30
0.0
 11
128.1284570033198
 21
623.2458441169046
 31
0.0
 71
     5
 42
18.5
 73
     0
 74
     0
 75
     0
  3
Wagner$0
100
AcDbAlignedDimension
 13
145.9726671069129
 23
632.4958441169046
 33
0.0
 14
162.7726671069131
 24
613.9958441169047
 34
0.0
 50
90.0
100
AcDbRotatedDimension
1001
ACAD
1000
DSTYLE
1002
{
1070
    40
1040
2.0
1002
}
  0
LINE
  5
174
330
2
100
AcDbEntity
  8
0
100
AcDbLine
 10
545.0748169839512
 20
334.4958441169056
 30
0.0
 11
574.5355546857681
 21
326.6018632412797
 31
0.0
  0
LINE
  5
175
330
2
100
AcDbEntity
  8
0
100
AcDbLine
 10
544.0748169839507
 20
333.7285171289259
 30
0.0
 11
574.0179165955623
 21
325.7052877691112
 31
0.0
  0
LINE
  5
176
330
2
100
AcDbEntity
  8
0
100
AcDbLine
 10
578.9676640638681
 20
322.1697538631788
 30
0.0
 11
578.2605572826814
 21
321.4626470819922
 31
0.0
  0
LINE
  5
177
330
2
100
AcDbEntity
  8
0
100
AcDbLine
 10
574.5355546857681
 20
326.6018632412797
 30
0.0
 11
578.9676640638681
 21
322.1697538631788
 31
0.0
  0
LINE
  5
178
330
2
100
AcDbEntity
  8
0
100
AcDbLine
 10
574.0179165955623
 20
325.7052877691112
 30
0.0
 11
578.2605572826814
 21
321.4626470819922
 31
0.0
  0
LINE
  5
179
330
2
100
AcDbEntity
  8
0
100
AcDbLine
 10
544.0748169839507
 20
341.4958441169056
 30
0.0
 11
544.0748169839507
 21
333.7285171289259
 31
0.0
  0
ARC
  5
17A
330
2
100
AcDbEntity
  8
0
100
AcDbCircle
 10
581.0748169839508
 20
337.0044660882577
 30
0.0
 40
5.0
100
AcDbArc
 50
210.1141507335253
 51
270.0
  0
LINE
  5
17B
330
2
100
AcDbEntity
  8
0
100
AcDbLine
 10
551.0748169839508
 20
334.4958441169056
 30
0.0
 11
544.0748169839508
 21
334.4958441169056
 31
0.0
  0
ARC
  5
17C
330
2
100
AcDbEntity
  8
0
100
AcDbCircle
 10
645.5748169839507
 20
337.0044660882577
 30
0.0
 40
5.0
100
AcDbArc
 50
270.0
 51
329.8858492664747
  0
LINE
  5
17D
330
2
100
AcDbEntity
  8
0
100
AcDbLine
 10
581.0748169839508
 20
332.0044660882577
 30
0.0
 11
645.5748169839507
 21
332.0044660882577
 31
0.0
  0
DIMENSION
  5
17E
330
2
100
AcDbEntity
  8
09-01
100
AcDbDimension
280
     0
  2
*D8
 10
681.936819957511
 20
632.4958441169055
 30
0.0
 11
677.4368199575109
 21
483.4958441169056
 31
0.0
 71
     5
 42
298.0
 73
     0
 74
     0
 75
     0
  3
Wagner$0
100
AcDbAlignedDimension
 13
663.8748169839509
 23
334.4958441169056
 33
0.0
 14
664.0748169839508
 24
632.4958441169055
 34
0.0
 50
90.0
100
AcDbRotatedDimension
1001
ACAD
1000
DSTYLE
1002
{
1070
    40
1040
2.0
1002
}
  0
INSERT
  5
18B
330
2
100
AcDbEntity
  8
09-01
100
AcDbBlockReference
  2
aaaaWagner
 10
278.2726671068767
 20
585.9958441169055
 30
0.0
  0
LINE
  5
1A4
330
2
100
AcDbEntity
  8
05-01
100
AcDbLine
 10
278.2726671069131
 20
627.8068755363164
 30
0.0
 11
278.2726671069131
 21
637.7958441169046
 31
0.0
  0
LINE
  5
1A5
330
2
100
AcDbEntity
  8
0
100
AcDbLine
 10
286.7726671069131
 20
632.4958441169046
 30
0.0
 11
286.7726671069131
 21
634.2958441169046
 31
0.0
  0
LINE
  5
1A6
330
2
100
AcDbEntity
  8
0
100
AcDbLine
 10
269.7726671069131
 20
634.2958441169047
 30
0.0
 11
269.7726671069131
 21
632.4958441169046
 31
0.0
  0
LINE
  5
1A7
330
2
100
AcDbEntity
  8
0
100
AcDbLine
 10
286.7726671069131
 20
634.2958441169046
 30
0.0
 11
269.7726671069131
 21
634.2958441169047
 31
0.0
  0
LINE
  5
1A8
330
2
100
AcDbEntity
  8
0
100
AcDbLine
 10
285.5226671069131
 20
635.7958441169046
 30
0.0
 11
286.7726671069131
 21
634.2958441169046
 31
0.0
  0
LINE
  5
1A9
330
2
100
AcDbEntity
  8
0
100
AcDbLine
 10
271.0226671069131
 20
635.7958441169047
 30
0.0
 11
269.7726671069131
 21
634.2958441169047
 31
0.0
  0
LINE
  5
1AA
330
2
100
AcDbEntity
  8
0
100
AcDbLine
 10
271.0226671069131
 20
635.7958441169047
 30
0.0
 11
285.5226671069131
 21
635.7958441169046
 31
0.0
  0
LINE
  5
1AB
330
2
100
AcDbEntity
  8
05-01
100
AcDbLine
 10
575.5748169839507
 20
637.2550952940762
 30
0.0
 11
575.5748169839507
 21
628.4319181076114
 31
0.0
  0
LINE
  5
1AC
330
2
100
AcDbEntity
  8
0
100
AcDbLine
 10
584.0748169839507
 20
632.4958441169092
 30
0.0
 11
584.0748169839507
 21
634.2958441169091
 31
0.0
  0
LINE
  5
1AD
330
2
100
AcDbEntity
  8
0
100
AcDbLine
 10
567.0748169839507
 20
634.2958441169092
 30
0.0
 11
567.0748169839507
 21
632.4958441169092
 31
0.0
  0
LINE
  5
1AE
330
2
100
AcDbEntity
  8
0
100
AcDbLine
 10
584.0748169839507
 20
634.2958441169091
 30
0.0
 11
567.0748169839507
 21
634.2958441169092
 31
0.0
  0
LINE
  5
1AF
330
2
100
AcDbEntity
  8
0
100
AcDbLine
 10
582.8248169839508
 20
635.7958441169091
 30
0.0
 11
584.0748169839507
 21
634.2958441169091
 31
0.0
  0
LINE
  5
1B0
330
2
100
AcDbEntity
  8
0
100
AcDbLine
 10
568.3248169839507
 20
635.7958441169093
 30
0.0
 11
567.0748169839507
 21
634.2958441169092
 31
0.0
  0
LINE
  5
1B1
330
2
100
AcDbEntity
  8
0
100
AcDbLine
 10
568.3248169839507
 20
635.7958441169093
 30
0.0
 11
582.8248169839508
 21
635.7958441169091
 31
0.0
  0
CIRCLE
  5
1B2
330
2
100
AcDbEntity
  8
03-01
100
AcDbCircle
 10
278.2726671069131
 20
601.9958441169046
 30
0.0
 40
3.25
  0
LINE
  5
1B3
330
2
100
AcDbEntity
  8
05-01
100
AcDbLine
 10
278.2726671069131
 20
606.2458441169046
 30
0.0
 11
278.2726671069131
 21
597.7458441169046
 31
0.0
  0
LINE
  5
1B4
330
2
100
AcDbEntity
  8
05-01
100
AcDbLine
 10
274.0226671069131
 20
601.9958441169046
 30
0.0
 11
282.5226671069131
 21
601.9958441169046
 31
0.0
  0
ARC
  5
1B5
330
2
100
AcDbEntity
  8
03-01
100
AcDbCircle
 10
390.2726671069131
 20
356.9958441169047
 30
0.0
 40
6.25
100
AcDbArc
 50
113.5781784782071
 51
66.42182152179285
  0
LINE
  5
1B6
330
2
100
AcDbEntity
  8
05-01
100
AcDbLine
 10
397.5226671069131
 20
356.9958441169047
 30
0.0
 11
383.0226671069131
 21
356.9958441169047
 31
0.0
  0
LINE
  5
1B7
330
2
100
AcDbEntity
  8
05-01
100
AcDbLine
 10
393.7726671069131
 20
368.9958441169047
 30
0.0
 11
386.7726671069131
 21
368.9958441169047
 31
0.0
  0
LINE
  5
1B8
330
2
100
AcDbEntity
  8
03-01
100
AcDbLine
 10
392.7726671069131
 20
368.9958441169047
 30
0.0
 11
392.7726671069131
 21
362.7240637355999
 31
0.0
  0
LINE
  5
1B9
330
2
100
AcDbEntity
  8
01-01
100
AcDbLine
 10
390.2726671069131
 20
371.4958441169047
 30
0.0
 11
390.2726671069131
 21
371.4958441169047
 31
0.0
  0
ARC
  5
1BD
330
2
100
AcDbEntity
  8
03-01
100
AcDbCircle
 10
390.2726671069131
 20
368.9958441169047
 30
0.0
 40
2.5
100
AcDbArc
 50
0.0
 51
180.0
  0
LINE
  5
1BE
330
2
100
AcDbEntity
  8
03-01
100
AcDbLine
 10
387.7726671069131
 20
362.7240637355999
 30
0.0
 11
387.7726671069131
 21
368.9958441169047
 31
0.0
  0
LINE
  5
1BF
330
2
100
AcDbEntity
  8
05-01
100
AcDbLine
 10
390.2726671069131
 20
372.4958441169047
 30
0.0
 11
390.2726671069131
 21
349.7458441169047
 31
0.0
  0
ARC
  5
1C0
330
2
100
AcDbEntity
  8
03-01
100
AcDbCircle
 10
166.2726671069131
 20
356.9958441169047
 30
0.0
 40
6.25
100
AcDbArc
 50
113.5781784782071
 51
66.42182152179285
  0
LINE
  5
1C1
330
2
100
AcDbEntity
  8
05-01
100
AcDbLine
 10
159.0226671069131
 20
356.9958441169047
 30
0.0
 11
173.5226671069131
 21
356.9958441169047
 31
0.0
  0
LINE
  5
1C2
330
2
100
AcDbEntity
  8
05-01
100
AcDbLine
 10
162.7726671069131
 20
368.9958441169047
 30
0.0
 11
169.7726671069131
 21
368.9958441169047
 31
0.0
  0
LINE
  5
1C3
330
2
100
AcDbEntity
  8
03-01
100
AcDbLine
 10
163.7726671069131
 20
368.9958441169047
 30
0.0
 11
163.7726671069131
 21
362.7240637355999
 31
0.0
  0
LINE
  5
1C4
330
2
100
AcDbEntity
  8
01-01
100
AcDbLine
 10
166.2726671069131
 20
371.4958441169047
 30
0.0
 11
166.2726671069131
 21
371.4958441169047
 31
0.0
  0
ARC
  5
1C5
330
2
100
AcDbEntity
  8
03-01
100
AcDbCircle
 10
166.2726671069131
 20
368.9958441169047
 30
0.0
 40
2.5
100
AcDbArc
 50
0.0
 51
180.0
  0
LINE
  5
1C6
330
2
100
AcDbEntity
  8
03-01
100
AcDbLine
 10
168.7726671069131
 20
362.7240637355999
 30
0.0
 11
168.7726671069131
 21
368.9958441169047
 31
0.0
  0
LINE
  5
1C7
330
2
100
AcDbEntity
  8
05-01
100
AcDbLine
 10
166.2726671069131
 20
372.4958441169047
 30
0.0
 11
166.2726671069131
 21
349.7458441169047
 31
0.0
  0
ARC
  5
1C8
330
2
100
AcDbEntity
  8
03-01
100
AcDbCircle
 10
390.2726671069131
 20
601.9958441169046
 30
0.0
 40
6.25
100
AcDbArc
 50
113.5781784782071
 51
66.42182152179285
  0
LINE
  5
1C9
330
2
100
AcDbEntity
  8
05-01
100
AcDbLine
 10
397.5226671069131
 20
601.9958441169046
 30
0.0
 11
383.0226671069131
 21
601.9958441169046
 31
0.0
  0
LINE
  5
1CA
330
2
100
AcDbEntity
  8
05-01
100
AcDbLine
 10
393.7726671069131
 20
613.9958441169047
 30
0.0
 11
386.7726671069131
 21
613.9958441169047
 31
0.0
  0
LINE
  5
1CB
330
2
100
AcDbEntity
  8
03-01
100
AcDbLine
 10
392.7726671069131
 20
613.9958441169047
 30
0.0
 11
392.7726671069131
 21
607.7240637355998
 31
0.0
  0
LINE
  5
1CC
330
2
100
AcDbEntity
  8
03-01
100
AcDbLine
 10
390.2726671069131
 20
616.4958441169046
 30
0.0
 11
390.2726671069131
 21
616.4958441169046
 31
0.0
  0
ARC
  5
1CD
330
2
100
AcDbEntity
  8
03-01
100
AcDbCircle
 10
390.2726671069131
 20
613.9958441169047
 30
0.0
 40
2.5
100
AcDbArc
 50
0.0
 51
180.0
  0
LINE
  5
1CE
330
2
100
AcDbEntity
  8
03-01
100
AcDbLine
 10
387.7726671069131
 20
607.7240637355998
 30
0.0
 11
387.7726671069131
 21
613.9958441169047
 31
0.0
  0
LINE
  5
1CF
330
2
100
AcDbEntity
  8
05-01
100
AcDbLine
 10
390.2726671069131
 20
617.4958441169046
 30
0.0
 11
390.2726671069131
 21
594.7458441169046
 31
0.0
  0
ARC
  5
1D0
330
2
100
AcDbEntity
  8
03-01
100
AcDbCircle
 10
166.2726671069131
 20
601.9958441169046
 30
0.0
 40
6.25
100
AcDbArc
 50
113.5781784782071
 51
66.42182152179285
  0
LINE
  5
1D1
330
2
100
AcDbEntity
  8
05-01
100
AcDbLine
 10
159.0226671069131
 20
601.9958441169046
 30
0.0
 11
173.5226671069131
 21
601.9958441169046
 31
0.0
  0
LINE
  5
1D2
330
2
100
AcDbEntity
  8
05-01
100
AcDbLine
 10
162.7726671069131
 20
613.9958441169047
 30
0.0
 11
169.7726671069131
 21
613.9958441169047
 31
0.0
  0
LINE
  5
1D3
330
2
100
AcDbEntity
  8
03-01
100
AcDbLine
 10
163.7726671069131
 20
613.9958441169047
 30
0.0
 11
163.7726671069131
 21
607.7240637355998
 31
0.0
  0
LINE
  5
1D4
330
2
100
AcDbEntity
  8
01-01
100
AcDbLine
 10
166.2726671069131
 20
616.4958441169046
 30
0.0
 11
166.2726671069131
 21
616.4958441169046
 31
0.0
  0
ARC
  5
1D5
330
2
100
AcDbEntity
  8
03-01
100
AcDbCircle
 10
166.2726671069131
 20
613.9958441169047
 30
0.0
 40
2.5
100
AcDbArc
 50
0.0
 51
180.0
  0
LINE
  5
1D6
330
2
100
AcDbEntity
  8
03-01
100
AcDbLine
 10
168.7726671069131
 20
607.7240637355998
 30
0.0
 11
168.7726671069131
 21
613.9958441169047
 31
0.0
  0
LINE
  5
1D7
330
2
100
AcDbEntity
  8
05-01
100
AcDbLine
 10
166.2726671069131
 20
617.4958441169046
 30
0.0
 11
166.2726671069131
 21
594.7458441169046
 31
0.0
  0
DIMENSION
  5
1D8
330
2
100
AcDbEntity
  8
09-01
100
AcDbDimension
280
     0
  2
*D7
 10
118.7555311579622
 20
334.4958441169056
 30
0.0
 11
114.2555311579621
 21
483.495844116905
 31
0.0
 71
     5
 42
297.999999999999
 73
     0
 74
     0
 75
     0
  3
Wagner$0
100
AcDbAlignedDimension
 13
145.9726671069129
 23
632.4958441169046
 33
0.0
 14
145.9726671069129
 24
334.4958441169056
 34
0.0
 50
90.0
100
AcDbRotatedDimension
1001
ACAD
1000
DSTYLE
1002
{
1070
    40
1040
2.0
1002
}
  0
LINE
  5
1E5
330
2
100
AcDbEntity
  8
05-01
100
AcDbLine
 10
278.2726671069131
 20
219.9480027242353
 30
0.0
 11
278.2726671069131
 21
241.4480027242352
 31
0.0
  0
LINE
  5
1E6
330
2
100
AcDbEntity
  8
05-01
100
AcDbLine
 10
267.7726671069131
 20
230.4480027242353
 30
0.0
 11
288.7726671069131
 21
230.4480027242353
 31
0.0
  0
CIRCLE
  5
1E7
330
2
100
AcDbEntity
  8
0
100
AcDbCircle
 10
278.2726671069131
 20
230.4480027242353
 30
0.0
 40
8.5
  0
CIRCLE
  5
1E8
330
2
100
AcDbEntity
  8
0
100
AcDbCircle
 10
278.2726671069131
 20
230.4480027242353
 30
0.0
 40
5.799999999999999
  0
LINE
  5
1E9
330
2
100
AcDbEntity
  8
0
100
AcDbLine
 10
277.0226671069131
 20
227.2525745621912
 30
0.0
 11
279.5226671069131
 21
227.2525745621912
 31
0.0
  0
LINE
  5
1EA
330
2
100
AcDbEntity
  8
0
100
AcDbLine
 10
277.0226671069131
 20
235.2480027242353
 30
0.0
 11
279.5226671069131
 21
235.2480027242353
 31
0.0
  0
LWPOLYLINE
  5
1EB
330
2
100
AcDbEntity
  8
0
100
AcDbPolyline
 90
        2
 70
     0
 43
0.0
 10
277.0226671069131
 20
233.4466111981212
 10
277.0226671069131
 20
235.2480027242353
  0
LWPOLYLINE
  5
1EC
330
2
100
AcDbEntity
  8
0
100
AcDbPolyline
 90
        2
 70
     0
 43
0.0
 10
277.0226671069131
 20
227.2525745621912
 10
277.0226671069131
 20
229.116484179199
  0
LWPOLYLINE
  5
1ED
330
2
100
AcDbEntity
  8
0
100
AcDbPolyline
 90
        2
 70
     0
 43
0.0
 10
279.5226671069131
 20
233.4466111981212
 10
279.5226671069131
 20
235.2480027242353
  0
LWPOLYLINE
  5
1EE
330
2
100
AcDbEntity
  8
0
100
AcDbPolyline
 90
        2
 70
     0
 43
0.0
 10
279.5226671069131
 20
227.2525745621912
 10
279.5226671069131
 20
229.116484179199
  0
ARC
  5
1EF
330
2
100
AcDbEntity
  8
0
100
AcDbCircle
 10
278.2726671069131
 20
231.28154768866
 30
0.0
 40
2.5
100
AcDbArc
 50
299.9999999999997
 51
60.00000000000028
  0
ARC
  5
1F0
330
2
100
AcDbEntity
  8
0
100
AcDbCircle
 10
278.2726671069131
 20
231.28154768866
 30
0.0
 40
2.5
100
AcDbArc
 50
119.9999999999997
 51
240.0000000000003
  0
CIRCLE
  5
1F1
330
2
100
AcDbEntity
  8
0
100
AcDbCircle
 10
278.2726671069131
 20
230.4480027242353
 30
0.0
 40
6.75
  0
CIRCLE
  5
1F2
330
2
100
AcDbEntity
  8
0
100
AcDbCircle
 10
278.2726671069131
 20
230.4480027242353
 30
0.0
 40
7.25
  0
INSERT
  5
1F3
330
2
100
AcDbEntity
  8
09-01
100
AcDbBlockReference
 66
     1
  2
DIN A3
 10
0.0000005755600796
 20
-0.0000019034491743
 30
0.0
 41
2.5
 42
2.5
 43
2.5
  0
ATTRIB
  5
39A
330
1F3
100
AcDbEntity
  8
06-99
100
AcDbText
 10
813.7386168478396
 20
67.96959674320397
 30
0.0
 40
11.25
  1
Handtuchspender PP 113
 41
0.9
  7
ROMANS8
100
AcDbAttribute
280
     0
  2
TEILE
 70
     0
280
     0
  0
ATTRIB
  5
39B
330
1F3
100
AcDbEntity
  8
06-99
100
AcDbText
 10
813.7386168478396
 20
49.72943400885606
 30
0.0
 40
11.25
  1

 41
0.9
  7
ROMANS8
100
AcDbAttribute
280
     0
  2
TEILE2
 70
     0
280
     0
  0
ATTRIB
  5
39C
330
1F3
100
AcDbEntity
  8
06-99
100
AcDbText
 10
1000.868465529183
 20
115.8333333333317
 30
0.0
 40
8.4375
  1
1:2
  7
ROMANS8
100
AcDbAttribute
280
     0
  2
:
 70
     0
280
     0
  0
ATTRIB
  5
39D
330
1F3
100
AcDbEntity
  8
06-99
100
AcDbText
 10
754.992669498316
 20
71.10421367007666
 30
0.0
 40
6.25
  1
Pfrepper
 41
0.9
  7
ROMANS8
100
AcDbAttribute
280
     0
  2
NAME
 70
     0
280
     0
  0
ATTRIB
  5
39E
330
1F3
100
AcDbEntity
  8
06-99
100
AcDbText
 10
721.2328661296314
 20
71.15308793527629
 30
0.0
 40
6.25
  1
24.01.2012
 50
359.9144597696145
 41
0.5691052222933336
  7
ROMANS8
 72
     5
 11
749.3493428009942
 21
71.11111116666506
 31
0.0
100
AcDbAttribute
280
     0
  2
DATUM
 70
     0
280
     0
  0
ATTRIB
  5
39F
330
1F3
100
AcDbEntity
  8
06-99
100
AcDbText
 10
968.7658599177931
 20
21.23224950072017
 30
0.0
 40
7.4844
  1
727540
  7
ROMANS8
100
AcDbAttribute
280
     0
  2
ID.NR
 70
     0
280
     0
  0
ATTRIB
  5
3A0
330
1F3
100
AcDbEntity
  8
06-99
100
AcDbText
 10
814.3281656391728
 20
96.66666661110959
 30
0.0
 40
7.5
  1

 41
0.9
  7
ROMANS8
100
AcDbAttribute
280
     0
  2
LÄNGE
 70
     0
280
     0
  0
ATTRIB
  5
3A1
330
1F3
100
AcDbEntity
  8
06-99
100
AcDbText
 10
897.9520122793211
 20
96.69525967611026
 30
0.0
 40
7.5
  1

 41
0.9
  7
ROMANS8
100
AcDbAttribute
280
     0
  2
BREITE
 70
     0
280
     0
  0
ATTRIB
  5
3A2
330
1F3
100
AcDbEntity
  8
06-99
100
AcDbText
 10
999.0227303167275
 20
96.66666666666515
 30
0.0
 40
7.734375000000001
  1

  7
ROMANS8
100
AcDbAttribute
280
     0
  2
1.0
 70
     0
280
     0
  0
ATTRIB
  5
3A3
330
1F3
100
AcDbEntity
  8
06-99
100
AcDbText
 10
932.8194640034043
 20
115.8333333333317
 30
0.0
 40
7.5
  1

  7
ROMANS8
 72
     1
 11
932.8194640034043
 21
115.8333333333317
 31
0.0
100
AcDbAttribute
280
     0
  2
IV
 70
     0
280
     0
  0
ATTRIB
  5
3A4
330
1F3
100
AcDbEntity
  8
06-99
100
AcDbText
 10
830.6868513401868
 20
115.8333333333312
 30
0.0
 40
8.4375
  1
1.4301
  7
ROMANS8
100
AcDbAttribute
280
     0
  2
1.4301
 70
     0
280
     0
  0
ATTRIB
  5
3A5
330
1F3
100
AcDbEntity
  8
06-99
100
AcDbText
 10
887.5015847170988
 20
21.2609915108851
 30
0.0
 40
7.919999999999999
  1

 41
0.9000000000000001
  7
ROMANS8
100
AcDbAttribute
280
     0
  2
AUFTRAGS.NR.
 70
     0
280
     0
  0
ATTRIB
  5
3A6
330
1F3
100
AcDbEntity
  8
06-99
100
AcDbText
 10
813.7499999998972
 20
21.24999999999818
 30
0.0
 40
7.919999999999999
  1

 41
0.9000000000000001
  7
ROMANS8
100
AcDbAttribute
280
     0
  2
SONDER-NR
 70
     0
280
     0
  0
ATTRIB
  5
3A7
330
1F3
100
AcDbEntity
  8
06-99
100
AcDbText
 10
638.7493774874183
 20
19.00452517314807
 30
0.0
 40
3.75
  1

 41
0.9
  7
ROMANS8
100
AcDbAttribute
280
     0
  2
ERSETZT.DURCH
 70
     0
280
     0
  0
ATTRIB
  5
3A8
330
1F3
100
AcDbEntity
  8
06-99
100
AcDbText
 10
576.2486694503941
 20
18.99364099467948
 30
0.0
 40
3.75
  1

 41
0.9
  7
ROMANS8
100
AcDbAttribute
280
     0
  2
ERSETZT.FÜR
 70
     0
280
     0
  0
ATTRIB
  5
3A9
330
1F3
100
AcDbEntity
  8
06-99
100
AcDbText
 10
772.5092887588486
 20
121.6712778500182
 30
0.0
 40
3.2175
  1
DIN A3
  7
ROMANS8
 72
     1
 11
780.6296459017057
 21
121.6712778500182
 31
0.0
100
AcDbAttribute
280
     0
  2
FORMAT
 70
     0
280
     0
  0
ATTRIB
  5
3AA
330
1F3
100
AcDbEntity
  8
06-99
100
AcDbText
 10
762.4785714284691
 20
95.99166666666496
 30
0.0
 40
5.85
  1
DIN 2768
  7
ROMANS8
 72
     1
 11
782.5357142856119
 21
95.99166666666496
 31
0.0
100
AcDbAttribute
280
     0
  2
NORM2
 70
     0
280
     0
  0
ATTRIB
  5
3AB
330
1F3
100
AcDbEntity
  8
06-99
100
AcDbText
 10
754.5392857141843
 20
105.574999999998
 30
0.0
 40
5.85
  1
DIN 6930-M
  7
ROMANS8
 72
     1
 11
781.2821428570414
 21
105.574999999998
 31
0.0
100
AcDbAttribute
280
     0
  2
NORM1
 70
     0
280
     0
  0
SEQEND
  5
3AC
330
1F3
100
AcDbEntity
  8
09-01
  0
DIMENSION
  5
3AD
330
2
100
AcDbEntity
  8
09-01
100
AcDbDimension
280
     0
  2
*D6
 10
155.7726671069126
 20
151.9480027242352
 30
0.0
 11
133.2616618059837
 21
135.6637080986564
 31
0.0
 70
     4
 71
     5
 42
9.999999999999914
 73
     0
 74
     0
 75
     0
  3
Wagner
100
AcDbRadialDimension
 15
148.726666764092
 25
144.8519559960232
 35
0.0
 40
0.0
1001
ACAD_DSTYLE_DIMRADIAL_EXTENSION
1070
   387
1070
     1
1070
   388
1040
3.141592653589793
1070
   390
1040
4.712388980384689
1001
ACAD
1000
DSTYLE
1002
{
1070
    40
1040
2.0
1002
}
  0
DIMENSION
  5
3B7
330
2
100
AcDbEntity
  8
09-01
100
AcDbDimension
280
     0
  2
*D5
 10
430.4210544112093
 20
632.4958441169046
 30
0.0
 11
425.9210544112092
 21
476.358574602818
 31
0.0
 71
     5
 42
312.2745390281734
 73
     0
 74
     0
 75
     0
  3
Wagner$0
100
AcDbAlignedDimension
 13
393.5726671069133
 23
320.2213050887313
 33
0.0
 14
410.5726671069133
 24
632.4958441169046
 34
0.0
 50
90.0
100
AcDbRotatedDimension
1001
ACAD
1000
DSTYLE
1002
{
1070
   271
1070
     1
1070
    40
1040
2.0
1002
}
  0
LINE
  5
3C4
330
2
100
AcDbEntity
  8
09-01
100
AcDbLine
 10
410.5726671069133
 20
630.9958441169055
 30
0.0
 11
410.5726671069133
 21
632.4958441169046
 31
0.0
  0
LINE
  5
3C5
330
2
100
AcDbEntity
  8
09-01
100
AcDbLine
 10
145.9726671069129
 20
630.9958441169055
 30
0.0
 11
145.9726671069129
 21
632.4958441169046
 31
0.0
  0
LINE
  5
3C6
330
2
100
AcDbEntity
  8
09-01
100
AcDbLine
 10
410.5726671069133
 20
632.4958441169046
 30
0.0
 11
145.9726671069129
 21
632.4958441169046
 31
0.0
  0
DIMENSION
  5
3C7
330
2
100
AcDbEntity
  8
09-01
100
AcDbDimension
280
     0
  2
*D4
 10
664.0748169839508
 20
645.0407485338937
 30
0.0
 11
604.0748169839507
 21
649.5407485338937
 31
0.0
 71
     5
 42
120.0
 73
     0
 74
     0
 75
     0
  3
Wagner$0
100
AcDbAlignedDimension
 13
544.0748169839507
 23
632.4958441169046
 33
0.0
 14
664.0748169839508
 24
632.4958441169055
 34
0.0
100
AcDbRotatedDimension
1001
ACAD
1000
DSTYLE
1002
{
1070
    40
1040
2.0
1002
}
  0
DIMENSION
  5
3D4
330
2
100
AcDbEntity
  8
09-01
100
AcDbDimension
280
     0
  2
*D3
 10
410.5726671069133
 20
657.7615247609465
 30
0.0
 11
278.2726671069131
 21
662.2615247609465
 31
0.0
 71
     5
 42
264.6000000000004
 73
     0
 74
     0
 75
     0
  3
Wagner$0
100
AcDbAlignedDimension
 13
145.9726671069129
 23
632.4958441169046
 33
0.0
 14
410.5726671069133
 24
632.4958441169046
 34
0.0
100
AcDbRotatedDimension
1001
ACAD
1000
DSTYLE
1002
{
1070
    40
1040
2.0
1002
}
  0
LINE
  5
3E1
330
2
100
AcDbEntity
  8
05-01
100
AcDbLine
 10
144.0570270759308
 20
254.9480027242353
 30
0.0
 11
151.2470557933657
 21
254.9480027242353
 31
0.0
  0
LINE
  5
3E2
330
2
100
AcDbEntity
  8
09-01
100
AcDbLine
 10
145.9726671069129
 20
261.9480027242353
 30
0.0
 11
410.5726671069133
 21
261.9480027242353
 31
0.0
  0
LINE
  5
3E3
330
2
100
AcDbEntity
  8
05-01
100
AcDbLine
 10
412.4883071378953
 20
254.9480027242353
 30
0.0
 11
405.2982784204605
 21
254.9480027242353
 31
0.0
  0
LINE
  5
3E4
330
2
100
AcDbEntity
  8
05-01
100
AcDbLine
 10
551.0748169839508
 20
344.9097723912564
 30
0.0
 11
551.0748169839508
 21
337.7197436738216
 31
0.0
  0
LINE
  5
3E5
330
2
100
AcDbEntity
  8
05-01
100
AcDbLine
 10
554.488745258302
 20
341.4958441169056
 30
0.0
 11
547.2987165408672
 21
341.4958441169056
 31
0.0
  0
CIRCLE
  5
3E6
330
2
100
AcDbEntity
  8
0
100
AcDbCircle
 10
551.0748169839508
 20
341.4958441169056
 30
0.0
 40
1.649999999999999
  0
ARC
  5
3E7
330
2
100
AcDbEntity
  8
0
100
AcDbCircle
 10
551.0748169839508
 20
341.4958441169056
 30
0.0
 40
7.0
100
AcDbArc
 50
180.0
 51
270.0
  0
LINE
  5
3E8
330
2
100
AcDbEntity
  8
0
100
AcDbLine
 10
551.0748169839508
 20
334.4958441169056
 30
0.0
 11
663.8748169839509
 21
334.4958441169056
 31
0.0
  0
LINE
  5
3E9
330
2
100
AcDbEntity
  8
05-01
100
AcDbLine
 10
414.1865953812648
 20
341.4958441169056
 30
0.0
 11
406.9965666638295
 21
341.4958441169056
 31
0.0
  0
LINE
  5
3EA
330
2
100
AcDbEntity
  8
09-01
100
AcDbLine
 10
410.5726671069137
 20
334.4958441169056
 30
0.0
 11
410.5726671069133
 21
630.9958441169055
 31
0.0
  0
LINE
  5
3EB
330
2
100
AcDbEntity
  8
09-01
100
AcDbLine
 10
400.0067147924428
 20
324.4639457758513
 30
0.0
 11
156.5386194213834
 21
324.4639457758513
 31
0.0
  0
LINE
  5
3EC
330
2
100
AcDbEntity
  8
0
100
AcDbLine
 10
155.9726671069133
 20
332.2285171289268
 30
0.0
 11
400.5726671069132
 21
332.2285171289268
 31
0.0
  0
LINE
  5
3ED
330
2
100
AcDbEntity
  8
05-01
100
AcDbLine
 10
142.3587388325618
 20
341.4958441169056
 30
0.0
 11
149.5487675499967
 21
341.4958441169056
 31
0.0
  0
LINE
  5
3EE
330
2
100
AcDbEntity
  8
09-01
100
AcDbLine
 10
145.9726671069129
 20
334.4958441169056
 30
0.0
 11
145.9726671069129
 21
630.9958441169055
 31
0.0
  0
LINE
  5
3EF
330
2
100
AcDbEntity
  8
0
100
AcDbLine
 10
630.147294726973
 20
320.9284118699179
 30
0.0
 11
630.7129801519222
 21
320.3627264449679
 31
0.0
  0
LINE
  5
3F0
330
2
100
AcDbEntity
  8
0
100
AcDbLine
 10
634.579404105074
 20
325.3605212480188
 30
0.0
 11
630.147294726973
 21
320.9284118699179
 31
0.0
  0
LINE
  5
3F1
330
2
100
AcDbEntity
  8
0
100
AcDbLine
 10
634.9935145772369
 20
324.6432608702835
 30
0.0
 11
630.7129801519222
 21
320.3627264449679
 31
0.0
  0
LINE
  5
3F2
330
2
100
AcDbEntity
  8
0
100
AcDbLine
 10
663.0748169839507
 20
332.9958441169056
 30
0.0
 11
634.579404105074
 21
325.3605212480188
 31
0.0
  0
LINE
  5
3F3
330
2
100
AcDbEntity
  8
0
100
AcDbLine
 10
663.8748169839509
 20
332.3819825265218
 30
0.0
 11
634.9935145772369
 21
324.6432608702835
 31
0.0
  0
LINE
  5
3F4
330
2
100
AcDbEntity
  8
0
100
AcDbLine
 10
663.0748169839512
 20
334.4958441169056
 30
0.0
 11
663.0748169839507
 21
332.9958441169056
 31
0.0
  0
LINE
  5
3F5
330
2
100
AcDbEntity
  8
0
100
AcDbLine
 10
544.0748169839507
 20
632.4958441169046
 30
0.0
 11
544.0748169839507
 21
341.4958441169056
 31
0.0
  0
LINE
  5
3F6
330
2
100
AcDbEntity
  8
0
100
AcDbLine
 10
663.8748169839509
 20
632.4958441169055
 30
0.0
 11
663.8748169839509
 21
332.3819825265218
 31
0.0
  0
LINE
  5
3F7
330
2
100
AcDbEntity
  8
0
100
AcDbLine
 10
544.0748169839507
 20
632.4958441169046
 30
0.0
 11
664.0748169839508
 21
632.4958441169055
 31
0.0
  0
LINE
  5
3F8
330
2
100
AcDbEntity
  8
0
100
AcDbLine
 10
544.0748169839507
 20
630.9958441169055
 30
0.0
 11
664.0748169839508
 21
630.9958441169055
 31
0.0
  0
ARC
  5
3F9
330
2
100
AcDbEntity
  8
0
100
AcDbCircle
 10
155.7726671069131
 20
151.9480027242352
 30
0.0
 40
9.8
100
AcDbArc
 50
180.0
 51
270.0
  0
ARC
  5
3FA
330
2
100
AcDbEntity
  8
0
100
AcDbCircle
 10
400.772667106913
 20
151.9480027242352
 30
0.0
 40
9.8
100
AcDbArc
 50
270.0
 51
0.0
  0
LINE
  5
3FB
330
2
100
AcDbEntity
  8
0
100
AcDbLine
 10
145.9726671069129
 20
261.9480027242353
 30
0.0
 11
145.9726671069129
 21
151.9480027242352
 31
0.0
  0
LINE
  5
3FC
330
2
100
AcDbEntity
  8
0
100
AcDbLine
 10
410.5726671069133
 20
151.9480027242352
 30
0.0
 11
410.5726671069133
 21
261.9480027242353
 31
0.0
  0
LINE
  5
3FD
330
2
100
AcDbEntity
  8
0
100
AcDbLine
 10
155.7726671069131
 20
142.1480027242351
 30
0.0
 11
400.772667106913
 21
142.1480027242351
 31
0.0
  0
LINE
  5
3FE
330
2
100
AcDbEntity
  8
0
100
AcDbLine
 10
410.5726671069133
 20
630.9958441169055
 30
0.0
 11
145.9726671069129
 21
630.9958441169055
 31
0.0
  0
ARC
  5
3FF
330
2
100
AcDbEntity
  8
0
100
AcDbCircle
 10
162.9726671069134
 20
327.2213050887312
 30
0.0
 40
7.0
100
AcDbArc
 50
180.0
 51
270.0
  0
LINE
  5
400
330
2
100
AcDbEntity
  8
0
100
AcDbLine
 10
155.9726671069133
 20
334.4958441169056
 30
0.0
 11
155.9726671069133
 21
327.2213050887312
 31
0.0
  0
LINE
  5
401
330
2
100
AcDbEntity
  8
0
100
AcDbLine
 10
145.9726671069129
 20
334.4958441169056
 30
0.0
 11
155.9726671069133
 21
334.4958441169056
 31
0.0
  0
LINE
  5
402
330
2
100
AcDbEntity
  8
0
100
AcDbLine
 10
275.7726671069131
 20
401.9958441169055
 30
0.0
 11
275.7726671069131
 21
356.9958441169056
 31
0.0
  0
ARC
  5
403
330
2
100
AcDbEntity
  8
0
100
AcDbCircle
 10
393.5726671069133
 20
327.2213050887312
 30
0.0
 40
7.0
100
AcDbArc
 50
270.0
 51
0.0
  0
LINE
  5
404
330
2
100
AcDbEntity
  8
0
100
AcDbLine
 10
400.5726671069132
 20
327.2213050887312
 30
0.0
 11
400.5726671069132
 21
334.4958441169056
 31
0.0
  0
LINE
  5
405
330
2
100
AcDbEntity
  8
0
100
AcDbLine
 10
400.5726671069132
 20
334.4958441169056
 30
0.0
 11
410.5726671069137
 21
334.4958441169056
 31
0.0
  0
LINE
  5
406
330
2
100
AcDbEntity
  8
0
100
AcDbLine
 10
280.7726671069131
 20
356.9958441169056
 30
0.0
 11
280.7726671069131
 21
401.9958441169055
 31
0.0
  0
LINE
  5
407
330
2
100
AcDbEntity
  8
0
100
AcDbLine
 10
162.9726671069134
 20
320.2213050887313
 30
0.0
 11
393.5726671069133
 21
320.2213050887313
 31
0.0
  0
ARC
  5
408
330
2
100
AcDbEntity
  8
0
100
AcDbCircle
 10
278.2726671069131
 20
356.9958441169056
 30
0.0
 40
2.5
100
AcDbArc
 50
180.0
 51
0.0
  0
ARC
  5
409
330
2
100
AcDbEntity
  8
0
100
AcDbCircle
 10
278.2726671069131
 20
401.9958441169055
 30
0.0
 40
2.5
100
AcDbArc
 50
0.0
 51
180.0
  0
ARC
  5
40A
330
2
100
AcDbEntity
  8
0
100
AcDbCircle
 10
404.272667106913
 20
325.3983017665223
 30
0.0
 40
3.0
100
AcDbArc
 50
270.0
 51
0.0
  0
LINE
  5
40B
330
2
100
AcDbEntity
  8
05-01
100
AcDbLine
 10
411.6444555444968
 20
341.4958441169056
 30
0.0
 11
403.5976997949833
 21
341.4958441169056
 31
0.0
  0
LINE
  5
40C
330
2
100
AcDbEntity
  8
03-01
100
AcDbLine
 10
407.7726671069135
 20
360.7887373357189
 30
0.0
 11
379.3419492500448
 21
332.358019478851
 31
0.0
  0
LINE
  5
40D
330
2
100
AcDbEntity
  8
03-01
100
AcDbLine
 10
408.7726671069135
 20
334.4958441169056
 30
0.0
 11
407.2726671069131
 21
334.4958441169056
 31
0.0
  0
LINE
  5
40E
330
2
100
AcDbEntity
  8
0
100
AcDbLine
 10
407.2726671069131
 20
334.4958441169056
 30
0.0
 11
407.2726671069131
 21
324.3376415947423
 31
0.0
  0
ARC
  5
40F
330
2
100
AcDbEntity
  8
0
100
AcDbCircle
 10
404.272667106913
 20
324.3376415947423
 30
0.0
 40
3.0
100
AcDbArc
 50
270.0
 51
0.0
  0
ARC
  5
410
330
2
100
AcDbEntity
  8
0
100
AcDbCircle
 10
152.2726671069131
 20
325.3983017665223
 30
0.0
 40
3.0
100
AcDbArc
 50
180.0
 51
270.0
  0
LINE
  5
411
330
2
100
AcDbEntity
  8
0
100
AcDbLine
 10
398.645993328827
 20
322.3983017665223
 30
0.0
 11
404.272667106913
 21
322.3983017665223
 31
0.0
  0
LINE
  5
412
330
2
100
AcDbEntity
  8
0
100
AcDbLine
 10
152.2726671069131
 20
322.3983017665223
 30
0.0
 11
157.8993408849997
 21
322.3983017665223
 31
0.0
  0
CIRCLE
  5
413
330
2
100
AcDbEntity
  8
01-01
100
AcDbCircle
 10
551.0748169839508
 20
341.4958441169056
 30
0.0
 40
1.649999999999999
  0
LINE
  5
414
330
2
100
AcDbEntity
  8
05-01
100
AcDbLine
 10
144.9008786693293
 20
341.4958441169056
 30
0.0
 11
152.9476344188433
 21
341.4958441169056
 31
0.0
  0
LINE
  5
415
330
2
100
AcDbEntity
  8
03-01
100
AcDbLine
 10
148.7726671069131
 20
360.7887373357198
 30
0.0
 11
177.2033849637819
 21
332.358019478851
 31
0.0
  0
LINE
  5
416
330
2
100
AcDbEntity
  8
0
100
AcDbLine
 10
147.7726671069131
 20
261.9480027242353
 30
0.0
 11
408.772667106913
 21
261.9480027242353
 31
0.0
  0
LINE
  5
417
330
2
100
AcDbEntity
  8
03-01
100
AcDbLine
 10
147.7726671069131
 20
334.4958441169056
 30
0.0
 11
149.2726671069131
 21
334.4958441169056
 31
0.0
  0
LINE
  5
418
330
2
100
AcDbEntity
  8
0
100
AcDbLine
 10
149.2726671069131
 20
334.4958441169056
 30
0.0
 11
149.2726671069131
 21
324.3376415947423
 31
0.0
  0
ARC
  5
419
330
2
100
AcDbEntity
  8
0
100
AcDbCircle
 10
152.2726671069131
 20
324.3376415947423
 30
0.0
 40
3.0
100
AcDbArc
 50
180.0
 51
270.0
  0
LINE
  5
41A
330
2
100
AcDbEntity
  8
0
100
AcDbLine
 10
397.3650942834711
 20
321.3376415947423
 30
0.0
 11
404.272667106913
 21
321.3376415947423
 31
0.0
  0
LINE
  5
41B
330
2
100
AcDbEntity
  8
0
100
AcDbLine
 10
152.2726671069131
 20
321.3376415947423
 30
0.0
 11
159.1802399303551
 21
321.3376415947423
 31
0.0
  0
LINE
  5
41C
330
2
100
AcDbEntity
  8
0
100
AcDbLine
 10
400.5663992645058
 20
326.9251454901132
 30
0.0
 11
407.2726671069131
 21
326.9251454901132
 31
0.0
  0
LINE
  5
41D
330
2
100
AcDbEntity
  8
0
100
AcDbLine
 10
149.2726671069131
 20
326.9251454901132
 30
0.0
 11
155.9726671069133
 21
326.9251454901132
 31
0.0
  0
ENDSEC
  0
SECTION
  2
OBJECTS
  0
DICTIONARY
  5
B
330
0
100
AcDbDictionary
281
     1
  3
ACAD_COLOR
350
4C
  3
ACAD_GROUP
350
39
  3
ACAD_LAYOUT
350
18
  3
ACAD_MATERIAL
350
D
  3
ACAD_MLEADERSTYLE
350
4F
  3
ACAD_MLINESTYLE
350
3A
  3
ACAD_PLOTSETTINGS
350
3B
  3
ACAD_PLOTSTYLENAME
350
A
  3
ACAD_SCALELIST
350
4D
  3
ACAD_TABLESTYLE
350
4E
  3
ACAD_VISUALSTYLE
350
30
  3
ACDB_RECOMPOSE_DATA
350
42A
  3
AcDbVariableDictionary
350
421
  0
DICTIONARY
  5
31
330
2D
100
AcDbDictionary
280
     1
281
     1
  0
DICTIONARY
  5
20
330
1F
100
AcDbDictionary
280
     1
281
     1
  3
ACAD_LAYERFILTERS
360
21
  3
ACAD_LAYERSTATES
360
22
  3
ACLYDICTIONARY
360
23
  0
DICTIONARY
  5
7
330
6
100
AcDbDictionary
280
     1
281
     1
  3
ADSK_XREC_LAYER_RECONCILED
360
8
  0
DICTIONARY
  5
1BB
330
1BA
100
AcDbDictionary
280
     1
281
     1
  3
ADSK_XREC_LAYER_RECONCILED
360
1BC
  0
DICTIONARY
  5
51
330
50
100
AcDbDictionary
280
     1
281
     1
  3
ADSK_XREC_LAYER_RECONCILED
360
52
  0
DICTIONARY
  5
7B
330
7A
100
AcDbDictionary
280
     1
281
     1
  3
ADSK_XREC_LAYER_RECONCILED
360
7C
  0
DICTIONARY
  5
D7
330
D6
100
AcDbDictionary
280
     1
281
     1
  3
ADSK_XREC_LAYER_RECONCILED
360
D8
  0
DICTIONARY
  5
1FA
330
1F9
100
AcDbDictionary
280
     1
281
     1
  3
ADSK_XREC_LAYER_RECONCILED
360
1FB
  0
DICTIONARY
  5
239
330
238
100
AcDbDictionary
280
     1
281
     1
  3
ADSK_XREC_LAYER_RECONCILED
360
23A
  0
DICTIONARY
  5
223
330
222
100
AcDbDictionary
280
     1
281
     1
  3
ADSK_XREC_LAYER_RECONCILED
360
224
  0
DICTIONARY
  5
1FF
330
1FE
100
AcDbDictionary
280
     1
281
     1
  0
DICTIONARY
  5
192
330
191
100
AcDbDictionary
280
     1
281
     1
  0
DICTIONARY
  5
3
330
2
100
AcDbDictionary
280
     1
281
     1
  3
ACAD_SORTENTS
360
420
  0
DICTIONARY
  5
1F5
330
1F4
100
AcDbDictionary
280
     1
281
     1
  3
ACAD_SORTENTS
360
41F
  0
DICTIONARY
  5
18D
330
18C
100
AcDbDictionary
280
     1
281
     1
  3
ACAD_SORTENTS
360
41E
  0
DICTIONARY
  5
4C
102
{ACAD_REACTORS
330
B
102
}
330
B
100
AcDbDictionary
281
     1
  0
DICTIONARY
  5
39
102
{ACAD_REACTORS
330
B
102
}
330
B
100
AcDbDictionary
281
     1
  0
DICTIONARY
  5
18
102
{ACAD_REACTORS
330
B
102
}
330
B
100
AcDbDictionary
281
     1
  3
Layout1
350
1E
  3
Model
350
17
  0
DICTIONARY
  5
D
102
{ACAD_REACTORS
330
B
102
}
330
B
100
AcDbDictionary
281
     1
  3
ByBlock
350
44
  3
ByLayer
350
3C
  3
Global
350
C
  0
DICTIONARY
  5
4F
102
{ACAD_REACTORS
330
B
102
}
330
B
100
AcDbDictionary
281
     1
  0
DICTIONARY
  5
3A
102
{ACAD_REACTORS
330
B
102
}
330
B
100
AcDbDictionary
281
     1
  3
Standard
350
53
  0
DICTIONARY
  5
3B
102
{ACAD_REACTORS
330
B
102
}
330
B
100
AcDbDictionary
281
     1
  0
ACDBDICTIONARYWDFLT
  5
A
102
{ACAD_REACTORS
330
B
102
}
330
B
100
AcDbDictionary
281
     1
  3
Normal
350
9
100
AcDbDictionaryWithDefault
340
9
  0
DICTIONARY
  5
4D
102
{ACAD_REACTORS
330
B
102
}
330
B
100
AcDbDictionary
281
     1
  3
A0
350
58
  3
A1
350
59
  3
A2
350
5A
  3
A3
350
5B
  3
A4
350
5C
  3
A5
350
5D
  3
A6
350
5E
  3
A7
350
5F
  3
A8
350
60
  3
A9
350
61
  3
B0
350
62
  3
B1
350
63
  3
B2
350
64
  3
B3
350
65
  3
B4
350
66
  3
B5
350
67
  3
B6
350
68
  3
B7
350
69
  3
B8
350
6A
  3
B9
350
6B
  3
C0
350
6C
  3
C1
350
6D
  3
C2
350
6E
  3
C3
350
6F
  3
C4
350
70
  3
C5
350
71
  3
C6
350
72
  3
C7
350
73
  3
C8
350
74
  3
C9
350
75
  3
D0
350
76
  3
D1
350
77
  3
D2
350
78
  0
DICTIONARY
  5
4E
102
{ACAD_REACTORS
330
B
102
}
330
B
100
AcDbDictionary
281
     1
  3
Standard
350
54
  0
DICTIONARY
  5
30
102
{ACAD_REACTORS
330
B
102
}
330
B
100
AcDbDictionary
281
     1
  3
2dWireframe
350
2F
  3
3dWireframe
350
57
  3
Realistic
350
56
  0
XRECORD
  5
42A
102
{ACAD_REACTORS
330
B
102
}
330
B
100
AcDbXrecord
280
     1
 90
        1
330
54
  0
DICTIONARY
  5
421
102
{ACAD_REACTORS
330
B
102
}
330
B
100
AcDbDictionary
281
     1
  3
CANNOSCALE
350
424
  3
CMLEADERSTYLE
350
423
  3
CTABLESTYLE
350
422
  3
LAYEREVAL
350
426
  3
LAYERNOTIFY
350
427
  3
LIGHTINGUNITS
350
425
  0
DICTIONARY
  5
21
102
{ACAD_REACTORS
330
20
102
}
330
20
100
AcDbDictionary
281
     1
  0
DICTIONARY
  5
22
102
{ACAD_REACTORS
330
20
102
}
330
20
100
AcDbDictionary
281
     1
  0
DICTIONARY
  5
23
102
{ACAD_REACTORS
330
20
102
}
330
20
100
AcDbDictionary
281
     1
1001
ACAD
1000
<All
  0
XRECORD
  5
8
102
{ACAD_REACTORS
330
7
102
}
330
7
100
AcDbXrecord
280
     1
290
     1
  0
XRECORD
  5
1BC
102
{ACAD_REACTORS
330
1BB
102
}
330
1BB
100
AcDbXrecord
280
     1
290
     1
  0
XRECORD
  5
52
102
{ACAD_REACTORS
330
51
102
}
330
51
100
AcDbXrecord
280
     1
290
     1
  0
XRECORD
  5
7C
102
{ACAD_REACTORS
330
7B
102
}
330
7B
100
AcDbXrecord
280
     1
290
     1
  0
XRECORD
  5
D8
102
{ACAD_REACTORS
330
D7
102
}
330
D7
100
AcDbXrecord
280
     1
290
     1
  0
XRECORD
  5
1FB
102
{ACAD_REACTORS
330
1FA
102
}
330
1FA
100
AcDbXrecord
280
     1
290
     1
  0
XRECORD
  5
23A
102
{ACAD_REACTORS
330
239
102
}
330
239
100
AcDbXrecord
280
     1
290
     1
  0
XRECORD
  5
224
102
{ACAD_REACTORS
330
223
102
}
330
223
100
AcDbXrecord
280
     1
290
     1
  0
SORTENTSTABLE
  5
420
102
{ACAD_REACTORS
330
3
102
}
330
3
100
AcDbSortentsTable
330
2
331
EE
  5
3EA
331
EA
  5
3EE
331
1A7
  5
1C9
331
3FF
  5
D5
331
3FB
  5
DD
331
3F7
  5
E1
331
3F3
  5
E5
331
E6
  5
3F2
331
E2
  5
3F6
331
DE
  5
3FA
331
DA
  5
3FE
331
115
  5
1EB
331
1D6
  5
176
331
3EF
  5
E9
331
1D2
  5
17A
331
3EB
  5
ED
331
1CE
  5
17E
331
3E7
  5
F1
331
1CA
  5
1A6
331
18B
  5
1CD
331
3E3
  5
F5
331
97
  5
403
331
93
  5
407
331
8F
  5
40B
331
8B
  5
40F
331
105
  5
1ED
331
140
  5
1E8
331
101
  5
1F1
331
1C6
  5
1AA
331
41A
  5
80
331
1C2
  5
1AE
331
1BE
  5
1B2
331
416
  5
84
331
412
  5
88
331
17B
  5
1D1
331
1F1
  5
101
331
87
  5
413
331
83
  5
417
331
FD
  5
3B7
331
F9
  5
3C7
331
7F
  5
41B
331
BA
  5
401
331
F5
  5
3E3
331
F1
  5
3E7
331
177
  5
1D5
331
1B6
  5
1B7
331
40E
  5
8C
331
40A
  5
90
331
1B2
  5
1BE
331
1ED
  5
105
331
406
  5
94
331
3C7
  5
F9
331
1E9
  5
133
331
1AE
  5
1C2
331
1AA
  5
1C6
331
1E5
  5
167
331
402
  5
AE
331
AE
  5
402
331
ED
  5
3EB
331
167
  5
1E5
331
E9
  5
3EF
331
124
  5
1EA
331
1A6
  5
1CA
331
3FE
  5
DA
331
3FA
  5
DE
331
3F6
  5
E2
331
3F2
  5
E6
331
E5
  5
3F3
331
E1
  5
3F7
331
DD
  5
3FB
331
3B7
  5
FD
331
1D5
  5
177
331
3EE
  5
EA
331
1D1
  5
17B
331
3EA
  5
EE
331
1CD
  5
18B
331
3E6
  5
F2
331
1C9
  5
1A7
331
3E2
  5
F6
331
96
  5
404
331
D5
  5
3FF
331
92
  5
408
331
8E
  5
40C
331
8A
  5
410
331
104
  5
1EE
331
100
  5
1F2
331
1C5
  5
1AB
331
41D
  5
79
331
419
  5
81
331
1C1
  5
1AF
331
1BD
  5
1B3
331
415
  5
85
331
17E
  5
1CE
331
17A
  5
1D2
331
1B9
  5
1B4
331
411
  5
89
331
1F0
  5
102
331
86
  5
414
331
FC
  5
3C4
331
82
  5
418
331
F8
  5
3D4
331
7E
  5
41C
331
F4
  5
3E4
331
133
  5
1E9
331
F0
  5
3E8
331
176
  5
1D6
331
1B5
  5
1B8
331
40D
  5
8D
331
409
  5
91
331
1B1
  5
1BF
331
1EC
  5
106
331
1AD
  5
1C3
331
3C6
  5
FA
331
1E8
  5
140
331
405
  5
95
331
1A9
  5
1C7
331
401
  5
BA
331
EC
  5
3EC
331
E8
  5
3F0
331
1A5
  5
1CB
331
3FD
  5
DB
331
3F9
  5
DF
331
3F5
  5
E3
331
1D8
  5
174
331
3F1
  5
E7
331
E4
  5
3F4
331
E0
  5
3F8
331
15A
  5
1E6
331
DC
  5
3FC
331
1D4
  5
178
331
3ED
  5
EB
331
3E9
  5
EF
331
1D0
  5
17C
331
1CC
  5
1A4
331
3E5
  5
F3
331
1C8
  5
1A8
331
3E1
  5
F7
331
95
  5
405
331
91
  5
409
331
8D
  5
40D
331
89
  5
411
331
C8
  5
400
331
103
  5
1EF
331
41C
  5
7E
331
1C4
  5
1AC
331
418
  5
82
331
1C0
  5
1B0
331
414
  5
86
331
17D
  5
1CF
331
179
  5
1D3
331
1B8
  5
1B5
331
1F3
  5
FF
331
410
  5
8A
331
85
  5
415
331
FF
  5
1F3
331
FB
  5
3C5
331
81
  5
419
331
F7
  5
3E1
331
79
  5
41D
331
F3
  5
3E5
331
175
  5
1D7
331
1B4
  5
1B9
331
1EF
  5
103
331
40C
  5
8E
331
408
  5
92
331
1B0
  5
1C0
331
1EB
  5
115
331
1AC
  5
1C4
331
3C5
  5
FB
331
1E7
  5
14D
331
404
  5
96
331
1A8
  5
1C8
331
400
  5
C8
331
EF
  5
3E9
331
EB
  5
3ED
331
1A4
  5
1CC
331
3FC
  5
DC
331
3F8
  5
E0
331
3F4
  5
E4
331
3F0
  5
E8
331
E7
  5
3F1
331
E3
  5
3F5
331
DF
  5
3F9
331
DB
  5
3FD
331
1D7
  5
175
331
1D3
  5
179
331
3EC
  5
EC
331
1CF
  5
17D
331
3E8
  5
F0
331
3AD
  5
FE
331
1CB
  5
1A5
331
3E4
  5
F4
331
14D
  5
1E7
331
94
  5
406
331
90
  5
40A
331
8C
  5
40E
331
106
  5
1EC
331
88
  5
412
331
102
  5
1F0
331
1C7
  5
1A9
331
41B
  5
7F
331
1C3
  5
1AD
331
417
  5
83
331
1BF
  5
1B1
331
3D4
  5
F8
331
413
  5
87
331
17C
  5
1D0
331
178
  5
1D4
331
1F2
  5
100
331
84
  5
416
331
FE
  5
3AD
331
FA
  5
3C6
331
80
  5
41A
331
F6
  5
3E2
331
F2
  5
3E6
331
1B7
  5
1B6
331
40F
  5
8B
331
40B
  5
8F
331
174
  5
1D8
331
1B3
  5
1BD
331
1EE
  5
104
331
407
  5
93
331
1EA
  5
124
331
1AF
  5
1C1
331
1AB
  5
1C5
331
3C4
  5
FC
331
1E6
  5
15A
331
403
  5
97
  0
SORTENTSTABLE
  5
41F
102
{ACAD_REACTORS
330
1F5
102
}
330
1F5
100
AcDbSortentsTable
330
1F4
  0
SORTENTSTABLE
  5
41E
102
{ACAD_REACTORS
330
18D
102
}
330
18D
100
AcDbSortentsTable
330
18C
  0
LAYOUT
  5
1E
102
{ACAD_REACTORS
330
18
102
}
330
18
100
AcDbPlotSettings
  1

  2

  4

  6

 40
0.0
 41
0.0
 42
0.0
 43
0.0
 44
0.0
 45
0.0
 46
0.0
 47
0.0
 48
0.0
 49
0.0
140
0.0
141
0.0
142
1.0
143
1.0
 70
   688
 72
     0
 73
     0
 74
     5
  7

 75
    16
147
1.0
 76
     0
 77
     2
 78
   300
148
0.0
149
0.0
100
AcDbLayout
  1
Layout1
 70
     1
 71
     1
 10
0.0
 20
0.0
 11
420.0
 21
297.0
 12
0.0
 22
0.0
 32
0.0
 14
1.000000000000000E+20
 24
1.000000000000000E+20
 34
1.000000000000000E+20
 15
-1.000000000000000E+20
 25
-1.000000000000000E+20
 35
-1.000000000000000E+20
146
0.0
 13
0.0
 23
0.0
 33
0.0
 16
1.0
 26
0.0
 36
0.0
 17
0.0
 27
1.0
 37
0.0
 76
     0
330
1B
  0
LAYOUT
  5
17
102
{ACAD_XDICTIONARY
360
19
102
}
102
{ACAD_REACTORS
330
18
102
}
330
18
100
AcDbPlotSettings
  1

  2
HP LaserJet 4 Plus
  4
A4
  6

 40
6.805083274841308
 41
5.069413185119628
 42
6.805084228515625
 43
5.027069091796875
 44
209.9733276367187
 45
296.9683227539062
 46
0.0
 47
0.0
 48
0.0
 49
0.0
140
0.0
141
0.0
142
1.0
143
2.48396074989149
 70
 11952
 72
     1
 73
     0
 74
     1
  7
CNC-Soft.ctb
 75
     0
147
0.4025828508134375
 76
     0
 77
     2
 78
   300
148
0.0160205061733905
149
0.0226575730168861
100
AcDbLayout
  1
Model
 70
     1
 71
     0
 10
0.0
 20
0.0
 11
12.0
 21
9.0
 12
0.0
 22
0.0
 32
0.0
 14
0.0
 24
0.0
 34
0.0
 15
0.0
 25
0.0
 35
0.0
146
0.0
 13
0.0
 23
0.0
 33
0.0
 16
1.0
 26
0.0
 36
0.0
 17
0.0
 27
1.0
 37
0.0
 76
     0
330
2
331
2E
  0
MATERIAL
  5
44
102
{ACAD_XDICTIONARY
360
45
102
}
102
{ACAD_REACTORS
330
D
102
}
330
D
100
AcDbMaterial
  1
ByBlock
 72
     0
 43
0.0008202099737533
 43
0.0
 43
0.0
 43
0.0
 43
0.0
 43
0.0008202099737533
 43
0.0
 43
0.0
 43
0.0
 43
0.0
 43
1.0
 43
0.0
 43
0.0
 43
0.0
 43
0.0
 43
1.0
 77
     0
 47
0.0008202099737533
 47
0.0
 47
0.0
 47
0.0
 47
0.0
 47
0.0008202099737533
 47
0.0
 47
0.0
 47
0.0
 47
0.0
 47
1.0
 47
0.0
 47
0.0
 47
0.0
 47
0.0
 47
1.0
171
     0
 49
0.0008202099737533
 49
0.0
 49
0.0
 49
0.0
 49
0.0
 49
0.0008202099737533
 49
0.0
 49
0.0
 49
0.0
 49
0.0
 49
1.0
 49
0.0
 49
0.0
 49
0.0
 49
0.0
 49
1.0
175
     0
142
0.0008202099737533
142
0.0
142
0.0
142
0.0
142
0.0
142
0.0008202099737533
142
0.0
142
0.0
142
0.0
142
0.0
142
1.0
142
0.0
142
0.0
142
0.0
142
0.0
142
1.0
179
     0
144
0.0008202099737533
144
0.0
144
0.0
144
0.0
144
0.0
144
0.0008202099737533
144
0.0
144
0.0
144
0.0
144
0.0
144
1.0
144
0.0
144
0.0
144
0.0
144
0.0
144
1.0
147
0.0008202099737533
147
0.0
147
0.0
147
0.0
147
0.0
147
0.0008202099737533
147
0.0
147
0.0
147
0.0
147
0.0
147
1.0
147
0.0
147
0.0
147
0.0
147
0.0
147
1.0
  0
MATERIAL
  5
3C
102
{ACAD_XDICTIONARY
360
3D
102
}
102
{ACAD_REACTORS
330
D
102
}
330
D
100
AcDbMaterial
  1
ByLayer
 72
     0
 43
0.0008202099737533
 43
0.0
 43
0.0
 43
0.0
 43
0.0
 43
0.0008202099737533
 43
0.0
 43
0.0
 43
0.0
 43
0.0
 43
1.0
 43
0.0
 43
0.0
 43
0.0
 43
0.0
 43
1.0
 77
     0
 47
0.0008202099737533
 47
0.0
 47
0.0
 47
0.0
 47
0.0
 47
0.0008202099737533
 47
0.0
 47
0.0
 47
0.0
 47
0.0
 47
1.0
 47
0.0
 47
0.0
 47
0.0
 47
0.0
 47
1.0
171
     0
 49
0.0008202099737533
 49
0.0
 49
0.0
 49
0.0
 49
0.0
 49
0.0008202099737533
 49
0.0
 49
0.0
 49
0.0
 49
0.0
 49
1.0
 49
0.0
 49
0.0
 49
0.0
 49
0.0
 49
1.0
175
     0
142
0.0008202099737533
142
0.0
142
0.0
142
0.0
142
0.0
142
0.0008202099737533
142
0.0
142
0.0
142
0.0
142
0.0
142
1.0
142
0.0
142
0.0
142
0.0
142
0.0
142
1.0
179
     0
144
0.0008202099737533
144
0.0
144
0.0
144
0.0
144
0.0
144
0.0008202099737533
144
0.0
144
0.0
144
0.0
144
0.0
144
1.0
144
0.0
144
0.0
144
0.0
144
0.0
144
1.0
147
0.0008202099737533
147
0.0
147
0.0
147
0.0
147
0.0
147
0.0008202099737533
147
0.0
147
0.0
147
0.0
147
0.0
147
1.0
147
0.0
147
0.0
147
0.0
147
0.0
147
1.0
  0
MATERIAL
  5
C
102
{ACAD_XDICTIONARY
360
E
102
}
102
{ACAD_REACTORS
330
D
102
}
330
D
100
AcDbMaterial
  1
Global
 72
     0
 43
0.0008202099737533
 43
0.0
 43
0.0
 43
0.0
 43
0.0
 43
0.0008202099737533
 43
0.0
 43
0.0
 43
0.0
 43
0.0
 43
1.0
 43
0.0
 43
0.0
 43
0.0
 43
0.0
 43
1.0
 77
     0
 47
0.0008202099737533
 47
0.0
 47
0.0
 47
0.0
 47
0.0
 47
0.0008202099737533
 47
0.0
 47
0.0
 47
0.0
 47
0.0
 47
1.0
 47
0.0
 47
0.0
 47
0.0
 47
0.0
 47
1.0
171
     0
 49
0.0008202099737533
 49
0.0
 49
0.0
 49
0.0
 49
0.0
 49
0.0008202099737533
 49
0.0
 49
0.0
 49
0.0
 49
0.0
 49
1.0
 49
0.0
 49
0.0
 49
0.0
 49
0.0
 49
1.0
175
     0
142
0.0008202099737533
142
0.0
142
0.0
142
0.0
142
0.0
142
0.0008202099737533
142
0.0
142
0.0
142
0.0
142
0.0
142
1.0
142
0.0
142
0.0
142
0.0
142
0.0
142
1.0
179
     0
144
0.0008202099737533
144
0.0
144
0.0
144
0.0
144
0.0
144
0.0008202099737533
144
0.0
144
0.0
144
0.0
144
0.0
144
1.0
144
0.0
144
0.0
144
0.0
144
0.0
144
1.0
147
0.0008202099737533
147
0.0
147
0.0
147
0.0
147
0.0
147
0.0008202099737533
147
0.0
147
0.0
147
0.0
147
0.0
147
1.0
147
0.0
147
0.0
147
0.0
147
0.0
147
1.0
  0
MLINESTYLE
  5
53
102
{ACAD_REACTORS
330
3A
102
}
330
3A
100
AcDbMlineStyle
  2
STANDARD
 70
     0
  3

 62
   256
 51
90.0
 52
90.0
 71
     2
 49
0.5
 62
   256
  6
BYLAYER
 49
-0.5
 62
   256
  6
BYLAYER
  0
ACDBPLACEHOLDER
  5
9
102
{ACAD_REACTORS
330
A
102
}
330
A
  0
SCALE
  5
58
102
{ACAD_REACTORS
330
4D
102
}
330
4D
100
AcDbScale
 70
     0
300
1:1
140
1.0
141
1.0
290
     1
  0
SCALE
  5
59
102
{ACAD_REACTORS
330
4D
102
}
330
4D
100
AcDbScale
 70
     0
300
1:2
140
1.0
141
2.0
290
     0
  0
SCALE
  5
5A
102
{ACAD_REACTORS
330
4D
102
}
330
4D
100
AcDbScale
 70
     0
300
1:4
140
1.0
141
4.0
290
     0
  0
SCALE
  5
5B
102
{ACAD_REACTORS
330
4D
102
}
330
4D
100
AcDbScale
 70
     0
300
1:5
140
1.0
141
5.0
290
     0
  0
SCALE
  5
5C
102
{ACAD_REACTORS
330
4D
102
}
330
4D
100
AcDbScale
 70
     0
300
1:8
140
1.0
141
8.0
290
     0
  0
SCALE
  5
5D
102
{ACAD_REACTORS
330
4D
102
}
330
4D
100
AcDbScale
 70
     0
300
1:10
140
1.0
141
10.0
290
     0
  0
SCALE
  5
5E
102
{ACAD_REACTORS
330
4D
102
}
330
4D
100
AcDbScale
 70
     0
300
1:16
140
1.0
141
16.0
290
     0
  0
SCALE
  5
5F
102
{ACAD_REACTORS
330
4D
102
}
330
4D
100
AcDbScale
 70
     0
300
1:20
140
1.0
141
20.0
290
     0
  0
SCALE
  5
60
102
{ACAD_REACTORS
330
4D
102
}
330
4D
100
AcDbScale
 70
     0
300
1:30
140
1.0
141
30.0
290
     0
  0
SCALE
  5
61
102
{ACAD_REACTORS
330
4D
102
}
330
4D
100
AcDbScale
 70
     0
300
1:40
140
1.0
141
40.0
290
     0
  0
SCALE
  5
62
102
{ACAD_REACTORS
330
4D
102
}
330
4D
100
AcDbScale
 70
     0
300
1:50
140
1.0
141
50.0
290
     0
  0
SCALE
  5
63
102
{ACAD_REACTORS
330
4D
102
}
330
4D
100
AcDbScale
 70
     0
300
1:100
140
1.0
141
100.0
290
     0
  0
SCALE
  5
64
102
{ACAD_REACTORS
330
4D
102
}
330
4D
100
AcDbScale
 70
     0
300
2:1
140
2.0
141
1.0
290
     0
  0
SCALE
  5
65
102
{ACAD_REACTORS
330
4D
102
}
330
4D
100
AcDbScale
 70
     0
300
4:1
140
4.0
141
1.0
290
     0
  0
SCALE
  5
66
102
{ACAD_REACTORS
330
4D
102
}
330
4D
100
AcDbScale
 70
     0
300
8:1
140
8.0
141
1.0
290
     0
  0
SCALE
  5
67
102
{ACAD_REACTORS
330
4D
102
}
330
4D
100
AcDbScale
 70
     0
300
10:1
140
10.0
141
1.0
290
     0
  0
SCALE
  5
68
102
{ACAD_REACTORS
330
4D
102
}
330
4D
100
AcDbScale
 70
     0
300
100:1
140
100.0
141
1.0
290
     0
  0
SCALE
  5
69
102
{ACAD_REACTORS
330
4D
102
}
330
4D
100
AcDbScale
 70
     0
300
1/128" = 1'-0"
140
0.0078125
141
12.0
290
     0
  0
SCALE
  5
6A
102
{ACAD_REACTORS
330
4D
102
}
330
4D
100
AcDbScale
 70
     0
300
1/64" = 1'-0"
140
0.015625
141
12.0
290
     0
  0
SCALE
  5
6B
102
{ACAD_REACTORS
330
4D
102
}
330
4D
100
AcDbScale
 70
     0
300
1/32" = 1'-0"
140
0.03125
141
12.0
290
     0
  0
SCALE
  5
6C
102
{ACAD_REACTORS
330
4D
102
}
330
4D
100
AcDbScale
 70
     0
300
1/16" = 1'-0"
140
0.0625
141
12.0
290
     0
  0
SCALE
  5
6D
102
{ACAD_REACTORS
330
4D
102
}
330
4D
100
AcDbScale
 70
     0
300
3/32" = 1'-0"
140
0.09375
141
12.0
290
     0
  0
SCALE
  5
6E
102
{ACAD_REACTORS
330
4D
102
}
330
4D
100
AcDbScale
 70
     0
300
1/8" = 1'-0"
140
0.125
141
12.0
290
     0
  0
SCALE
  5
6F
102
{ACAD_REACTORS
330
4D
102
}
330
4D
100
AcDbScale
 70
     0
300
3/16" = 1'-0"
140
0.1875
141
12.0
290
     0
  0
SCALE
  5
70
102
{ACAD_REACTORS
330
4D
102
}
330
4D
100
AcDbScale
 70
     0
300
1/4" = 1'-0"
140
0.25
141
12.0
290
     0
  0
SCALE
  5
71
102
{ACAD_REACTORS
330
4D
102
}
330
4D
100
AcDbScale
 70
     0
300
3/8" = 1'-0"
140
0.375
141
12.0
290
     0
  0
SCALE
  5
72
102
{ACAD_REACTORS
330
4D
102
}
330
4D
100
AcDbScale
 70
     0
300
1/2" = 1'-0"
140
0.5
141
12.0
290
     0
  0
SCALE
  5
73
102
{ACAD_REACTORS
330
4D
102
}
330
4D
100
AcDbScale
 70
     0
300
3/4" = 1'-0"
140
0.75
141
12.0
290
     0
  0
SCALE
  5
74
102
{ACAD_REACTORS
330
4D
102
}
330
4D
100
AcDbScale
 70
     0
300
1" = 1'-0"
140
1.0
141
12.0
290
     0
  0
SCALE
  5
75
102
{ACAD_REACTORS
330
4D
102
}
330
4D
100
AcDbScale
 70
     0
300
1-1/2" = 1'-0"
140
1.5
141
12.0
290
     0
  0
SCALE
  5
76
102
{ACAD_REACTORS
330
4D
102
}
330
4D
100
AcDbScale
 70
     0
300
3" = 1'-0"
140
3.0
141
12.0
290
     0
  0
SCALE
  5
77
102
{ACAD_REACTORS
330
4D
102
}
330
4D
100
AcDbScale
 70
     0
300
6" = 1'-0"
140
6.0
141
12.0
290
     0
  0
SCALE
  5
78
102
{ACAD_REACTORS
330
4D
102
}
330
4D
100
AcDbScale
 70
     0
300
1'-0" = 1'-0"
140
12.0
141
12.0
290
     0
  0
TABLESTYLE
  5
54
102
{ACAD_XDICTIONARY
360
55
102
}
102
{ACAD_REACTORS
330
4E
102
}
330
4E
100
AcDbTableStyle
280
     0
  3
Standard
 70
     0
 71
     0
 40
1.5
 41
1.5
280
     0
281
     0
  7
Standard
140
4.5
170
     2
 62
     0
 63
     7
283
     0
 90
      512
 91
        0
  1

274
    -2
284
     1
 64
     0
275
    -2
285
     1
 65
     0
276
    -2
286
     1
 66
     0
277
    -2
287
     1
 67
     0
278
    -2
288
     1
 68
     0
279
    -2
289
     1
 69
     0
  7
Standard
140
6.0
170
     5
 62
     0
 63
     7
283
     0
 90
      512
 91
        0
  1

274
    -2
284
     1
 64
     0
275
    -2
285
     1
 65
     0
276
    -2
286
     1
 66
     0
277
    -2
287
     1
 67
     0
278
    -2
288
     1
 68
     0
279
    -2
289
     1
 69
     0
  7
Standard
140
4.5
170
     5
 62
     0
 63
     7
283
     0
 90
      512
 91
        0
  1

274
    -2
284
     1
 64
     0
275
    -2
285
     1
 65
     0
276
    -2
286
     1
 66
     0
277
    -2
287
     1
 67
     0
278
    -2
288
     1
 68
     0
279
    -2
289
     1
 69
     0
  0
VISUALSTYLE
  5
2F
102
{ACAD_REACTORS
330
30
102
}
330
30
100
AcDbVisualStyle
  2
2dWireframe
 70
     4
177
     2
291
     0
 71
     0
176
     1
 72
     2
176
     1
 73
     0
176
     1
 90
        0
176
     1
 40
0.6
176
     1
 41
30.0
176
     1
 63
     7
176
     1
 74
     1
176
     1
 91
        4
176
     1
 64
     7
176
     1
 65
   257
176
     1
 75
     1
176
     1
175
     1
176
     1
 42
1.0
176
     1
 92
        0
176
     1
 66
   257
176
     1
 43
1.0
176
     1
 76
     1
176
     1
 77
     6
176
     1
 78
     2
176
     1
 67
     7
176
     1
 79
     5
176
     1
170
     0
176
     1
171
     0
176
     1
290
     0
176
     1
 93
        1
176
     1
 44
0.0
176
     1
173
     0
176
     1
  0
VISUALSTYLE
  5
57
102
{ACAD_REACTORS
330
30
102
}
330
30
100
AcDbVisualStyle
  2
3dWireframe
 70
     5
177
     2
291
     0
 71
     0
176
     1
 72
     2
176
     1
 73
     0
176
     1
 90
        0
176
     1
 40
0.6
176
     1
 41
30.0
176
     1
 63
     7
176
     1
 74
     1
176
     1
 91
        4
176
     1
 64
     7
176
     1
 65
   257
176
     1
 75
     1
176
     1
175
     1
176
     1
 42
1.0
176
     1
 92
        0
176
     1
 66
   257
176
     1
 43
1.0
176
     1
 76
     1
176
     1
 77
     6
176
     1
 78
     2
176
     1
 67
     7
176
     1
 79
     5
176
     1
170
     0
176
     1
171
     0
176
     1
290
     0
176
     1
 93
        1
176
     1
 44
0.0
176
     1
173
     0
176
     1
  0
VISUALSTYLE
  5
56
102
{ACAD_REACTORS
330
30
102
}
330
30
100
AcDbVisualStyle
  2
Realistic
 70
     8
177
     2
291
     0
 71
     2
176
     1
 72
     2
176
     1
 73
     0
176
     1
 90
        0
176
     1
 40
0.6
176
     1
 41
30.0
176
     1
 63
     7
176
     1
 74
     1
176
     1
 91
        0
176
     1
 64
     7
176
     1
 65
   257
176
     1
 75
     1
176
     1
175
     1
176
     1
 42
1.0
176
     1
 92
        8
176
     1
 66
     8
176
     1
 43
1.0
176
     1
 76
     1
176
     1
 77
     6
176
     1
 78
     2
176
     1
 67
     7
176
     1
 79
     5
176
     1
170
     0
176
     1
171
     0
176
     1
290
     0
176
     1
 93
       13
176
     1
 44
0.0
176
     1
173
     0
176
     1
  0
DICTIONARYVAR
  5
424
102
{ACAD_REACTORS
330
421
102
}
330
421
100
DictionaryVariables
280
     0
  1
1:1
  0
DICTIONARYVAR
  5
423
102
{ACAD_REACTORS
330
421
102
}
330
421
100
DictionaryVariables
280
     0
  1
STANDARD
  0
DICTIONARYVAR
  5
422
102
{ACAD_REACTORS
330
421
102
}
330
421
100
DictionaryVariables
280
     0
  1
STANDARD
  0
DICTIONARYVAR
  5
426
102
{ACAD_REACTORS
330
421
102
}
330
421
100
DictionaryVariables
280
     0
  1
1
  0
DICTIONARYVAR
  5
427
102
{ACAD_REACTORS
330
421
102
}
330
421
100
DictionaryVariables
280
     0
  1
15
  0
DICTIONARYVAR
  5
425
102
{ACAD_REACTORS
330
421
102
}
330
421
100
DictionaryVariables
280
     0
  1
0
  0
DICTIONARY
  5
19
330
17
100
AcDbDictionary
280
     1
281
     1
  3
ADSK_XREC_LAYOUTTHUMBNAIL
360
1A
  0
DICTIONARY
  5
45
330
44
100
AcDbDictionary
280
     1
281
     1
  3
BUMPTILE
360
46
  3
DIFFUSETILE
360
47
  3
OPACITYTILE
360
48
  3
REFLECTIONTILE
360
49
  3
REFRACTIONTILE
360
4A
  3
SPECULARTILE
360
4B
  0
DICTIONARY
  5
3D
330
3C
100
AcDbDictionary
280
     1
281
     1
  3
BUMPTILE
360
3E
  3
DIFFUSETILE
360
3F
  3
OPACITYTILE
360
40
  3
REFLECTIONTILE
360
41
  3
REFRACTIONTILE
360
42
  3
SPECULARTILE
360
43
  0
DICTIONARY
  5
E
330
C
100
AcDbDictionary
280
     1
281
     1
  3
BUMPTILE
360
F
  3
DIFFUSETILE
360
10
  3
OPACITYTILE
360
11
  3
REFLECTIONTILE
360
12
  3
REFRACTIONTILE
360
13
  3
SPECULARTILE
360
14
  0
DICTIONARY
  5
55
330
54
100
AcDbDictionary
280
     1
281
     1
  3
ACAD_ROUNDTRIP_2008_TABLESTYLE_CELLSTYLEMAP
360
428
  0
XRECORD
  5
1A
102
{ACAD_REACTORS
330
19
102
}
330
19
100
AcDbXrecord
280
     1
310
280000000001000084000000010008000000000000840000000000000000000000010000000000000000000000000000FFFFFF000000000000000000000000000000000000000000000000000000000000000000330000006600000099000000CC000000FF00000000330000333300006633000099330000CC330000FF3300
310
0000660000336600006666000099660000CC660000FF66000000990000339900006699000099990000CC990000FF99000000CC000033CC000066CC000099CC0000CCCC0000FFCC000000FF000033FF000066FF000099FF0000CCFF0000FFFF000000003300330033006600330099003300CC003300FF003300003333003333
310
33006633330099333300CC333300FF33330000663300336633006666330099663300CC663300FF66330000993300339933006699330099993300CC993300FF99330000CC330033CC330066CC330099CC3300CCCC3300FFCC330000FF330033FF330066FF330099FF3300CCFF3300FFFF330000006600330066006600660099
310
006600CC006600FF00660000336600333366006633660099336600CC336600FF33660000666600336666006666660099666600CC666600FF66660000996600339966006699660099996600CC996600FF99660000CC660033CC660066CC660099CC6600CCCC6600FFCC660000FF660033FF660066FF660099FF6600CCFF6600
310
FFFF660000009900330099006600990099009900CC009900FF00990000339900333399006633990099339900CC339900FF33990000669900336699006666990099669900CC669900FF66990000999900339999006699990099999900CC999900FF99990000CC990033CC990066CC990099CC9900CCCC9900FFCC990000FF99
310
0033FF990066FF990099FF9900CCFF9900FFFF99000000CC003300CC006600CC009900CC00CC00CC00FF00CC000033CC003333CC006633CC009933CC00CC33CC00FF33CC000066CC003366CC006666CC009966CC00CC66CC00FF66CC000099CC003399CC006699CC009999CC00CC99CC00FF99CC0000CCCC0033CCCC0066CC
310
CC0099CCCC00CCCCCC00FFCCCC0000FFCC0033FFCC0066FFCC0099FFCC00CCFFCC00FFFFCC000000FF003300FF006600FF009900FF00CC00FF00FF00FF000033FF003333FF006633FF009933FF00CC33FF00FF33FF000066FF003366FF006666FF009966FF00CC66FF00FF66FF000099FF003399FF006699FF009999FF00CC
310
99FF00FF99FF0000CCFF0033CCFF0066CCFF0099CCFF00CCCCFF00FFCCFF0000FFFF0033FFFF0066FFFF0099FFFF00CCFFFF00FFFFFF00000000000D0D0D001A1A1A00282828003535350043434300505050005D5D5D006B6B6B00787878008686860093939300A1A1A100AEAEAE00BBBBBB00C9C9C900D6D6D600E4E4E400
310
F1F1F100FFFFFF0000000000000000000000000000000000000000000000000000000000000000000000000000000000E2E2E2E2E2E2E2E2E2E2E2E2E2E2E2E2E2E2E2E2E2E2E2E2E2E2E2E2E2E2E2E2E2E2E2E2E2E2E2E2E2E2E2E2E2E2E2E2E2E2E2E2E2E2E2E2E2E2E2E2E2E2E2E2E2E2E2E2E2E2E2E2E2E2E2E2E2E2E2
310
E2E2E2E2E2E2E2E2E2E2E2E2E2E2E2E2E2E2E2E2E2E2E2E2E2E2E2E2E2E2E2E2E2E2E2E2E2E2E2E2E2E2E2E2E2E2E2E2E2E2E2E2E2E2E2E2E2E2E2E2E2E2E2E2E2E2E2E2E2E2E2E2E2E2E2E2E2E2E2E2E2E2E2E2E2E2E2E2E2E2E2E2E2E2E2E2E2E2E2E2E2E2E2E2E2E2E2E2E2E2E2E2E2E2E2E2E2E2E2E2E2E2E2E2E2E2E2
310
E2E2E2E2E2E2E2E2E2E2E2E2E2E2E2E2E2E2E2E2E2E2E2E2E2E2E2E2E2E2E2E2E2E2E2E2E2E2E2E2E2E2E2E2E2E2E2E2E2E2E2E2E2E2E2E2E2E2E2E2E2E2E2E2E2E2E2E2E2E2E2E2E2E2E2E2E2E2E2E2E2E2E2E2E2E2E2E2E2E2E2E2E2E2E2E2E2E2E2E2E2E2E2E2E2E2E2E2E2E2E2E2E2E2E2E2E2E2E2E2E2E2E2E2E2E2E2
310
E2E2E2E2E2E2E2E2E2E2E2E2E2E2E2E2E2E2E2E2E2E2E2E2E2E2E2E2E2E2E2E2E2E2E2E2E2E2E2E2E2E2E2E2E2E2E2E2E2E2E2E2E2E2E2E2E2E2E2E2E2E2E2E2E2E2E2E2E2E2E2E2E2E2E2E2E2E2E2E2E2E2E2E2E2E2E2E2E2E2E2E2E2E2E2E2E2E2E2E2E2E2E2E2E2E2E2E2E2E2E2E2E2E2E2E2E2E2E2E2E2E2E2E2E2E2E2
310
E2E2E2E2E2E2E2E2E2E2E2E2E2E2E2E2E2E2E2E2E2E2E2E2E2E2E2E2E2E2E2E2E2E2E2E2E2E2E2E2E2E2E2E2E2E2E2E2E2E2E2E2E2E2E2E2E2E2E2E2E2E2E2E2E2E2E2E2E2E2E2E2E2E2E2E2E2E2E2E2E2E2E2E2E2E2E2E2E2E2E2E2E2E2E2E2E2E2E2E2E2E2E2E2E2E2E2E2E2E2E2E2E2E2E2E2E2E2E2E2E2E2E2E2E2E2E2
310
E2E2E2E2E2E2E2E2E2E2E2E2E2E2E2E2E2E2E2E2E2E2E2E2E2E2E2E2E2E2E2E2E2E2E2E2E2E2E2E2E2E2E2E2E2E2E2E2E2E2E2E2E2E2E2E2E2E2E2E2E2E2E2E2E2E2E2E2E2E2E2E2E2E2E2E2E2E2E2E2E2E2E2E2E2E2E2E2E2E2E2E2E2E2E2E2E2E2E2E2E2E2E2E2E2E2E2E2E2E2E2E2E2E2E2E2E2E2E2E2E2E2E2E2E2E2E2
310
E2E2E2E2E2E2E2E2E2E2E2E2E2E2E2E2E2E2E2E2E2E2E2E2E2E2E2E2E2E2E2E2E2E2E2E2E2E2E2E2E2E2E2E2E2E2E2E2E2E2E2E2E2E2E2E2E2E2E2E2E2E2E2E2E2E2E2E2E2E2E2E2E2E2E2E2E2E2E2E2E2E2E2E2E2E2E2E2E2E2E2E2E2E2E2E2E2E2E2E2E2E2E2E2E2E2E2E2E2E2E2E2E2E2E2E2E2E2E2E2E2E2E2E2E2E2E2
310
E2E2E2E2E2E2E2E2E2E2E2E2E2E2E2E2E2E2E2E2E2E2E2E2E2E2E2E2E2E2E2E2E2E2E2E2E2E2E2E2E2E2E2E2E2E2E2E2E2E2E2E2E2E2E2E2E2E2E2E2E2E2E2E2E2E2E2E2E2E2E2E2E2E2E2E2E2E2E2E2E2E2E2E2E2E2E2E2E2E2E2E2E2E2E2E2E2E2E2E2E2E2E2E2E2E2E2E2E2E2E2E2E2E2E2E2E2E2E2E2E2E2E2E2E2E2E2
310
E2E2E2E2E2E2E2E2E2E2E2E2E2E2E2E2E2E2E2E2E2E2E2E2E2E2E2E2E2E2E2E2E2E2E2E2E2E2E2E2E2E2E2E2E2E2E2E2E2E2E2E2E2E2E2E2E2E2E2E2E2E2E2E2E2E2E2E2E2E2E2E2E2E2E2E2E2E2E2E2E2E2E2E2E2E2E2E2E2E2E2E2E2E2E2E2E2E2E2E2E2E2E2E2E2E2E2E2E2E2E2E2E2E2E2E2E2E2E2E2E2E2E2E2E2E2E2
310
E2E2E2E2E2E2E2E2E2E2E2E2E2E2E2E2E2E2E2E2E2E2E2E2E2E2E2E2E2E2E2E2E2E2E2E2E2E2E2E2E2E2E2E2E2E2E2E2E2E2E2E2E2E2E2E2E2E2E2E2E2E2E2E2E2E2E2E2E2E2E2E2E2E2E2E2E2E2E2E2E2E2E2E2E2E2E2E2E2E2E2E2E2E2E2E2E2E2E2E2E2E2E2E2E2E2E2E2E2E2E2E2E2E2E2E2E2E2E2E2E2E2E2E2E2E2E2
310
E2E2E2E2E2E2E2E2E2E2E2E2E2E2E2E2E2E2E2E2E2E2E2E2E2E2E2E2E2E2E2E2E2E2E2E2E2E2E2E2E2E2E2E2E2E2E2E2E2E2E2E2E2E2E2E2E2E2E2E2E2E2E2E2E2E2E2E2E2E2E2E2E2E2E2E2E2E2E2E2E2E2E2E2E2E2E2E2E2E2E2E2E2E2E2E2E2E2E2E2E2E2E2E2E2E2E2E2E2E2E2E2E2E2E2E2E2E2E2E2E2E2E2E2E2E2E2
310
E2E2E2E2E2E2E2E2E2E2E2E2E2E2E2E2E2E2E2E2E2E2E2E2E2E2E2E2E2E2E2E2E2E2E2E2E2E2E2E2E2E2E2E2E2E2E2E2E2E2E2E2E2E2E2E2E2E2E2E2E2E2E2E2E2E2E2E2E2E2E2E2E2E2E2E2E2E2E2E2E2E2E2E2E2E2E2E2E2E2E2E2E2E2E2E2E2E2E2E2E2E2E2E2E2E2E2E2E2E2E2E2E2E2E2E2E2E2E2E2E2E2E2E2E2E2E2
310
E2E2E2E2E2E2E2E2E2E2E2E2E2E2E2E2E2E2E2E2E2E2E2E2E2E2E2E2E2E2E2E2E2E2E2E2E2E2E2E2E2E2E2E2E2E2E2E2E2E2E2E2E2E2E2E2E2E2E2E2E2E2E2E2E2E2E2E2E2E2E2E2E2E2E2E2E2E2E2E2E2E2E2E2E2E2E2E2E2E2E2E2E2E2E2E2E2E2E2E2E2E2E2E2E2E2E2E2E2E2E2E2E2E2E2E2E2E2E2E2E2E2E2E2E2E2E2
310
E2E2E2E2E2E2E2E2E2E2E2E2E2E2E2E2E2E2E2E2E2E2E2E2E2E2E2E2E2E2E2E2E2E2E2E2E2E2E2E2E2E2E2E2E2E2E2E2E2E2E2E2E2E2E2E2E2E2E2E2E2E2E2E2E2E2E2E2E2E2E2E2E2E2E2E2E2E2E2E2E2E2E2E2E2E2E2E2E2E2E2E2E2E2E2E2E2E2E2E2E2E2E2E2E2E2E2E2E2E2E2E2E2E2E2E2E2E2E2E2E2E2E2E2E2E2E2
310
E2E2E2E2E2E2E2E2E2E2E2E2E2E2E2E2E2E2E2E2E2E2E2E2E2E2E2E2E2E2E2E2E2E2E2E2E2E2E2E2E2E2E2E2E2E2E2E2E2E2E2E2E2E2E2E2E2E2E2E2E2E2E2E2E2E2E2E2E2E2E2E2E2E2E2E2E2E2E2E2E2E2E2E2E2E2E2E2E2E2E2E2E2E2E2E2E2E2E2E2E2E2E2E2E2E2E2E2E2E2E2E2E2E2E2E2E2E2E2E2E2E2E2E2E2E2E2
310
E2E2E2E2E2E2E2E2E2E2E2E2E2E2E2E2E2E2E2E2E2E2E2E2E2E2E2E2E2E2E2E2E2E2E2E2E2E2E2E2E2E2E2E2E2E2E2E2E2E2E2E2E2E2E2E2E2E2E2E2E2E2E2E2E2E2E2E2E2E2E2E2E2E2E2E2E2E2E2E2E2E2E2E2E2E2E2E2E2E2E2E2E2E2E2E2E2E2E2E2E2E2E2E2E2E2E2E2E2E2E2E2E2E2E2E2E2E2E2E2E2E2E2E2E2E2E2
310
E2E2E2E2E2E2E2E2E2E2E2E2E2E2E2E2E2E2E2E2E2E2E2E2E2E2E2E2E2E2E2E2E2E2E2E2E2E2E2E2E2E2E2E2E2E2E2E2E2E2E2E2E2E2E2E2E2E2E2E2E2E2E2E2E2E2E2E2E2E2E2E2E2E2E2E2E2E2E2E2E2E2E2E2E2E2E2E2E2E2E2E2E2E2E2E2E2E2E2E2E2E2E2E2E2E2E2E2E2E2E2E2E2E2E2E2E2E2E2E2E2E2E2E2E2E2E2
310
E2E2E2E2E2E2E2E2E2E2E2E2E2E2E2E2E2E2E2E2E2E2E2E2E2E2E2E2E2E2E2E2E2E2E2E2E2E2E2E2E2E2E2E2E2E2E2E2E2E2E2E2E2E2E2E2E2E2E2E2E2E2E2E2E2E2E2E2E2E2E2E2E2E2E2E2E2E2E2E2E2E2E2E2E2E2E2E2E2E2E2E2E2E2E2E2E2E2E2E2E2E2E2E2E2E2E2E2E2E2E2E2E2E2E2E2E2E2E2E2E2E2E2E2E2E2E2
310
E2E2E2E2E2E2E2E2E2E2E2E2E2E2E2E2E2E2E2E2E2E2E2E2E2E2E2E2E2E2E2E2E2E2E2E2E2E2E2E2E2E2E2E2E2E2E2E2E2E2E2E2E2E2E2E2E2E2E2E2E2E2E2E2E2E2E2E2E2E2E2E2E2E2E2E2E2E2E2E2E2E2E2E2E2E2E2E2E2E2E2E2E2E2E2E2E2E2E2E2E2E2E2E2E2E2E2E2E2E2E2E2E2E2E2E2E2E2E2E2E2E2E2E2E2E2E2
310
E2E2E2E2E2E2E2E2E2E2E2E2E2E2E2E2E2E2E2E2E2E2E2E2E2E2E2E2E2E2E2E2E2E2E2E2E2E2E2E2E2E2E2E2E2E2E2E2E2E2E2E2E2E2E2E2E2E2E2E2E2E2E2E2E2E2E2E2E2E2E2E2E2E2E2E2E2E2E2E2E2E2E2E2E2E2E2E2E2E2E2E2E2E2E2E2E2E2E2E2E2E2E2E2E2E2E2E2E2E2E2E2E2E2E2E2E2E2E2E2E2E2E2E2E2E2E2
310
E2E2E2E2E2E2E2E2E2E2E2E2E2E2E2E2E2E2E2E2E2E2E2E2E2E2E2E2E2E2E2E2E2E2E2E2E2E2E2E2E2E2E2E2E2E2E2E2E2E2E2E2E2E2E2E2E2E2E2E2E2E2E2E2E2E2E2E2E2E2E2E2E2E2E2E2E2E2E2E2E2E2E2E2E2E2E2E2E2E2E2E2E2E2E2E2E2E2E2E2E2E2E2E2E2E2E2E2E2E2E2E2E2E2E2E2E2E2E2E2E2E2E2E2E2E2E2
310
E2E2E2E2E2E2E2E2E2E2E2E2E2E2E2E2E2E2E2E2E2E2E2E2E2E2E2E2E2E2E2E2E2E2E2E2E2E2E2E2E2E2E2E2E2E2E2E2E2E2E2E2E2E2E2E2E2E2E2E2E2E2E2E2E2E2E2E2E2E2E2E2E2E2E2E2E2E2E2E2E2E2E2E2E2E2E2E2E2E2E2E2E2E2E2E2E2E2E2E2E2E2E2E2E2E2E2E2E2E2E2E2E2E2E2E2E2E2E2E2E2E2E2E2E2E2E2
310
E2E2E2E2E2E2E2E2E2E2E2E2E2E2E2E2E2E2E2E2E2E2E2E2E2E2E2E2E2E2E2E2E2E2E2E2E2E2E2E2E2E2E2E2E2E2E2E2E2E2E2E2E2E2E2E2E2E2E2E2E2E2E2E2E2E2E2E2E2E2E2E2E2E2E2E2E2E2E2E2E2E2E2E2E2E2E2E2E2E2E2E2E2E2E2E2E2E2E2E2E2E2E2E2E2E2E2E2E2E2E2E2E2E2E2E2E2E2E2E2E2E2E2E2E2E2E2
310
E2E2E2E2E2E2E2E2E2E2E2E2E2E2E2E2E2E2E2E2E2E2E2E2E2E2E2E2E2E2E2E2E2E2E2E2E2E2E2E2E2E2E2E2E2E2E2E2E2E2E2E2E2E2E2E2E2E2E2E2E2E2E2E2E2E2E2E2E2E2E2E2E2E2E2E2E2E2E2E2E2E2E2E2E2E2E2E2E2E2E2E2E2E2E2E2E2E2E2E2E2E2E2E2E2E2E2E2E2E2E2E2E2E2E2E2E2E2E2E2E2E2E2E2E2E2E2
310
E2E2E2E2E2E2E2E2E2E2E2E2E2E2E2E2E2E2E2E2E2E2E2E2E2E2E2E2E2E2E2E2E2E2E2E2E2E2E2E2E2E2E2E2E2E2E2E2E2E2E2E2E2E2E2E2E2E2E2E2E2E2E2E2E2E2E2E2E2E2E2E2E2E2E2E2E2E2E2E2E2E2E2E2E2E2E2E2E2E2E2E2E2E2E2E2E2E2E2E2E2E2E2E2E2E2E2E2E2E2E2E2E2E2E2E2E2E2E2E2E2E2E2E2E2E2E2
310
E2E2E2E2E2E2E2E2E2E2E2E2E2E2E2E2E2E2E2E2E2E2E2E2E2E2E2E2E2E2E2E2E2E2E2E2E2E2E2E2E2E2E2E2E2E2E2E2E2E2E2E2E2E2E2E2E2E2E2E2E2E2E2E2E2E2E2E2E2E2E2E2E2E2E2E2E2E2E2E2E2E2E2E2E2E2E2E2E2E2E2E2E2E2E2E2E2E2E2E2E2E2E2E2E2E2E2E2E2E2E2E2E2E2E2E2E2E2E2E2E2E2E2E2E2E2E2
310
E2E2E2E2E2E2E2E2E2E2E2E2E2E2E2E2E2E2E2E2E2E2E2E2E2E2E2E2E2E2E2E2E2E2E2E2E2E2E2E2E2E2E2E2E2E2E2E2E2E2E2E2E2E2E2E2E2E2E2E2E2E2E2E2E2E2E2E2E2E2E2E2E2E2E2E2E2E2E2E2E2E2E2E2E2E2E2E2E2E2E2E2E2E2E2E2E2E2E2E2E2E2E2E2E2E2E2E2E2E2E2E2E2E2E2E2E2E2E2E2E2E2E2E2E2E2E2
310
E2E2E2E2E2E2E2E2E2E2E2E2E2E2E2E2E2E2E2E2E2E2E2E2E2E2E2E2E2E2E2E2E2E2E2E2E2E2E2E2E2E2E2E2E2E2E2E2E2E2E2E2E2E2E2E2E2E2E2E2E2E2E2E2E2E2E2E2E2E2E2E2E2E2E2E2E2E2E2E2E2E2E2E2E2E2E2E2E2E2E2E2E2E2E2E2E2E2E2E2E2E2E2E2E2E2E2E2E2E2E2E2E2E2E2E2E2E2E2E2E2E2E2E2E2E2E2
310
E2E2E2E2E2E2E2E2E2E2E2E2E2E2E2E2E2E2E2E2E2E2E2E2E2E2E2E2E2E2E2E2E2E2E2E2E2E2E2E2E2E2E2E2E2E2E2E2E2E2E2E2E2E2E2E2E2E2E2E2E2E2E2E2E2E2E2E2E2E2E2E2E2E2E2E2E2E2E2E2E2E2E2E2E2E2E2E2E2E2E2E2E2E2E2E2E2E2E2E2E2E2E2E2E2E2E2E2E2E2E2E2E2E2E2E2E2E2E2E2E2E2E2E2E2E2E2
310
E2E2E2E2E2E2E2E2E2E2E2E2E2E2E2E2E2E2E2E2E2E2E2E2E2E2E2E2E2E2E2E2E2E2E2E2E2E2E2E2E2E2E2E2E2E2E2E2E2E2E2E2E2E2E2E2E2E2E2E2E2E2E2E2E2E2E2E2E2E2E2E2E2E2E2E2E2E2E2E2E2E2E2E2E2E2E2E2E2E2E2E2E2E2E2E2E2E2E2E2E2E2E2E2E2E2E2E2E2E2E2E2E2E2E2E2E2E2E2E2E2E2E2E2E2E2E2
310
E2E2E2E2E2E2E2E2E2E2E2E2E2E2E2E2E2E2E2E2E2E2E2E2E2E2E2E2E2E2E2E2E2E2E2E2E2E2E2E2E2E2E2E2E2E2E2E2E2E2E2E2E2E2E2E2E2E2E2E2E2E2E2E2E2E2E2E2E2E2E2E2E2E2E2E2E2E2E2E2E2E2E2E2E2E2E2E2E2E2E2E2E2E2E2E2E2E2E2E2E2E2E2E2E2E2E2E2E2E2E2E2E2E2E2E2E2E2E2E2E2E2E2E2E2E2E2
310
E2E2E2E2E2E2E2E2E2E2E2E2E2E2E2E2E2E2E2E2E2E2E2E2E2E2E2E2E2E2E2E2E2E2E2E2E2E2E2E2E2E2E2E2E2E2E2E2E2E2E2E2E2E2E2E2E2E2E2E2E2E2E2E2E2E2E2E2E2E2E2E2E2E2E2E2E2E2E2E2E2E2E2E2E2E2E2E2E2E2E2E2E2E2E2E2E2E2E2E2E2E2E2E2E2E2E2E2E2E2E2E2E2E2E2E2E2E2E2E2E2E2E2E2E2E2E2
310
E2E2E2E2E2E2E2E2E2E2E2E2E2E2E2E2E2E2E2E2E2E2E2E2E2E2E2E2E2E2E2E2E2E2E2E2E2E2E2E2E2E2E2E2E2E2E2E2E2E2E2E2E2E2E2E2E2E2E2E2E2E2E2E2E2E2E2E2E2E2E2E2E2E2E2E2E2E2E2E2E2E2E2E2E2E2E2E2E2E2E2E2E2E2E2E2E2E2E2E2E2E2E2E2E2E2E2E2E2E2E2E2E2E2E2E2E2E2E2E2E2E2E2E2E2E2E2
310
E2E2E2E2E2E2E2E2E2E2E2E2E2E2E2E2E2E2E2E2E2E2E2E2E2E2E2E2E2E2E2E2E2E2E2E2E2E2E2E2E2E2E2E2E2E2E2E2E2E2E2E2E2E2E2E2E2E2E2E2E2E2E2E2E2E2E2E2E2E2E2E2E2E2E2E2E2E2E2E2E2E2E2E2E2E2E2E2E2E2E2E2E2E2E2E2E2E2E2E2E2E2E2E2E2E2E2E2E2E2E2E2E2E2E2E2E2E2E2E2E2E2E2E2E2E2E2
310
E2E2E2E2E2E2E2E2E2E2E2E2E2E2E2E2E2E2E2E2E2E2E2E2E2E2E2E2E2E2E2E2E2E2E2E2E2E2E2E2E2E2E2E2E2E2E2E2E2E2E2E2E2E2E2E2E2E2E2E2E2E2E2E2E2E2E2E2E2E2E2E2E2E2E2E2E2E2E2E2E2E2E2E2E2E2E2E2E2E2E2E2E2E2E2E2E2E2E2E2E2E2E2E2E2E2E2E2E2E2E2E2E2E2E2E2E2E2E2E2E2E2E2E2E2E2E2
310
E2E2E2E2E2E2E2E2E2E2E2E2E2E2E2E2E2E2E2E2E2E2E2E2E2E2E2E2E2E2E2E2E2E2E2E2E2E2E2E2E2E2E2E2E2E2E2E2E2E2E2E2E2E2E2E2E2E2E2E2E2E2E2E2E2E2E2E2E2E2E2E2E2E2E2E2E2E2E2E2E2E2E2E2E2E2E2E2E2E2E2E2E2E2E2E2E2E2E2E2E2E2E2E2E2E2E2E2E2E2E2E2E2E2E2E2E2E2E2E2E2E2E2E2E2E2E2
310
E2E2E2E2E2E2E2E2E2E2E2E2E2E2E2E2E2E2E2E2E2E2E2E2E2E2E2E2E2E2E2E2E2E2E2E2E2E2E2E2E2E2E2E2E2E2E2E2E2E2E2E2E2E2E2E2E2E2E2E2E2E2E2E2E2E2E2E2E2E2E2E2E2E2E2E2E2E2E2E2E2E2E2E2E2E2E2E2E2E2E2E2E2E2E2E2E2E2E2E2E2E2E2E2E2E2E2E2E2E2E2E2E2E2E2E2E2E2E2E2E2E2E2E2E2E2E2
310
E2E2E2E2E2E2E2E2E2E2E2E2E2E2E2E2E2E2E2E2E2E2E2E2E2E2E2E2E2E2E2E2E2E2E2E2E2E2E2E2E2E2E2E2E2E2E2E2E2E2E2E2E2E2E2E2E2E2E2E2E2E2E2E2E2E2E2E2E2E2E2E2E2E2E2E2E2E2E2E2E2E2E2E2E2E2E2E2E2E2E2E2E2E2E2E2E2E2E2E2E2E2E2E2E2E2E2E2E2E2E2E2E2E2E2E2E2E2E2E2E2E2E2E2E2E2E2
310
E2E2E2E2E2E2E2E2E2E2E2E2E2E2E2E2E2E2E2E2E2E2E2E2E2E2E2E2E2E2E2E2E2E2E2E2E2E2E2E2E2E2E2E2E2E2E2E2E2E2E2E2E2E2E2E2E2E2E2E2E2E2E2E2E2E2E2E2E2E2E2E2E2E2E2E2E2E2E2E2E2E2E2E2E2E2E2E2E2E2E2E2E2E2E2E2E2E2E2E2E2E2E2E2E2E2E2E2E2E2E2E2E2E2E2E2E2E2E2E2E2E2E2E2E2E2E2
310
E2E2E2E2E2E2E2E2E2E2E2E2E2E2E2E2E2E2E2E2E2E2E2E2E2E2E2E2E2E2E2E2E2E2E2E2E2E2E2E2E2E2E2E2E2E2E2E2E2E2E2E2E2E2E2E2E2E2E2E2E2E2E2E2E2E2E2E2E2E2E2E2E2E2E2E2E2E2E2E2E2E2E2E2E2E2E2E2E2E2E2E2E2E2E2E2E2E2E2E2E2E2E2E2E2E2E2E2E2E2E2E2E2E2E2E2E2E2E2E2E2E2E2E2E2E2E2
310
E2E2E2E2E2E2E2E2E2E2E2E2E2E2E2E2E2E2E2E2E2E2E2E2E2E2E2E2E2E2E2E2E2E2E2E2E2E2E2E2E2E2E2E2E2E2E2E2E2E2E2E2E2E2E2E2E2E2E2E2E2E2E2E2E2E2E2E2E2E2E2E2E2E2E2E2E2E2E2E2E2E2E2E2E2E2E2E2E2E2E2E2E2E2E2E2E2E2E2E2E2E2E2E2E2E2E2E2E2E2E2E2E2E2E2E2E2E2E2E2E2E2E2E2E2E2E2
310
E2E2E2E2E2E2E2E2E2E2E2E2E2E2E2E2E2E2E2E2E2E2E2E2E2E2E2E2E2E2E2E2E2E2E2E2E2E2E2E2E2E2E2E2E2E2E2E2E2E2E2E2E2E2E2E2E2E2E2E2E2E2E2E2E2E2E2E2E2E2E2E2E2E2E2E2E2E2E2E2E2E2E2E2E2E2E2E2E2E2E2E2E2E2E2E2E2E2E2E2E2E2E2E2E2E2E2E2E2E2E2E2E2E2E2E2E2E2E2E2E2E2E2E2E2E2E2
310
E2E2E2E2E2E2E2E2E2E2E2E2E2E2E2E2E2E2E2E2E2E2E2E2E2E2E2E2E2E2E2E2E2E2E2E2E2E2E2E2E2E2E2E2E2E2E2E2E2E2E2E2E2E2E2E2E2E2E2E2E2E2E2E2E2E2E2E2E2E2E2E2E2E2E2E2E2E2E2E2E2E2E2E2E2E2E2E2E2E2E2E2E2E2E2E2E2E2E2E2E2E2E2E2E2E2E2E2E2E2E2E2E2E2E2E2E2E2E2E2E2E2E2E2E2E2E2
310
E2E2E2E2E2E2E2E2E2E2E2E2E2E2E2E2E2E2E2E2E2E2E2E2E2E2E2E2E2E2E2E2E2E2E2E2E2E2E2E2E2E2E2E2E2E2E2E2E2E2E2E2E2E2E2E2E2E2E2E2E2E2E2E2E2E2E2E2E2E2E2E2E2E2E2E2E2E2E2E2E2E2E2E2E2E2E2E2E2E2E2E2E2E2E2E2E2E2E2E2E2E2E2E2E2E2E2E2E2E2E2E2E2E2E2E2E2E2E2E2E2E2E2E2E2E2E2
310
E2E2E2E2E2E2E2E2E2E2E2E2E2E2E2E2E2E2E2E2E2E2E2E2E2E2E2E2E2E2E2E2E2E2E2E2E2E2E2E2E2E2E2E2E2E2E2E2E2E2E2E2E2E2E2E2E2E2E2E2E2E2E2E2E2E2E2E2E2E2E2E2E2E2E2E2E2E2E2E2E2E2E2E2E2E2E2E2E2E2E2E2E2E2E2E2E2E2E2E2E2E2E2E2E2E2E2E2E2E2E2E2E2E2E2E2E2E2E2E2E2E2E2E2E2E2E2
310
E2E2E2E2E2E2E2E2E2E2E2E2E2E2E2E2E2E2E2E2E2E2E2E2E2E2E2E2E2E2E2E2E2E2E2E2E2E2E2E2E2E2E2E2E2E2E2E2E2E2E2E2E2E2E2E2E2E2E2E2E2E2E2E2E2E2E2E2E2E2E2E2E2E2E2E2E2E2E2E2E2E2E2E2E2E2E2E2E2E2E2E2E2E2E2E2E2E2E2E2E2E2E2E2E2E2E2E2E2E2E2E2E2E2E2E2E2E2E2E2E2E2E2E2E2E2E2
310
E2E2E2E2E2E2E2E2E2E2E2E2E2E2E2E2E2E2E2E2E2E2E2E2E2E2E2E2E2E2E2E2E2E2E2E2E2E2E2E2E2E2E2E2E2E2E2E2E2E2E2E2E2E2E2E2E2E2E2E2E2E2E2E2E2E2E2E2E2E2E2E2E2E2E2E2E2E2E2E2E2E2E2E2E2E2E2E2E2E2E2E2E2E2E2E2E2E2E2E2E2E2E2E2E2E2E2E2E2E2E2E2E2E2E2E2E2E2E2E2E2E2E2E2E2E2E2
310
E2E2E2E2E2E2E2E2E2E2E2E2E2E2E2E2E2E2E2E2E2E2E2E2E2E2E2E2E2E2E2E2E2E2E2E2E2E2E2E2E2E2E2E2E2E2E2E2E2E2E2E2E2E2E2E2E2E2E2E2E2E2E2E2E2E2E2E2E2E2E2E2E2E2E2E2E2E2E2E2E2E2E2E2E2E2E2E2E2E2E2E2E2E2E2E2E2E2E2E2E2E2E2E2E2E2E2E2E2E2E2E2E2E2E2E2E2E2E2E2E2E2E2E2E2E2E2
310
E2E2E2E2E2E2E2E2E2E2E2E2E2E2E2E2E2E2E2E2E2E2E2E2E2E2E2E2E2E2E2E2E2E2E2E2E2E2E2E2E2E2E2E2E2E2E2E2E2E2E2E2E2E2E2E2E2E2E2E2E2E2E2E2E2E2E2E2E2E2E2E2E2E2E2E2E2E2E2E2E2E2E2E2E2E2E2E2E2E2E2E2E2E2E2E2E2E2E2E2E2E2E2E2E2E2E2E2E2E2E2E2E2E2E2E2E2E2E2E2E2E2E2E2E2E2E2
310
E2E2E2E2E2E2E2E2E2E2E2E2E2E2E2E2E2E2E2E2E2E2E2E2E2E2E2E2E2E2E2E2E2E2E2E2E2E2E2E2E2E2E2E2E2E2E2E2E2E2E2E2E2E2E2E2E2E2E2E2E2E2E2E2E2E2E2E2E2E2E2E2E2E2E2E2E2E2E2E2E2E2E2E2E2E2E2E2E2E2E2E2E2E2E2E2E2E2E2E2E2E2E2E2E2E2E2E2E2E2E2E2E2E2E2E2E2E2E2E2E2E2E2E2E2E2E2
310
E2E2E2E2E2E2E2E2E2E2E2E2E2E2E2E2E2E2E2E2E2E2E2E2E2E2E2E2E2E2E2E2E2E2E2E2E2E2E2E2E2E2E2E2E2E2E2E2E2E2E2E2E2E2E2E2E2E2E2E2E2E2E2E2E2E2E2E2E2E2E2E2E2E2E2E2E2E2E2E2E2E2E2E2E2E2E2E2E2E2E2E2E2E2E2E2E2E2E2E2E2E2E2E2E2E2E2E2E2E2E2E2E2E2E2E2E2E2E2E2E2E2E2E2E2E2E2
310
E2E2E2E2E2E2E2E2E2E2E2E2E2E2E2E2E2E2E2E2E2E2E2E2E2E2E2E2E2E2E2E2E2E2E2E2E2E2E2E2E2E2E2E2E2E2E2E2E2E2E2E2E2E2E2E2E2E2E2E2E2E2E2E2E2E2E2E2E2E2E2E2E2E2E2E2E2E2E2E2E2E2E2E2E2E2E2E2E2E2E2E2E2E2E2E2E2E2E2E2E2E2E2E2E2E2E2E2E2E2E2E2E2E2E2E2E2E2E2E2E2E2E2E2E2E2E2
310
E2E2E2E2E2E2E2E2E2E2E2E2E2E2E2E2E2E2E2E2E2E2E2E2E2E2E2E2E2E2E2E2E2E2E2E2E2E2E2E2E2E2E2E2E2E2E2E2E2E2E2E2E2E2E2E2E2E2E2E2E2E2E2E2E2E2E2E2E2E2E2E2E2E2E2E2E2E2E2E2E2E2E2E2E2E2E2E2E2E2E2E2E2E2E2E2E2E2E2E2E2E2E2E2E2E2E2E2E2E2E2E2E2E2E2E2E2E2E2E2E2E2E2E2E2E2E2
310
E2E2E2E2E2E2E2E2E2E2E2E2E2E2E2E2E2E2E2E2E2E2E2E2E2E2E2E2E2E2E2E2E2E2E2E2E2E2E2E2E2E2E2E2E2E2E2E2E2E2E2E2E2E2E2E2E2E2E2E2E2E2E2E2E2E2E2E2E2E2E2E2E2E2E2E2E2E2E2E2E2E2E2E2E2E2E2E2E2E2E2E2E2E2E2E2E2E2E2E2E2E2E2E2E2E2E2E2E2E2E2E2E2E2E2E2E2E2E2E2E2E2E2E2E2E2E2
310
E2E2E2E2E2E2E2E2E2E2E2E2E2E2E2E2E2E2E2E2E2E2E2E2E2E2E2E2E2E2E2E2E2E2E2E2E2E2E2E2E2E2E2E2E2E2E2E2E2E2E2E2E2E2E2E2E2E2E2E2E2E2E2E2E2E2E2E2E2E2E2E2E2E2E2E2E2E2E2E2E2E2E2E2E2E2E2E2E2E2E2E2E2E2E2E2E2E2E2E2E2E2E2E2E2E2E2E2E2E2E2E2E2E2E2E2E2E2E2E2E2E2E2E2E2E2E2
310
E2E2E2E2E2E2E2E2E2E2E2E2E2E2E2E2E2E2E2E2E2E2E2E2E2E2E2E2E2E2E2E2E2E2E2E2E2E2E2E2E2E2E2E2E2E2E2E2E2E2E2E2E2E2E2E2E2E2E2E2E2E2E2E2E2E2E2E2E2E2E2E2E2E2E2E2E2E2E2E2E2E2E2E2E2E2E2E2E2E2E2E2E2E2E2E2E2E2E2E2E2E2E2E2E2E2E2E2E2E2E2E2E2E2E2E2E2E2E2E2E2E2E2E2E2E2E2
310
E2E2E2E2E2E2E2E2E2E2E2E2E2E2E2E2E2E2E2E2E2E2E2E2E2E2E2E2E2E2E2E2E2E2E2E2E2E2E2E2E2E2E2E2E2E2E2E2E2E2E2E2E2E2E2E2E2E2E2E2E2E2E2E2E2E2E2E2E2E2E2E2E2E2E2E2E2E2E2E2E2E2E2E2E2E2E2E2E2E2E2E2E2E2E2E2E2E2E2E2E2E2E2E2E2E2E2E2E2E2E2E2E2E2E2E2E2E2E2E2E2E2E2E2E2E2E2
310
E2E2E2E2E2E2E2E2E2E2E2E2E2E2E2E2E2E2E2E2E2E2E2E2E2E2E2E2E2E2E2E2E2E2E2E2E2E2E2E2E2E2E2E2E2E2E2E2E2E2E2E2E2E2E2E2E2E2E2E2E2E2E2E2E2E2E2E2E2E2E2E2E2E2E2E2E2E2E2E2E2E2E2E2E2E2E2E2E2E2E2E2E2E2E2E2E2E2E2E2E2E2E2E2E2E2E2E2E2E2E2E2E2E2E2E2E2E2E2E2E2E2E2E2E2E2E2
310
E2E2E2E2E2E2E2E2E2E2E2E2E2E2E2E2E2E2E2E2E2E2E2E2E2E2E2E2E2E2E2E2E2E2E2E2E2E2E2E2E2E2E2E2E2E2E2E2E2E2E2E2E2E2E2E2E2E2E2E2E2E2E2E2E2E2E2E2E2E2E2E2E2E2E2E2E2E2E2E2E2E2E2E2E2E2E2E2E2E2E2E2E2E2E2E2E2E2E2E2E2E2E2E2E2E2E2E2E2E2E2E2E2E2E2E2E2E2E2E2E2E2E2E2E2E2E2
310
E2E2E2E2E2E2E2E2E2E2E2E2E2E2E2E2E2E2E2E2E2E2E2E2E2E2E2E2E2E2E2E2E2E2E2E2E2E2E2E2E2E2E2E2E2E2E2E2E2E2E2E2E2E2E2E2E2E2E2E2E2E2E2E2E2E2E2E2E2E2E2E2E2E2E2E2E2E2E2E2E2E2E2E2E2E2E2E2E2E2E2E2E2E2E2E2E2E2E2E2E2E2E2E2E2E2E2E2E2E2E2E2E2E2E2E2E2E2E2E2E2E2E2E2E2E2E2
310
E2E2E2E2E2E2E2E2E2E2E2E2E2E2E2E2E2E2E2E2E2E2E2E2E2E2E2E2E2E2E2E2E2E2E2E2E2E2E2E2E2E2E2E2E2E2E2E2E2E2E2E2E2E2E2E2E2E2E2E2E2E2E2E2E2E2E2E2E2E2E2E2E2E2E2E2E2E2E2E2E2E2E2E2E2E2E2E2E2E2E2E2E2E2E2E2E2E2E2E2E2E2E2E2E2E2E2E2E2E2E2E2E2E2E2E2E2E2E2E2E2E2E2E2E2E2E2
310
E2E2E2E2E2E2E2E2E2E2E2E2E2E2E2E2E2E2E2E2E2E2E2E2E2E2E2E2E2E2E2E2E2E2E2E2E2E2E2E2E2E2E2E2E2E2E2E2E2E2E2E2E2E2E2E2E2E2E2E2E2E2E2E2E2E2E2E2E2E2E2E2E2E2E2E2E2E2E2E2E2E2E2E2E2E2E2E2E2E2E2E2E2E2E2E2E2E2E2E2E2E2E2E2E2E2E2E2E2E2E2E2E2E2E2E2E2E2E2E2E2E2E2E2E2E2E2
310
E2E2E2E2E2E2E2E2E2E2E2E2E2E2E2E2E2E2E2E2E2E2E2E2E2E2E2E2E2E2E2E2E2E2E2E2E2E2E2E2E2E2E2E2E2E2E2E2E2E2E2E2E2E2E2E2E2E2E2E2E2E2E2E2E2E2E2E2E2E2E2E2E2E2E2E2E2E2E2E2E2E2E2E2E2E2E2E2E2E2E2E2E2E2E2E2E2E2E2E2E2E2E2E2E2E2E2E2E2E2E2E2E2E2E2E2E2E2E2E2E2E2E2E2E2E2E2
310
E2E2E2E2E2E2E2E2E2E2E2E2E2E2E2E2E2E2E2E2E2E2E2E2E2E2E2E2E2E2E2E2E2E2E2E2E2E2E2E2E2E2E2E2E2E2E2E2E2E2E2E2E2E2E2E2E2E2E2E2E2E2E2E2E2E2E2E2E2E2E2E2E2E2E2E2E2E2E2E2E2E2E2E2E2E2E2E2E2E2E2E2E2E2E2E2E2E2E2E2E2E2E2E2E2E2E2E2E2E2E2E2E2E2E2E2E2E2E2E2E2E2E2E2E2E2E2
310
E2E2E2E2E2E2E2E2E2E2E2E2E2E2E2E2E2E2E2E2E2E2E2E2E2E2E2E2E2E2E2E2E2E2E2E2E2E2E2E2E2E2E2E2E2E2E2E2E2E2E2E2E2E2E2E2E2E2E2E2E2E2E2E2E2E2E2E2E2E2E2E2E2E2E2E2E2E2E2E2E2E2E2E2E2E2E2E2E2E2E2E2E2E2E2E2E2E2E2E2E2E2E2E2E2E2E2E2E2E2E2E2E2E2E2E2E2E2E2E2E2E2E2E2E2E2E2
310
E2E2E2E2E2E2E2E2E2E2E2E2E2E2E2E2E2E2E2E2E2E2E2E2E2E2E2E2E2E2E2E2E2E2E2E2E2E2E2E2E2E2E2E2E2E2E2E2E2E2E2E2E2E2E2E2E2E2E2E2E2E2E2E2E2E2E2E2E2E2E2E2E2E2E2E2E2E2E2E2E2E2E2E2E2E2E2E2E2E2E2E2E2E2E2E2E2E2E2E2E2E2E2E2E2E2E2E2E2E2E2E2E2E2E2E2E2E2E2E2E2E2E2E2E2E2E2
310
E2E2E2E2E2E2E2E2E2E2E2E2E2E2E2E2E2E2E2E2E2E2E2E2E2E2E2E2E2E2E2E2E2E2E2E2E2E2E2E2E2E2E2E2E2E2E2E2E2E2E2E2E2E2E2E2E2E2E2E2E2E2E2E2E2E2E2E2E2E2E2E2E2E2E2E2E2E2E2E2E2E2E2E2E2E2E2E2E2E2E2E2E2E2E2E2E2E2E2E2E2E2E2E2E2E2E2E2E2E2E2E2E2E2E2E2E2E2E2E2E2E2E2E2E2E2E2
310
E2E2E2E2E2E2E2E2E2E2E2E2E2E2E2E2E2E2E2E2E2E2E2E2E2E2E2E2E2E2E2E2E2E2E2E2E2E2E2E2E2E2E2E2E2E2E2E2E2E2E2E2E2E2E2E2E2E2E2E2E2E2E2E2E2E2E2E2E2E2E2E2E2E2E2E2E2E2E2E2E2E2E2E2E2E2E2E2E2E2E2E2E2E2E2E2E2E2E2E2E2E2E2E2E2E2E2E2E2E2E2E2E2E2E2E2E2E2E2E2E2E2E2E2E2E2E2
310
E2E2E2E2E2E2E2E2E2E2E2E2E2E2E2E2E2E2E2E2E2E2E2E2E2E2E2E2E2E2E2E2E2E2E2E2E2E2E2E2E2E2E2E2E2E2E2E2E2E2E2E2E2E2E2E2E2E2E2E2E2E2E2E2E2E2E2E2E2E2E2E2E2E2E2E2E2E2E2E2E2E2E2E2E2E2E2E2E2E2E2E2E2E2E2E2E2E2E2E2E2E2E2E2E2E2E2E2E2E2E2E2E2E2E2E2E2E2E2E2E2E2E2E2E2E2E2
310
E2E2E2E2E2E2E2E2E2E2E2E2E2E2E2E2E2E2E2E2E2E2E2E2E2E2E2E2E2E2E2E2E2E2E2E2E2E2E2E2E2E2E2E2E2E2E2E2E2E2E2E2E2E2E2E2E2E2E2E2E2E2E2E2E2E2E2E2E2E2E2E2E2E2E2E2E2E2E2E2E2E2E2E2E2E2E2E2E2E2E2E2E2E2E2E2E2E2E2E2E2E2E2E2E2E2E2E2E2E2E2E2E2E2E2E2E2E2E2E2E2E2E2E2E2E2E2
310
E2E2E2E2E2E2E2E2E2E2E2E2E2E2E2E2E2E2E2E2E2E2E2E2E2E2E2E2E2E2E2E2E2E2E2E2E2E2E2E2E2E2E2E2E2E2E2E2E2E2E2E2E2E2E2E2E2E2E2E2E2E2E2E2E2E2E2E2E2E2E2E2E2E2E2E2E2E2E2E2E2E2E2E2E2E2E2E2E2E2E2E2E2E2E2E2E2E2E2E2E2E2E2E2E2E2E2E2E2E2E2E2E2E2E2E2E2E2E2E2E2E2E2E2E2E2E2
310
E2E2E2E2E2E2E2E2E2E2E2E2E2E2E2E2E2E2E2E2E2E2E2E2E2E2E2E2E2E2E2E2E2E2E2E2E2E2E2E2E2E2E2E2E2E2E2E2E2E2E2E2E2E2E2E2E2E2E2E2E2E2E2E2E2E2E2E2E2E2E2E2E2E2E2E2E2E2E2E2E2E2E2E2E2E2E2E2E2E2E2E2E2E2E2E2E2E2E2E2E2E2E2E2E2E2E2E2E2E2E2E2E2E2E2E2E2E2E2E2E2E2E2E2E2E2E2
310
E2E2E2E2E2E2E2E2E2E2E2E2E2E2E2E2E2E2E2E2E2E2E2E2E2E2E2E2E2E2E2E2E2E2E2E2E2E2E2E2E2E2E2E2E2E2E2E2E2E2E2E2E2E2E2E2E2E2E2E2E2E2E2E2E2E2E2E2E2E2E2E2E2E2E2E2E2E2E2E2E2E2E2E2E2E2E2E2E2E2E2E2E2E2E2E2E2E2E2E2E2E2E2E2E2E2E2E2E2E2E2E2E2E2E2E2E2E2E2E2E2E2E2E2E2E2E2
310
E2E2E2E2E2E2E2E2E2E2E2E2E2E2E2E2E2E2E2E2E2E2E2E2E2E2E2E2E2E2E2E2E2E2E2E2E2E2E2E2E2E2E2E2E2E2E2E2E2E2E2E2E2E2E2E2E2E2E2E2E2E2E2E2E2E2E2E2E2E2E2E2E2E2E2E2E2E2E2E2E2E2E2E2E2E2E2E2E2E2E2E2E2E2E2E2E2E2E2E2E2E2E2E2E2E2E2E2E2E2E2E2E2E2E2E2E2E2E2E2E2E2E2E2E2E2E2
310
E2E2E2E2E2E2E2E2E2E2E2E2E2E2E2E2E2E2E2E2E2E2E2E2E2E2E2E2E2E2E2E2E2E2E2E2E2E2E2E2E2E2E2E2E2E2E2E2E2E2E2E2E2E2E2E2E2E2E2E2E2E2E2E2E2E2E2E2E2E2E2E2E2E2E2E2E2E2E2E2E2E2E2E2E2E2E2E2E2E2E2E2E2E2E2E2E2E2E2E2E2E2E2E2E2E2E2E2E2E2E2E2E2E2E2E2E2E2E2E2E2E2E2E2E2E2E2
310
E2E2E2E2E2E2E2E2E2E2E2E2E2E2E2E2E2E2E2E2E2E2E2E2E2E2E2E2E2E2E2E2E2E2E2E2E2E2E2E2E2E2E2E2E2E2E2E2E2E2E2E2E2E2E2E2E2E2E2E2E2E2E2E2E2E2E2E2E2E2E2E2E2E2E2E2E2E2E2E2E2E2E2E2E2E2E2E2E2E2E2E2E2E2E2E2E2E2E2E2E2E2E2E2E2E2E2E2E2E2E2E2E2E2E2E2E2E2E2E2E2E2E2E2E2E2E2
310
E2E2E2E2E2E2E2E2E2E2E2E2E2E2E2E2E2E2E2E2E2E2E2E2E2E2E2E2E2E2E2E2E2E2E2E2E2E2E2E2E2E2E2E2E2E2E2E2E2E2E2E2E2E2E2E2E2E2E2E2E2E2E2E2E2E2E2E2E2E2E2E2E2E2E2E2E2E2E2E2E2E2E2E2E2E2E2E2E2E2E2E2E2E2E2E2E2E2E2E2E2E2E2E2E2E2E2E2E2E2E2E2E2E2E2E2E2E2E2E2E2E2E2E2E2E2E2
310
E2E2E2E2E2E2E2E2E2E2E2E2E2E2E2E2E2E2E2E2E2E2E2E2E2E2E2E2E2E2E2E2E2E2E2E2E2E2E2E2E2E2E2E2E2E2E2E2E2E2E2E2E2E2E2E2E2E2E2E2E2E2E2E2E2E2E2E2E2E2E2E2E2E2E2E2E2E2E2E2E2E2E2E2E2E2E2E2E2E2E2E2E2E2E2E2E2E2E2E2E2E2E2E2E2E2E2E2E2E2E2E2E2E2E2E2E2E2E2E2E2E2E2E2E2E2E2
310
E2E2E2E2E2E2E2E2E2E2E2E2E2E2E2E2E2E2E2E2E2E2E2E2E2E2E2E2E2E2E2E2E2E2E2E2E2E2E2E2E2E2E2E2E2E2E2E2E2E2E2E2E2E2E2E2E2E2E2E2E2E2E2E2E2E2E2E2E2E2E2E2E2E2E2E2E2E2E2E2E2E2E2E2E2E2E2E2E2E2E2E2E2E2E2E2E2E2E2E2E2E2E2E2E2E2E2E2E2E2E2E2E2E2E2E2E2E2E2E2E2E2E2E2E2E2E2
310
E2E2E2E2E2E2E2E2E2E2E2E2E2E2E2E2E2E2E2E2E2E2E2E2E2E2E2E2E2E2E2E2E2E2E2E2E2E2E2E2E2E2E2E2E2E2E2E2E2E2E2E2E2E2E2E2E2E2E2E2E2E2E2E2E2E2E2E2E2E2E2E2E2E2E2E2E2E2E2E2E2E2E2E2E2E2E2E2E2E2E2E2E2E2E2E2E2E2E2E2E2E2E2E2E2E2E2E2E2E2E2E2E2E2E2E2E2E2E2E2E2E2E2E2E2E2E2
310
E2E2E2E2E2E2E2E2E2E2E2E2E2E2E2E2E2E2E2E2E2E2E2E2E2E2E2E2E2E2E2E2E2E2E2E2E2E2E2E2E2E2E2E2E2E2E2E2E2E2E2E2E2E2E2E2E2E2E2E2E2E2E2E2E2E2E2E2E2E2E2E2E2E2E2E2E2E2E2E2E2E2E2E2E2E2E2E2E2E2E2E2E2E2E2E2E2E2E2E2E2E2E2E2E2E2E2E2E2E2E2E2E2E2E2E2E2E2E2E2E2E2E2E2E2E2E2
310
E2E2E2E2E2E2E2E2E2E2E2E2E2E2E2E2E2E2E2E2E2E2E2E2E2E2E2E2E2E2E2E2E2E2E2E2E2E2E2E2E2E2E2E2E2E2E2E2E2E2E2E2E2E2E2E2E2E2E2E2E2E2E2E2E2E2E2E2E2E2E2E2E2E2E2E2E2E2E2E2E2E2E2E2E2E2E2E2E2E2E2E2E2E2E2E2E2E2E2E2E2E2E2E2E2E2E2E2E2E2E2E2E2E2E2E2E2E2E2E2E2E2E2E2E2E2E2
310
E2E2E2E2E2E2E2E2E2E2E2E2E2E2E2E2E2E2E2E2E2E2E2E2E2E2E2E2E2E2E2E2E2E2E2E2E2E2E2E2E2E2E2E2E2E2E2E2E2E2E2E2E2E2E2E2E2E2E2E2E2E2E2E2E2E2E2E2E2E2E2E2E2E2E2E2E2E2E2E2E2E2E2E2E2E2E2E2E2E2E2E2E2E2E2E2E2E2E2E2E2E2E2E2E2E2E2E2E2E2E2E2E2E2E2E2E2E2E2E2E2E2E2E2E2E2E2
310
E2E2E2E2E2E2E2E2E2E2E2E2E2E2E2E2E2E2E2E2E2E2E2E2E2E2E2E2E2E2E2E2E2E2E2E2E2E2E2E2E2E2E2E2E2E2E2E2E2E2E2E2E2E2E2E2E2E2E2E2E2E2E2BEBEBEBEBEBEBEBEBEBEBEBEBEBEBEBEBEBEBEBEBEBEBEBEBEBEBEBEBEBEBEBEBEBEBEBEBEBEBEBEBEBEBEBEBEBEBEBEBEBEBEBEBEBEBEBEBEBEBEBEBEBEBEBE
310
BEBEBEBEBEBEBEBEBEBEBEBEBEBEBEBEBEBEBEBEBEBEBEBEBEBEBEBEBEBEBEBEBEBEBEBEBEBEBEBEBEBEBEBEBEBEBEBEBEBEBEBEE2E2E2E2E2E2E2E2E2E2E2E2E2E2E2E2E2E2E2E2E2E2E2E2E2E2E2E2E2E2E2E2E2E2E2E2E2E2E2E2E2E2E2E2E2E2E2E2E2E2E2E2E2E2E2E2E2E2E2E2E2E2E2E2E2E2E2E2E2E2E2E2E2E2E2
310
E2E2E2E2E2E2E2E2E2E2E2E2E2E2E2E2E2E2E2E2E2E2E2E2E2E2E2E2E2E2E2E2E2E2E2E2E2E2E2E2E2E2E2E2E2E2E2E2E2E2E2E2E2E2E2E2E2E2E2E2E2E2E2E2E2BEE2DCDCDCDCDCDCDCDCDCDCDCDCDCDCDCDCDCDCDCDCDCDCDCDCDCDCDCDCDCDCDCDCDCDCDCDCDCDCDCDCDCDCDCDCDCDCDCDCDCDCDCDCDCDCDCDCDCDCDCDC
310
DCDCDCDCDCDCDCDCDCDCDCDCDCDCDCDCDCDCDCDCDCDCDCDCDCDCDCDCDCDCDCDCDCDCDCDCDCDCDCDCDCDCDCDCDCDCDCDCDCDCDCDCDCBEE2E2E2E2E2E2E2E2E2E2E2E2E2E2E2E2E2E2E2E2E2E2E2E2E2E2E2E2E2E2E2E2E2E2E2E2E2E2E2E2E2E2E2E2E2E2E2E2E2E2E2E2E2E2E2E2E2E2E2E2E2E2E2E2E2E2E2E2E2E2E2E2E2
310
E2E2E2E2E2E2E2E2E2E2E2E2E2E2E2E2E2E2E2E2E2E2E2E2E2E2E2E2E2E2E2E2E2E2E2E2E2E2E2E2E2E2E2E2E2E2E2E2E2E2E2E2E2E2E2E2E2E2E2E2E2E2E2E2E2E2E2BEE2DCE2E2E2E2E2E2E2E2E2E2E2E2E2E2E2E2E2E2E2E2E2E2E2E2E2E2E2E2E2E2E2E2E2E2E2E2E2E2E2E2E2E2E2E2E2E2E2E2E2E2E2E2E2E2E2E2E2
310
E2E2E2F5F5F5F5E2E2E2F5F5F5F5F5E2E2DCE2E2E2BEBEBEBEBEBEBEE2DCE2E2E2E2E2E2E2DCE2E2E2E2E2E2E2E2DCBEBEBEBEBEE2E2DCBEE2E2E2E2E2E2E2E2E2E2E2E2E2E2E2E2E2E2E2E2E2E2E2E2E2E2E2E2E2E2E2E2E2E2E2E2E2E2E2E2E2E2E2E2E2E2E2E2E2E2E2E2E2E2E2E2E2E2E2E2E2E2E2E2E2E2E2E2E2E2E2
310
E2E2E2E2E2E2E2E2E2E2E2E2E2E2E2E2E2E2E2E2E2E2E2E2E2E2E2E2E2E2E2E2E2E2E2E2E2E2E2E2E2E2E2E2E2E2E2E2E2E2E2E2E2E2E2E2E2E2E2E2E2E2E2E2E2E2E2E2E2BEE2DCE2E2E2E2E2E2E2E2E2E2E2E2E2E2E2E2E2E2E2E2E2E2E2E2E2E2E2E2E2E2E2E2E2E2E2E2E2E2E2E2E2E2E2E2E2E2E2E2E2E2E2E2E2E2E2
310
E2E2E2E2E2F5F5F5F5DCDCDCF5F5F5F5F5DCDCDCBEBEBEBEBEBEBEBEBEBEE2DCF5F5F5F5F5E2E2DCF5F5F5F5F5F5F5E2DCBEBEBEBEBEF5E2DCBEE2E2E2E2E2E2E2E2E2E2E2E2E2E2E2E2E2E2E2E2E2E2E2E2E2E2E2E2E2E2E2E2E2E2E2E2E2E2E2E2E2E2E2E2E2E2E2E2E2E2E2E2E2E2E2E2E2E2E2E2E2E2E2E2E2E2E2E2E2
310
E2E2E2E2E2E2E2E2E2E2E2E2E2E2E2E2E2E2E2E2E2E2E2E2E2E2E2E2E2E2E2E2E2E2E2E2E2E2E2E2E2E2E2E2E2E2E2E2E2E2E2E2E2E2E2E2E2E2E2E2E2E2E2E2E2E2E2E2E2E2E2BEE2DCE2E2E2E2E2E2E2E2E2E2E2E2E2E2E2E2E2E2E2E2E2E2E2E2E2E2E2E2E2E2E2E2E2E2E2E2E2E2E2E2E2E2E2E2E2E2E2E2E2E2E2E2E2
310
E2E2E2E2E2E2E2DCDCDCDCDCDCDCDCDCDCDCDCDCDCDCE2E2BEBEBEBEBEBEBEBEE2DCF5F5F5F5F5DCDCDCF5F5F5F5F5F5F5DCDCF5F5F5F5F5DCDCDCBEE2E2E2E2E2E2E2E2E2E2E2E2E2E2E2E2E2E2E2E2E2E2E2E2E2E2E2E2E2E2E2E2E2E2E2E2E2E2E2E2E2E2E2E2E2E2E2E2E2E2E2E2E2E2E2E2E2E2E2E2E2E2E2E2E2E2E2
310
E2E2E2E2E2E2E2E2E2E2E2E2E2E2E2E2E2E2E2E2E2E2E2E2E2E2E2E2E2E2E2E2E2E2E2E2E2E2E2E2E2E2E2E2E2E2E2E2E2E2E2E2E2E2E2E2E2E2E2E2E2E2E2E2E2E2E2E2E2E2E2E2E2BEE2DCE2E2E2E2E2E2E2E2E2E2E2E2E2E2E2E2E2E2E2E2E2E2E2E2E2E2E2E2E2E2E2E2E2E2E2E2E2E2E2E2E2E2E2E2E2E2E2E2E2E2E2
310
E2E2E2E2E2E2E2E2E2DCE2DCE2E2E2E2E2DCE2E2DCE2E2DCE2E2BEBEBEBEBEBEBEBEE2DCE2E2E2E2E2E2E2E2E2E2E2E2E2E2E2E2E2E2E2E2E2E2E2E2DCBEE2E2E2E2E2E2E2E2E2E2E2E2E2E2E2E2E2E2E2E2E2E2E2E2E2E2E2E2E2E2E2E2E2E2E2E2E2E2E2E2E2E2E2E2E2E2E2E2E2E2E2E2E2E2E2E2E2E2E2E2E2E2E2E2E2
310
E2E2E2E2E2E2E2E2E2E2E2E2E2E2E2E2E2E2E2E2E2E2E2E2E2E2E2E2E2E2E2E2E2E2E2E2E2E2E2E2E2E2E2E2E2E2E2E2E2E2E2E2E2E2E2E2E2E2E2E2E2E2E2E2E2E2E2E2E2E2E2E2E2E2E2BEE2DCE2E2E2E2E2E2E2E2E2E2E2E2E2E2E2E2E2E2E2E2E2E2E2E2E2E2E2E2E2E2E2E2E2E2E2E2E2E2E2E2E2E2E2E2E2E2E2E2E2
310
E2E2E2E2E2E2E2E2E2E2E2DCDCDCDCDCDCDCDCDCDCDCDCDCDCF5F5F5DCDCDCDCDCDCDCDCDCDCE2E2E2E2E2E2E2E2E2E2E2E2E2E2E2E2E2E2E2E2E2E2E2E2DCBEE2E2E2E2E2E2E2E2E2E2E2E2E2E2E2E2E2E2E2E2E2E2E2E2E2E2E2E2E2E2E2E2E2E2E2E2E2E2E2E2E2E2E2E2E2E2E2E2E2E2E2E2E2E2E2E2E2E2E2E2E2E2E2
310
E2E2E2E2E2E2E2E2E2E2E2E2E2E2E2E2E2E2E2E2E2E2E2E2E2E2E2E2E2E2E2E2E2E2E2E2E2E2E2E2E2E2E2E2E2E2E2E2E2E2E2E2E2E2E2E2E2E2E2E2E2E2E2E2E2E2E2E2E2E2E2E2E2E2E2E2E2BEE2DCE2E2E2E2E2E2E2E2E2E2E2E2E2E2E2E2E2E2E2E2E2E2E2E2E2E2E2E2E2E2E2E2E2E2E2E2E2E2E2E2E2E2E2E2E2E2E2
310
E2E2E2E2E2E2E2E2E2E2E2E2E2DCDCDCDCDCDCDCDCDCDCDCDCDCDCF5F5BEBEBEBEBEBEBEBEBEDCBEBEBEBEBEBEBEBEBEBEBEBEBEBEBEE2BEBEE2BEBEBEBEE2E2DCBEE2E2E2E2E2E2E2E2E2E2E2E2E2E2E2E2E2E2E2E2E2E2E2E2E2E2E2E2E2E2E2E2E2E2E2E2E2E2E2E2E2E2E2E2E2E2E2E2E2E2E2E2E2E2E2E2E2E2E2E2E2
310
E2E2E2E2E2E2E2E2E2E2E2E2E2E2E2E2E2E2E2E2E2E2E2E2E2E2E2E2E2E2E2E2E2E2E2E2E2E2E2E2E2E2E2E2E2E2E2E2E2E2E2E2E2E2E2E2E2E2E2E2E2E2E2E2E2E2E2E2E2E2E2E2E2E2E2E2E2E2E2BEE2DCE2E2E2E2E2E2E2E2E2E2E2E2E2E2E2E2E2E2E2E2E2E2E2E2E2E2E2E2E2E2E2E2E2E2E2E2E2E2E2E2E2E2E2E2E2
310
E2E2E2E2E2E2E2E2E2E2E2E2E2E2E2DCDCDCDCDCDCDCDCDCDCDCDCDCDCF5F5BEBEBEBEBEBEBEBEBEDCBEBEBEBEBEBEBEBEBEBEBEBEBEBEBEBEBEBEBEBEBEBEBEE2E2DCBEE2E2E2E2E2E2E2E2E2E2E2E2E2E2E2E2E2E2E2E2E2E2E2E2E2E2E2E2E2E2E2E2E2E2E2E2E2E2E2E2E2E2E2E2E2E2E2E2E2E2E2E2E2E2E2E2E2E2E2
310
E2E2E2E2E2E2E2E2E2E2E2E2E2E2E2E2E2E2E2E2E2E2E2E2E2E2E2E2E2E2E2E2E2E2E2E2E2E2E2E2E2E2E2E2E2E2E2E2E2E2E2E2E2E2E2E2E2E2E2E2E2E2E2E2E2E2E2E2E2E2E2E2E2E2E2E2E2E2E2E2E2BEE2DCE2E2E2E2E2E2E2E2E2E2E2E2E2E2E2E2E2E2E2E2E2E2E2E2E2E2E2E2E2E2E2E2E2E2E2E2E2E2E2E2E2E2E2
310
E2E2E2E2E2E2E2E2E2E2E2E2E2E2E2E2E2F5F5F5F5F5F5F5E2F5F5F5F5F5F5DCDCF5F5F5F5F5F5F5F5E2E2F5F5F5F5F5F5F5F5F5F5E2E2E2E2E2E2E2E2E2E2E2E2E2E2E2DCBEE2E2E2E2E2E2E2E2E2E2E2E2E2E2E2E2E2E2E2E2E2E2E2E2E2E2E2E2E2E2E2E2E2E2E2E2E2E2E2E2E2E2E2E2E2E2E2E2E2E2E2E2E2E2E2E2E2
310
E2E2E2E2E2E2E2E2E2E2E2E2E2E2E2E2E2E2E2E2E2E2E2E2E2E2E2E2E2E2E2E2E2E2E2E2E2E2E2E2E2E2E2E2E2E2E2E2E2E2E2E2E2E2E2E2E2E2E2E2E2E2E2E2E2E2E2E2E2E2E2E2E2E2E2E2E2E2E2E2E2E2E2BEE2DCE2E2E2E2E2E2E2E2E2E2E2E2E2E2E2E2E2E2E2E2E2E2E2E2E2E2E2E2E2E2E2E2E2E2E2E2E2E2E2E2E2
310
E2E2E2E2E2E2E2E2E2E2E2E2E2E2E2E2E2E2E2DCDCDCDCDCDCDCDCDCDCDCDCDCDCDCDCDCF5F5DCF5BEBEBEBEBEDCDCDCDCDCDCDCF5DCDCDCDCDCDCDCDCDCDCDCDCDCDCDCDCDCDCBEE2E2E2E2E2E2E2E2E2E2E2E2E2E2E2E2E2E2E2E2E2E2E2E2E2E2E2E2E2E2E2E2E2E2E2E2E2E2E2E2E2E2E2E2E2E2E2E2E2E2E2E2E2E2E2
310
E2E2E2E2E2E2E2E2E2E2E2E2E2E2E2E2E2E2E2E2E2E2E2E2E2E2E2E2E2E2E2E2E2E2E2E2E2E2E2E2E2E2E2E2E2E2E2E2E2E2E2E2E2E2E2E2E2E2E2E2E2E2E2E2E2E2E2E2E2E2E2E2E2E2E2E2E2E2E2E2E2E2E2E2E2BEE2DCE2E2E2E2E2E2E2E2E2E2E2E2E2E2E2E2E2E2E2E2E2E2E2E2E2E2E2E2E2E2E2E2E2E2E2E2E2E2E2
310
E2E2E2E2E2E2E2E2E2E2E2E2E2E2E2E2E2E2E2E2E2DCE2E2E2E2E2E2E2E2E2E2E2E2E2DCDCDCDCDCDCBEBEBEBEBEBEBEF5F5F5F5F5F5F5E2DCF5F5F5F5F5F5F5E2DCF5F5F5F5F5F5DCBEE2E2E2E2E2E2E2E2E2E2E2E2E2E2E2E2E2E2E2E2E2E2E2E2E2E2E2E2E2E2E2E2E2E2E2E2E2E2E2E2E2E2E2E2E2E2E2E2E2E2E2E2E2
310
E2E2E2E2E2E2E2E2E2E2E2E2E2E2E2E2E2E2E2E2E2E2E2E2E2E2E2E2E2E2E2E2E2E2E2E2E2E2E2E2E2E2E2E2E2E2E2E2E2E2E2E2E2E2E2E2E2E2E2E2E2E2E2E2E2E2E2E2E2E2E2E2E2E2E2E2E2E2E2E2E2E2E2E2E2E2E2BEE2DCE2E2E2E2E2E2E2E2E2E2E2E2E2E2E2E2E2E2E2E2E2E2E2E2E2E2E2E2E2E2E2E2E2E2E2E2E2
310
E2E2E2E2E2E2E2E2E2E2E2E2E2E2E2E2E2E2E2E2E2E2E2DCE2E2E2E2E2E2E2E2E2E2E2E2E2DCE2E2E2E2E2BEBEBEBEBEBEBEF5F5BEBEBEBEF5DCDCF5F5F5F5F5F5F5DCDCF5F5BEBEBEF5DCBEE2E2E2E2E2E2E2E2E2E2E2E2E2E2E2E2E2E2E2E2E2E2E2E2E2E2E2E2E2E2E2E2E2E2E2E2E2E2E2E2E2E2E2E2E2E2E2E2E2E2E2
310
E2E2E2E2E2E2E2E2E2E2E2E2E2E2E2E2E2E2E2E2E2E2E2E2E2E2E2E2E2E2E2E2E2E2E2E2E2E2E2E2E2E2E2E2E2E2E2E2E2E2E2E2E2E2E2E2E2E2E2E2E2E2E2E2E2E2E2E2E2E2E2E2E2E2E2E2E2E2E2E2E2E2E2E2E2E2E2E2E2BEE2DCE2E2E2E2E2E2E2E2E2E2E2E2E2E2E2E2E2E2E2E2E2E2E2E2E2E2E2E2E2E2E2E2E2E2E2
310
E2E2E2E2E2E2E2E2E2E2E2E2E2E2E2E2E2E2E2E2E2E2E2E2E2DCE2E2E2E2E2E2E2E2E2E2E2E2E2DCF5F5F5F5F5DCDCBEBEBEDCDCE2BEBEBEBEBEE2E2DCE2F5F5F5F5F5F5E2DCE2F5BEBEBEE2DCBEE2E2E2E2E2E2E2E2E2E2E2E2E2E2E2E2E2E2E2E2E2E2E2E2E2E2E2E2E2E2E2E2E2E2E2E2E2E2E2E2E2E2E2E2E2E2E2E2E2
310
E2E2E2E2E2E2E2E2E2E2E2E2E2E2E2E2E2E2E2E2E2E2E2E2E2E2E2E2E2E2E2E2E2E2E2E2E2E2E2E2E2E2E2E2E2E2E2E2E2E2E2E2E2E2E2E2E2E2E2E2E2E2E2E2E2E2E2E2E2E2E2E2E2E2E2E2E2E2E2E2E2E2E2E2E2E2E2E2E2E2E2BEE2DCE2E2E2E2E2E2E2E2E2E2E2BEBEE2E2E2E2E2E2E2E2E2E2E2E2E2E2E2E2E2E2E2E2
310
E2E2E2E2E2E2E2E2E2E2E2E2E2E2E2E2E2E2E2E2E2E2E2E2E2E2E2DCDCDCDCDCDCDCDCDCDCDCDCDCDCDCF5F5F5F5F5DCDCF5F5F5DCDCDCF5F5F5F5F5DCDCDCDCF5F5F5F5F5F5DCDCDCF5F5F5F5F5DCBEE2E2E2E2E2E2E2E2E2E2E2E2E2E2E2E2E2E2E2E2E2E2E2E2E2E2E2E2E2E2E2E2E2E2E2E2E2E2E2E2E2E2E2E2E2E2E2
310
E2E2E2E2E2E2E2E2E2E2E2E2E2E2E2E2E2E2E2E2E2E2E2E2E2E2E2E2E2E2E2E2E2E2E2E2E2E2E2E2E2E2E2E2E2E2E2E2E2E2E2E2E2E2E2E2E2E2E2E2E2E2E2E2E2E2E2E2E2E2E2E2E2E2E2E2E2E2E2E2E2E2E2E2E2E2E2E2E2E2E2E2E2BEE2DCE2E2E2E2E2E2E2E2E2E2E2E2BEF5F5F5F5F5F5F5F5F5F5F5F5F5F5F5F5F5F5
310
F5F5F5F5F5F5F5F5F5F5F5F5E2E2E2E2E2E2E2E2E2E2E2E2E2E2E2E2E2E2E2E2E2E2E2E2E2E2E2E2E2E2E2E2E2E2E2E2E2E2E2E2E2E2E2E2E2E2E2E2E2E2E2E2E2E2E2E2E2E2E2E2E2E2E2E2E2E2E2E2DCBEE2E2E2E2E2E2E2E2E2E2E2E2E2E2E2E2E2E2E2E2E2E2E2E2E2E2E2E2E2E2E2E2E2E2E2E2E2E2E2E2E2E2E2E2E2
310
E2E2E2E2E2E2E2E2E2E2E2E2E2E2E2E2E2E2E2E2E2E2E2E2E2E2E2E2E2E2E2E2E2E2E2E2E2E2E2E2E2E2E2E2E2E2E2E2E2E2E2E2E2E2E2E2E2E2E2E2E2E2E2E2E2E2E2E2E2E2E2E2E2E2E2E2E2E2E2E2E2E2E2E2E2E2E2E2E2E2E2E2E2E2E2BEE2DCE2E2E2E2E2E2E2E2E2E2E2E2E2F5F5E2E2E2E2E2E2E2E2E2E2E2E2E2E2
310
E2E2E2E2E2E2E2E2E2E2E2E2E2F5E2E2E2E2E2E2E2E2E2E2E2E2E2E2E2E2E2E2E2E2E2E2E2E2E2E2E2E2E2E2E2E2E2E2E2E2E2E2E2E2E2E2E2E2E2E2E2E2E2E2E2E2E2E2E2E2E2E2E2E2E2E2E2E2E2E2E2E2DCBEE2E2E2E2E2E2E2E2E2E2E2E2E2E2E2E2E2E2E2E2E2E2E2E2E2E2E2E2E2E2E2E2E2E2E2E2E2E2E2E2E2E2E2
310
E2E2E2E2E2E2E2E2E2E2E2E2E2E2E2E2E2E2E2E2E2E2E2E2E2E2E2E2E2E2E2E2E2E2E2E2E2E2E2E2E2E2E2E2E2E2E2E2E2E2E2E2E2E2E2E2E2E2E2E2E2E2E2E2E2E2E2E2E2E2E2E2E2E2E2E2E2E2E2E2E2E2E2E2E2E2E2E2E2E2E2E2E2E2E2E2E2BEE2DCE2E2E2E2E2E2E2E2E2E2E2E2E2F5E2E2E2E2E2E2E2E2E2E2E2E2E2
310
E2E2E2E2E2E2E2E2E2E2E2E2E2E2E2F5E2E2E2E2E2E2E2E2E2E2E2E2E2E2E2E2E2E2E2E2E2E2E2E2E2E2E2E2E2E2E2E2E2E2E2E2E2E2E2E2E2E2E2E2E2E2E2E2E2E2E2E2E2E2E2E2E2E2E2E2E2E2E2E2E2E2E2E2DCBEE2E2E2E2E2E2E2E2E2E2E2E2E2E2E2E2E2E2E2E2E2E2E2E2E2E2E2E2E2E2E2E2E2E2E2E2E2E2E2E2E2
310
E2E2E2E2E2E2E2E2E2E2E2E2E2E2E2E2E2E2E2E2E2E2E2E2E2E2E2E2E2E2E2E2E2E2E2E2E2E2E2E2E2E2E2E2E2E2E2E2E2E2E2E2E2E2E2E2E2E2E2E2E2E2E2E2E2E2E2E2E2E2E2E2E2E2E2E2E2E2E2E2E2E2E2E2E2E2E2E2E2E2E2E2E2E2E2E2E2E2E2BEE2DCE2E2E2E2E2E2E2E2E2E2E2E2E2F5E2E2E2E2E2E2E2E2E2E2E2
310
E2E2E2E2E2E2E2E2E2E2E2E2E2E2E2E2E2F5E2E2E2E2E2E2E2E2E2E2E2E2E2E2E2E2E2E2E2E2E2E2E2E2E2E2E2E2E2E2E2E2E2E2E2E2E2E2E2E2E2E2E2E2E2E2E2E2E2E2E2E2E2E2E2E2E2E2E2E2E2E2E2E2E2E2E2E2DCBEE2E2E2E2E2E2E2E2E2E2E2E2E2E2E2E2E2E2E2E2E2E2E2E2E2E2E2E2E2E2E2E2E2E2E2E2E2E2E2
310
E2E2E2E2E2E2E2E2E2E2E2E2E2E2E2E2E2E2E2E2E2E2E2E2E2E2E2E2E2E2E2E2E2E2E2E2E2E2E2E2E2E2E2E2E2E2E2E2E2E2E2E2E2E2E2E2E2E2E2E2E2E2E2E2E2E2E2E2E2E2E2E2E2E2E2E2E2E2E2E2E2E2E2E2E2E2E2E2E2E2E2E2E2E2E2E2E2E2E2E2E2BEE2DCE2E2E2E2E2E2E2E2E2E2E2E2E2F5E2E2E2E2E2E2E2E2E2
310
E2E2E2E2E2E2E2E2E2E2E2E2E2E2E2E2E2E2E2F5E2E2E2E2E2E2E2E2E2E2E2E2E2E2E2E2E2E2E2E2E2E2E2E2E2E2E2E2E2E2E2E2E2E2E2E2E2E2E2E2E2E2E2E2E2E2E2E2E2E2E2E2E2E2E2E2E2E2E2E2E2E2E2E2E2E2E2E2DCBEE2E2E2E2E2E2E2E2E2E2E2E2E2E2E2E2E2E2E2E2E2E2E2E2E2E2E2E2E2E2E2E2E2E2E2E2E2
310
E2E2E2E2E2E2E2E2E2E2E2E2E2E2E2E2E2E2E2E2E2E2E2E2E2E2E2E2E2E2E2E2E2E2E2E2E2E2E2E2E2E2E2E2E2E2E2E2E2E2E2E2E2E2E2E2E2E2E2E2E2E2E2E2E2E2E2E2E2E2E2E2E2E2E2E2E2E2E2E2E2E2E2E2E2E2E2E2E2E2E2E2E2E2E2E2E2E2E2E2E2E2E2BEE2DCE2E2E2E2E2E2E2E2E2E2E2E2E2F5E2E2E2E2E2E2E2
310
E2E2E2E2E2E2E2E2E2E2E2E2E2E2E2E2E2E2E2E2E2F5E2E2E2E2E2E2E2E2E2E2E2E2E2E2E2E2E2E2E2E2E2E2E2E2E2E2E2E2E2E2E2E2E2E2E2E2E2E2E2E2E2E2E2E2E2E2E2E2E2E2E2E2E2E2E2E2E2E2E2E2E2E2E2E2E2E2E2E2DCBEE2E2E2E2E2E2E2E2E2E2E2E2E2E2E2E2E2E2E2E2E2E2E2E2E2E2E2E2E2E2E2E2E2E2E2
310
E2E2E2E2E2E2E2E2E2E2E2E2E2E2E2E2E2E2E2E2E2E2E2E2E2E2E2E2E2E2E2E2E2E2E2E2E2E2E2E2E2E2E2E2E2E2E2E2E2E2E2E2E2E2E2E2E2E2E2E2E2E2E2E2E2E2E2E2E2E2E2E2E2E2E2E2E2E2E2E2E2E2E2E2E2E2E2E2E2E2E2E2E2E2E2E2E2E2E2E2E2E2E2E2E2BEE2DCE2E2E2E2E2E2E2E2E2E2E2E2E2F5E2E2E2E2E2
310
E2E2E2E2E2E2E2E2E2E2E2E2E2E2E2E2E2E2E2E2E2E2E2F5E2E2E2E2E2E2E2E2E2E2E2E2E2E2E2E2E2E2E2E2E2E2E2E2E2E2E2E2E2E2E2E2E2E2E2E2E2E2E2E2E2E2E2E2E2E2E2E2E2E2E2E2E2E2E2E2E2E2E2E2E2E2E2E2E2E2E2E2DCBEE2E2E2E2E2E2E2E2E2E2E2E2E2E2E2E2E2E2E2E2E2E2E2E2E2E2E2E2E2E2E2E2E2
310
E2E2E2E2E2E2E2E2E2E2E2E2E2E2E2E2E2E2E2E2E2E2E2E2E2E2E2E2E2E2E2E2E2E2E2E2E2E2E2E2E2E2E2E2E2E2E2E2E2E2E2E2E2E2E2E2E2E2E2E2E2E2E2E2E2E2E2E2E2E2E2E2E2E2E2E2E2E2E2E2E2E2E2E2E2E2E2E2E2E2E2E2E2E2E2E2E2E2E2E2E2E2E2E2E2E2E2BEE2DCE2E2E2E2E2E2E2E2E2E2E2E2E2F5E2E2E2
310
E2E2E2E2E2E2E2E2E2E2E2E2E2E2E2E2E2E2E2E2E2E2E2E2E2F5E2E2E2E2E2E2E2E2E2E2E2E2E2E2E2E2E2E2E2E2E2E2E2E2E2E2E2E2E2E2E2E2E2E2E2E2E2E2E2E2E2E2E2E2E2E2E2E2E2E2E2E2E2E2E2E2E2E2E2E2E2E2E2E2E2E2E2E2DCBEE2E2E2E2E2E2E2E2E2E2E2E2E2E2E2E2E2E2E2E2E2E2E2E2E2E2E2E2E2E2E2
310
E2E2E2E2E2E2E2E2E2E2E2E2E2E2E2E2E2E2E2E2E2E2E2E2E2E2E2E2E2E2E2E2E2E2E2E2E2E2E2E2E2E2E2E2E2E2E2E2E2E2E2E2E2E2E2E2E2E2E2E2E2E2E2E2E2E2E2E2E2E2E2E2E2E2E2E2E2E2E2E2E2E2E2E2E2E2E2E2E2E2E2E2E2E2E2E2E2E2E2E2E2E2E2E2E2E2E2E2E2BEE2DCE2E2E2E2E2E2E2E2E2E2E2E2E2F5E2
310
E2E2E2E2E2E2E2E2E2E2E2E2E2E2E2E2E2E2E2E2E2E2E2E2E2E2E2F5E2E2E2E2E2E2E2E2E2E2E2E2E2E2E2E2E2E2E2E2E2E2E2E2E2E2E2E2E2E2E2E2E2E2E2E2E2E2E2E2E2E2E2E2E2E2E2E2E2E2E2E2E2E2E2E2E2E2E2E2E2E2E2E2E2E2E2E2DCBEE2E2E2E2E2E2E2E2E2E2E2E2E2E2E2E2E2E2E2E2E2E2E2E2E2E2E2E2E2
310
E2E2E2E2E2E2E2E2E2E2E2E2E2E2E2E2E2E2E2E2E2E2E2E2E2E2E2E2E2E2E2E2E2E2E2E2E2E2E2E2E2E2E2E2E2E2E2E2E2E2E2E2E2E2E2E2E2E2E2E2E2E2E2E2E2E2E2E2E2E2E2E2E2E2E2E2E2E2E2E2E2E2E2E2E2E2E2E2E2E2E2E2E2E2E2E2E2E2E2E2E2E2E2E2E2E2E2E2E2E2E2BEE2DCE2E2E2E2E2E2E2E2E2E2E2E2E2
310
F5E2E2E2E2E2E2E2E2E2E2E2E2E2F5BEE2E2E2E2E2E2E2E2E2E2E2E2E2F5E2E2E2E2E2E2E2E2E2E2E2E2E2E2E2E2E2E2E2E2E2E2E2E2E2E2E2E2E2E2E2E2E2E2E2E2E2E2E2E2E2E2E2E2E2E2E2E2E2E2E2E2E2E2E2E2E2E2E2E2E2E2E2E2E2E2E2E2DCBEE2E2E2E2E2E2E2E2E2E2E2E2E2E2E2E2E2E2E2E2E2E2E2E2E2E2E2
310
E2E2E2E2E2E2E2E2E2E2E2E2E2E2E2E2E2E2E2E2E2E2E2E2E2E2E2E2E2E2E2E2E2E2E2E2E2E2E2E2E2E2E2E2E2E2E2E2E2E2E2E2E2E2E2E2E2E2E2E2E2E2E2E2E2E2E2E2E2E2E2E2E2E2E2E2E2E2E2E2E2E2E2E2E2E2E2E2E2E2E2E2E2E2E2E2E2E2E2E2E2E2E2E2E2E2E2E2E2E2E2E2E2BEE2DCE2E2E2E2E2E2E2E2E2E2E2
310
E2E2F5E2E2E2E2E2E2E2E2E2E2E2E2BEBEBEBEE2E2E2E2E2E2E2E2E2E2E2E2F5E2E2E2E2E2E2E2E2E2E2E2E2E2E2E2E2E2E2E2E2E2E2E2E2E2E2E2E2E2E2E2E2E2E2E2E2E2E2E2E2E2E2E2E2E2E2E2E2E2E2E2E2E2E2E2E2E2E2E2E2E2E2E2E2E2E2E2E2DCBEE2E2E2E2E2E2E2E2E2E2E2E2E2E2E2E2E2E2E2E2E2E2E2E2E2
310
E2E2E2E2E2E2E2E2E2E2E2E2E2E2E2E2E2E2E2E2E2E2E2E2E2E2E2E2E2E2E2E2E2E2E2E2E2E2E2E2E2E2E2E2E2E2E2E2E2E2E2E2E2E2E2E2E2E2E2E2E2E2E2E2E2E2E2E2E2E2E2E2E2E2E2E2E2E2E2E2E2E2E2E2E2E2E2E2E2E2E2E2E2E2E2E2E2E2E2E2E2E2E2E2E2E2E2E2E2E2E2E2E2E2E2BEE2DCE2E2E2E2E2E2E2E2E2
310
E2E2E2E2F5E2E2E2E2E2E2E2E2E2E2E2E2E2F5BEE2E2E2E2E2E2E2E2E2E2E2E2E2F5E2E2E2E2E2E2E2E2E2E2E2E2E2E2E2E2E2E2E2E2E2E2E2E2E2E2E2E2E2E2E2E2E2E2E2E2E2E2E2E2E2E2E2E2E2E2E2E2E2E2E2E2E2E2E2E2E2E2E2E2E2E2E2E2E2E2E2E2DCBEE2E2E2E2E2E2E2E2E2E2E2E2E2E2E2E2E2E2E2E2E2E2E2
310
E2E2E2E2E2E2E2E2E2E2E2E2E2E2E2E2E2E2E2E2E2E2E2E2E2E2E2E2E2E2E2E2E2E2E2E2E2E2E2E2E2E2E2E2E2E2E2E2E2E2E2E2E2E2E2E2E2E2E2E2E2E2E2E2E2E2E2E2E2E2E2E2E2E2E2E2E2E2E2E2E2E2E2E2E2E2E2E2E2E2E2E2E2E2E2E2E2E2E2E2E2E2E2E2E2E2E2E2E2E2E2E2E2E2E2E2E2BEE2DCE2E2E2E2E2E2E2
310
E2E2E2E2E2E2BEBEE2E2E2E2E2E2E2E2E2E2E2E2E2E2E2E2E2E2E2E2E2E2E2E2E2E2E2BEE2E2E2E2E2E2E2E2E2E2E2E2E2E2E2E2E2E2E2E2E2E2E2E2E2E2E2E2E2E2E2E2E2E2E2E2E2E2E2E2E2E2E2E2E2E2E2E2E2E2E2E2E2E2E2E2E2E2E2E2E2E2E2E2E2E2E2E2DCBEE2E2E2E2E2E2E2E2E2E2E2E2E2E2E2E2E2E2E2E2E2
310
E2E2E2E2E2E2E2E2E2E2E2E2E2E2E2E2E2E2E2E2E2E2E2E2E2E2E2E2E2E2E2E2E2E2E2E2E2E2E2E2E2E2E2E2E2E2E2E2E2E2E2E2E2E2E2E2E2E2E2E2E2E2E2E2E2E2E2E2E2E2E2E2E2E2E2E2E2E2E2E2E2E2E2E2E2E2E2E2E2E2E2E2E2E2E2E2E2E2E2E2E2E2E2E2E2E2E2E2E2E2E2E2E2E2E2E2E2E2E2BEE2DCE2E2E2E2E2
310
E2E2E2E2E2E2E2E2F5F5F5F5F5F5F5F5F5F5F5F5F5F5F5F5F5F5F5F5F5F5F5F5F5F5F5F5F5F5E2E2E2E2E2E2E2E2E2E2E2E2E2E2E2E2E2E2E2E2E2E2E2E2E2E2E2E2E2E2E2E2E2E2E2E2E2E2E2E2E2E2E2E2E2E2E2E2E2E2E2E2E2E2E2E2E2E2E2E2E2E2E2E2E2E2E2E2DCBEE2E2E2E2E2E2E2E2E2E2E2E2E2E2E2E2E2E2E2
310
E2E2E2E2E2E2E2E2E2E2E2E2E2E2E2E2E2E2E2E2E2E2E2E2E2E2E2E2E2E2E2E2E2E2E2E2E2E2E2E2E2E2E2E2E2E2E2E2E2E2E2E2E2E2E2E2E2E2E2E2E2E2E2E2E2E2E2E2E2E2E2E2E2E2E2E2E2E2E2E2E2E2E2E2E2E2E2E2E2E2E2E2E2E2E2E2E2E2E2E2E2E2E2E2E2E2E2E2E2E2E2E2E2E2E2E2E2E2E2E2E2BEE2DCE2E2E2
310
E2E2E2E2E2E2E2E2E2E2E2E2E2E2E2E2E2E2E2E2E2E2E2E2E2E2E2E2E2E2E2E2E2E2E2E2E2E2E2E2E2E2E2E2E2E2E2E2E2E2E2E2E2E2E2E2E2E2E2E2E2E2E2E2E2E2E2E2E2E2E2E2E2E2E2E2E2E2E2E2E2E2E2E2E2E2E2E2E2E2E2E2E2E2E2E2E2E2E2E2E2E2E2E2E2E2E2E2DCBEE2E2E2E2E2E2E2E2E2E2E2E2E2E2E2E2E2
310
E2E2E2E2E2E2E2E2E2E2E2E2E2E2E2E2E2E2E2E2E2E2E2E2E2E2E2E2E2E2E2E2E2E2E2E2E2E2E2E2E2E2E2E2E2E2E2E2E2E2E2E2E2E2E2E2E2E2E2E2E2E2E2E2E2E2E2E2E2E2E2E2E2E2E2E2E2E2E2E2E2E2E2E2E2E2E2E2E2E2E2E2E2E2E2E2E2E2E2E2E2E2E2E2E2E2E2E2E2E2E2E2E2E2E2E2E2E2E2E2E2E2E2BEE2DCE2
310
E2E2E2E2E2E2E2E2E2E2E2E2E2E2E2E2E2E2E2E2E2E2E2E2E2E2E2E2E2E2E2E2E2E2E2E2E2E2E2E2E2E2E2E2E2E2E2E2E2E2E2E2E2E2E2E2E2E2E2E2E2E2E2E2E2E2E2E2E2E2E2E2E2E2E2E2E2E2E2E2E2E2E2E2E2E2E2E2E2E2E2E2E2E2E2E2E2E2E2E2E2E2E2E2E2E2E2E2E2E2DCBEE2E2E2E2E2E2E2E2E2E2E2E2E2E2E2
310
E2E2E2E2E2E2E2E2E2E2E2E2E2E2E2E2E2E2E2E2E2E2E2E2E2E2E2E2E2E2E2E2E2E2E2E2E2E2E2E2E2E2E2E2E2E2E2E2E2E2E2E2E2E2E2E2E2E2E2E2E2E2E2E2E2E2E2E2E2E2E2E2E2E2E2E2E2E2E2E2E2E2E2E2E2E2E2E2E2E2E2E2E2E2E2E2E2E2E2E2E2E2E2E2E2E2E2E2E2E2E2E2E2E2E2E2E2E2E2E2E2E2E2E2E2BEE2
310
DCE2E2E2E2E2E2E2E2E2E2E2E2E2E2E2E2E2E2E2E2E2E2E2E2E2E2E2E2E2E2E2E2E2E2E2E2E2E2E2E2E2E2E2E2E2E2E2E2E2E2E2E2E2E2E2E2E2E2E2E2E2E2E2E2E2E2E2E2E2E2E2E2E2E2E2E2E2E2E2E2E2E2E2E2E2E2E2E2E2E2E2E2E2E2E2E2E2E2E2E2E2E2E2E2E2E2E2E2E2E2E2DCBEE2E2E2E2E2E2E2E2E2E2E2E2E2
310
E2E2E2E2E2E2E2E2E2E2E2E2E2E2E2E2E2E2E2E2E2E2E2E2E2E2E2E2E2E2E2E2E2E2E2E2E2E2E2E2E2E2E2E2E2E2E2E2E2E2E2E2E2E2E2E2E2E2E2E2E2E2E2E2E2E2E2E2E2E2E2E2E2E2E2E2E2E2E2E2E2E2E2E2E2E2E2E2E2E2E2E2E2E2E2E2E2E2E2E2E2E2E2E2E2E2E2E2E2E2E2E2E2E2E2E2E2E2E2E2E2E2E2E2E2E2E2
310
BEE2DCE2E2E2E2E2E2E2E2E2E2E2E2E2E2E2E2E2E2E2E2E2E2E2E2E2E2E2E2E2E2E2E2E2E2E2E2E2E2E2E2E2E2E2E2E2E2E2E2E2E2E2E2E2E2E2E2E2E2E2E2E2E2E2E2E2E2E2E2E2E2E2E2E2E2E2E2E2E2E2E2E2E2E2E2E2E2E2E2E2E2E2E2E2E2E2E2E2E2E2E2E2E2E2E2E2E2E2E2E2E2E2DCBEE2E2E2E2E2E2E2E2E2E2E2
310
E2E2E2E2E2E2E2E2E2E2E2E2E2E2E2E2E2E2E2E2E2E2E2E2E2E2E2E2E2E2E2E2E2E2E2E2E2E2E2E2E2E2E2E2E2E2E2E2E2E2E2E2E2E2E2E2E2E2E2E2E2E2E2E2E2E2E2E2E2E2E2E2E2E2E2E2E2E2E2E2E2E2E2E2E2E2E2E2E2E2E2E2E2E2E2E2E2E2E2E2E2E2E2E2E2E2E2E2E2E2E2E2E2E2E2E2E2E2E2E2E2E2E2E2E2E2E2
310
E2E2BEE2DCE2E2E2E2E2E2E2E2E2E2E2E2E2E2E2E2E2E2E2E2E2E2E2E2E2E2E2E2E2E2E2E2E2E2E2E2E2E2E2E2E2E2E2E2E2E2E2E2E2E2E2E2E2E2E2E2E2E2E2E2E2E2E2E2E2E2E2E2E2E2E2E2E2E2E2E2E2E2E2E2E2E2E2E2E2E2E2E2E2E2E2E2E2E2E2E2E2E2E2E2E2E2E2E2E2E2E2E2E2E2E2DCBEE2E2E2E2E2E2E2E2E2
310
E2E2E2E2E2E2E2E2E2E2E2E2E2E2E2E2E2E2E2E2E2E2E2E2E2E2E2E2E2E2E2E2E2E2E2E2E2E2E2E2E2E2E2E2E2E2E2E2E2E2E2E2E2E2E2E2E2E2E2E2E2E2E2E2E2E2E2E2E2E2E2E2E2E2E2E2E2E2E2E2E2E2E2E2E2E2E2E2E2E2E2E2E2E2E2E2E2E2E2E2E2E2E2E2E2E2E2E2E2E2E2E2E2E2E2E2E2E2E2E2E2E2E2E2E2E2E2
310
E2E2E2E2BEE2DCE2E2E2E2E2E2E2E2E2E2E2E2E2E2E2E2E2E2E2E2E2E2E2E2E2E2E2E2E2E2E2E2E2E2E2E2E2E2E2E2E2E2E2E2E2E2E2E2E2E2E2E2E2E2E2E2E2E2E2E2E2E2E2E2E2E2E2E2E2E2E2E2E2E2E2E2E2E2E2E2E2E2E2E2E2E2E2E2E2E2E2E2E2E2E2E2E2E2E2E2E2E2E2E2E2E2E2E2E2E2E2DCBEE2E2E2E2E2E2E2
310
E2E2E2E2E2E2E2E2E2E2E2E2E2E2E2E2E2E2E2E2E2E2E2E2E2E2E2E2E2E2E2E2E2E2E2E2E2E2E2E2E2E2E2E2E2E2E2E2E2E2E2E2E2E2E2E2E2E2E2E2E2E2E2E2E2E2E2E2E2E2E2E2E2E2E2E2E2E2E2E2E2E2E2E2E2E2E2E2E2E2E2E2E2E2E2E2E2E2E2E2E2E2E2E2E2E2E2E2E2E2E2E2E2E2E2E2E2E2E2E2E2E2E2E2E2E2E2
310
E2E2E2E2E2E2BEE2DCE2E2E2E2E2E2E2E2E2E2E2E2E2F5F5F5F5F5F5F5F5F5F5F5F5F5F5F5F5F5F5F5F5F5F5F5F5F5F5F5F52D2D2D2D2DE2E2E2E2E2E2E2E2E2E2E2E2E2F5F5F5E2E2E2E2F5F5F5E2E2E2E2E2E2E2E2E2E2E2E2E2E2E2E2E2E2E2E2E2E2E2E2E2E2E2E2E2E2E2E2E2E2E2E2E2E2E2E2E2E2DCBEE2E2E2E2E2
310
E2E2E2E2E2E2E2E2E2E2E2E2E2E2E2E2E2E2E2E2E2E2E2E2E2E2E2E2E2E2E2E2E2E2E2E2E2E2E2E2E2E2E2E2E2E2E2E2E2E2E2E2E2E2E2E2E2E2E2E2E2E2E2E2E2E2E2E2E2E2E2E2E2E2E2E2E2E2E2E2E2E2E2E2E2E2E2E2E2E2E2E2E2E2E2E2E2E2E2E2E2E2E2E2E2E2E2E2E2E2E2E2E2E2E2E2E2E2E2E2E2E2E2E2E2E2E2
310
E2E2E2E2E2E2E2E2BEE2DCE2E2E2E2E2E2E2E2E2E2F52D2DF5F5F5F5F5F5F5F5F5F5F5F5F5F5F5F5F5F5F5F5F5F5F5F5F5F5F5F5F5F5E22DE2E2E2E2E2E2E2E2E2E2E2E2F5F5F5F5F5F5F5F5F5F5F5F5F5F52D2DE2E2E2E2E2E2E2E2E2E2E2E2E2E2E2E2E2E2E2E2E2E2E2E2E2E2E2E2E2E2E2E2E2E2E2E2E2E2DCBEE2E2E2
310
E2E2E2E2E2E2E2E2E2E2E2E2E2E2E2E2E2E2E2E2E2E2E2E2E2E2E2E2E2E2E2E2E2E2E2E2E2E2E2E2E2E2E2E2E2E2E2E2E2E2E2E2E2E2E2E2E2E2E2E2E2E2E2E2E2E2E2E2E2E2E2E2E2E2E2E2E2E2E2E2E2E2E2E2E2E2E2E2E2E2E2E2E2E2E2E2E2E2E2E2E2E2E2E2E2E2E2E2E2E2E2E2E2E2E2E2E2E2E2E2E2E2E2E2E2E2E2
310
E2E2E2E2E2E2E2E2E2E2BEE2DCE2E2E2E2E2E2E2E2E2E22DE2E2BEBE2828E2E2E2E2E2E2E2E2E2E2E2E2E2E2E2E2E2E2E2E2E2E22828BEBEBE2DE2E2E2E2E2E2E2E2E2E2E2E2F5BEE2E2E2E2E2E2E2E2E2E2E2F5E22DE2E2E2E2E2E2E2E2E2E2E2E2E2E2E2E2E2E2E2E2E2E2E2E2E2E2E2E2E2E2E2E2E2E2E2E2E2E2DCBEE2
310
E2E2E2E2E2E2E2E2E2E2E2E2E2E2E2E2E2E2E2E2E2E2E2E2E2E2E2E2E2E2E2E2E2E2E2E2E2E2E2E2E2E2E2E2E2E2E2E2E2E2E2E2E2E2E2E2E2E2E2E2E2E2E2E2E2E2E2E2E2E2E2E2E2E2E2E2E2E2E2E2E2E2E2E2E2E2E2E2E2E2E2E2E2E2E2E2E2E2E2E2E2E2E2E2E2E2E2E2E2E2E2E2E2E2E2E2E2E2E2E2E2E2E2E2E2E2E2
310
E2E2E2E2E2E2E2E2E2E2E2E2BEE2DCE2E2E2E2E2E2E2E2E2E22DE2E2F5282828E2E2E2E2E2E2E2E2E2E2F5F5E2E2E2E2E2E2E2E2E2E2282828F5E22DE2E2E2E2E2E2E2E2E2E2E2E2F5E2E2E2E2E2E2E2E2E2E2E2E2F5E22DE2E2E2E2E2E2E2E2E2E2E2E2E2E2E2E2E2E2E2E2E2E2E2E2E2E2E2E2E2E2E2E2E2E2E2E2E2E2DC
310
BEE2E2E2E2E2E2E2E2E2E2E2E2E2E2E2E2E2E2E2E2E2E2E2E2E2E2E2E2E2E2E2E2E2E2E2E2E2E2E2E2E2E2E2E2E2E2E2E2E2E2E2E2E2E2E2E2E2E2E2E2E2E2E2E2E2E2E2E2E2E2E2E2E2E2E2E2E2E2E2E2E2E2E2E2E2E2E2E2E2E2E2E2E2E2E2E2E2E2E2E2E2E2E2E2E2E2E2E2E2E2E2E2E2E2E2E2E2E2E2E2E2E2E2E2E2E2
310
E2E2E2E2E2E2E2E2E2E2E2E2E2E2BEE2DCE2E2E2E2E2E2E2E2E2E22DE2E2F5282828E2E2E2E2E2E2E2E2E2E2F5F5E2E2E2E2E2E2E2E2E2E2282828F5E22DE2E2E2E2E2E2E2E2E2E2E2E2F5E2E2E2E2E2E2E2E2E2E2E2E2F5E22DE2E2E2E2E2E2E2E2E2E2E2E2E2E2E2E2E2E2E2E2E2E2E2E2E2E2E2E2E2E2E2E2E2E2E2E2E2
310
E2DCBEE2E2E2E2E2E2E2E2E2E2E2E2E2E2E2E2E2E2E2E2E2E2E2E2E2E2E2E2E2E2E2E2E2E2E2E2E2E2E2E2E2E2E2E2E2E2E2E2E2E2E2E2E2E2E2E2E2E2E2E2E2E2E2E2E2E2E2E2E2E2E2E2E2E2E2E2E2E2E2E2E2E2E2E2E2E2E2E2E2E2E2E2E2E2E2E2E2E2E2E2E2E2E2E2E2E2E2E2E2E2E2E2E2E2E2E2E2E2E2E2E2E2E2E2
310
E2E2E2E2E2E2E2E2E2E2E2E2E2E2E2E2BEE2DCE2E2E2E2E2E2E2E2E2E22D2DF52D2DF5F5E2E2E2E2E2E2E2E2E2E2F5F5E2E2E2E2E2E2E2E2E2E2E2BEE2F5E22DE2E2E2E2E2E2E2E2E2E2E2E2F5E2E2E2E2E2E2E2E2E2E2E2E2F5E22DE2E2E2E2E2E2E2E2E2E2E2E2E2E2E2E2E2E2E2E2E2E2E2E2E2E2E2E2E2E2E2E2E2E2E2
310
E2E2E2DCBEE2E2E2E2E2E2E2E2E2E2E2E2E2E2E2E2E2E2E2E2E2E2E2E2E2E2E2E2E2E2E2E2E2E2E2E2E2E2E2E2E2E2E2E2E2E2E2E2E2E2E2E2E2E2E2E2E2E2E2E2E2E2E2E2E2E2E2E2E2E2E2E2E2E2E2E2E2E2E2E2E2E2E2E2E2E2E2E2E2E2E2E2E2E2E2E2E2E2E2E2E2E2E2E2E2E2E2E2E2E2E2E2E2E2E2E2E2E2E2E2E2E2
310
E2E2E2E2E2E2E2E2E2E2E2E2E2E2E2E2E2E2BEE2DCE2E2E2E2E2E2E2E2E2E22DE22DF52DBEF52DE2E2E2E2E2E2E2E2E2F5F5E2E2E2E2E2E2E2E2E2E2E2E2E2F5E22DE2E2E2E2E2E2E2E2E2E2E2E2F5E2E2E2E2E2E2E2E2E2E2E2E2F5E22DE2E2E2E2E2E2E2E2E2E2E2E2E2E2E2E2E2E2E2E2E2E2E2E2E2E2E2E2E2E2E2E2E2
310
E2E2E2E2E2DCBEE2E2E2E2E2E2E2E2E2E2E2E2E2E2E2E2E2E2E2E2E2E2E2E2E2E2E2E2E2E2E2E2E2E2E2E2E2E2E2E2E2E2E2E2E2E2E2E2E2E2E2E2E2E2E2E2E2E2E2E2E2E2E2E2E2E2E2E2E2E2E2E2E2E2E2E2E2E2E2E2E2E2E2E2E2E2E2E2E2E2E2E2E2E2E2E2E2E2E2E2E2E2E2E2E2E2E2E2E2E2E2E2E2E2E2E2E2E2E2E2
310
E2E2E2E2E2E2E2E2E2E2E2E2E2E2E2E2E2E2E2E2BEE2DCE2E2E2E2E2E2E2E2E2E22DE22DF5E2BEE2E2E2E2E2E2E2E2E2E2E2F5F5E2E2E2E2E2E2E2E2E2E2E2E2E2F5E22DE2E2E2E2E2E2E2E2E2E2E2E2F5E2E2E2E2E2E2E2E2E2E2E2E2F5E22DE2E2E2E2E2E2E2E2E2E2E2E2E2E2E2E2E2E2E2E2E2E2E2E2E2E2E2E2E2E2E2
310
E2E2E2E2E2E2E2DCBEE2E2E2E2E2E2E2E2E2E2E2E2E2E2E2E2E2E2E2E2E2E2E2E2E2E2E2E2E2E2E2E2E2E2E2E2E2E2E2E2E2E2E2E2E2E2E2E2E2E2E2E2E2E2E2E2E2E2E2E2E2E2E2E2E2E2E2E2E2E2E2E2E2E2E2E2E2E2E2E2E2E2E2E2E2E2E2E2E2E2E2E2E2E2E2E2E2E2E2E2E2E2E2E2E2E2E2E2E2E2E2E2E2E2E2E2E2E2
310
E2E2E2E2E2E2E2E2E2E2E2E2E2E2E2E2E2E2E2E2E2E2BEE2DCE2E2E2E2E2E2E2E2E2E22DE22DF5E2E2E2E2E2E2E2E2E2E2E2E2E2F5F5E2E2E2E2E2E2E2E2E2E2E2E2E2F5E22DE2E2E2E2E2E2E2E2E2E2E2E2F5E2E2E2E2E2E2E2E2E2E2E2E2F5E22DE2E2E2E2E2E2E2E2E2E2E2E2E2E2E2E2E2E2E2E2E2E2E2E2E2E2E2E2E2
310
E2E2E2E2E2E2E2E2E2DCBEE2E2E2E2E2E2E2E2E2E2E2E2E2E2E2E2E2E2E2E2E2E2E2E2E2E2E2E2E2E2E2E2E2E2E2E2E2E2E2E2E2E2E2E2E2E2E2E2E2E2E2E2E2E2E2E2E2E2E2E2E2E2E2E2E2E2E2E2E2E2E2E2E2E2E2E2E2E2E2E2E2E2E2E2E2E2E2E2E2E2E2E2E2E2E2E2E2E2E2E2E2E2E2E2E2E2E2E2E2E2E2E2E2E2E2E2
310
E2E2E2E2E2E2E2E2E2E2E2E2E2E2E2E2E2E2E2E2E2E2E2E2BEE2DCE2E2E2E2E2E2E2E2E2E22DE22DF5E2E2E2E2E2E2E2E2E2E2E2E2E2F5F5E2E2E2E2E2E2E2E2E2E2E2E2E2F5E22DE2E2E2E2E2E2E2E2E2E2E2E2F5E2E2E2E2E2E2E2E2E2E2E2E2F5E22DE2E2E2E2E2E2E2E2E2E2E2E2E2E2E2E2E2E2E2E2E2E2E2E2E2E2E2
310
E2E2E2E2E2E2E2E2E2E2E2DCBEE2E2E2E2E2E2E2E2E2E2E2E2E2E2E2E2E2E2E2E2E2E2E2E2E2E2E2E2E2E2E2E2E2E2E2E2E2E2E2E2E2E2E2E2E2E2E2E2E2E2E2E2E2E2E2E2E2E2E2E2E2E2E2E2E2E2E2E2E2E2E2E2E2E2E2E2E2E2E2E2E2E2E2E2E2E2E2E2E2E2E2E2E2E2E2E2E2E2E2E2E2E2E2E2E2E2E2E2E2E2E2E2E2E2
310
E2E2E2E2E2E2E2E2E2E2E2E2E2E2E2E2E2E2E2E2E2E2E2E2E2E2BEE2DCE2E2E2E2E2E2E2E2E2E22DE22DF5E2E2E2E2E2E2E2E2E2E2E2E2E2E2E2E2E2E2E2E2E2E2E2E2E2E2E2E2F5E22DE2E2E2E2E2E2E2E2E2E2E2E2F5E2E2E2E2E2E2E2E2E2E2E2E2F5E22DE2E2E2E2E2E2E2E2E2E2E2E2E2E2E2E2E2E2E2E2E2E2E2E2E2
310
E2E2E2E2E2E2E2E2E2E2E2E2E2DCBEE2E2E2E2E2E2E2E2E2E2E2E2E2E2E2E2E2E2E2E2E2E2E2E2E2E2E2E2E2E2E2E2E2E2E2E2E2E2E2E2E2E2E2E2E2E2E2E2E2E2E2E2E2E2E2E2E2E2E2E2E2E2E2E2E2E2E2E2E2E2E2E2E2E2E2E2E2E2E2E2E2E2E2E2E2E2E2E2E2E2E2E2E2E2E2E2E2E2E2E2E2E2E2E2E2E2E2E2E2E2E2E2
310
E2E2E2E2E2E2E2E2E2E2E2E2E2E2E2E2E2E2E2E2E2E2E2E2E2E2E2E2BEE2DCE2E2E2E2E2E2E2E2E2E22DE22DF5E2E2E2E2E2E2E2E2E2E2E2E2E2E2E2E2E2E2E2E2E2E2E2E2E2E2E2E2F5E22DE2E2E2E2E2E2E2E2E2E2E2E2F5E2E2E2E2E2E2E2E2E2E2E2E2F5E22DE2E2E2E2E2E2E2E2E2E2E2E2E2E2E2E2E2E2E2E2E2E2E2
310
E2E2E2E2E2E2E2E2E2E2E2E2E2E2E2DCBEE2E2E2E2E2E2E2E2E2E2E2E2E2E2E2E2E2E2E2E2E2E2E2E2E2E2E2E2E2E2E2E2E2E2E2E2E2E2E2E2E2E2E2E2E2E2E2E2E2E2E2E2E2E2E2E2E2E2E2E2E2E2E2E2E2E2E2E2E2E2E2E2E2E2E2E2E2E2E2E2E2E2E2E2E2E2E2E2E2E2E2E2E2E2E2E2E2E2E2E2E2E2E2E2E2E2E2E2E2E2
310
E2E2E2E2E2E2E2E2E2E2E2E2E2E2E2E2E2E2E2E2E2E2E2E2E2E2E2E2E2E2BEE2DCE2E2E2E2E2E2E2E2E2E22DE22DF5E2E2E2E2E2E2E2E2E2E2E2E2E2E2E2E2E2E2E2E2E2E2E2E2E2E2E2E2F5E22DE2E2E2E2E2E2E2E2E2E2E2E2F5E2E2E2E2E2E2E2E2E2E2E2E2F5E22DE2E2E2E2E2E2E2E2E2E2E2E2E2E2E2E2E2E2E2E2E2
310
E2E2E2E2E2E2E2E2E2E2E2E2E2E2E2E2E2DCBEE2E2E2E2E2E2E2E2E2E2E2E2E2E2E2E2E2E2E2E2E2E2E2E2E2E2E2E2E2E2E2E2E2E2E2E2E2E2E2E2E2E2E2E2E2E2E2E2E2E2E2E2E2E2E2E2E2E2E2E2E2E2E2E2E2E2E2E2E2E2E2E2E2E2E2E2E2E2E2E2E2E2E2E2E2E2E2E2E2E2E2E2E2E2E2E2E2E2E2E2E2E2E2E2E2E2E2E2
310
E2E2E2E2E2E2E2E2E2E2E2E2E2E2E2E2E2E2E2E2E2E2E2E2E2E2E2E2E2E2E2E2BEE2DCE2E2E2E2E2E2E2E2E2E22DE22DF5E2E2E2E2E2E2E2E2E2E2E2E2E2E2E2E2E2E2E2E2E2E2E2E2E2E2E2E2F5E22DE2E2E2E2E2E2E2E2E2E2E2E2F5E2E2E2E2E2E2E2E2E2E2E2E2F5E22DE2E2E2E2E2E2E2E2E2E2E2E2E2E2E2E2E2E2E2
310
E2E2E2E2E2E2E2E2E2E2E2E2E2E2E2E2E2E2E2DCBEE2E2E2E2E2E2E2E2E2E2E2E2E2E2E2E2E2E2E2E2E2E2E2E2E2E2E2E2E2E2E2E2E2E2E2E2E2E2E2E2E2E2E2E2E2E2E2E2E2E2E2E2E2E2E2E2E2E2E2E2E2E2E2E2E2E2E2E2E2E2E2E2E2E2E2E2E2E2E2E2E2E2E2E2E2E2E2E2E2E2E2E2E2E2E2E2E2E2E2E2E2E2E2E2E2E2
310
E2E2E2E2E2E2E2E2E2E2E2E2E2E2E2E2E2E2E2E2E2E2E2E2E2E2E2E2E2E2E2E2E2E2BEE2DCE2E2E2E2E2E2E2E2E2E22DE22DF5E2E2E2E2E2E2E2E2E2E2E2E2E2E2E2E2E2E2E2E2E2E2E2E2E2E2E2E2F5E22DE2E2E2E2E2E2E2E2E2E2E2E2F5E2E2E2E2E2E2E2E2E2E2E2E2F5E22DE2E2E2E2E2E2E2E2E2E2E2E2E2E2E2E2E2
310
E2E2E2E2E2E2E2E2E2E2E2E2E2E2E2E2E2E2E2E2E2DCBEE2E2E2E2E2E2E2E2E2E2E2E2E2E2E2E2E2E2E2E2E2E2E2E2E2E2E2E2E2E2E2E2E2E2E2E2E2E2E2E2E2E2E2E2E2E2E2E2E2E2E2E2E2E2E2E2E2E2E2E2E2E2E2E2E2E2E2E2E2E2E2E2E2E2E2E2E2E2E2E2E2E2E2E2E2E2E2E2E2E2E2E2E2E2E2E2E2E2E2E2E2E2E2E2
310
E2E2E2E2E2E2E2E2E2E2E2E2E2E2E2E2E2E2E2E2E2E2E2E2E2E2E2E2E2E2E2E2E2E2E2E2BEE2DCE2E2E2E2E2E2E2E2E2E22DE22DF5E2E2E2E2E2E2E2E2E2E2E2E2E2E2E2E2E2E2E2E2E2E2E2E2E2E2E2E2F5E22DE2E2E2E2E2E2E2E2E2E2E2E2F5E2E2E2E2E2E2E2E2E2E2E2E2F5E22DE2E2E2E2E2E2E2E2E2E2E2E2E2E2E2
310
E2E2E2E2E2E2E2E2E2E2E2E2E2E2E2E2E2E2E2E2E2E2E2DCBEE2E2E2E2E2E2E2E2E2E2E2E2E2E2E2E2E2E2E2E2E2E2E2E2E2E2E2E2E2E2E2E2E2E2E2E2E2E2E2E2E2E2E2E2E2E2E2E2E2E2E2E2E2E2E2E2E2E2E2E2E2E2E2E2E2E2E2E2E2E2E2E2E2E2E2E2E2E2E2E2E2E2E2E2E2E2E2E2E2E2E2E2E2E2E2E2E2E2E2E2E2E2
310
E2E2E2E2E2E2E2E2E2E2E2E2E2E2E2E2E2E2E2E2E2E2E2E2E2E2E2E2E2E2E2E2E2E2E2E2E2E2BEE2DCE2E2E2E2E2E2E2E2E2E22DE22DF5E2E2E2E2E2E2E2E2E2E2E2E2E2E2E2E2E2E2E2E2E2E2E2E2E2E2E2E2F5E2BEE2E2E2E2E2E2E2E2E2E2E2E2F5E2E2E2E2E2E2E2E2E2E2E2E2F5E22DE2E2E2E2E2E2E2E2E2E2E2E2E2
310
E2E2E2E2E2E2E2E2E2E2E2E2E2E2E2E2E2E2E2E2E2E2E2E2E2DCBEE2E2E2E2E2E2E2E2E2E2E2E2E2E2E2E2E2E2E2E2E2E2E2E2E2E2E2E2E2E2E2E2E2E2E2E2E2E2E2E2E2E2E2E2E2E2E2E2E2E2E2E2E2E2E2E2E2E2E2E2E2E2E2E2E2E2E2E2E2E2E2E2E2E2E2E2E2E2E2E2E2E2E2E2E2E2E2E2E2E2E2E2E2E2E2E2E2E2E2E2
310
E2E2E2E2E2E2E2E2E2E2E2E2E2E2E2E2E2E2E2E2E2E2E2E2E2E2E2E2E2E2E2E2E2E2E2E2E2E2E2E2BEE2DCE2E2E2E2E2E2E2E2E2BEBEE22DF5E2E2E2E2E2E2E2E2E2E2E2E2E2E2E2E2E2E2E2E2E2E2E2E2E2E2E2E2F5E2BEE2E2E2E2E2E2E2E2E2E2E2E2F5E2E2E2E2E2E2E2E2E2E2E2E2F5BEBEE2E2E2E2E2E2E2E2E2E2E2
310
E2E2E2E2E2E2E2E2E2E2E2E2E2E2E2E2E2E2E2E2E2E2E2E2E2E2E2DCBEE2E2E2E2E2E2E2E2E2E2E2E2E2E2E2E2E2E2E2E2E2E2E2E2E2E2E2E2E2E2E2E2E2E2E2E2E2E2E2E2E2E2E2E2E2E2E2E2E2E2E2E2E2E2E2E2E2E2E2E2E2E2E2E2E2E2E2E2E2E2E2E2E2E2E2E2E2E2E2E2E2E2E2E2E2E2E2E2E2E2E2E2E2E2E2E2E2E2
310
E2E2E2E2E2E2E2E2E2E2E2E2E2E2E2E2E2E2E2E2E2E2E2E2E2E2E2E2E2E2E2E2E2E2E2E2E2E2E2E2E2E2BEE2DCE2E2E2E2E2E2E2E2E2BEBEBE2DF5E2E2E2E2E2E2E2E2E2E2E2E2E2E2E2E2E2E2E2E2E2E2E2E2E2E2E2E2F5E2BEE2E2E2E2E2E2E2E2E2E2E2E2F5E2E2E2E2E2E2E2E2E2E2E2E2F5BEBEE2E2E2E2E2E2E2E2E2
310
E2E2E2E2E2E2E2E2E2E2E2E2E2E2E2E2E2E2E2E2E2E2E2E2E2E2E2E2E2DCBEE2E2E2E2E2E2E2E2E2E2E2E2E2E2E2E2E2E2E2E2E2E2E2E2E2E2E2E2E2E2E2E2E2E2E2E2E2E2E2E2E2E2E2E2E2E2E2E2E2E2E2E2E2E2E2E2E2E2E2E2E2E2E2E2E2E2E2E2E2E2E2E2E2E2E2E2E2E2E2E2E2E2E2E2E2E2E2E2E2E2E2E2E2E2E2E2
310
E2E2E2E2E2E2E2E2E2E2E2E2E2E2E2E2E2E2E2E2E2E2E2E2E2E2E2E2E2E2E2E2E2E2E2E2E2E2E2E2E2E2E2E2BEE2DCE2E2E2E2E2E2E2E2E2E22DBE2DF5E2E2E2E2E2E2E2E2E2E2E2E2E2E2E2E2E2E2E2E2E2E2E2E2E2E2E2E2F5E22DE2E2E2E2E2E2E2E2E2E2E2E2F5E2E2E2E2E2E2E2E2E2E2E2E2F5E22DE2E2E2E2E2E2E2
310
E2E2E2E2E2E2E2E2E2E2E2E2E2E2E2E2E2E2E2E2E2E2E2E2E2E2E2E2E2E2E2DCBEE2E2E2E2E2E2E2E2E2E2E2E2E2E2E2E2E2E2E2E2E2E2E2E2E2E2E2E2E2E2E2E2E2E2E2E2E2E2E2E2E2E2E2E2E2E2E2E2E2E2E2E2E2E2E2E2E2E2E2E2E2E2E2E2E2E2E2E2E2E2E2E2E2E2E2E2E2E2E2E2E2E2E2E2E2E2E2E2E2E2E2E2E2E2
310
E2E2E2E2E2E2E2E2E2E2E2E2E2E2E2E2E2E2E2E2E2E2E2E2E2E2E2E2E2E2E2E2E2E2E2E2E2E2E2E2E2E2E2E2E2E2BEE2DCE2E2E2E2E2E2E2E2E2E22DE22DF5E2E2E2E2E2E2E2E2E2E2E2E2E2E2E2E2E2E2E2E2E2E2E2E2E2E2E2E2F5E22DE2E2E2E2E2E2E2E2E2E2E2E2F5E2E2E2E2E2E2E2E2E2E2E2E2F5E22DE2E2E2E2E2
310
E2E2E2E2E2E2E2E2E2E2E2E2E2E2E2E2E2E2E2E2E2E2E2E2E2E2E2E2E2E2E2E2E2DCBEE2E2E2E2E2E2E2E2E2E2E2E2E2E2E2E2E2E2E2E2E2E2E2E2E2E2E2E2E2E2E2E2E2E2E2E2E2E2E2E2E2E2E2E2E2E2E2E2E2E2E2E2E2E2E2E2E2E2E2E2E2E2E2E2E2E2E2E2E2E2E2E2E2E2E2E2E2E2E2E2E2E2E2E2E2E2E2E2E2E2E2E2
310
E2E2E2E2E2E2E2E2E2E2E2E2E2E2E2E2E2E2E2E2E2E2E2E2E2E2E2E2E2E2E2E2E2E2E2E2E2E2E2E2E2E2E2E2E2E2E2E2BEE2DCE2E2E2E2E2E2E2E2E2E22DE22DF5E2E2E2E2E2E2E2E2E2E2E2E2E2E2E2E2E2E2E2E2E2E2E2E2E2E2E2E2F5E22DE2E2E2E2E2E2E2E2E2E2E2E2F5E2E2E2E2E2E2E2E2E2E2E2E2F5E22DE2E2E2
310
E2E2E2E2E2E2E2E2E2E2E2E2E2E2E2E2E2E2E2E2E2E2E2E2E2E2E2E2E2E2E2E2E2E2E2DCBEE2E2E2E2E2E2E2E2E2E2E2E2E2E2E2E2E2E2E2E2E2E2E2E2E2E2E2E2E2E2E2E2E2E2E2E2E2E2E2E2E2E2E2E2E2E2E2E2E2E2E2E2E2E2E2E2E2E2E2E2E2E2E2E2E2E2E2E2E2E2E2E2E2E2E2E2E2E2E2E2E2E2E2E2E2E2E2E2E2E2
310
E2E2E2E2E2E2E2E2E2E2E2E2E2E2E2E2E2E2E2E2E2E2E2E2E2E2E2E2E2E2E2E2E2E2E2E2E2E2E2E2E2E2E2E2E2E2E2E2E2E2BEE2DCE2E2E2E2E2E2E2E2E2E22DE22DF5E2E2E2E2E2E2E2E2E2E2E2E2E2E2E2E2E2E2E2E2E2E2E2E2E2E2E2E2F5E22DE2E2E2E2E2E2E2E2E2E2E2E2F5E2E2E2E2E2E2E2E2E2E2E2E2F5E22DE2
310
E2E2E2E2E2E2E2E2E2E2E2E2E2E2E2E2E2E2E2E2E2E2E2E2E2E2E2E2E2E2E2E2E2E2E2E2E2DCBEE2E2E2E2E2E2E2E2E2E2E2E2E2E2E2E2E2E2E2E2E2E2E2E2E2E2E2E2E2E2E2E2E2E2E2E2E2E2E2E2E2E2E2E2E2E2E2E2E2E2E2E2E2E2E2E2E2E2E2E2E2E2E2E2E2E2E2E2E2E2E2E2E2E2E2E2E2E2E2E2E2E2E2E2E2E2E2E2
310
E2E2E2E2E2E2E2E2E2E2E2E2E2E2E2E2E2E2E2E2E2E2E2E2E2E2E2E2E2E2E2E2E2E2E2E2E2E2E2E2E2E2E2E2E2E2E2E2E2E2E2E2BEE2DCE2E2E2E2E2E2E2E2E2E22DE22DF5E2E2E2E2E2E2E2E2E2E2E2E2E2E2E2E2E2E2E2E2E2E2E2E2E2E2E2E2F5E22DE2E2E2E2E2E2E2E2E2E2E2E2F5E2E2E2E2E2E2E2E2E2E2E2E2F5E2
310
2DE2E2E2E2E2E2E2E2E2E2E2E2E2E2E2E2E2E2E2E2E2E2E2E2E2E2E2E2E2E2E2E2E2E2E2E2E2E2DCBEE2E2E2E2E2E2E2E2E2E2E2E2E2E2E2E2E2E2E2E2E2E2E2E2E2E2E2E2E2E2E2E2E2E2E2E2E2E2E2E2E2E2E2E2E2E2E2E2E2E2E2E2E2E2E2E2E2E2E2E2E2E2E2E2E2E2E2E2E2E2E2E2E2E2E2E2E2E2E2E2E2E2E2E2E2E2
310
E2E2E2E2E2E2E2E2E2E2E2E2E2E2E2E2E2E2E2E2E2E2E2E2E2E2E2E2E2E2E2E2E2E2E2E2E2E2E2E2E2E2E2E2E2E2E2E2E2E2E2E2E2E2BEE2DCE2E2E2E2E2E2E2E2E2E22DE22DF5E2E2E2E2E2E2E2E2E2E2E2E2E2E2E2E2E2E2E2E2E2E2E2E2E2E2E2E2F5E22DE2E2E2E2E2E2E2E2E2E2E2E2F5E2E2E2E2E2E2E2E2E2E2E2E2
310
F5E22DE2E2E2E2E2E2E2E2E2E2E2E2E2E2E2E2E2E2E2E2E2E2E2E2E2E2E2E2E2E2E2E2E2E2E2E2E2E2DCBEE2E2E2E2E2E2E2E2E2E2E2E2E2E2E2E2E2E2E2E2E2E2E2E2E2E2E2E2E2E2E2E2E2E2E2E2E2E2E2E2E2E2E2E2E2E2E2E2E2E2E2E2E2E2E2E2E2E2E2E2E2E2E2E2E2E2E2E2E2E2E2E2E2E2E2E2E2E2E2E2E2E2E2E2
310
E2E2E2E2E2E2E2E2E2E2E2E2E2E2E2E2E2E2E2E2E2E2E2E2E2E2E2E2E2E2E2E2E2E2E2E2E2E2E2E2E2E2E2E2E2E2E2E2E2E2E2E2E2E2E2E2BEE2DCE2E2E2E2E2E2E2E2E2E22DE22DF5E2E2E2E2E2E2E2E2E2E2E2E2E2E2E2E2E2E2E2E2E2E2E2E2E2E2E2E2F5E22DE2E2E2E2E2E2E2E2E2E2E2E2F5E2E2E2E2E2E2E2E2E2E2
310
E2E2F5E22DE2E2E2E2E2E2E2E2E2E2E2E2E2E2E2E2E2E2E2E2E2E2E2E2E2E2E2E2E2E2E2E2E2E2E2E2E2E2DCBEE2E2E2E2E2E2E2E2E2E2E2E2E2E2E2E2E2E2E2E2E2E2E2E2E2E2E2E2E2E2E2E2E2E2E2E2E2E2E2E2E2E2E2E2E2E2E2E2E2E2E2E2E2E2E2E2E2E2E2E2E2E2E2E2E2E2E2E2E2E2E2E2E2E2E2E2E2E2E2E2E2E2
310
E2E2E2E2E2E2E2E2E2E2E2E2E2E2E2E2E2E2E2E2E2E2E2E2E2E2E2E2E2E2E2E2E2E2E2E2E2E2E2E2E2E2E2E2E2E2E2E2E2E2E2E2E2E2E2E2E2E2BEE2DCE2E2E2E2E2E2E2E2E2E22DE22DF5E2E2E2E2E2E2E2E2E2E2E2E2E2E2E2E2E2E2E2E2E2E2E2E2E2E2E2E2F5E22DE2E2E2E2E2E2E2E2E2E2E2E2F5E2E2E2E2E2E2E2E2
310
E2E2E2E2F5E22DE2E2E2E2E2E2E2E2E2E2E2E2E2E2E2E2E2E2E2E2E2E2E2E2E2E2E2E2E2E2E2E2E2E2E2E2E2E2DCBEE2E2E2E2E2E2E2E2E2E2E2E2E2E2E2E2E2E2E2E2E2E2E2E2E2E2E2E2E2E2E2E2E2E2E2E2E2E2E2E2E2E2E2E2E2E2E2E2E2E2E2E2E2E2E2E2E2E2E2E2E2E2E2E2E2E2E2E2E2E2E2E2E2E2E2E2E2E2E2E2
310
E2E2E2E2E2E2E2E2E2E2E2E2E2E2E2E2E2E2E2E2E2E2E2E2E2E2E2E2E2E2E2E2E2E2E2E2E2E2E2E2E2E2E2E2E2E2E2E2E2E2E2E2E2E2E2E2E2E2E2E2BEE2DCE2E2E2E2E2E2E2E2E2E22DE22DF5E2E2E2E2E2E2E2E2E2E2E2E2E2E2E2E2E2E2E2E2E2E2E2E2E2E2E2E2F5E22DE2E2E2E2E2E2E2E2E2E2E2E2F5E2E2E2E2E2E2
310
E2E2E2E2E2E2F5E22DE2E2E2E2E2E2E2E2E2E2E2E2E2E2E2E2E2E2E2E2E2E2E2E2E2E2E2E2E2E2E2E2E2E2E2E2E2E2DCBEE2E2E2E2E2E2E2E2E2E2E2E2E2E2E2E2E2E2E2E2E2E2E2E2E2E2E2E2E2E2E2E2E2E2E2E2E2E2E2E2E2E2E2E2E2E2E2E2E2E2E2E2E2E2E2E2E2E2E2E2E2E2E2E2E2E2E2E2E2E2E2E2E2E2E2E2E2E2
310
E2E2E2E2E2E2E2E2E2E2E2E2E2E2E2E2E2E2E2E2E2E2E2E2E2E2E2E2E2E2E2E2E2E2E2E2E2E2E2E2E2E2E2E2E2E2E2E2E2E2E2E2E2E2E2E2E2E2E2E2E2E2BEE2DCE2E2E2E2E2E2E2E2E2E22DE22DF52D2DF52DE2E2E2E2E2E2E2E2E2E2E2E2E2E2E2E2E2E2E2E2E2E2E2E2F5E22DE2E2E2E2E2E2E2E2E2E2E2E2F5E2E2E2E2
310
E2E2E2E2E2E2E2E2F5E22DE2E2E2E2E2E2E2E2E2E2E2E2E2E2E2E2E2E2E2E2E2E2E2E2E2E2E2E2E2E2E2E2E2E2E2E2E2E2DCBEE2E2E2E2E2E2E2E2E2E2E2E2E2E2E2E2E2E2E2E2E2E2E2E2E2E2E2E2E2E2E2E2E2E2E2E2E2E2E2E2E2E2E2E2E2E2E2E2E2E2E2E2E2E2E2E2E2E2E2E2E2E2E2E2E2E2E2E2E2E2E2E2E2E2E2E2
310
E2E2E2E2E2E2E2E2E2E2E2E2E2E2E2E2E2E2E2E2E2E2E2E2E2E2E2E2E2E2E2E2E2E2E2E2E2E2E2E2E2E2E2E2E2E2E2E2E2E2E2E2E2E2E2E2E2E2E2E2E2E2E2E2BEE2DCE2E2E2E2E2E2E2E2E2E22DE22DF5E22D2DBEBEE2E2E2E2E2E2E2BEBEBEBEBEE2E2E2E2E2E2E2E2E2E2E2F5E22DE2E2E2E2E2E2E2E2E2E2E2E2F5E2E2
310
E2E2E2E2E2E2E2E2E2E2F5E22DE2E2E2E2E2E2E2E2E2E2E2E2E2E2E2E2E2E2E2E2E2E2E2E2E2E2E2E2E2E2E2E2E2E2E2E2E2E2DCBEE2E2E2E2E2E2E2E2E2E2E2E2E2E2E2E2E2E2E2E2E2E2E2E2E2E2E2E2E2E2E2E2E2E2E2E2E2E2E2E2E2E2E2E2E2E2E2E2E2E2E2E2E2E2E2E2E2E2E2E2E2E2E2E2E2E2E2E2E2E2E2E2E2E2
310
E2E2E2E2E2E2E2E2E2E2E2E2E2E2E2E2E2E2E2E2E2E2E2E2E2E2E2E2E2E2E2E2E2E2E2E2E2E2E2E2E2E2E2E2E2E2E2E2E2E2E2E2E2E2E2E2E2E2E2E2E2E2E2E2E2E2BEE2DCE2E2E2E2E2E2E2E2E2E22DE22DF5E2F5F52DF5E2E2E2E2E2E2E2BEBEBEBEBEE2E2E2E2E2E2E2E2282828F5E22DE2E2E2E2E2E2E2E2E2E2E2E2F5
310
E2E2E2E2E2E2E2E2E2E2E2E2F5E22DE2E2E2E2E2E2E2E2E2E2E2E2E2E2E2E2E2E2E2E2E2E2E2E2E2E2E2E2E2E2E2E2E2E2E2E2E2E2DCBEE2E2E2E2E2E2E2E2E2E2E2E2E2E2E2E2E2E2E2E2E2E2E2E2E2E2E2E2E2E2E2E2E2E2E2E2E2E2E2E2E2E2E2E2E2E2E2E2E2E2E2E2E2E2E2E2E2E2E2E2E2E2E2E2E2E2E2E2E2E2E2E2
310
E2E2E2E2E2E2E2E2E2E2E2E2E2E2E2E2E2E2E2E2E2E2E2E2E2E2E2E2E2E2E2E2E2E2E2E2E2E2E2E2E2E2E2E2E2E2E2E2E2E2E2E2E2E2E2E2E2E2E2E2E2E2E2E2E2E2E2E2BEE2DCE2E2E2E2E2E2E2E2E2E22DE22DF5E22828BEBEE2E2E2E2E2E2E2E22828E2E2E2E2E2E2E2E2E2E2282828F5E22DE2E2E2E2E2E2E2E2E2E2E2
310
E2F5E2E2E2E2E2E2E2E2E2E2E2E2F5E22DE2E2E2E2E2E2E2E2E2E2E2E2E2E2E2E2E2E2E2E2E2E2E2E2E2E2E2E2E2E2E2E2E2E2E2E2E2E2DCBEE2E2E2E2E2E2E2E2E2E2E2E2E2E2E2E2E2E2E2E2E2E2E2E2E2E2E2E2E2E2E2E2E2E2E2E2E2E2E2E2E2E2E2E2E2E2E2E2E2E2E2E2E2E2E2E2E2E2E2E2E2E2E2E2E2E2E2E2E2E2
310
E2E2E2E2E2E2E2E2E2E2E2E2E2E2E2E2E2E2E2E2E2E2E2E2E2E2E2E2E2E2E2E2E2E2E2E2E2E2E2E2E2E2E2E2E2E2E2E2E2E2E2E2E2E2E2E2E2E2E2E2E2E2E2E2E2E2E2E2E2E2BEE2DCE2E2E2E2E2E2E2E2E2E22D2D2D2D2DF5F52D2DE2E2E2E2E2E2E2E2E2E2E2E2E2E2E2E2E2E2E2E2E2F5E2F5E22DE2E2E2E2E2E2E2E2E2
310
E2E2E2F5E2E2E2E2E2E2E2E2E2E2E2E2F5E22DE2E2E2E2E2E2E2E2E2E2E2E2E2E2E2E2E2E2E2E2E2E2E2E2E2E2E2E2E2E2E2E2E2E2E2E2E2E2DCBEE2E2E2E2E2E2E2E2E2E2E2E2E2E2E2E2E2E2E2E2E2E2E2E2E2E2E2E2E2E2E2E2E2E2E2E2E2E2E2E2E2E2E2E2E2E2E2E2E2E2E2E2E2E2E2E2E2E2E2E2E2E2E2E2E2E2E2E2
310
E2E2E2E2E2E2E2E2E2E2E2E2E2E2E2E2E2E2E2E2E2E2E2E2E2E2E2E2E2E2E2E2E2E2E2E2E2E2E2E2E2E2E2E2E2E2E2E2E2E2E2E2E2E2E2E2E2E2E2E2E2E2E2E2E2E2E2E2E2E2E2E2BEE2DCE2E2E2E2E2E2E2E2E2E22DBE2DF5E22DE2E22DE2E2E2E2E2E2E2E2E2BEE2E2E2E2E2E2E2E2E2E2E22DE2F5E22DE2E2E2E2E2E2E2
310
E2E2E2E2E2F5E2E2BEE2E2E2E2E2E2E2E2E2F5E22DE2E2E2E2E2E2E2E2E2E2E2E2E2E2E2E2E2E2E2E2E2E2E2E2E2E2E2E2E2E2E2E2E2E2E2E2E2E2DCBEE2E2E2E2E2E2E2E2E2E2E2E2E2E2E2E2E2E2E2E2E2E2E2E2E2E2E2E2E2E2E2E2E2E2E2E2E2E2E2E2E2E2E2E2E2E2E2E2E2E2E2E2E2E2E2E2E2E2E2E2E2E2E2E2E2E2
310
E2E2E2E2E2E2E2E2E2E2E2E2E2E2E2E2E2E2E2E2E2E2E2E2E2E2E2E2E2E2E2E2E2E2E2E2E2E2E2E2E2E2E2E2E2E2E2E2E2E2E2E2E2E2E2E2E2E2E2E2E2E2E2E2E2E2E2E2E2E2E2E2E2E2BEE2DCE2E2E2E2E2E2E2E2E2E22DBE2DF5F52DF5F5F5F5F5F5F5F5F5F5F5F5BEF5F5F5F5F5F5F5F5F5F5F52DF5F52DF52DE2E2E2E2
310
E2E2E2E2E2E2E2F5F5F5BEF5F5F5F5F5F5F5F5F5F52DF5E2E2E2E2E2E2E2E2E2E2E2E2E2E2E2E2E2E2E2E2E2E2E2E2E2E2E2E2E2E2E2E2E2E2E2E2E2E2DCBEE2E2E2E2E2E2E2E2E2E2E2E2E2E2E2E2E2E2E2E2E2E2E2E2E2E2E2E2E2E2E2E2E2E2E2E2E2E2E2E2E2E2E2E2E2E2E2E2E2E2E2E2E2E2E2E2E2E2E2E2E2E2E2E2
310
E2E2E2E2E2E2E2E2E2E2E2E2E2E2E2E2E2E2E2E2E2E2E2E2E2E2E2E2E2E2E2E2E2E2E2E2E2E2E2E2E2E2E2E2E2E2E2E2E2E2E2E2E2E2E2E2E2E2E2E2E2E2E2E2E2E2E2E2E2E2E2E2E2E2E2E2BEE2DCE2E2E2E2E2E2E2E2E2E2E2E2E2BEBE2D2D2D2D2D2D2D2D2D2D2D2DBEBE2D2D2D2D2D2D2D2D2D2D2DBEBEF5E2E2E2E2E2
310
E2E2E2E2E2E2E2E2E22D2D2D2D2D2DBEBE2D2D2D2D2DF5E2E2E2E2E2E2E2E2E2E2E2E2E2E2E2E2E2E2E2E2E2E2E2E2E2E2E2E2E2E2E2E2E2E2E2E2E2E2E2E2DCBEE2E2E2E2E2E2E2E2E2E2E2E2E2E2E2E2E2E2E2E2E2E2E2E2E2E2E2E2E2E2E2E2E2E2E2E2E2E2E2E2E2E2E2E2E2E2E2E2E2E2E2E2E2E2E2E2E2E2E2E2E2E2
310
E2E2E2E2E2E2E2E2E2E2E2E2E2E2E2E2E2E2E2E2E2E2E2E2E2E2E2E2E2E2E2E2E2E2E2E2E2E2E2E2E2E2E2E2E2E2E2E2E2E2E2E2E2E2E2E2E2E2E2E2E2E2E2E2E2E2E2E2E2E2E2E2E2E2E2E2E2E2BEE2DCE2E2E2E2E2E2E2E2E2E2E2E2E2BEBEBEE2E2E2E2E2E2E2E2E2E2E2BEBEE2E2E2E2E2E2E2E2E2E2E2BEBEBEE2E2E2
310
E2E2E2E2E2E2E2E2E2E2E2E2E2E2E2E2E2BEBEE2E2E2E2E2E2E2E2E2E2E2E2E2E2E2E2E2E2E2E2E2E2E2E2E2E2E2E2E2E2E2E2E2E2E2E2E2E2E2E2E2E2E2E2E2E2DCBEE2E2E2E2E2E2E2E2E2E2E2E2E2E2E2E2E2E2E2E2E2E2E2E2E2E2E2E2E2E2E2E2E2E2E2E2E2E2E2E2E2E2E2E2E2E2E2E2E2E2E2E2E2E2E2E2E2E2E2E2
310
E2E2E2E2E2E2E2E2E2E2E2E2E2E2E2E2E2E2E2E2E2E2E2E2E2E2E2E2E2E2E2E2E2E2E2E2E2E2E2E2E2E2E2E2E2E2E2E2E2E2E2E2E2E2E2E2E2E2E2E2E2E2E2E2E2E2E2E2E2E2E2E2E2E2E2E2E2E2E2E2BEE2DCE2E2E2E2E2E2E2E2E2E2E2E2E22D2D2D2D2D2D2D2D2D2D2D2D2D2DBEBEBE2D2D2D2D2D2D2D2D2D2D2D2DF5E2
310
E2E2E2E2E2E2E2E2E2E2E2E2E2E2E2E2E2E2E2E2E2E2E2E2E2E2E2E2E2E2E2E2E2E2E2E2E2E2E2E2E2E2E2E2E2E2E2E2E2E2E2E2E2E2E2E2E2E2E2E2E2E2E2E2E2E2E2DCBEE2E2E2E2E2E2E2E2E2E2E2E2E2E2E2E2E2E2E2E2E2E2E2E2E2E2E2E2E2E2E2E2E2E2E2E2E2E2E2E2E2E2E2E2E2E2E2E2E2E2E2E2E2E2E2E2E2E2
310
E2E2E2E2E2E2E2E2E2E2E2E2E2E2E2E2E2E2E2E2E2E2E2E2E2E2E2E2E2E2E2E2E2E2E2E2E2E2E2E2E2E2E2E2E2E2E2E2E2E2E2E2E2E2E2E2E2E2E2E2E2E2E2E2E2E2E2E2E2E2E2E2E2E2E2E2E2E2E2E2E2E2BEE2DCE2E2E2E2E2E2E2E2E2E2E2E2E2E2E2E2E2E2E2E2E2E2E2E2E2E2E2E2E2E2E2E2E2E2E2E2E2E2E2E2E2E2
310
E2E2E2E2E2E2E2E2E2E2E2E2E2E2E2E2E2E2E2E2E2E2E2E2E2E2E2E2E2E2E2E2E2E2E2E2E2E2E2E2E2E2E2E2E2E2E2E2E2E2E2E2E2E2E2E2E2E2E2E2E2E2E2E2E2E2E2E2E2DCBEE2E2E2E2E2E2E2E2E2E2E2E2E2E2E2E2E2E2E2E2E2E2E2E2E2E2E2E2E2E2E2E2E2E2E2E2E2E2E2E2E2E2E2E2E2E2E2E2E2E2E2E2E2E2E2E2
310
E2E2E2E2E2E2E2E2E2E2E2E2E2E2E2E2E2E2E2E2E2E2E2E2E2E2E2E2E2E2E2E2E2E2E2E2E2E2E2E2E2E2E2E2E2E2E2E2E2E2E2E2E2E2E2E2E2E2E2E2E2E2E2E2E2E2E2E2E2E2E2E2E2E2E2E2E2E2E2E2E2E2E2E2BEE2DCE2E2E2E2E2E2E2E2E2E2E2E2E2E2E2E2E2E2E2E2E2E2E2E2E2E2E2E2E2E2E2E2E2E2E2E2E2E2E2E2
310
E2E2E2E2E2E2E2E2E2E2E2E2E2E2E2E2E2E2E2E2E2E2E2E2E2E2E2E2E2E2E2E2E2E2E2E2E2E2E2E2E2E2E2E2E2E2E2E2E2E2E2E2E2E2E2E2E2E2E2E2E2E2E2E2E2E2E2E2E2E2E2DCBEE2E2E2E2E2E2E2E2E2E2E2E2E2E2E2E2E2E2E2E2E2E2E2E2E2E2E2E2E2E2E2E2E2E2E2E2E2E2E2E2E2E2E2E2E2E2E2E2E2E2E2E2E2E2
310
E2E2E2E2E2E2E2E2E2E2E2E2E2E2E2E2E2E2E2E2E2E2E2E2E2E2E2E2E2E2E2E2E2E2E2E2E2E2E2E2E2E2E2E2E2E2E2E2E2E2E2E2E2E2E2E2E2E2E2E2E2E2E2E2E2E2E2E2E2E2E2E2E2E2E2E2E2E2E2E2E2E2E2E2E2E2BEE2DCE2E2E2E2E2E2E2E2E2E2E2E2E2E2E2E2E2E2E2E2E2E2E2E2E2E2E2E2E2E2E2E2E2E2E2E2E2E2
310
E2E2E2E2E2E2E2E2E2E2E2E2E2E2E2E2E2E2E2E2E2E2E2E2E2E2E2E2E2E2E2E2E2E2E2E2E2E2E2E2E2E2E2E2E2E2E2E2E2E2E2E2E2E2E2E2E2E2E2E2E2E2E2E2E2E2E2E2E2E2E2E2E2DCBEE2E2E2E2E2E2E2E2E2E2E2E2E2E2E2E2E2E2E2E2E2E2E2E2E2E2E2E2E2E2E2E2E2E2E2E2E2E2E2E2E2E2E2E2E2E2E2E2E2E2E2E2
310
E2E2E2E2E2E2E2E2E2E2E2E2E2E2E2E2E2E2E2E2E2E2E2E2E2E2E2E2E2E2E2E2E2E2E2E2E2E2E2E2E2E2E2E2E2E2E2E2E2E2E2E2E2E2E2E2E2E2E2E2E2E2E2E2E2E2E2E2E2E2E2E2E2E2E2E2E2E2E2E2E2E2E2E2E2E2E2E2BEE2DCE2E2E2E2E2E2E2E2E2E2E2E2E2E2E2E2E2E2E2E2E2E2E2E2E2E2E2E2E2E2E2E2E2E2E2E2
310
E2E2E2E2E2E2E2E2E2E2E2E2E2E2E2E2E2E2E2E2E2E2E2E2E2E2E2E2E2E2E2E2E2E2E2E2E2E2E2E2E2E2E2E2E2E2E2E2E2E2E2E2E2E2E2E2E2E2E2E2E2E2E2E2E2E2E2E2E2E2E2E2E2E2E2DCBEE2E2E2E2E2E2E2E2E2E2E2E2E2E2E2E2E2E2E2E2E2E2E2E2E2E2E2E2E2E2E2E2E2E2E2E2E2E2E2E2E2E2E2E2E2E2E2E2E2E2
310
E2E2E2E2E2E2E2E2E2E2E2E2E2E2E2E2E2E2E2E2E2E2E2E2E2E2E2E2E2E2E2E2E2E2E2E2E2E2E2E2E2E2E2E2E2E2E2E2E2E2E2E2E2E2E2E2E2E2E2E2E2E2E2E2E2E2E2E2E2E2E2E2E2E2E2E2E2E2E2E2E2E2E2E2E2E2E2E2E2E2BEE2DCE2E2E2E2E2E2E2E2E2E2E2E2E2E2E2E2E2E2E2E2E2E2E2E2E2E2E2E2E2E2E2E2E2E2
310
E2E2E2E2E2E2E2E2E2E2E2E2E2E2E2E2E2E2E2E2E2E2E2E2E2E2E2E2E2E2E2E2E2E2E2E2E2E2E2E2E2E2E2E2E2E2E2E2E2E2E2E2E2E2E2E2E2E2E2E2E2E2E2E2E2E2E2E2E2E2E2E2E2E2E2E2E2DCBEE2E2E2E2E2E2E2E2E2E2E2E2E2E2E2E2E2E2E2E2E2E2E2E2E2E2E2E2E2E2E2E2E2E2E2E2E2E2E2E2E2E2E2E2E2E2E2E2
310
E2E2E2E2E2E2E2E2E2E2E2E2E2E2E2E2E2E2E2E2E2E2E2E2E2E2E2E2E2E2E2E2E2E2E2E2E2E2E2E2E2E2E2E2E2E2E2E2E2E2E2E2E2E2E2E2E2E2E2E2E2E2E2E2E2E2E2E2E2E2E2E2E2E2E2E2E2E2E2E2E2E2E2E2E2E2E2E2E2E2E2E2BEE2DCE2E2E2E2E2E2E2E2E2E2E2E2E2E2E2E2E2E2E2E2E2E2E2E2E2E2E2E2E2E2E2E2
310
E2E2E2E2E2E2E2E2E2E2E2E2E2E2E2E2E2E2E2E2E2E2E2E2E2E2E2E2E2E2E2E2E2E2E2E2E2E2E2E2E2E2E2E2E2E2E2E2E2E2E2E2E2E2E2E2E2E2E2E2E2E2E2E2E2E2E2E2E2E2E2E2E2E2E2E2E2E2E2DCBEE2E2E2E2E2E2E2E2E2E2E2E2E2E2E2E2E2E2E2E2E2E2E2E2E2E2E2E2E2E2E2E2E2E2E2E2E2E2E2E2E2E2E2E2E2E2
310
E2E2E2E2E2E2E2E2E2E2E2E2E2E2E2E2E2E2E2E2E2E2E2E2E2E2E2E2E2E2E2E2E2E2E2E2E2E2E2E2E2E2E2E2E2E2E2E2E2E2E2E2E2E2E2E2E2E2E2E2E2E2E2E2E2E2E2E2E2E2E2E2E2E2E2E2E2E2E2E2E2E2E2E2E2E2E2E2E2E2E2E2E2E2BEE2DCDCDCDCDCDCDCDCDCDCDCDCDCDCDCDCDCDCDCDCDCDCDCDCDCDCDCDCDCDCDC
310
DCDCDCDCDCDCDCDCDCDCDCDCDCDCDCDCDCDCDCDCDCDCDCDCDCDCDCDCDCDCDCDCDCDCDCDCDCDCDCDCDCDCDCDCDCDCDCDCDCDCDCDCDCDCDCDCDCDCDCDCDCDCDCDCDCDCDCDCDCDCDCDCDCDCDCDCDCDCDCDCDCDCBEE2E2E2E2E2E2E2E2E2E2E2E2E2E2E2E2E2E2E2E2E2E2E2E2E2E2E2E2E2E2E2E2E2E2E2E2E2E2E2E2E2E2E2E2
310
E2E2E2E2E2E2E2E2E2E2E2E2E2E2E2E2E2E2E2E2E2E2E2E2E2E2E2E2E2E2E2E2E2E2E2E2E2E2E2E2E2E2E2E2E2E2E2E2E2E2E2E2E2E2E2E2E2E2E2E2E2E2E2E2E2E2E2E2E2E2E2E2E2E2E2E2E2E2E2E2E2E2E2E2E2E2E2E2E2E2E2E2E2E2E2E2BEE2E2E2E2E2E2E2E2E2E2E2E2E2E2E2E2E2E2E2E2E2E2E2E2E2E2E2E2E2E2
310
E2E2E2E2E2E2E2E2E2E2E2E2E2E2E2E2E2E2E2E2E2E2E2E2E2E2E2E2E2E2E2E2E2E2E2E2E2E2E2E2E2E2E2E2E2E2E2E2E2E2E2E2E2E2E2E2E2E2E2E2E2E2E2E2E2E2E2E2E2E2E2E2E2E2E2E2E2E2E2E2E2E2E2E2BEE2E2E2E2E2E2E2E2E2E2E2E2E2E2E2E2E2E2E2E2E2E2E2E2E2E2E2E2E2E2E2E2E2E2E2E2E2E2E2E2E2E2
310
E2E2E2E2E2E2E2E2E2E2E2E2E2E2E2E2E2E2E2E2E2E2E2E2E2E2E2E2E2E2E2E2E2E2E2E2E2E2E2E2E2E2E2E2E2E2E2E2E2E2E2E2E2E2E2E2E2E2E2E2E2E2E2E2E2E2E2E2E2E2E2E2E2E2E2E2E2E2E2E2E2E2E2E2E2E2E2E2E2E2E2E2E2E2E2E2E2E2BEBEBEBEBEBEBEBEBEBEBEBEBEBEBEBEBEBEBEBEBEBEBEBEBEBEBEBEBE
310
BEBEBEBEBEBEBEBEBEBEBEBEBEBEBEBEBEBEBEBEBEBEBEBEBEBEBEBEBEBEBEBEBEBEBEBEBEBEBEBEBEBEBEBEBEBEBEBEBEBEBEBEBEBEBEBEBEBEBEBEBEBEBEBEBEBEBEBEBEBEBEBEBEBEBEBEBEBEBEBEBEBEBEBEBEBEBEE2E2E2E2E2E2E2E2E2E2E2E2E2E2E2E2E2E2E2E2E2E2E2E2E2E2E2E2E2E2E2E2E2E2E2E2E2E2E2E2
310
E2E2E2E2E2E2E2E2E2E2E2E2E2E2E2E2E2E2E2E2E2E2E2E2E2E2E2E2E2E2E2E2E2E2E2E2E2E2E2E2E2E2E2E2E2E2E2E2E2E2E2E2E2E2E2E2E2E2E2E2E2E2E2E2E2E2E2E2E2E2E2E2E2E2E2E2E2E2E2E2E2E2E2E2E2E2E2E2E2E2E2E2E2E2E2E2E2E2E2E2E2E2E2E2E2E2E2E2E2E2E2E2E2E2E2E2E2E2E2E2E2E2E2E2E2E2E2
310
E2E2E2E2E2E2E2E2E2E2E2E2E2E2E2E2E2E2E2E2E2E2E2E2E2E2E2E2E2E2E2E2E2E2E2E2E2E2E2E2E2E2E2E2E2E2E2E2E2E2E2E2E2E2E2E2E2E2E2E2E2E2E2E2E2E2E2E2E2E2E2E2E2E2E2E2E2E2E2E2E2E2E2E2E2E2E2E2E2E2E2E2E2E2E2E2E2E2E2E2E2E2E2E2E2E2E2E2E2E2E2E2E2E2E2E2E2E2E2E2E2E2E2E2E2E2E2
310
E2E2E2E2E2E2E2E2E2E2E2E2E2E2E2E2E2E2E2E2E2E2E2E2E2E2E2E2E2E2E2E2E2E2E2E2E2E2E2E2E2E2E2E2E2E2E2E2E2E2E2E2E2E2E2E2E2E2E2E2E2E2E2E2E2E2E2E2E2E2E2E2E2E2E2E2E2E2E2E2E2E2E2E2E2E2E2E2E2E2E2E2E2E2E2E2E2E2E2E2E2E2E2E2E2E2E2E2E2E2E2E2E2E2E2E2E2E2E2E2E2E2E2E2E2E2E2
310
E2E2E2E2E2E2E2E2E2E2E2E2E2E2E2E2E2E2E2E2E2E2E2E2E2E2E2E2E2E2E2E2E2E2E2E2E2E2E2E2E2E2E2E2E2E2E2E2E2E2E2E2E2E2E2E2E2E2E2E2E2E2E2E2E2E2E2E2E2E2E2E2E2E2E2E2E2E2E2E2E2E2E2E2E2E2E2E2E2E2E2E2E2E2E2E2E2E2E2E2E2E2E2E2E2E2E2E2E2E2E2E2E2E2E2E2E2E2E2E2E2E2E2E2E2E2E2
310
E2E2E2E2E2E2E2E2E2E2E2E2E2E2E2E2E2E2E2E2E2E2E2E2E2E2E2E2E2E2E2E2E2E2E2E2E2E2E2E2E2E2E2E2E2E2E2E2E2E2E2E2E2E2E2E2E2E2E2E2E2E2E2E2E2E2E2E2E2E2E2E2E2E2E2E2E2E2E2E2E2E2E2E2E2E2E2E2E2E2E2E2E2E2E2E2E2E2E2E2E2E2E2E2E2E2E2E2E2E2E2E2E2E2E2E2E2E2E2E2E2E2E2E2E2E2E2
310
E2E2E2E2E2E2E2E2E2E2E2E2E2E2E2E2E2E2E2E2E2E2E2E2E2E2E2E2E2E2E2E2E2E2E2E2E2E2E2E2E2E2E2E2E2E2E2E2E2E2E2E2E2E2E2E2E2E2E2E2E2E2E2E2E2E2E2E2E2E2E2E2E2E2E2E2E2E2E2E2E2E2E2E2E2E2E2E2E2E2E2E2E2E2E2E2E2E2E2E2E2E2E2E2E2E2E2E2E2E2E2E2E2E2E2E2E2E2E2E2E2E2E2E2E2E2E2
310
E2E2E2E2E2E2E2E2E2E2E2E2E2E2E2E2E2E2E2E2E2E2E2E2E2E2E2E2E2E2E2E2E2E2E2E2E2E2E2E2E2E2E2E2E2E2E2E2E2E2E2E2E2E2E2E2E2E2E2E2E2E2E2E2E2E2E2E2E2E2E2E2E2E2E2E2E2E2E2E2E2E2E2E2E2E2E2E2E2E2E2E2E2E2E2E2E2E2E2E2E2E2E2E2E2E2E2E2E2E2E2E2E2E2E2E2E2E2E2E2E2E2E2E2E2E2E2
310
E2E2E2E2E2E2E2E2E2E2E2E2E2E2E2E2E2E2E2E2E2E2E2E2E2E2E2E2E2E2E2E2E2E2E2E2E2E2E2E2E2E2E2E2E2E2E2E2E2E2E2E2E2E2E2E2E2E2E2E2E2E2E2E2E2E2E2E2E2E2E2E2E2E2E2E2E2E2E2E2E2E2E2E2E2E2E2E2E2E2E2E2E2E2E2E2E2E2E2E2E2E2E2E2E2E2E2E2E2E2E2E2E2E2E2E2E2E2E2E2E2E2E2E2E2E2E2
310
E2E2E2E2E2E2E2E2E2E2E2E2E2E2E2E2E2E2E2E2E2E2E2E2E2E2E2E2E2E2E2E2E2E2E2E2E2E2E2E2E2E2E2E2E2E2E2E2E2E2E2E2E2E2E2E2E2E2E2E2E2E2E2E2E2E2E2E2E2E2E2E2E2E2E2E2E2E2E2E2E2E2E2E2E2E2E2E2E2E2E2E2E2E2E2E2E2E2E2E2E2E2E2E2E2E2E2E2E2E2E2E2E2E2E2E2E2E2E2E2E2E2E2E2E2E2E2
310
E2E2E2E2E2E2E2E2E2E2E2E2E2E2E2E2E2E2E2E2E2E2E2E2E2E2E2E2E2E2E2E2E2E2E2E2E2E2E2E2E2E2E2E2E2E2E2E2E2E2E2E2E2E2E2E2E2E2E2E2E2E2E2E2E2E2E2E2E2E2E2E2E2E2E2E2E2E2E2E2E2E2E2E2E2E2E2E2E2E2E2E2E2E2E2E2E2E2E2E2E2E2E2E2E2E2E2E2E2E2E2E2E2E2E2E2E2E2E2E2E2E2E2E2E2E2E2
310
E2E2E2E2E2E2E2E2E2E2E2E2E2E2E2E2E2E2E2E2E2E2E2E2E2E2E2E2E2E2E2E2E2E2E2E2E2E2E2E2E2E2E2E2E2E2E2E2E2E2E2E2E2E2E2E2E2E2E2E2E2E2E2E2E2E2E2E2E2E2E2E2E2E2E2E2E2E2E2E2E2E2E2E2E2E2E2E2E2E2E2E2E2E2E2E2E2E2E2E2E2E2E2E2E2E2E2E2E2E2E2E2E2E2E2E2E2E2E2E2E2E2E2E2E2E2E2
310
E2E2E2E2E2E2E2E2E2E2E2E2E2E2E2E2E2E2E2E2E2E2E2E2E2E2E2E2E2E2E2E2E2E2E2E2E2E2E2E2E2E2E2E2E2E2E2E2E2E2E2E2E2E2E2E2E2E2E2E2E2E2E2E2E2E2E2E2E2E2E2E2E2E2E2E2E2E2E2E2E2E2E2E2E2E2E2E2E2E2E2E2E2E2E2E2E2E2E2E2E2E2E2E2E2E2E2E2E2E2E2E2E2E2E2E2E2E2E2E2E2E2E2E2E2E2E2
310
E2E2E2E2E2E2E2E2E2E2E2E2E2E2E2E2E2E2E2E2E2E2E2E2E2E2E2E2E2E2E2E2E2E2E2E2E2E2E2E2E2E2E2E2E2E2E2E2E2E2E2E2E2E2E2E2E2E2E2E2E2E2E2E2E2E2E2E2E2E2E2E2E2E2E2E2E2E2E2E2E2E2E2E2E2E2E2E2E2E2E2E2E2E2E2E2E2E2E2E2E2E2E2E2E2E2E2E2E2E2E2E2E2E2E2E2E2E2E2E2E2E2E2E2E2E2E2
310
E2E2E2E2E2E2E2E2E2E2E2E2E2E2E2E2E2E2E2E2E2E2E2E2E2E2E2E2E2E2E2E2E2E2E2E2E2E2E2E2E2E2E2E2E2E2E2E2E2E2E2E2E2E2E2E2E2E2E2E2E2E2E2E2E2E2E2E2E2E2E2E2E2E2E2E2E2E2E2E2E2E2E2E2E2E2E2E2E2E2E2E2E2E2E2E2E2E2E2E2E2E2E2E2E2E2E2E2E2E2E2E2E2E2E2E2E2E2E2E2E2E2E2E2E2E2E2
310
E2E2E2E2E2E2E2E2E2E2E2E2E2E2E2E2E2E2E2E2E2E2E2E2E2E2E2E2E2E2E2E2E2E2E2E2E2E2E2E2E2E2E2E2E2E2E2E2E2E2E2E2E2E2E2E2E2E2E2E2E2E2E2E2E2E2E2E2E2E2E2E2E2E2E2E2E2E2E2E2E2E2E2E2E2E2E2E2E2E2E2E2E2E2E2E2E2E2E2E2E2E2E2E2E2E2E2E2E2E2E2E2E2E2E2E2E2E2E2E2E2E2E2E2E2E2E2
310
E2E2E2E2E2E2E2E2E2E2E2E2E2E2E2E2E2E2E2E2E2E2E2E2E2E2E2E2E2E2E2E2E2E2E2E2E2E2E2E2E2E2E2E2E2E2E2E2E2E2E2E2E2E2E2E2E2E2E2E2E2E2E2E2E2E2E2E2E2E2E2E2E2E2E2E2E2E2E2E2E2E2E2E2E2E2E2E2E2E2E2E2E2E2E2E2E2E2E2E2E2E2E2E2E2E2E2E2E2E2E2E2E2E2E2E2E2E2E2E2E2E2E2E2E2E2E2
310
E2E2E2E2E2E2E2E2E2E2E2E2E2E2E2E2E2E2E2E2E2E2E2E2E2E2E2E2E2E2E2E2E2E2E2E2E2E2E2E2E2E2E2E2E2E2E2E2E2E2E2E2E2E2E2E2E2E2E2E2E2E2E2E2E2E2E2E2E2E2E2E2E2E2E2E2E2E2E2E2E2E2E2E2E2E2E2E2E2E2E2E2E2E2E2E2E2E2E2E2E2E2E2E2E2E2E2E2E2E2E2E2E2E2E2E2E2E2E2E2E2E2E2E2E2E2E2
310
E2E2E2E2E2E2E2E2E2E2E2E2E2E2E2E2E2E2E2E2E2E2E2E2E2E2E2E2E2E2E2E2E2E2E2E2E2E2E2E2E2E2E2E2E2E2E2E2E2E2E2E2E2E2E2E2E2E2E2E2E2E2E2E2E2E2E2E2E2E2E2E2E2E2E2E2E2E2E2E2E2E2E2E2E2E2E2E2E2E2E2E2E2E2E2E2E2E2E2E2E2E2E2E2E2E2E2E2E2E2E2E2E2E2E2E2E2E2E2E2E2E2E2E2E2E2E2
310
E2E2E2E2E2E2E2E2E2E2E2E2E2E2E2E2E2E2E2E2E2E2E2E2E2E2E2E2E2E2E2E2E2E2E2E2E2E2E2E2E2E2E2E2E2E2E2E2E2E2E2E2E2E2E2E2E2E2
  0
XRECORD
  5
46
102
{ACAD_REACTORS
330
45
102
}
330
45
100
AcDbXrecord
280
     1
270
     1
271
     1
  0
XRECORD
  5
47
102
{ACAD_REACTORS
330
45
102
}
330
45
100
AcDbXrecord
280
     1
270
     1
271
     1
  0
XRECORD
  5
48
102
{ACAD_REACTORS
330
45
102
}
330
45
100
AcDbXrecord
280
     1
270
     1
271
     1
  0
XRECORD
  5
49
102
{ACAD_REACTORS
330
45
102
}
330
45
100
AcDbXrecord
280
     1
270
     1
271
     1
  0
XRECORD
  5
4A
102
{ACAD_REACTORS
330
45
102
}
330
45
100
AcDbXrecord
280
     1
270
     1
271
     1
  0
XRECORD
  5
4B
102
{ACAD_REACTORS
330
45
102
}
330
45
100
AcDbXrecord
280
     1
270
     1
271
     1
  0
XRECORD
  5
3E
102
{ACAD_REACTORS
330
3D
102
}
330
3D
100
AcDbXrecord
280
     1
270
     1
271
     1
  0
XRECORD
  5
3F
102
{ACAD_REACTORS
330
3D
102
}
330
3D
100
AcDbXrecord
280
     1
270
     1
271
     1
  0
XRECORD
  5
40
102
{ACAD_REACTORS
330
3D
102
}
330
3D
100
AcDbXrecord
280
     1
270
     1
271
     1
  0
XRECORD
  5
41
102
{ACAD_REACTORS
330
3D
102
}
330
3D
100
AcDbXrecord
280
     1
270
     1
271
     1
  0
XRECORD
  5
42
102
{ACAD_REACTORS
330
3D
102
}
330
3D
100
AcDbXrecord
280
     1
270
     1
271
     1
  0
XRECORD
  5
43
102
{ACAD_REACTORS
330
3D
102
}
330
3D
100
AcDbXrecord
280
     1
270
     1
271
     1
  0
XRECORD
  5
F
102
{ACAD_REACTORS
330
E
102
}
330
E
100
AcDbXrecord
280
     1
270
     1
271
     1
  0
XRECORD
  5
10
102
{ACAD_REACTORS
330
E
102
}
330
E
100
AcDbXrecord
280
     1
270
     1
271
     1
  0
XRECORD
  5
11
102
{ACAD_REACTORS
330
E
102
}
330
E
100
AcDbXrecord
280
     1
270
     1
271
     1
  0
XRECORD
  5
12
102
{ACAD_REACTORS
330
E
102
}
330
E
100
AcDbXrecord
280
     1
270
     1
271
     1
  0
XRECORD
  5
13
102
{ACAD_REACTORS
330
E
102
}
330
E
100
AcDbXrecord
280
     1
270
     1
271
     1
  0
XRECORD
  5
14
102
{ACAD_REACTORS
330
E
102
}
330
E
100
AcDbXrecord
280
     1
270
     1
271
     1
  0
CELLSTYLEMAP
  5
428
102
{ACAD_REACTORS
330
55
102
}
330
55
100
AcDbCellStyleMap
 90
        3
300
CELLSTYLE
  1
TABLEFORMAT_BEGIN
 90
        5
170
     1
 91
        0
 92
    32768
 62
   257
 93
        1
300
CONTENTFORMAT
  1
CONTENTFORMAT_BEGIN
 90
        0
 91
        0
 92
      512
 93
        0
300

 40
0.0
140
1.0
 94
        5
 62
     0
340
26
144
6.0
309
CONTENTFORMAT_END
171
     1
301
MARGIN
  1
CELLMARGIN_BEGIN
 40
1.5
 40
1.5
 40
1.5
 40
1.5
 40
4.5
 40
4.5
309
CELLMARGIN_END
 94
        6
 95
        1
302
GRIDFORMAT
  1
GRIDFORMAT_BEGIN
 90
        0
 91
        1
 62
     0
 92
       -2
340
0
 93
        0
 40
1.125
309
GRIDFORMAT_END
 95
        2
302
GRIDFORMAT
  1
GRIDFORMAT_BEGIN
 90
        0
 91
        1
 62
     0
 92
       -2
340
0
 93
        0
 40
1.125
309
GRIDFORMAT_END
 95
        4
302
GRIDFORMAT
  1
GRIDFORMAT_BEGIN
 90
        0
 91
        1
 62
     0
 92
       -2
340
0
 93
        0
 40
1.125
309
GRIDFORMAT_END
 95
        8
302
GRIDFORMAT
  1
GRIDFORMAT_BEGIN
 90
        0
 91
        1
 62
     0
 92
       -2
340
0
 93
        0
 40
1.125
309
GRIDFORMAT_END
 95
       16
302
GRIDFORMAT
  1
GRIDFORMAT_BEGIN
 90
        0
 91
        1
 62
     0
 92
       -2
340
0
 93
        0
 40
1.125
309
GRIDFORMAT_END
 95
       32
302
GRIDFORMAT
  1
GRIDFORMAT_BEGIN
 90
        0
 91
        1
 62
     0
 92
       -2
340
0
 93
        0
 40
1.125
309
GRIDFORMAT_END
309
TABLEFORMAT_END
  1
CELLSTYLE_BEGIN
 90
        1
 91
        1
300
_TITLE
309
CELLSTYLE_END
300
CELLSTYLE
  1
TABLEFORMAT_BEGIN
 90
        5
170
     1
 91
        0
 92
        0
 62
   257
 93
        1
300
CONTENTFORMAT
  1
CONTENTFORMAT_BEGIN
 90
        0
 91
        0
 92
      512
 93
        0
300

 40
0.0
140
1.0
 94
        5
 62
     0
340
26
144
4.5
309
CONTENTFORMAT_END
171
     1
301
MARGIN
  1
CELLMARGIN_BEGIN
 40
1.5
 40
1.5
 40
1.5
 40
1.5
 40
4.5
 40
4.5
309
CELLMARGIN_END
 94
        6
 95
        1
302
GRIDFORMAT
  1
GRIDFORMAT_BEGIN
 90
        0
 91
        1
 62
     0
 92
       -2
340
0
 93
        0
 40
1.125
309
GRIDFORMAT_END
 95
        2
302
GRIDFORMAT
  1
GRIDFORMAT_BEGIN
 90
        0
 91
        1
 62
     0
 92
       -2
340
0
 93
        0
 40
1.125
309
GRIDFORMAT_END
 95
        4
302
GRIDFORMAT
  1
GRIDFORMAT_BEGIN
 90
        0
 91
        1
 62
     0
 92
       -2
340
0
 93
        0
 40
1.125
309
GRIDFORMAT_END
 95
        8
302
GRIDFORMAT
  1
GRIDFORMAT_BEGIN
 90
        0
 91
        1
 62
     0
 92
       -2
340
0
 93
        0
 40
1.125
309
GRIDFORMAT_END
 95
       16
302
GRIDFORMAT
  1
GRIDFORMAT_BEGIN
 90
        0
 91
        1
 62
     0
 92
       -2
340
0
 93
        0
 40
1.125
309
GRIDFORMAT_END
 95
       32
302
GRIDFORMAT
  1
GRIDFORMAT_BEGIN
 90
        0
 91
        1
 62
     0
 92
       -2
340
0
 93
        0
 40
1.125
309
GRIDFORMAT_END
309
TABLEFORMAT_END
  1
CELLSTYLE_BEGIN
 90
        2
 91
        1
300
_HEADER
309
CELLSTYLE_END
300
CELLSTYLE
  1
TABLEFORMAT_BEGIN
 90
        5
170
     1
 91
        0
 92
        0
 62
   257
 93
        1
300
CONTENTFORMAT
  1
CONTENTFORMAT_BEGIN
 90
        0
 91
        0
 92
      512
 93
        0
300

 40
0.0
140
1.0
 94
        2
 62
     0
340
26
144
4.5
309
CONTENTFORMAT_END
171
     1
301
MARGIN
  1
CELLMARGIN_BEGIN
 40
1.5
 40
1.5
 40
1.5
 40
1.5
 40
4.5
 40
4.5
309
CELLMARGIN_END
 94
        6
 95
        1
302
GRIDFORMAT
  1
GRIDFORMAT_BEGIN
 90
        0
 91
        1
 62
     0
 92
       -2
340
0
 93
        0
 40
1.125
309
GRIDFORMAT_END
 95
        2
302
GRIDFORMAT
  1
GRIDFORMAT_BEGIN
 90
        0
 91
        1
 62
     0
 92
       -2
340
0
 93
        0
 40
1.125
309
GRIDFORMAT_END
 95
        4
302
GRIDFORMAT
  1
GRIDFORMAT_BEGIN
 90
        0
 91
        1
 62
     0
 92
       -2
340
0
 93
        0
 40
1.125
309
GRIDFORMAT_END
 95
        8
302
GRIDFORMAT
  1
GRIDFORMAT_BEGIN
 90
        0
 91
        1
 62
     0
 92
       -2
340
0
 93
        0
 40
1.125
309
GRIDFORMAT_END
 95
       16
302
GRIDFORMAT
  1
GRIDFORMAT_BEGIN
 90
        0
 91
        1
 62
     0
 92
       -2
340
0
 93
        0
 40
1.125
309
GRIDFORMAT_END
 95
       32
302
GRIDFORMAT
  1
GRIDFORMAT_BEGIN
 90
        0
 91
        1
 62
     0
 92
       -2
340
0
 93
        0
 40
1.125
309
GRIDFORMAT_END
309
TABLEFORMAT_END
  1
CELLSTYLE_BEGIN
 90
        3
 91
        2
300
_DATA
309
CELLSTYLE_END
  0
ENDSEC
  0
EOF
