  0
SECTION
  2
HEADER
  9
$ACADVER
  1
AC1024
  9
$ACADMAINTVER
 70
     6
  9
$DWGCODEPAGE
  3
ANSI_1252
  9
$INSBASE
 10
0.0
 20
0.0
 30
0.0
  9
$EXTMIN
 10
-0.0583229613380354
 20
-0.0090003783873271
 30
-0.0000000000000153
  9
$EXTMAX
 10
841.0428429229055
 20
594.6845599894245
 30
0.0000000000000153
  9
$LIMMIN
 10
0.0
 20
0.0
  9
$LIMMAX
 10
594.0
 20
420.0
  9
$ORTHOMODE
 70
     1
  9
$REGENMODE
 70
     1
  9
$FILLMODE
 70
     1
  9
$QTEXTMODE
 70
     0
  9
$MIRRTEXT
 70
     1
  9
$LTSCALE
 40
6.0
  9
$ATTMODE
 70
     1
  9
$TEXTSIZE
 40
25.54961880561541
  9
$TRACEWID
 40
1.0
  9
$TEXTSTYLE
  7
Standard
  9
$CLAYER
  8
05-01
  9
$CELTYPE
  6
ByLayer
  9
$CECOLOR
 62
   256
  9
$CELTSCALE
 40
1.0
  9
$DISPSILH
 70
     0
  9
$DIMSCALE
 40
2.0
  9
$DIMASZ
 40
2.5
  9
$DIMEXO
 40
1.0
  9
$DIMDLI
 40
10.0
  9
$DIMRND
 40
0.0
  9
$DIMDLE
 40
0.0
  9
$DIMEXE
 40
1.0
  9
$DIMTP
 40
0.0
  9
$DIMTM
 40
0.0
  9
$DIMTXT
 40
2.5
  9
$DIMCEN
 40
0.0
  9
$DIMTSZ
 40
0.0
  9
$DIMTOL
 70
     0
  9
$DIMLIM
 70
     0
  9
$DIMTIH
 70
     0
  9
$DIMTOH
 70
     0
  9
$DIMSE1
 70
     0
  9
$DIMSE2
 70
     0
  9
$DIMTAD
 70
     1
  9
$DIMZIN
 70
     8
  9
$DIMBLK
  1

  9
$DIMASO
 70
     1
  9
$DIMSHO
 70
     1
  9
$DIMPOST
  1

  9
$DIMAPOST
  1

  9
$DIMALT
 70
     0
  9
$DIMALTD
 70
     3
  9
$DIMALTF
 40
0.03937007874016
  9
$DIMLFAC
 40
1.0
  9
$DIMTOFL
 70
     1
  9
$DIMTVP
 40
0.0
  9
$DIMTIX
 70
     0
  9
$DIMSOXD
 70
     0
  9
$DIMSAH
 70
     0
  9
$DIMBLK1
  1

  9
$DIMBLK2
  1

  9
$DIMSTYLE
  2
Wagner
  9
$DIMCLRD
 70
     4
  9
$DIMCLRE
 70
     4
  9
$DIMCLRT
 70
     1
  9
$DIMTFAC
 40
1.0
  9
$DIMGAP
 40
1.0
  9
$DIMJUST
 70
     0
  9
$DIMSD1
 70
     0
  9
$DIMSD2
 70
     0
  9
$DIMTOLJ
 70
     0
  9
$DIMTZIN
 70
     8
  9
$DIMALTZ
 70
     0
  9
$DIMALTTZ
 70
     0
  9
$DIMUPT
 70
     0
  9
$DIMDEC
 70
     8
  9
$DIMTDEC
 70
     8
  9
$DIMALTU
 70
     2
  9
$DIMALTTD
 70
     3
  9
$DIMTXSTY
  7
Standard
  9
$DIMAUNIT
 70
     0
  9
$DIMADEC
 70
     2
  9
$DIMALTRND
 40
0.0
  9
$DIMAZIN
 70
     2
  9
$DIMDSEP
 70
    46
  9
$DIMATFIT
 70
     3
  9
$DIMFRAC
 70
     0
  9
$DIMLDRBLK
  1

  9
$DIMLUNIT
 70
     2
  9
$DIMLWD
 70
    -2
  9
$DIMLWE
 70
    -2
  9
$DIMTMOVE
 70
     0
  9
$DIMFXL
 40
1.0
  9
$DIMFXLON
 70
     0
  9
$DIMJOGANG
 40
0.7853981633974483
  9
$DIMTFILL
 70
     0
  9
$DIMTFILLCLR
 70
     0
  9
$DIMARCSYM
 70
     0
  9
$DIMLTYPE
  6

  9
$DIMLTEX1
  6

  9
$DIMLTEX2
  6

  9
$DIMTXTDIRECTION
 70
     0
  9
$LUNITS
 70
     2
  9
$LUPREC
 70
     1
  9
$SKETCHINC
 40
1.0
  9
$FILLETRAD
 40
0.0
  9
$AUNITS
 70
     0
  9
$AUPREC
 70
     0
  9
$MENU
  1
.
  9
$ELEVATION
 40
0.0
  9
$PELEVATION
 40
0.0
  9
$THICKNESS
 40
0.0
  9
$LIMCHECK
 70
     0
  9
$CHAMFERA
 40
0.0
  9
$CHAMFERB
 40
0.0
  9
$CHAMFERC
 40
20.0
  9
$CHAMFERD
 40
0.0
  9
$SKPOLY
 70
     0
  9
$TDCREATE
 40
2453790.592446829
  9
$TDUCREATE
 40
2453790.509113495
  9
$TDUPDATE
 40
2456855.487322280
  9
$TDUUPDATE
 40
2456855.403988947
  9
$TDINDWG
 40
0.4092582755
  9
$TDUSRTIMER
 40
0.4092582755
  9
$USRTIMER
 70
     1
  9
$ANGBASE
 50
0.0
  9
$ANGDIR
 70
     0
  9
$PDMODE
 70
     0
  9
$PDSIZE
 40
-1.0
  9
$PLINEWID
 40
0.0
  9
$SPLFRAME
 70
     0
  9
$SPLINETYPE
 70
     6
  9
$SPLINESEGS
 70
     8
  9
$HANDSEED
  5
35E
  9
$SURFTAB1
 70
     6
  9
$SURFTAB2
 70
     6
  9
$SURFTYPE
 70
     6
  9
$SURFU
 70
     6
  9
$SURFV
 70
     6
  9
$UCSBASE
  2

  9
$UCSNAME
  2

  9
$UCSORG
 10
0.0
 20
0.0
 30
0.0
  9
$UCSXDIR
 10
1.0
 20
0.0
 30
0.0
  9
$UCSYDIR
 10
0.0
 20
1.0
 30
0.0
  9
$UCSORTHOREF
  2

  9
$UCSORTHOVIEW
 70
     0
  9
$UCSORGTOP
 10
0.0
 20
0.0
 30
0.0
  9
$UCSORGBOTTOM
 10
0.0
 20
0.0
 30
0.0
  9
$UCSORGLEFT
 10
0.0
 20
0.0
 30
0.0
  9
$UCSORGRIGHT
 10
0.0
 20
0.0
 30
0.0
  9
$UCSORGFRONT
 10
0.0
 20
0.0
 30
0.0
  9
$UCSORGBACK
 10
0.0
 20
0.0
 30
0.0
  9
$PUCSBASE
  2

  9
$PUCSNAME
  2

  9
$PUCSORG
 10
0.0
 20
0.0
 30
0.0
  9
$PUCSXDIR
 10
1.0
 20
0.0
 30
0.0
  9
$PUCSYDIR
 10
0.0
 20
1.0
 30
0.0
  9
$PUCSORTHOREF
  2

  9
$PUCSORTHOVIEW
 70
     0
  9
$PUCSORGTOP
 10
0.0
 20
0.0
 30
0.0
  9
$PUCSORGBOTTOM
 10
0.0
 20
0.0
 30
0.0
  9
$PUCSORGLEFT
 10
0.0
 20
0.0
 30
0.0
  9
$PUCSORGRIGHT
 10
0.0
 20
0.0
 30
0.0
  9
$PUCSORGFRONT
 10
0.0
 20
0.0
 30
0.0
  9
$PUCSORGBACK
 10
0.0
 20
0.0
 30
0.0
  9
$USERI1
 70
     0
  9
$USERI2
 70
     0
  9
$USERI3
 70
     0
  9
$USERI4
 70
     0
  9
$USERI5
 70
     0
  9
$USERR1
 40
0.0
  9
$USERR2
 40
0.0
  9
$USERR3
 40
0.0
  9
$USERR4
 40
0.0
  9
$USERR5
 40
0.0
  9
$WORLDVIEW
 70
     1
  9
$SHADEDGE
 70
     3
  9
$SHADEDIF
 70
    70
  9
$TILEMODE
 70
     1
  9
$MAXACTVP
 70
    64
  9
$PINSBASE
 10
0.0
 20
0.0
 30
0.0
  9
$PLIMCHECK
 70
     0
  9
$PEXTMIN
 10
1.000000000000000E+20
 20
1.000000000000000E+20
 30
1.000000000000000E+20
  9
$PEXTMAX
 10
-1.000000000000000E+20
 20
-1.000000000000000E+20
 30
-1.000000000000000E+20
  9
$PLIMMIN
 10
0.0
 20
0.0
  9
$PLIMMAX
 10
420.0
 20
297.0
  9
$UNITMODE
 70
     0
  9
$VISRETAIN
 70
     1
  9
$PLINEGEN
 70
     0
  9
$PSLTSCALE
 70
     1
  9
$TREEDEPTH
 70
  3020
  9
$CMLSTYLE
  2
Standard
  9
$CMLJUST
 70
     0
  9
$CMLSCALE
 40
20.0
  9
$PROXYGRAPHICS
 70
     1
  9
$MEASUREMENT
 70
     1
  9
$CELWEIGHT
370
    -1
  9
$ENDCAPS
280
     0
  9
$JOINSTYLE
280
     0
  9
$LWDISPLAY
290
     0
  9
$INSUNITS
 70
     4
  9
$HYPERLINKBASE
  1

  9
$STYLESHEET
  1

  9
$XEDIT
290
     1
  9
$CEPSNTYPE
380
     0
  9
$PSTYLEMODE
290
     1
  9
$FINGERPRINTGUID
  2
{9C0502B9-570B-4808-AFB4-362AC51A403E}
  9
$VERSIONGUID
  2
{C0B36CAE-85F6-43BF-ADED-5D2E0D52912B}
  9
$EXTNAMES
290
     1
  9
$PSVPSCALE
 40
0.0
  9
$OLESTARTUP
290
     0
  9
$SORTENTS
280
   127
  9
$INDEXCTL
280
     0
  9
$HIDETEXT
280
     1
  9
$XCLIPFRAME
280
     0
  9
$HALOGAP
280
     0
  9
$OBSCOLOR
 70
   257
  9
$OBSLTYPE
280
     0
  9
$INTERSECTIONDISPLAY
280
     0
  9
$INTERSECTIONCOLOR
 70
   257
  9
$DIMASSOC
280
     1
  9
$PROJECTNAME
  1

  9
$CAMERADISPLAY
290
     0
  9
$LENSLENGTH
 40
50.0
  9
$CAMERAHEIGHT
 40
0.0
  9
$STEPSPERSEC
 40
2.0
  9
$STEPSIZE
 40
6.0
  9
$3DDWFPREC
 40
2.0
  9
$PSOLWIDTH
 40
0.25
  9
$PSOLHEIGHT
 40
4.0
  9
$LOFTANG1
 40
1.570796326794896
  9
$LOFTANG2
 40
1.570796326794896
  9
$LOFTMAG1
 40
0.0
  9
$LOFTMAG2
 40
0.0
  9
$LOFTPARAM
 70
     7
  9
$LOFTNORMALS
280
     1
  9
$LATITUDE
 40
37.795
  9
$LONGITUDE
 40
-122.394
  9
$NORTHDIRECTION
 40
0.0
  9
$TIMEZONE
 70
 -8000
  9
$LIGHTGLYPHDISPLAY
280
     1
  9
$TILEMODELIGHTSYNCH
280
     1
  9
$CMATERIAL
347
3C
  9
$SOLIDHIST
280
     1
  9
$SHOWHIST
280
     1
  9
$DWFFRAME
280
     2
  9
$DGNFRAME
280
     0
  9
$REALWORLDSCALE
290
     1
  9
$INTERFERECOLOR
 62
     1
  9
$INTERFEREOBJVS
345
57
  9
$INTERFEREVPVS
346
58
  9
$CSHADOW
280
     0
  9
$SHADOWPLANELOCATION
 40
0.0
  0
ENDSEC
  0
SECTION
  2
CLASSES
  0
CLASS
  1
ACDBDICTIONARYWDFLT
  2
AcDbDictionaryWithDefault
  3
ObjectDBX Classes
 90
        0
 91
        1
280
     0
281
     0
  0
CLASS
  1
MATERIAL
  2
AcDbMaterial
  3
ObjectDBX Classes
 90
     1153
 91
        3
280
     0
281
     0
  0
CLASS
  1
VISUALSTYLE
  2
AcDbVisualStyle
  3
ObjectDBX Classes
 90
     4095
 91
        3
280
     0
281
     0
  0
CLASS
  1
TABLESTYLE
  2
AcDbTableStyle
  3
ObjectDBX Classes
 90
     4095
 91
        1
280
     0
281
     0
  0
CLASS
  1
SCALE
  2
AcDbScale
  3
ObjectDBX Classes
 90
     1153
 91
       33
280
     0
281
     0
  0
CLASS
  1
MLEADERSTYLE
  2
AcDbMLeaderStyle
  3
ACDB_MLEADERSTYLE_CLASS
 90
     4095
 91
        0
280
     0
281
     0
  0
CLASS
  1
SORTENTSTABLE
  2
AcDbSortentsTable
  3
ObjectDBX Classes
 90
        0
 91
        4
280
     0
281
     0
  0
CLASS
  1
CELLSTYLEMAP
  2
AcDbCellStyleMap
  3
ObjectDBX Classes
 90
     1152
 91
        1
280
     0
281
     0
  0
CLASS
  1
DICTIONARYVAR
  2
AcDbDictionaryVar
  3
ObjectDBX Classes
 90
        0
 91
        7
280
     0
281
     0
  0
CLASS
  1
SOLID_BACKGROUND
  2
AcDbSolidBackground
  3
SCENEOE
 90
     4095
 91
        0
280
     0
281
     0
  0
CLASS
  1
NPOCOLLECTION
  2
AcDbImpNonPersistentObjectsCollection
  3
ObjectDBX Classes
 90
     1153
 91
        0
280
     0
281
     0
  0
CLASS
  1
EXACXREFPANELOBJECT
  2
ExAcXREFPanelObject
  3
EXAC_ESW
 90
     1025
 91
        0
280
     1
281
     0
  0
CLASS
  1
DIMASSOC
  2
AcDbDimAssoc
  3
"AcDbDimAssoc|Product Desc:     AcDim ARX App For Dimension|Company:          Autodesk, Inc.|WEB Address:      www.autodesk.com"
 90
        0
 91
        0
280
     0
281
     0
  0
CLASS
  1
AEC_REFEDIT_STATUS_TRACKER
  2
AecDbRefEditStatusTracker
  3
AecArchBase60|Product Desc: Autodesk Architectural Desktop 2007 |Company: Autodesk,Inc. |WEB Address: www.autodesk.com
 90
      129
 91
        0
280
     0
281
     0
  0
CLASS
  1
IMAGE
  2
AcDbRasterImage
  3
ISM
 90
     2175
 91
        0
280
     0
281
     1
  0
CLASS
  1
IMAGEDEF_REACTOR
  2
AcDbRasterImageDefReactor
  3
ISM
 90
        1
 91
        0
280
     0
281
     0
  0
CLASS
  1
IMAGEDEF
  2
AcDbRasterImageDef
  3
ISM
 90
        0
 91
        0
280
     0
281
     0
  0
CLASS
  1
RASTERVARIABLES
  2
AcDbRasterVariables
  3
ISM
 90
        0
 91
        0
280
     0
281
     0
  0
ENDSEC
  0
SECTION
  2
TABLES
  0
TABLE
  2
VPORT
  5
2D
102
{ACAD_XDICTIONARY
360
31
102
}
330
0
100
AcDbSymbolTable
 70
     1
  0
VPORT
  5
2E
330
2D
100
AcDbSymbolTableRecord
100
AcDbViewportTableRecord
  2
*Active
 70
     0
 10
0.0
 20
0.0
 11
1.0
 21
1.0
 12
71.0857356366231
 22
166.9843764060012
 13
0.0
 23
0.0
 14
10.0
 24
10.0
 15
10.0
 25
10.0
 16
0.0
 26
0.0
 36
1.0
 17
148.5000047564428
 27
104.9999999999999
 37
-0.0000000000006951
 40
958.8196277262451
 41
1.980769230769231
 42
50.0
 43
0.0
 44
0.0
 50
0.0
 51
0.0
 71
     0
 72
  1000
 73
     1
 74
     0
 75
     0
 76
     0
 77
     0
 78
     0
281
     0
 65
     1
110
0.0
120
0.0
130
0.0
111
1.0
121
0.0
131
0.0
112
0.0
122
1.0
132
0.0
 79
     0
146
0.0
348
2F
 60
     3
 61
     5
292
     1
282
     1
141
0.0
142
0.0
 63
   250
421
  3355443
  0
ENDTAB
  0
TABLE
  2
LTYPE
  5
28
330
0
100
AcDbSymbolTable
 70
     4
  0
LTYPE
  5
29
330
28
100
AcDbSymbolTableRecord
100
AcDbLinetypeTableRecord
  2
ByBlock
 70
     0
  3

 72
    65
 73
     0
 40
0.0
  0
LTYPE
  5
2A
330
28
100
AcDbSymbolTableRecord
100
AcDbLinetypeTableRecord
  2
ByLayer
 70
     0
  3

 72
    65
 73
     0
 40
0.0
  0
LTYPE
  5
15
330
28
100
AcDbSymbolTableRecord
100
AcDbLinetypeTableRecord
  2
Continuous
 70
     0
  3
Solid line
 72
    65
 73
     0
 40
0.0
  0
LTYPE
  5
D0
330
28
100
AcDbSymbolTableRecord
100
AcDbLinetypeTableRecord
  2
AUSGEZOGEN
 70
     0
  3
Ausgezogene Linie
 72
    65
 73
     0
 40
0.0
  0
LTYPE
  5
53
330
28
100
AcDbSymbolTableRecord
100
AcDbLinetypeTableRecord
  2
STRICHPUNKT
 70
     0
  3
Strichpunkt __ . __ . __ . __ . __ . __ . __ . 
 72
    65
 73
     4
 40
1.0
 49
0.5
 74
     0
 49
-0.25
 74
     0
 49
0.0
 74
     0
 49
-0.25
 74
     0
  0
LTYPE
  5
185
330
28
100
AcDbSymbolTableRecord
100
AcDbLinetypeTableRecord
  2
VERDECKT
 70
     0
  3
Verdeckt __ __ __ __ __ __ __ __ __ __ __ __ __
 72
    65
 73
     2
 40
0.375
 49
0.25
 74
     0
 49
-0.125
 74
     0
  0
ENDTAB
  0
TABLE
  2
LAYER
  5
1F
102
{ACAD_XDICTIONARY
360
20
102
}
330
0
100
AcDbSymbolTable
 70
    10
  0
LAYER
  5
6
102
{ACAD_XDICTIONARY
360
7
102
}
330
1F
100
AcDbSymbolTableRecord
100
AcDbLayerTableRecord
  2
0
 70
     0
 62
     7
  6
Continuous
370
    -3
390
9
347
C
  0
LAYER
  5
11B
330
1F
100
AcDbSymbolTableRecord
100
AcDbLayerTableRecord
  2
Defpoints
 70
     0
 62
     7
  6
Continuous
290
     0
370
    -3
390
9
347
C
  0
LAYER
  5
8D
102
{ACAD_XDICTIONARY
360
8E
102
}
330
1F
100
AcDbSymbolTableRecord
100
AcDbLayerTableRecord
  2
01-99
 70
     0
 62
     2
  6
Continuous
370
    -3
390
9
347
C
  0
LAYER
  5
CD
102
{ACAD_XDICTIONARY
360
CE
102
}
330
1F
100
AcDbSymbolTableRecord
100
AcDbLayerTableRecord
  2
06-99
 70
     0
 62
     1
  6
AUSGEZOGEN
370
    -3
390
9
347
C
  0
LAYER
  5
B7
102
{ACAD_XDICTIONARY
360
B8
102
}
330
1F
100
AcDbSymbolTableRecord
100
AcDbLayerTableRecord
  2
08-99
 70
     0
 62
     7
  6
Continuous
370
    -3
390
9
347
C
  0
LAYER
  5
33C
102
{ACAD_XDICTIONARY
360
33D
102
}
330
1F
100
AcDbSymbolTableRecord
100
AcDbLayerTableRecord
  2
01-01
 70
     0
 62
     2
  6
Continuous
370
    -3
390
9
347
C
  0
LAYER
  5
7B
102
{ACAD_XDICTIONARY
360
7C
102
}
330
1F
100
AcDbSymbolTableRecord
100
AcDbLayerTableRecord
  2
09-01
 70
     0
 62
     7
  6
Continuous
370
    -3
390
9
347
C
  0
LAYER
  5
50
102
{ACAD_XDICTIONARY
360
51
102
}
330
1F
100
AcDbSymbolTableRecord
100
AcDbLayerTableRecord
  2
05-01
 70
     0
 62
     1
  6
STRICHPUNKT
370
    -3
390
9
347
C
  0
LAYER
  5
92
102
{ACAD_XDICTIONARY
360
93
102
}
330
1F
100
AcDbSymbolTableRecord
100
AcDbLayerTableRecord
  2
02-01
 70
     0
 62
     1
  6
Continuous
370
    -3
390
9
347
C
  0
LAYER
  5
182
102
{ACAD_XDICTIONARY
360
183
102
}
330
1F
100
AcDbSymbolTableRecord
100
AcDbLayerTableRecord
  2
03-01
 70
     0
 62
     3
  6
VERDECKT
370
    -3
390
9
347
C
  0
ENDTAB
  0
TABLE
  2
STYLE
  5
25
330
0
100
AcDbSymbolTable
 70
     3
  0
STYLE
  5
26
330
25
100
AcDbSymbolTableRecord
100
AcDbTextStyleTableRecord
  2
Standard
 70
     0
 40
0.0
 41
1.0
 50
0.0
 71
     0
 42
25.54961880561541
  3
txt
  4

  0
STYLE
  5
BA
330
25
100
AcDbSymbolTableRecord
100
AcDbTextStyleTableRecord
  2
ROMANS8
 70
     0
 40
0.0
 41
1.0
 50
0.0
 71
     0
 42
2.5
  3
ROMANS8
  4

  0
STYLE
  5
E1
330
25
100
AcDbSymbolTableRecord
100
AcDbTextStyleTableRecord
  2
ROMAND8
 70
     0
 40
0.0
 41
1.0
 50
0.0
 71
     0
 42
3.5
  3
ROMAND8
  4

  0
ENDTAB
  0
TABLE
  2
VIEW
  5
2B
330
0
100
AcDbSymbolTable
 70
     0
  0
ENDTAB
  0
TABLE
  2
UCS
  5
2C
330
0
100
AcDbSymbolTable
 70
     0
  0
ENDTAB
  0
TABLE
  2
APPID
  5
32
330
0
100
AcDbSymbolTable
 70
     4
  0
APPID
  5
24
330
32
100
AcDbSymbolTableRecord
100
AcDbRegAppTableRecord
  2
ACAD
 70
     0
  0
APPID
  5
35
330
32
100
AcDbSymbolTableRecord
100
AcDbRegAppTableRecord
  2
ACAD_DSTYLE_DIMJOGGED_JOGANGLE_SYMBOL
 70
     0
  0
APPID
  5
36
330
32
100
AcDbSymbolTableRecord
100
AcDbRegAppTableRecord
  2
ACAD_DSTYLE_DIMJAG
 70
     0
  0
APPID
  5
37
330
32
100
AcDbSymbolTableRecord
100
AcDbRegAppTableRecord
  2
ACAD_DSTYLE_DIMTALN
 70
     0
  0
ENDTAB
  0
TABLE
  2
DIMSTYLE
  5
33
330
0
100
AcDbSymbolTable
 70
     2
100
AcDbDimStyleTable
 71
     1
340
34
  0
DIMSTYLE
105
34
102
{ACAD_REACTORS
330
13E
102
}
330
33
100
AcDbSymbolTableRecord
100
AcDbDimStyleTableRecord
  2
Wagner
 70
     0
 41
2.5
 42
1.0
 43
10.0
 44
1.0
 73
     0
 74
     0
 77
     1
 78
     8
 79
     2
140
2.5
141
0.0
143
0.03937007874016
147
1.0
171
     3
172
     1
176
     4
177
     4
178
     1
179
     2
271
     8
272
     8
274
     3
283
     0
284
     8
340
26
1001
ACAD_DSTYLE_DIMJOGGED_JOGANGLE_SYMBOL
1070
   384
1040
0.7853981633974483
1001
ACAD_DSTYLE_DIMJAG
1070
   388
1040
1.5
1001
ACAD_DSTYLE_DIMTALN
1070
   392
1070
     0
  0
DIMSTYLE
105
11F
102
{ACAD_REACTORS
330
23A
330
1FF
330
1CD
330
1F2
330
228
330
174
330
21B
330
20C
330
167
330
111
330
14F
330
12F
330
120
102
}
330
33
100
AcDbSymbolTableRecord
100
AcDbDimStyleTableRecord
  2
Wagner$0
 70
     0
 41
2.5
 42
1.0
 43
10.0
 44
1.0
 73
     0
 74
     0
 77
     1
 78
     8
 79
     2
140
2.5
141
0.0
143
0.03937007874016
147
1.0
171
     3
172
     1
174
     1
176
     4
177
     4
178
     1
179
     2
271
     8
272
     8
274
     3
279
     2
283
     0
284
     8
340
26
1001
ACAD_DSTYLE_DIMJOGGED_JOGANGLE_SYMBOL
1070
   384
1040
0.7853981633974483
1001
ACAD_DSTYLE_DIMJAG
1070
   388
1040
1.5
1001
ACAD_DSTYLE_DIMTALN
1070
   392
1070
     0
  0
ENDTAB
  0
TABLE
  2
BLOCK_RECORD
  5
1
330
0
100
AcDbSymbolTable
 70
    16
  0
BLOCK_RECORD
  5
2
102
{ACAD_XDICTIONARY
360
3
102
}
330
1
100
AcDbSymbolTableRecord
100
AcDbBlockTableRecord
  2
*Model_Space
340
17
 70
     0
280
     1
281
     0
  0
BLOCK_RECORD
  5
1B
330
1
100
AcDbSymbolTableRecord
100
AcDbBlockTableRecord
  2
*Paper_Space
340
1E
 70
     0
280
     1
281
     0
  0
BLOCK_RECORD
  5
298
330
1
100
AcDbSymbolTableRecord
100
AcDbBlockTableRecord
  2
Rosette01-v
340
0
310
2800000020000000200000000100080000000000000400000000000000000000000000000000000000000000000080000080000000808000800000008000800080800000C0C0C000C0DCC000F0CAA6000020400000206000002080000020A0000020C0000020E00000400000004020000040400000406000004080000040A0
310
000040C0000040E00000600000006020000060400000606000006080000060A0000060C0000060E00000800000008020000080400000806000008080000080A0000080C0000080E00000A0000000A0200000A0400000A0600000A0800000A0A00000A0C00000A0E00000C0000000C0200000C0400000C0600000C0800000C0
310
A00000C0C00000C0E00000E0000000E0200000E0400000E0600000E0800000E0A00000E0C00000E0E00040000000400020004000400040006000400080004000A0004000C0004000E00040200000402020004020400040206000402080004020A0004020C0004020E000404000004040200040404000404060004040800040
310
40A0004040C0004040E00040600000406020004060400040606000406080004060A0004060C0004060E00040800000408020004080400040806000408080004080A0004080C0004080E00040A0000040A0200040A0400040A0600040A0800040A0A00040A0C00040A0E00040C0000040C0200040C0400040C0600040C08000
310
40C0A00040C0C00040C0E00040E0000040E0200040E0400040E0600040E0800040E0A00040E0C00040E0E00080000000800020008000400080006000800080008000A0008000C0008000E00080200000802020008020400080206000802080008020A0008020C0008020E00080400000804020008040400080406000804080
310
008040A0008040C0008040E00080600000806020008060400080606000806080008060A0008060C0008060E00080800000808020008080400080806000808080008080A0008080C0008080E00080A0000080A0200080A0400080A0600080A0800080A0A00080A0C00080A0E00080C0000080C0200080C0400080C0600080C0
310
800080C0A00080C0C00080C0E00080E0000080E0200080E0400080E0600080E0800080E0A00080E0C00080E0E000C0000000C0002000C0004000C0006000C0008000C000A000C000C000C000E000C0200000C0202000C0204000C0206000C0208000C020A000C020C000C020E000C0400000C0402000C0404000C0406000C0
310
408000C040A000C040C000C040E000C0600000C0602000C0604000C0606000C0608000C060A000C060C000C060E000C0800000C0802000C0804000C0806000C0808000C080A000C080C000C080E000C0A00000C0A02000C0A04000C0A06000C0A08000C0A0A000C0A0C000C0A0E000C0C00000C0C02000C0C04000C0C06000
310
C0C08000C0C0A000F0FBFF00A4A0A000808080000000FF0000FF000000FFFF00FF000000FF00FF00FFFF0000FFFFFF0000000000000000000000000000000000000000000000000000000000000000000000000000000000000000000000000000000000000000000000000000000000000000000000000000000000000000
310
00000000000000000000000000000000000000000000000000000000000000000000000000000000000000000000000000000000000000000000000000000000000000000000000000000000000000000000000000000000000000000000000000000000000000000000000000000000000000000000000000000000000000
310
00000000000000000000000000000000000000000000000000000000000000000000000000000000000000000000000000000000000000000000000000000000000000000000000000000000000000000000000000000000000000000000000000000000000000000000000000000000000000000000000000000000000000
310
00000000000000000000000000000000000000000000000000000000000000000000000000000000000000000000000000000000000000000000000000000000000000000000000000000000000000000000000000FFFAFFFFFFFFFFFFFFFFFFFFFFFFFFFFFFFFFFFFFFFFFFFFFFFFFAFF000000FFFFFAFFFFFFFFFFFFFFFF
310
FFFFFFFFFFFFFFFFFFFFFFFFFFFFFFFFFAFFFF0000FF00FAFAFAFAFAFAFAFAFAFAFAFAFAFAFAFAFAFAFAFAFAFAFAFAFAFA00FF0000FFFFFFFAFAFFFFFFFFFFFFFFFFFFFFFFFFFFFFFFFFFFFFFFFFFAFAFFFFFF0000000000FAFA0000000000000000000000000000000000000000FAFA0000000000000000FAFAFAFAFAFAFA
310
FAFAFAFAFAFAFAFAFAFAFAFAFAFAFAFAFA0000000000000000000000000000000000000000000000000000000000000000000000000000000000000000000000000000000000000000000000000000000000000000000000000000000000000000000000000000000000000000000000000000000000000000000000000000
310
00000000000000000000000000000000000000000000000000000000000000000000000000000000000000000000000000000000000000000000000000000000000000000000000000000000000000000000000000000000000000000000000000000000000000000000000000000000000000000000000000000000000000
310
00000000000000000000000000000000000000000000000000000000000000000000000000000000000000000000000000000000000000000000000000000000000000000000000000000000000000000000000000000000000000000000000000000000000000000000000000000000000000000000000000000000000000
310
0000000000000000000000000000000000000000000000000000000000000000000000000000000000000000000000000000000000000000
102
{BLKREFS
331
2BD
331
297
102
}
 70
     4
280
     1
281
     0
  0
BLOCK_RECORD
  5
23B
330
1
100
AcDbSymbolTableRecord
100
AcDbBlockTableRecord
  2
*D1
340
0
 70
     0
280
     1
281
     0
  0
BLOCK_RECORD
  5
229
330
1
100
AcDbSymbolTableRecord
100
AcDbBlockTableRecord
  2
*D2
340
0
 70
     0
280
     1
281
     0
  0
BLOCK_RECORD
  5
21C
330
1
100
AcDbSymbolTableRecord
100
AcDbBlockTableRecord
  2
*D3
340
0
 70
     0
280
     1
281
     0
  0
BLOCK_RECORD
  5
20D
330
1
100
AcDbSymbolTableRecord
100
AcDbBlockTableRecord
  2
*D4
340
0
 70
     0
280
     1
281
     0
  0
BLOCK_RECORD
  5
200
330
1
100
AcDbSymbolTableRecord
100
AcDbBlockTableRecord
  2
*D5
340
0
 70
     0
280
     1
281
     0
  0
BLOCK_RECORD
  5
1F3
330
1
100
AcDbSymbolTableRecord
100
AcDbBlockTableRecord
  2
*D6
340
0
 70
     0
280
     1
281
     0
  0
BLOCK_RECORD
  5
1CE
330
1
100
AcDbSymbolTableRecord
100
AcDbBlockTableRecord
  2
*D7
340
0
 70
     0
280
     1
281
     0
  0
BLOCK_RECORD
  5
175
330
1
100
AcDbSymbolTableRecord
100
AcDbBlockTableRecord
  2
*D8
340
0
 70
     0
280
     1
281
     0
  0
BLOCK_RECORD
  5
168
330
1
100
AcDbSymbolTableRecord
100
AcDbBlockTableRecord
  2
*D9
340
0
 70
     0
280
     1
281
     0
  0
BLOCK_RECORD
  5
88
102
{ACAD_XDICTIONARY
360
89
102
}
330
1
100
AcDbSymbolTableRecord
100
AcDbBlockTableRecord
  2
DIN A4 Quer
340
0
102
{BLKREFS
331
87
102
}
 70
     4
280
     1
281
     0
  0
BLOCK_RECORD
  5
13F
330
1
100
AcDbSymbolTableRecord
100
AcDbBlockTableRecord
  2
*D11
340
0
 70
     0
280
     1
281
     0
  0
BLOCK_RECORD
  5
130
330
1
100
AcDbSymbolTableRecord
100
AcDbBlockTableRecord
  2
*D12
340
0
 70
     0
280
     1
281
     0
  0
BLOCK_RECORD
  5
121
330
1
100
AcDbSymbolTableRecord
100
AcDbBlockTableRecord
  2
*D13
340
0
 70
     0
280
     1
281
     0
  0
BLOCK_RECORD
  5
112
330
1
100
AcDbSymbolTableRecord
100
AcDbBlockTableRecord
  2
*D14
340
0
 70
     0
280
     1
281
     0
  0
BLOCK_RECORD
  5
150
330
1
100
AcDbSymbolTableRecord
100
AcDbBlockTableRecord
  2
*D15
340
0
 70
     0
280
     1
281
     0
  0
ENDTAB
  0
ENDSEC
  0
SECTION
  2
BLOCKS
  0
BLOCK
  5
5
330
2
100
AcDbEntity
  8
0
100
AcDbBlockBegin
  2
*Model_Space
 70
     0
 10
0.0
 20
0.0
 30
0.0
  3
*Model_Space
  1

  0
ENDBLK
  5
16
330
2
100
AcDbEntity
  8
0
100
AcDbBlockEnd
  0
BLOCK
  5
1C
330
1B
100
AcDbEntity
 67
     1
  8
0
100
AcDbBlockBegin
  2
*Paper_Space
 70
     0
 10
0.0
 20
0.0
 30
0.0
  3
*Paper_Space
  1

  0
ENDBLK
  5
1D
330
1B
100
AcDbEntity
 67
     1
  8
0
100
AcDbBlockEnd
  0
BLOCK
  5
299
330
298
100
AcDbEntity
  8
0
100
AcDbBlockBegin
  2
Rosette01-v
 70
     0
 10
0.0
 20
0.0
 30
0.0
  3
Rosette01-v
  1

  0
ARC
  5
29A
330
298
100
AcDbEntity
  8
0
370
    15
100
AcDbCircle
 10
-21.5
 20
-4.25
 30
0.0
 40
1.249999999999982
100
AcDbArc
 50
216.8698976458439
 51
270.0000000000008
  0
ARC
  5
29B
330
298
100
AcDbEntity
  8
0
370
    15
100
AcDbCircle
 10
21.5
 20
-4.25
 30
0.0
 40
1.249999999999982
100
AcDbArc
 50
270.0000000000008
 51
323.1301023541584
  0
LINE
  5
29C
330
298
100
AcDbEntity
  8
0
370
    15
100
AcDbLine
 10
-21.5
 20
-5.499999999999971
 30
0.0
 11
21.5
 21
-5.499999999999971
 31
0.0
  0
ARC
  5
29D
330
298
100
AcDbEntity
  8
0
370
    15
100
AcDbCircle
 10
-24.0
 20
-3.999999999999971
 30
0.0
 40
1.0
100
AcDbArc
 50
180.0
 51
270.0000000000008
  0
ARC
  5
29E
330
298
100
AcDbEntity
  8
0
370
    15
100
AcDbCircle
 10
24.0
 20
-3.999999999999971
 30
0.0
 40
1.0
100
AcDbArc
 50
270.0000000000008
 51
0.0
  0
LINE
  5
29F
330
298
100
AcDbEntity
  8
0
370
    15
100
AcDbLine
 10
25.0
 20
-3.999999999999971
 30
0.0
 11
25.0
 21
-0.9999999999999715
 31
0.0
  0
LINE
  5
2A0
330
298
100
AcDbEntity
  8
0
370
    15
100
AcDbLine
 10
-25.0
 20
-0.9999999999999715
 30
0.0
 11
-25.0
 21
-3.999999999999971
 31
0.0
  0
ARC
  5
2A1
330
298
100
AcDbEntity
  8
0
370
    15
100
AcDbCircle
 10
-24.0
 20
-0.9999999999999715
 30
0.0
 40
1.0
100
AcDbArc
 50
90.0
 51
180.0
  0
ARC
  5
2A2
330
298
100
AcDbEntity
  8
0
370
    15
100
AcDbCircle
 10
24.0
 20
-0.9999999999999715
 30
0.0
 40
1.0
100
AcDbArc
 50
0.0
 51
90.0
  0
LINE
  5
2A3
330
298
100
AcDbEntity
  8
0
370
    15
100
AcDbLine
 10
-23.96414216604023
 20
-4.999999999999971
 30
0.0
 11
-24.0
 21
-4.999999999999971
 31
0.0
  0
LINE
  5
2A4
330
298
100
AcDbEntity
  8
0
370
    15
100
AcDbLine
 10
24.0
 20
-4.999999999999971
 30
0.0
 11
-23.96414216604023
 21
-4.999999999999971
 31
0.0
  0
LINE
  5
2A5
330
298
100
AcDbEntity
  8
03-01
370
    15
100
AcDbLine
 10
22.74999999999999
 20
-2.999999999999971
 30
0.0
 11
-22.75
 21
-2.999999999999943
 31
0.0
  0
LINE
  5
2A6
330
298
100
AcDbEntity
  8
0
370
    15
100
AcDbLine
 10
-24.0
 20
0.0
 30
0.0
 11
24.0
 21
0.0
 31
0.0
  0
LINE
  5
2A7
330
298
100
AcDbEntity
  8
03-01
370
    15
100
AcDbLine
 10
-21.19999999999999
 20
3.0
 30
0.0
 11
21.19999999999999
 21
2.999999999999971
 31
0.0
  0
LINE
  5
2A8
330
298
100
AcDbEntity
  8
0
370
    15
100
AcDbLine
 10
-25.0
 20
-3.999999999999971
 30
0.0
 11
25.0
 21
-3.999999999999971
 31
0.0
  0
LINE
  5
2A9
330
298
100
AcDbEntity
  8
0
370
    15
100
AcDbLine
 10
-24.96264808962531
 20
-0.9999999999999715
 30
0.0
 11
-25.0
 21
-0.9999999999999715
 31
0.0
  0
LINE
  5
2AA
330
298
100
AcDbEntity
  8
0
370
    15
100
AcDbLine
 10
25.0
 20
-0.9999999999999715
 30
0.0
 11
-24.96264808962531
 21
-0.9999999999999715
 31
0.0
  0
LINE
  5
2AB
330
298
100
AcDbEntity
  8
03-01
100
AcDbLine
 10
22.75
 20
-4.999999999999971
 30
0.0
 11
22.74999999999999
 21
-2.999999999999971
 31
0.0
  0
LINE
  5
2AC
330
298
100
AcDbEntity
  8
03-01
100
AcDbLine
 10
-22.75000000000002
 20
-5.0
 30
0.0
 11
-22.75
 21
-2.999999999999943
 31
0.0
  0
LINE
  5
2AD
330
298
100
AcDbEntity
  8
03-01
100
AcDbLine
 10
18.99999999999998
 20
-2.999999999999971
 30
0.0
 11
19.0
 21
2.999999999999971
 31
0.0
  0
LINE
  5
2AE
330
298
100
AcDbEntity
  8
03-01
100
AcDbLine
 10
-19.0
 20
-2.999999999999914
 30
0.0
 11
-18.99999999999998
 21
3.0
 31
0.0
  0
LINE
  5
2AF
330
298
100
AcDbEntity
  8
03-01
100
AcDbLine
 10
21.2
 20
0.0
 30
0.0
 11
21.19999999999999
 21
2.999999999999971
 31
0.0
  0
LINE
  5
2B0
330
298
100
AcDbEntity
  8
03-01
100
AcDbLine
 10
-21.2
 20
0.0
 30
0.0
 11
-21.19999999999999
 21
3.0
 31
0.0
  0
ENDBLK
  5
2B1
330
298
100
AcDbEntity
  8
0
100
AcDbBlockEnd
  0
BLOCK
  5
23C
330
23B
100
AcDbEntity
  8
0
100
AcDbBlockBegin
  2
*D1
 70
     1
 10
0.0
 20
0.0
 30
0.0
  3
*D1
  1

  0
LINE
  5
23D
330
23B
100
AcDbEntity
  8
0
 62
     4
370
    -2
100
AcDbLine
 10
102.1310173660045
 20
507.3805582531024
 30
0.0
 11
102.1310173660045
 21
527.7079742236898
 31
0.0
  0
LINE
  5
23E
330
23B
100
AcDbEntity
  8
0
 62
     4
370
    -2
100
AcDbLine
 10
147.1310173660045
 20
507.3805582531024
 30
0.0
 11
147.1310173660045
 21
527.7079742236898
 31
0.0
  0
LINE
  5
23F
330
23B
100
AcDbEntity
  8
0
 62
     4
370
    -2
100
AcDbLine
 10
110.8810173660045
 20
524.2079742236898
 30
0.0
 11
138.3810173660045
 21
524.2079742236898
 31
0.0
  0
SOLID
  5
240
330
23B
100
AcDbEntity
  8
0
 62
     4
100
AcDbTrace
 10
110.8810173660045
 20
525.6663075570231
 30
0.0
 11
110.8810173660045
 21
522.7496408903564
 31
0.0
 12
102.1310173660045
 22
524.2079742236898
 32
0.0
 13
102.1310173660045
 23
524.2079742236898
 33
0.0
  0
SOLID
  5
241
330
23B
100
AcDbEntity
  8
0
 62
     4
100
AcDbTrace
 10
138.3810173660045
 20
525.6663075570231
 30
0.0
 11
138.3810173660045
 21
522.7496408903564
 31
0.0
 12
147.1310173660045
 22
524.2079742236898
 32
0.0
 13
147.1310173660045
 23
524.2079742236898
 33
0.0
  0
MTEXT
  5
242
330
23B
100
AcDbEntity
  8
0
 62
     1
100
AcDbMText
 10
124.6310173660045
 20
532.0829742236898
 30
0.0
 40
8.75
 41
0.0
 46
0.0
 71
     5
 72
     1
  1
%%C45
 73
     1
 44
1.0
  0
POINT
  5
243
330
23B
100
AcDbEntity
  8
Defpoints
 62
     0
100
AcDbPoint
 10
102.1310173660045
 20
503.8805582531024
 30
0.0
  0
POINT
  5
244
330
23B
100
AcDbEntity
  8
Defpoints
 62
     0
100
AcDbPoint
 10
147.1310173660045
 20
503.8805582531024
 30
0.0
  0
POINT
  5
245
330
23B
100
AcDbEntity
  8
Defpoints
 62
     0
100
AcDbPoint
 10
147.1310173660045
 20
524.2079742236898
 30
0.0
  0
ENDBLK
  5
246
330
23B
100
AcDbEntity
  8
0
100
AcDbBlockEnd
  0
BLOCK
  5
22A
330
229
100
AcDbEntity
  8
0
100
AcDbBlockBegin
  2
*D2
 70
     1
 10
0.0
 20
0.0
 30
0.0
  3
*D2
  1

  0
LINE
  5
22B
330
229
100
AcDbEntity
  8
0
 62
     4
370
    -2
100
AcDbLine
 10
389.1116191128663
 20
448.8805582531023
 30
0.0
 11
432.8216767153728
 21
448.8805582531023
 31
0.0
  0
LINE
  5
22C
330
229
100
AcDbEntity
  8
0
 62
     4
370
    -2
100
AcDbLine
 10
389.1116191128663
 20
423.8805582531023
 30
0.0
 11
432.8216767153728
 21
423.8805582531023
 31
0.0
  0
LINE
  5
22D
330
229
100
AcDbEntity
  8
0
 62
     4
370
    -2
100
AcDbLine
 10
429.3216767153729
 20
457.6305582531023
 30
0.0
 11
429.3216767153729
 21
466.3805582531024
 31
0.0
  0
LINE
  5
22E
330
229
100
AcDbEntity
  8
0
 62
     4
370
    -2
100
AcDbLine
 10
429.3216767153729
 20
415.1305582531023
 30
0.0
 11
429.3216767153729
 21
406.3805582531022
 31
0.0
  0
LINE
  5
22F
330
229
100
AcDbEntity
  8
0
 62
     4
370
    -2
100
AcDbLine
 10
429.3216767153729
 20
448.8805582531023
 30
0.0
 11
429.3216767153729
 21
423.8805582531023
 31
0.0
  0
SOLID
  5
230
330
229
100
AcDbEntity
  8
0
 62
     4
100
AcDbTrace
 10
427.8633433820395
 20
457.6305582531023
 30
0.0
 11
430.7800100487061
 21
457.6305582531023
 31
0.0
 12
429.3216767153729
 22
448.8805582531023
 32
0.0
 13
429.3216767153729
 23
448.8805582531023
 33
0.0
  0
SOLID
  5
231
330
229
100
AcDbEntity
  8
0
 62
     4
100
AcDbTrace
 10
427.8633433820395
 20
415.1305582531023
 30
0.0
 11
430.7800100487061
 21
415.1305582531023
 31
0.0
 12
429.3216767153729
 22
423.8805582531023
 32
0.0
 13
429.3216767153729
 23
423.8805582531023
 33
0.0
  0
MTEXT
  5
232
330
229
100
AcDbEntity
  8
0
 62
     1
100
AcDbMText
 10
421.4466767153727
 20
436.3805582531024
 30
0.0
 40
8.75
 41
0.0
 46
0.0
 71
     5
 72
     1
  1
%%C25
 11
0.0000000000000001
 21
1.0
 31
0.0
 73
     1
 44
1.0
  0
POINT
  5
233
330
229
100
AcDbEntity
  8
Defpoints
 62
     0
100
AcDbPoint
 10
385.6116191128663
 20
448.8805582531023
 30
0.0
  0
POINT
  5
234
330
229
100
AcDbEntity
  8
Defpoints
 62
     0
100
AcDbPoint
 10
385.6116191128663
 20
423.8805582531023
 30
0.0
  0
POINT
  5
235
330
229
100
AcDbEntity
  8
Defpoints
 62
     0
100
AcDbPoint
 10
429.3216767153729
 20
423.8805582531023
 30
0.0
  0
ENDBLK
  5
236
330
229
100
AcDbEntity
  8
0
100
AcDbBlockEnd
  0
BLOCK
  5
21D
330
21C
100
AcDbEntity
  8
0
100
AcDbBlockBegin
  2
*D3
 70
     1
 10
0.0
 20
0.0
 30
0.0
  3
*D3
  1

  0
LINE
  5
21E
330
21C
100
AcDbEntity
  8
0
 62
     4
370
    -2
100
AcDbLine
 10
280.6116191128662
 20
221.3805582531024
 30
0.0
 11
377.1087972598562
 21
221.3805582531024
 31
0.0
  0
LINE
  5
21F
330
21C
100
AcDbEntity
  8
0
 62
     4
370
    -2
100
AcDbLine
 10
367.8410204942293
 20
418.9565194880413
 30
0.0
 11
377.1087972598563
 21
418.9565194880413
 31
0.0
  0
LINE
  5
220
330
21C
100
AcDbEntity
  8
0
 62
     4
370
    -2
100
AcDbLine
 10
373.6087972598562
 20
230.1305582531024
 30
0.0
 11
373.6087972598562
 21
410.2065194880412
 31
0.0
  0
SOLID
  5
221
330
21C
100
AcDbEntity
  8
0
 62
     4
100
AcDbTrace
 10
372.1504639265229
 20
230.1305582531024
 30
0.0
 11
375.0671305931895
 21
230.1305582531024
 31
0.0
 12
373.6087972598562
 22
221.3805582531024
 32
0.0
 13
373.6087972598562
 23
221.3805582531024
 33
0.0
  0
SOLID
  5
222
330
21C
100
AcDbEntity
  8
0
 62
     4
100
AcDbTrace
 10
372.150463926523
 20
410.2065194880412
 30
0.0
 11
375.0671305931896
 21
410.2065194880412
 31
0.0
 12
373.6087972598562
 22
418.9565194880413
 32
0.0
 13
373.6087972598562
 23
418.9565194880413
 33
0.0
  0
MTEXT
  5
223
330
21C
100
AcDbEntity
  8
0
 62
     1
100
AcDbMText
 10
365.7337972598562
 20
320.1685388705719
 30
0.0
 40
8.75
 41
0.0
 46
0.0
 71
     5
 72
     1
  1
197.6
 11
0.0000000000000001
 21
1.0
 31
0.0
 73
     1
 44
1.0
  0
POINT
  5
224
330
21C
100
AcDbEntity
  8
Defpoints
 62
     0
100
AcDbPoint
 10
277.1116191128663
 20
221.3805582531024
 30
0.0
  0
POINT
  5
225
330
21C
100
AcDbEntity
  8
Defpoints
 62
     0
100
AcDbPoint
 10
364.3410204942293
 20
418.9565194880413
 30
0.0
  0
POINT
  5
226
330
21C
100
AcDbEntity
  8
Defpoints
 62
     0
100
AcDbPoint
 10
373.6087972598562
 20
418.9565194880413
 30
0.0
  0
ENDBLK
  5
227
330
21C
100
AcDbEntity
  8
0
100
AcDbBlockEnd
  0
BLOCK
  5
20E
330
20D
100
AcDbEntity
  8
0
100
AcDbBlockBegin
  2
*D4
 70
     1
 10
0.0
 20
0.0
 30
0.0
  3
*D4
  1

  0
LINE
  5
20F
330
20D
100
AcDbEntity
  8
0
 62
     4
370
    -2
100
AcDbLine
 10
385.6116191128663
 20
427.3805582531023
 30
0.0
 11
385.6116191128663
 21
477.2001888892304
 31
0.0
  0
LINE
  5
210
330
20D
100
AcDbEntity
  8
0
 62
     4
370
    -2
100
AcDbLine
 10
372.6116191128663
 20
431.0541113384576
 30
0.0
 11
372.6116191128663
 21
477.2001888892304
 31
0.0
  0
LINE
  5
211
330
20D
100
AcDbEntity
  8
0
 62
     4
370
    -2
100
AcDbLine
 10
394.3616191128663
 20
473.7001888892304
 30
0.0
 11
403.1116191128663
 21
473.7001888892304
 31
0.0
  0
LINE
  5
212
330
20D
100
AcDbEntity
  8
0
 62
     4
370
    -2
100
AcDbLine
 10
363.8616191128662
 20
473.7001888892304
 30
0.0
 11
355.1116191128663
 21
473.7001888892304
 31
0.0
  0
LINE
  5
213
330
20D
100
AcDbEntity
  8
0
 62
     4
370
    -2
100
AcDbLine
 10
385.6116191128663
 20
473.7001888892304
 30
0.0
 11
372.6116191128663
 21
473.7001888892304
 31
0.0
  0
SOLID
  5
214
330
20D
100
AcDbEntity
  8
0
 62
     4
100
AcDbTrace
 10
394.3616191128663
 20
475.1585222225637
 30
0.0
 11
394.3616191128663
 21
472.2418555558971
 31
0.0
 12
385.6116191128663
 22
473.7001888892304
 32
0.0
 13
385.6116191128663
 23
473.7001888892304
 33
0.0
  0
SOLID
  5
215
330
20D
100
AcDbEntity
  8
0
 62
     4
100
AcDbTrace
 10
363.8616191128662
 20
475.1585222225637
 30
0.0
 11
363.8616191128662
 21
472.2418555558971
 31
0.0
 12
372.6116191128663
 22
473.7001888892304
 32
0.0
 13
372.6116191128663
 23
473.7001888892304
 33
0.0
  0
MTEXT
  5
216
330
20D
100
AcDbEntity
  8
0
 62
     1
100
AcDbMText
 10
379.1116191128663
 20
481.5751888892304
 30
0.0
 40
8.75
 41
0.0
 46
0.0
 71
     5
 72
     1
  1
13
 73
     1
 44
1.0
  0
POINT
  5
217
330
20D
100
AcDbEntity
  8
Defpoints
 62
     0
100
AcDbPoint
 10
385.6116191128663
 20
423.8805582531023
 30
0.0
  0
POINT
  5
218
330
20D
100
AcDbEntity
  8
Defpoints
 62
     0
100
AcDbPoint
 10
372.6116191128663
 20
427.5541113384575
 30
0.0
  0
POINT
  5
219
330
20D
100
AcDbEntity
  8
Defpoints
 62
     0
100
AcDbPoint
 10
372.6116191128663
 20
473.7001888892304
 30
0.0
  0
ENDBLK
  5
21A
330
20D
100
AcDbEntity
  8
0
100
AcDbBlockEnd
  0
BLOCK
  5
201
330
200
100
AcDbEntity
  8
0
100
AcDbBlockBegin
  2
*D5
 70
     1
 10
0.0
 20
0.0
 30
0.0
  3
*D5
  1

  0
LINE
  5
202
330
200
100
AcDbEntity
  8
0
 62
     4
370
    -2
100
AcDbLine
 10
227.6116191128662
 20
504.3805582531024
 30
0.0
 11
208.1477621856613
 21
504.3805582531024
 31
0.0
  0
LINE
  5
203
330
200
100
AcDbEntity
  8
0
 62
     4
370
    -2
100
AcDbLine
 10
227.1116191128662
 20
475.3805582531023
 30
0.0
 11
208.1477621856613
 21
475.3805582531023
 31
0.0
  0
LINE
  5
204
330
200
100
AcDbEntity
  8
0
 62
     4
370
    -2
100
AcDbLine
 10
211.6477621856613
 20
495.6305582531024
 30
0.0
 11
211.6477621856613
 21
484.1305582531023
 31
0.0
  0
SOLID
  5
205
330
200
100
AcDbEntity
  8
0
 62
     4
100
AcDbTrace
 10
210.189428852328
 20
495.6305582531024
 30
0.0
 11
213.1060955189947
 21
495.6305582531024
 31
0.0
 12
211.6477621856613
 22
504.3805582531024
 32
0.0
 13
211.6477621856613
 23
504.3805582531024
 33
0.0
  0
SOLID
  5
206
330
200
100
AcDbEntity
  8
0
 62
     4
100
AcDbTrace
 10
210.189428852328
 20
484.1305582531023
 30
0.0
 11
213.1060955189947
 21
484.1305582531023
 31
0.0
 12
211.6477621856613
 22
475.3805582531023
 32
0.0
 13
211.6477621856613
 23
475.3805582531023
 33
0.0
  0
MTEXT
  5
207
330
200
100
AcDbEntity
  8
0
 62
     1
100
AcDbMText
 10
203.7727621856612
 20
489.8805582531024
 30
0.0
 40
8.75
 41
0.0
 46
0.0
 71
     5
 72
     1
  1
29
 11
0.0000000000000001
 21
1.0
 31
0.0
 73
     1
 44
1.0
  0
POINT
  5
208
330
200
100
AcDbEntity
  8
Defpoints
 62
     0
100
AcDbPoint
 10
231.1116191128662
 20
504.3805582531024
 30
0.0
  0
POINT
  5
209
330
200
100
AcDbEntity
  8
Defpoints
 62
     0
100
AcDbPoint
 10
230.6116191128662
 20
475.3805582531023
 30
0.0
  0
POINT
  5
20A
330
200
100
AcDbEntity
  8
Defpoints
 62
     0
100
AcDbPoint
 10
211.6477621856613
 20
475.3805582531023
 30
0.0
  0
ENDBLK
  5
20B
330
200
100
AcDbEntity
  8
0
100
AcDbBlockEnd
  0
BLOCK
  5
1F4
330
1F3
100
AcDbEntity
  8
0
100
AcDbBlockBegin
  2
*D6
 70
     1
 10
0.0
 20
0.0
 30
0.0
  3
*D6
  1

  0
LINE
  5
1F5
330
1F3
100
AcDbEntity
  8
0
 62
     4
370
    -2
100
AcDbLine
 10
227.1116191128662
 20
475.3805582531023
 30
0.0
 11
208.1477621856613
 21
475.3805582531023
 31
0.0
  0
LINE
  5
1F6
330
1F3
100
AcDbEntity
  8
0
 62
     4
370
    -2
100
AcDbLine
 10
220.1116191128662
 20
405.3805582531023
 30
0.0
 11
208.1477621856613
 21
405.3805582531023
 31
0.0
  0
LINE
  5
1F7
330
1F3
100
AcDbEntity
  8
0
 62
     4
370
    -2
100
AcDbLine
 10
211.6477621856613
 20
466.6305582531022
 30
0.0
 11
211.6477621856613
 21
414.1305582531023
 31
0.0
  0
SOLID
  5
1F8
330
1F3
100
AcDbEntity
  8
0
 62
     4
100
AcDbTrace
 10
210.189428852328
 20
466.6305582531022
 30
0.0
 11
213.1060955189947
 21
466.6305582531022
 31
0.0
 12
211.6477621856613
 22
475.3805582531023
 32
0.0
 13
211.6477621856613
 23
475.3805582531023
 33
0.0
  0
SOLID
  5
1F9
330
1F3
100
AcDbEntity
  8
0
 62
     4
100
AcDbTrace
 10
210.189428852328
 20
414.1305582531023
 30
0.0
 11
213.1060955189947
 21
414.1305582531023
 31
0.0
 12
211.6477621856613
 22
405.3805582531023
 32
0.0
 13
211.6477621856613
 23
405.3805582531023
 33
0.0
  0
MTEXT
  5
1FA
330
1F3
100
AcDbEntity
  8
0
 62
     1
100
AcDbMText
 10
203.7727621856613
 20
440.3805582531023
 30
0.0
 40
8.75
 41
0.0
 46
0.0
 71
     5
 72
     1
  1
70
 11
0.0000000000000001
 21
1.0
 31
0.0
 73
     1
 44
1.0
  0
POINT
  5
1FB
330
1F3
100
AcDbEntity
  8
Defpoints
 62
     0
100
AcDbPoint
 10
230.6116191128662
 20
475.3805582531023
 30
0.0
  0
POINT
  5
1FC
330
1F3
100
AcDbEntity
  8
Defpoints
 62
     0
100
AcDbPoint
 10
223.6116191128662
 20
405.3805582531023
 30
0.0
  0
POINT
  5
1FD
330
1F3
100
AcDbEntity
  8
Defpoints
 62
     0
100
AcDbPoint
 10
211.6477621856613
 20
405.3805582531023
 30
0.0
  0
ENDBLK
  5
1FE
330
1F3
100
AcDbEntity
  8
0
100
AcDbBlockEnd
  0
BLOCK
  5
1CF
330
1CE
100
AcDbEntity
  8
0
100
AcDbBlockBegin
  2
*D7
 70
     1
 10
0.0
 20
0.0
 30
0.0
  3
*D7
  1

  0
LINE
  5
1D0
330
1CE
100
AcDbEntity
  8
0
 62
     4
370
    -2
100
AcDbLine
 10
227.6116191128662
 20
504.3805582531024
 30
0.0
 11
182.9122609211333
 21
504.3805582531024
 31
0.0
  0
LINE
  5
1D1
330
1CE
100
AcDbEntity
  8
0
 62
     4
370
    -2
100
AcDbLine
 10
225.6116191128662
 20
221.3805582531024
 30
0.0
 11
182.9122609211333
 21
221.3805582531024
 31
0.0
  0
LINE
  5
1D2
330
1CE
100
AcDbEntity
  8
0
 62
     4
370
    -2
100
AcDbLine
 10
186.4122609211333
 20
495.6305582531024
 30
0.0
 11
186.4122609211333
 21
230.1305582531025
 31
0.0
  0
SOLID
  5
1D3
330
1CE
100
AcDbEntity
  8
0
 62
     4
100
AcDbTrace
 10
184.9539275878
 20
495.6305582531024
 30
0.0
 11
187.8705942544667
 21
495.6305582531024
 31
0.0
 12
186.4122609211333
 22
504.3805582531024
 32
0.0
 13
186.4122609211333
 23
504.3805582531024
 33
0.0
  0
SOLID
  5
1D4
330
1CE
100
AcDbEntity
  8
0
 62
     4
100
AcDbTrace
 10
184.9539275877999
 20
230.1305582531025
 30
0.0
 11
187.8705942544666
 21
230.1305582531025
 31
0.0
 12
186.4122609211333
 22
221.3805582531024
 32
0.0
 13
186.4122609211333
 23
221.3805582531024
 33
0.0
  0
MTEXT
  5
1D5
330
1CE
100
AcDbEntity
  8
0
 62
     1
100
AcDbMText
 10
178.5372609211333
 20
362.8805582531025
 30
0.0
 40
8.75
 41
0.0
 46
0.0
 71
     5
 72
     1
  1
283
 11
0.0000000000000001
 21
1.0
 31
0.0
 73
     1
 44
1.0
  0
POINT
  5
1D6
330
1CE
100
AcDbEntity
  8
Defpoints
 62
     0
100
AcDbPoint
 10
231.1116191128662
 20
504.3805582531024
 30
0.0
  0
POINT
  5
1D7
330
1CE
100
AcDbEntity
  8
Defpoints
 62
     0
100
AcDbPoint
 10
229.1116191128662
 20
221.3805582531024
 30
0.0
  0
POINT
  5
1D8
330
1CE
100
AcDbEntity
  8
Defpoints
 62
     0
100
AcDbPoint
 10
186.4122609211333
 20
221.3805582531024
 30
0.0
  0
ENDBLK
  5
1D9
330
1CE
100
AcDbEntity
  8
0
100
AcDbBlockEnd
  0
BLOCK
  5
176
330
175
100
AcDbEntity
  8
0
100
AcDbBlockBegin
  2
*D8
 70
     1
 10
0.0
 20
0.0
 30
0.0
  3
*D8
  1

  0
LINE
  5
177
330
175
100
AcDbEntity
  8
0
 62
     4
370
    -2
100
AcDbLine
 10
389.1116191128663
 20
436.3805582531023
 30
0.0
 11
454.2587685372021
 21
436.3805582531023
 31
0.0
  0
LINE
  5
178
330
175
100
AcDbEntity
  8
0
 62
     4
370
    -2
100
AcDbLine
 10
379.1087972598563
 20
221.3805582531024
 30
0.0
 11
454.258768537202
 21
221.3805582531024
 31
0.0
  0
LINE
  5
179
330
175
100
AcDbEntity
  8
0
 62
     4
370
    -2
100
AcDbLine
 10
450.7587685372021
 20
427.6305582531023
 30
0.0
 11
450.758768537202
 21
230.1305582531024
 31
0.0
  0
SOLID
  5
17A
330
175
100
AcDbEntity
  8
0
 62
     4
100
AcDbTrace
 10
449.3004352038687
 20
427.6305582531023
 30
0.0
 11
452.2171018705354
 21
427.6305582531023
 31
0.0
 12
450.7587685372021
 22
436.3805582531023
 32
0.0
 13
450.7587685372021
 23
436.3805582531023
 33
0.0
  0
SOLID
  5
17B
330
175
100
AcDbEntity
  8
0
 62
     4
100
AcDbTrace
 10
449.3004352038687
 20
230.1305582531024
 30
0.0
 11
452.2171018705353
 21
230.1305582531024
 31
0.0
 12
450.758768537202
 22
221.3805582531024
 32
0.0
 13
450.758768537202
 23
221.3805582531024
 33
0.0
  0
MTEXT
  5
17C
330
175
100
AcDbEntity
  8
0
 62
     1
100
AcDbMText
 10
442.883768537202
 20
328.8805582531024
 30
0.0
 40
8.75
 41
0.0
 46
0.0
 71
     5
 72
     1
  1
215
 11
0.0000000000000001
 21
1.0
 31
0.0
 73
     1
 44
1.0
  0
POINT
  5
17D
330
175
100
AcDbEntity
  8
Defpoints
 62
     0
100
AcDbPoint
 10
385.6116191128663
 20
436.3805582531023
 30
0.0
  0
POINT
  5
17E
330
175
100
AcDbEntity
  8
Defpoints
 62
     0
100
AcDbPoint
 10
375.6087972598562
 20
221.3805582531024
 30
0.0
  0
POINT
  5
17F
330
175
100
AcDbEntity
  8
Defpoints
 62
     0
100
AcDbPoint
 10
450.758768537202
 20
221.3805582531024
 30
0.0
  0
ENDBLK
  5
180
330
175
100
AcDbEntity
  8
0
100
AcDbBlockEnd
  0
BLOCK
  5
169
330
168
100
AcDbEntity
  8
0
100
AcDbBlockBegin
  2
*D9
 70
     1
 10
0.0
 20
0.0
 30
0.0
  3
*D9
  1

  0
LINE
  5
16A
330
168
100
AcDbEntity
  8
0
 62
     4
370
    -2
100
AcDbLine
 10
223.6116191128662
 20
405.3805582531023
 30
0.0
 11
208.1477621856612
 21
405.3805582531023
 31
0.0
  0
LINE
  5
16B
330
168
100
AcDbEntity
  8
0
 62
     4
370
    -2
100
AcDbLine
 10
222.1116191128662
 20
221.3805582531024
 30
0.0
 11
208.1477621856612
 21
221.3805582531024
 31
0.0
  0
LINE
  5
16C
330
168
100
AcDbEntity
  8
0
 62
     4
370
    -2
100
AcDbLine
 10
211.6477621856613
 20
396.6305582531023
 30
0.0
 11
211.6477621856612
 21
230.1305582531024
 31
0.0
  0
SOLID
  5
16D
330
168
100
AcDbEntity
  8
0
 62
     4
100
AcDbTrace
 10
210.1894288523279
 20
396.6305582531023
 30
0.0
 11
213.1060955189946
 21
396.6305582531023
 31
0.0
 12
211.6477621856613
 22
405.3805582531023
 32
0.0
 13
211.6477621856613
 23
405.3805582531023
 33
0.0
  0
SOLID
  5
16E
330
168
100
AcDbEntity
  8
0
 62
     4
100
AcDbTrace
 10
210.1894288523279
 20
230.1305582531024
 30
0.0
 11
213.1060955189945
 21
230.1305582531024
 31
0.0
 12
211.6477621856612
 22
221.3805582531024
 32
0.0
 13
211.6477621856612
 23
221.3805582531024
 33
0.0
  0
MTEXT
  5
16F
330
168
100
AcDbEntity
  8
0
 62
     1
100
AcDbMText
 10
203.7727621856612
 20
313.3805582531024
 30
0.0
 40
8.75
 41
0.0
 46
0.0
 71
     5
 72
     1
  1
184
 11
0.0000000000000001
 21
1.0
 31
0.0
 73
     1
 44
1.0
  0
POINT
  5
170
330
168
100
AcDbEntity
  8
Defpoints
 62
     0
100
AcDbPoint
 10
227.1116191128662
 20
405.3805582531023
 30
0.0
  0
POINT
  5
171
330
168
100
AcDbEntity
  8
Defpoints
 62
     0
100
AcDbPoint
 10
225.6116191128662
 20
221.3805582531024
 30
0.0
  0
POINT
  5
172
330
168
100
AcDbEntity
  8
Defpoints
 62
     0
100
AcDbPoint
 10
211.6477621856612
 20
221.3805582531024
 30
0.0
  0
ENDBLK
  5
173
330
168
100
AcDbEntity
  8
0
100
AcDbBlockEnd
  0
BLOCK
  5
8B
330
88
100
AcDbEntity
  8
0
100
AcDbBlockBegin
  2
DIN A4 Quer
 70
     2
 10
0.0
 20
0.0
 30
0.0
  3
DIN A4 Quer
  1

  0
LINE
  5
8C
330
88
100
AcDbEntity
  8
01-99
100
AcDbLine
 10
6.000001890710336
 20
6.000000518749175
 30
0.0
 11
6.000001890710223
 21
204.0000005187492
 31
0.0
  0
LINE
  5
90
330
88
100
AcDbEntity
  8
01-99
100
AcDbLine
 10
6.000001890710223
 20
204.0000005187492
 30
0.0
 11
291.0000018907103
 21
204.0000005187492
 31
0.0
  0
LINE
  5
91
330
88
100
AcDbEntity
  8
02-01
100
AcDbLine
 10
297.0000018907104
 20
210.0000005187492
 30
0.0
 11
0.0000018907103367
 21
210.0000005187492
 31
0.0
  0
LINE
  5
95
330
88
100
AcDbEntity
  8
02-01
100
AcDbLine
 10
0.0000018907103367
 20
210.0000005187492
 30
0.0
 11
0.0000018907103367
 21
0.0000005187491752
 31
0.0
  0
LINE
  5
96
330
88
100
AcDbEntity
  8
01-99
100
AcDbLine
 10
291.0000018907103
 20
6.000000518749288
 30
0.0
 11
291.0000018907103
 21
204.0000005187492
 31
0.0
  0
LINE
  5
97
330
88
100
AcDbEntity
  8
01-99
100
AcDbLine
 10
291.0000018907103
 20
6.000000518749288
 30
0.0
 11
6.000001890710336
 21
6.000000518749175
 31
0.0
  0
LINE
  5
98
330
88
100
AcDbEntity
  8
02-01
100
AcDbLine
 10
0.0000018907103367
 20
0.0000005187491752
 30
0.0
 11
297.0000018907104
 21
0.0000005187491752
 31
0.0
  0
LINE
  5
99
330
88
100
AcDbEntity
  8
02-01
100
AcDbLine
 10
297.0000018907104
 20
0.0000005187491752
 30
0.0
 11
297.0000018907104
 21
210.0000005187492
 31
0.0
  0
LINE
  5
9A
330
88
100
AcDbEntity
  8
01-99
100
AcDbLine
 10
157.0000018907103
 20
11.11111162974919
 30
0.0
 11
107.0000018907103
 21
11.11111162974919
 31
0.0
  0
LINE
  5
9B
330
88
100
AcDbEntity
  8
01-99
100
AcDbLine
 10
157.0000018907103
 20
16.2222227407492
 30
0.0
 11
107.0000018907103
 21
16.2222227407492
 31
0.0
  0
LINE
  5
9C
330
88
100
AcDbEntity
  8
01-99
100
AcDbLine
 10
157.0000018907103
 20
21.33333385174922
 30
0.0
 11
107.0000018907103
 21
21.33333385174916
 31
0.0
  0
LINE
  5
9D
330
88
100
AcDbEntity
  8
01-99
100
AcDbLine
 10
202.0000018907103
 20
26.44444496274923
 30
0.0
 11
107.0000018907103
 21
26.44444496274918
 31
0.0
  0
LINE
  5
9E
330
88
100
AcDbEntity
  8
01-99
100
AcDbLine
 10
202.0000018907103
 20
31.55555607374925
 30
0.0
 11
107.0000018907103
 21
31.55555607374919
 31
0.0
  0
LINE
  5
9F
330
88
100
AcDbEntity
  8
01-99
100
AcDbLine
 10
132.0000018907103
 20
6.000000518749175
 30
0.0
 11
132.0000018907103
 21
11.11111162974919
 31
0.0
  0
LINE
  5
A0
330
88
100
AcDbEntity
  8
01-99
100
AcDbLine
 10
115.0000018907103
 20
11.11111162974919
 30
0.0
 11
115.0000018907103
 21
36.66666718541586
 31
0.0
  0
LINE
  5
A1
330
88
100
AcDbEntity
  8
01-99
100
AcDbLine
 10
157.0000018907103
 20
6.000000518749175
 30
0.0
 11
157.0000018907103
 21
52.00000051874917
 31
0.0
  0
LINE
  5
A2
330
88
100
AcDbEntity
  8
01-99
100
AcDbLine
 10
202.0000018907103
 20
6.000000518749175
 30
0.0
 11
202.0000018907103
 21
52.00000051874917
 31
0.0
  0
LINE
  5
A3
330
88
100
AcDbEntity
  8
01-99
100
AcDbLine
 10
231.5000018907103
 20
6.000000518749175
 30
0.0
 11
231.5000018907103
 21
16.22222274074926
 31
0.0
  0
LINE
  5
A4
330
88
100
AcDbEntity
  8
01-99
100
AcDbLine
 10
264.0000018907104
 20
6.000000518749175
 30
0.0
 11
264.0000018907104
 21
16.22222274074931
 31
0.0
  0
LINE
  5
A5
330
88
100
AcDbEntity
  8
01-99
100
AcDbLine
 10
235.5000018907103
 20
36.66666718541592
 30
0.0
 11
235.5000018907103
 21
52.00000051874929
 31
0.0
  0
LINE
  5
A6
330
88
100
AcDbEntity
  8
01-99
100
AcDbLine
 10
269.0000018907103
 20
36.66666718541592
 30
0.0
 11
269.0000018907103
 21
52.00000051874929
 31
0.0
  0
LINE
  5
A7
330
88
100
AcDbEntity
  8
01-99
100
AcDbLine
 10
165.0000018907103
 20
21.33333385208254
 30
0.0
 11
165.0000018907103
 21
36.66666718541592
 31
0.0
  0
LINE
  5
A8
330
88
100
AcDbEntity
  8
01-99
100
AcDbLine
 10
147.0031902301398
 20
11.11111162974919
 30
0.0
 11
147.0031902301398
 21
36.66666718541586
 31
0.0
  0
LINE
  5
A9
330
88
100
AcDbEntity
  8
01-99
100
AcDbLine
 10
135.0031902301398
 20
11.11111162974919
 30
0.0
 11
135.0031902301398
 21
36.66666718541586
 31
0.0
  0
LINE
  5
AA
330
88
100
AcDbEntity
  8
01-99
100
AcDbLine
 10
291.0000018907103
 20
52.00000051874929
 30
0.0
 11
107.0000018907085
 21
52.00000051874917
 31
0.0
  0
LINE
  5
AB
330
88
100
AcDbEntity
  8
01-99
100
AcDbLine
 10
202.0000018907103
 20
21.33333385208254
 30
0.0
 11
157.0000018907103
 21
21.33333385208254
 31
0.0
  0
LINE
  5
AC
330
88
100
AcDbEntity
  8
01-99
100
AcDbLine
 10
202.0000018907103
 20
36.66666718541592
 30
0.0
 11
107.0000018907103
 21
36.66666718541581
 31
0.0
  0
LINE
  5
AD
330
88
100
AcDbEntity
  8
01-99
100
AcDbLine
 10
179.0000018907103
 20
21.33333385208254
 30
0.0
 11
179.0000018907103
 21
52.00000051874923
 31
0.0
  0
LINE
  5
AE
330
88
100
AcDbEntity
  8
01-99
100
AcDbLine
 10
157.0000018907103
 20
36.66666718541586
 30
0.0
 11
165.0000018907103
 21
31.5555560854159
 31
0.0
  0
LINE
  5
AF
330
88
100
AcDbEntity
  8
01-99
100
AcDbLine
 10
157.0000018907103
 20
31.5555560854159
 30
0.0
 11
165.0000018907103
 21
36.66666718541592
 31
0.0
  0
LINE
  5
B0
330
88
100
AcDbEntity
  8
01-99
100
AcDbLine
 10
291.0000018907103
 20
44.33333385208254
 30
0.0
 11
202.0000018907103
 21
44.33333385208249
 31
0.0
  0
LINE
  5
B1
330
88
100
AcDbEntity
  8
01-99
100
AcDbLine
 10
202.0000018907103
 20
16.2222227407492
 30
0.0
 11
291.0000018907103
 21
16.22222274074931
 31
0.0
  0
LINE
  5
B2
330
88
100
AcDbEntity
  8
01-99
100
AcDbLine
 10
202.0000018907103
 20
36.66666718541592
 30
0.0
 11
291.0000018907103
 21
36.66666718541597
 31
0.0
  0
LINE
  5
B3
330
88
100
AcDbEntity
  8
01-99
100
AcDbLine
 10
179.0000018907103
 20
41.7777782967492
 30
0.0
 11
157.0000018907103
 21
41.7777782967492
 31
0.0
  0
LINE
  5
B4
330
88
100
AcDbEntity
  8
01-99
100
AcDbLine
 10
179.0000018907103
 20
46.88888940774922
 30
0.0
 11
157.0000018907103
 21
46.88888940774916
 31
0.0
  0
LINE
  5
B5
330
88
100
AcDbEntity
  8
01-99
100
AcDbLine
 10
107.0000018907085
 20
52.00000051874917
 30
0.0
 11
107.0000018907085
 21
6.000000518749175
 31
0.0
  0
TEXT
  5
B6
330
88
100
AcDbEntity
  8
08-99
100
AcDbText
 10
203.4997030590166
 20
32.66987422660714
 30
0.0
 40
2.5
  1
Benennung/Teil:
 51
15.0
  7
ROMANS8
100
AcDbText
  0
TEXT
  5
BB
330
88
100
AcDbEntity
  8
08-99
100
AcDbText
 10
265.5028293382777
 20
12.01760321297985
 30
0.0
 40
2.7
  1
Ident-Nr.
 51
15.0
  7
ROMANS8
100
AcDbText
  0
TEXT
  5
BC
330
88
100
AcDbEntity
  8
08-99
100
AcDbText
 10
180.5000236238784
 20
33.05557748053161
 30
0.0
 40
2.5
  1
Name:
 51
15.0
  7
ROMANS8
100
AcDbText
  0
TEXT
  5
BD
330
88
100
AcDbEntity
  8
08-99
100
AcDbText
 10
166.5077710332552
 20
33.04841847975365
 30
0.0
 40
2.5
  1
Datum:
 50
0.102528160689452
 41
0.8933771909280748
 51
15.0
  7
ROMANS8
 72
     5
 11
177.6749680403372
 21
33.06840168621363
 31
0.0
100
AcDbText
  0
TEXT
  5
BE
330
88
100
AcDbEntity
  8
08-99
100
AcDbText
 10
116.5000099724457
 20
33.05597761772907
 30
0.0
 40
1.6
  1
Änderung:
 51
15.0
  7
ROMANS8
100
AcDbText
  0
TEXT
  5
BF
330
88
100
AcDbEntity
  8
08-99
100
AcDbText
 10
133.4999399664632
 20
9.111119817911628
 30
0.0
 40
1.0
  1
ERSETZT.DURCH:
 51
15.0
  7
ROMANS8
100
AcDbText
  0
TEXT
  5
C0
330
88
100
AcDbEntity
  8
08-99
100
AcDbText
 10
108.499362706382
 20
9.110854721685427
 30
0.0
 40
1.0
  1
ERSETZT.FÜR:
 51
15.0
  7
ROMANS8
100
AcDbText
  0
TEXT
  5
C1
330
88
100
AcDbEntity
  8
08-99
100
AcDbText
 10
232.9909087328646
 20
12.61295738281296
 30
0.0
 40
2.112
  1
AUFTRAGS.NR.:
 51
15.0
  7
ROMANS8
100
AcDbText
  0
TEXT
  5
C2
330
88
100
AcDbEntity
  8
08-99
100
AcDbText
 10
203.5034660957227
 20
12.61092917477953
 30
0.0
 40
2.112
  1
Sonder-Nr:
 51
15.0
  7
ROMANS8
100
AcDbText
  0
TEXT
  5
C3
330
88
100
AcDbEntity
  8
08-99
100
AcDbText
 10
186.6963093857886
 20
49.92370902579148
 30
0.0
 40
1.349999999999999
  1
Format
 51
15.0
  7
ROMANS8
100
AcDbText
  0
TEXT
  5
C4
330
88
100
AcDbEntity
  8
08-99
100
AcDbText
 10
185.3043816374782
 20
44.64161931184992
 30
0.0
 40
1.822499999999999
  1
Normen
 51
15.0
  7
ROMANS8
100
AcDbText
  0
TEXT
  5
C5
330
88
100
AcDbEntity
  8
08-99
100
AcDbText
 10
108.5000314946119
 20
33.0555683543073
 30
0.0
 40
1.6
  1
Zust.
 51
15.0
  7
ROMANS8
100
AcDbText
  0
TEXT
  5
C6
330
88
100
AcDbEntity
  8
08-99
100
AcDbText
 10
136.5031825918795
 20
33.05555977024574
 30
0.0
 40
1.6
  1
Datum:
 51
15.0
  7
ROMANS8
100
AcDbText
  0
TEXT
  5
C7
330
88
100
AcDbEntity
  8
08-99
100
AcDbText
 10
148.5032155076424
 20
33.05556457669462
 30
0.0
 40
1.6
  1
Name:
 51
15.0
  7
ROMANS8
100
AcDbText
  0
TEXT
  5
C8
330
88
100
AcDbEntity
  8
08-99
100
AcDbText
 10
158.1545563363015
 20
28.03814008669803
 30
0.0
 40
1.6
  1
Erst.
 51
15.0
  7
ROMANS8
100
AcDbText
  0
TEXT
  5
C9
330
88
100
AcDbEntity
  8
08-99
100
AcDbText
 10
157.517182253021
 20
23.19745157817022
 30
0.0
 40
1.6
  1
Bearb.
 51
15.0
  7
ROMANS8
100
AcDbText
  0
TEXT
  5
CA
330
88
100
AcDbEntity
  8
08-99
100
AcDbText
 10
236.4308068024784
 20
41.61949801145603
 30
0.0
 40
2.0
  1
Zuschnittsbreite:
 51
15.0
  7
ROMANS8
100
AcDbText
  0
TEXT
  5
CB
330
88
100
AcDbEntity
  8
08-99
100
AcDbText
 10
202.9849966647425
 20
41.73762414686279
 30
0.0
 40
2.0
  1
Zuschnittslänge:
 51
15.0
  7
ROMANS8
100
AcDbText
  0
LWPOLYLINE
  5
CC
330
88
100
AcDbEntity
  8
06-99
100
AcDbPolyline
 90
      133
 70
     1
 43
0.010692
 10
180.7675417027103
 20
18.87656536808259
 10
181.0090490347104
 20
19.08724766408261
 10
180.9228536947104
 20
19.2262579200825
 10
180.8242663267103
 20
19.35180694808264
 10
180.7136290747105
 20
19.46394108008263
 10
180.5912983387103
 20
19.56271377608249
 10
180.4576162627104
 20
19.64816424008256
 10
180.3129285547104
 20
19.72033880408253
 10
180.1575880507104
 20
19.77929092808256
 10
179.9919368947105
 20
19.82505981608255
 10
179.8163243587104
 20
19.85769180008265
 10
179.6310997147105
 20
19.87724034008261
 10
179.4366086707105
 20
19.88374464008257
 10
179.2756833787104
 20
19.87768227608256
 10
179.1199437067102
 20
19.85975892008253
 10
178.9697211067105
 20
19.83036304808269
 10
178.8253505947104
 20
19.78989026408254
 10
178.6871636227104
 20
19.73873617208267
 10
178.5554845147104
 20
19.67729281208255
 10
178.4306554147105
 20
19.60595222408256
 10
178.3130006467104
 20
19.52510644808251
 10
178.2028516627103
 20
19.43514752408259
 10
178.1005470427104
 20
19.33647462008258
 10
178.0064075467105
 20
19.2294726480826
 10
177.9207717547105
 20
19.1145443400826
 10
177.8439711187104
 20
18.99207460808259
 10
177.7763335267104
 20
18.86245905608262
 10
177.7181939947104
 20
18.72608972408255
 10
177.6698804107104
 20
18.58336578008254
 10
177.6317242267105
 20
18.43467213608255
 10
177.6040640227103
 20
18.28040796008252
 10
177.5872205587104
 20
18.12096172808259
 10
177.5815359787104
 20
17.95672904408258
 10
177.5871492787104
 20
17.78762437208263
 10
177.6038002867105
 20
17.62428981608258
 10
177.6311896267102
 20
17.46704257208256
 10
177.6690179227102
 20
17.31619627208249
 10
177.7169893627103
 20
17.17206454808257
 10
177.7748081347105
 20
17.0349610320826
 10
177.8421784267104
 20
16.90519579208256
 10
177.9188008627104
 20
16.78308602408253
 10
178.0043796307104
 20
16.66894179608255
 10
178.0986224827104
 20
16.56308030408257
 10
178.2012229147103
 20
16.46581161608259
 10
178.3118958067103
 20
16.3774529280825
 10
178.4303346547105
 20
16.29831430808264
 10
178.5562472107103
 20
16.22870938808262
 10
178.6893340987103
 20
16.16895536408253
 10
178.8293030707103
 20
16.11936230408258
 10
178.9758511867105
 20
16.08024384008263
 10
179.1286897627103
 20
16.05191360408264
 10
179.2875122947104
 20
16.03468522808259
 10
179.4520300987104
 20
16.02887234408263
 10
179.6160275587104
 20
16.03412568008258
 10
179.7733603387104
 20
16.04976451208262
 10
179.9238395467104
 20
16.07559638408259
 10
180.0672762907103
 20
16.11142884008262
 10
180.2034852427104
 20
16.15707298808257
 10
180.3322739467103
 20
16.21233993608257
 10
180.4534570747104
 20
16.27703722808258
 10
180.5668386067104
 20
16.3509795360826
 10
180.6722403427104
 20
16.43397440408256
 10
180.7694626987104
 20
16.52582581208259
 10
180.8583239107104
 20
16.62635556008257
 10
180.9386350867105
 20
16.73536050008255
 10
181.0102037707104
 20
16.85266243208258
 10
181.0728410707104
 20
16.97806177208258
 10
181.1263616587105
 20
17.11137319208251
 10
181.1705766427103
 20
17.25240423608255
 10
181.2052900027104
 20
17.40096601208256
 10
181.2303235387104
 20
17.55686962808261
 10
181.2454812307105
 20
17.71992619208254
 10
181.2505741867103
 20
17.88993968408255
 10
181.2505741867103
 20
17.88993968408255
 10
181.2505741867103
 20
17.9413218720826
 10
179.6164659307104
 20
17.9413218720826
 10
179.6164659307104
 20
17.65355025608255
 10
180.8857275067103
 20
17.65355025608255
 10
180.8749891747103
 20
17.49100690808257
 10
180.8476568587103
 20
17.33636138408258
 10
180.8044362307105
 20
17.19027658808261
 10
180.7460329627104
 20
17.05341898808257
 10
180.6731598547105
 20
16.9264443600826
 10
180.5865261427104
 20
16.8100263000826
 10
180.4868303707104
 20
16.7048170200826
 10
180.3747889027104
 20
16.61149011608256
 10
180.2511074107103
 20
16.53069780008258
 10
180.1164915667104
 20
16.4631101040826
 10
179.9716506067103
 20
16.40938636808255
 10
179.8172937667104
 20
16.37019306008267
 10
179.6541267187105
 20
16.34618952008253
 10
179.4828586987105
 20
16.33804221608261
 10
179.3181983347104
 20
16.34599350008256
 10
179.1599032747103
 20
16.36937690408251
 10
179.0085651427103
 20
16.40748319208256
 10
178.8647719987102
 20
16.45960669208256
 10
178.7291047747104
 20
16.52503816808257
 10
178.6021550947103
 20
16.60306838408263
 10
178.4845074547104
 20
16.69299523208258
 10
178.3767534787104
 20
16.79410591208267
 10
178.2794776627105
 20
16.90569475208258
 10
178.1932645027103
 20
17.02705608008256
 10
178.1187056227104
 20
17.15747709608257
 10
178.0563855187104
 20
17.29625569208258
 10
178.0068922507104
 20
17.44268263208255
 10
177.9708138787102
 20
17.59604511608262
 10
177.9487348987103
 20
17.75564460008269
 10
177.9412469347104
 20
17.9207682840825
 10
177.9476336227105
 20
18.0891423360826
 10
177.9665370787104
 20
18.25115464808255
 10
177.9975581347105
 20
18.40630626008254
 10
178.0403011867104
 20
18.55410177608257
 10
178.0943741947103
 20
18.69404580008256
 10
178.1593779907104
 20
18.8256465000826
 10
178.2349169707104
 20
18.94840135208261
 10
178.3205990947104
 20
19.06182208808258
 10
178.4160251947103
 20
19.16540618408265
 10
178.5208067947103
 20
19.25866180808253
 10
178.6345375987105
 20
19.3410900000826
 10
178.7568326947105
 20
19.4121989280826
 10
178.8872893507102
 20
19.47148963208258
 10
179.0255155267105
 20
19.51846671608257
 10
179.1711191827105
 20
19.55263478408255
 10
179.3236975867105
 20
19.57350200408257
 10
179.4828586987105
 20
19.5805658520826
 10
179.6605633027104
 20
19.57164872408259
 10
179.8303166227105
 20
19.54501138808257
 10
179.9917800787104
 20
19.50082135208259
 10
180.1446150907104
 20
19.43924612408256
 10
180.2884830787104
 20
19.36046034008256
 10
180.4230490267105
 20
19.26462794408263
 10
180.5479743547104
 20
19.15192357208258
 10
180.6629169187105
 20
19.02251116808264
  0
LWPOLYLINE
  5
D1
330
88
100
AcDbEntity
  8
06-99
100
AcDbPolyline
 90
       12
 70
     1
 43
0.010692
 10
177.4389973627103
 20
12.25281434408265
 10
179.3222648587105
 20
12.25281434408265
 10
179.4676012147104
 20
13.00768023608259
 10
178.5648720907104
 20
13.00768023608259
 10
178.6210549867103
 20
13.29950768408252
 10
179.4187173907104
 20
13.29950768408252
 10
179.5558030867103
 20
14.01156280808254
 10
178.7581406827103
 20
14.01156280808254
 10
178.8098471947103
 20
14.28005674808253
 10
179.6892285547103
 20
14.28005674808253
 10
179.8345542187104
 20
15.0349083840826
 10
177.9746344867104
 20
15.0349083840826
  0
LWPOLYLINE
  5
D2
330
88
100
AcDbEntity
  8
06-99
100
AcDbPolyline
 90
        4
 70
     1
 43
0.010692
 10
163.6086138067104
 20
12.88042761608255
 10
176.0658630067103
 20
12.88042761608255
 10
175.9422848707104
 20
12.25209798008257
 10
163.4850392347104
 20
12.25209798008257
  0
SOLID
  5
D3
330
88
100
AcDbEntity
  8
06-99
100
AcDbTrace
 10
163.6086138067104
 20
12.88042761608255
 30
0.0
 11
176.0658630067103
 21
12.88042761608255
 31
0.0
 12
163.4850392347104
 22
12.25209798008257
 32
0.0
 13
175.9422848707104
 23
12.25209798008257
 33
0.0
  0
LWPOLYLINE
  5
D4
330
88
100
AcDbEntity
  8
06-99
100
AcDbPolyline
 90
       10
 70
     1
 43
0.010692
 10
169.3458447787104
 20
16.02887234408263
 10
170.3221847587103
 20
19.10266909208258
 10
171.3396497347103
 20
16.02887234408263
 10
172.5678005707104
 20
19.80153385208257
 10
172.2235110427103
 20
19.80153385208257
 10
171.3396497347103
 20
16.89303186008254
 10
170.3221847587103
 20
19.94541253208251
 10
169.3458447787104
 20
16.86733898408261
 10
168.4260120187104
 20
19.80153385208257
 10
168.0765832027105
 20
19.80153385208257
  0
LWPOLYLINE
  5
D5
330
88
100
AcDbEntity
  8
06-99
100
AcDbPolyline
 90
        3
 70
     1
 43
0.010692
 10
174.3244177627104
 20
17.65868598008262
 10
174.9770360587104
 20
19.25683347608253
 10
175.6039650427103
 20
17.65868598008262
  0
LWPOLYLINE
  5
D6
330
88
100
AcDbEntity
  8
06-99
100
AcDbPolyline
 90
        7
 70
     1
 43
0.010692
 10
173.3831831827104
 20
16.12735992008254
 10
173.7231959107104
 20
16.12735992008254
 10
174.2113641187103
 20
17.37092862008256
 10
175.7118651427105
 20
17.37092862008256
 10
176.1794940187103
 20
16.12735992008254
 10
176.5443406987103
 20
16.12735992008254
 10
174.9975932107104
 20
19.94541253208251
  0
LWPOLYLINE
  5
D7
330
88
100
AcDbEntity
  8
06-99
100
AcDbPolyline
 90
        8
 70
     1
 43
0.010692
 10
185.9298068107102
 20
12.25281434408265
 10
187.0043813227103
 20
12.25281434408265
 10
187.1574087907104
 20
12.60301298408257
 10
187.9122746827104
 20
12.60301298408257
 10
187.9343465347103
 20
12.25281434408265
 10
189.0082759627103
 20
12.25281434408265
 10
188.5711513627103
 20
15.0349083840826
 10
187.4583137467103
 20
15.0349083840826
  0
LWPOLYLINE
  5
D8
330
88
100
AcDbEntity
  8
06-99
100
AcDbPolyline
 90
       34
 70
     1
 43
0.010692
 10
183.0434586427104
 20
13.66137842408255
 10
183.0784820707102
 20
13.66137842408255
 10
183.0642260707104
 20
13.48699903208262
 10
183.0638019547103
 20
13.33510135208257
 10
183.0679005547104
 20
13.20222830408261
 10
183.0952328707104
 20
12.25281434408265
 10
183.9668304547102
 20
12.25281434408265
 10
185.3156904067102
 20
15.0349083840826
 10
184.3118078347104
 20
15.0349083840826
 10
183.8579146147103
 20
13.80923096408253
 10
183.8078119027104
 20
13.66872739208253
 10
183.7488419587103
 20
13.48671391208251
 10
183.6900288307102
 20
13.26059949608265
 10
183.6666953227103
 20
13.26059949608265
 10
183.6884214667103
 20
13.45803440408258
 10
183.6929798227104
 20
13.61569507208253
 10
183.6919391347103
 20
13.73531360408259
 10
183.6775548307103
 20
15.0349083840826
 10
182.9732870467103
 20
15.0349083840826
 10
182.4584850667104
 20
13.73531360408259
 10
182.4113832427102
 20
13.61569507208253
 10
182.3552288587104
 20
13.45803440408258
 10
182.3009241907103
 20
13.26059949608265
 10
182.2775906827103
 20
13.26059949608265
 10
182.3058460747104
 20
13.48671391208251
 10
182.3169657547104
 20
13.66872739208253
 10
182.3209609987103
 20
13.80923096408253
 10
182.3390340427103
 20
15.0349083840826
 10
181.3345063867103
 20
15.0349083840826
 10
181.6127371747104
 20
12.25281434408265
 10
182.4843311947103
 20
12.25281434408265
 10
182.8772408107104
 20
13.20222830408261
 10
182.9325148867103
 20
13.33510135208257
 10
182.9905795747104
 20
13.48699903208262
  0
LWPOLYLINE
  5
D9
330
88
100
AcDbEntity
  8
06-99
100
AcDbPolyline
 90
       10
 70
     1
 43
0.010692
 10
187.4520696187103
 20
13.2644842560826
 10
187.5983611267103
 20
13.57965946808258
 10
187.6731124627104
 20
13.74409530008267
 10
187.7541542587104
 20
13.9457107800826
 10
187.8288307507103
 20
14.19056470808266
 10
187.8482901907103
 20
14.19056470808266
 10
187.8286668067103
 20
13.9457107800826
 10
187.8320739907103
 20
13.74409530008267
 10
187.8435073027103
 20
13.57965946808258
 10
187.8684125347105
 20
13.2644842560826
  0
LWPOLYLINE
  5
DA
330
88
100
AcDbEntity
  8
06-99
100
AcDbPolyline
 90
       23
 70
     1
 43
0.010692
 10
190.5867074107104
 20
12.25281434408265
 10
191.5672422187102
 20
12.25281434408265
 10
191.7440380027103
 20
13.17110389208255
 10
192.0536284267105
 20
12.25281434408265
 10
193.1742391267103
 20
12.25281434408265
 10
192.6490694707104
 20
13.38511496408256
 10
192.8084301667104
 20
13.42380931208259
 10
192.9537023707103
 20
13.49881725608259
 10
193.0813505947103
 20
13.60690268408257
 10
193.1878322227103
 20
13.74481879208258
 10
193.2696010747103
 20
13.90932234008255
 10
193.3231145347102
 20
14.09717008808257
 10
193.3446018907103
 20
14.26809240008259
 10
193.3403037067103
 20
14.42330103608265
 10
193.3102306747104
 20
14.56226139608259
 10
193.2543934867102
 20
14.6844353160825
 10
193.1728099627103
 20
14.78928819608262
 10
193.0654943587103
 20
14.87627830808259
 10
192.9324538027104
 20
14.94487461608258
 10
192.7737096787102
 20
14.99453539208264
 10
192.5892655507103
 20
15.0247260360826
 10
192.3791463667103
 20
15.0349083840826
 10
191.1223445347103
 20
15.0349083840826
  0
LWPOLYLINE
  5
DB
330
88
100
AcDbEntity
  8
06-99
100
AcDbPolyline
 90
        9
 70
     1
 43
0.010692
 10
191.9650345147104
 20
14.31896493608258
 10
192.1206850867104
 20
14.31896493608258
 10
192.2773549627104
 20
14.28538492808252
 10
192.3582221227102
 20
14.19041145608264
 10
192.3632188507104
 20
14.04270147608258
 10
192.3008666707103
 20
13.89700159208263
 10
192.1832938747103
 20
13.8057810120826
 10
192.0158143867103
 20
13.77422179208253
 10
191.8601638147104
 20
13.77422179208253
  0
LWPOLYLINE
  5
DC
330
88
100
AcDbEntity
  8
06-99
100
AcDbPolyline
 90
       12
 70
     1
 43
0.010692
 10
187.5798033787105
 20
16.12735992008254
 10
189.3989010547104
 20
16.12735992008254
 10
189.3989010547104
 20
16.44082441208252
 10
187.9138214587104
 20
16.44082441208252
 10
187.9138214587104
 20
18.02353266008265
 10
189.3989010547104
 20
18.02353266008265
 10
189.3989010547104
 20
18.33699715208263
 10
187.9138214587104
 20
18.33699715208263
 10
187.9138214587104
 20
19.48806936008259
 10
189.3989010547104
 20
19.48806936008259
 10
189.3989010547104
 20
19.80153385208257
 10
187.5798033787105
 20
19.80153385208257
  0
LWPOLYLINE
  5
DD
330
88
100
AcDbEntity
  8
06-99
100
AcDbPolyline
 90
        8
 70
     1
 43
0.010692
 10
182.8530269947105
 20
16.12735992008254
 10
183.1870486387104
 20
16.12735992008254
 10
183.1870486387104
 20
19.09753336808256
 10
185.7666682747103
 20
16.01858664008256
 10
185.7666682747103
 20
19.80153385208257
 10
185.4326608867104
 20
19.80153385208257
 10
185.4326608867104
 20
16.88274615608259
 10
182.8530269947105
 20
19.95568398008254
  0
LWPOLYLINE
  5
DE
330
88
100
AcDbEntity
  8
06-99
100
AcDbPolyline
 90
       19
 70
     1
 43
0.010692
 10
191.4484255867105
 20
19.50862651208251
 10
191.7824329747104
 20
19.50862651208251
 10
191.9866180987103
 20
19.50030813608259
 10
192.1604486347104
 20
19.47385969208255
 10
192.3048975547104
 20
19.4270572440825
 10
192.4209200107105
 20
19.35767329208255
 10
192.5094818467105
 20
19.26348033608252
 10
192.5715453427103
 20
19.14225087608264
 10
192.6080799067104
 20
18.99175028408251
 10
192.6200442547104
 20
18.80976175208258
 10
192.6074490787103
 20
18.63100933208255
 10
192.5693784307105
 20
18.48586186808256
 10
192.5054188867104
 20
18.37130421608265
 10
192.4151392027104
 20
18.28432836008261
 10
192.2981259547105
 20
18.2219227200826
 10
192.1539514627104
 20
18.18107215208255
 10
191.9821916107103
 20
18.15877220408265
 10
191.7824329747104
 20
18.15200773208261
 10
191.4484255867105
 20
18.15200773208261
  0
LWPOLYLINE
  5
DF
330
88
100
AcDbEntity
  8
06-99
100
AcDbPolyline
 90
       29
 70
     1
 43
0.010692
 10
193.3446018907103
 20
16.12735992008254
 10
192.0239581267103
 20
17.87965398008259
 10
192.2123761147105
 20
17.89225272008264
 10
192.3829028227104
 20
17.92942167608254
 10
192.5344013347104
 20
17.99023064408266
 10
192.6657240427104
 20
18.0737565480826
 10
192.7757304667104
 20
18.17905849208256
 10
192.8632765627103
 20
18.3052169640826
 10
192.9272254147104
 20
18.45129463208263
 10
192.9664329787103
 20
18.61636129208261
 10
192.9797552107102
 20
18.79949030408261
 10
192.9699399547105
 20
18.9745539840826
 10
192.9404834947105
 20
19.13261738408261
 10
192.8913573187104
 20
19.27374822008261
 10
192.8225436067105
 20
19.39801420808248
 10
192.7340174107104
 20
19.50548662808262
 10
192.6257537827105
 20
19.5962367600826
 10
192.4977313387104
 20
19.67032875608254
 10
192.3499251307103
 20
19.72783389608258
 10
192.1823137747103
 20
19.76882702408261
 10
191.9948758867103
 20
19.79336872808261
 10
191.7875829547104
 20
19.80153385208257
 10
191.7875829547104
 20
19.80153385208257
 10
191.1144075067104
 20
19.80153385208257
 10
191.1144075067104
 20
16.12735992008254
 10
191.4484255867105
 20
16.12735992008254
 10
191.4484255867105
 20
17.87965398008259
 10
191.6488399987104
 20
17.87965398008259
 10
192.9386409067103
 20
16.12735992008254
  0
TEXT
  5
E0
330
88
100
AcDbEntity
  8
06-99
100
AcDbText
 10
172.6083599897699
 20
9.633209504468425
 30
0.0
 40
1.4256
  1
GmbH & Co KG
 41
1.199203187251
 51
15.0
  7
ROMAND8
 72
     5
 11
193.04195998977
 21
9.633209504468425
 31
0.0
100
AcDbText
  0
TEXT
  5
E2
330
88
100
AcDbEntity
  8
06-99
100
AcDbText
 10
172.7098167443538
 20
7.391016232044876
 30
0.0
 40
1.4256
  1
72774 Reutlingen
 50
0.5663244663116128
 41
1.087840993687879
 51
15.0
  7
ROMAND8
 72
     5
 11
192.9434167443538
 21
7.591016232044864
 31
0.0
100
AcDbText
  0
TEXT
  5
E3
330
88
100
AcDbEntity
  8
08-99
100
AcDbText
 10
160.4141200905478
 20
48.45009214919253
 30
0.0
 40
2.25
  1
Zul. Abw.
 51
15.0
  7
ROMANS8
100
AcDbText
  0
TEXT
  5
E4
330
88
100
AcDbEntity
  8
08-99
100
AcDbText
 10
210.2099282109939
 20
49.2861646781227
 30
0.0
 40
2.0
  1
Mat. Art.
 51
15.0
  7
ROMANS8
100
AcDbText
  0
TEXT
  5
E5
330
88
100
AcDbEntity
  8
08-99
100
AcDbText
 10
242.4865328610831
 20
49.40431390209392
 30
0.0
 40
2.0
  1
Oberfläche:
 51
15.0
  7
ROMANS8
100
AcDbText
  0
TEXT
  5
E6
330
88
100
AcDbEntity
  8
08-99
100
AcDbText
 10
270.2625397292909
 20
41.73764723542717
 30
0.0
 40
2.0
  1
Blech Dicke:
 51
15.0
  7
ROMANS8
100
AcDbText
  0
TEXT
  5
E7
330
88
100
AcDbEntity
  8
08-99
100
AcDbText
 10
274.438029919268
 20
49.28616467812275
 30
0.0
 40
2.0
  1
Maßstab:
 51
15.0
  7
ROMANS8
100
AcDbText
  0
LINE
  5
E8
330
88
100
AcDbEntity
  8
01-99
100
AcDbLine
 10
202.0000018907103
 20
46.88888940774922
 30
0.0
 11
179.0000018907103
 21
46.88888940774922
 31
0.0
  0
LINE
  5
E9
330
88
100
AcDbEntity
  8
01-99
100
AcDbLine
 10
202.0000018907103
 20
44.33333385208249
 30
0.0
 11
179.0000018907103
 21
44.33333385208249
 31
0.0
  0
LINE
  5
EA
330
88
100
AcDbEntity
  8
01-99
100
AcDbLine
 10
202.0000018907103
 20
40.50000051874917
 30
0.0
 11
179.0000018907103
 21
40.50000051874917
 31
0.0
  0
ATTDEF
  5
EB
330
88
100
AcDbEntity
  8
06-99
100
AcDbText
 10
203.4954486298875
 20
26.18783921603142
 30
0.0
 40
4.5
  1

 41
0.9
  7
ROMANS8
100
AcDbAttributeDefinition
280
     0
  3
Benennung/Teil
  2
TEILE
 70
     0
280
     0
  0
ATTDEF
  5
EC
330
88
100
AcDbEntity
  8
06-99
100
AcDbText
 10
179.9970696900777
 20
27.4416859867805
 30
0.0
 40
2.5
  1

 41
0.9
  7
ROMANS8
100
AcDbAttributeDefinition
280
     0
  3
Name
  2
NAME
 70
     0
280
     0
  0
ATTDEF
  5
ED
330
88
100
AcDbEntity
  8
06-99
100
AcDbText
 10
166.4931483426044
 20
27.46123569286044
 30
0.0
 40
2.5
  1

 50
359.9144597696142
 41
0.9542572414211148
  7
ROMANS8
 72
     5
 11
177.7397390111491
 21
27.44444498541589
 31
0.0
100
AcDbAttributeDefinition
280
     0
  3
Datum
  2
DATUM
 70
     0
280
     0
  0
ATTDEF
  5
EE
330
88
100
AcDbEntity
  8
06-99
100
AcDbText
 10
278.3473881024249
 20
45.33333385208254
 30
0.0
 40
3.375
  1

  7
ROMANS8
100
AcDbAttributeDefinition
280
     0
  3
Maßstab
  2
:
 70
     0
280
     0
  0
ATTDEF
  5
EF
330
88
100
AcDbEntity
  8
06-99
100
AcDbText
 10
265.5063458578686
 20
7.492900319037914
 30
0.0
 40
2.99376
  1

  7
ROMANS8
100
AcDbAttributeDefinition
280
     0
  3
Ident-Nummer
  2
ID.NR
 70
     0
280
     0
  0
ATTDEF
  5
F0
330
88
100
AcDbEntity
  8
06-99
100
AcDbText
 10
203.5000018907104
 20
7.500000518749232
 30
0.0
 40
3.168
  1

 41
0.9
  7
ROMANS8
100
AcDbAttributeDefinition
280
     0
  3
Sonder-NR,WPS
  2
SONDER-NR
 70
     0
280
     0
  0
ATTDEF
  5
F1
330
88
100
AcDbEntity
  8
06-99
100
AcDbText
 10
233.0006357775904
 20
7.504397123103842
 30
0.0
 40
3.168
  1

 41
0.9
  7
ROMANS8
100
AcDbAttributeDefinition
280
     0
  3
Auftrags Nr.
  2
AUFTRAGS.NR.
 70
     0
280
     0
  0
ATTDEF
  5
F2
330
88
100
AcDbEntity
  8
06-99
100
AcDbText
 10
203.7312681464209
 20
37.66666716319367
 30
0.0
 40
3.0
  1

 41
0.9
  7
ROMANS8
100
AcDbAttributeDefinition
280
     0
  3
Zuschnitts.Länge
  2
LÄNGE
 70
     0
280
     0
  0
ATTDEF
  5
F3
330
88
100
AcDbEntity
  8
06-99
100
AcDbText
 10
237.1808068024801
 20
37.67810438919397
 30
0.0
 40
3.0
  1

 41
0.9
  7
ROMANS8
100
AcDbAttributeDefinition
280
     0
  3
Zuschnitts Breite
  2
BREITE
 70
     0
280
     0
  0
ATTDEF
  5
F4
330
88
100
AcDbEntity
  8
06-99
100
AcDbText
 10
277.6090940174422
 20
37.66666718541598
 30
0.0
 40
3.09375
  1

  7
ROMANS8
100
AcDbAttributeDefinition
280
     0
  3
Blech.Dicke
  2
1.0
 70
     0
280
     0
  0
ATTDEF
  5
F5
330
88
100
AcDbEntity
  8
06-99
100
AcDbText
 10
251.127787492113
 20
45.33333385208266
 30
0.0
 40
3.0
  1

  7
ROMANS8
 72
     1
 11
251.127787492113
 21
45.33333385208266
 31
0.0
100
AcDbAttributeDefinition
280
     0
  3
Oberfläche
  2
IV
 70
     0
280
     0
  0
ATTDEF
  5
F6
330
88
100
AcDbEntity
  8
06-99
100
AcDbText
 10
108.4994696709088
 20
6.597456916621638
 30
0.0
 40
1.5
  1

 41
0.9
  7
ROMANS8
100
AcDbAttributeDefinition
280
     0
  3
ERSETZT.Für
  2
ERSETZT.FÜR
 70
     0
280
     0
  0
ATTDEF
  5
F7
330
88
100
AcDbEntity
  8
06-99
100
AcDbText
 10
133.4997528857186
 20
6.601810588009072
 30
0.0
 40
1.5
  1

 41
0.9
  7
ROMANS8
100
AcDbAttributeDefinition
280
     0
  3
ERSETZT.Durch
  2
ERSETZT.DURCH
 70
     0
280
     0
  0
ATTDEF
  5
F8
330
88
100
AcDbEntity
  8
06-99
100
AcDbText
 10
179.8151068265501
 20
41.15194203145942
 30
0.0
 40
2.34
  1
DIN 6930-M
  7
ROMANS8
 72
     1
 11
190.5122496836929
 21
41.15194203145942
 31
0.0
100
AcDbAttributeDefinition
280
     0
  3
Norm / Fräsen
  2
NORM1
 70
     0
280
     0
  0
ATTDEF
  5
F9
330
88
100
AcDbEntity
  8
06-99
100
AcDbText
 10
182.9908211122643
 20
37.31860869812611
 30
0.0
 40
2.34
  1
DIN 2768
  7
ROMANS8
 72
     1
 11
191.0136782551214
 21
37.31860869812611
 31
0.0
100
AcDbAttributeDefinition
280
     0
  3
Norm / Kanten
  2
NORM2
 70
     0
280
     0
  0
ATTDEF
  5
FA
330
88
100
AcDbEntity
  8
06-99
100
AcDbText
 10
186.9730745371479
 20
47.66851165875721
 30
0.0
 40
1.287
  1
DIN A4
  7
ROMANS8
 72
     1
 11
190.2518602514336
 21
47.66851165875721
 31
0.0
100
AcDbAttributeDefinition
280
     0
  3
Format
  2
FORMAT
 70
     0
280
     0
  0
ATTDEF
  5
FB
330
88
100
AcDbEntity
  8
06-99
100
AcDbText
 10
210.2747424268261
 20
45.33333385208249
 30
0.0
 40
3.375
  1
1.4301
  7
ROMANS8
100
AcDbAttributeDefinition
280
     0
  3
Mat.Art
  2
1.4301
 70
     0
280
     0
  0
ATTDEF
  5
FC
330
88
100
AcDbEntity
  8
06-99
100
AcDbText
 10
203.4954486298875
 20
18.95060400366537
 30
0.0
 40
4.5
  1

 41
0.9
  7
ROMANS8
100
AcDbAttributeDefinition
280
     0
  3
Benennung/Teil2
  2
TEILE2
 70
     0
280
     0
  0
ENDBLK
  5
FD
330
88
100
AcDbEntity
  8
0
100
AcDbBlockEnd
  0
BLOCK
  5
140
330
13F
100
AcDbEntity
  8
0
100
AcDbBlockBegin
  2
*D11
 70
     1
 10
0.0
 20
0.0
 30
0.0
  3
*D11
  1

  0
LINE
  5
141
330
13F
100
AcDbEntity
  8
09-01
 62
     4
370
    -2
100
AcDbLine
 10
388.4789347205446
 20
493.8805582531023
 30
0.0
 11
436.2011032352659
 21
493.8805582531023
 31
0.0
  0
LINE
  5
142
330
13F
100
AcDbEntity
  8
09-01
 62
     4
370
    -2
100
AcDbLine
 10
417.3087583392875
 20
508.2567411060899
 30
0.0
 11
431.5425232337851
 21
514.8940546807717
 31
0.0
  0
ARC
  5
143
330
13F
100
AcDbEntity
  8
09-01
 62
     4
370
    -2
100
AcDbCircle
 10
386.4789347205445
 20
493.8805582531023
 30
0.0
 40
47.72216851472137
100
AcDbArc
 50
347.9883877164249
 51
353.9941938582125
  0
ARC
  5
144
330
13F
100
AcDbEntity
  8
09-01
 62
     4
370
    -2
100
AcDbCircle
 10
386.4789347205445
 20
493.8805582531023
 30
0.0
 40
47.72216851472137
100
AcDbArc
 50
31.00580614178713
 51
37.01161228357467
  0
ARC
  5
145
330
13F
100
AcDbEntity
  8
09-01
 62
     4
370
    -2
100
AcDbCircle
 10
386.4789347205445
 20
493.8805582531023
 30
0.0
 40
47.72216851472137
100
AcDbArc
 50
0.0000000000000127
 51
24.9999999999996
  0
SOLID
  5
146
330
13F
100
AcDbEntity
  8
09-01
 62
     4
100
AcDbTrace
 10
433.1069813927653
 20
488.9310793069699
 30
0.0
 11
434.7713595289433
 21
488.8437683821662
 31
0.0
 12
434.2011032352659
 22
493.8805582531024
 32
0.0
 13
434.2011032352659
 23
493.8805582531024
 33
0.0
  0
SOLID
  5
147
330
13F
100
AcDbEntity
  8
09-01
 62
     4
100
AcDbTrace
 10
428.1180959992702
 20
518.8547007625678
 30
0.0
 11
426.64655632515
 21
518.0721735967339
 31
0.0
 12
429.7299076597119
 22
514.0488181572903
 32
0.0
 13
429.7299076597119
 23
514.0488181572903
 33
0.0
  0
MTEXT
  5
148
330
13F
100
AcDbEntity
  8
09-01
 62
     1
100
AcDbMText
 10
437.4632293246112
 20
505.1835042454391
 30
0.0
 40
5.0
 41
0.0
 46
0.0
 71
     5
 72
     1
  1
25\U+00B0
 11
0.216439613938101
 21
-0.9762960071199337
 31
0.0
 73
     1
 44
1.0
  0
POINT
  5
149
330
13F
100
AcDbEntity
  8
Defpoints
 62
     0
100
AcDbPoint
 10
433.6972353323864
 20
500.7970208661145
 30
0.0
  0
POINT
  5
14A
330
13F
100
AcDbEntity
  8
Defpoints
 62
     0
100
AcDbPoint
 10
275.5984054082501
 20
493.8805582531023
 30
0.0
  0
POINT
  5
14B
330
13F
100
AcDbEntity
  8
Defpoints
 62
     0
100
AcDbPoint
 10
394.5158786844552
 20
497.6282467716364
 30
0.0
  0
POINT
  5
14C
330
13F
100
AcDbEntity
  8
Defpoints
 62
     0
100
AcDbPoint
 10
415.4961427652143
 20
507.4115045826085
 30
0.0
  0
POINT
  5
14D
330
13F
100
AcDbEntity
  8
Defpoints
 62
     0
100
AcDbPoint
 10
377.6111482148272
 20
493.8805582531023
 30
0.0
  0
ENDBLK
  5
14E
330
13F
100
AcDbEntity
  8
0
100
AcDbBlockEnd
  0
BLOCK
  5
131
330
130
100
AcDbEntity
  8
0
100
AcDbBlockBegin
  2
*D12
 70
     1
 10
0.0
 20
0.0
 30
0.0
  3
*D12
  1

  0
LINE
  5
132
330
130
100
AcDbEntity
  8
0
 62
     4
370
    -2
100
AcDbLine
 10
409.9720577891224
 20
519.7311833599514
 30
0.0
 11
401.0237889341508
 21
538.9208078460183
 31
0.0
  0
LINE
  5
133
330
130
100
AcDbEntity
  8
0
 62
     4
370
    -2
100
AcDbLine
 10
382.7828241780229
 20
507.0526355077307
 30
0.0
 11
373.8345553230514
 21
526.2422599937974
 31
0.0
  0
LINE
  5
134
330
130
100
AcDbEntity
  8
0
 62
     4
370
    -2
100
AcDbLine
 10
394.5727597136727
 20
532.050820801159
 30
0.0
 11
383.2439123757146
 21
526.7680925294002
 31
0.0
  0
SOLID
  5
135
330
130
100
AcDbEntity
  8
0
 62
     4
100
AcDbTrace
 10
393.9564414153009
 20
533.372519657254
 30
0.0
 11
395.1890780120446
 21
530.7291219450639
 31
0.0
 12
402.5029528502433
 22
535.7487305913901
 32
0.0
 13
402.5029528502433
 23
535.7487305913901
 33
0.0
  0
SOLID
  5
136
330
130
100
AcDbEntity
  8
0
 62
     4
100
AcDbTrace
 10
382.6275940773427
 20
528.0897913854954
 30
0.0
 11
383.8602306740865
 21
525.4463936733052
 31
0.0
 12
375.3137192391438
 22
523.0701827391692
 32
0.0
 13
375.3137192391438
 23
523.0701827391692
 33
0.0
  0
MTEXT
  5
137
330
130
100
AcDbEntity
  8
0
 62
     1
100
AcDbMText
 10
385.5802172334856
 20
536.5466304881932
 30
0.0
 40
8.75
 41
0.0
 46
0.0
 71
     5
 72
     1
  1
30
 11
0.906307787036652
 21
0.422618261740695
 31
0.0
 73
     1
 44
1.0
  0
POINT
  5
138
330
130
100
AcDbEntity
  8
Defpoints
 62
     0
100
AcDbPoint
 10
411.4512217052148
 20
516.5591061053232
 30
0.0
  0
POINT
  5
139
330
130
100
AcDbEntity
  8
Defpoints
 62
     0
100
AcDbPoint
 10
384.2619880941153
 20
503.8805582531024
 30
0.0
  0
POINT
  5
13A
330
130
100
AcDbEntity
  8
Defpoints
 62
     0
100
AcDbPoint
 10
375.3137192391438
 20
523.0701827391692
 30
0.0
  0
ENDBLK
  5
13B
330
130
100
AcDbEntity
  8
0
100
AcDbBlockEnd
  0
BLOCK
  5
122
330
121
100
AcDbEntity
  8
0
100
AcDbBlockBegin
  2
*D13
 70
     1
 10
0.0
 20
0.0
 30
0.0
  3
*D13
  1

  0
LINE
  5
123
330
121
100
AcDbEntity
  8
0
 62
     4
370
    -2
100
AcDbLine
 10
414.4420374024356
 20
517.9537463690676
 30
0.0
 11
436.9859080576793
 21
528.4661259000631
 31
0.0
  0
LINE
  5
124
330
121
100
AcDbEntity
  8
0
 62
     4
370
    -2
100
AcDbLine
 10
418.6682200198427
 20
508.8906684987009
 30
0.0
 11
441.2120906750862
 21
519.4030480296965
 31
0.0
  0
LINE
  5
125
330
121
100
AcDbEntity
  8
0
 62
     4
370
    -2
100
AcDbLine
 10
430.1159210128199
 20
534.9171551205414
 30
0.0
 11
426.4180112225889
 21
542.8473482571121
 31
0.0
  0
LINE
  5
126
330
121
100
AcDbEntity
  8
0
 62
     4
370
    -2
100
AcDbLine
 10
441.7379232106889
 20
509.9936909770333
 30
0.0
 11
445.4358330009199
 21
502.0634978404626
 31
0.0
  0
MTEXT
  5
127
330
121
100
AcDbEntity
  8
0
 62
     1
100
AcDbMText
 10
446.9049012825674
 20
528.7447568943882
 30
0.0
 40
8.75
 41
0.0
 46
0.0
 71
     5
 72
     1
  1
%%C10
 11
0.4226182617406895
 21
-0.9063077870366548
 31
0.0
 73
     1
 44
1.0
  0
LINE
  5
128
330
121
100
AcDbEntity
  8
0
 62
     4
370
    -2
100
AcDbLine
 10
433.8138308030509
 20
526.9869619839708
 30
0.0
 11
438.0400134204578
 21
517.9238841136041
 31
0.0
  0
SOLID
  5
129
330
121
100
AcDbEntity
  8
0
 62
     4
100
AcDbTrace
 10
431.4376198689151
 20
535.5334734189133
 30
0.0
 11
428.7942221567248
 21
534.3008368221696
 31
0.0
 12
433.8138308030509
 22
526.9869619839708
 32
0.0
 13
433.8138308030509
 23
526.9869619839708
 33
0.0
  0
SOLID
  5
12A
330
121
100
AcDbEntity
  8
0
 62
     4
100
AcDbTrace
 10
443.0596220667841
 20
510.6100092754052
 30
0.0
 11
440.4162243545938
 21
509.3773726786615
 31
0.0
 12
438.0400134204578
 22
517.9238841136041
 32
0.0
 13
438.0400134204578
 23
517.9238841136041
 33
0.0
  0
POINT
  5
12B
330
121
100
AcDbEntity
  8
Defpoints
 62
     0
100
AcDbPoint
 10
411.2699601478073
 20
516.4745824529752
 30
0.0
  0
POINT
  5
12C
330
121
100
AcDbEntity
  8
Defpoints
 62
     0
100
AcDbPoint
 10
415.4961427652144
 20
507.4115045826085
 30
0.0
  0
POINT
  5
12D
330
121
100
AcDbEntity
  8
Defpoints
 62
     0
100
AcDbPoint
 10
438.0400134204578
 20
517.9238841136041
 30
0.0
  0
ENDBLK
  5
12E
330
121
100
AcDbEntity
  8
0
100
AcDbBlockEnd
  0
BLOCK
  5
113
330
112
100
AcDbEntity
  8
0
100
AcDbBlockBegin
  2
*D14
 70
     1
 10
0.0
 20
0.0
 30
0.0
  3
*D14
  1

  0
LINE
  5
114
330
112
100
AcDbEntity
  8
0
 62
     4
370
    -2
100
AcDbLine
 10
275.6116191128663
 20
507.3805582531024
 30
0.0
 11
275.6116191128663
 21
522.0666413511607
 31
0.0
  0
LINE
  5
115
330
112
100
AcDbEntity
  8
0
 62
     4
370
    -2
100
AcDbLine
 10
415.6116191128663
 20
511.092766140016
 30
0.0
 11
415.6116191128663
 21
522.0666413511607
 31
0.0
  0
LINE
  5
116
330
112
100
AcDbEntity
  8
0
 62
     4
370
    -2
100
AcDbLine
 10
284.3616191128663
 20
518.5666413511608
 30
0.0
 11
406.8616191128662
 21
518.5666413511608
 31
0.0
  0
SOLID
  5
117
330
112
100
AcDbEntity
  8
0
 62
     4
100
AcDbTrace
 10
284.3616191128663
 20
520.0249746844941
 30
0.0
 11
284.3616191128663
 21
517.1083080178274
 31
0.0
 12
275.6116191128663
 22
518.5666413511608
 32
0.0
 13
275.6116191128663
 23
518.5666413511608
 33
0.0
  0
SOLID
  5
118
330
112
100
AcDbEntity
  8
0
 62
     4
100
AcDbTrace
 10
406.8616191128662
 20
520.0249746844941
 30
0.0
 11
406.8616191128662
 21
517.1083080178274
 31
0.0
 12
415.6116191128663
 22
518.5666413511608
 32
0.0
 13
415.6116191128663
 23
518.5666413511608
 33
0.0
  0
MTEXT
  5
119
330
112
100
AcDbEntity
  8
0
 62
     1
100
AcDbMText
 10
345.6116191128663
 20
526.4416413511607
 30
0.0
 40
8.75
 41
0.0
 46
0.0
 71
     5
 72
     1
  1
140
 73
     1
 44
1.0
  0
POINT
  5
11A
330
112
100
AcDbEntity
  8
Defpoints
 62
     0
100
AcDbPoint
 10
275.6116191128663
 20
503.8805582531024
 30
0.0
  0
POINT
  5
11C
330
112
100
AcDbEntity
  8
Defpoints
 62
     0
100
AcDbPoint
 10
415.6116191128663
 20
507.592766140016
 30
0.0
  0
POINT
  5
11D
330
112
100
AcDbEntity
  8
Defpoints
 62
     0
100
AcDbPoint
 10
415.6116191128663
 20
518.5666413511608
 30
0.0
  0
ENDBLK
  5
11E
330
112
100
AcDbEntity
  8
0
100
AcDbBlockEnd
  0
BLOCK
  5
151
330
150
100
AcDbEntity
  8
0
100
AcDbBlockBegin
  2
*D15
 70
     1
 10
0.0
 20
0.0
 30
0.0
  3
*D15
  1

  0
LINE
  5
152
330
150
100
AcDbEntity
  8
0
 62
     4
370
    -2
100
AcDbLine
 10
230.6116191128663
 20
507.3805582531024
 30
0.0
 11
230.6116191128663
 21
553.4089397690181
 31
0.0
  0
LINE
  5
153
330
150
100
AcDbEntity
  8
0
 62
     4
370
    -2
100
AcDbLine
 10
415.6116191128663
 20
511.092766140016
 30
0.0
 11
415.6116191128663
 21
553.4089397690181
 31
0.0
  0
LINE
  5
154
330
150
100
AcDbEntity
  8
0
 62
     4
370
    -2
100
AcDbLine
 10
239.3616191128663
 20
549.9089397690181
 30
0.0
 11
406.8616191128662
 21
549.9089397690181
 31
0.0
  0
SOLID
  5
155
330
150
100
AcDbEntity
  8
0
 62
     4
100
AcDbTrace
 10
239.3616191128663
 20
551.3672731023515
 30
0.0
 11
239.3616191128663
 21
548.4506064356848
 31
0.0
 12
230.6116191128663
 22
549.9089397690181
 32
0.0
 13
230.6116191128663
 23
549.9089397690181
 33
0.0
  0
SOLID
  5
156
330
150
100
AcDbEntity
  8
0
 62
     4
100
AcDbTrace
 10
406.8616191128662
 20
551.3672731023515
 30
0.0
 11
406.8616191128662
 21
548.4506064356848
 31
0.0
 12
415.6116191128663
 22
549.9089397690181
 32
0.0
 13
415.6116191128663
 23
549.9089397690181
 33
0.0
  0
MTEXT
  5
157
330
150
100
AcDbEntity
  8
0
 62
     1
100
AcDbMText
 10
323.1116191128663
 20
557.7839397690182
 30
0.0
 40
8.75
 41
0.0
 46
0.0
 71
     5
 72
     1
  1
185
 73
     1
 44
1.0
  0
POINT
  5
158
330
150
100
AcDbEntity
  8
Defpoints
 62
     0
100
AcDbPoint
 10
230.6116191128663
 20
503.8805582531024
 30
0.0
  0
POINT
  5
159
330
150
100
AcDbEntity
  8
Defpoints
 62
     0
100
AcDbPoint
 10
415.6116191128663
 20
507.592766140016
 30
0.0
  0
POINT
  5
15A
330
150
100
AcDbEntity
  8
Defpoints
 62
     0
100
AcDbPoint
 10
415.6116191128663
 20
549.9089397690181
 30
0.0
  0
ENDBLK
  5
15B
330
150
100
AcDbEntity
  8
0
100
AcDbBlockEnd
  0
ENDSEC
  0
SECTION
  2
ENTITIES
  0
MTEXT
  5
7A
102
{ACAD_REACTORS
330
7E
102
}
330
2
100
AcDbEntity
  8
09-01
 62
     1
100
AcDbMText
 10
293.3098355116795
 20
203.3773266406935
 30
0.0
 40
5.0
 41
0.0
 46
0.0
 71
     1
 72
     1
  1
Flexible Schläuche\P380mm lang
 73
     1
 44
1.0
  0
LEADER
  5
7E
330
2
100
AcDbEntity
  8
09-01
100
AcDbLeader
  3
Wagner
 73
     0
 74
     0
 75
     1
 76
     3
 10
265.111619670381
 20
168.0512132349328
 30
0.0
 10
286.3098355116795
 20
183.8773266406935
 30
0.0
 10
291.3098355116795
 20
183.8773266406935
 30
0.0
213
0.0
223
-2.5
233
0.0
1001
ACAD
1000
DSTYLE
1002
{
1070
    40
1040
2.0
1002
}
  0
LWPOLYLINE
  5
7F
330
2
100
AcDbEntity
  8
0
100
AcDbPolyline
 90
       12
 70
   128
 43
0.0
 10
770.7775751620271
 20
484.2795400502953
 10
770.6856672484585
 20
484.3356115542269
 10
769.990314271711
 20
484.6075074177522
 10
769.2582526694005
 20
484.6418850570977
 10
768.5261910670901
 20
484.4370206338776
 10
767.8308380903427
 20
484.003186905712
 10
767.2070616409532
 20
483.3621381072626
 10
766.6861404747578
 20
482.2139963130855
 10
766.2941957542072
 20
481.2637307158872
 10
766.0508812242081
 20
480.2269688116895
 10
765.9683976912877
 20
479.1556981715102
 10
766.0508812242083
 20
477.8234972671962
  0
LWPOLYLINE
  5
80
330
2
100
AcDbEntity
  8
0
100
AcDbPolyline
 90
        9
 70
   128
 43
0.0
 10
766.0508812242083
 20
477.8234972671962
 10
766.2941957542072
 20
476.8433998725955
 10
766.6861404747581
 20
475.9844126523157
 10
767.2070616409532
 20
475.2896088124001
 10
767.8308380903425
 20
474.79382871863
 10
768.5261910670903
 20
474.5219328551045
 10
769.2582526694005
 20
474.4875552157592
 10
769.990314271711
 20
474.6924196389793
 10
770.088588077712
 20
474.7387062760114
  0
LWPOLYLINE
  5
81
330
2
100
AcDbEntity
  8
0
100
AcDbPolyline
 90
       12
 70
   128
 43
0.0
 10
770.088588077712
 20
474.7387062760114
 10
770.6856672484587
 20
475.1262533671451
 10
771.309443697848
 20
475.7673021655945
 10
771.8303648640433
 20
476.5834211707866
 10
772.2223095845938
 20
477.5336867679849
 10
772.465624114593
 20
478.8505881834703
 10
772.5481076475131
 20
479.9218588236498
 10
772.465624114593
 20
480.973920216676
 10
772.2223095845937
 20
481.9540176112766
 10
771.8303648640434
 20
483.1450276205412
 10
771.309443697848
 20
483.8398314604568
 10
770.7775751620271
 20
484.2795400502953
  0
ARC
  5
82
330
2
100
AcDbEntity
  8
0
100
AcDbCircle
 10
735.637486020253
 20
488.8667329923584
 30
0.0
 40
20.0
100
AcDbArc
 50
255.0020389259243
 51
280.0020389259239
  0
LINE
  5
83
330
2
100
AcDbEntity
  8
0
100
AcDbLine
 10
739.1111504781869
 20
469.1707015333642
 30
0.0
 11
769.2582526694005
 21
474.4875552157592
 31
0.0
  0
ARC
  5
84
330
2
100
AcDbEntity
  8
0
100
AcDbCircle
 10
735.6374860202542
 20
488.8667329923585
 30
0.0
 40
10.0
100
AcDbArc
 50
255.0020389259247
 51
280.0020389259245
  0
LINE
  5
85
330
2
100
AcDbEntity
  8
0
100
AcDbLine
 10
769.2582526694005
 20
484.6418850570977
 30
0.0
 11
737.3743182492213
 21
479.0187172628614
 31
0.0
  0
LINE
  5
86
330
2
100
AcDbEntity
  8
05-01
100
AcDbLine
 10
377.6111482148272
 20
498.8805582531024
 30
0.0
 11
275.0490500926729
 21
498.9114331282221
 31
0.0
  0
INSERT
  5
87
330
2
100
AcDbEntity
  8
0
100
AcDbBlockReference
 66
     1
  2
DIN A4 Quer
 10
-0.0000053538296072
 20
-0.000001468916011
 30
0.0
 41
2.831649831649831
 42
2.831649831649831
 43
2.831649831649831
  0
ATTRIB
  5
FE
330
87
100
AcDbEntity
  8
06-99
100
AcDbText
 10
576.2278475004985
 20
74.15478903843224
 30
0.0
 40
12.74242424242424
  1
Waschtischarmatur WA 110-1
 41
0.8
  7
ROMANS8
100
AcDbAttribute
280
     0
  2
TEILE
 70
     0
280
     0
  0
ATTRIB
  5
FF
330
87
100
AcDbEntity
  8
06-99
100
AcDbText
 10
576.2278475004985
 20
53.66147316772573
 30
0.0
 40
12.74242424242424
  1
langer Bedienhebel
 41
0.9
  7
ROMANS8
100
AcDbAttribute
280
     0
  2
TEILE2
 70
     0
280
     0
  0
ATTRIB
  5
100
330
87
100
AcDbEntity
  8
06-99
100
AcDbText
 10
788.1823293065726
 20
128.3681257014591
 30
0.0
 40
9.556818181818181
  1
1:3
  7
ROMANS8
100
AcDbAttribute
280
     0
  2
:
 70
     0
280
     0
  0
ATTRIB
  5
101
330
87
100
AcDbEntity
  8
06-99
100
AcDbText
 10
509.6886667315422
 20
77.7052440357386
 30
0.0
 40
7.079124579124579
  1
Häberle
 41
0.9
  7
ROMANS8
100
AcDbAttribute
280
     0
  2
NAME
 70
     0
280
     0
  0
ATTRIB
  5
102
330
87
100
AcDbEntity
  8
06-99
100
AcDbText
 10
471.4502901213567
 20
77.76060195766856
 30
0.0
 40
7.079124579124579
  1
16.07.2014
 50
359.9144597696144
 41
0.565697406590962
  7
ROMANS8
 72
     5
 11
503.296696694576
 21
77.71305655376001
 31
0.0
100
AcDbAttribute
280
     0
  2
DATUM
 70
     0
280
     0
  0
ATTRIB
  5
103
330
87
100
AcDbEntity
  8
06-99
100
AcDbText
 10
751.8209941965659
 20
21.21726845805667
 30
0.0
 40
8.477280000000002
  1
925276
  7
ROMANS8
100
AcDbAttribute
280
     0
  2
ID.NR
 70
     0
280
     0
  0
ATTRIB
  5
104
330
87
100
AcDbEntity
  8
06-99
100
AcDbText
 10
576.89560579479
 20
106.6588102625517
 30
0.0
 40
8.494949494949496
  1

 41
0.9
  7
ROMANS8
100
AcDbAttribute
280
     0
  2
LÄNGE
 70
     0
280
     0
  0
ATTRIB
  5
105
330
87
100
AcDbEntity
  8
06-99
100
AcDbText
 10
671.6129862989845
 20
106.6911964816299
 30
0.0
 40
8.494949494949496
  1

 41
0.9
  7
ROMANS8
100
AcDbAttribute
280
     0
  2
BREITE
 70
     0
280
     0
  0
ATTRIB
  5
106
330
87
100
AcDbEntity
  8
06-99
100
AcDbText
 10
786.0917389851232
 20
106.6588103254773
 30
0.0
 40
8.760416666666669
  1

  7
ROMANS8
100
AcDbAttribute
280
     0
  2
1.0
 70
     0
280
     0
  0
ATTRIB
  5
107
330
87
100
AcDbEntity
  8
06-99
100
AcDbText
 10
711.105951820807
 20
128.3681257014595
 30
0.0
 40
8.494949494949494
  1

  7
ROMANS8
 72
     1
 11
711.105951820807
 21
128.3681257014595
 31
0.0
100
AcDbAttribute
280
     0
  2
IV
 70
     0
280
     0
  0
ATTRIB
  5
108
330
87
100
AcDbEntity
  8
06-99
100
AcDbText
 10
595.4244336393043
 20
128.3681257014591
 30
0.0
 40
9.556818181818181
  1
1.4301
  7
ROMANS8
100
AcDbAttribute
280
     0
  2
1.4301
 70
     0
280
     0
  0
ATTRIB
  5
109
330
87
100
AcDbEntity
  8
06-99
100
AcDbText
 10
659.7762057200883
 20
21.24982338135443
 30
0.0
 40
8.970666666666668
  1

 41
0.9000000000000001
  7
ROMANS8
100
AcDbAttribute
280
     0
  2
AUFTRAGS.NR.
 70
     0
280
     0
  0
ATTRIB
  5
10A
330
87
100
AcDbEntity
  8
06-99
100
AcDbText
 10
576.2407407407409
 20
21.23737373737391
 30
0.0
 40
8.970666666666668
  1

 41
0.9000000000000001
  7
ROMANS8
100
AcDbAttribute
280
     0
  2
SONDER-NR
 70
     0
280
     0
  0
ATTRIB
  5
10B
330
87
100
AcDbEntity
  8
06-99
100
AcDbText
 10
378.0245474303098
 20
18.69401437120406
 30
0.0
 40
4.247474747474748
  1

 41
0.9
  7
ROMANS8
100
AcDbAttribute
280
     0
  2
ERSETZT.DURCH
 70
     0
280
     0
  0
ATTRIB
  5
10C
330
87
100
AcDbEntity
  8
06-99
100
AcDbText
 10
307.2324996738956
 20
18.68168629835283
 30
0.0
 40
4.247474747474748
  1

 41
0.9
  7
ROMANS8
100
AcDbAttribute
280
     0
  2
ERSETZT.FÜR
 70
     0
280
     0
  0
ATTRIB
  5
10D
330
87
100
AcDbEntity
  8
06-99
100
AcDbText
 10
529.4422696823369
 20
134.9805315446019
 30
0.0
 40
3.644333333333333
  1
DIN A4
  7
ROMANS8
 72
     1
 11
538.7266426982099
 21
134.9805315446019
 31
0.0
100
AcDbAttribute
280
     0
  2
FORMAT
 70
     0
280
     0
  0
ATTRIB
  5
10E
330
87
100
AcDbEntity
  8
06-99
100
AcDbText
 10
518.1659224421783
 20
105.6732305685389
 30
0.0
 40
6.626060606060606
  1
DIN 2768
  7
ROMANS8
 72
     1
 11
540.8838445201003
 21
105.6732305685389
 31
0.0
100
AcDbAttribute
280
     0
  2
NORM2
 70
     0
280
     0
  0
ATTRIB
  5
10F
330
87
100
AcDbEntity
  8
06-99
100
AcDbText
 10
509.1734116196676
 20
116.5278882565296
 30
0.0
 40
6.626060606060606
  1
DIN 6930-M
  7
ROMANS8
 72
     1
 11
539.4639743902303
 21
116.5278882565296
 31
0.0
100
AcDbAttribute
280
     0
  2
NORM1
 70
     0
280
     0
  0
SEQEND
  5
110
330
87
100
AcDbEntity
  8
0
  0
DIMENSION
  5
111
330
2
100
AcDbEntity
  8
0
100
AcDbDimension
280
     0
  2
*D14
 10
415.6116191128663
 20
518.5666413511608
 30
0.0
 11
345.6116191128663
 21
526.4416413511607
 31
0.0
 71
     5
 42
140.0
 73
     0
 74
     0
 75
     0
  3
Wagner$0
100
AcDbAlignedDimension
 13
275.6116191128663
 23
503.8805582531024
 33
0.0
 14
415.6116191128663
 24
507.592766140016
 34
0.0
100
AcDbRotatedDimension
1001
ACAD
1000
DSTYLE
1002
{
1070
    40
1040
3.5
1070
   271
1070
     1
1070
   272
1070
     1
1002
}
  0
DIMENSION
  5
120
330
2
100
AcDbEntity
  8
0
100
AcDbDimension
280
     0
  2
*D13
 10
438.0400134204578
 20
517.9238841136041
 30
0.0
 11
446.9049012825674
 21
528.7447568943882
 31
0.0
 70
   129
  1
%%C<>
 71
     5
 42
10.00000000000011
 73
     0
 74
     0
 75
     0
  3
Wagner$0
100
AcDbAlignedDimension
 13
411.2699601478074
 23
516.4745824529752
 33
0.0
 14
415.4961427652144
 24
507.4115045826085
 34
0.0
1001
ACAD
1000
DSTYLE
1002
{
1070
    40
1040
3.5
1070
   271
1070
     1
1070
   272
1070
     1
1002
}
  0
DIMENSION
  5
12F
330
2
100
AcDbEntity
  8
0
100
AcDbDimension
280
     0
  2
*D12
 10
375.3137192391438
 20
523.0701827391692
 30
0.0
 11
385.5802172334856
 21
536.5466304881932
 31
0.0
 70
     1
 71
     5
 42
30.0
 73
     0
 74
     0
 75
     0
  3
Wagner$0
100
AcDbAlignedDimension
 13
411.4512217052148
 23
516.5591061053232
 33
0.0
 14
384.2619880941153
 24
503.8805582531024
 34
0.0
1001
ACAD
1000
DSTYLE
1002
{
1070
    40
1040
3.5
1070
   271
1070
     1
1070
   272
1070
     1
1002
}
  0
LINE
  5
13C
330
2
100
AcDbEntity
  8
09-01
100
AcDbLine
 10
415.4961427652144
 20
507.4115045826085
 30
0.0
 11
415.5928806702736
 21
507.677289792364
 31
0.0
  0
LINE
  5
13D
330
2
100
AcDbEntity
  8
09-01
100
AcDbLine
 10
411.2699601478074
 20
516.4745824529752
 30
0.0
 11
411.5357453575629
 21
516.3778445479159
 31
0.0
  0
DIMENSION
  5
13E
330
2
100
AcDbEntity
  8
09-01
100
AcDbDimension
280
     0
  2
*D11
 10
377.6111482148272
 20
493.8805582531023
 30
0.0
 11
437.4632293246113
 21
505.183504245439
 31
0.0
 70
     2
 71
     5
 42
0.4363323129985753
 73
     0
 74
     0
 75
     0
  3
Wagner
100
AcDb2LineAngularDimension
 13
394.5158786844551
 23
497.6282467716363
 33
0.0
 14
415.4961427652144
 24
507.4115045826085
 34
0.0
 15
275.5984054082501
 25
493.8805582531023
 35
0.0
 16
433.6972353323864
 26
500.7970208661145
 36
0.0
1001
ACAD
1000
DSTYLE
1002
{
1070
    40
1040
2.0
1002
}
  0
DIMENSION
  5
14F
330
2
100
AcDbEntity
  8
0
100
AcDbDimension
280
     0
  2
*D15
 10
415.6116191128663
 20
549.9089397690181
 30
0.0
 11
323.1116191128663
 21
557.7839397690182
 31
0.0
 71
     5
 42
184.9999999999999
 73
     0
 74
     0
 75
     0
  3
Wagner$0
100
AcDbAlignedDimension
 13
230.6116191128663
 23
503.8805582531024
 33
0.0
 14
415.6116191128663
 24
507.592766140016
 34
0.0
100
AcDbRotatedDimension
1001
ACAD
1000
DSTYLE
1002
{
1070
    40
1040
3.5
1070
   271
1070
     1
1070
   272
1070
     1
1002
}
  0
LINE
  5
15C
330
2
100
AcDbEntity
  8
0
100
AcDbLine
 10
415.4961427652144
 20
507.4115045826085
 30
0.0
 11
411.2699601478074
 21
516.4745824529752
 31
0.0
  0
LINE
  5
15D
330
2
100
AcDbEntity
  8
0
100
AcDbLine
 10
411.5357453575629
 20
516.3778445479159
 30
0.0
 11
415.5928806702736
 21
507.677289792364
 31
0.0
  0
LINE
  5
15E
330
2
100
AcDbEntity
  8
0
100
AcDbLine
 10
394.5158786844551
 20
497.6282467716364
 30
0.0
 11
415.4961427652144
 21
507.4115045826085
 31
0.0
  0
ARC
  5
15F
330
2
100
AcDbEntity
  8
0
100
AcDbCircle
 10
377.6111482148272
 20
533.8805582531024
 30
0.0
 40
40.0
100
AcDbArc
 50
270.0
 51
294.9999999999988
  0
ARC
  5
160
330
2
100
AcDbEntity
  8
05-01
370
    15
100
AcDbCircle
 10
377.6111482148272
 20
533.8805582531024
 30
0.0
 40
35.0
100
AcDbArc
 50
270.0
 51
294.9999999999988
  0
ARC
  5
161
330
2
100
AcDbEntity
  8
0
100
AcDbCircle
 10
377.6111482148272
 20
533.8805582531024
 30
0.0
 40
30.0
100
AcDbArc
 50
270.0
 51
294.9999999999988
  0
LINE
  5
162
330
2
100
AcDbEntity
  8
05-01
370
    15
100
AcDbLine
 10
413.3830514565109
 20
511.9430435177918
 30
0.0
 11
392.4027873757516
 21
502.1597857068195
 31
0.0
  0
LINE
  5
163
330
2
100
AcDbEntity
  8
0
100
AcDbLine
 10
411.2699601478074
 20
516.4745824529752
 30
0.0
 11
390.2896960670481
 21
506.6913246420028
 31
0.0
  0
LWPOLYLINE
  5
164
330
2
100
AcDbEntity
  8
0
100
AcDbPolyline
 90
       32
 70
   128
 43
0.0
 10
616.9823892377443
 20
409.0167701194483
 10
617.0132247057665
 20
408.7012890449799
 10
617.2594015743539
 20
408.0737833727136
 10
617.7490581462405
 20
407.4566092605772
 10
618.4768296415575
 20
406.8565285972954
 10
619.4347424435062
 20
406.2801159921898
 10
620.6123014589725
 20
405.7336867423841
 10
621.9966051049627
 20
405.2232276410869
 10
623.5724866610474
 20
404.7543313850324
 10
625.3226804391232
 20
404.3321352997248
 10
627.2280109499065
 20
403.961265053825
 10
629.2676029936049
 20
403.6457839793566
 10
631.4191103729754
 20
403.3891485529902
 10
633.6589607229379
 20
403.1941705261614
 10
635.9626137743394
 20
403.0629861189339
 10
638.3048302222785
 20
402.9970326151255
 10
640.6599482532109
 20
402.9970326151255
 10
643.0021647011499
 20
403.062986118934
 10
645.3058177525514
 20
403.1941705261615
 10
647.5456681025138
 20
403.3891485529902
 10
649.6971754818844
 20
403.6457839793567
 10
651.7367675255827
 20
403.961265053825
 10
653.6420980363659
 20
404.3321352997249
 10
655.3922918144419
 20
404.7543313850324
 10
656.9681733705265
 20
405.2232276410869
 10
658.3524770165166
 20
405.7336867423841
 10
659.5300360319829
 20
406.2801159921898
 10
660.4879488339316
 20
406.8565285972955
 10
661.2157203292485
 20
407.4566092605774
 10
661.7053769011351
 20
408.0737833727138
 10
661.9515537697224
 20
408.7012890449799
 10
661.9823892377445
 20
409.0167701194483
  0
LWPOLYLINE
  5
165
330
2
100
AcDbEntity
  8
0
100
AcDbPolyline
 90
        9
 70
   128
 43
0.0
 10
616.9823892377443
 20
409.0167701194483
 10
617.0132247057665
 20
408.7012890449798
 10
617.2594015743539
 20
408.0737833727136
 10
617.7490581462405
 20
407.4566092605772
 10
618.4768296415575
 20
406.8565285972954
 10
619.4347424435063
 20
406.2801159921897
 10
620.6123014589725
 20
405.733686742384
 10
621.9966051049627
 20
405.2232276410869
 10
623.5724866610471
 20
404.7543313850324
  0
LWPOLYLINE
  5
166
330
2
100
AcDbEntity
  8
0
100
AcDbPolyline
 90
       24
 70
   128
 43
0.0
 10
623.5724866610471
 20
404.7543313850324
 10
625.3226804391231
 20
404.3321352997248
 10
627.2280109499063
 20
403.961265053825
 10
629.2676029936046
 20
403.6457839793566
 10
631.4191103729752
 20
403.3891485529902
 10
633.6589607229377
 20
403.1941705261615
 10
635.9626137743394
 20
403.0629861189339
 10
638.3048302222782
 20
402.9970326151255
 10
640.6599482532108
 20
402.9970326151255
 10
643.0021647011496
 20
403.0629861189339
 10
645.3058177525512
 20
403.1941705261615
 10
647.5456681025137
 20
403.3891485529902
 10
649.6971754818843
 20
403.6457839793566
 10
651.7367675255825
 20
403.961265053825
 10
653.6420980363658
 20
404.3321352997248
 10
655.3922918144419
 20
404.7543313850324
 10
656.9681733705262
 20
405.2232276410869
 10
658.3524770165166
 20
405.7336867423841
 10
659.5300360319827
 20
406.2801159921898
 10
660.4879488339316
 20
406.8565285972954
 10
661.2157203292485
 20
407.4566092605773
 10
661.7053769011351
 20
408.0737833727138
 10
661.9515537697224
 20
408.7012890449799
 10
661.9823892377445
 20
409.0167701194483
  0
DIMENSION
  5
167
330
2
100
AcDbEntity
  8
0
100
AcDbDimension
280
     0
  2
*D9
 10
211.6477621856612
 20
221.3805582531024
 30
0.0
 11
203.7727621856612
 21
313.3805582531024
 31
0.0
 71
     5
 42
183.9999999999999
 73
     0
 74
     0
 75
     0
  3
Wagner$0
100
AcDbAlignedDimension
 13
227.1116191128662
 23
405.3805582531023
 33
0.0
 14
225.6116191128662
 24
221.3805582531024
 34
0.0
 50
90.0
100
AcDbRotatedDimension
1001
ACAD
1000
DSTYLE
1002
{
1070
    40
1040
3.5
1070
   271
1070
     1
1070
   272
1070
     1
1002
}
  0
DIMENSION
  5
174
330
2
100
AcDbEntity
  8
0
100
AcDbDimension
280
     0
  2
*D8
 10
450.758768537202
 20
221.3805582531024
 30
0.0
 11
442.883768537202
 21
328.8805582531024
 31
0.0
 71
     5
 42
215.0
 73
     0
 74
     0
 75
     0
  3
Wagner$0
100
AcDbAlignedDimension
 13
385.6116191128663
 23
436.3805582531023
 33
0.0
 14
375.6087972598562
 24
221.3805582531024
 34
0.0
 50
90.0
100
AcDbRotatedDimension
1001
ACAD
1000
DSTYLE
1002
{
1070
    40
1040
3.5
1070
   271
1070
     1
1070
   272
1070
     1
1002
}
  0
LINE
  5
181
330
2
100
AcDbEntity
  8
03-01
100
AcDbLine
 10
119.1310173660045
 20
194.3805582531024
 30
0.0
 11
119.1310173660045
 21
179.3805582531024
 31
0.0
  0
LINE
  5
186
330
2
100
AcDbEntity
  8
03-01
100
AcDbLine
 10
130.1310173660045
 20
194.3805582531024
 30
0.0
 11
130.1310173660045
 21
179.3805582531024
 31
0.0
  0
LINE
  5
187
330
2
100
AcDbEntity
  8
0
100
AcDbLine
 10
124.6310173660045
 20
194.3805582531024
 30
0.0
 11
124.6310173660045
 21
179.3805582531024
 31
0.0
  0
LINE
  5
188
330
2
100
AcDbEntity
  8
03-01
370
    15
100
AcDbLine
 10
128.6310173660045
 20
179.3805582531024
 30
0.0
 11
130.1310173660044
 21
179.3805582531024
 31
0.0
  0
LINE
  5
189
330
2
100
AcDbEntity
  8
0
370
    15
100
AcDbLine
 10
120.6310173660045
 20
179.3805582531024
 30
0.0
 11
128.6310173660045
 21
179.3805582531024
 31
0.0
  0
LINE
  5
18A
330
2
100
AcDbEntity
  8
03-01
370
    15
100
AcDbLine
 10
119.1310173660044
 20
179.3805582531024
 30
0.0
 11
120.6310173660045
 21
179.3805582531024
 31
0.0
  0
LINE
  5
18B
330
2
100
AcDbEntity
  8
0
100
AcDbLine
 10
229.1116191128665
 20
194.3805582531024
 30
0.0
 11
268.1116191128665
 21
194.3805582531024
 31
0.0
  0
LINE
  5
18C
330
2
100
AcDbEntity
  8
0
100
AcDbLine
 10
229.1116191128665
 20
200.3805582531025
 30
0.0
 11
268.1116191128665
 21
200.3805582531025
 31
0.0
  0
LINE
  5
18D
330
2
100
AcDbEntity
  8
0
100
AcDbLine
 10
229.1116191128665
 20
198.3805582531024
 30
0.0
 11
268.1116191128665
 21
198.3805582531024
 31
0.0
  0
LINE
  5
18E
330
2
100
AcDbEntity
  8
03-01
100
AcDbLine
 10
249.1116191128665
 20
200.3805582531025
 30
0.0
 11
249.1116191128665
 21
194.3805582531024
 31
0.0
  0
LINE
  5
18F
330
2
100
AcDbEntity
  8
0
100
AcDbLine
 10
229.1116191128665
 20
200.3805582531025
 30
0.0
 11
229.1116191128665
 21
194.3805582531024
 31
0.0
  0
LINE
  5
190
330
2
100
AcDbEntity
  8
0
100
AcDbLine
 10
268.1116191128665
 20
200.3805582531025
 30
0.0
 11
268.1116191128665
 21
194.3805582531024
 31
0.0
  0
LINE
  5
191
330
2
100
AcDbEntity
  8
0
100
AcDbLine
 10
237.6116191128665
 20
200.3805582531025
 30
0.0
 11
237.6116191128665
 21
194.3805582531024
 31
0.0
  0
LINE
  5
192
330
2
100
AcDbEntity
  8
03-01
100
AcDbLine
 10
236.1116191128665
 20
200.3805582531025
 30
0.0
 11
236.1116191128665
 21
194.3805582531024
 31
0.0
  0
LINE
  5
193
330
2
100
AcDbEntity
  8
0
100
AcDbLine
 10
237.6116191128665
 20
194.3805582531024
 30
0.0
 11
237.6116191128665
 21
179.3805582531024
 31
0.0
  0
LINE
  5
194
330
2
100
AcDbEntity
  8
0
100
AcDbLine
 10
248.6116191128665
 20
194.3805582531024
 30
0.0
 11
248.6116191128665
 21
179.3805582531024
 31
0.0
  0
LINE
  5
195
330
2
100
AcDbEntity
  8
0
100
AcDbLine
 10
243.1116191128665
 20
194.3805582531024
 30
0.0
 11
243.1116191128665
 21
179.3805582531024
 31
0.0
  0
LINE
  5
196
330
2
100
AcDbEntity
  8
0
370
    15
100
AcDbLine
 10
237.6116191128664
 20
179.3805582531024
 30
0.0
 11
248.6116191128663
 21
179.3805582531024
 31
0.0
  0
LINE
  5
197
330
2
100
AcDbEntity
  8
0
370
    15
100
AcDbLine
 10
237.6116191128665
 20
194.3805582531024
 30
0.0
 11
248.6116191128665
 21
194.3805582531024
 31
0.0
  0
LINE
  5
198
330
2
100
AcDbEntity
  8
0
100
AcDbLine
 10
138.6310173660045
 20
194.3805582531024
 30
0.0
 11
149.1310173660045
 21
194.3805582531024
 31
0.0
  0
LINE
  5
199
330
2
100
AcDbEntity
  8
03-01
100
AcDbLine
 10
110.6310173660045
 20
194.3805582531024
 30
0.0
 11
138.6310173660045
 21
194.3805582531024
 31
0.0
  0
LINE
  5
19A
330
2
100
AcDbEntity
  8
0
100
AcDbLine
 10
100.1310173660045
 20
194.3805582531024
 30
0.0
 11
110.6310173660045
 21
194.3805582531024
 31
0.0
  0
LINE
  5
19B
330
2
100
AcDbEntity
  8
0
100
AcDbLine
 10
138.6310173660045
 20
200.3805582531025
 30
0.0
 11
149.1310173660045
 21
200.3805582531025
 31
0.0
  0
LINE
  5
19C
330
2
100
AcDbEntity
  8
03-01
100
AcDbLine
 10
110.6310173660045
 20
200.3805582531025
 30
0.0
 11
138.6310173660045
 21
200.3805582531025
 31
0.0
  0
LINE
  5
19D
330
2
100
AcDbEntity
  8
0
100
AcDbLine
 10
100.1310173660045
 20
200.3805582531025
 30
0.0
 11
110.6310173660045
 21
200.3805582531025
 31
0.0
  0
LINE
  5
19E
330
2
100
AcDbEntity
  8
0
100
AcDbLine
 10
138.6310173660045
 20
198.3805582531024
 30
0.0
 11
149.1310173660045
 21
198.3805582531024
 31
0.0
  0
LINE
  5
19F
330
2
100
AcDbEntity
  8
03-01
100
AcDbLine
 10
110.6310173660045
 20
198.3805582531024
 30
0.0
 11
138.6310173660045
 21
198.3805582531024
 31
0.0
  0
LINE
  5
1A0
330
2
100
AcDbEntity
  8
0
100
AcDbLine
 10
100.1310173660045
 20
198.3805582531024
 30
0.0
 11
110.6310173660045
 21
198.3805582531024
 31
0.0
  0
LINE
  5
1A1
330
2
100
AcDbEntity
  8
05-01
100
AcDbLine
 10
100.5305703763358
 20
109.9177983717791
 30
0.0
 11
81.27113093360705
 21
116.9276610575848
 31
0.0
  0
LINE
  5
1A2
330
2
100
AcDbEntity
  8
05-01
100
AcDbLine
 10
101.9554329915361
 20
113.8325762328671
 30
0.0
 11
82.69599354880742
 21
120.8424389186729
 31
0.0
  0
ARC
  5
1A3
330
2
100
AcDbEntity
  8
0
100
AcDbCircle
 10
81.82285242349403
 20
73.434035759965
 30
0.0
 40
1.0
100
AcDbArc
 50
340.0000000000017
 51
69.99999999999734
  0
LINE
  5
1A4
330
2
100
AcDbEntity
  8
0
100
AcDbLine
 10
77.29022275106919
 20
58.0569336840648
 30
0.0
 11
82.7625450442799
 21
73.09201561663932
 31
0.0
  0
ARC
  5
1A5
330
2
100
AcDbEntity
  8
0
100
AcDbCircle
 10
71.01638728445616
 20
77.36726740821026
 30
0.0
 40
1.0
100
AcDbArc
 50
69.99999999999734
 51
160.0000000000017
  0
LINE
  5
1A6
330
2
100
AcDbEntity
  8
0
100
AcDbLine
 10
64.60437237045946
 20
62.67420561896135
 30
0.0
 11
70.07669466367016
 21
77.70928755153594
 31
0.0
  0
LINE
  5
1A7
330
2
100
AcDbEntity
  8
0
100
AcDbLine
 10
66.50103569753068
 20
48.14956558129627
 30
0.0
 11
70.60527741743872
 21
59.42587703072715
 31
0.0
  0
LINE
  5
1A8
330
2
100
AcDbEntity
  8
0
370
    15
100
AcDbLine
 10
82.16487256681963
 20
74.37372838075091
 30
0.0
 11
71.35840742778177
 21
78.30696002899618
 31
0.0
  0
ARC
  5
1A9
330
2
100
AcDbEntity
  8
0
370
    15
100
AcDbCircle
 10
76.35053013028332
 20
58.39895382739047
 30
0.0
 40
1.0
100
AcDbArc
 50
249.9999999999963
 51
340.0000000000017
  0
ARC
  5
1AA
330
2
100
AcDbEntity
  8
0
370
    15
100
AcDbCircle
 10
65.54406499124545
 20
62.33218547563568
 30
0.0
 40
1.0
100
AcDbArc
 50
160.0000000000017
 51
249.9999999999963
  0
LINE
  5
1AB
330
2
100
AcDbEntity
  8
0
370
    15
100
AcDbLine
 10
75.42811559499679
 20
44.90037421970237
 30
0.0
 11
57.57395580006456
 21
51.39875694289013
 31
0.0
  0
LINE
  5
1AC
330
2
100
AcDbEntity
  8
0
370
    15
100
AcDbLine
 10
79.53235731490483
 20
56.17668566913329
 30
0.0
 11
61.6781975199726
 21
62.67506839232104
 31
0.0
  0
LINE
  5
1AD
330
2
100
AcDbEntity
  8
0
100
AcDbLine
 10
95.97181814531515
 20
111.5770484892653
 30
0.0
 11
82.38893515848245
 21
74.25838419184803
 31
0.0
  0
LINE
  5
1AE
330
2
100
AcDbEntity
  8
0
100
AcDbLine
 10
84.69550669588429
 20
115.6812902091733
 30
0.0
 11
71.11262370905158
 21
78.36262591175614
 31
0.0
  0
LINE
  5
1AF
330
2
100
AcDbEntity
  8
0
100
AcDbLine
 10
79.53235731490483
 20
56.17668566913329
 30
0.0
 11
75.42811559499679
 21
44.90037421970237
 31
0.0
  0
LINE
  5
1B0
330
2
100
AcDbEntity
  8
0
100
AcDbLine
 10
61.6781975199726
 20
62.67506839232104
 30
0.0
 11
57.57395580006456
 21
51.39875694289013
 31
0.0
  0
LINE
  5
1B1
330
2
100
AcDbEntity
  8
05-01
100
AcDbLine
 10
148.7314643556732
 20
109.9177983717791
 30
0.0
 11
167.990903798402
 21
116.9276610575848
 31
0.0
  0
LINE
  5
1B2
330
2
100
AcDbEntity
  8
05-01
100
AcDbLine
 10
147.3066017404728
 20
113.8325762328671
 30
0.0
 11
166.5660411832017
 21
120.8424389186729
 31
0.0
  0
ARC
  5
1B3
330
2
100
AcDbEntity
  8
0
100
AcDbCircle
 10
167.4391823085151
 20
73.434035759965
 30
0.0
 40
1.0
100
AcDbArc
 50
110.0000000000026
 51
199.9999999999983
  0
LINE
  5
1B4
330
2
100
AcDbEntity
  8
0
100
AcDbLine
 10
171.9718119809399
 20
58.0569336840648
 30
0.0
 11
166.4994896877292
 21
73.09201561663932
 31
0.0
  0
ARC
  5
1B5
330
2
100
AcDbEntity
  8
0
100
AcDbCircle
 10
178.2456474475529
 20
77.36726740821026
 30
0.0
 40
1.0
100
AcDbArc
 50
19.99999999999828
 51
110.0000000000026
  0
LINE
  5
1B6
330
2
100
AcDbEntity
  8
0
100
AcDbLine
 10
184.6576623615496
 20
62.67420561896135
 30
0.0
 11
179.1853400683389
 21
77.70928755153594
 31
0.0
  0
LINE
  5
1B7
330
2
100
AcDbEntity
  8
0
100
AcDbLine
 10
182.7609990344784
 20
48.14956558129627
 30
0.0
 11
178.6567573145704
 21
59.42587703072715
 31
0.0
  0
LINE
  5
1B8
330
2
100
AcDbEntity
  8
0
370
    15
100
AcDbLine
 10
167.0971621651895
 20
74.37372838075091
 30
0.0
 11
177.9036273042273
 21
78.30696002899618
 31
0.0
  0
ARC
  5
1B9
330
2
100
AcDbEntity
  8
0
370
    15
100
AcDbCircle
 10
172.9115046017258
 20
58.39895382739047
 30
0.0
 40
1.0
100
AcDbArc
 50
199.9999999999983
 51
290.0000000000027
  0
ARC
  5
1BA
330
2
100
AcDbEntity
  8
0
370
    15
100
AcDbCircle
 10
183.7179697407636
 20
62.33218547563568
 30
0.0
 40
1.0
100
AcDbArc
 50
290.0000000000027
 51
19.99999999999828
  0
LINE
  5
1BB
330
2
100
AcDbEntity
  8
0
370
    15
100
AcDbLine
 10
173.8339191370123
 20
44.90037421970237
 30
0.0
 11
191.6880789319445
 21
51.39875694289013
 31
0.0
  0
LINE
  5
1BC
330
2
100
AcDbEntity
  8
0
370
    15
100
AcDbLine
 10
169.7296774171043
 20
56.17668566913329
 30
0.0
 11
187.5838372120365
 21
62.67506839232104
 31
0.0
  0
LINE
  5
1BD
330
2
100
AcDbEntity
  8
0
100
AcDbLine
 10
153.2902165866939
 20
111.5770484892653
 30
0.0
 11
166.8730995735266
 21
74.25838419184803
 31
0.0
  0
LINE
  5
1BE
330
2
100
AcDbEntity
  8
0
100
AcDbLine
 10
164.5665280361248
 20
115.6812902091733
 30
0.0
 11
178.1494110229575
 21
78.36262591175614
 31
0.0
  0
LINE
  5
1BF
330
2
100
AcDbEntity
  8
0
100
AcDbLine
 10
169.7296774171043
 20
56.17668566913329
 30
0.0
 11
173.8339191370123
 21
44.90037421970237
 31
0.0
  0
LINE
  5
1C0
330
2
100
AcDbEntity
  8
0
100
AcDbLine
 10
187.5838372120365
 20
62.67506839232104
 30
0.0
 11
191.6880789319445
 21
51.39875694289013
 31
0.0
  0
LINE
  5
1C1
330
2
100
AcDbEntity
  8
05-01
100
AcDbLine
 10
248.2602963183892
 20
137.5558485455733
 30
0.0
 11
268.7557636836871
 21
137.5558485455733
 31
0.0
  0
LINE
  5
1C2
330
2
100
AcDbEntity
  8
05-01
100
AcDbLine
 10
248.2602963183892
 20
141.7218681295239
 30
0.0
 11
268.7557636836871
 21
141.7218681295239
 31
0.0
  0
ARC
  5
1C3
330
2
100
AcDbEntity
  8
0
100
AcDbCircle
 10
253.3616191128665
 20
78.32224009741572
 30
0.0
 40
1.0
100
AcDbArc
 50
90.0
 51
180.0
  0
LINE
  5
1C4
330
2
100
AcDbEntity
  8
0
100
AcDbLine
 10
252.3616191128664
 20
62.32224009741573
 30
0.0
 11
252.3616191128664
 21
78.32224009741572
 31
0.0
  0
ARC
  5
1C5
330
2
100
AcDbEntity
  8
0
100
AcDbCircle
 10
264.8616191128665
 20
78.32224009741581
 30
0.0
 40
1.0
100
AcDbArc
 50
0.0
 51
90.0
  0
LINE
  5
1C6
330
2
100
AcDbEntity
  8
0
100
AcDbLine
 10
265.8616191128665
 20
62.32224009741575
 30
0.0
 11
265.8616191128665
 21
78.32224009741581
 31
0.0
  0
LINE
  5
1C7
330
2
100
AcDbEntity
  8
0
100
AcDbLine
 10
259.1116191128665
 20
49.32224009741573
 30
0.0
 11
259.1116191128665
 21
61.32224009741573
 31
0.0
  0
LINE
  5
1C8
330
2
100
AcDbEntity
  8
0
370
    15
100
AcDbLine
 10
253.3616191128665
 20
79.32224009741573
 30
0.0
 11
264.8616191128665
 21
79.32224009741581
 31
0.0
  0
ARC
  5
1C9
330
2
100
AcDbEntity
  8
0
370
    15
100
AcDbCircle
 10
253.3616191128665
 20
62.32224009741573
 30
0.0
 40
1.0
100
AcDbArc
 50
180.0
 51
270.0
  0
ARC
  5
1CA
330
2
100
AcDbEntity
  8
0
370
    15
100
AcDbCircle
 10
264.8616191128665
 20
62.32224009741575
 30
0.0
 40
1.0
100
AcDbArc
 50
270.0
 51
0.0
  0
LINE
  5
1CB
330
2
100
AcDbEntity
  8
0
370
    15
100
AcDbLine
 10
249.6116191128663
 20
49.32224009741571
 30
0.0
 11
268.6116191128665
 21
49.32224009741576
 31
0.0
  0
LINE
  5
1CC
330
2
100
AcDbEntity
  8
0
370
    15
100
AcDbLine
 10
249.6116191128665
 20
61.32224009741571
 30
0.0
 11
268.6116191128664
 21
61.32224009741576
 31
0.0
  0
DIMENSION
  5
1CD
330
2
100
AcDbEntity
  8
0
100
AcDbDimension
280
     0
  2
*D7
 10
186.4122609211333
 20
221.3805582531024
 30
0.0
 11
178.5372609211333
 21
362.8805582531025
 31
0.0
 71
     5
 42
283.0
 73
     0
 74
     0
 75
     0
  3
Wagner$0
100
AcDbAlignedDimension
 13
231.1116191128662
 23
504.3805582531024
 33
0.0
 14
229.1116191128662
 24
221.3805582531024
 34
0.0
 50
90.0
100
AcDbRotatedDimension
1001
ACAD
1000
DSTYLE
1002
{
1070
    40
1040
3.5
1070
   271
1070
     1
1070
   272
1070
     1
1002
}
  0
LINE
  5
1DA
330
2
100
AcDbEntity
  8
0
100
AcDbLine
 10
253.1116191128663
 20
137.5558485455733
 30
0.0
 11
253.1116191128665
 21
79.29048593396757
 31
0.0
  0
LINE
  5
1DB
330
2
100
AcDbEntity
  8
0
100
AcDbLine
 10
253.1116191128665
 20
194.3805582531024
 30
0.0
 11
253.1116191128663
 21
141.7218681295239
 31
0.0
  0
LINE
  5
1DC
330
2
100
AcDbEntity
  8
03-01
100
AcDbLine
 10
253.1116191128665
 20
200.3805582531025
 30
0.0
 11
253.1116191128665
 21
194.3805582531024
 31
0.0
  0
LINE
  5
1DD
330
2
100
AcDbEntity
  8
0
100
AcDbLine
 10
253.1116191128665
 20
220.8805582531024
 30
0.0
 11
253.1116191128665
 21
200.3805582531025
 31
0.0
  0
LINE
  5
1DE
330
2
100
AcDbEntity
  8
0
100
AcDbLine
 10
265.1116191128665
 20
137.5558485455733
 30
0.0
 11
265.1116191128665
 21
79.29048593396766
 31
0.0
  0
LINE
  5
1DF
330
2
100
AcDbEntity
  8
0
100
AcDbLine
 10
265.1116191128665
 20
194.3805582531024
 30
0.0
 11
265.1116191128665
 21
141.7218681295239
 31
0.0
  0
LINE
  5
1E0
330
2
100
AcDbEntity
  8
03-01
100
AcDbLine
 10
265.1116191128665
 20
200.3805582531025
 30
0.0
 11
265.1116191128665
 21
194.3805582531024
 31
0.0
  0
LINE
  5
1E1
330
2
100
AcDbEntity
  8
0
100
AcDbLine
 10
265.1116191128665
 20
220.8805582531024
 30
0.0
 11
265.1116191128665
 21
200.3805582531025
 31
0.0
  0
LINE
  5
1E2
330
2
100
AcDbEntity
  8
03-01
100
AcDbLine
 10
253.1116191128665
 20
375.8805582531024
 30
0.0
 11
253.1116191128665
 21
220.8805582531024
 31
0.0
  0
LINE
  5
1E3
330
2
100
AcDbEntity
  8
03-01
100
AcDbLine
 10
265.1116191128665
 20
375.8805582531024
 30
0.0
 11
265.1116191128665
 21
220.8805582531024
 31
0.0
  0
LINE
  5
1E4
330
2
100
AcDbEntity
  8
03-01
100
AcDbLine
 10
253.7116191128664
 20
400.3805582531024
 30
0.0
 11
253.7116191128664
 21
397.8805582531024
 31
0.0
  0
LINE
  5
1E5
330
2
100
AcDbEntity
  8
03-01
100
AcDbLine
 10
264.5116191128665
 20
400.3805582531024
 30
0.0
 11
264.5116191128665
 21
397.8805582531024
 31
0.0
  0
LINE
  5
1E6
330
2
100
AcDbEntity
  8
03-01
100
AcDbLine
 10
253.6116191128665
 20
397.8805582531024
 30
0.0
 11
253.6116191128665
 21
393.8805582531024
 31
0.0
  0
LINE
  5
1E7
330
2
100
AcDbEntity
  8
03-01
100
AcDbLine
 10
264.6116191128665
 20
397.8805582531024
 30
0.0
 11
264.6116191128665
 21
393.8805582531024
 31
0.0
  0
ARC
  5
1E8
330
2
100
AcDbEntity
  8
03-01
100
AcDbCircle
 10
253.3616191128665
 20
376.8805582531024
 30
0.0
 40
1.0
100
AcDbArc
 50
180.0
 51
270.0
  0
LINE
  5
1E9
330
2
100
AcDbEntity
  8
03-01
100
AcDbLine
 10
252.3616191128664
 20
392.8805582531024
 30
0.0
 11
252.3616191128664
 21
376.8805582531024
 31
0.0
  0
ARC
  5
1EA
330
2
100
AcDbEntity
  8
03-01
100
AcDbCircle
 10
264.8616191128665
 20
376.8805582531023
 30
0.0
 40
1.0
100
AcDbArc
 50
270.0
 51
0.0
  0
LINE
  5
1EB
330
2
100
AcDbEntity
  8
03-01
100
AcDbLine
 10
265.8616191128665
 20
392.8805582531024
 30
0.0
 11
265.8616191128665
 21
376.8805582531023
 31
0.0
  0
LINE
  5
1EC
330
2
100
AcDbEntity
  8
03-01
100
AcDbLine
 10
259.1116191128665
 20
397.8805582531024
 30
0.0
 11
259.1116191128665
 21
393.8805582531024
 31
0.0
  0
LINE
  5
1ED
330
2
100
AcDbEntity
  8
03-01
370
    15
100
AcDbLine
 10
253.3616191128665
 20
375.8805582531024
 30
0.0
 11
264.8616191128665
 21
375.8805582531023
 31
0.0
  0
ARC
  5
1EE
330
2
100
AcDbEntity
  8
03-01
370
    15
100
AcDbCircle
 10
253.3616191128665
 20
392.8805582531024
 30
0.0
 40
1.0
100
AcDbArc
 50
90.0
 51
180.0
  0
ARC
  5
1EF
330
2
100
AcDbEntity
  8
03-01
370
    15
100
AcDbCircle
 10
264.8616191128665
 20
392.8805582531024
 30
0.0
 40
1.0
100
AcDbArc
 50
0.0
 51
90.0
  0
LINE
  5
1F0
330
2
100
AcDbEntity
  8
03-01
370
    15
100
AcDbLine
 10
253.3616191128665
 20
393.8805582531024
 30
0.0
 11
264.8616191128665
 21
393.8805582531024
 31
0.0
  0
LINE
  5
1F1
330
2
100
AcDbEntity
  8
03-01
370
    15
100
AcDbLine
 10
253.6116191128665
 20
397.8805582531024
 30
0.0
 11
264.6116191128665
 21
397.8805582531024
 31
0.0
  0
DIMENSION
  5
1F2
330
2
100
AcDbEntity
  8
0
100
AcDbDimension
280
     0
  2
*D6
 10
211.6477621856613
 20
405.3805582531023
 30
0.0
 11
203.7727621856613
 21
440.3805582531023
 31
0.0
 71
     5
 42
70.0
 73
     0
 74
     0
 75
     0
  3
Wagner$0
100
AcDbAlignedDimension
 13
230.6116191128662
 23
475.3805582531023
 33
0.0
 14
223.6116191128662
 24
405.3805582531023
 34
0.0
 50
90.0
100
AcDbRotatedDimension
1001
ACAD
1000
DSTYLE
1002
{
1070
    40
1040
3.5
1070
   271
1070
     1
1070
   272
1070
     1
1002
}
  0
DIMENSION
  5
1FF
330
2
100
AcDbEntity
  8
0
100
AcDbDimension
280
     0
  2
*D5
 10
211.6477621856613
 20
475.3805582531023
 30
0.0
 11
203.7727621856612
 21
489.8805582531024
 31
0.0
 71
     5
 42
29.00000000000011
 73
     0
 74
     0
 75
     0
  3
Wagner$0
100
AcDbAlignedDimension
 13
231.1116191128662
 23
504.3805582531024
 33
0.0
 14
230.6116191128662
 24
475.3805582531023
 34
0.0
 50
90.0
100
AcDbRotatedDimension
1001
ACAD
1000
DSTYLE
1002
{
1070
    40
1040
3.5
1070
   271
1070
     1
1070
   272
1070
     1
1002
}
  0
DIMENSION
  5
20C
330
2
100
AcDbEntity
  8
0
100
AcDbDimension
280
     0
  2
*D4
 10
372.6116191128663
 20
473.7001888892304
 30
0.0
 11
379.1116191128663
 21
481.5751888892304
 31
0.0
 71
     5
 42
13.0
 73
     0
 74
     0
 75
     0
  3
Wagner$0
100
AcDbAlignedDimension
 13
385.6116191128663
 23
423.8805582531023
 33
0.0
 14
372.6116191128663
 24
427.5541113384575
 34
0.0
100
AcDbRotatedDimension
1001
ACAD
1000
DSTYLE
1002
{
1070
    40
1040
3.5
1070
   271
1070
     1
1070
   272
1070
     1
1002
}
  0
DIMENSION
  5
21B
330
2
100
AcDbEntity
  8
0
100
AcDbDimension
280
     0
  2
*D3
 10
373.6087972598562
 20
418.9565194880413
 30
0.0
 11
365.7337972598562
 21
320.1685388705719
 31
0.0
 71
     5
 42
197.5759612349388
 73
     0
 74
     0
 75
     0
  3
Wagner$0
100
AcDbAlignedDimension
 13
277.1116191128663
 23
221.3805582531024
 33
0.0
 14
364.3410204942293
 24
418.9565194880413
 34
0.0
 50
90.0
100
AcDbRotatedDimension
1001
ACAD
1000
DSTYLE
1002
{
1070
    40
1040
3.5
1070
   271
1070
     1
1070
   272
1070
     1
1002
}
  0
DIMENSION
  5
228
330
2
100
AcDbEntity
  8
0
100
AcDbDimension
280
     0
  2
*D2
 10
429.3216767153729
 20
423.8805582531023
 30
0.0
 11
421.4466767153727
 21
436.3805582531024
 31
0.0
  1
%%C<>
 71
     5
 42
25.00000000000006
 73
     0
 74
     0
 75
     0
  3
Wagner$0
100
AcDbAlignedDimension
 13
385.6116191128663
 23
448.8805582531023
 33
0.0
 14
385.6116191128663
 24
423.8805582531023
 34
0.0
 50
90.0
100
AcDbRotatedDimension
1001
ACAD
1000
DSTYLE
1002
{
1070
    40
1040
3.5
1070
   271
1070
     1
1070
   272
1070
     1
1002
}
  0
LINE
  5
237
330
2
100
AcDbEntity
  8
03-01
100
AcDbLine
 10
231.9116191128664
 20
400.3805582531024
 30
0.0
 11
231.9116191128664
 21
405.3805582531024
 31
0.0
  0
LINE
  5
238
330
2
100
AcDbEntity
  8
03-01
100
AcDbLine
 10
274.3116191128663
 20
400.3805582531024
 30
0.0
 11
274.3116191128663
 21
405.3805582531024
 31
0.0
  0
LINE
  5
239
330
2
100
AcDbEntity
  8
03-01
370
    15
100
AcDbLine
 10
231.9116191128664
 20
400.3805582531024
 30
0.0
 11
274.3116191128663
 21
400.3805582531023
 31
0.0
  0
DIMENSION
  5
23A
330
2
100
AcDbEntity
  8
0
100
AcDbDimension
280
     0
  2
*D1
 10
147.1310173660045
 20
524.2079742236898
 30
0.0
 11
124.6310173660045
 21
532.0829742236898
 31
0.0
  1
%%C<>
 71
     5
 42
45.0
 73
     0
 74
     0
 75
     0
  3
Wagner$0
100
AcDbAlignedDimension
 13
102.1310173660045
 23
503.8805582531024
 33
0.0
 14
147.1310173660045
 24
503.8805582531024
 34
0.0
100
AcDbRotatedDimension
1001
ACAD
1000
DSTYLE
1002
{
1070
    40
1040
3.5
1070
   271
1070
     1
1070
   272
1070
     1
1002
}
  0
LINE
  5
247
330
2
100
AcDbEntity
  8
0
100
AcDbLine
 10
126.6310173660045
 20
220.8805582531024
 30
0.0
 11
126.6310173660045
 21
192.2283295586072
 31
0.0
  0
LINE
  5
248
330
2
100
AcDbEntity
  8
0
100
AcDbLine
 10
138.6310173660045
 20
220.8805582531024
 30
0.0
 11
138.6310173660045
 21
192.2283295586072
 31
0.0
  0
ARC
  5
249
330
2
100
AcDbEntity
  8
0
100
AcDbCircle
 10
168.6310173660045
 20
192.2283295586071
 30
0.0
 40
42.0
100
AcDbArc
 50
180.0
 51
199.9999999999983
  0
ARC
  5
24A
330
2
100
AcDbEntity
  8
0
100
AcDbCircle
 10
168.6310173660045
 20
192.2283295586071
 30
0.0
 40
30.0
100
AcDbArc
 50
180.0
 51
199.9999999999983
  0
LINE
  5
24B
330
2
100
AcDbEntity
  8
0
100
AcDbLine
 10
140.4402387424272
 20
181.967725258837
 30
0.0
 11
163.1416654209244
 21
119.5960680702613
 31
0.0
  0
LINE
  5
24C
330
2
100
AcDbEntity
  8
0
100
AcDbLine
 10
129.1639272929965
 20
177.863483538929
 30
0.0
 11
151.73739446248
 21
115.8433922119724
 31
0.0
  0
LINE
  5
24D
330
2
100
AcDbEntity
  8
03-01
100
AcDbLine
 10
138.6310173660045
 20
375.8805582531023
 30
0.0
 11
138.6310173660046
 21
220.8805582531024
 31
0.0
  0
LINE
  5
24E
330
2
100
AcDbEntity
  8
03-01
100
AcDbLine
 10
126.6310173660045
 20
375.8805582531023
 30
0.0
 11
126.6310173660044
 21
220.8805582531024
 31
0.0
  0
LINE
  5
24F
330
2
100
AcDbEntity
  8
03-01
100
AcDbLine
 10
138.0310173660045
 20
400.3805582531023
 30
0.0
 11
138.0310173660045
 21
397.8805582531024
 31
0.0
  0
LINE
  5
250
330
2
100
AcDbEntity
  8
03-01
100
AcDbLine
 10
127.2310173660045
 20
400.3805582531023
 30
0.0
 11
127.2310173660045
 21
397.8805582531023
 31
0.0
  0
LINE
  5
251
330
2
100
AcDbEntity
  8
03-01
100
AcDbLine
 10
138.1310173660045
 20
397.8805582531024
 30
0.0
 11
138.1310173660045
 21
393.8805582531024
 31
0.0
  0
LINE
  5
252
330
2
100
AcDbEntity
  8
03-01
100
AcDbLine
 10
127.1310173660045
 20
397.8805582531023
 30
0.0
 11
127.1310173660045
 21
393.8805582531023
 31
0.0
  0
ARC
  5
253
330
2
100
AcDbEntity
  8
03-01
100
AcDbCircle
 10
138.3810173660045
 20
376.8805582531024
 30
0.0
 40
1.0
100
AcDbArc
 50
270.0
 51
0.0
  0
LINE
  5
254
330
2
100
AcDbEntity
  8
03-01
100
AcDbLine
 10
139.3810173660045
 20
392.8805582531024
 30
0.0
 11
139.3810173660045
 21
376.8805582531024
 31
0.0
  0
ARC
  5
255
330
2
100
AcDbEntity
  8
03-01
100
AcDbCircle
 10
126.8810173660045
 20
376.8805582531023
 30
0.0
 40
1.0
100
AcDbArc
 50
180.0
 51
270.0
  0
LINE
  5
256
330
2
100
AcDbEntity
  8
03-01
100
AcDbLine
 10
125.8810173660045
 20
392.8805582531024
 30
0.0
 11
125.8810173660045
 21
376.8805582531023
 31
0.0
  0
LINE
  5
257
330
2
100
AcDbEntity
  8
03-01
100
AcDbLine
 10
132.6310173660045
 20
397.8805582531024
 30
0.0
 11
132.6310173660045
 21
393.8805582531024
 31
0.0
  0
LINE
  5
258
330
2
100
AcDbEntity
  8
03-01
370
    15
100
AcDbLine
 10
138.3810173660045
 20
375.8805582531024
 30
0.0
 11
126.8810173660045
 21
375.8805582531023
 31
0.0
  0
ARC
  5
259
330
2
100
AcDbEntity
  8
03-01
370
    15
100
AcDbCircle
 10
138.3810173660045
 20
392.8805582531024
 30
0.0
 40
1.0
100
AcDbArc
 50
0.0
 51
90.0
  0
ARC
  5
25A
330
2
100
AcDbEntity
  8
03-01
370
    15
100
AcDbCircle
 10
126.8810173660045
 20
392.8805582531024
 30
0.0
 40
1.0
100
AcDbArc
 50
90.0
 51
180.0
  0
LINE
  5
25B
330
2
100
AcDbEntity
  8
03-01
370
    15
100
AcDbLine
 10
138.3810173660045
 20
393.8805582531024
 30
0.0
 11
126.8810173660045
 21
393.8805582531024
 31
0.0
  0
LINE
  5
25C
330
2
100
AcDbEntity
  8
03-01
370
    15
100
AcDbLine
 10
138.1310173660045
 20
397.8805582531024
 30
0.0
 11
127.1310173660045
 21
397.8805582531023
 31
0.0
  0
LINE
  5
25D
330
2
100
AcDbEntity
  8
0
100
AcDbLine
 10
122.6310173660045
 20
220.8805582531024
 30
0.0
 11
122.6310173660045
 21
192.2283295586072
 31
0.0
  0
LINE
  5
25E
330
2
100
AcDbEntity
  8
0
100
AcDbLine
 10
110.6310173660045
 20
220.8805582531024
 30
0.0
 11
110.6310173660045
 21
192.2283295586072
 31
0.0
  0
ARC
  5
25F
330
2
100
AcDbEntity
  8
0
100
AcDbCircle
 10
80.63101736600456
 20
192.2283295586071
 30
0.0
 40
42.0
100
AcDbArc
 50
340.0000000000017
 51
0.0
  0
ARC
  5
260
330
2
100
AcDbEntity
  8
0
100
AcDbCircle
 10
80.63101736600456
 20
192.2283295586071
 30
0.0
 40
30.0
100
AcDbArc
 50
340.0000000000017
 51
0.0
  0
LINE
  5
261
330
2
100
AcDbEntity
  8
0
100
AcDbLine
 10
108.8217959895819
 20
181.967725258837
 30
0.0
 11
86.12036931108466
 21
119.5960680702613
 31
0.0
  0
LINE
  5
262
330
2
100
AcDbEntity
  8
0
100
AcDbLine
 10
120.0981074390126
 20
177.863483538929
 30
0.0
 11
97.52464026952905
 21
115.8433922119724
 31
0.0
  0
LINE
  5
263
330
2
100
AcDbEntity
  8
03-01
100
AcDbLine
 10
110.6310173660045
 20
375.8805582531023
 30
0.0
 11
110.6310173660044
 21
220.8805582531024
 31
0.0
  0
LINE
  5
264
330
2
100
AcDbEntity
  8
03-01
100
AcDbLine
 10
122.6310173660045
 20
375.8805582531023
 30
0.0
 11
122.6310173660044
 21
220.8805582531024
 31
0.0
  0
LINE
  5
265
330
2
100
AcDbEntity
  8
03-01
100
AcDbLine
 10
111.2310173660046
 20
400.3805582531023
 30
0.0
 11
111.2310173660046
 21
397.8805582531024
 31
0.0
  0
LINE
  5
266
330
2
100
AcDbEntity
  8
03-01
100
AcDbLine
 10
122.0310173660045
 20
400.3805582531023
 30
0.0
 11
122.0310173660045
 21
397.8805582531023
 31
0.0
  0
LINE
  5
267
330
2
100
AcDbEntity
  8
03-01
100
AcDbLine
 10
111.1310173660045
 20
397.8805582531024
 30
0.0
 11
111.1310173660045
 21
393.8805582531024
 31
0.0
  0
LINE
  5
268
330
2
100
AcDbEntity
  8
03-01
100
AcDbLine
 10
122.1310173660045
 20
397.8805582531023
 30
0.0
 11
122.1310173660045
 21
393.8805582531023
 31
0.0
  0
ARC
  5
269
330
2
100
AcDbEntity
  8
03-01
100
AcDbCircle
 10
110.8810173660045
 20
376.8805582531024
 30
0.0
 40
1.0
100
AcDbArc
 50
180.0
 51
270.0
  0
LINE
  5
26A
330
2
100
AcDbEntity
  8
03-01
100
AcDbLine
 10
109.8810173660045
 20
392.8805582531024
 30
0.0
 11
109.8810173660045
 21
376.8805582531024
 31
0.0
  0
ARC
  5
26B
330
2
100
AcDbEntity
  8
03-01
100
AcDbCircle
 10
122.3810173660045
 20
376.8805582531023
 30
0.0
 40
1.0
100
AcDbArc
 50
270.0
 51
0.0
  0
LINE
  5
26C
330
2
100
AcDbEntity
  8
03-01
100
AcDbLine
 10
123.3810173660045
 20
392.8805582531024
 30
0.0
 11
123.3810173660045
 21
376.8805582531023
 31
0.0
  0
LINE
  5
26D
330
2
100
AcDbEntity
  8
03-01
100
AcDbLine
 10
116.6310173660045
 20
397.8805582531024
 30
0.0
 11
116.6310173660045
 21
393.8805582531024
 31
0.0
  0
LINE
  5
26E
330
2
100
AcDbEntity
  8
03-01
100
AcDbLine
 10
121.4310173660046
 20
400.3805582531023
 30
0.0
 11
121.4310173660047
 21
229.3805582531023
 31
0.0
  0
LINE
  5
26F
330
2
100
AcDbEntity
  8
03-01
100
AcDbLine
 10
120.6310173660045
 20
400.3805582531023
 30
0.0
 11
120.6310173660045
 21
229.3805582531024
 31
0.0
  0
LINE
  5
270
330
2
100
AcDbEntity
  8
03-01
100
AcDbLine
 10
127.8310173660045
 20
400.3805582531023
 30
0.0
 11
127.8310173660045
 21
229.3805582531024
 31
0.0
  0
LINE
  5
271
330
2
100
AcDbEntity
  8
03-01
100
AcDbLine
 10
128.6310173660045
 20
400.3805582531023
 30
0.0
 11
128.6310173660045
 21
229.3805582531023
 31
0.0
  0
LINE
  5
272
330
2
100
AcDbEntity
  8
0
100
AcDbLine
 10
247.1116191128665
 20
148.1805582531024
 30
0.0
 11
246.3116191128664
 21
147.3805582531024
 31
0.0
  0
LINE
  5
273
330
2
100
AcDbEntity
  8
0
100
AcDbLine
 10
239.1116191128665
 20
148.1805582531024
 30
0.0
 11
239.9116191128664
 21
147.3805582531024
 31
0.0
  0
LINE
  5
274
330
2
100
AcDbEntity
  8
0
 62
     4
100
AcDbLine
 10
239.9116191128664
 20
179.3805582531024
 30
0.0
 11
239.9116191128664
 21
147.3805582531024
 31
0.0
  0
LINE
  5
275
330
2
100
AcDbEntity
  8
03-01
100
AcDbLine
 10
239.9116191128664
 20
200.3805582531025
 30
0.0
 11
239.9116191128664
 21
179.3805582531024
 31
0.0
  0
LINE
  5
276
330
2
100
AcDbEntity
  8
0
 62
     4
100
AcDbLine
 10
239.9116191128664
 20
220.8805582531024
 30
0.0
 11
239.9116191128664
 21
200.3805582531025
 31
0.0
  0
LINE
  5
277
330
2
100
AcDbEntity
  8
03-01
100
AcDbLine
 10
239.9116191128664
 20
400.3805582531024
 30
0.0
 11
239.9116191128664
 21
220.8805582531024
 31
0.0
  0
LINE
  5
278
330
2
100
AcDbEntity
  8
0
100
AcDbLine
 10
239.1116191128665
 20
179.3805582531024
 30
0.0
 11
239.1116191128665
 21
148.1805582531024
 31
0.0
  0
LINE
  5
279
330
2
100
AcDbEntity
  8
03-01
100
AcDbLine
 10
239.1116191128665
 20
200.3805582531025
 30
0.0
 11
239.1116191128665
 21
179.3805582531024
 31
0.0
  0
LINE
  5
27A
330
2
100
AcDbEntity
  8
0
100
AcDbLine
 10
239.1116191128665
 20
220.8805582531024
 30
0.0
 11
239.1116191128665
 21
200.3805582531025
 31
0.0
  0
LINE
  5
27B
330
2
100
AcDbEntity
  8
03-01
100
AcDbLine
 10
239.1116191128665
 20
400.3805582531024
 30
0.0
 11
239.1116191128666
 21
220.8805582531024
 31
0.0
  0
LINE
  5
27C
330
2
100
AcDbEntity
  8
0
 62
     4
100
AcDbLine
 10
246.3116191128664
 20
179.3805582531024
 30
0.0
 11
246.3116191128664
 21
147.3805582531024
 31
0.0
  0
LINE
  5
27D
330
2
100
AcDbEntity
  8
03-01
100
AcDbLine
 10
246.3116191128664
 20
200.3805582531025
 30
0.0
 11
246.3116191128664
 21
179.3805582531024
 31
0.0
  0
LINE
  5
27E
330
2
100
AcDbEntity
  8
0
 62
     4
100
AcDbLine
 10
246.3116191128664
 20
220.8805582531024
 30
0.0
 11
246.3116191128664
 21
200.3805582531025
 31
0.0
  0
LINE
  5
27F
330
2
100
AcDbEntity
  8
03-01
100
AcDbLine
 10
246.3116191128664
 20
400.3805582531024
 30
0.0
 11
246.3116191128667
 21
220.8805582531024
 31
0.0
  0
LINE
  5
280
330
2
100
AcDbEntity
  8
0
100
AcDbLine
 10
247.1116191128665
 20
179.3805582531024
 30
0.0
 11
247.1116191128665
 21
148.1805582531024
 31
0.0
  0
LINE
  5
281
330
2
100
AcDbEntity
  8
03-01
100
AcDbLine
 10
247.1116191128665
 20
200.3805582531025
 30
0.0
 11
247.1116191128665
 21
179.3805582531024
 31
0.0
  0
LINE
  5
282
330
2
100
AcDbEntity
  8
0
100
AcDbLine
 10
247.1116191128665
 20
220.8805582531024
 30
0.0
 11
247.1116191128665
 21
200.3805582531025
 31
0.0
  0
LINE
  5
283
330
2
100
AcDbEntity
  8
03-01
100
AcDbLine
 10
247.1116191128665
 20
400.3805582531024
 30
0.0
 11
247.1116191128665
 21
220.8805582531024
 31
0.0
  0
LINE
  5
284
330
2
100
AcDbEntity
  8
0
100
AcDbLine
 10
249.6116191128665
 20
61.32224009741571
 30
0.0
 11
249.6116191128663
 21
49.32224009741571
 31
0.0
  0
LINE
  5
285
330
2
100
AcDbEntity
  8
0
100
AcDbLine
 10
268.6116191128664
 20
61.32224009741576
 30
0.0
 11
268.6116191128665
 21
49.32224009741576
 31
0.0
  0
LINE
  5
286
330
2
100
AcDbEntity
  8
05-01
100
AcDbLine
 10
259.1116191128665
 20
400.3805582531024
 30
0.0
 11
259.1116191128665
 21
44.55970530820117
 31
0.0
  0
LINE
  5
287
330
2
100
AcDbEntity
  8
05-01
100
AcDbLine
 10
243.1116191128665
 20
400.3805582531024
 30
0.0
 11
243.1116191128665
 21
145.4370206877721
 31
0.0
  0
LINE
  5
288
330
2
100
AcDbEntity
  8
0
370
    15
100
AcDbLine
 10
239.1116191128665
 20
148.1805582531024
 30
0.0
 11
247.1116191128665
 21
148.1805582531024
 31
0.0
  0
LINE
  5
289
330
2
100
AcDbEntity
  8
0
370
    15
100
AcDbLine
 10
239.9116191128664
 20
147.3805582531024
 30
0.0
 11
246.3116191128664
 21
147.3805582531024
 31
0.0
  0
LINE
  5
28A
330
2
100
AcDbEntity
  8
0
100
AcDbLine
 10
128.6310173660045
 20
123.1805582531023
 30
0.0
 11
127.8310173660045
 21
122.3805582531023
 31
0.0
  0
LINE
  5
28B
330
2
100
AcDbEntity
  8
0
100
AcDbLine
 10
120.6310173660045
 20
123.1805582531023
 30
0.0
 11
121.4310173660045
 21
122.3805582531024
 31
0.0
  0
LINE
  5
28C
330
2
100
AcDbEntity
  8
0
 62
     4
100
AcDbLine
 10
121.4310173660045
 20
182.2603809231052
 30
0.0
 11
121.4310173660045
 21
122.3805582531024
 31
0.0
  0
LINE
  5
28D
330
2
100
AcDbEntity
  8
0
100
AcDbLine
 10
120.6310173660045
 20
179.4220810837412
 30
0.0
 11
120.6310173660045
 21
123.1805582531023
 31
0.0
  0
LINE
  5
28E
330
2
100
AcDbEntity
  8
0
 62
     4
100
AcDbLine
 10
127.8310173660046
 20
182.2603809231052
 30
0.0
 11
127.8310173660045
 21
122.3805582531024
 31
0.0
  0
LINE
  5
28F
330
2
100
AcDbEntity
  8
0
100
AcDbLine
 10
128.6310173660045
 20
179.4220810837412
 30
0.0
 11
128.6310173660045
 21
123.1805582531023
 31
0.0
  0
LINE
  5
290
330
2
100
AcDbEntity
  8
0
100
AcDbLine
 10
100.1310173660045
 20
200.3805582531025
 30
0.0
 11
100.1310173660045
 21
194.3805582531024
 31
0.0
  0
LINE
  5
291
330
2
100
AcDbEntity
  8
0
100
AcDbLine
 10
149.1310173660045
 20
200.3805582531025
 30
0.0
 11
149.1310173660045
 21
194.3805582531024
 31
0.0
  0
LINE
  5
292
330
2
100
AcDbEntity
  8
0
100
AcDbLine
 10
108.6310173660045
 20
200.3805582531025
 30
0.0
 11
108.6310173660045
 21
194.3805582531024
 31
0.0
  0
LINE
  5
293
330
2
100
AcDbEntity
  8
0
100
AcDbLine
 10
140.6310173660045
 20
200.3805582531025
 30
0.0
 11
140.6310173660045
 21
194.3805582531024
 31
0.0
  0
LINE
  5
294
330
2
100
AcDbEntity
  8
03-01
100
AcDbLine
 10
107.1310173660045
 20
200.3805582531025
 30
0.0
 11
107.1310173660045
 21
194.3805582531024
 31
0.0
  0
LINE
  5
295
330
2
100
AcDbEntity
  8
03-01
100
AcDbLine
 10
142.1310173660045
 20
200.3805582531025
 30
0.0
 11
142.1310173660045
 21
194.3805582531024
 31
0.0
  0
LINE
  5
296
330
2
100
AcDbEntity
  8
05-01
100
AcDbLine
 10
124.6310173660045
 20
400.3805582531023
 30
0.0
 11
124.6310173660045
 21
118.3950916761775
 31
0.0
  0
INSERT
  5
297
330
2
100
AcDbEntity
  8
0
100
AcDbBlockReference
  2
Rosette01-v
 10
253.1116191128663
 20
226.3805582531024
 30
0.0
  0
LINE
  5
2B2
330
2
100
AcDbEntity
  8
03-01
370
    15
100
AcDbLine
 10
274.4116191128662
 20
405.3805582531023
 30
0.0
 11
274.4116191128662
 21
399.3805582531022
 31
0.0
  0
LINE
  5
2B3
330
2
100
AcDbEntity
  8
03-01
100
AcDbLine
 10
274.4116191128662
 20
399.3805582531024
 30
0.0
 11
272.7116191128663
 21
394.3805582531023
 31
0.0
  0
LINE
  5
2B4
330
2
100
AcDbEntity
  8
03-01
100
AcDbLine
 10
231.8116191128663
 20
399.3805582531024
 30
0.0
 11
233.5116191128662
 21
394.3805582531023
 31
0.0
  0
LINE
  5
2B5
330
2
100
AcDbEntity
  8
03-01
100
AcDbLine
 10
233.5116191128661
 20
229.3805582531024
 30
0.0
 11
233.5116191128662
 21
394.3805582531024
 31
0.0
  0
LINE
  5
2B6
330
2
100
AcDbEntity
  8
03-01
100
AcDbLine
 10
272.7116191128663
 20
229.3805582531024
 30
0.0
 11
272.7116191128663
 21
394.3805582531023
 31
0.0
  0
LINE
  5
2B7
330
2
100
AcDbEntity
  8
03-01
370
    15
100
AcDbLine
 10
231.8116191128663
 20
399.3805582531024
 30
0.0
 11
274.4116191128662
 21
399.3805582531022
 31
0.0
  0
LINE
  5
2B8
330
2
100
AcDbEntity
  8
03-01
370
    15
100
AcDbLine
 10
233.5116191128662
 20
394.3805582531024
 30
0.0
 11
272.7116191128663
 21
394.3805582531023
 31
0.0
  0
LINE
  5
2B9
330
2
100
AcDbEntity
  8
0
370
    15
100
AcDbLine
 10
230.6116191128662
 20
405.3805582531023
 30
0.0
 11
275.6116191128663
 21
405.3805582531023
 31
0.0
  0
LINE
  5
2BA
330
2
100
AcDbEntity
  8
03-01
370
    15
100
AcDbLine
 10
231.8116191128663
 20
405.3805582531023
 30
0.0
 11
231.8116191128663
 21
399.3805582531022
 31
0.0
  0
LINE
  5
2BB
330
2
100
AcDbEntity
  8
0
370
    15
100
AcDbLine
 10
230.6116191128662
 20
405.3805582531023
 30
0.0
 11
230.6116191128662
 21
338.3805582531023
 31
0.0
  0
LINE
  5
2BC
330
2
100
AcDbEntity
  8
0
370
    15
100
AcDbLine
 10
275.6116191128663
 20
338.3805582531023
 30
0.0
 11
275.6116191128663
 21
405.3805582531023
 31
0.0
  0
INSERT
  5
2BD
330
2
100
AcDbEntity
  8
0
100
AcDbBlockReference
  2
Rosette01-v
 10
124.6310173660045
 20
226.3805582531024
 30
0.0
  0
LINE
  5
2BE
330
2
100
AcDbEntity
  8
03-01
370
    15
100
AcDbLine
 10
145.9310173660045
 20
405.3805582531023
 30
0.0
 11
145.9310173660045
 21
399.3805582531022
 31
0.0
  0
LINE
  5
2BF
330
2
100
AcDbEntity
  8
03-01
100
AcDbLine
 10
145.9310173660045
 20
399.3805582531024
 30
0.0
 11
144.2310173660046
 21
394.3805582531023
 31
0.0
  0
LINE
  5
2C0
330
2
100
AcDbEntity
  8
03-01
100
AcDbLine
 10
103.3310173660046
 20
399.3805582531024
 30
0.0
 11
105.0310173660045
 21
394.3805582531023
 31
0.0
  0
LINE
  5
2C1
330
2
100
AcDbEntity
  8
03-01
100
AcDbLine
 10
105.0310173660046
 20
229.3805582531024
 30
0.0
 11
105.0310173660045
 21
394.3805582531024
 31
0.0
  0
LINE
  5
2C2
330
2
100
AcDbEntity
  8
03-01
100
AcDbLine
 10
144.2310173660046
 20
229.3805582531023
 30
0.0
 11
144.2310173660046
 21
394.3805582531023
 31
0.0
  0
LINE
  5
2C3
330
2
100
AcDbEntity
  8
03-01
370
    15
100
AcDbLine
 10
103.3310173660046
 20
399.3805582531024
 30
0.0
 11
145.9310173660045
 21
399.3805582531022
 31
0.0
  0
LINE
  5
2C4
330
2
100
AcDbEntity
  8
03-01
370
    15
100
AcDbLine
 10
105.0310173660045
 20
394.3805582531024
 30
0.0
 11
144.2310173660046
 21
394.3805582531023
 31
0.0
  0
LINE
  5
2C5
330
2
100
AcDbEntity
  8
0
370
    15
100
AcDbLine
 10
102.1310173660045
 20
405.3805582531023
 30
0.0
 11
147.1310173660045
 21
405.3805582531023
 31
0.0
  0
LINE
  5
2C6
330
2
100
AcDbEntity
  8
03-01
370
    15
100
AcDbLine
 10
103.3310173660046
 20
405.3805582531023
 30
0.0
 11
103.3310173660046
 21
399.3805582531022
 31
0.0
  0
LINE
  5
2C7
330
2
100
AcDbEntity
  8
0
370
    15
100
AcDbLine
 10
102.1310173660045
 20
405.3805582531023
 30
0.0
 11
102.1310173660045
 21
338.3805582531023
 31
0.0
  0
LINE
  5
2C8
330
2
100
AcDbEntity
  8
0
370
    15
100
AcDbLine
 10
147.1310173660045
 20
338.3805582531023
 30
0.0
 11
147.1310173660045
 21
405.3805582531023
 31
0.0
  0
LINE
  5
2C9
330
2
100
AcDbEntity
  8
03-01
100
AcDbLine
 10
103.4310173660046
 20
400.3805582531024
 30
0.0
 11
103.4310173660046
 21
405.3805582531023
 31
0.0
  0
LINE
  5
2CA
330
2
100
AcDbEntity
  8
03-01
100
AcDbLine
 10
145.8310173660046
 20
400.3805582531024
 30
0.0
 11
145.8310173660046
 21
405.3805582531023
 31
0.0
  0
LWPOLYLINE
  5
2CB
330
2
100
AcDbEntity
  8
0
100
AcDbPolyline
 90
       12
 70
   128
 43
0.0
 10
660.1962841473621
 20
502.4119924199426
 10
660.732757416104
 20
502.8722009321632
 10
661.2115327308374
 20
503.4756600640299
 10
661.452239002345
 20
504.0892211658013
 10
661.452239002345
 20
504.7061619336507
 10
661.2115327308374
 20
505.319723035422
 10
660.7327574161039
 20
505.9231821672888
 10
660.0211586206828
 20
506.50992770472
 10
659.0845327698884
 20
507.0735311408232
 10
657.9331417325436
 20
507.607817518411
 10
656.5796003897976
 20
508.1069330841238
 10
655.0387384238486
 20
508.565409423377
  0
LWPOLYLINE
  5
2CC
330
2
100
AcDbEntity
  8
0
100
AcDbPolyline
 90
       11
 70
   128
 43
0.0
 10
619.9058216930144
 20
507.086936770591
 10
619.8802457056004
 20
507.0735311408232
 10
618.943619854806
 20
506.5099277047198
 10
618.232021059385
 20
505.9231821672887
 10
617.7532457446515
 20
505.319723035422
 10
617.5125394731439
 20
504.7061619336505
 10
617.5125394731439
 20
504.0892211658013
 10
617.7532457446515
 20
503.4756600640299
 10
618.232021059385
 20
502.8722009321632
 10
618.9436198548061
 20
502.2854553947318
 10
619.2912950281404
 20
502.0571896478541
  0
LWPOLYLINE
  5
2CD
330
2
100
AcDbEntity
  8
0
100
AcDbPolyline
 90
        9
 70
   128
 43
0.0
 10
661.9805796151008
 20
503.8395189013487
 10
661.9515537697223
 20
503.600488649852
 10
661.705376901135
 20
502.9729829775857
 10
661.2157203292484
 20
502.3558088654493
 10
660.4879488339313
 20
501.7557282021674
 10
659.5300360319826
 20
501.1793155970618
 10
658.3524770165163
 20
500.6328863472561
 10
656.9681733705261
 20
500.1224272459589
 10
655.3922918144418
 20
499.6535309899046
  0
LWPOLYLINE
  5
2CE
330
2
100
AcDbEntity
  8
0
100
AcDbPolyline
 90
       24
 70
   128
 43
0.0
 10
655.3922918144418
 20
499.6535309899046
 10
653.6420980363657
 20
499.231334904597
 10
651.7367675255825
 20
498.8604646586972
 10
649.6971754818842
 20
498.5449835842287
 10
647.5456681025137
 20
498.2883481578624
 10
645.3058177525512
 20
498.0933701310335
 10
643.0021647011496
 20
497.962185723806
 10
640.6599482532107
 20
497.8962322199977
 10
638.3048302222781
 20
497.8962322199977
 10
635.9626137743393
 20
497.9621857238062
 10
633.6589607229377
 20
498.0933701310335
 10
631.4191103729752
 20
498.2883481578624
 10
629.2676029936046
 20
498.5449835842287
 10
627.2280109499063
 20
498.8604646586972
 10
625.3226804391231
 20
499.231334904597
 10
623.5724866610471
 20
499.6535309899046
 10
621.9966051049625
 20
500.1224272459591
 10
620.6123014589723
 20
500.6328863472563
 10
619.4347424435061
 20
501.179315597062
 10
618.4768296415573
 20
501.7557282021676
 10
617.7490581462405
 20
502.3558088654494
 10
617.2594015743539
 20
502.9729829775858
 10
617.0132247057665
 20
503.6004886498521
 10
616.9855873934438
 20
503.8143375411665
  0
LWPOLYLINE
  5
2CF
330
2
100
AcDbEntity
  8
0
100
AcDbPolyline
 90
       10
 70
   128
 43
0.0
 10
614.4838716575621
 20
228.539332752486
 10
614.5197411481192
 20
228.2462804535079
 10
614.7738433018364
 20
227.5925267749382
 10
615.2659022599815
 20
226.9485937898559
 10
615.9911792258009
 20
226.3206829249171
 10
616.9426893856368
 20
225.7148413050022
 10
618.111269176502
 20
225.1369035160976
 10
619.4856645361994
 20
224.5924354150434
 10
621.0526392860945
 20
224.0866805272893
 10
622.7971026027496
 20
223.6245095488782
  0
LWPOLYLINE
  5
2D0
330
2
100
AcDbEntity
  8
0
100
AcDbPolyline
 90
       25
 70
   128
 43
0.0
 10
622.7971026027496
 20
223.6245095488782
 10
624.7022543508058
 20
223.2103734389804
 10
626.7497468774665
 20
222.8482605547241
 10
628.919861710427
 20
222.5416582411358
 10
631.1916994575407
 20
222.2935192461012
 10
633.5433810793897
 20
222.1062332837889
 10
635.9522585963957
 20
221.9816040203971
 10
638.3951332012436
 20
221.9208317038614
 10
640.8484786760777
 20
221.9245016048117
 10
643.2886679628402
 20
221.9925783800956
 10
645.6922007047563
 20
222.1244064131525
 10
648.0359295676168
 20
222.3187161279597
 10
650.2972831612601
 20
222.573636215743
 10
652.4544834143974
 20
222.8867116567036
 10
654.4867553093455
 20
223.2549273632005
 10
656.3745269568032
 20
223.6747372166931
 10
658.0996180838447
 20
224.1420982188007
 10
659.6454151198856
 20
224.6525094275876
 10
660.9970311944505
 20
225.201055304094
 10
662.1414495058727
 20
225.7824530516635
 10
663.0676486802103
 20
226.3911034921626
 10
663.7667089131028
 20
227.0211449891272
 10
664.231897872362
 20
227.6665098985258
 10
664.4587355340124
 20
228.3209830034884
 10
664.4823892377444
 20
228.6122709118755
  0
LWPOLYLINE
  5
2D1
330
2
100
AcDbEntity
  8
0
100
AcDbPolyline
 90
       25
 70
   128
 43
0.0
 10
664.4823892377444
 20
231.5026018643082
 10
664.4587355340122
 20
231.211313955921
 10
664.2318978723619
 20
230.5568408509583
 10
663.7667089131028
 20
229.9114759415598
 10
663.0676486802101
 20
229.2814344445952
 10
662.1414495058725
 20
228.6727840040961
 10
660.9970311944502
 20
228.0913862565266
 10
659.6454151198854
 20
227.5428403800201
 10
658.0996180838444
 20
227.0324291712333
 10
656.374526956803
 20
226.5650681691257
 10
654.4867553093451
 20
226.1452583156331
 10
652.454483414397
 20
225.7770426091362
 10
650.2972831612596
 20
225.4639671681756
 10
648.0359295676166
 20
225.2090470803923
 10
645.692200704756
 20
225.0147373655853
 10
643.2886679628397
 20
224.8829093325282
 10
640.8484786760773
 20
224.8148325572444
 10
638.3951332012433
 20
224.8111626562941
 10
635.9522585963953
 20
224.8719349728298
 10
633.5433810793893
 20
224.9965642362216
 10
631.1916994575404
 20
225.1838501985338
 10
628.9198617104268
 20
225.4319891935685
 10
626.7497468774662
 20
225.7385915071568
 10
624.7022543508054
 20
226.1007043914132
 10
622.7971026027496
 20
226.5148405013109
  0
LWPOLYLINE
  5
2D2
330
2
100
AcDbEntity
  8
0
100
AcDbPolyline
 90
       10
 70
   128
 43
0.0
 10
622.7971026027496
 20
226.5148405013109
 10
621.0526392860942
 20
226.977011479722
 10
619.4856645361992
 20
227.4827663674761
 10
618.1112691765017
 20
228.0272344685303
 10
616.9426893856368
 20
228.605172257435
 10
615.9911792258007
 20
229.2110138773499
 10
615.2659022599814
 20
229.8389247422887
 10
614.7738433018363
 20
230.4828577273708
 10
614.5197411481192
 20
231.1366114059407
 10
614.4840082345008
 20
231.4263778898997
  0
LWPOLYLINE
  5
2D3
330
2
100
AcDbEntity
  8
0
100
AcDbPolyline
 90
       13
 70
   128
 43
0.0
 10
616.9823892377443
 20
234.7035439256047
 10
616.3821634233086
 20
234.2101355018824
 10
615.8420815744385
 20
233.5750760426673
 10
615.5445812726416
 20
232.9286364294814
 10
615.4927152735963
 20
232.2774500075288
 10
615.6870157926387
 20
231.6281988306944
 10
616.1254890435132
 20
230.98754509463
 10
616.8036356973163
 20
230.3620627736105
 10
617.7144970517011
 20
229.7581701626624
 10
618.8487264365793
 20
229.1820640171715
 10
620.1946851236044
 20
228.6396559657863
 10
621.7385617552745
 20
228.1365118491097
 10
623.4645140681496
 20
227.6777946066417
  0
LWPOLYLINE
  5
2D4
330
2
100
AcDbEntity
  8
0
100
AcDbPolyline
 90
       15
 70
   128
 43
0.0
 10
653.0350866437211
 20
227.1594829957158
 10
654.7232773615592
 20
227.4990921749883
 10
656.5206975895685
 20
227.9376667382735
 10
658.1432817173729
 20
228.4227085956846
 10
659.5743798361142
 20
228.9492405613984
 10
660.7993069425088
 20
229.5118597049346
 10
661.805493626854
 20
230.1047927925355
 10
662.5826150521803
 20
230.7219555283556
 10
663.1226969010504
 20
231.3570149875707
 10
663.4201972028474
 20
232.0034546007565
 10
663.4720632018927
 20
232.6546410227093
 10
663.2777626828502
 20
233.3038921995436
 10
662.8392894319759
 20
233.9445459356081
 10
662.1611427781727
 20
234.5700282566276
 10
661.9823892377445
 20
234.7035439256047
  0
LINE
  5
2D5
330
2
100
AcDbEntity
  8
0
100
AcDbLine
 10
623.4645140681496
 20
227.6777946066417
 30
0.0
 11
625.1855074883377
 21
227.3015488841854
 31
0.0
  0
LWPOLYLINE
  5
2D6
330
2
100
AcDbEntity
  8
0
100
AcDbPolyline
 90
       10
 70
   128
 43
0.0
 10
652.8934242378445
 20
483.6767540888522
 10
653.6001270705899
 20
483.9855360263554
 10
654.4594573736618
 20
484.4663040720099
 10
655.0917505905759
 20
484.9717199852366
 10
655.4874218006878
 20
485.4941221759836
 10
655.6404730317774
 20
486.0255915595466
 10
655.5485841831933
 20
486.5580716018209
 10
655.2131481962133
 20
487.0834904481458
 10
654.6392499384758
 20
487.5938832843936
 10
654.4245945324306
 20
487.7410822425489
  0
ARC
  5
2D7
330
2
100
AcDbEntity
  8
0
100
AcDbCircle
 10
650.9071909765526
 20
490.7213054722214
 30
0.0
 40
7.816918320981437
100
AcDbArc
 50
285.367525843528
 51
316.4001260493466
  0
ARC
  5
2D8
330
2
100
AcDbEntity
  8
0
100
AcDbCircle
 10
653.2993941038653
 20
484.5020190532217
 30
0.0
 40
4.025423320400751
100
AcDbArc
 50
35.45919762167467
 51
64.31977738662894
  0
LWPOLYLINE
  5
2D9
330
2
100
AcDbEntity
  8
0
100
AcDbPolyline
 90
       30
 70
   128
 43
0.0
 10
659.4823892377445
 20
476.4578256762103
 10
659.3894306716313
 20
475.9418133172341
 10
659.0567261442916
 20
475.3582365124749
 10
658.4864156830059
 20
474.7880072306204
 10
657.6854220842112
 20
474.2380472826994
 10
656.6634683251423
 20
473.715032437484
 10
655.4329595400586
 20
473.2253113867007
 10
654.0088324387202
 20
472.7748286805121
 10
652.4083739949633
 20
472.3690525687312
 10
650.6510116062567
 20
472.0129086236765
 10
648.7580772714132
 20
471.7107199503951
 10
646.752548649021
 20
471.4661547100255
 10
644.6587701397947
 20
471.2821815932885
 10
642.5021573785291
 20
471.161033784605
 10
640.3088887227206
 20
471.1041818542612
 10
638.1055874827705
 20
471.1123159076776
 10
635.9189987510604
 20
471.1853372084647
 10
633.7756647527621
 20
471.3223593769479
 10
631.7016026591779
 20
471.5217191496174
 10
629.7219887745243
 20
471.7809965688924
 10
627.8608529297056
 20
472.0970443581298
 10
626.1407867927161
 20
472.4660261252976
 10
624.5826696363955
 20
472.8834629315786
 10
623.2054148923404
 20
473.3442876596193
 10
622.0257405674646
 20
473.8429065214711
 10
621.0579663100433
 20
474.3732669595981
 10
620.3138395885794
 20
474.9289311167267
 10
619.8023930934509
 20
475.5031539827118
 10
619.5298350922849
 20
476.0889652698237
 10
619.4823892377444
 20
476.4578256762103
  0
LWPOLYLINE
  5
2DA
330
2
100
AcDbEntity
  8
0
100
AcDbPolyline
 90
       14
 70
   128
 43
0.0
 10
619.6888535679208
 20
479.324172774419
 10
619.4347424435061
 20
479.1944798034688
 10
618.4768296415573
 20
478.6180671983632
 10
617.7490581462405
 20
478.0179865350812
 10
617.2594015743539
 20
477.4008124229449
 10
617.0132247057665
 20
476.7733067506786
 10
617.0132247057665
 20
476.1423446017419
 10
617.2594015743539
 20
475.5148389294755
 10
617.7490581462405
 20
474.8976648173392
 10
618.4768296415575
 20
474.2975841540572
 10
619.4347424435063
 20
473.7211715489516
 10
620.6123014589725
 20
473.174742299146
 10
621.9966051049627
 20
472.6642831978487
 10
623.5724866610471
 20
472.1953869417943
  0
LWPOLYLINE
  5
2DB
330
2
100
AcDbEntity
  8
0
100
AcDbPolyline
 90
       26
 70
   128
 43
0.0
 10
623.5724866610471
 20
472.1953869417943
 10
625.3226804391231
 20
471.7731908564868
 10
627.2280109499063
 20
471.402320610587
 10
629.2676029936046
 20
471.0868395361186
 10
631.4191103729752
 20
470.8302041097521
 10
633.6589607229377
 20
470.6352260829233
 10
635.9626137743394
 20
470.5040416756959
 10
638.3048302222782
 20
470.4380881718875
 10
640.6599482532108
 20
470.4380881718875
 10
643.0021647011496
 20
470.5040416756959
 10
645.3058177525512
 20
470.6352260829233
 10
647.5456681025137
 20
470.8302041097521
 10
649.6971754818843
 20
471.0868395361186
 10
651.7367675255825
 20
471.402320610587
 10
653.6420980363658
 20
471.7731908564868
 10
655.3922918144419
 20
472.1953869417943
 10
656.9681733705262
 20
472.6642831978489
 10
658.3524770165166
 20
473.174742299146
 10
659.5300360319827
 20
473.7211715489516
 10
660.4879488339316
 20
474.2975841540574
 10
661.2157203292485
 20
474.8976648173393
 10
661.7053769011351
 20
475.5148389294756
 10
661.9515537697224
 20
476.1423446017419
 10
661.9515537697224
 20
476.7733067506788
 10
661.7053769011351
 20
477.4008124229449
 10
661.3262126035463
 20
477.9029911524268
  0
LWPOLYLINE
  5
2DC
330
2
100
AcDbEntity
  8
0
100
AcDbPolyline
 90
       46
 70
   128
 43
0.0
 10
742.0128725097937
 20
416.1505167110342
 10
741.9268535774578
 20
417.8035392944371
 10
741.6704710411226
 20
419.3782968282544
 10
741.2487150952276
 20
420.8441384483502
 10
740.6697947395188
 20
422.1725332149596
 10
739.9449780002081
 20
423.3376254349773
 10
739.0883726106595
 20
424.3167379136133
 10
738.1166514204063
 20
425.090813340195
 10
737.0487278771004
 20
425.6447852170415
 10
735.905387897767
 20
425.9678711117039
 10
734.708885294574
 20
426.0537825247474
 10
733.4825086296911
 20
425.9008472882396
 10
732.2501279299173
 20
425.512042112598
 10
731.0357300837615
 20
424.8949346483072
 10
729.862951963942
 20
424.0615361902103
 10
728.7546203625459
 20
423.0280678913174
 10
727.7323076934857
 20
421.8146450365137
 10
726.8159121100013
 20
420.4448855214199
 10
726.0232702097408
 20
418.9454501569188
 10
725.3698098656757
 20
417.3455237467983
 10
724.8682499401033
 20
415.6762470387418
 10
724.528352726459
 20
413.9701106050976
 10
724.3567339373789
 20
412.2603224508452
 10
724.3567339373789
 20
410.5801616575518
 10
724.528352726459
 20
408.9623306439044
 10
724.8682499401033
 20
407.4383186503282
 10
725.3698098656758
 20
406.0377888367399
 10
726.0232702097408
 20
404.7880009228824
 10
726.8159121100015
 20
403.7132806088859
 10
727.7323076934858
 20
402.8345461031863
 10
728.754620362546
 20
402.1689009733911
 10
729.8629519639422
 20
401.729301244792
 10
731.0357300837616
 20
401.5243032260687
 10
732.2501279299174
 20
401.5578969704738
 10
733.4825086296912
 20
401.8294286139849
 10
734.708885294574
 20
402.3336131020238
 10
735.9053878977671
 20
403.0606370570319
 10
737.0487278771005
 20
403.9963497847028
 10
738.1166514204064
 20
405.1225387011495
 10
739.0883726106595
 20
406.4172838201344
 10
739.9449780002083
 20
407.8553844006674
 10
740.6697947395189
 20
409.4088494507633
 10
741.2487150952276
 20
411.0474425402625
 10
741.6704710411228
 20
412.7392703185497
 10
741.9268535774578
 20
414.4514032823463
 10
742.0128725097937
 20
416.1505167110342
  0
LWPOLYLINE
  5
2DD
330
2
100
AcDbEntity
  8
0
100
AcDbPolyline
 90
       21
 70
   128
 43
0.0
 10
651.8250246893367
 20
422.6586838659483
 10
650.6710330556366
 20
423.0322951356758
 10
649.2224003523801
 20
423.7825909973937
 10
647.7489975830008
 20
424.8716486007216
 10
646.3994781588464
 20
426.2520979420019
 10
645.2137684975061
 20
427.9720691364906
 10
644.3376355876912
 20
429.9823676254302
 10
643.9305808000945
 20
431.9042711632776
 10
643.9227014800624
 20
433.9693715061442
 10
644.2354930919586
 20
435.6574193298498
 10
644.8300303917128
 20
437.3368127593258
 10
645.6767770501125
 20
438.957796390498
 10
646.7462347408573
 20
440.5036513949073
 10
648.1544594680372
 20
442.1076958471934
 10
649.7514536882838
 20
443.5652574747664
 10
651.4764819322133
 20
444.8295186762421
 10
653.2843911448343
 20
445.8586970993332
 10
654.7992141551193
 20
446.4847791251316
 10
656.2558200177001
 20
446.8477987213029
 10
657.4031647727386
 20
446.9172259419212
 10
658.2857890423751
 20
446.7697783512926
  0
LWPOLYLINE
  5
2DE
330
2
100
AcDbEntity
  8
0
100
AcDbPolyline
 90
       12
 70
   128
 43
0.0
 10
725.4957732306813
 20
402.9249073976222
 10
723.3006842829222
 20
403.6475430578861
 10
721.8124285722119
 20
404.2887496292124
 10
720.3175216157424
 20
404.9861729790063
 10
719.2170089812414
 20
405.4969001679279
 10
718.1380719923457
 20
405.9572977343125
 10
716.534638114737
 20
406.4625144982665
 10
715.3286686981949
 20
406.5691291061496
 10
714.7609091979091
 20
406.467026985481
 10
714.4056203250165
 20
406.2859299923275
 10
714.2752261687544
 20
406.0843340381779
 10
714.282886856917
 20
406.070898437671
  0
LWPOLYLINE
  5
2DF
330
2
100
AcDbEntity
  8
0
100
AcDbPolyline
 90
       21
 70
   128
 43
0.0
 10
732.2745428083502
 20
400.0561372295436
 10
732.1544954067156
 20
399.6636277108274
 10
731.7922411712458
 20
399.2774043361758
 10
731.1976463284186
 20
398.91242276485
 10
730.3869298755532
 20
398.57863874268
 10
729.3822060441041
 20
398.2851570276805
 10
728.2108810810733
 20
398.039983035987
 10
726.9049056780361
 20
397.8498044749721
 10
725.4999034395634
 20
397.7198089200215
 10
724.0341991641535
 20
397.6535423110014
 10
722.5477734436339
 20
397.6528122282616
 10
721.0811720968372
 20
397.7176385865561
 10
719.6744001853597
 20
397.8462530918203
 10
718.3658307797663
 20
398.0351474756236
 10
717.1911582422552
 20
398.2791691915867
 10
716.1824245775072
 20
398.5716619634153
 10
715.3671454103243
 20
398.9046473507658
 10
714.7675594311128
 20
399.2690423802991
 10
714.4000217823819
 20
399.6549073055168
 10
714.2745579330895
 20
400.0517167371334
 10
714.2745428083502
 20
400.0561372295436
  0
LWPOLYLINE
  5
2E0
330
2
100
AcDbEntity
  8
0
100
AcDbPolyline
 90
       10
 70
   128
 43
0.0
 10
655.6831411737591
 20
488.347120937956
 10
655.9631433115621
 20
488.1440130547097
 10
656.3851235857302
 20
487.3740019344446
 10
656.5843262870307
 20
486.3578119726999
 10
656.5508109961635
 20
485.2224119564125
 10
656.2924992983453
 20
484.0931123988308
 10
655.818791800179
 20
483.0820351275247
 10
655.1533847605083
 20
482.3092672638971
 10
654.3588866742542
 20
481.8806453334413
 10
653.9141901160101
 20
481.8602584132004
  0
LWPOLYLINE
  5
2E1
330
2
100
AcDbEntity
  8
0
100
AcDbPolyline
 90
       24
 70
   128
 43
0.0
 10
661.9823892377445
 20
479.3481566286429
 10
661.9515537697224
 20
479.0326755541745
 10
661.7053769011351
 20
478.4051698819082
 10
661.2157203292485
 20
477.7879957697718
 10
660.4879488339316
 20
477.18791510649
 10
659.5300360319827
 20
476.6115025013844
 10
658.3524770165166
 20
476.0650732515787
 10
656.9681733705262
 20
475.5546141502815
 10
655.3922918144417
 20
475.085717894227
 10
653.6420980363657
 20
474.6635218089194
 10
651.7367675255825
 20
474.2926515630196
 10
649.6971754818842
 20
473.9771704885511
 10
647.5456681025137
 20
473.7205350621848
 10
645.3058177525511
 20
473.5255570353559
 10
643.0021647011495
 20
473.3943726281286
 10
640.6599482532105
 20
473.3284191243201
 10
638.304830222278
 20
473.3284191243202
 10
635.9626137743391
 20
473.3943726281286
 10
633.6589607229377
 20
473.5255570353559
 10
631.4191103729751
 20
473.7205350621848
 10
629.2676029936045
 20
473.9771704885513
 10
627.2280109499063
 20
474.2926515630196
 10
625.322680439123
 20
474.6635218089195
 10
623.5724866610471
 20
475.085717894227
  0
LWPOLYLINE
  5
2E2
330
2
100
AcDbEntity
  8
0
100
AcDbPolyline
 90
        7
 70
   128
 43
0.0
 10
617.0340351424144
 20
486.3208120049684
 10
616.9976893272994
 20
486.0001434684295
 10
617.4378746756224
 20
484.2897997762682
 10
618.3410940329168
 20
482.4693084394503
 10
619.6953202767104
 20
480.3477465704117
 10
621.4834149792634
 20
477.8608305385037
 10
623.5724866610471
 20
475.085717894227
  0
LWPOLYLINE
  5
2E3
330
2
100
AcDbEntity
  8
0
100
AcDbPolyline
 90
       20
 70
   128
 43
0.0
 10
652.7237491490932
 20
484.3498553367554
 10
652.8823356269318
 20
483.2725741731216
 10
653.332360422214
 20
482.3809200890345
 10
654.0118468799018
 20
481.7728683489143
 10
654.8273918557716
 20
481.5287612939885
 10
655.6621970634617
 20
481.6829839821004
 10
656.4188750206703
 20
482.2093012481811
 10
657.0336399555664
 20
483.0488653600723
 10
657.4588166156019
 20
484.1148134680435
 10
657.6592321202476
 20
485.2770775135986
 10
657.6239264636619
 20
486.3878496642664
 10
657.3603215337961
 20
487.3294151504033
 10
656.8798160613264
 20
488.0135116061195
 10
656.2093242665296
 20
488.3640586344167
 10
655.4126449773912
 20
488.3384137359749
 10
654.5801428518071
 20
487.9485491863208
 10
653.8040507898004
 20
487.239796408707
 10
653.1795096981141
 20
486.2754327331193
 10
652.8032636461254
 20
485.1551674592781
 10
652.7237491490932
 20
484.3498553367554
  0
LWPOLYLINE
  5
2E4
330
2
100
AcDbEntity
  8
0
100
AcDbPolyline
 90
       25
 70
   128
 43
0.0
 10
619.2912950281404
 20
502.0571896478541
 10
619.8802457056004
 20
501.7218519586286
 10
621.0316367429452
 20
501.1875655810408
 10
622.3851780856912
 20
500.6884500153281
 10
623.9260400516404
 20
500.2299736760748
 10
625.6373406346481
 20
499.8171597259963
 10
627.500330467414
 20
499.4545310411165
 10
629.4945982434746
 20
499.1460606571918
 10
631.598294347748
 20
498.8951282403002
 10
633.7883702454892
 20
498.704483058512
 10
636.0408310068597
 20
498.576213860334
 10
638.3309982003999
 20
498.5117259899436
 10
640.6337802750893
 20
498.5117259899436
 10
642.9239474686298
 20
498.576213860334
 10
645.1764082300001
 20
498.704483058512
 10
647.3664841277412
 20
498.8951282403003
 10
649.4701802320146
 20
499.1460606571918
 10
651.4644480080752
 20
499.4545310411165
 10
653.327437840841
 20
499.8171597259963
 10
655.0387384238486
 20
500.2299736760749
 10
656.5796003897981
 20
500.6884500153281
 10
657.9331417325438
 20
501.187565581041
 10
659.0845327698887
 20
501.7218519586288
 10
660.0211586206829
 20
502.285455394732
 10
660.1962841473621
 20
502.4119924199426
  0
LWPOLYLINE
  5
2E5
330
2
100
AcDbEntity
  8
0
100
AcDbPolyline
 90
       19
 70
   128
 43
0.0
 10
655.0387384238486
 20
508.565409423377
 10
653.3274378408409
 20
508.9782233734555
 10
651.4644480080751
 20
509.3408520583353
 10
649.4701802320146
 20
509.64932244226
 10
647.3664841277411
 20
509.9002548591516
 10
645.17640823
 20
510.0909000409398
 10
642.9239474686296
 20
510.2191692391178
 10
640.6337802750893
 20
510.2836571095082
 10
638.3309982003997
 20
510.2836571095082
 10
636.0408310068594
 20
510.2191692391178
 10
633.7883702454889
 20
510.0909000409398
 10
631.5982943477479
 20
509.9002548591516
 10
629.4945982434744
 20
509.64932244226
 10
627.500330467414
 20
509.3408520583353
 10
625.6373406346481
 20
508.9782233734555
 10
623.9260400516404
 20
508.565409423377
 10
622.3851780856912
 20
508.1069330841237
 10
621.0316367429451
 20
507.607817518411
 10
619.9058216930144
 20
507.086936770591
  0
LINE
  5
2E6
330
2
100
AcDbEntity
  8
0
100
AcDbLine
 10
661.9823892377445
 20
503.9159697243205
 30
0.0
 11
661.9805796151008
 21
503.8395189013487
 31
0.0
  0
LINE
  5
2E7
330
2
100
AcDbEntity
  8
0
100
AcDbLine
 10
616.9855873934438
 20
503.8143375411665
 30
0.0
 11
616.9823892377443
 21
503.9159697243205
 31
0.0
  0
ARC
  5
2E8
330
2
100
AcDbEntity
  8
0
100
AcDbCircle
 10
656.0511757853212
 20
497.2317778206316
 30
0.0
 40
2.509784154064793
100
AcDbArc
 50
76.65699728616063
 51
105.2200078895884
  0
LWPOLYLINE
  5
2E9
330
2
100
AcDbEntity
  8
0
100
AcDbPolyline
 90
       10
 70
   128
 43
0.0
 10
655.3922918144418
 20
499.6535309899046
 10
654.3006776620772
 20
499.1597871057478
 10
653.1643938862006
 20
498.198704246306
 10
652.2127398478183
 20
496.8623228179296
 10
651.6080831759255
 20
495.2748727771953
 10
651.4589473893003
 20
493.995681962847
 10
651.6953636471883
 20
492.4639946086523
 10
652.3609202407921
 20
491.1893381142034
 10
653.3638487116629
 20
490.3035846879548
 10
654.0572909228783
 20
490.0904769600818
  0
LWPOLYLINE
  5
2EA
330
2
100
AcDbEntity
  8
0
100
AcDbPolyline
 90
        9
 70
   128
 43
0.0
 10
616.9823892377443
 20
232.4660455151191
 10
617.0132247057665
 20
232.1505644406506
 10
617.2594015743539
 20
231.5230587683843
 10
617.7490581462405
 20
230.9058846562479
 10
618.4768296415575
 20
230.305803992966
 10
619.4347424435063
 20
229.7293913878605
 10
620.6123014589725
 20
229.1829621380548
 10
621.9966051049627
 20
228.6725030367576
 10
623.5724866610471
 20
228.2036067807031
  0
LWPOLYLINE
  5
2EB
330
2
100
AcDbEntity
  8
0
100
AcDbPolyline
 90
       24
 70
   128
 43
0.0
 10
623.5724866610471
 20
228.2036067807031
 10
625.3226804391231
 20
227.7814106953956
 10
627.2280109499063
 20
227.4105404494958
 10
629.2676029936046
 20
227.0950593750274
 10
631.4191103729752
 20
226.838423948661
 10
633.6589607229377
 20
226.6434459218321
 10
635.9626137743394
 20
226.5122615146047
 10
638.3048302222782
 20
226.4463080107963
 10
640.6599482532108
 20
226.4463080107963
 10
643.0021647011496
 20
226.5122615146047
 10
645.3058177525512
 20
226.6434459218321
 10
647.5456681025137
 20
226.838423948661
 10
649.6971754818843
 20
227.0950593750274
 10
651.7367675255825
 20
227.4105404494958
 10
653.6420980363658
 20
227.7814106953956
 10
655.3922918144419
 20
228.2036067807031
 10
656.9681733705262
 20
228.6725030367577
 10
658.3524770165166
 20
229.1829621380548
 10
659.5300360319827
 20
229.7293913878605
 10
660.4879488339316
 20
230.3058039929662
 10
661.2157203292485
 20
230.9058846562481
 10
661.7053769011351
 20
231.5230587683844
 10
661.9515537697224
 20
232.1505644406506
 10
661.9823892377445
 20
232.4660455151191
  0
LINE
  5
2EC
330
2
100
AcDbEntity
  8
0
100
AcDbLine
 10
614.4823892377444
 20
228.6122709118755
 30
0.0
 11
614.4838716575621
 21
228.539332752486
 31
0.0
  0
LINE
  5
2ED
330
2
100
AcDbEntity
  8
0
100
AcDbLine
 10
664.4823892377444
 20
228.6122709118755
 30
0.0
 11
664.4809265684168
 21
228.6847215735948
 31
0.0
  0
LINE
  5
2EE
330
2
100
AcDbEntity
  8
0
100
AcDbLine
 10
664.4808174265452
 20
231.5777068892532
 30
0.0
 11
664.4823892377444
 21
231.5026018643082
 31
0.0
  0
LINE
  5
2EF
330
2
100
AcDbEntity
  8
0
100
AcDbLine
 10
614.4840082345008
 20
231.4263778898997
 30
0.0
 11
614.4823892377444
 21
231.5026018643082
 31
0.0
  0
ARC
  5
2F0
330
2
100
AcDbEntity
  8
0
100
AcDbCircle
 10
639.5215728076915
 20
307.8540663608659
 30
0.0
 40
81.81827937980427
100
AcDbArc
 50
259.9086340247262
 51
279.506818167703
  0
ARC
  5
2F1
330
2
100
AcDbEntity
  8
0
100
AcDbCircle
 10
639.4823892377445
 20
476.4578256762103
 30
0.0
 40
20.00000000000006
100
AcDbArc
 50
169.656200653685
 51
180.0
  0
LINE
  5
2F2
330
2
100
AcDbEntity
  8
0
100
AcDbLine
 10
616.9823892377443
 20
476.4578256762103
 30
0.0
 11
616.9823892377443
 21
409.0167701194483
 31
0.0
  0
LINE
  5
2F3
330
2
100
AcDbEntity
  8
0
100
AcDbLine
 10
661.9823892377445
 20
445.7963534971037
 30
0.0
 11
661.9823892377445
 21
476.4578256762103
 31
0.0
  0
LINE
  5
2F4
330
2
100
AcDbEntity
  8
0
100
AcDbLine
 10
661.9823892377445
 20
409.0167701194483
 30
0.0
 11
661.9823892377445
 21
419.914695758077
 31
0.0
  0
LINE
  5
2F5
330
2
100
AcDbEntity
  8
0
100
AcDbLine
 10
651.8187256931228
 20
422.6376535491334
 30
0.0
 11
714.2745428083503
 21
405.9050498906134
 31
0.0
  0
LINE
  5
2F6
330
2
100
AcDbEntity
  8
0
100
AcDbLine
 10
725.5202466761554
 20
402.892201538411
 30
0.0
 11
729.9392293508293
 21
401.7083072418595
 31
0.0
  0
LINE
  5
2F7
330
2
100
AcDbEntity
  8
0
100
AcDbLine
 10
736.4088461390943
 20
425.8566831419691
 30
0.0
 11
658.289442795079
 21
446.7857346630447
 31
0.0
  0
LINE
  5
2F8
330
2
100
AcDbEntity
  8
0
100
AcDbLine
 10
732.2745428083502
 20
400.0561372295436
 30
0.0
 11
732.2745428083502
 21
401.5609883200902
 31
0.0
  0
LINE
  5
2F9
330
2
100
AcDbEntity
  8
0
100
AcDbLine
 10
714.2745428083502
 20
406.0692613275969
 30
0.0
 11
714.2745428083502
 21
400.0561372295436
 31
0.0
  0
LINE
  5
2FA
330
2
100
AcDbEntity
  8
0
100
AcDbLine
 10
661.9823892377445
 20
498.247084351076
 30
0.0
 11
661.9823892377445
 21
503.9159697243205
 31
0.0
  0
LINE
  5
2FB
330
2
100
AcDbEntity
  8
0
100
AcDbLine
 10
661.9823892377445
 20
479.3481566286429
 30
0.0
 11
661.9823892377445
 21
487.8944212554653
 31
0.0
  0
LINE
  5
2FC
330
2
100
AcDbEntity
  8
0
100
AcDbLine
 10
616.9823892377443
 20
503.9159697243205
 30
0.0
 11
616.9823892377443
 21
486.3214198471768
 31
0.0
  0
ARC
  5
2FD
330
2
100
AcDbEntity
  8
0
100
AcDbCircle
 10
620.6583103624406
 20
503.4906240365655
 30
0.0
 40
3.656968297165227
100
AcDbArc
 50
106.8745072780233
 51
175.3665499273507
  0
LWPOLYLINE
  5
2FE
330
2
100
AcDbEntity
  8
0
100
AcDbPolyline
 90
        8
 70
   128
 43
0.0
 10
661.952697071656
 20
503.8181747342427
 10
661.9578578075332
 20
504.2350765310754
 10
661.7526264481459
 20
504.885850953583
 10
661.3526342811105
 20
505.502537592898
 10
660.7412571391084
 20
506.1085831557266
 10
659.906963674984
 20
506.6999120782753
 10
658.8660565814353
 20
507.2598583619866
 10
658.1851987770345
 20
507.5486594968971
  0
ARC
  5
2FF
330
2
100
AcDbEntity
  8
0
100
AcDbCircle
 10
649.4280229701005
 20
486.5746126554173
 30
0.0
 40
22.72880923018512
100
AcDbArc
 50
67.3382744043371
 51
75.37167852468788
  0
LINE
  5
300
330
2
100
AcDbEntity
  8
0
100
AcDbLine
 10
654.0378385654125
 20
490.0228541826963
 30
0.0
 11
730.4617925896408
 21
469.5480322722707
 31
0.0
  0
LINE
  5
301
330
2
100
AcDbEntity
  8
0
100
AcDbLine
 10
733.0496393049482
 20
479.2073826323146
 30
0.0
 11
656.6329045020038
 21
499.6802704335719
 31
0.0
  0
LINE
  5
302
330
2
100
AcDbEntity
  8
0
100
AcDbLine
 10
616.9823892377443
 20
409.0167701194483
 30
0.0
 11
616.9823892377443
 21
232.4660455151191
 31
0.0
  0
LINE
  5
303
330
2
100
AcDbEntity
  8
0
100
AcDbLine
 10
661.9823892377445
 20
232.4660455151191
 30
0.0
 11
661.9823892377445
 21
409.0167701194483
 31
0.0
  0
LWPOLYLINE
  5
304
330
2
100
AcDbEntity
  8
0
100
AcDbPolyline
 90
       27
 70
   128
 43
0.0
 10
623.2310404823583
 20
222.8516568589208
 10
624.1653166395429
 20
222.6383575479174
 10
626.0535546164422
 20
222.2672323101834
 10
628.0555580615573
 20
221.9476672923228
 10
630.1540068438641
 20
221.6816971533074
 10
632.331570651362
 20
221.4709958945975
 10
634.5699648934201
 20
221.3169888803769
 10
636.8501850087555
 20
221.220762003285
 10
639.1527352528182
 20
221.1830055475596
 10
641.4578520547506
 20
221.2039821058755
 10
643.7456564149719
 20
221.2835095678026
 10
645.9963864991562
 20
221.4209552109714
 10
648.1907878349584
 20
221.615262918267
 10
650.3102096932507
 20
221.8649883888249
 10
652.3368295619134
 20
222.1683581831508
 10
654.2538859508288
 20
222.5233648520048
 10
656.0459245313454
 20
222.9279207333908
 10
657.6990620642844
 20
223.3801140408238
 10
659.2012628982534
 20
223.8786528639411
 10
660.542577114488
 20
224.423664937004
 10
661.7151073483856
 20
225.0181576196724
 10
662.7117942886256
 20
225.6704740972796
 10
663.5209722568961
 20
226.3964995064478
 10
664.0432302742376
 20
227.0899196778216
 10
664.358794506978
 20
227.7956695255391
 10
664.4807388083822
 20
228.5174769267381
 10
664.4589919191369
 20
228.720360321299
  0
LWPOLYLINE
  5
305
330
2
100
AcDbEntity
  8
0
100
AcDbPolyline
 90
       11
 70
   128
 43
0.0
 10
614.5047748669407
 20
228.5034264539318
 10
614.570152272519
 20
227.9232403333897
 10
614.854599489063
 20
227.2075704009163
 10
615.325398098329
 20
226.5300670001168
 10
616.0064324475588
 20
225.8657165778465
 10
616.9200037359201
 20
225.2145476571261
 10
618.0512096198439
 20
224.5971459558254
 10
619.3633958330106
 20
224.029602335846
 10
620.8390111176669
 20
223.5120160264885
 10
622.4663169544091
 20
223.0432858253994
 10
623.2310404823583
 20
222.8516568589208
  0
LINE
  5
306
330
2
100
AcDbEntity
  8
0
100
AcDbLine
 10
614.4823892377444
 20
231.5026018643082
 30
0.0
 11
614.4823892377444
 21
228.6122709118755
 31
0.0
  0
LINE
  5
307
330
2
100
AcDbEntity
  8
0
100
AcDbLine
 10
664.4823892377444
 20
228.6122709118755
 30
0.0
 11
664.4823892377444
 21
231.5026018643082
 31
0.0
  0
ARC
  5
308
330
2
100
AcDbEntity
  8
0
100
AcDbCircle
 10
618.4488330201824
 20
231.2595852925227
 30
0.0
 40
3.945622982085691
100
AcDbArc
 50
111.8182421299678
 51
178.1225868980402
  0
ARC
  5
309
330
2
100
AcDbEntity
  8
0
100
AcDbCircle
 10
660.1447918657773
 20
230.9788235966552
 30
0.0
 40
4.360382762803514
100
AcDbArc
 50
8.384768441317978
 51
65.07507935140558
  0
LINE
  5
30A
330
2
100
AcDbEntity
  8
0
100
AcDbLine
 10
656.298038164799
 20
488.341787941054
 30
0.0
 11
656.2722352965778
 21
488.3487008146202
 31
0.0
  0
LINE
  5
30B
330
2
100
AcDbEntity
  8
0
100
AcDbLine
 10
654.4607425958636
 20
481.5871555625895
 30
0.0
 11
654.4865454640846
 21
481.5802426890233
 31
0.0
  0
LINE
  5
30C
330
2
100
AcDbEntity
  8
0
370
    15
100
AcDbLine
 10
275.6116191128663
 20
503.8805582531024
 30
0.0
 11
230.6116191128662
 21
503.8805582531024
 31
0.0
  0
LINE
  5
30D
330
2
100
AcDbEntity
  8
0
370
    15
100
AcDbLine
 10
385.6116191128663
 20
448.8805582531023
 30
0.0
 11
385.6116191128663
 21
423.8805582531023
 31
0.0
  0
LWPOLYLINE
  5
30E
330
2
100
AcDbEntity
  8
0
370
    15
100
AcDbPolyline
 90
       18
 70
   128
 43
0.0
 10
381.7504586198381
 20
423.8805582531023
 10
381.2431587454837
 20
424.044855992909
 10
380.3930518165605
 20
424.6340391137552
 10
378.8551986048851
 20
425.6109123778344
 10
377.7183283518668
 20
426.2432123654269
 10
376.3925081380329
 20
426.8614053619224
 10
375.2841813091247
 20
427.2616778647583
 10
374.0664838905855
 20
427.5607003547549
 10
371.9243922963404
 20
427.6885660395024
 10
369.8427667461512
 20
427.3159585574502
 10
368.5164712048281
 20
426.8462844913337
 10
367.2836813451461
 20
426.2723071303956
 10
366.1877237843968
 20
425.6683256809751
 10
365.2240604764898
 20
425.0759605593762
 10
364.5010459369166
 20
424.5992791337062
 10
363.9392034502844
 20
424.2120775754006
 10
363.5945718558633
 20
423.9679609079566
 10
363.4744270559287
 20
423.8817405765595
  0
LINE
  5
30F
330
2
100
AcDbEntity
  8
0
370
    15
100
AcDbLine
 10
238.2370919004379
 20
485.3805582531022
 30
0.0
 11
235.7911110371775
 21
485.3805582531022
 31
0.0
  0
LINE
  5
310
330
2
100
AcDbEntity
  8
0
370
    15
100
AcDbLine
 10
230.6116191128663
 20
475.3805582531023
 30
0.0
 11
253.1116191128663
 21
475.3805582531023
 31
0.0
  0
LINE
  5
311
330
2
100
AcDbEntity
  8
0
370
    15
100
AcDbLine
 10
253.1116191128663
 20
475.3805582531023
 30
0.0
 11
275.6116191128663
 21
475.3805582531023
 31
0.0
  0
LWPOLYLINE
  5
312
330
2
100
AcDbEntity
  8
0
370
    15
100
AcDbPolyline
 90
       22
 70
   128
 43
0.0
 10
275.5915722197804
 20
423.9167165693977
 10
275.6040850827469
 20
423.8941245986822
 10
275.4822065754231
 20
424.1150299962393
 10
275.2122526495487
 20
424.6145902639088
 10
274.8265224787644
 20
425.3561749057088
 10
274.3407817488985
 20
426.3467480980763
 10
273.7541758667368
 20
427.6561585982973
 10
273.1421563747255
 20
429.2235740419468
 10
272.5493949297652
 20
431.1054157234623
 10
272.0798632402967
 20
433.2509759682279
 10
271.8528558839259
 20
435.2697226626934
 10
271.8484069802839
 20
437.4136214595938
 10
272.0234232068557
 20
439.1475664008013
 10
272.3469805584921
 20
440.8525969318112
 10
272.7868027960898
 20
442.4725901775578
 10
273.3059305455797
 20
443.983861103931
 10
273.9243867390038
 20
445.5003880903085
 10
274.5291498458029
 20
446.8069968922677
 10
275.0536249293987
 20
447.845793499391
 10
275.4360345057332
 20
448.561671610808
 10
275.5965382402146
 20
448.8533922599908
 10
275.5886123924471
 20
448.8390898921784
  0
LINE
  5
313
330
2
100
AcDbEntity
  8
0
370
    15
100
AcDbLine
 10
382.067560048449
 20
422.0821866860459
 30
0.0
 11
364.3410204942293
 21
418.9565194880413
 31
0.0
  0
LINE
  5
314
330
2
100
AcDbEntity
  8
0
370
    15
100
AcDbLine
 10
231.1116191128662
 20
504.3805582531024
 30
0.0
 11
275.1116191128663
 21
504.3805582531024
 31
0.0
  0
ARC
  5
315
330
2
100
AcDbEntity
  8
0
370
    15
100
AcDbCircle
 10
229.6401015674581
 20
448.0072372387373
 30
0.0
 40
38.3855541229522
100
AcDbArc
 50
52.30431382278414
 51
88.51731363579499
  0
LINE
  5
316
330
2
100
AcDbEntity
  8
0
370
    15
100
AcDbLine
 10
275.6116191128663
 20
478.3805582531023
 30
0.0
 11
253.1116191128663
 21
478.3805582531023
 31
0.0
  0
ARC
  5
317
330
2
100
AcDbEntity
  8
0
370
    15
100
AcDbCircle
 10
298.0653339151679
 20
488.6125981629803
 30
0.0
 40
22.72761112773057
100
AcDbArc
 50
171.1075709980722
 51
179.9547230254401
  0
ARC
  5
318
330
2
100
AcDbEntity
  8
0
370
    15
100
AcDbCircle
 10
298.2446338099479
 20
488.6626742434249
 30
0.0
 40
22.90692643984509
100
AcDbArc
 50
180.0803299084267
 51
188.7597130416678
  0
ARC
  5
319
330
2
100
AcDbEntity
  8
0
370
    15
100
AcDbCircle
 10
297.5413941251336
 20
498.8814174341416
 30
0.0
 40
22.49236406019746
100
AcDbArc
 50
167.1582229637643
 51
192.6888564187493
  0
LINE
  5
31A
330
2
100
AcDbEntity
  8
0
370
    15
100
AcDbLine
 10
275.6116191128663
 20
484.6305582531024
 30
0.0
 11
275.6116191128663
 21
489.3435163909712
 31
0.0
  0
LINE
  5
31B
330
2
100
AcDbEntity
  8
0
370
    15
100
AcDbLine
 10
275.6116191128663
 20
489.3435163909712
 30
0.0
 11
275.6116191128663
 21
492.6305582531024
 31
0.0
  0
LINE
  5
31C
330
2
100
AcDbEntity
  8
0
370
    15
100
AcDbLine
 10
275.5915931141128
 20
423.8805582531023
 30
0.0
 11
363.4727796058947
 21
423.8805582531023
 31
0.0
  0
LINE
  5
31D
330
2
100
AcDbEntity
  8
0
370
    15
100
AcDbLine
 10
381.7503668134382
 20
423.8805582531023
 30
0.0
 11
385.6116191128663
 21
423.8805582531023
 31
0.0
  0
LINE
  5
31E
330
2
100
AcDbEntity
  8
0
370
    15
100
AcDbLine
 10
385.6116191128663
 20
448.8805582531023
 30
0.0
 11
275.5886171923263
 21
448.8805582531023
 31
0.0
  0
ARC
  5
31F
330
2
100
AcDbEntity
  8
0
370
    15
100
AcDbCircle
 10
253.1116191128663
 20
475.3805582531023
 30
0.0
 40
20.00000000000003
100
AcDbArc
 50
0.0
 51
8.626926558678158
  0
ARC
  5
320
330
2
100
AcDbEntity
  8
0
370
    15
100
AcDbCircle
 10
253.1116191128663
 20
475.3805582531023
 30
0.0
 40
20.00000000000002
100
AcDbArc
 50
150.0000000000028
 51
180.0
  0
LINE
  5
321
330
2
100
AcDbEntity
  8
0
370
    15
100
AcDbLine
 10
230.6116191128662
 20
475.3805582531023
 30
0.0
 11
230.6116191128661
 21
226.3805582531024
 31
0.0
  0
LINE
  5
322
330
2
100
AcDbEntity
  8
0
370
    15
100
AcDbLine
 10
275.6116191128661
 20
226.3805582531024
 30
0.0
 11
275.6116191128663
 21
423.9167165693977
 31
0.0
  0
LINE
  5
323
330
2
100
AcDbEntity
  8
0
370
    15
100
AcDbLine
 10
275.6116191128663
 20
448.8390898921784
 30
0.0
 11
275.6116191128663
 21
475.3805582531023
 31
0.0
  0
LINE
  5
324
330
2
100
AcDbEntity
  8
0
370
    15
100
AcDbLine
 10
382.067560048449
 20
422.0821866860459
 30
0.0
 11
381.7504586198381
 21
423.8805582531023
 31
0.0
  0
LINE
  5
325
330
2
100
AcDbEntity
  8
0
370
    15
100
AcDbLine
 10
363.4727796058947
 20
423.8805582531023
 30
0.0
 11
364.3410204942293
 21
418.9565194880413
 31
0.0
  0
LINE
  5
326
330
2
100
AcDbEntity
  8
0
370
    15
100
AcDbLine
 10
275.5984054082501
 20
493.8805582531024
 30
0.0
 11
377.6111482148272
 21
493.8805582531023
 31
0.0
  0
LINE
  5
327
330
2
100
AcDbEntity
  8
0
370
    15
100
AcDbLine
 10
377.6111482148272
 20
503.8805582531024
 30
0.0
 11
275.6116191128663
 21
503.8805582531024
 31
0.0
  0
ARC
  5
328
330
2
100
AcDbEntity
  8
0
370
    15
100
AcDbCircle
 10
231.1116191128662
 20
503.8805582531024
 30
0.0
 40
0.5
100
AcDbArc
 50
90.0
 51
180.0
  0
ARC
  5
329
330
2
100
AcDbEntity
  8
0
370
    15
100
AcDbCircle
 10
275.1116191128663
 20
503.8805582531024
 30
0.0
 40
0.5
100
AcDbArc
 50
0.0
 51
90.0
  0
LINE
  5
32A
330
2
100
AcDbEntity
  8
0
370
    15
100
AcDbLine
 10
275.6116191128663
 20
478.3805582531023
 30
0.0
 11
275.6116191128663
 21
484.6305582531024
 31
0.0
  0
LINE
  5
32B
330
2
100
AcDbEntity
  8
0
370
    15
100
AcDbLine
 10
275.6116191128663
 20
492.6305582531024
 30
0.0
 11
275.6116191128663
 21
493.9408242247623
 31
0.0
  0
LINE
  5
32C
330
2
100
AcDbEntity
  8
0
370
    15
100
AcDbLine
 10
230.6116191128662
 20
503.8805582531024
 30
0.0
 11
230.6116191128662
 21
486.3799394744932
 31
0.0
  0
LINE
  5
32D
330
2
100
AcDbEntity
  8
0
370
    15
100
AcDbLine
 10
277.1315855304511
 20
488.1876586011985
 30
0.0
 11
277.1315855304511
 21
489.073457905006
 31
0.0
  0
ARC
  5
32E
330
2
100
AcDbEntity
  8
0
370
    15
100
AcDbCircle
 10
272.2093515179429
 20
489.073457905006
 30
0.0
 40
4.922234012508219
100
AcDbArc
 50
0.0
 51
46.27451229771842
  0
ARC
  5
32F
330
2
100
AcDbEntity
  8
0
370
    15
100
AcDbCircle
 10
272.2093515179429
 20
488.1876586011985
 30
0.0
 40
4.922234012508198
100
AcDbArc
 50
313.7254877022816
 51
0.0
  0
LINE
  5
330
330
2
100
AcDbEntity
  8
0
370
    15
100
AcDbLine
 10
147.1310173660045
 20
503.8805582531024
 30
0.0
 11
124.6310173660045
 21
503.8805582531024
 31
0.0
  0
LINE
  5
331
330
2
100
AcDbEntity
  8
0
370
    15
100
AcDbLine
 10
124.6310173660045
 20
503.8805582531024
 30
0.0
 11
102.1310173660045
 21
503.8805582531024
 31
0.0
  0
LINE
  5
332
330
2
100
AcDbEntity
  8
0
370
    15
100
AcDbLine
 10
102.1310173660045
 20
475.3805582531023
 30
0.0
 11
147.1310173660045
 21
475.3805582531023
 31
0.0
  0
LINE
  5
333
330
2
100
AcDbEntity
  8
0
370
    15
100
AcDbLine
 10
120.6310173660045
 20
123.1805582531024
 30
0.0
 11
128.6310173660045
 21
123.1805582531023
 31
0.0
  0
LINE
  5
334
330
2
100
AcDbEntity
  8
0
370
    15
100
AcDbLine
 10
121.4310173660045
 20
122.3805582531024
 30
0.0
 11
127.8310173660046
 21
122.3805582531024
 31
0.0
  0
LINE
  5
335
330
2
100
AcDbEntity
  8
03-01
370
    15
100
AcDbLine
 10
110.8810173660045
 20
375.8805582531024
 30
0.0
 11
122.3810173660045
 21
375.8805582531023
 31
0.0
  0
ARC
  5
336
330
2
100
AcDbEntity
  8
03-01
370
    15
100
AcDbCircle
 10
110.8810173660045
 20
392.8805582531024
 30
0.0
 40
1.0
100
AcDbArc
 50
90.0
 51
180.0
  0
ARC
  5
337
330
2
100
AcDbEntity
  8
03-01
370
    15
100
AcDbCircle
 10
122.3810173660045
 20
392.8805582531024
 30
0.0
 40
1.0
100
AcDbArc
 50
0.0
 51
90.0
  0
LINE
  5
338
330
2
100
AcDbEntity
  8
03-01
370
    15
100
AcDbLine
 10
110.8810173660045
 20
393.8805582531024
 30
0.0
 11
122.3810173660045
 21
393.8805582531024
 31
0.0
  0
LINE
  5
339
330
2
100
AcDbEntity
  8
03-01
370
    15
100
AcDbLine
 10
111.1310173660045
 20
397.8805582531024
 30
0.0
 11
122.1310173660045
 21
397.8805582531023
 31
0.0
  0
LINE
  5
33A
330
2
100
AcDbEntity
  8
03-01
370
    15
100
AcDbLine
 10
103.4310173660046
 20
400.3805582531024
 30
0.0
 11
145.8310173660045
 21
400.3805582531022
 31
0.0
  0
LINE
  5
33B
330
2
100
AcDbEntity
  8
01-01
370
    15
100
AcDbLine
 10
102.1310173660045
 20
405.3805582531023
 30
0.0
 11
147.1310173660045
 21
405.3805582531023
 31
0.0
  0
CIRCLE
  5
33F
330
2
100
AcDbEntity
  8
0
370
    15
100
AcDbCircle
 10
124.6310173660045
 20
436.3805582531023
 30
0.0
 40
12.49999999999998
  0
LINE
  5
340
330
2
100
AcDbEntity
  8
0
370
    15
100
AcDbLine
 10
133.6310173660045
 20
419.3805582531023
 30
0.0
 11
115.6310173660045
 21
419.3805582531023
 31
0.0
  0
LINE
  5
341
330
2
100
AcDbEntity
  8
0
370
    15
100
AcDbLine
 10
146.6310173660045
 20
504.3805582531024
 30
0.0
 11
102.6310173660045
 21
504.3805582531024
 31
0.0
  0
LINE
  5
342
330
2
100
AcDbEntity
  8
0
370
    15
100
AcDbLine
 10
147.1310173660045
 20
478.3805582531023
 30
0.0
 11
102.1310173660045
 21
478.3805582531023
 31
0.0
  0
CIRCLE
  5
343
330
2
100
AcDbEntity
  8
0
370
    15
100
AcDbCircle
 10
-124.6310173660045
 20
498.8805582531024
 30
0.0000000000000035
 40
5.000000000000014
210
0.0
220
0.0
230
-1.0
  0
CIRCLE
  5
344
330
2
100
AcDbEntity
  8
0
370
    15
100
AcDbCircle
 10
124.6310173660045
 20
498.8805582531024
 30
0.0
 40
4.800000000000025
  0
LINE
  5
345
330
2
100
AcDbEntity
  8
01-01
370
    15
100
AcDbLine
 10
102.1310173660045
 20
405.3805582531023
 30
0.0
 11
147.1310173660045
 21
405.3805582531023
 31
0.0
  0
CIRCLE
  5
346
330
2
100
AcDbEntity
  8
0
370
    15
100
AcDbCircle
 10
-124.6310173660045
 20
488.6305582531024
 30
-0.0000000000000421
 40
4.000000000000015
210
0.0
220
-0.0000000000000001
230
-1.0
  0
ARC
  5
347
330
2
100
AcDbEntity
  8
0
370
    15
100
AcDbCircle
 10
124.6310173660045
 20
475.3805582531023
 30
0.0
 40
20.00000000000001
100
AcDbArc
 50
0.0
 51
8.626926558678158
  0
ARC
  5
348
330
2
100
AcDbEntity
  8
0
370
    15
100
AcDbCircle
 10
124.6310173660045
 20
475.3805582531023
 30
0.0
 40
20.00000000000002
100
AcDbArc
 50
171.3730734413218
 51
180.0
  0
LINE
  5
349
330
2
100
AcDbEntity
  8
0
370
    15
100
AcDbLine
 10
102.1310173660045
 20
475.3805582531023
 30
0.0
 11
102.1310173660045
 21
226.3805582531024
 31
0.0
  0
LINE
  5
34A
330
2
100
AcDbEntity
  8
0
370
    15
100
AcDbLine
 10
147.1310173660045
 20
226.3805582531024
 30
0.0
 11
147.1310173660045
 21
475.3805582531023
 31
0.0
  0
LINE
  5
34B
330
2
100
AcDbEntity
  8
0
370
    15
100
AcDbLine
 10
133.6310173660045
 20
419.3805582531023
 30
0.0
 11
133.6310173660045
 21
427.7058824666536
 31
0.0
  0
LINE
  5
34C
330
2
100
AcDbEntity
  8
0
370
    15
100
AcDbLine
 10
115.6310173660045
 20
427.7058824666536
 30
0.0
 11
115.6310173660045
 21
419.3805582531023
 31
0.0
  0
ARC
  5
34D
330
2
100
AcDbEntity
  8
0
370
    15
100
AcDbCircle
 10
102.6310173660045
 20
503.8805582531024
 30
0.0
 40
0.5
100
AcDbArc
 50
90.0
 51
180.0
  0
ARC
  5
34E
330
2
100
AcDbEntity
  8
0
370
    15
100
AcDbCircle
 10
146.6310173660045
 20
503.8805582531024
 30
0.0
 40
0.5
100
AcDbArc
 50
0.0
 51
90.0
  0
LINE
  5
34F
330
2
100
AcDbEntity
  8
0
370
    15
100
AcDbLine
 10
147.1310173660045
 20
478.3805582531024
 30
0.0
 11
147.1310173660045
 21
503.8805582531024
 31
0.0
  0
LINE
  5
350
330
2
100
AcDbEntity
  8
0
370
    15
100
AcDbLine
 10
102.1310173660045
 20
503.8805582531024
 30
0.0
 11
102.1310173660045
 21
478.3805582531023
 31
0.0
  0
ENDSEC
  0
SECTION
  2
OBJECTS
  0
DICTIONARY
  5
B
330
0
100
AcDbDictionary
281
     1
  3
ACAD_COLOR
350
4C
  3
ACAD_GROUP
350
39
  3
ACAD_LAYOUT
350
18
  3
ACAD_MATERIAL
350
D
  3
ACAD_MLEADERSTYLE
350
4F
  3
ACAD_MLINESTYLE
350
3A
  3
ACAD_PLOTSETTINGS
350
3B
  3
ACAD_PLOTSTYLENAME
350
A
  3
ACAD_SCALELIST
350
4D
  3
ACAD_TABLESTYLE
350
4E
  3
ACAD_VISUALSTYLE
350
30
  3
ACDB_RECOMPOSE_DATA
350
35D
  3
AcDbVariableDictionary
350
353
  0
DICTIONARY
  5
31
330
2D
100
AcDbDictionary
280
     1
281
     1
  0
DICTIONARY
  5
20
330
1F
100
AcDbDictionary
280
     1
281
     1
  3
ACAD_LAYERFILTERS
360
21
  3
ACAD_LAYERSTATES
360
22
  3
ACLYDICTIONARY
360
23
  0
DICTIONARY
  5
7
330
6
100
AcDbDictionary
280
     1
281
     1
  3
ADSK_XREC_LAYER_RECONCILED
360
8
  0
DICTIONARY
  5
8E
330
8D
100
AcDbDictionary
280
     1
281
     1
  3
ADSK_XREC_LAYER_RECONCILED
360
8F
  0
DICTIONARY
  5
CE
330
CD
100
AcDbDictionary
280
     1
281
     1
  3
ADSK_XREC_LAYER_RECONCILED
360
CF
  0
DICTIONARY
  5
B8
330
B7
100
AcDbDictionary
280
     1
281
     1
  3
ADSK_XREC_LAYER_RECONCILED
360
B9
  0
DICTIONARY
  5
33D
330
33C
100
AcDbDictionary
280
     1
281
     1
  3
ADSK_XREC_LAYER_RECONCILED
360
33E
  0
DICTIONARY
  5
7C
330
7B
100
AcDbDictionary
280
     1
281
     1
  3
ADSK_XREC_LAYER_RECONCILED
360
7D
  0
DICTIONARY
  5
51
330
50
100
AcDbDictionary
280
     1
281
     1
  3
ADSK_XREC_LAYER_RECONCILED
360
52
  0
DICTIONARY
  5
93
330
92
100
AcDbDictionary
280
     1
281
     1
  3
ADSK_XREC_LAYER_RECONCILED
360
94
  0
DICTIONARY
  5
183
330
182
100
AcDbDictionary
280
     1
281
     1
  3
ADSK_XREC_LAYER_RECONCILED
360
184
  0
DICTIONARY
  5
3
330
2
100
AcDbDictionary
280
     1
281
     1
  3
ACAD_SORTENTS
360
352
  0
DICTIONARY
  5
89
330
88
100
AcDbDictionary
280
     1
281
     1
  3
ACAD_SORTENTS
360
351
  0
DICTIONARY
  5
4C
102
{ACAD_REACTORS
330
B
102
}
330
B
100
AcDbDictionary
281
     1
  0
DICTIONARY
  5
39
102
{ACAD_REACTORS
330
B
102
}
330
B
100
AcDbDictionary
281
     1
  0
DICTIONARY
  5
18
102
{ACAD_REACTORS
330
B
102
}
330
B
100
AcDbDictionary
281
     1
  3
Layout1
350
1E
  3
Model
350
17
  0
DICTIONARY
  5
D
102
{ACAD_REACTORS
330
B
102
}
330
B
100
AcDbDictionary
281
     1
  3
ByBlock
350
44
  3
ByLayer
350
3C
  3
Global
350
C
  0
DICTIONARY
  5
4F
102
{ACAD_REACTORS
330
B
102
}
330
B
100
AcDbDictionary
281
     1
  0
DICTIONARY
  5
3A
102
{ACAD_REACTORS
330
B
102
}
330
B
100
AcDbDictionary
281
     1
  3
Standard
350
54
  0
DICTIONARY
  5
3B
102
{ACAD_REACTORS
330
B
102
}
330
B
100
AcDbDictionary
281
     1
  0
ACDBDICTIONARYWDFLT
  5
A
102
{ACAD_REACTORS
330
B
102
}
330
B
100
AcDbDictionary
281
     1
  3
Normal
350
9
100
AcDbDictionaryWithDefault
340
9
  0
DICTIONARY
  5
4D
102
{ACAD_REACTORS
330
B
102
}
330
B
100
AcDbDictionary
281
     1
  3
A0
350
59
  3
A1
350
5A
  3
A2
350
5B
  3
A3
350
5C
  3
A4
350
5D
  3
A5
350
5E
  3
A6
350
5F
  3
A7
350
60
  3
A8
350
61
  3
A9
350
62
  3
B0
350
63
  3
B1
350
64
  3
B2
350
65
  3
B3
350
66
  3
B4
350
67
  3
B5
350
68
  3
B6
350
69
  3
B7
350
6A
  3
B8
350
6B
  3
B9
350
6C
  3
C0
350
6D
  3
C1
350
6E
  3
C2
350
6F
  3
C3
350
70
  3
C4
350
71
  3
C5
350
72
  3
C6
350
73
  3
C7
350
74
  3
C8
350
75
  3
C9
350
76
  3
D0
350
77
  3
D1
350
78
  3
D2
350
79
  0
DICTIONARY
  5
4E
102
{ACAD_REACTORS
330
B
102
}
330
B
100
AcDbDictionary
281
     1
  3
Standard
350
55
  0
DICTIONARY
  5
30
102
{ACAD_REACTORS
330
B
102
}
330
B
100
AcDbDictionary
281
     1
  3
2dWireframe
350
2F
  3
3dWireframe
350
58
  3
Realistic
350
57
  0
XRECORD
  5
35D
102
{ACAD_REACTORS
330
B
102
}
330
B
100
AcDbXrecord
280
     1
 90
        1
330
55
  0
DICTIONARY
  5
353
102
{ACAD_REACTORS
330
B
102
}
330
B
100
AcDbDictionary
281
     1
  3
CANNOSCALE
350
357
  3
CMLEADERSTYLE
350
355
  3
CTABLESTYLE
350
354
  3
LAYEREVAL
350
359
  3
LAYERNOTIFY
350
35A
  3
LIGHTINGUNITS
350
358
  3
MSLTSCALE
350
356
  0
DICTIONARY
  5
21
102
{ACAD_REACTORS
330
20
102
}
330
20
100
AcDbDictionary
281
     1
  0
DICTIONARY
  5
22
102
{ACAD_REACTORS
330
20
102
}
330
20
100
AcDbDictionary
281
     1
  0
DICTIONARY
  5
23
102
{ACAD_REACTORS
330
20
102
}
330
20
100
AcDbDictionary
281
     1
1001
ACAD
1000
<All
  0
XRECORD
  5
8
102
{ACAD_REACTORS
330
7
102
}
330
7
100
AcDbXrecord
280
     1
290
     1
  0
XRECORD
  5
8F
102
{ACAD_REACTORS
330
8E
102
}
330
8E
100
AcDbXrecord
280
     1
290
     1
  0
XRECORD
  5
CF
102
{ACAD_REACTORS
330
CE
102
}
330
CE
100
AcDbXrecord
280
     1
290
     1
  0
XRECORD
  5
B9
102
{ACAD_REACTORS
330
B8
102
}
330
B8
100
AcDbXrecord
280
     1
290
     1
  0
XRECORD
  5
33E
102
{ACAD_REACTORS
330
33D
102
}
330
33D
100
AcDbXrecord
280
     1
290
     1
  0
XRECORD
  5
7D
102
{ACAD_REACTORS
330
7C
102
}
330
7C
100
AcDbXrecord
280
     1
290
     1
  0
XRECORD
  5
52
102
{ACAD_REACTORS
330
51
102
}
330
51
100
AcDbXrecord
280
     1
290
     1
  0
XRECORD
  5
94
102
{ACAD_REACTORS
330
93
102
}
330
93
100
AcDbXrecord
280
     1
290
     1
  0
XRECORD
  5
184
102
{ACAD_REACTORS
330
183
102
}
330
183
100
AcDbXrecord
280
     1
290
     1
  0
SORTENTSTABLE
  5
352
102
{ACAD_REACTORS
330
3
102
}
330
3
100
AcDbSortentsTable
330
2
331
296
  5
25B
331
292
  5
25F
331
30C
  5
1A7
331
308
  5
1AB
331
347
  5
86
331
28E
  5
263
331
2CD
  5
1F2
331
2C9
  5
228
331
304
  5
1AF
331
343
  5
12F
331
28A
  5
267
331
300
  5
1B3
331
1A5
  5
30E
331
167
  5
330
331
163
  5
334
331
21B
  5
2CA
331
1A1
  5
312
331
120
  5
344
331
1DC
  5
2E3
331
256
  5
2B5
331
19D
  5
316
331
199
  5
31A
331
252
  5
2B9
331
286
  5
26B
331
2C5
  5
23A
331
33F
  5
14F
331
33B
  5
15C
331
282
  5
26F
331
2C1
  5
24A
331
2FC
  5
1B7
331
2F8
  5
1BB
331
337
  5
160
331
27E
  5
273
331
2BD
  5
24E
331
2B9
  5
252
331
2F4
  5
1BF
331
333
  5
164
331
27A
  5
277
331
2F0
  5
1C3
331
15F
  5
338
331
24E
  5
2BD
331
195
  5
31E
331
24A
  5
2C1
331
191
  5
322
331
1CC
  5
2E7
331
18D
  5
326
331
189
  5
32A
331
1C8
  5
2EB
331
276
  5
27B
331
2B5
  5
256
331
32F
  5
174
331
32B
  5
188
331
272
  5
27F
331
2EC
  5
1C7
331
327
  5
18C
331
26E
  5
283
331
2E8
  5
1CB
331
2E4
  5
1DB
331
323
  5
190
331
26A
  5
287
331
2E0
  5
1DF
331
14F
  5
33F
331
1C4
  5
2EF
331
1FF
  5
2CC
331
23A
  5
2C5
331
181
  5
32E
331
1C0
  5
2F3
331
1BC
  5
2F7
331
1B8
  5
2FB
331
266
  5
28B
331
31F
  5
194
331
262
  5
28F
331
2DC
  5
1E3
331
31B
  5
198
331
317
  5
19C
331
25E
  5
293
331
2D8
  5
1E7
331
2D4
  5
1EB
331
313
  5
1A0
331
25A
  5
297
331
2D0
  5
1EF
331
350
  5
7A
331
34C
  5
81
331
348
  5
85
331
86
  5
347
331
82
  5
34B
331
7E
  5
34F
331
1B4
  5
2FF
331
1EF
  5
2D0
331
7A
  5
350
331
1B0
  5
303
331
1EB
  5
2D4
331
1AC
  5
307
331
1E7
  5
2D8
331
1A8
  5
30B
331
1E3
  5
2DC
331
295
  5
25C
331
30F
  5
1A4
331
291
  5
260
331
30B
  5
1A8
331
2CC
  5
1FF
331
307
  5
1AC
331
346
  5
87
331
28D
  5
264
331
2C8
  5
237
331
303
  5
1B0
331
342
  5
13C
331
289
  5
268
331
12F
  5
343
331
166
  5
331
331
1A4
  5
30F
331
1DF
  5
2E0
331
162
  5
335
331
1A0
  5
313
331
1DB
  5
2E4
331
255
  5
2B6
331
19C
  5
317
331
198
  5
31B
331
251
  5
2BA
331
285
  5
26C
331
2C4
  5
247
331
2FF
  5
1B4
331
33A
  5
15D
331
281
  5
270
331
2C0
  5
24B
331
2FB
  5
1B8
331
2F7
  5
1BC
331
336
  5
161
331
27D
  5
274
331
2BC
  5
24F
331
2B8
  5
253
331
2F3
  5
1C0
331
332
  5
165
331
279
  5
278
331
15E
  5
339
331
24D
  5
2BE
331
194
  5
31F
331
249
  5
2C2
331
190
  5
323
331
1CB
  5
2E8
331
18C
  5
327
331
188
  5
32B
331
275
  5
27C
331
2B4
  5
257
331
2EF
  5
1C4
331
32E
  5
181
331
32A
  5
189
331
271
  5
280
331
2EB
  5
1C8
331
2E7
  5
1CC
331
326
  5
18D
331
26D
  5
284
331
2E3
  5
1DC
331
322
  5
191
331
269
  5
288
331
1C7
  5
2EC
331
1C3
  5
2F0
331
239
  5
2C6
331
1BF
  5
2F4
331
1BB
  5
2F8
331
1F2
  5
2CD
331
265
  5
28C
331
2DF
  5
1E0
331
31E
  5
195
331
31A
  5
199
331
261
  5
290
331
2DB
  5
1E4
331
316
  5
19D
331
25D
  5
294
331
2D7
  5
1E8
331
2D3
  5
1EC
331
312
  5
1A1
331
259
  5
2B2
331
34F
  5
7E
331
34B
  5
82
331
13E
  5
340
331
85
  5
348
331
1B7
  5
2FC
331
81
  5
34C
331
174
  5
32F
331
1B3
  5
300
331
1EE
  5
2D1
331
1AF
  5
304
331
1EA
  5
2D5
331
1AB
  5
308
331
1E6
  5
2D9
331
1E2
  5
2DD
331
294
  5
25D
331
30E
  5
1A5
331
290
  5
261
331
2CF
  5
1F0
331
30A
  5
1A9
331
2CB
  5
20C
331
306
  5
1AD
331
345
  5
111
331
28C
  5
265
331
288
  5
269
331
302
  5
1B1
331
341
  5
13D
331
1A7
  5
30C
331
165
  5
332
331
1A3
  5
310
331
1DE
  5
2E1
331
161
  5
336
331
19F
  5
314
331
19B
  5
318
331
1DA
  5
2E5
331
254
  5
2B7
331
250
  5
2BB
331
2C7
  5
238
331
284
  5
26D
331
2C3
  5
248
331
2FE
  5
1B5
331
339
  5
15E
331
280
  5
271
331
2BF
  5
24C
331
2FA
  5
1B9
331
2BB
  5
250
331
2F6
  5
1BD
331
335
  5
162
331
27C
  5
275
331
2F2
  5
1C1
331
331
  5
166
331
278
  5
279
331
15D
  5
33A
331
197
  5
31C
331
24C
  5
2BF
331
193
  5
320
331
248
  5
2C3
331
18F
  5
324
331
1CA
  5
2E9
331
18B
  5
328
331
2B7
  5
254
331
274
  5
27D
331
2B3
  5
258
331
2EE
  5
1C5
331
32D
  5
186
331
329
  5
18A
331
270
  5
281
331
2EA
  5
1C9
331
2E6
  5
1CD
331
325
  5
18E
331
26C
  5
285
331
2E2
  5
1DD
331
321
  5
192
331
268
  5
289
331
187
  5
32C
331
1C6
  5
2ED
331
1C2
  5
2F1
331
238
  5
2C7
331
1BE
  5
2F5
331
1BA
  5
2F9
331
1F1
  5
2CE
331
264
  5
28D
331
2DE
  5
1E1
331
31D
  5
196
331
319
  5
19A
331
260
  5
291
331
2DA
  5
1E5
331
2D6
  5
1E9
331
315
  5
19E
331
25C
  5
295
331
2D2
  5
1ED
331
311
  5
1A2
331
258
  5
2B3
331
34E
  5
7F
331
34A
  5
83
331
13D
  5
341
331
84
  5
349
331
1B6
  5
2FD
331
80
  5
34D
331
1B2
  5
301
331
1ED
  5
2D2
331
1E9
  5
2D6
331
228
  5
2C9
331
1AE
  5
305
331
1AA
  5
309
331
1E5
  5
2DA
331
1E1
  5
2DE
331
297
  5
25A
331
293
  5
25E
331
30D
  5
1A6
331
309
  5
1AA
331
28F
  5
262
331
2CE
  5
1F1
331
2CA
  5
21B
331
305
  5
1AE
331
344
  5
120
331
28B
  5
266
331
301
  5
1B2
331
340
  5
13E
331
1A6
  5
30D
331
164
  5
333
331
1A2
  5
311
331
1DD
  5
2E2
331
160
  5
337
331
257
  5
2B4
331
19E
  5
315
331
19A
  5
319
331
253
  5
2B8
331
287
  5
26A
331
2C6
  5
239
331
283
  5
26E
331
2C2
  5
249
331
2FD
  5
1B6
331
338
  5
15F
331
27F
  5
272
331
2BE
  5
24D
331
2F9
  5
1BA
331
2BA
  5
251
331
2F5
  5
1BE
331
334
  5
163
331
27B
  5
276
331
2F1
  5
1C2
331
330
  5
167
331
15C
  5
33B
331
24F
  5
2BC
331
196
  5
31D
331
24B
  5
2C0
331
192
  5
321
331
20C
  5
2CB
331
111
  5
345
331
1CD
  5
2E6
331
247
  5
2C4
331
18E
  5
325
331
18A
  5
329
331
1C9
  5
2EA
331
277
  5
27A
331
2B6
  5
255
331
273
  5
27E
331
2B2
  5
259
331
2ED
  5
1C6
331
32C
  5
187
331
328
  5
18B
331
26F
  5
282
331
2E9
  5
1CA
331
2E5
  5
1DA
331
324
  5
18F
331
26B
  5
286
331
2E1
  5
1DE
331
320
  5
193
331
186
  5
32D
331
1C5
  5
2EE
331
1C1
  5
2F2
331
1BD
  5
2F6
331
237
  5
2C8
331
1B9
  5
2FA
331
1F0
  5
2CF
331
267
  5
28A
331
263
  5
28E
331
2DD
  5
1E2
331
31C
  5
197
331
318
  5
19B
331
25F
  5
292
331
2D9
  5
1E6
331
2D5
  5
1EA
331
314
  5
19F
331
25B
  5
296
331
2D1
  5
1EE
331
310
  5
1A3
331
34D
  5
80
331
349
  5
84
331
87
  5
346
331
13C
  5
342
331
83
  5
34A
331
7F
  5
34E
331
1B5
  5
2FE
331
1B1
  5
302
331
1EC
  5
2D3
331
1E8
  5
2D7
331
1AD
  5
306
331
1A9
  5
30A
331
1E4
  5
2DB
331
1E0
  5
2DF
  0
SORTENTSTABLE
  5
351
102
{ACAD_REACTORS
330
89
102
}
330
89
100
AcDbSortentsTable
330
88
  0
LAYOUT
  5
1E
102
{ACAD_REACTORS
330
18
102
}
330
18
100
AcDbPlotSettings
  1

  2

  4

  6

 40
0.0
 41
0.0
 42
0.0
 43
0.0
 44
0.0
 45
0.0
 46
0.0
 47
0.0
 48
0.0
 49
0.0
140
0.0
141
0.0
142
1.0
143
1.0
 70
   688
 72
     0
 73
     0
 74
     5
  7
monochrome.ctb
 75
    16
147
1.0
 76
     0
 77
     2
 78
   300
148
0.0
149
0.0
100
AcDbLayout
  1
Layout1
 70
     1
 71
     1
 10
0.0
 20
0.0
 11
420.0
 21
297.0
 12
0.0
 22
0.0
 32
0.0
 14
1.000000000000000E+20
 24
1.000000000000000E+20
 34
1.000000000000000E+20
 15
-1.000000000000000E+20
 25
-1.000000000000000E+20
 35
-1.000000000000000E+20
146
0.0
 13
0.0
 23
0.0
 33
0.0
 16
1.0
 26
0.0
 36
0.0
 17
0.0
 27
1.0
 37
0.0
 76
     0
330
1B
  0
LAYOUT
  5
17
102
{ACAD_XDICTIONARY
360
19
102
}
102
{ACAD_REACTORS
330
18
102
}
330
18
100
AcDbPlotSettings
  1

  2
HP LaserJet 4 Plus
  4
A4
  6

 40
6.805083274841308
 41
5.069413185119628
 42
6.805084228515625
 43
5.027069091796875
 44
209.9733276367187
 45
296.9683227539062
 46
0.0
 47
0.0
 48
0.0
 49
0.0
140
0.0
141
0.0
142
1.0
143
0.9936146194297608
 70
 11952
 72
     1
 73
     1
 74
     1
  7
monochrome.ctb
 75
     0
147
1.006426415680058
 76
     0
 77
     2
 78
   300
148
0.018126334974113
149
0.0128166004865875
100
AcDbLayout
  1
Model
 70
     1
 71
     0
 10
0.0
 20
0.0
 11
0.0
 21
0.0
 12
0.0
 22
0.0
 32
0.0
 14
0.0
 24
0.0
 34
0.0
 15
297.0
 25
210.0
 35
0.0
146
0.0
 13
0.0
 23
0.0
 33
0.0
 16
1.0
 26
0.0
 36
0.0
 17
0.0
 27
1.0
 37
0.0
 76
     0
330
2
331
2E
  0
MATERIAL
  5
44
102
{ACAD_XDICTIONARY
360
45
102
}
102
{ACAD_REACTORS
330
D
102
}
330
D
100
AcDbMaterial
  1
ByBlock
 72
     0
 43
0.0008202099737533
 43
0.0
 43
0.0
 43
0.0
 43
0.0
 43
0.0008202099737533
 43
0.0
 43
0.0
 43
0.0
 43
0.0
 43
1.0
 43
0.0
 43
0.0
 43
0.0
 43
0.0
 43
1.0
 77
     0
 47
0.0008202099737533
 47
0.0
 47
0.0
 47
0.0
 47
0.0
 47
0.0008202099737533
 47
0.0
 47
0.0
 47
0.0
 47
0.0
 47
1.0
 47
0.0
 47
0.0
 47
0.0
 47
0.0
 47
1.0
171
     0
 49
0.0008202099737533
 49
0.0
 49
0.0
 49
0.0
 49
0.0
 49
0.0008202099737533
 49
0.0
 49
0.0
 49
0.0
 49
0.0
 49
1.0
 49
0.0
 49
0.0
 49
0.0
 49
0.0
 49
1.0
175
     0
142
0.0008202099737533
142
0.0
142
0.0
142
0.0
142
0.0
142
0.0008202099737533
142
0.0
142
0.0
142
0.0
142
0.0
142
1.0
142
0.0
142
0.0
142
0.0
142
0.0
142
1.0
179
     0
144
0.0008202099737533
144
0.0
144
0.0
144
0.0
144
0.0
144
0.0008202099737533
144
0.0
144
0.0
144
0.0
144
0.0
144
1.0
144
0.0
144
0.0
144
0.0
144
0.0
144
1.0
147
0.0008202099737533
147
0.0
147
0.0
147
0.0
147
0.0
147
0.0008202099737533
147
0.0
147
0.0
147
0.0
147
0.0
147
1.0
147
0.0
147
0.0
147
0.0
147
0.0
147
1.0
  0
MATERIAL
  5
3C
102
{ACAD_XDICTIONARY
360
3D
102
}
102
{ACAD_REACTORS
330
D
102
}
330
D
100
AcDbMaterial
  1
ByLayer
 72
     0
 43
0.0008202099737533
 43
0.0
 43
0.0
 43
0.0
 43
0.0
 43
0.0008202099737533
 43
0.0
 43
0.0
 43
0.0
 43
0.0
 43
1.0
 43
0.0
 43
0.0
 43
0.0
 43
0.0
 43
1.0
 77
     0
 47
0.0008202099737533
 47
0.0
 47
0.0
 47
0.0
 47
0.0
 47
0.0008202099737533
 47
0.0
 47
0.0
 47
0.0
 47
0.0
 47
1.0
 47
0.0
 47
0.0
 47
0.0
 47
0.0
 47
1.0
171
     0
 49
0.0008202099737533
 49
0.0
 49
0.0
 49
0.0
 49
0.0
 49
0.0008202099737533
 49
0.0
 49
0.0
 49
0.0
 49
0.0
 49
1.0
 49
0.0
 49
0.0
 49
0.0
 49
0.0
 49
1.0
175
     0
142
0.0008202099737533
142
0.0
142
0.0
142
0.0
142
0.0
142
0.0008202099737533
142
0.0
142
0.0
142
0.0
142
0.0
142
1.0
142
0.0
142
0.0
142
0.0
142
0.0
142
1.0
179
     0
144
0.0008202099737533
144
0.0
144
0.0
144
0.0
144
0.0
144
0.0008202099737533
144
0.0
144
0.0
144
0.0
144
0.0
144
1.0
144
0.0
144
0.0
144
0.0
144
0.0
144
1.0
147
0.0008202099737533
147
0.0
147
0.0
147
0.0
147
0.0
147
0.0008202099737533
147
0.0
147
0.0
147
0.0
147
0.0
147
1.0
147
0.0
147
0.0
147
0.0
147
0.0
147
1.0
  0
MATERIAL
  5
C
102
{ACAD_XDICTIONARY
360
E
102
}
102
{ACAD_REACTORS
330
D
102
}
330
D
100
AcDbMaterial
  1
Global
 72
     0
 43
0.0008202099737533
 43
0.0
 43
0.0
 43
0.0
 43
0.0
 43
0.0008202099737533
 43
0.0
 43
0.0
 43
0.0
 43
0.0
 43
1.0
 43
0.0
 43
0.0
 43
0.0
 43
0.0
 43
1.0
 77
     0
 47
0.0008202099737533
 47
0.0
 47
0.0
 47
0.0
 47
0.0
 47
0.0008202099737533
 47
0.0
 47
0.0
 47
0.0
 47
0.0
 47
1.0
 47
0.0
 47
0.0
 47
0.0
 47
0.0
 47
1.0
171
     0
 49
0.0008202099737533
 49
0.0
 49
0.0
 49
0.0
 49
0.0
 49
0.0008202099737533
 49
0.0
 49
0.0
 49
0.0
 49
0.0
 49
1.0
 49
0.0
 49
0.0
 49
0.0
 49
0.0
 49
1.0
175
     0
142
0.0008202099737533
142
0.0
142
0.0
142
0.0
142
0.0
142
0.0008202099737533
142
0.0
142
0.0
142
0.0
142
0.0
142
1.0
142
0.0
142
0.0
142
0.0
142
0.0
142
1.0
179
     0
144
0.0008202099737533
144
0.0
144
0.0
144
0.0
144
0.0
144
0.0008202099737533
144
0.0
144
0.0
144
0.0
144
0.0
144
1.0
144
0.0
144
0.0
144
0.0
144
0.0
144
1.0
147
0.0008202099737533
147
0.0
147
0.0
147
0.0
147
0.0
147
0.0008202099737533
147
0.0
147
0.0
147
0.0
147
0.0
147
1.0
147
0.0
147
0.0
147
0.0
147
0.0
147
1.0
  0
MLINESTYLE
  5
54
102
{ACAD_REACTORS
330
3A
102
}
330
3A
100
AcDbMlineStyle
  2
STANDARD
 70
     0
  3

 62
   256
 51
90.0
 52
90.0
 71
     2
 49
0.5
 62
   256
  6
BYLAYER
 49
-0.5
 62
   256
  6
BYLAYER
  0
ACDBPLACEHOLDER
  5
9
102
{ACAD_REACTORS
330
A
102
}
330
A
  0
SCALE
  5
59
102
{ACAD_REACTORS
330
4D
102
}
330
4D
100
AcDbScale
 70
     0
300
1:1
140
1.0
141
1.0
290
     1
  0
SCALE
  5
5A
102
{ACAD_REACTORS
330
4D
102
}
330
4D
100
AcDbScale
 70
     0
300
1:2
140
1.0
141
2.0
290
     0
  0
SCALE
  5
5B
102
{ACAD_REACTORS
330
4D
102
}
330
4D
100
AcDbScale
 70
     0
300
1:4
140
1.0
141
4.0
290
     0
  0
SCALE
  5
5C
102
{ACAD_REACTORS
330
4D
102
}
330
4D
100
AcDbScale
 70
     0
300
1:5
140
1.0
141
5.0
290
     0
  0
SCALE
  5
5D
102
{ACAD_REACTORS
330
4D
102
}
330
4D
100
AcDbScale
 70
     0
300
1:8
140
1.0
141
8.0
290
     0
  0
SCALE
  5
5E
102
{ACAD_REACTORS
330
4D
102
}
330
4D
100
AcDbScale
 70
     0
300
1:10
140
1.0
141
10.0
290
     0
  0
SCALE
  5
5F
102
{ACAD_REACTORS
330
4D
102
}
330
4D
100
AcDbScale
 70
     0
300
1:16
140
1.0
141
16.0
290
     0
  0
SCALE
  5
60
102
{ACAD_REACTORS
330
4D
102
}
330
4D
100
AcDbScale
 70
     0
300
1:20
140
1.0
141
20.0
290
     0
  0
SCALE
  5
61
102
{ACAD_REACTORS
330
4D
102
}
330
4D
100
AcDbScale
 70
     0
300
1:30
140
1.0
141
30.0
290
     0
  0
SCALE
  5
62
102
{ACAD_REACTORS
330
4D
102
}
330
4D
100
AcDbScale
 70
     0
300
1:40
140
1.0
141
40.0
290
     0
  0
SCALE
  5
63
102
{ACAD_REACTORS
330
4D
102
}
330
4D
100
AcDbScale
 70
     0
300
1:50
140
1.0
141
50.0
290
     0
  0
SCALE
  5
64
102
{ACAD_REACTORS
330
4D
102
}
330
4D
100
AcDbScale
 70
     0
300
1:100
140
1.0
141
100.0
290
     0
  0
SCALE
  5
65
102
{ACAD_REACTORS
330
4D
102
}
330
4D
100
AcDbScale
 70
     0
300
2:1
140
2.0
141
1.0
290
     0
  0
SCALE
  5
66
102
{ACAD_REACTORS
330
4D
102
}
330
4D
100
AcDbScale
 70
     0
300
4:1
140
4.0
141
1.0
290
     0
  0
SCALE
  5
67
102
{ACAD_REACTORS
330
4D
102
}
330
4D
100
AcDbScale
 70
     0
300
8:1
140
8.0
141
1.0
290
     0
  0
SCALE
  5
68
102
{ACAD_REACTORS
330
4D
102
}
330
4D
100
AcDbScale
 70
     0
300
10:1
140
10.0
141
1.0
290
     0
  0
SCALE
  5
69
102
{ACAD_REACTORS
330
4D
102
}
330
4D
100
AcDbScale
 70
     0
300
100:1
140
100.0
141
1.0
290
     0
  0
SCALE
  5
6A
102
{ACAD_REACTORS
330
4D
102
}
330
4D
100
AcDbScale
 70
     0
300
1/128" = 1'-0"
140
0.0078125
141
12.0
290
     0
  0
SCALE
  5
6B
102
{ACAD_REACTORS
330
4D
102
}
330
4D
100
AcDbScale
 70
     0
300
1/64" = 1'-0"
140
0.015625
141
12.0
290
     0
  0
SCALE
  5
6C
102
{ACAD_REACTORS
330
4D
102
}
330
4D
100
AcDbScale
 70
     0
300
1/32" = 1'-0"
140
0.03125
141
12.0
290
     0
  0
SCALE
  5
6D
102
{ACAD_REACTORS
330
4D
102
}
330
4D
100
AcDbScale
 70
     0
300
1/16" = 1'-0"
140
0.0625
141
12.0
290
     0
  0
SCALE
  5
6E
102
{ACAD_REACTORS
330
4D
102
}
330
4D
100
AcDbScale
 70
     0
300
3/32" = 1'-0"
140
0.09375
141
12.0
290
     0
  0
SCALE
  5
6F
102
{ACAD_REACTORS
330
4D
102
}
330
4D
100
AcDbScale
 70
     0
300
1/8" = 1'-0"
140
0.125
141
12.0
290
     0
  0
SCALE
  5
70
102
{ACAD_REACTORS
330
4D
102
}
330
4D
100
AcDbScale
 70
     0
300
3/16" = 1'-0"
140
0.1875
141
12.0
290
     0
  0
SCALE
  5
71
102
{ACAD_REACTORS
330
4D
102
}
330
4D
100
AcDbScale
 70
     0
300
1/4" = 1'-0"
140
0.25
141
12.0
290
     0
  0
SCALE
  5
72
102
{ACAD_REACTORS
330
4D
102
}
330
4D
100
AcDbScale
 70
     0
300
3/8" = 1'-0"
140
0.375
141
12.0
290
     0
  0
SCALE
  5
73
102
{ACAD_REACTORS
330
4D
102
}
330
4D
100
AcDbScale
 70
     0
300
1/2" = 1'-0"
140
0.5
141
12.0
290
     0
  0
SCALE
  5
74
102
{ACAD_REACTORS
330
4D
102
}
330
4D
100
AcDbScale
 70
     0
300
3/4" = 1'-0"
140
0.75
141
12.0
290
     0
  0
SCALE
  5
75
102
{ACAD_REACTORS
330
4D
102
}
330
4D
100
AcDbScale
 70
     0
300
1" = 1'-0"
140
1.0
141
12.0
290
     0
  0
SCALE
  5
76
102
{ACAD_REACTORS
330
4D
102
}
330
4D
100
AcDbScale
 70
     0
300
1-1/2" = 1'-0"
140
1.5
141
12.0
290
     0
  0
SCALE
  5
77
102
{ACAD_REACTORS
330
4D
102
}
330
4D
100
AcDbScale
 70
     0
300
3" = 1'-0"
140
3.0
141
12.0
290
     0
  0
SCALE
  5
78
102
{ACAD_REACTORS
330
4D
102
}
330
4D
100
AcDbScale
 70
     0
300
6" = 1'-0"
140
6.0
141
12.0
290
     0
  0
SCALE
  5
79
102
{ACAD_REACTORS
330
4D
102
}
330
4D
100
AcDbScale
 70
     0
300
1'-0" = 1'-0"
140
12.0
141
12.0
290
     0
  0
TABLESTYLE
  5
55
102
{ACAD_XDICTIONARY
360
56
102
}
102
{ACAD_REACTORS
330
4E
102
}
330
4E
100
AcDbTableStyle
280
     0
  3
Standard
 70
     0
 71
     0
 40
1.5
 41
1.5
280
     0
281
     0
  7
Standard
140
4.5
170
     2
 62
     0
 63
     7
283
     0
 90
      512
 91
        0
  1

274
    -2
284
     1
 64
     0
275
    -2
285
     1
 65
     0
276
    -2
286
     1
 66
     0
277
    -2
287
     1
 67
     0
278
    -2
288
     1
 68
     0
279
    -2
289
     1
 69
     0
  7
Standard
140
6.0
170
     5
 62
     0
 63
     7
283
     0
 90
      512
 91
        0
  1

274
    -2
284
     1
 64
     0
275
    -2
285
     1
 65
     0
276
    -2
286
     1
 66
     0
277
    -2
287
     1
 67
     0
278
    -2
288
     1
 68
     0
279
    -2
289
     1
 69
     0
  7
Standard
140
4.5
170
     5
 62
     0
 63
     7
283
     0
 90
      512
 91
        0
  1

274
    -2
284
     1
 64
     0
275
    -2
285
     1
 65
     0
276
    -2
286
     1
 66
     0
277
    -2
287
     1
 67
     0
278
    -2
288
     1
 68
     0
279
    -2
289
     1
 69
     0
  0
VISUALSTYLE
  5
2F
102
{ACAD_REACTORS
330
30
102
}
330
30
100
AcDbVisualStyle
  2
2dWireframe
 70
     4
177
     2
291
     0
 71
     0
176
     1
 72
     2
176
     1
 73
     0
176
     1
 90
        0
176
     1
 40
0.6
176
     1
 41
30.0
176
     1
 63
     7
176
     1
 74
     1
176
     1
 91
        4
176
     1
 64
     7
176
     1
 65
   257
176
     1
 75
     1
176
     1
175
     1
176
     1
 42
1.0
176
     1
 92
        0
176
     1
 66
   257
176
     1
 43
1.0
176
     1
 76
     1
176
     1
 77
     6
176
     1
 78
     2
176
     1
 67
     7
176
     1
 79
     5
176
     1
170
     0
176
     1
171
     0
176
     1
290
     0
176
     1
 93
        1
176
     1
 44
0.0
176
     1
173
     0
176
     1
  0
VISUALSTYLE
  5
58
102
{ACAD_REACTORS
330
30
102
}
330
30
100
AcDbVisualStyle
  2
3dWireframe
 70
     5
177
     2
291
     0
 71
     0
176
     1
 72
     2
176
     1
 73
     0
176
     1
 90
        0
176
     1
 40
0.6
176
     1
 41
30.0
176
     1
 63
     7
176
     1
 74
     1
176
     1
 91
        4
176
     1
 64
     7
176
     1
 65
   257
176
     1
 75
     1
176
     1
175
     1
176
     1
 42
1.0
176
     1
 92
        0
176
     1
 66
   257
176
     1
 43
1.0
176
     1
 76
     1
176
     1
 77
     6
176
     1
 78
     2
176
     1
 67
     7
176
     1
 79
     5
176
     1
170
     0
176
     1
171
     0
176
     1
290
     0
176
     1
 93
        1
176
     1
 44
0.0
176
     1
173
     0
176
     1
  0
VISUALSTYLE
  5
57
102
{ACAD_REACTORS
330
30
102
}
330
30
100
AcDbVisualStyle
  2
Realistic
 70
     8
177
     2
291
     0
 71
     2
176
     1
 72
     2
176
     1
 73
     0
176
     1
 90
        0
176
     1
 40
0.6
176
     1
 41
30.0
176
     1
 63
     7
176
     1
 74
     1
176
     1
 91
        0
176
     1
 64
     7
176
     1
 65
   257
176
     1
 75
     1
176
     1
175
     1
176
     1
 42
1.0
176
     1
 92
        8
176
     1
 66
     8
176
     1
 43
1.0
176
     1
 76
     1
176
     1
 77
     6
176
     1
 78
     2
176
     1
 67
     7
176
     1
 79
     5
176
     1
170
     0
176
     1
171
     0
176
     1
290
     0
176
     1
 93
       13
176
     1
 44
0.0
176
     1
173
     0
176
     1
  0
DICTIONARYVAR
  5
357
102
{ACAD_REACTORS
330
353
102
}
330
353
100
DictionaryVariables
280
     0
  1
1:1
  0
DICTIONARYVAR
  5
355
102
{ACAD_REACTORS
330
353
102
}
330
353
100
DictionaryVariables
280
     0
  1
STANDARD
  0
DICTIONARYVAR
  5
354
102
{ACAD_REACTORS
330
353
102
}
330
353
100
DictionaryVariables
280
     0
  1
STANDARD
  0
DICTIONARYVAR
  5
359
102
{ACAD_REACTORS
330
353
102
}
330
353
100
DictionaryVariables
280
     0
  1
1
  0
DICTIONARYVAR
  5
35A
102
{ACAD_REACTORS
330
353
102
}
330
353
100
DictionaryVariables
280
     0
  1
15
  0
DICTIONARYVAR
  5
358
102
{ACAD_REACTORS
330
353
102
}
330
353
100
DictionaryVariables
280
     0
  1
0
  0
DICTIONARYVAR
  5
356
102
{ACAD_REACTORS
330
353
102
}
330
353
100
DictionaryVariables
280
     0
  1
0
  0
DICTIONARY
  5
19
330
17
100
AcDbDictionary
280
     1
281
     1
  3
ADSK_XREC_LAYOUTTHUMBNAIL
360
1A
  0
DICTIONARY
  5
45
330
44
100
AcDbDictionary
280
     1
281
     1
  3
BUMPTILE
360
46
  3
DIFFUSETILE
360
47
  3
OPACITYTILE
360
48
  3
REFLECTIONTILE
360
49
  3
REFRACTIONTILE
360
4A
  3
SPECULARTILE
360
4B
  0
DICTIONARY
  5
3D
330
3C
100
AcDbDictionary
280
     1
281
     1
  3
BUMPTILE
360
3E
  3
DIFFUSETILE
360
3F
  3
OPACITYTILE
360
40
  3
REFLECTIONTILE
360
41
  3
REFRACTIONTILE
360
42
  3
SPECULARTILE
360
43
  0
DICTIONARY
  5
E
330
C
100
AcDbDictionary
280
     1
281
     1
  3
BUMPTILE
360
F
  3
DIFFUSETILE
360
10
  3
OPACITYTILE
360
11
  3
REFLECTIONTILE
360
12
  3
REFRACTIONTILE
360
13
  3
SPECULARTILE
360
14
  0
DICTIONARY
  5
56
330
55
100
AcDbDictionary
280
     1
281
     1
  3
ACAD_ROUNDTRIP_2008_TABLESTYLE_CELLSTYLEMAP
360
35B
  0
XRECORD
  5
1A
102
{ACAD_REACTORS
330
19
102
}
330
19
100
AcDbXrecord
280
     1
310
280000000001000084000000010008000000000000840000000000000000000000010000000000000000000000000000FFFFFF000000000000000000000000000000000000000000000000000000000000000000330000006600000099000000CC000000FF00000000330000333300006633000099330000CC330000FF3300
310
0000660000336600006666000099660000CC660000FF66000000990000339900006699000099990000CC990000FF99000000CC000033CC000066CC000099CC0000CCCC0000FFCC000000FF000033FF000066FF000099FF0000CCFF0000FFFF000000003300330033006600330099003300CC003300FF003300003333003333
310
33006633330099333300CC333300FF33330000663300336633006666330099663300CC663300FF66330000993300339933006699330099993300CC993300FF99330000CC330033CC330066CC330099CC3300CCCC3300FFCC330000FF330033FF330066FF330099FF3300CCFF3300FFFF330000006600330066006600660099
310
006600CC006600FF00660000336600333366006633660099336600CC336600FF33660000666600336666006666660099666600CC666600FF66660000996600339966006699660099996600CC996600FF99660000CC660033CC660066CC660099CC6600CCCC6600FFCC660000FF660033FF660066FF660099FF6600CCFF6600
310
FFFF660000009900330099006600990099009900CC009900FF00990000339900333399006633990099339900CC339900FF33990000669900336699006666990099669900CC669900FF66990000999900339999006699990099999900CC999900FF99990000CC990033CC990066CC990099CC9900CCCC9900FFCC990000FF99
310
0033FF990066FF990099FF9900CCFF9900FFFF99000000CC003300CC006600CC009900CC00CC00CC00FF00CC000033CC003333CC006633CC009933CC00CC33CC00FF33CC000066CC003366CC006666CC009966CC00CC66CC00FF66CC000099CC003399CC006699CC009999CC00CC99CC00FF99CC0000CCCC0033CCCC0066CC
310
CC0099CCCC00CCCCCC00FFCCCC0000FFCC0033FFCC0066FFCC0099FFCC00CCFFCC00FFFFCC000000FF003300FF006600FF009900FF00CC00FF00FF00FF000033FF003333FF006633FF009933FF00CC33FF00FF33FF000066FF003366FF006666FF009966FF00CC66FF00FF66FF000099FF003399FF006699FF009999FF00CC
310
99FF00FF99FF0000CCFF0033CCFF0066CCFF0099CCFF00CCCCFF00FFCCFF0000FFFF0033FFFF0066FFFF0099FFFF00CCFFFF00FFFFFF00000000000D0D0D001A1A1A00282828003535350043434300505050005D5D5D006B6B6B00787878008686860093939300A1A1A100AEAEAE00BBBBBB00C9C9C900D6D6D600E4E4E400
310
F1F1F100FFFFFF0000000000000000000000000000000000000000000000000000000000000000000000000000000000E2E2E2E2E2E2E2E2E2E2E2E2E2E2E2E2E2E2E2E2E2E2E2E2E2E2E2E2E2E2E2E2E2E2E2E2E2E2E2E2E2E2E2E2E2E2E2E2E2E2E2E2E2E2E2E2E2E2E2E2E2E2E2E2E2E2E2E2E2E2E2E2E2E2E2E2E2E2E2
310
E2E2E2E2E2E2E2E2E2E2E2E2E2E2E2E2E2E2E2E2E2E2E2E2E2E2E2E2E2E2E2E2E2E2E2E2E2E2E2E2E2E2E2E2E2E2E2E2E2E2E2E2E2E2E2E2E2E2E2E2E2E2E2E2E2E2E2E2E2E2E2E2E2E2E2E2E2E2E2E2E2E2E2E2E2E2E2E2E2E2E2E2E2E2E2E2E2E2E2E2E2E2E2E2E2E2E2E2E2E2E2E2E2E2E2E2E2E2E2E2E2E2E2E2E2E2E2
310
E2E2E2E2E2E2E2E2E2E2E2E2E2E2E2E2E2E2E2E2E2E2E2E2E2E2E2E2E2E2E2E2E2E2E2E2E2E2E2E2E2E2E2E2E2E2E2E2E2E2E2E2E2E2E2E2E2E2E2E2E2E2E2E2E2E2E2E2E2E2E2E2E2E2E2E2E2E2E2E2E2E2E2E2E2BEBEBEBEBEBEBEBEBEBEBEBEBEBEBEBEBEBEBEBEBEBEBEBEBEBEBEBEBEBEBEBEBEBEBEBEBEBEBEBEBEBE
310
BEBEBEBEBEBEBEBEBEBEBEBEBEBEBEBEBEBEBEBEBEBEBEBEBEBEBEBEBEBEBEBEBEBEBEBEBEBEBEBEBEBEBEBEBEBEBEBEBEBEBEBEBEBEBEBEBEBEBEBEBEBEBEBEBEBEBEBEBEBEBEBEBEBEBEBEBEBEBEBEBEBEBEBEBEBEBEBEBEBEBEBEBEBEBEBEBEBEBEBEBEBEBEBEBEBEBEBEBEBEBEBEBEBEBEBEBEBEBEBEBEBEBEBEBEBEBE
310
BEBEBEBEBEBEBEBEBEBEBEBEBEBEBEBEBEE2E2E2E2E2E2E2E2E2E2E2E2E2E2E2E2E2E2E2E2E2E2E2E2E2E2E2E2E2E2E2E2E2E2E2E2E2E2E2E2E2E2E2E2E2E2E2E2E2E2E2E2E2E2E2E2E2E2E2E2E2E2E2E2E2E2E2E2E2E2BEE2E2E2E2E2E2E2E2E2E2E2E2E2E2E2E2E2E2E2E2E2E2E2E2E2E2E2E2E2E2E2E2E2E2E2E2E2E2E2
310
E2E2E2E2E2E2E2E2E2E2E2E2E2E2E2E2E2E2E2E2E2E2E2E2E2E2E2E2E2E2E2E2E2E2E2E2E2E2E2E2E2E2E2E2E2E2E2E2E2E2E2E2E2E2E2E2E2E2E2E2E2E2E2E2E2E2E2E2E2E2E2E2E2E2E2E2E2E2E2E2E2E2E2E2E2E2E2E2E2E2E2E2E2E2E2E2E2E2E2E2E2E2E2E2E2E2E2E2E2E2E2E2E2E2E2E2E2E2E2E2E2E2E2E2E2E2E2
310
E2E2E2E2E2E2E2E2E2E2E2E2E2E2E2E2E2E2BEE2E2E2E2E2E2E2E2E2E2E2E2E2E2E2E2E2E2E2E2E2E2E2E2E2E2E2E2E2E2E2E2E2E2E2E2E2E2E2E2E2E2E2E2E2E2E2E2E2E2E2E2E2E2E2E2E2E2E2E2E2E2E2E2E2E2E2E2E2E2BEE2E2E2E2E2E2E2E2E2E2E2E2E2E2E2E2E2E2E2E2E2E2E2E2E2E2E2E2E2E2E2E2E2E2E2E2E2
310
E2E2E2E2E2E2E2E2E2E2E2E2E2E2E2E2E2E2E2E2E2E2E2E2E2E2E2E2E2E2E2E2E2E2E2E2E2E2E2E2E2E2E2E2E2E2E2E2E2E2E2E2E2E2E2E2E2E2E2E2E2E2E2E2E2E2E2E2E2E2E2E2E2E2E2E2E2E2E2E2E2E2E2E2E2E2E2E2E2E2E2E2E2E2E2E2E2E2E2E2E2E2E2E2E2E2E2E2E2E2E2E2E2E2E2E2E2E2E2E2E2E2E2E2E2E2E2
310
E2E2E2E2E2E2E2E2E2E2E2E2E2E2E2E2E2E2E2E2BEE2E2E2E2E2E2E2E2E2E2E2E2E2E2E2E2E2E2E2E2E2E2E2E2E2E2E2E2E2E2E2E2E2E2E2E2E2E2E2E2E2E2E2E2E2E2E2E2E2E2E2E2E2E2E2E2E2E2E2E2E2E2E2E2E2E2E2E2E2E2BEE2E2E2DCDCDCDCDCDCDCDCDCDCDCDCDCDCDCDCDCDCDCDCDCDCDCDCDCDCDCDCDCDCDCDC
310
DCDCDCDCDCDCDCDCDCDCDCDCDCDCDCDCDCDCDCDCDCDCDCDCDCDCDCDCDCDCDCDCDCDCDCDCDCDCDCDCDCDCDCDCDCDCDCDCDCDCDCDCDCDCDCDCDCDCDCDCDCDCDCDCDCDCDCDCDCDCDCDCDCDCDCDCDCDCDCDCDCDCDCDCDCDCDCDCDCDCDCDCDCDCDCDCDCDCDCDCDCDCDCDCDCDCDCDCDCDCDCDCDCDCDCDCDCDCDCDCDCDCDCDCDCDCDC
310
DCDCDCDCDCDCDCDCDCDCDCDCDCDCDCDCDCDCDCE2E2E2BEE2E2E2E2E2E2E2E2E2E2E2E2E2E2E2E2E2E2E2E2E2E2E2E2E2E2E2E2E2E2E2E2E2E2E2E2E2E2E2E2E2E2E2E2E2E2E2E2E2E2E2E2E2E2E2E2E2E2E2E2E2E2E2E2E2E2E2E2E2E2BEE2E2E2DCE2E2E2E2E2E2E2E2E2E2E2E2E2E2E2E2E2E2E2E2E2E2E2E2E2E2E2E2E2
310
E2E2E2E2E2E2E2E2E2E2E2E2E2E2E2E2E2E2E2E2E2E2E2E2E2E2E2E2E2E2E2E2E2DCE2E2E2E2E2E2E2E2E2E2E2E2E2E2DCE2E2E2E2E2E2E2E2E2E2E2E2E2E2E2DCE2E2E2E2E2E2E2E2E2BEBEBEBEBEBEBEBEBEBEBEBEBEE2E2E2E2E2DCE2E2E2E2E2E2E2E2E2E2E2E2E2E2E2E2E2DCE2E2E2E2E2E2E2E2E2E2E2E2E2E2E2E2
310
E2E2E2DCBEBEBEBEBEBEBEBEBEBEBEE2E2E2E2E2DCE2E2E2BEE2E2E2E2E2E2E2E2E2E2E2E2E2E2E2E2E2E2E2E2E2E2E2E2E2E2E2E2E2E2E2E2E2E2E2E2E2E2E2E2E2E2E2E2E2E2E2E2E2E2E2E2E2E2E2E2E2E2E2E2E2E2E2E2E2E2E2E2E2E2BEE2E2E2DCE2E2E2E2E2E2E2E2E2E2E2E2E2E2E2E2E2E2E2E2E2E2E2E2E2E2E2
310
E2E2E2E2E2E2E2E2E2E2E2E2E2E2E2E2E2E2E2E2E2E2E2E2E2E2E2E2E2E2E2E2E2E2E2DCF5F5F5F5F5F5F5E2E2E2E2E2E2E2DCF5F5F5F5F5F5F5F5F5E2E2E2E2E2E2DCE2E2E2E2E2E2E2E2E2BEBEBEBEBEBEBEBEBEBEBEBEBEE2E2E2E2E2DCE2E2E2E2E2E2E2E2E2E2E2E2E2E2E2E2E2DCE2E2E2E2E2E2E2E2E2E2E2E2E2E2
310
E2E2E2E2E2DCBEBEE2BEBEBEBEBEE2BEBEE2E2E2E2E2DCE2E2E2BEE2E2E2E2E2E2E2E2E2E2E2E2E2E2E2E2E2E2E2E2E2E2E2E2E2E2E2E2E2E2E2E2E2E2E2E2E2E2E2E2E2E2E2E2E2E2E2E2E2E2E2E2E2E2E2E2E2E2E2E2E2E2E2E2E2E2E2E2E2E2BEE2E2E2DCE2E2E2E2E2E2E2E2E2E2E2E2E2E2E2E2E2E2E2E2E2E2E2E2E2
310
E2E2E2E2E2E2E2E2E2E2E2E2E2E2E2E2E2E2E2E2E2E2E2E2E2E2E2E2E2E2E2E2E2E2E2E2E2DCF5F5F5F5F5F5F5DCDCDCDCDCDCDCDCF5F5F5F5F5F5F5F5F5DCDCDCDCDCDCDCE2E2E2E2E2E2E2E2E2BEBEBEBEBEBEBEBEBEBEBEBEBEE2E2E2E2E2DCE2E2E2E2E2E2E2E2E2E2E2E2E2E2E2E2E2DCE2E2E2E2E2E2E2E2E2E2E2E2
310
E2E2E2E2E2E2E2DCBEBEBEBEBEBEBEBEBEBEBEE2E2E2E2E2DCE2E2E2BEE2E2E2E2E2E2E2E2E2E2E2E2E2E2E2E2E2E2E2E2E2E2E2E2E2E2E2E2E2E2E2E2E2E2E2E2E2E2E2E2E2E2E2E2E2E2E2E2E2E2E2E2E2E2E2E2E2E2E2E2E2E2E2E2E2E2E2E2E2E2BEE2E2E2DCE2E2E2E2E2E2E2E2E2E2E2E2E2E2E2E2E2E2E2E2E2E2E2
310
E2E2E2E2E2E2E2E2E2E2E2E2E2E2E2E2E2E2E2E2E2E2E2E2E2E2E2E2E2E2E2E2E2E2E2E2E2E2E2DCE2E2E2E2DCE2E2E2E2E2E2E2E2E2E2E2DCE2E2E2E2E2E2E2DCE2E2E2E2E2DCE2E2E2BEBEBEBEBEBEBEBEBEBEBEBEBEBEBEBEBEBEBEE2E2E2E2E2DCF5F5F5F5F5F5F5E2F5F5F5E2E2E2E2E2E2DCF5F5F5F5F5F5F5F5F5F5
310
F5F5F5F5F5E2E2E2E2DCF5F5F5F5F5F5F5E2E2F5F5F5F5E2E2E2DCE2E2E2BEE2E2E2E2E2E2E2E2E2E2E2E2E2E2E2E2E2E2E2E2E2E2E2E2E2E2E2E2E2E2E2E2E2E2E2E2E2E2E2E2E2E2E2E2E2E2E2E2E2E2E2E2E2E2E2E2E2E2E2E2E2E2E2E2E2E2E2E2E2E2BEE2E2E2DCE2E2E2E2E2E2E2E2E2E2E2E2E2E2E2E2E2E2E2E2E2
310
E2E2E2E2E2E2E2E2E2E2E2E2E2E2E2E2E2E2E2E2E2E2E2E2E2E2E2E2E2E2E2E2E2E2E2E2E2E2E2E2E2DCE2E2E2E2DCE2E2E2E2E2E2E2E2E2E2E2DCE2E2E2E2E2E2E2DCE2E2E2E2E2DCE2E2E2E2E2E2E2E2E2E2E2E2BEBEBEBEBEE2BEBEBEBEE2E2E2E2E2DCF5F5F5F5F5F5F5F5F5F5F5F5E2E2E2E2E2DCF5F5F5F5E2F5F5F5
310
F5F5F5F5F5F5F5F5E2E2E2DCE2F5F5F5F5F5F5F5F5F5F5F5E2E2E2E2DCE2E2E2BEE2E2E2E2E2E2E2E2E2E2E2E2E2E2E2E2E2E2E2E2E2E2E2E2E2E2E2E2E2E2E2E2E2E2E2E2E2E2E2E2E2E2E2E2E2E2E2E2E2E2E2E2E2E2E2E2E2E2E2E2E2E2E2E2E2E2E2E2E2E2BEE2E2E2DCE2E2E2E2E2E2E2E2E2E2E2E2F5E2E2E2E2E2E2
310
E2E2E2E2E2E2E2E2E2E2E2E2E2E2F5E2E2E2E2E2E2E2E2E2E2E2E2E2E2E2E2E2E2BEE2E2E2E2E2E2E2E2E2DCE2E2E2E2DCE2E2E2E2E2E2E2E2E2E2E2DCE2E2E2E2E2E2E2DCE2E2E2E2E2DCE2E2E2E2E2E2BEE2BEBEE2BEBEBEBEBEBEBEBEBEBEBEE2E2E2E2E2DCF5F5E2E2F5E2E2E2F5F5E2E2E2E2E2E2E2DCE2F5F5F5F5F5
310
F5F5F5F5F5F5F5F5E2E2E2E2E2DCE2F5F5E2E2E2F5E2E2F5F5E2E2E2E2E2DCE2E2E2BEE2E2E2E2E2E2E2E2E2E2E2E2E2E2E2E2E2E2E2E2E2E2E2E2E2E2E2E2E2E2E2E2E2E2E2E2E2E2E2E2E2E2E2E2E2E2E2E2E2E2E2E2E2E2E2E2E2E2E2E2E2E2E2E2E2E2E2E2E2E2BEE2E2E2DCE2E2E2E2E2E2E2E2E2E2F5F5F5E2E2E2E2
310
E2E2E2E2E2E2E2E2E2E2E2E2E2E2E2E2F5F5F5E2E2E2E2E2E2E2E2E2E2E2E2E2E2F5F5F5F5F5E2E2E2E2E2E2E2DCDCDCDCDCDCDCDCDCDCDCDCDCDCDCDCDCDCDCDCDCDCDCDCDCDCDCDCDCDCDCDCE2E2E2E2E2E2BEBEBEBEBEBEBEBEBEBEBEBEBEBEBEBEE2E2E2E2E2DCDCDCDCDCDCDCBEDCDCDCDCDCDCDCDCDCDCDCDCDCDCDC
310
DCDCDCDCDCDCDCDCDCDCDCDCDCDCDCDCDCDCDCDCDCDCDCDCDCDCDCDCDCDCDCDCDCE2E2E2BEE2E2E2E2E2E2E2E2E2E2E2E2E2E2E2E2E2E2E2E2E2E2E2E2E2E2E2E2E2E2E2E2E2E2E2E2E2E2E2E2E2E2E2E2E2E2E2E2E2E2E2E2E2E2E2E2E2E2E2E2E2E2E2E2E2E2E2E2E2E2BEE2E2E2DCE2E2E2E2E2E2E2E2F5F5E2F5E2F5E2
310
E2E2E2E2E2E2E2E2E2E2E2E2E2E2E2E2E2F5E2E2F5F5F5E2E2E2E2E2E2E2E2E2E2E2E2F5E2F5E2F5E2E2E2E2E2E2E2DCE2E2E2E2DCE2E2E2E2E2E2E2E2E2E2E2DCE2E2E2E2E2E2E2DCE2E2E2E2E2DCE2E2E2E2E2E2BEBEBEE2BEE2BEBEBEBEBEBEBEBEBEBEE2E2E2E2E2DCBEBEBEBEBEE2BEBEBEBEBEE2E2BEBEBEBEBEE2BE
310
BEBEBEBEBEBEBEBEBEBEBEBEE2BEBEBEE2E2E2E2E2E2E2E2E2E2E2E2E2E2E2E2E2E2DCE2E2E2BEE2E2E2E2E2E2E2E2E2E2E2E2E2E2E2E2E2E2E2E2E2E2E2E2E2E2E2E2E2E2E2E2E2E2E2E2E2E2E2E2E2E2E2E2E2E2E2E2E2E2E2E2E2E2E2E2E2E2E2E2E2E2E2E2E2E2E2E2E2E2BEE2E2E2DCE2E2E2E2E2E2E2E2E2F5E2F5F5
310
F5E2E2E2E2E2E2E2E2E2E2E2E2E2E2E2E2E2E2F5F5F5E2E2F5E2E2E2E2E2E2E2E2E2E2E2E2F5E2F5E2F5E2E2E2E2E2E2E2DCE2E2E2E2DCE2E2E2E2E2E2E2E2E2E2E2DCE2E2E2E2E2E2E2DCE2E2E2E2E2DCE2E2E2E2E2E2BEBEBEE2BEE2BEBEBEBEBEBEBEBEBEBEE2E2E2E2E2DCBEBEBEBEBEBEE2BEBEBEBEE2E2BEE2BEBEBE
310
BEE2BEBEBEBEBEBEBEBEBEBEBEE2BEBEBEBEE2E2E2E2E2E2E2E2E2E2E2E2E2E2E2E2E2E2DCE2E2E2BEE2E2E2E2E2E2E2E2E2E2E2E2E2E2E2E2E2E2E2E2E2E2E2E2E2E2E2E2E2E2E2E2E2E2E2E2E2E2E2E2E2E2E2E2E2E2E2E2E2E2E2E2E2E2E2E2E2E2E2E2E2E2E2E2E2E2E2E2E2E2BEE2E2E2DCE2E2E2E2E2E2E2E2E2F5F5
310
F5F5E2E2E2E2E2E2E2E2E2E2E2E2E2E2E2E2E2E2E2E2F5F5F5F5E2E2E2E2E2E2E2E2E2E2E2E2E2F5F5F5F5F5E2E2E2E2E2E2E2DCDCDCDCDCDCDCDCDCDCDCDCDCDCDCDCDCDCDCDCDCDCDCDCDCDCDCDCDCDCDCDCDCDCDCDCDCDCDCDCDCDCDCDCDCDCDCDCDCDCDCDCDCDCDCDCDCDCDCDCBEBEBEBEBEBEBEBEBEBEBEBEE2BEBEBE
310
BEBEBEBEBEBEBEBEBEBEBEBEBEBEBEBEBEBEBEBEE2E2E2E2E2E2E2E2E2E2E2E2E2E2E2E2E2E2DCE2E2E2BEE2E2E2E2E2E2E2E2E2E2E2E2E2E2E2E2E2E2E2E2E2E2E2E2E2E2E2E2E2E2E2E2E2E2E2E2E2E2E2E2E2E2E2E2E2E2E2E2E2E2E2E2E2E2E2E2E2E2E2E2E2E2E2E2E2E2E2E2E2E2BEE2E2E2DCE2E2E2E2E2E2E2E2E2
310
E2F5E2E2F5E2E2E2E2E2E2E2E2E2E2E2E2E2E2E2E2E2E2F5E2E2E2F5E2E2E2E2E2E2E2E2E2E2E2E2E2E2F5BEE2F5E2E2E2E2E2E2E2DCE2E2E2E2DCE2E2E2E2E2E2E2E2E2E2E2DCE2E2E2E2E2E2E2DCE2E2E2E2E2F5F5F5F5F5DCE2E2E2E2E2E2E2DCE2E2E2E2E2E2E2E2E2E2E2E2E2E2DCBEE2E2E2E2E2E2E2E2E2E2E2E2BE
310
BEBEE2E2E2E2BEBEE2E2E2E2BEE2E2E2BEE2E2E2E2BEE2E2E2E2E2E2E2E2E2E2E2E2E2E2E2E2E2E2DCE2E2E2BEE2E2E2E2E2E2E2E2E2E2E2E2E2E2E2E2E2E2E2E2E2E2E2E2E2E2E2E2E2E2E2E2E2E2E2E2E2E2E2E2E2E2E2E2E2E2E2E2E2E2E2E2E2E2E2E2E2E2E2E2E2E2E2E2E2E2E2E2E2E2BEE2E2E2DCE2E2E2E2E2E2E2
310
E2E2E2F5E2E2F5E2E2E2E2E2E2E2E2E2E2E2E2E2E2E2E2E2E2F5E2E2F5E2E2E2E2E2E2E2E2E2E2E2E2E2E2E2F5BEE2F5E2E2E2E2E2E2E2DCE2E2E2E2DCE2E2E2E2E2E2E2E2E2E2E2DCE2E2E2E2E2E2E2DCE2E2E2E2E2F5F5F5F5F5DCE2E2E2E2E2E2E2DCE2E2E2E2E2E2E2E2E2E2E2E2E2E2DCE2E2E2E2E2E2E2E2E2E2E2E2
310
E2E2E2E2E2E2E2E2E2E2E2E2E2E2E2E2E2E2E2E2E2E2E2E2E2E2E2E2E2E2E2E2E2E2E2E2E2E2E2E2E2E2DCE2E2E2BEE2E2E2E2E2E2E2E2E2E2E2E2E2E2E2E2E2E2E2E2E2E2E2E2E2E2E2E2E2E2E2E2E2E2E2E2E2E2E2E2E2E2E2E2E2E2E2E2E2E2E2E2E2E2E2E2E2E2E2E2E2E2E2E2E2E2E2E2E2E2BEE2E2E2DCE2E2E2E2E2
310
E2E2E2E2E2E2F5E2F5E2E2E2E2E2E2E2E2E2E2E2E2E2E2E2E2E2E2F5E2E2F5E2E2E2E2E2E2E2E2E2E2E2E2E2E2E2F5BEE2F5E2E2E2E2E2E2E2DCDCDCDCDCDCDCDCDCDCDCDCDCDCDCDCDCDCDCDCDCDCDCDCDCDCDCDCDCDCDCDCDCDCDCDCDCDCDCDCDCBEBEBEDCBEBEBEBEBEBEBEBEDCDCDCDCDCDCDCBEBEBEBEBEBEBEBEBEBE
310
BEBEBEBEBEBEBEBEBEBEBEE2BEBEBEBEBEBEBEBEBEE2E2E2BEBEBEE2BEE2E2BEE2BEBEBEE2E2E2BEE2E2E2E2DCE2E2E2BEE2E2E2E2E2E2E2E2E2E2E2E2E2E2E2E2E2E2E2E2E2E2E2E2E2E2E2E2E2E2E2E2E2E2E2E2E2E2E2E2E2E2E2E2E2E2E2E2E2E2E2E2E2E2E2E2E2E2E2E2E2E2E2E2E2E2E2E2E2E2BEE2E2E2DCE2E2E2
310
E2E2E2E2E2E2E2E2F5F5F5E2E2E2E2E2E2E2E2E2E2E2E2E2E2E2E2E2E2F5F5F5E2E2E2E2E2E2E2E2E2E2E2E2E2E2E2E2F5F5F5F5E2E2E2E2E2E2E2DCE2E2E2E2DCE2E2E2E2E2E2E2E2E2E2E2DCE2E2E2E2E2E2E2DCE2E2E2E2E2F5F5F5F5F5DCBEBEBEBEBEBEBEBEBEBEBEBEBEBEBEBEE2E2E2E2E2E2DCBEBEBEBEBEBEBEBE
310
BEBEBEE2BEBEBEBEBEBEBEBEBEE2BEBEBEBEBEBEBEBEBEBEE2E2BEBEBEBEBEE2E2BEE2BEBEE2BEBEBEBEE2E2E2E2DCE2E2E2BEE2E2E2E2E2E2E2E2E2E2E2E2E2E2E2E2E2E2E2E2E2E2E2E2E2E2E2E2E2E2E2E2E2E2E2E2E2E2E2E2E2E2E2E2E2E2E2E2E2E2E2E2E2E2E2E2E2E2E2E2E2E2E2E2E2E2E2E2E2E2BEE2E2E2DCE2
310
E2E2E2E2E2E2E2E2E2E2F5E2E2F5E2E2E2E2E2E2E2E2E2E2E2E2E2E2E2E2F5E2E2F5E2E2E2E2E2E2E2E2E2E2E2E2E2E2E2E2F5BEF5E2E2E2E2E2E2E2E2DCE2E2E2E2DCE2E2E2E2E2E2E2E2E2E2E2DCE2E2E2E2E2E2E2DCE2E2E2E2E2DCF5F5F5E2DCBEBEBEBEBEBEBEDCBEBEBEBEBEBEBEBEE2E2E2E2E2E2DCBEBEBEBEBEBE
310
E2BEBEBEBEBEBEBEE2BEBEBEE2BEBEBEBEBEBEBEBEBEBEBEBEBEE2E2BEBEBEBEE2E2E2BEBEBEBEBEE2E2E2BEE2E2E2E2DCE2E2E2BEE2E2E2E2E2E2E2E2E2E2E2E2E2E2E2E2E2E2E2E2E2E2E2E2E2E2E2E2E2E2E2E2E2E2E2E2E2E2E2E2E2E2E2E2E2E2E2E2E2E2E2E2E2E2E2E2E2E2E2E2E2E2E2E2E2E2E2E2E2E2BEE2E2E2
310
DCE2E2E2E2E2E2E2E2E2E2E2E2F5E2F5E2E2E2E2E2E2E2E2E2E2E2E2E2E2E2E2F5E2F5E2E2E2E2E2E2E2E2E2E2E2E2E2E2E2E2E2F5BEF5E2E2E2E2E2E2E2E2DCDCDCDCDCDCDCDCDCDCDCDCDCDCDCDCDCDCDCDCDCDCDCDCDCDCDCDCDCDCDCDCDCDCDCDCDCDCDCDCDCDCDCDCDCDCDCDCDCDCDCDCDCDCDCDCDCDCDCDCBEBEBEE2
310
E2E2E2E2BEE2BEF5BEE2E2E2BEE2E2E2E2E2E2E2E2E2E2BEE2E2E2E2E2E2BEBEBEBEE2E2E2BEE2BEE2BEE2E2E2BEE2E2E2E2DCE2E2E2BEE2E2E2E2E2E2E2E2E2E2E2E2E2E2E2E2E2E2E2E2E2E2E2E2E2E2E2E2E2E2E2E2E2E2E2E2E2E2E2E2E2E2E2E2E2E2E2E2E2E2E2E2E2E2E2E2E2E2E2E2E2E2E2E2E2E2E2E2E2E2BEE2
310
E2E2DCE2E2E2E2E2E2E2E2E2E2E2E2F5E2E2F5E2E2E2E2E2E2E2E2E2E2E2E2E2E2E2F5E2F5E2E2E2E2E2E2E2E2E2E2E2E2E2E2E2E2E2F5BEF5E2E2E2E2E2E2E2E2DCF5F5F5F5DCF5F5F5F5F5F5F5F5E2E2E2DCF5F5F5F5F5F5E2F5F5F5F5F5F5DCDCDCDCDCDCF5F5F5F5F5F5F5F5F5F5F5F5F5F5F5F5E2E2E2E2E2E2DCF5F5
310
F5F5F5F5F5F5F5F5F5F5F5F5F5F5F5F5F5E2E2E2E2E2E2E2E2E2E2E2E2E2E2E2E2E2E2E2E2E2E2E2E2E2E2E2E2E2E2E2E2E2E2E2DCE2E2E2BEE2E2E2E2E2E2E2E2E2E2E2E2E2E2E2E2E2E2E2E2E2E2E2E2E2E2E2E2E2E2E2E2E2E2E2E2E2E2E2E2E2E2E2E2E2E2E2E2E2E2E2E2E2E2E2E2E2E2E2E2E2E2E2E2E2E2E2E2E2E2
310
BEE2E2E2DCE2E2E2E2E2E2E2E2E2E2E2E2E2F5E2F5E2E2E2E2E2E2E2E2E2E2E2E2E2E2F5E2E2F5E2E2E2E2E2E2E2E2E2E2E2E2E2E2E2E2E2F5BEF5E2E2E2E2E2E2E2E2DCF5F5F5F5DCF5F5F5F5F5F5F5F5E2E2E2DCF5F5F5F5F5F5E2DCF5F5F5F5F5DCDCDCDCDCDCF5F5F5F5F5F5F5F5E2F5F5F5F5F5F5F5E2E2E2E2E2E2DC
310
F5F5F5F5F5F5F5F5F5F5F5F5F5F5F5F5F5F5F5E2E2E2E2E2E2E2E2E2E2E2E2E2E2E2E2E2E2E2E2E2E2E2E2E2E2E2E2E2E2E2E2E2E2E2DCE2E2E2BEE2E2E2E2E2E2E2E2E2E2E2E2E2E2E2E2E2E2E2E2E2E2E2E2E2E2E2E2E2E2E2E2E2E2E2E2E2E2E2E2E2E2E2E2E2E2E2E2E2E2E2E2E2E2E2E2E2E2E2E2E2E2E2E2E2E2E2E2
310
E2E2BEE2E2E2DCE2E2E2E2E2E2E2E2E2E2E2E2E2F5E2F5E2E2E2E2E2E2E2E2E2E2E2E2E2E2F5E2F5E2E2E2E2E2E2E2E2E2E2E2E2E2E2E2E2E2E2F5BEF5E2E2E2E2E2E2E2E2DCDCDCDCDCDCDCDCDCDCDCDCDCDCDCDCDCDCDCDCDCDCDCDCDCDCDCDCDCDCDCDCDCDCDCDCDCF5F5DCF5DCDCDCDCDCF5F5DCDCDCDCDCDCDCDCDCDC
310
DCDCDCDCDCDCDCDCDCDCDCDCDCDCDCDCF5DCDCDCDCDCDCDCDCDCDCDCDCDCDCDCDCDCDCDCDCDCDCDCDCDCDCDCDCDCDCDCDCDCDCDCDCDCDCDCDCE2E2E2BEE2E2E2E2E2E2E2E2E2E2E2E2E2E2E2E2E2E2E2E2E2E2E2E2E2E2E2E2E2E2E2E2E2E2E2E2E2E2E2E2E2E2E2E2E2E2E2E2E2E2E2E2E2E2E2E2E2E2E2E2E2E2E2E2E2E2
310
E2E2E2E2BEE2E2E2DCE2E2E2E2E2E2E2E2E2E2E2E2E2F5E2E2F5E2E2E2E2E2E2E2E2E2E2E2E2F5E2E2F5E2E2E2E2E2E2E2E2E2E2E2E2E2E2E2E2E2E2F5BEF5E2E2E2E2E2E2E2E2DCE2E2E2E2E2E2E2E2E2E2E2E2E2E2E2E2E2E2E2E2E2E2E2E2E2E2E2E2E2E2DCE2E2E2E2E2E2E2E2E2E2E2E2DCE2E2BEBEBEBEE2BEBEE2BE
310
BEBEE2DCE2E2E2E2E2E2E2E2E2E2E2E2E2E2E2E2E2E2E2E2DCE2E2E2E2E2E2E2E2E2E2E2E2E2E2E2E2E2E2E2DCE2E2E2E2E2E2E2E2E2E2E2E2E2DCE2E2E2BEE2E2E2E2E2E2E2E2E2E2E2E2E2E2E2E2E2E2E2E2E2E2E2E2E2E2E2E2E2E2E2E2E2E2E2E2E2E2E2E2E2E2E2E2E2E2E2E2E2E2E2E2E2E2E2E2E2E2E2E2E2E2E2E2
310
E2E2E2E2E2E2BEE2E2E2DCE2E2E2E2E2E2E2E2E2E2E2E2E2E2F5BEBEBEBEE2E2E2E2E2E2E2E2E2BEBEBEF5E2E2E2E2E2E2E2E2E2E2E2E2E2E2E2E2E2E2E2F5BEF5E2E2E2E2E2E2E2E2DCE2E2E2E2E2E2E2E2E2E2E2E2E2E2E2E2E2E2E2E2E2E2E2E2E2E2E2E2E2E2DCE2E2E2E2E2E2E2E2E2E2E2E2DCE2E2BEBEBEBEE2BEBE
310
BEBEBEBEE2DCE2E2E2E2E2E2E2E2E2E2E2E2E2E2E2E2E2E2E2E2DCE2E2E2E2E2E2E2E2E2E2E2E2E2E2E2E2E2E2E2DCE2E2E2E2E2E2E2E2E2E2E2E2E2DCE2E2E2BEE2E2E2E2E2E2E2E2E2E2E2E2E2E2E2E2E2E2E2E2E2E2E2E2E2E2E2E2E2E2E2E2E2E2E2E2E2E2E2E2E2E2E2E2E2E2E2E2E2E2E2E2E2E2E2E2E2E2E2E2E2E2
310
E2E2E2E2E2E2E2E2BEE2E2E2DCE2E2E2E2E2E2E2E2E2E2E2E2E2BEBEBEBEBEE2E2E2E2E2BEE2E2E2E2BEBEBEBEBEE2E2E2E2E2E2E2E2E2E2E2E2E2E2E2E2E2E2F5BEF5E2E2E2E2E2E2E2E2DCE2E2E2E2E2E2E2E2E2E2E2E2E2E2E2E2E2E2E2E2E2E2E2E2E2E2E2E2E2E2DCDCDCDCDCDCDCDCDCDCDCDCDCDCBEBEBEBEDCBEBE
310
BEBEBEBEDCBEBEDCF5F5F5F5F5F5F5F5F5F5F5F5F5F5F5E2E2E2E2E2F5F5F5F5F5F5F5F5F5F5F5F5F5F5F5F5E2E2E2E2DCF5F5F5F5F5F5F5F5F5F5F5F5E2DCE2E2E2BEE2E2E2E2E2E2E2E2E2E2E2E2E2E2E2E2E2E2E2E2E2E2E2E2E2E2E2E2E2E2E2E2E2E2E2E2E2E2E2E2E2E2E2E2E2E2E2E2E2E2E2E2E2E2E2E2E2E2E2E2
310
E2E2E2E2E2E2E2E2E2E2BEE2E2E2DCE2E2E2E2E2E2E2E2E2E2E2E2E2BEBEE2E2F5E2E2E2E2F5F5E2E2E2E2F5E2E2BEBEE2E2E2E2E2E2E2E2E2E2E2E2E2E2E2E2E2E2F5BEF5E2E2E2E2E2E2E2E2DCE2E2E2E2E2E2E2E2E2E2E2E2E2E2E2E2E2E2E2E2E2E2E2E2E2E2E2E2E2E2DCE2E2E2E2E2E2E2E2E2E2E2E2DCBEBEBEBEE2
310
BEBEBEBEBEBEBEBEBEDCF5F5F5F5F5F5F5F5F5F5F5F5F5F5F5E2E2E2E2E2DCF5F5F5F5F5F5F5F5F5F5F5F5F5F5F5F5E2E2E2DCF5F5F5F5F5F5E2F5F5F5F5F5E2DCE2E2E2BEE2E2E2E2E2E2E2E2E2E2E2E2E2E2E2E2E2E2E2E2E2E2E2E2E2E2E2E2E2E2E2E2E2E2E2E2E2E2E2E2E2E2E2E2E2E2E2E2E2E2E2E2E2E2E2E2E2E2
310
E2E2E2E2E2E2E2E2E2E2E2E2BEE2E2E2DCE2E2E2E2E2E2E2E2E2E2E2E2E2E2F5E2E2E2F5E2E2E22D2DE2E2E2F5E2E2E2F5E2E2E2E2E2E2E2E2E2E2E2E2E2E2E2E2E2E2E2F5BEF5E2E2E2E2E2E2E2E2DCE2E2E2E2E2E2E2E2E2E2E2E2E2E2E2E2E2E2E2E2E2E2E2E2E2E2E2E2E2E2DCE2E2E2E2E2E2E2E2E2E2E2E2DCDCDCDC
310
DCDCDCDCDCDCDCDCDCDCDCDCF5F5DCDCF5DCF5F5F5F5F5F5DCDCDCDCDCDCDCDCDCF5DCDCDCF5DCF5F5F5F5DCDCF5F5DCDCDCDCDCDCDCF5F5DCF5DCDCF5F5F5DCDCDCDCE2E2E2BEE2E2E2E2E2E2E2E2E2E2E2E2E2E2E2E2E2E2E2E2E2E2E2E2E2E2E2E2E2E2E2E2E2E2E2E2E2E2E2E2E2E2E2E2E2E2E2E2E2E2E2E2E2E2E2E2
310
E2E2E2E2E2E2E2E2E2E2E2E2E2E2BEE2E2E2DCE2E2E2E2E2E2E2E2E2E2E2E2E2E2E2F5E2E2F5E2E2E22D2DE2E2E2F5E2E2F5E2E2E2E2E2E2E2E2E2E2E2E2E2E2E2E2E2E2E2E2F5BEF5E2E2E2E2E2E2E2E2DCE2E2E2E2E2E2E2E2E2E2E2E2E2E2E2E2E2E2E2E2E2E2E2E2E2E2E2E2E2E2DCE2E2E2E2E2E2E2E2E2E2E2E2DCE2
310
E2E2E2F5F5F5F5F5F5F5E2E2E2DCE2E2E2E2BEE2BEBEBEBEBEBEBEBEE2E2E2E2E2E2DCE2E2E2E2E2E2E2E2E2E2E2E2E2E2E2E2E2E2E2DCE2E2E2E2E2E2BEBEBEBEBEE2E2DCE2E2E2BEE2E2E2E2E2E2E2E2E2E2E2E2E2E2E2E2E2E2E2E2E2E2E2E2E2E2E2E2E2E2E2E2E2E2E2E2E2E2E2E2E2E2E2E2E2E2E2E2E2E2E2E2E2E2
310
E2E2E2E2E2E2E2E2E2E2E2E2E2E2E2E2BEE2E2E2DCE2E2E2E2E2E2E2E2E2E2E2E2E2E2E2F5E2E2E2F5E2E22D2DE2E2E2F5E2E2F5E2E2E2E2E2E2E2E2E2E2E2E2E2E2E2E2E2E2E2E2F5BEF5E2E2E2E2E2E2E2E2DCE2E2E2E2E2E2E2E2E2E2E2E2E2E2E2E2E2E2E2E2E2E2E2E2E2E2E2E2E2E2DCDCF5F5F5F5DCF5F5F5F5F5DC
310
DCDCDCDCDCBEBEBEBEBEDCDCDCDCDCDCE2E2E2E2BEE2E2E2BEBEBEBEBEBEE2E2E2E2E2E2DCE2E2E2E2E2E2E2E2E2E2E2E2E2E2E2E2E2E2E2DCE2E2E2E2E2BEBEBEE2BEBEE2E2DCE2E2E2BEE2E2E2E2E2E2E2E2E2E2E2E2E2E2E2E2E2E2E2E2E2E2E2E2E2E2E2E2E2E2E2E2E2E2E2E2E2E2E2E2E2E2E2E2E2E2E2E2E2E2E2E2
310
E2E2E2E2E2E2E2E2E2E2E2E2E2E2E2E2E2E2BEE2E2E2DCE2E2E2E2E2E2E2E2E2E2E2E2E2E2E2E2F5E2E2F5E2E22D2DE2E2F5E2E2F5E2E2E2E2E2E2E2E2E2E2E2E2E2E2E2E2E2E2E2E2BEBEBEBEBEE2E2E2E2E2E2E2DCE2E2E2E2E2E2E2E2E2E2E2E2E2E2E2E2E2E2E2E2E2E2E2E2E2E2E2E2E2E2DCE2E2F5F5F5E2F5F5F5F5
310
F5E2DCE2E2E2E2BEBEBEBEBEF5E2E2E2E2DCE2E2E2E2BEF5F5F5BEBEBEBEBEBEE2E2E2E2E2E2DCE2E2E2F5F5F5F5F5F5F5F5F5F5F5E2E2E2E2E2DCE2E2E2F5F5F5BEF5F5BEBEF5E2DCE2E2E2BEE2E2E2E2E2E2E2E2E2E2E2E2E2E2E2E2E2E2E2E2E2E2E2E2E2E2E2E2E2E2E2E2E2E2E2E2E2E2E2E2E2E2E2E2E2E2E2E2E2E2
310
E2E2E2E2E2E2E2E2E2E2E2E2E2E2E2E2E2E2E2E2BEE2E2E2DCE2E2E2E2E2E2E2E2E2E2E2E2E2E2E2E2F5E2E2F5E2E22D2DE2E2F5E2E2F5E2E2E2E2E2E2E2E2E2E2E2E2E2E2E2E2E2E2E2BEE2F5BEF5E2E2E2E2E2E2E2E2DCE2E2E2E2E2E2E2E2E2E2E2E2E2E2E2E2E2E2E2E2E2E2E2E2E2E2E2E2E2E2DCE2F5F5E2F5E2E2F5
310
F5E2E2E2DCE2E2E2E2F5F5F5F5F5F5E2E2E2E2DCE2E2E2E2F5F5F5F5E2E2F5F5F5E2E2E2E2E2E2E2DCE2E2E2F5F5F5F5F5F5F5F5F5F5F5E2E2E2E2E2DCE2E2E2F5F5F5F5F5F5F5F5F5E2DCE2E2E2BEE2E2E2E2E2E2E2E2E2E2E2E2E2E2E2E2E2E2E2E2E2E2E2E2E2E2E2E2E2E2E2E2E2E2E2E2E2E2E2E2E2E2E2E2E2E2E2E2
310
E2E2E2E2E2E2E2E2E2E2E2E2E2E2E2E2E2E2E2E2E2E2BEE2E2E2DCE2E2E2E2E2E2E2E2E2E2E2E2E2E2E2E2F5E2E2E2F5E22D2DE2E2F5E2E2F5E2E2E2E2E2E2E2E2E2E2E2E2E2E2E2E2E2E2F5F5E2F5BEF5E2E2E2E2E2E2E2E2DCDCDCDCDCDCDCDCDCDCDCDCDCDCDCDCDCDCDCDCDCDCDCDCDCDCDCDCDCDCDCDCDCDCDCDCDCDC
310
DCDCDCDCDCDCDCDCDCDCDCDCDCDCDCDCDCDCDCDCDCDCDCDCDCDCDCDCDCDCDCDCDCDCDCDCDCDCDCDCDCDCDCDCDCDCDCDCDCDCDCDCDCDCDCDCDCDCDCDCDCDCDCDCDCDCDCDCDCDCDCDCDCDCDCDCDCE2E2E2BEE2E2E2E2E2E2E2E2E2E2E2E2E2E2E2E2E2E2E2E2E2E2E2E2E2E2E2E2E2E2E2E2E2E2E2E2E2E2E2E2E2E2E2E2E2E2
310
E2E2E2E2E2E2E2E2E2E2E2E2E2E2E2E2E2E2E2E2E2E2E2E2BEE2E2E2DCE2E2E2E2E2E2E2E2E2E2E2E2E2E2E2E2E2F5E2E2F5E22D2DE2E2F5E2F5E2E2E2E2E2E2E2E2E2E2E2E2E2E2E2E2E2E2E22D2DE2F5BEF5E2E2E2E2E2E2E2E2E2E2E2E2E2E2E2E2E2E2E2E2E2E2E2E2E2E2E2E2E2E2E2E2E2E2E2E2E2E2E2E2E2E2E2E2
310
E2E2E2E2E2E2E2E2E2E2E2E2E2E2E2E2E2E2E2E2E2E2E2E2E2E2E2E2E2E2E2E2E2E2E2E2E2E2E2E2E2E2E2E2E2E2E2E2E2E2E2E2E2E2E2E2E2E2E2E2E2E2E2E2E2E2E2E2E2E2E2E2E2E2E2E2E2E2DCE2E2E2BEE2E2E2E2E2E2E2E2E2E2E2E2E2E2E2E2E2E2E2E2E2E2E2E2E2E2E2E2E2E2E2E2E2E2E2E2E2E2E2E2E2E2E2E2
310
E2E2E2E2E2E2E2E2E2E2E2E2E2E2E2E2E2E2E2E2E2E2E2E2E2E2BEE2E2E2DCE2E2E2E2E2E2E2E2E2E2E2E2E2E2E2E2E2F5E2E2F5E22D2DE2F5E2E2F5E2E2E2E2E2E2E2E2E2E2E2E2E2E2E2E2E2E2E22D2DE2F5BEF5E2E2E2E2E2E2E2E2E2E2E2E2E2E2E2E2E2E2E2E2E2E2E2E2E2E2E2E2E2E2E2E2E2E2E2E2E2E2E2E2E2E2
310
E2E2E2E2E2E2E2E2E2E2E2E2E2E2E2E2E2E2E2E2E2E2E2E2E2E2E2E2E2E2E2E2E2E2E2E2E2E2E2E2E2E2E2E2E2E2E2E2E2E2E2E2E2E2E2E2E2E2E2E2E2E2E2E2E2E2E2E2E2E2E2E2E2E2E2E2E2E2E2E2DCE2E2E2BEE2E2E2E2E2E2E2E2E2E2E2E2E2E2E2E2E2E2E2E2E2E2E2E2E2E2E2E2E2E2E2E2E2E2E2E2E2E2E2E2E2E2
310
E2E2E2E2E2E2E2E2E2E2E2E2E2E2E2E2E2E2E2E2E2E2E2E2E2E2E2E2BEE2E2E2DCE2E2E2E2E2E2E2E2E2E2E2E2E2E2E2E2E2F5E2E2E2F52D2DE2F5E2E2F5E2E2E2E2E2E2E2E2E2E2E2E2E2E2E2E2E2E2E22D2DE2F5BEF5E2E2E2E2E2E2E2E2E2E2E2E2E2E2E2E2E2E2E2E2E2E2E2E2E2E2E2E2E2E2E2E2E2E2E2E2E2E2E2E2
310
E2E2E2E2E2E2E2E2E2E2E2E2E2E2E2E2E2E2E2E2E2E2E2E2E2E2E2E2E2E2E2E2E2E2E2E2E2E2E2E2E2E2E2E2E2E2E2E2E2E2E2E2E2E2E2E2E2E2E2E2E2E2E2E2E2E2E2E2E2E2E2E2E2E2E2E2E2E2E2E2E2E2DCE2E2E2BEE2E2E2E2E2E2E2E2E2E2E2E2E2E2E2E2E2E2E2E2E2E2E2E2E2E2E2E2E2E2E2E2E2E2E2E2E2E2E2E2
310
E2E2E2E2E2E2E2E2E2E2E2E2E2E2E2E2E2E2E2E2E2E2E2E2E2E2E2E2E2E2BEE2E2E2DCE2E2E2E2E2E2E2E2E2E2E2E2E2E2E2E2E2E2F5E2E2F52D2DE2F5E2F5E2E2E2E2E2E2E2E2E2E2E2E2E2E2E2E2E2E2E2E22D2DE2F5BEF5E2E2E2E2E2E2E2E2E2E2E2E2E2E2E2E2E2E2E2E2E2E2E2E2E2E2E2E2E2E2E2E2E2E2E2E2E2E2
310
E2E2E2E2E2E2E2E2E2E2E2E2E2E2E2E2E2E2E2E2E2E2E2E2E2E2E2E2E2E2E2E2E2E2E2E2E2E2E2E2E2E2E2E2E2E2E2E2E2E2E2E2E2E2E2E2E2E2E2E2E2E2E2E2E2E2E2E2E2E2E2E2E2E2E2E2E2E2E2E2E2E2E2E2DCE2E2E2BEE2E2E2E2E2E2E2E2E2E2E2E2E2E2E2E2E2E2E2E2E2E2E2E2E2E2E2E2E2E2E2E2E2E2E2E2E2E2
310
E2E2E2E2E2E2E2E2E2E2E2E2E2E2E2E2E2E2E2E2E2E2E2E2E2E2E2E2E2E2E2E2BEE2E2E2DCE2E2E2E2E2E2E2E2E2E2E2E2E2E2E2E2E2E2F5E2E2E2F52DF5E2E2F5E2E2E2E2E2E2E2E2E2E2E2E2E2E2E2E2E2E2E2E22D2DE2F5BEF5E2E2E2E2E2E2E2E2E2E2E2E2E2E2E2E2E2E2E2E2E2E2E2E2E2E2E2E2E2E2E2E2E2E2E2E2
310
E2E2E2E2E2E2E2E2E2E2E2E2E2E2E2E2E2E2E2E2E2E2E2E2E2E2E2E2E2E2E2E2E2E2E2E2E2E2E2E2E2E2E2E2E2E2E2E2E2E2E2E2E2E2E2E2E2E2E2E2E2E2E2E2E2E2E2E2E2E2E2E2E2E2E2E2E2E2E2E2E2E2E2E2E2E2DCE2E2E2BEE2E2E2E2E2E2E2E2E2E2E2E2E2E2E2E2E2E2E2E2E2E2E2E2E2E2E2E2E2E2E2E2E2E2E2E2
310
E2E2E2E2E2E2E2E2E2E2E2E2E2E2E2E2E2E2E2E2E2E2E2E2E2E2E2E2E2E2E2E2E2E2BEE2E2E2DCE2E2E2E2E2E2E2E2E2E2E2E2E2E2E2E2E2E2E2F5E2E2F52DF5E2F5E2E2E2E2E2E2E2E2E2E2E2E2E2E2E2E2E2E2E2E2E22D2DE2F5BEF5E2E2E2E2E2E2E2E2E2E2E2E2E2E2E2E2E2E2E2E2E2E2E2E2E2E2E2E2E2E2E2E2E2E2
310
E2E2E2E2E2E2E2E2E2E2E2E2E2E2E2E2E2E2E2E2E2E2E2E2E2E2E2E2E2E2E2E2E2E2E2E2E2E2E2E2E2E2E2E2E2E2E2E2E2E2E2E2E2E2E2E2E2E2E2E2E2E2E2E2E2E2E2E2E2E2E2E2E2E2E2E2E2E2E2E2E2E2E2E2E2E2E2E2DCE2E2E2BEE2E2E2E2E2E2E2E2E2E2E2E2E2E2E2E2E2E2E2E2E2E2E2E2E2E2E2E2E2E2E2E2E2E2
310
E2E2E2E2E2E2E2E2E2E2E2E2E2E2E2E2E2E2E2E2E2E2E2E2E2E2E2E2E2E2E2E2E2E2E2E2BEE2E2E2DCE2E2E2E2E2E2E2E2E2E2E2E2E2E2E2E2E2E2E2F5E228F5F528E2F5E2E2E2E2E2E2E2E2E2E2E2E2E2E2E2E2E2E2E2E2F5F5F5F5F5BEF5E2E2E2E2E2E2E2E2E2E2E2E2E2E2E2E2E2E2E2E2E2E2E2E2E2E2E2E2E2E2E2E2
310
E2E2E2E2E2E2E2E2E2E2E2E2E2E2E2E2E2E2E2E2E2E2E2E2E2E2E2E2E2E2E2E2E2E2E2E2E2E2E2E2E2E2E2E2E2E2E2E2E2E2E2E2E2E2E2E2E2E2E2E2E2E2E2E2E2E2E2E2E2E2E2E2E2E2E2E2E2E2E2E2E2E2E2E2E2E2E2E2E2E2DCE2E2E2BEE2E2E2E2E2E2E2E2E2E2E2E2E2E2E2E2E2E2E2E2E2E2E2E2E2E2E2E2E2E2E2E2
310
E2E2E2E2E2E2E2E2E2E2E2E2E2E2E2E2E2E2E2E2E2E2E2E2E2E2E2E2E2E2E2E2E2E2E2E2E2E2BEE2E2E2DCE2E2E2E2E2E2E2E2E2E2E2E2E2E2E2E2E2E2E2F5E228F5F528E2F5E2E2E2E2E2E2E2E2E2E2E2E2E2E2E2E2E2E2E2E2F528F5F5F5BEF5E2E2E2E2E2E2E2E2E2E2E2E2E2E2E2E2E2E2E2E2E2E2E2E2E2E2E2E2E2E2
310
E2E2E2E2E2E2E2E2E2E2E2E2E2E2E2E2E2E2E2E2E2E2E2E2E2E2E2E2E2E2E2E2E2E2E2E2E2E2E2E2E2E2E2E2E2E2E2E2E2E2E2E2E2E2E2E2E2E2E2E2E2E2E2E2E2E2E2E2E2E2E2E2E2E2E2E2E2E2E2E2E2E2E2E2E2E2E2E2E2E2E2E2DCE2E2E2BEE2E2E2E2E2E2E2E2E2E2E2E2E2E2E2E2E2E2E2E2E2E2E2E2E2E2E2E2E2E2
310
E2E2E2E2E2E2E2E2E2E2E2E2E2E2E2E2E2E2E2E2E2E2E2E2E2E2E2E2E2E2E2E2E2E2E2E2E2E2E2E2BEE2E2E2DCE2E2E2E2E2E2E2E2E2E2E2E2E2E2E2E2E2E2E2F5E228F5F528E2F5E2E2E2E2E2E2E2E2E2E2E2E2E2E2E2E2E2E2E2E2F528F5F5F5BEF5E2E2E2E2E2E2E2E2E2E2E2E2E2E2E2E2E2E2E2E2E2E2E2E2E2E2E2E2
310
E2E2E2E2E2E2E2E2E2E2E2E2E2E2E2E2E2E2E2E2E2E2E2E2E2E2E2E2E2E2E2E2E2E2E2E2E2E2E2E2E2E2E2E2E2E2E2E2E2E2E2E2E2E2E2E2E2E2E2E2E2E2E2E2E2E2E2E2E2E2E2E2E2E2E2E2E2E2E2E2E2E2E2E2E2E2E2E2E2E2E2E2E2E2DCE2E2E2BEE2E2E2E2E2E2E2E2E2E2E2E2E2E2E2E2E2E2E2E2E2E2E2E2E2E2E2E2
310
E2E2E2E2E2E2E2E2E2E2E2E2E2E2E2E2E2E2E2E2E2E2E2E2E2E2E2E2E2E2E2E2E2E2E2E2E2E2E2E2E2E2BEE2E2E2DCE2E2E2E2E2E2E2E2E2E2E2E2E2E2E2E2E2F5F528282828F52828F5F5F5E2E2E2E2E2E2E2E2E2E2E2E2E2E2E2E2F5F5F5F5F5F5F5F5F5F5E2E2E2E2E2E2E2E2E2E2E2E2E2E2E2E2E2E2E2E2E2E2E2E2E2
310
E2E2E2E2E2E2E2E2E2E2E2E2E2E2E2E2E2E2E2E2E2E2E2E2E2E2E2E2E2E2E2E2E2E2E2E2E2E2E2E2E2E2E2E2E2E2E2E2E2E2E2E2E2E2E2E2E2E2E2E2E2E2E2E2E2E2E2E2E2E2E2E2E2E2E2E2E2E2E2E2E2E2E2E2E2E2E2E2E2E2E2E2E2E2E2E2DCE2E2E2BEE2E2E2E2E2E2E2E2E2E2E2E2E2E2E2E2E2E2E2E2E2E2E2E2E2E2
310
E2E2E2E2E2E2E2E2E2E2E2E2E2E2E2E2E2E2E2E2E2E2E2E2E2E2E2E2E2E2E2E2E2E2E2E2E2E2E2E2E2E2E2E2BEE2E2E2DCE2E2E2E2E2E2E2E2E2E2E2E2E2E2E2E2E2F5F528282828282828F5F5F5E2E2E2E2E2E2E2E2E2E2E2E2E2E2E2E2F5F5F5F5F5F5F5F5F5F5E2E2E2E2E2E2E2E2E2E2E2E2E2E2E2E2E2E2E2E2E2E2E2
310
E2E2E2E2E2E2E2E2E2E2E2E2E2E2E2E2E2E2E2E2E2E2E2E2E2E2E2E2E2E2E2E2E2E2E2E2E2E2E2E2E2E2E2E2E2E2E2E2E2E2E2E2E2E2E2E2E2E2E2E2E2E2E2E2E2E2E2E2E2E2E2E2E2E2E2E2E2E2E2E2E2E2E2E2E2E2E2E2E2E2E2E2E2E2E2E2E2E2DCE2E2E2BEE2E2E2E2E2E2E2E2E2E2E2E2E2E2E2E2E2E2E2E2E2E2E2E2
310
E2E2E2E2E2E2E2E2E2E2E2E2E2E2E2E2E2E2E2E2E2E2E2E2E2E2E2E2E2E2E2E2E2E2E2E2E2E2E2E2E2E2E2E2E2E2BEE2E2E2DCE2E2E2E2E2E2E2E2E2E2E2E2E2E2E2E2E2E2E2F5E2E2F5F5E2E2F5E2E2E2E2E2E2E2E2E2E2E2E2E2E2E2E2E2E2E2E2E22D2DE2F5BEF5E2E2E2E2E2E2E2E2E2E2E2E2E2E2E2E2E2E2E2E2E2E2
310
E2E2E2E2E2E2E2E2E2E2E2E2E2E2E2E2E2E2E2E2E2E2E2E2E2E2E2E2E2E2E2E2E2E2E2E2E2E2E2E2E2E2E2E2E2E2E2E2E2E2E2E2E2E2E2E2E2E2E2E2E2E2E2E2E2E2E2E2E2E2E2E2E2E2E2E2E2E2E2E2E2E2E2E2E2E2E2E2E2E2E2E2E2E2E2E2E2E2E2E2DCE2E2E2BEE2E2E2E2E2E2E2E2E2E2E2E2E2E2E2E2E2E2E2E2E2E2
310
E2E2E2E2E2E2E2E2E2E2E2E2E2E2E2E2E2E2E2E2E2E2E2E2E2E2E2E2E2E2E2E2E2E2E2E2E2E2E2E2E2E2E2E2E2E2E2E2BEE2E2E2DCE2E2E2E2E2E2E2E2E2E2E2E2E2E2E2E2E2E2E2F5E2E2F5F5E2E2F5E2E2E2E2E2E2E2E2E2E2E2E2E2E2E2E2E2E2E2E2E22D2DE2F5BEF5E2E2E2E2E2E2E2E2E2E2E2E2E2E2E2E2E2E2E2E2
310
E2E2E2E2E2E2E2E2E2E2E2E2E2E2E2E2E2E2E2E2E2E2E2E2E2E2E2E2E2E2E2E2E2E2E2E2E2E2E2E2E2E2E2E2E2E2E2E2E2E2E2E2E2E2E2E2E2E2E2E2E2E2E2E2E2E2E2E2E2E2E2E2E2E2E2E2E2E2E2E2E2E2E2E2E2E2E2E2E2E2E2E2E2E2E2E2E2E2E2E2E2E2DCE2E2E2BEE2E2E2E2E2E2E2E2E2E2E2E2E2E2E2E2E2E2E2E2
310
E2E2E2E2E2E2E2E2E2E2E2E2E2E2E2E2E2E2E2E2E2E2E2E2E2E2E2E2E2E2E2E2E2E2E2E2E2E2E2E2E2E2E2E2E2E2E2E2E2E2BEE2E2E2DCE2E2E2E2E2E2E2E2E2E2E2E2E2E2E2E2E2E2E2F5E2E2F5F5E2E2F5E2E2E2E2E2E2E2E2E2E2E2E2E2E2E2E2E2E2E2E2E22D2DE2F5BEF5E2E2E2E2E2E2E2E2E2E2E2E2E2E2E2E2E2E2
310
E2E2E2E2E2E2E2E2E2E2E2E2E2E2E2E2E2E2E2E2E2E2E2E2E2E2E2E2E2E2E2E2E2E2E2E2E2E2E2E2E2E2E2E2E2E2E2E2E2E2E2E2E2E2E2E2E2E2E2E2E2E2E2E2E2E2E2E2E2E2E2E2E2E2E2E2E2E2E2E2E2E2E2E2E2E2E2E2E2E2E2E2E2E2E2E2E2E2E2E2E2E2E2E2DCE2E2E2BEE2E2E2E2E2E2E2E2E2E2E2E2E2E2E2E2E2E2
310
E2E2E2E2E2E2E2E2E2E2E2E2E2E2E2E2E2E2E2E2E2E2E2E2E2E2E2E2E2E2E2E2E2E2E2E2E2E2E2E2E2E2E2E2E2E2E2E2E2E2E2E2BEE2E2E2DCE2E2E2E2E2E2E2E2E2E2E2E2E2E2E2E2E2E2E2F5E2E2F5F5E2E2F5E2E2E2E2E2E2E2E2E2E2E2E2E2E2E2E2E2E2E2E2E22D2DE2F5BEF5E2E2E2E2E2E2E2E2E2E2E2E2E2E2E2E2
310
E2E2E2E2E2E2E2E2E2E2E2E2E2E2E2E2E2E2E2E2E2E2E2E2E2E2E2E2E2E2E2E2E2E2E2E2E2E2E2E2E2E2E2E2E2E2E2E2E2E2E2E2E2E2E2E2E2E2E2E2E2E2E2E2E2E2E2E2E2E2E2E2E2E2E2E2E2E2E2E2E2E2E2E2E2E2E2E2E2E2E2E2E2E2E2E2E2E2E2E2E2E2E2E2E2E2DCE2E2E2BEE2E2E2E2E2E2E2E2E2E2E2E2E2E2E2E2
310
E2E2E2E2E2E2E2E2E2E2E2E2E2E2E2E2E2E2E2E2E2E2E2E2E2E2E2E2E2E2E2E2E2E2E2E2E2E2E2E2E2E2E2E2E2E2E2E2E2E2E2E2E2E2BEE2E2E2DCE2E2E2E2E2E2E2E2E2E2E2E2E2E2E2E2E2F528F5F5F5F5F5F5F5F52828E2E2E2E2E2E22DF52D2D2D2D2DF52D2DF528282D2DF5F5BEF5F528F52D2D2D2D2D2D2D2D2D2D2D
310
2D2D2D2D2D2D2D2D2D2DF52D2D2D2D2D2D2D2D2D2D2D2D2D2D2DF52DE2E2E2E2E2E2E2E2E2E2E2E2E2E2E2E2E2E2E2E2E2E2E2E2E2E2E2E2E2E2E2E2E2E2E2F5F5F5F5F5F5F5F5F5F5E2E2E2E2E2E2E2E2E2E2E2E2E2E2E2E2E2E2E2E2E2E2E2E2E2E2E2E2E2E2E2E2E2E2E2DCE2E2E2BEE2E2E2E2E2E2E2E2E2E2E2E2E2E2
310
E2E2E2E2E2E2E2E2E2E2E2E2E2E2E2E2E2E2E2E2E2E2E2E2E2E2E2E2E2E2E2E2E2E2E2E2E2E2E2E2E2E2E2E2E2E2E2E2E2E2E2E2E2E2E2E2BEE2E2E2DCE2E2E2E2E2E2E2E2E2E2E2E2E2E2E2E2E2F52828F5F52828F5F52828F5E2E2E2E2E2E2E22DE2E2E2E2E22DE2E2F528282828F528BE28F52D2D2D2DF5E2E2E2E2E2E2
310
E2E2E2E2E2E2E2E2E2E2E22D2DE2E2E2E2E2E2E2E2E2E2E2E2E2E2E22DE2E2E2E2E2E2E2E2E2E2E2E2E2E2E2E2E2E2E2E2E2E2E2E2E2E2E2E2E2E2E2E2E2E2E2F5F5F5F5F5F5F5F5F5F5F5F5E2E2E2E2E2E2E2E2E2E2E2E2E2E2E2E2E2E2E2E2E2E2E2E2E2E2E2E2E2E2E2E2E2E2DCE2E2E2BEE2E2E2E2E2E2E2E2E2E2E2E2
310
E2E2E2E2E2E2E2E2E2E2E2E2E2E2E2E2E2E2E2E2E2E2E2E2E2E2E2E2E2E2E2E2E2E2E2E2E2E2E2E2E2E2E2E2E2E2E2E2E2E2E2E2E2E2E2E2E2E2BEE2E2E2DCE2E2E2E2E2E2E2E2E2E2E2E2E2E2E2E2E2E228282828282828282828E2E2E2E2E2E2E2E22DE2E2E2E22D2DE2E2E2282828282828BE282828F5E2E22DE2E2E2E2
310
E2E2E2E2E2E2E2E2E2E2E2E2E22D2DE2E2E2E2E2E2E2E2E2E2E2E2E2E2E22DE2E2E2E2E2E2E2E2E2E2E2E2E2E2E2E2E2E2E2E2E2E2E2E2E2E2E2E2E2E2E2E2E2E2E2F5F5E2E2E2E2E2E2E2E2F5F5E2E2E2E2E2E2E2E2E2E2E2E2E2E2E2E2E2E2E2E2E2E2E2E2E2E2E2E2E2E2E2E2E2E2DCE2E2E2BEE2E2E2E2E2E2E2E2E2E2
310
E2E2E2E2E2E2E2E2E2E2E2E2E2E2E2E2E2E2E2E2E2E2E2E2E2E2E2E2E2E2E2E2E2E2E2E2E2E2E2E2E2E2E2E2E2E2E2E2E2E2E2E2E2E2E2E2E2E2E2E2BEE2E2E2DCE2E2E2E2E2E2E2E2E2E2E2E2E2E2E2E2E2E22828E2E22828E2E22828E2E2E2E2E2E2E2E22DE2E2E2E2E22DE2E2E228E22828E228BE28E228F5E2E22DE2E2
310
E2E2E2E2E2E2E2E2E2E2E2E2E2E2E22DE2E2E2E2E2E2E2E2E2E2E2E2E2E2E2E22DE2E2E2E2E2E2E2E2E2E2E2E2E2E2E2E2E2E2E2E2E2E2E2E2E2E2E2E2E2E2E2E2E2E2E2F5F5E2E2E2E2E2E2E2E2E2F5E2E2E2E2E2E2E2E2E2E2E2E2E2E2E2E2E2E2E2E2E2E2E2E2E2E2E2E2E2E2E2E2E2E2DCE2E2E2BEE2E2E2E2E2E2E2E2
310
E2E2E2E2E2E2E2E2E2E2E2E2E2E2E2E2E2E2E2E2E2E2E2E2E2E2E2E2E2E2E2E2E2E2E2E2E2E2E2E2E2E2E2E2E2E2E2E2E2E2E2E2E2E2E2E2E2E2E2E2E2E2BEE2E2E2DCE2E2E2E2E2E2E2E2E2E2E2E2E2E2E2E2E2E22828E2E22828E2E22828E2E2E2E2E2E2E2E22DE2E2E2E2E22DE2E2E228E22828E228BE28E228F5E2E22D
310
E2E2E2E2E2E2E2E2E2E2E2E2E2E2E2E2E22DE2E2E2E2E2E2E2E2E2E2E2E2E2E2E2E22DE2E2E2E2E2E2E2E2E2E2E2E2E2E2E2E2E2E2E2E2E2E2E2E2E2E2E2E2E2E2E2E2E2E2E2E2F5E2E2E2E2E2E2E2E2E2F5E2E2E2E2E2E2E2E2E2E2E2E2E2E2E2E2E2E2E2E2E2E2E2E2E2E2E2E2E2E2E2E2E2E2DCE2E2E2BEE2E2E2E2E2E2
310
E2E2E2E2E2E2E2E2E2E2E2E2E2E2E2E2E2E2E2E2E2E2E2E2E2E2E2E2E2E2E2E2E2E2E2E2E2E2E2E2E2E2E2E2E2E2E2E2E2E2E2E2E2E2E2E2E2E2E2E2E2E2E2E2BEE2E2E2DCE2E2E2E2E2E2E2E2E2E2E2E2E2E2E2E2E2E22828E2E22828E2E22828E2E2E2E2E2E2E2E22DE2E2E2E2E22DE2E2E228E22828E228BE28E228F5BE
310
BE2DE2E2E2E2E2E2E2E2E2E2E2E2E2E2E2E2E22DE2E2E2E2E2E2E2E2E2E2E2E2E2E2E2E22DE2E2E2E2E2E2E2E2E2E2E2E2E2E2E2E2E2E2E2E2E2E2E2E2E2E2E2E2E2E2E2E2E2E2E2E2F5E2E2E2E2E2E2E2E2E2F5E2E2E2E2E2E2E2E2E2E2E2E2E2E2E2E2E2E2E2E2E2E2E2E2E2E2E2E2E2E2E2E2E2E2DCE2E2E2BEE2E2E2E2
310
E2E2E2E2E2E2E2E2E2E2E2E2E2E2E2E2E2E2E2E2E2E2E2E2E2E2E2E2E2E2E2E2E2E2E2E2E2E2E2E2E2E2E2E2E2E2E2E2E2E2E2E2E2E2E2E2E2E2E2E2E2E2E2E2E2E2BEE2E2E2DCE2E2E2E2E2E2E2E2E2E2E2E2E2E2E2E2E2E22828E2E22828E2E22828E2E2E2E2E2E2E2E22DE2E2E2E2E22DE2E2E228E22828E228BE28E228
310
F5BEBE2DE2E2E2E2E2E2E2E2E2E2E2E2E2E2E2E2E22DE2E2E2E2E2E2E2E2E2E2E2E2E2E2E2E22DE2E2E2E2E2E2E2E2E2E2E2E2E2E2E2E2E2E2E2E2E2E2E2E2E2E2E2E2E2E2E2E2E2E2E2E2F5E2E2E2E2E2E2E2E2E2F5E2E2E2E2E2E2E2E2E2E2E2E2E2E2E2E2E2E2E2E2E2E2E2E2E2E2E2E2E2E2E2E2E2E2DCE2E2E2BEE2E2
310
E2E2E2E2E2E2E2E2E2E2E2E2E2E2E2E2E2E2E2E2E2E2E2E2E2E2E2E2E2E2E2E2E2E2E2E2E2E2E2E2E2E2E2E2E2E2E2E2E2E2E2E2E2E2E2E2E2E2E2E2E2E2E2E2E2E2E2E2BEE2E2E2DCE2E2E2E2E2E2E2E2E2E2E2E2E2E2E2E2E2E22828E2E22828E2E22828E2E2E2E2E2E2E2E22DE2E2E2E2E22DE2E2E228E22828E228BE28
310
E228F5BEBE2DE2E2E2E2E2E2E2E2E2E2E2E2E2E2E2E2E22DE2E2E2E2E2E2E2E2E2E2E2E2E2E2E2E22DE2E2E2E2E2E2E2E2E2E2E2E2E2E2E2E2E2E2E2E2E2E2E2E2E2E2E2E2E2E2E2E2E2E2E2E2F5E2E2E2E2E2E2E2E2E2F5E2E2E2E2E2E2E2E2E2E2E2E2E2E2E2E2E2E2E2E2E2E2E2E2E2E2E2E2E2E2E2E2E2E2DCE2E2E2BE
310
E2E2E2E2E2E2E2E2E2E2E2E2E2E2E2E2E2E2E2E2E2E2E2E2E2E2E2E2E2E2E2E2E2E2E2E2E2E2E2E2E2E2E2E2E2E2E2E2E2E2E2E2E2E2E2E2E2E2E2E2E2E2E2E2E2E2E2E2E2E2BEE2E2E2DCE2E2E2E2E2E2E2E2E2E2E2E2E2E2E2E2E2E22828E2E22828E2E22828E2E2E2E2E2E2E2E22DE2E2E2E2E22DE2E2E228E22828E228
310
BE28E228F5BEBE2DE2E2E2E2E2E2E2E2E2E2E2E2E2E2E2E2E22DE2E2E2E2E2E2E2E2E2E2E2E2E2E2E2E22DE2E2E2E2E2E2E2E2E2E2E2E2E2E2E2E2E2E2E2E2E2E2E2E2E2E2E2E2E2E2E2E2E2E2E2E2F5E2E2E2E2E2E2E2E2E2F5E2E2E2E2E2E2E2E2E2E2E2E2E2E2E2E2E2E2E2E2E2E2E2E2E2E2E2E2E2E2E2E2E2E2DCE2E2
310
E2BEE2E2E2E2E2E2E2E2E2E2E2E2E2E2E2E2E2E2E2E2E2E2E2E2E2E2E2E2E2E2E2E2E2E2E2E2E2E2E2E2E2E2E2E2E2E2E2E2E2E2E2E2E2E2E2E2E2E2E2E2E2E2E2E2E2E2E2E2E2E2BEE2E2E2DCE2E2E2E2E2E2E2E2E2E2E2E2E2E2E2E2E2E22828E2E22828E2E22828E2E2E2E2E2E2E2E22DE2E2E2E2E22DE2E2E228E22828
310
E228BE28E228F5E2E22DE2E2E2E2E2E2E2E2E2E2E2E2E2E2E2E2E22DE2E2E2E2E2E2E2E2E2E2E2E2E2E2E2E22DE2E2E2E2E2E2E2E2E2E2E2E2E2E2E2E2E2E2E2E2E2E2E2E2E2E2E2E2E2E2E2E2E2E2E2E2F5E2E2E2E2E2E2E2E2E2F5E2E2E2E2E2E2E2E2E2E2E2E2E2E2E2E2E2E2E2E2E2E2E2E2E2E2E2E2E2E2E2E2E2E2DC
310
E2E2E2BEE2E2E2E2E2E2E2E2E2E2E2E2E2E2E2E2E2E2E2E2E2E2E2E2E2E2E2E2E2E2E2E2E2E2E2E2E2E2E2E2E2E2E2E2E2E2E2E2E2E2E2E2E2E2E2E2E2E2E2E2E2E2E2E2E2E2E2E2E2E2BEE2E2E2DCE2E2E2E2E2E2E2E2E2E2E2E2E2E2E2E2E2E22828E2E22828E2E22828E2E2E2E2E2E2E2E22DE2E2E2E2E22DE2E2E228E2
310
2828E228BE28E228F5E2E22DE2E2E2E2E2E2E2E2E2E2E2E2E2E2E2E2E22DE2E2E2E2E2E2E2E2E2E2E2E2E2E2E2E22DE2E2E2E2E2E2E2E2E2E2E2E2E2E2E2E2E2E2E2E2E2E2E2E2E2E2E2E2E2E2E2E2E2E2E2E2F5E2E2E2E2E2E2E2E2E2F5E2E2E2E2E2E2E2E2E2E2E2E2E2E2E2E2E2E2E2E2E2E2E2E2E2E2E2E2E2E2E2E2E2
310
E2DCE2E2E2BEE2E2E2E2E2E2E2E2E2E2E2E2E2E2E2E2E2E2E2E2E2E2E2E2E2E2E2E2E2E2E2E2E2E2E2E2E2E2E2E2E2E2E2E2E2E2E2E2E2E2E2E2E2E2E2E2E2E2E2E2E2E2E2E2E2E2E2E2E2E2BEE2E2E2DCE2E2E2E2E2E2E2E2E2E2E2E2E2E2E2E2E2E22828E2E22828E2E22828E2E2E2E2E2E2E2E22DE2E2E2E2E22DE2E2E2
310
28E22828E228BE28F52D2D2D2D2DE2E2E2E2E2E2E2E2E2E2E2E2E2E2E2E2E22DE2E2E2E2E2E2E2E2E2E2E2E2E2E2E2E22DE2E2E2E2E2E2E2E2E2E2E2E2E2E2E2E2E2E2E2E2E2E2E2E2E2E2E2E2E2E2E2E2E2E2E2E2F5E2E2E2E2E2E2E2E2E2F5E2E2E2E2E2E2E2E2E2E2E2E2E2E2E2E2E2E2E2E2E2E2E2E2E2E2E2E2E2E2E2
310
E2E2E2DCE2E2E2BEE2E2E2E2E2E2E2E2E2E2E2E2E2E2E2E2E2E2E2E2E2E2E2E2E2E2E2E2E2E2E2E2E2E2E2E2E2E2E2E2E2E2E2E2E2E2E2E2E2E2E2E2E2E2E2E2E2E2E2E2E2E2E2E2E2E2E2E2E2E2BEE2E2E2DCE2E2E2E2E2E2E2E2E2E2E2E2E2E2E2E2E2E22828E2E22828E2E22828E2E2E2E2E2E2E2E22DE2E2E2E2E22DE2
310
E2E228E22828E228BE28E228F5E2E2E2E2E2E2E2E2E2E2E2E2E2E2E2E2E2E2E2E22DE2E2E2E2E2E2E2E2E2E2E2E2E2E2E2E22DE2E2E2E2E2E2E2E2E2E2E2E2E2E2E2E2E2E2E2E2E2E2E2E2E2E2E2E2E2E2E2E2E2E2E2E2F5E2E2E2E2E2E2E2E2E2F5E2E2E2E2E2E2E2E2E2E2E2E2E2E2E2E2E2E2E2E2E2E2E2E2E2E2E2E2E2
310
E2E2E2E2E2DCE2E2E2BEE2E2E2E2E2E2E2E2E2E2E2E2E2E2E2E2E2E2E2E2E2E2E2E2E2E2E2E2E2E2E2E2E2E2E2E2E2E2E2E2E2E2E2E2E2E2E2E2E2E2E2E2E2E2E2E2E2E2E2E2E2E2E2E2E2E2E2E2E2E2BEE2E2E2DCE2E2E2E2E2E2E2E2E2E2E2E2E2E2E2E2E2E22828E2E22828E2E22828E2E2E2E2E2E2E2E22DE2E2E2E2E2
310
2DE2E2E228E22828E228BE28E228F5E2E2E2E2E2E2E2E2E2E2E2E2E2E2E2E2E2E2E2E22DE2E2E2E2E2E2E2E2E2E2E2E2E2E2E2E22DE2E2E2E2E2E2E2E2E2E2E2E2E2E2E2E2E2E2E2E2E2E2E2E2E2E2E2E2E2E2E2E2E2E2E2E2F5E2E2E2E2E2E2E2E2E2F5E2E2E2E2E2E2E2E2E2E2E2E2E2E2E2E2E2E2E2E2E2E2E2E2E2E2E2
310
E2E2E2E2E2E2E2DCE2E2E2BEE2E2E2E2E2E2E2E2E2E2E2E2E2E2E2E2E2E2E2E2E2E2E2E2E2E2E2E2E2E2E2E2E2E2E2E2E2E2E2E2E2E2E2E2E2E2E2E2E2E2E2E2E2E2E2E2E2E2E2E2E2E2E2E2E2E2E2E2E2E2BEE2E2E2DCE2E2E2E2E2E2E2E2E2E2E2E2E2E2E2E2E2E22828E2E22828E2E22828E2E2E2E2E2E2E2E22DE2E2E2
310
E2E22DE2E2E228E22828E228BE28E228F5E2E2E2E2E2E2E2E2E2E2E2E2E2E2E2E2E2E2E2E22DE2E2E2E2E2E2E2E2E2E2E2E2E2E2E2E22DE2E2E2E2E2E2E2E2E2E2E2E2E2E2E2E2E2E2E2E2E2E2E2E2E2E2E2E2E2E2E2E2E2E2E2E2F5E2E2E2E2E2E2E2E2E2F5E2E2E2E2E2E2E2E2E2E2E2E2E2E2E2E2E2E2E2E2E2E2E2E2E2
310
E2E2E2E2E2E2E2E2E2DCE2E2E2BEE2E2E2E2E2E2E2E2E2E2E2E2E2E2E2E2E2E2E2E2E2E2E2E2E2E2E2E2E2E2E2E2E2E2E2E2E2E2E2E2E2E2E2E2E2E2E2E2E2E2E2E2E2E2E2E2E2E2E2E2E2E2E2E2E2E2E2E2E2E2BEE2E2E2DCE2E2E2E2E2E2E2E2E2E2E2E2E2E2E2E2E2E22828E2E22828E2E22828E2E2E2E2E2E2E2E22DE2
310
E2E2E2E22DE2E2E228E22828E228BE28E228F5E2E2E2E2E2E2E2E2E2E2E2E2E2E2E2E2E2E2E2E22DE2E2E2E2E2E2E2E2E2E2E2E2E2E2E2E22DE2E2E2E2E2E2E2E2E2E2E2E2E2E2E2E2E2E2E2E2E2E2E2E2E2E2E2E2E2E2E2E2E2E2E2E2F5E2E2E2E2E2E2E2E2E2F5E2E2E2E2E2E2E2E2E2E2E2E2E2E2E2E2E2E2E2E2E2E2E2
310
E2E2E2E2E2E2E2E2E2E2E2DCE2E2E2BEE2E2E2E2E2E2E2E2E2E2E2E2E2E2E2E2E2E2E2E2E2E2E2E2E2E2E2E2E2E2E2E2E2E2E2E2E2E2E2E2E2E2E2E2E2E2E2E2E2E2E2E2E2E2E2E2E2E2E2E2E2E2E2E2E2E2E2E2E2E2BEE2E2E2DCE2E2E2E2E2E2E2E2E2E2E2E2E2E2E2E2E2E22828E2E22828E2E22828E2E2E2E2E2E2E2E2
310
2DE2E2E2E2E22DE2E2E228E22828E228BE28E228F5E2E2E2E2E2E2E2E2E2E2E2E2E2E2E2E2E2E2E2E22DE2E2E2E2E2E2E2E2E2E2E2E2E2E2E2E22DE2E2E2E2E2E2E2E2E2E2E2E2E2E2E2E2E2E2E2E2E2E2E2E2E2E2E2E2E2E2E2E2E2E2E2E2F5E2E2E2E2E2E2E2E2E2F5E2E2E2E2E2E2E2E2E2E2E2E2E2E2E2E2E2E2E2E2E2
310
E2E2E2E2E2E2E2E2E2E2E2E2E2DCE2E2E2BEE2E2E2E2E2E2E2E2E2E2E2E2E2E2E2E2E2E2E2E2E2E2E2E2E2E2E2E2E2E2E2E2E2E2E2E2E2E2E2E2E2E2E2E2E2E2E2E2E2E2E2E2E2E2E2E2E2E2E2E2E2E2E2E2E2E2E2E2E2E2BEE2E2E2DCE2E2E2E2E2E2E2E2E2E2E2E2E2E2E2E2E2E22828E2E22828E2E22828E2E2E2E2E2E2
310
E2E22DE2E2E2E2E22DE2E2E228E22828E228BE28E228F5E2E2E2E2E2E2E2E2E2E2E2E2E2E2E2E2E2E2E2E22DE2E2E2E2E2E2E2E2E2E2E2E2E2E2E2E22DE2E2E2E2E2E2E2E2E2E2E2E2E2E2E2E2E2E2E2E2E2E2E2E2E2E2E2E2E2E2E2E2E2E2E2E2F5E2E2E2E2E2E2E2E2E2F5E2E2E2E2E2E2E2E2E2E2E2E2E2E2E2E2E2E2E2
310
E2E2E2E2E2E2E2E2E2E2E2E2E2E2E2DCE2E2E2BEE2E2E2E2E2E2E2E2E2E2E2E2E2E2E2E2E2E2E2E2E2E2E2E2E2E2E2E2E2E2E2E2E2E2E2E2E2E2E2E2E2E2E2E2E2E2E2E2E2E2E2E2E2E2E2E2E2E2E2E2E2E2E2E2E2E2E2E2E2E2BEE2E2E2DCE2E2E2E2E2E2E2E2E2E2E2E2E2E2E2E2E2E22828E2E22828E2E22828E2E2E2E2
310
E2E2E2E22DE2E2BEBEBE2DE2E2E228E22828E228BE28E228F5E2E2E2E2E2E2E2E2E2E2E2E2E2E2E2E2E2E2BEBE2DE2E2E2E2E2E2E2E2E2E2E2E2E2E2E2E22DE2E2E2E2E2E2E2E2E2E2E2E2E2E2E2E2E2E2E2E2E2E2E2E2E2E2E2E2E2E2E2E2E2E2E2E2F5E2E2E2E2E2E2E2E2E2F5E2E2E2E2E2E2E2E2E2E2E2E2E2E2E2E2E2
310
E2E2E2E2E2E2E2E2E2E2E2E2E2E2E2E2E2DCE2E2E2BEE2E2E2E2E2E2E2E2E2E2E2E2E2E2E2E2E2E2E2E2E2E2E2E2E2E2E2E2E2E2E2E2E2E2E2E2E2E2E2E2E2E2E2E2E2E2E2E2E2E2E2E2E2E2E2E2E2E2E2E2E2E2E2E2E2E2E2E2E2E2BEE2E2E2DCE2E2E2E2E2E2E2E2E2E2E2E2E2E2E2E2E2E22828E2E22828E2E22828E2E2
310
E2E2E2E2E2E22DE2E2BEBEBE2DE2E2E228E22828E228BE28E228F5E2E2E2E2E2E2E2E2E2E2E2E2E2E2E2E2E2E2BEBE2DE2E2E2E2E2E2E2E2E2E2E2E2E2E2E2E22DE2E2E2E2E2E2E2E2E2E2E2E2E2E2E2E2E2E2E2E2E2E2E2E2E2E2E2E2E2E2E2E2E2E2E2E2F5E2E2E2E2E2E2E2E2E2F5E2E2E2E2E2E2E2E2E2E2E2E2E2E2E2
310
E2E2E2E2E2E2E2E2E2E2E2E2E2E2E2E2E2E2E2DCE2E2E2BEE2E2E2E2E2E2E2E2E2E2E2E2E2E2E2E2E2E2E2E2E2E2E2E2E2E2E2E2E2E2E2E2E2E2E2E2E2E2E2E2E2E2E2E2E2E2E2E2E2E2E2E2E2E2E2E2E2E2E2E2E2E2E2E2E2E2E2E2E2E2BEE2E2E2DCE2E2E2E2E2E2E2E2E2E2E2E2E2E2E2E2E2E22828E2E22828E2E22828
310
E2E2E2E2E2E2E2E22DE2E2BEBEBE2DE2E2E228E22828E228BE28E228F5E2E2E2E2E2E2E2E2E2E2E2E2E2E2E2E2E2E2BEBE2DE2E2E2E2E2E2E2E2E2E2E2E2E2E2E2E22DE2E2E2E2E2E2E2E2E2E2E2E2E2E2E2E2E2E2E2E2E2E2E2E2E2E2E2E2E2E2E2E2E2E2E2E2F5E2E2E2E2E2E2E2E2E2F5E2E2E2E2E2E2E2E2E2E2E2E2E2
310
E2E2E2E2E2E2E2E2E2E2E2E2E2E2E2E2E2E2E2E2E2DCE2E2E2BEE2E2E2E2E2E2E2E2E2E2E2E2E2E2E2E2E2E2E2E2E2E2E2E2E2E2E2E2E2E2E2E2E2E2E2E2E2E2E2E2E2E2E2E2E2E2E2E2E2E2E2E2E2E2E2E2E2E2E2E2E2E2E2E2E2E2E2E2E2E2BEE2E2E2DCE2E2E2E2E2E2E2E2E2E2E2E2E2E2E2E2E2E22828E2E22828E2E2
310
2828E2E2E2E2E2E2E2E22DE2E2E2BEE22DE2E2E228E22828E228BE28E228F5E2E2E2E2E2E2E2E2E2E2E2E2E2E2E2E2E2E2BEBE2DE2E2E2E2E2E2E2E2E2E2E2E2E2BEBEBE2DE2E2E2E2E2E2E2E2E2E2E2E2E2E2E2E2E2E2E2E2E2E2E2E2E2E2E2E2E2E2E2E2E2E2E2E2F5E2E2E2E2E2E2E2E2E2F5E2E2E2E2E2E2E2E2E2E2E2
310
E2E2E2E2E2E2E2E2E2E2E2E2E2E2E2E2E2E2E2E2E2E2E2DCE2E2E2BEE2E2E2E2E2E2E2E2E2E2E2E2E2E2E2E2E2E2E2E2E2E2E2E2E2E2E2E2E2E2E2E2E2E2E2E2E2E2E2E2E2E2E2E2E2E2E2E2E2E2E2E2E2E2E2E2E2E2E2E2E2E2E2E2E2E2E2E2E2E2BEE2E2E2DCE2E2E2E2E2E2E2E2E2E2E2E2E2E2E2E2E2E22828E2E22828
310
E2E22828E2E2E2E2E2E2E2E22DE2E2BEBEBE2DE2E2E228E22828E228BE28E228F5E2E2E2E2E2E2E2E2E2E2E2E2E2E2E2E2E2E2BEE22DE2E2E2E2E2E2E2E2E2E2E2E2E2BEBEBE2DE2E2E2E2E2E2E2E2E2E2E2E2E2E2E2E2E2E2E2E2E2E2E2E2E2E2E2E2E2E2E2E2E2E2E2E2F5E2E2E2E2E2E2E2E2E2F5E2E2E2E2E2E2E2E2E2
310
E2E2E2E2E2E2E2E2E2E2E2E2E2E2E2E2E2E2E2E2E2E2E2E2E2DCE2E2E2BEE2E2E2E2E2E2E2E2E2E2E2E2E2E2E2E2E2E2E2E2E2E2E2E2E2E2E2E2E2E2E2E2E2E2E2E2E2E2E2E2E2E2E2E2E2E2E2E2E2E2E2E2E2E2E2E2E2E2E2E2E2E2E2E2E2E2E2E2E2E2BEE2E2E2DCE2E2E2E2E2E2E2E2E2E2E2E2E2E2E2E2E2E22828E2E2
310
2828E2E22828E2E2E2E2E2E2E2E22DE2E2E2E2E22DE2E2E228E22828E228BE28E228F5E2E2E2E2E2E2E2E2E2E2E2E2E2E2E2E2E2E2E2BE2DE2E2E2E2E2E2E2E2E2E2E2E2E2BEBEBE2DE2E2E2E2E2E2E2E2E2E2E2E2E2E2E2E2E2E2E2E2E2E2E2E2E2E2E2E2E2E2E2E2E2E2E2E2F5E2E2E2E2E2E2E2E2E2F5E2E2E2E2E2E2E2
310
E2E2E2E2E2E2E2E2E2E2E2E2E2E2E2E2E2E2E2E2E2E2E2E2E2E2E2DCE2E2E2BEE2E2E2E2E2E2E2E2E2E2E2E2E2E2E2E2E2E2E2E2E2E2E2E2E2E2E2E2E2E2E2E2E2E2E2E2E2E2E2E2E2E2E2E2E2E2E2E2E2E2E2E2E2E2E2E2E2E2E2E2E2E2E2E2E2E2E2E2E2E2BEE2E2E2DCE2E2E2E2E2E2E2E2E2E2E2E2E2E2E2E2E2E22828
310
E2E22828E2E22828E2E2E2E2E2E2E2E22DE2E2E2E2E22DE2E2E228E22828E228BE28E228F5E2E2E2E2E2E2E2E2E2E2E2E2E2E2E2E2E2E2BEBE2DE2E2E2E2E2E2E2E2E2E2E2E2E2BEBEBE2DE2E2E2E2E2E2E2E2E2E2E2E2E2E2E2E2E2E2E2E2E2E2E2E2E2E2E2E2E2E2E2E2E2E2E2E2F5E2E2E2E2E2E2E2E2E2F5E2E2E2E2E2
310
E2E2E2E2E2E2E2E2E2E2E2E2E2E2E2E2E2E2E2E2E2E2E2E2E2E2E2E2E2DCE2E2E2BEE2E2E2E2E2E2E2E2E2E2E2E2E2E2E2E2E2E2E2E2E2E2E2E2E2E2E2E2E2E2E2E2E2E2E2E2E2E2E2E2E2E2E2E2E2E2E2E2E2E2E2E2E2E2E2E2E2E2E2E2E2E2E2E2E2E2E2E2E2E2BEE2E2E2DCE2E2E2E2E2E2E2E2E2E2E2E2E2E2E2E2E2E2
310
2828E2E22828E2E22828E2E2E2E2E2E2E2E22DE2E2E2E2E22DE2E2E228E22828E228BE28E228F5E2E2E2E2E2E2E2E2E2E2E2E2E2E2E2E2E2E2BEBE2DE2E2E2E2E2E2E2E2E2E2E2E2E2BEBEBE2DE2E2E2E2E2E2E2E2E2E2E2E2E2E2E2E2E2E2E2E2E2E2E2E2E2E2E2E2E2E2E2E2E2E2E2E2F5E2E2E2E2E2E2E2E2E2F5E2E2E2
310
E2E2E2E2E2E2E2E2E2E2E2E2E2E2E2E2E2E2E2E2E2E2E2E2E2E2E2E2E2E2E2DCE2E2E2BEE2E2E2E2E2E2E2E2E2E2E2E2E2E2E2E2E2E2E2E2E2E2E2E2E2E2E2E2E2E2E2E2E2E2E2E2E2E2E2E2E2E2E2E2E2E2E2E2E2E2E2E2E2E2E2E2E2E2E2E2E2E2E2E2E2E2E2E2E2E2BEE2E2E2DCE2E2E2E2E2E2E2E2E2E2E2E2E2E2E2E2
310
E2E22828E2E22828E2E22828E2E2E2E2E2E2E2E22DE2E2E2E2E22DE2E2E228E22828E228BE28E228F5E2E2E2E2E2E2E2E2E2E2E2E2E2E2E2E2E2E2E2E22DE2E2E2E2E2E2E2E2E2E2E2E2E2BEBEBE2DE2E2E2E2E2E2E2E2E2E2E2E2E2E2E2E2E2E2E2E2E2E2E2E2E2E2E2E2E2E2E2E2E2E2E2E2F5E2E2E2E2E2E2E2E2E2F5E2
310
E2E2E2E2E2E2E2E2E2E2E2E2E2E2E2E2E2E2E2E2E2E2E2E2E2E2E2E2E2E2E2E2E2DCE2E2E2BEE2E2E2E2E2E2E2E2E2E2E2E2E2E2E2E2E2E2E2E2E2E2E2E2E2E2E2E2E2E2E2E2E2E2E2E2E2E2E2E2E2E2E2E2E2E2E2E2E2E2E2E2E2E2E2E2E2E2E2E2E2E2E2E2E2E2E2E2E2E2BEE2E2E2DCE2E2E2E2E2E2E2E2E2E2E2E2E2E2
310
E2E2E2E22828E2E22828E2E22828E2E2E2E2E2E2E2E22DE2E2E2E2E22DE2E2E228E22828E228BE28E228F5E2E2E2E2E2E2E2E2E2E2E2E2E2E2E2E2E2E2E2E22DE2E2E2E2E2E2E2E2E2E2E2E2E2E2E2E22DE2E2E2E2E2E2E2E2E2E2E2E2E2E2E2E2E2E2E2E2E2E2E2E2E2E2E2E2E2E2E2E2E2E2E2E2F5E2E2E2E2E2E2E2E2E2
310
F5E2E2E2E2E2E2E2E2E2E2E2E2E2E2E2E2E2E2E2E2E2E2E2E2E2E2E2E2E2E2E2E2E2E2DCE2E2E2BEE2E2E2E2E2E2E2E2E2E2E2E2E2E2E2E2E2E2E2E2E2E2E2E2E2E2E2E2E2E2E2E2E2E2E2E2E2E2E2E2E2E2E2E2E2E2E2E2E2E2E2E2E2E2E2E2E2E2E2E2E2E2E2E2E2E2E2E2E2E2BEE2E2E2DCE2E2E2E2E2E2E2E2E2E2E2E2
310
E2E2E2E2E2E22828E2E22828E2E22828E2E2E2E2E2E2BEBE2DE2E2E2E2E22DE2E2E228E22828E228BE28E228F5E2E2E2E2E2E2E2E2E2E2E2E2E2E2E2E2E2E2E2E22DE2E2E2E2E2E2E2E2E2E2E2E2E2E2E2E22DE2E2E2E2E2E2E2E2E2E2E2E2E2E2E2E2E2E2E2E2E2E2E2E2E2E2E2E2E2E2E2E2E2E2E2E2F5E2E2E2E2E2E2E2
310
E2E2F5E2E2E2E2E2E2E2E2E2E2E2E2E2E2E2E2E2E2E2E2E2E2E2E2E2E2E2E2E2E2E2E2E2E2DCE2E2E2BEE2E2E2E2E2E2E2E2E2E2E2E2E2E2E2E2E2E2E2E2E2E2E2E2E2E2E2E2E2E2E2E2E2E2E2E2E2E2E2E2E2E2E2E2E2E2E2E2E2E2E2E2E2E2E2E2E2E2E2E2E2E2E2E2E2E2E2E2E2E2BEE2E2E2DCE2E2E2E2E2E2E2E2E2E2
310
E2E2E2E2E2E2E2E22828E2E22828E2E22828E2E2E2E2E2BEBEBE2DE2E2E2E2E22DE2E2E228E22828E228BE28E228F5E2E2E2E2E2E2E2E2E2E2E2E2E2E2E2E2E2E2E2E22DE2E2E2E2E2E2E2E2E2E2E2E2E2E2E2E22DE2E2E2E2E2E2E2E2E2E2E2E2E2E2E2E2E2E2E2E2E2E2E2E2E2E2E2E2E2E2E2E2E2E2E2E2F5E2E2E2E2E2
310
E2E2E2E2F5E2E2E2E2E2E2E2E2E2E2E2E2E2E2E2E2E2E2E2E2E2E2E2E2E2E2E2E2E2E2E2E2E2E2DCE2E2E2BEE2E2E2E2E2E2E2E2E2E2E2E2E2E2E2E2E2E2E2E2E2E2E2E2E2E2E2E2E2E2E2E2E2E2E2E2E2E2E2E2E2E2E2E2E2E2E2E2E2E2E2E2E2E2E2E2E2E2E2E2E2E2E2E2E2E2E2E2E2E2BEE2E2E2DCE2E2E2E2E2E2E2E2
310
E2E2E2E2E2E2E2E2E2E22828E2E22828E2E22828E2E2E2E2E2E2BEBE2DE2E2E2E2E22DE2E2E228E22828E228BE28E228F5E2E2E2E2E2E2E2E2E2E2E2E2E2E2E2E2E2E2E2E22DE2E2E2E2E2E2E2E2E2E2E2E2E2E2E2E22DE2E2E2E2E2E2E2E2E2E2E2E2E2E2E2E2E2E2E2E2E2E2E2E2E2E2E2E2E2E2E2E2E2E2E2E2F5E2E2E2
310
E2E2E2E2E2E2F5E2E2E2E2E2E2E2E2E2E2E2E2E2E2E2E2E2E2E2E2E2E2E2E2E2E2E2E2E2E2E2E2E2E2DCE2E2E2BEE2E2E2E2E2E2E2E2E2E2E2E2E2E2E2E2E2E2E2E2E2E2E2E2E2E2E2E2E2E2E2E2E2E2E2E2E2E2E2E2E2E2E2E2E2E2E2E2E2E2E2E2E2E2E2E2E2E2E2E2E2E2E2E2E2E2E2E2E2E2BEE2E2E2DCE2E2E2E2E2E2
310
E2E2E2E2E2E2E2E2E2E2E2E22828E2E22828E2E22828E2E2E2E2E2BEBEBE2DE2E2E2E2E22DE2E2E228E22828E228BE28E228F5E2E2E2E2E2E2E2E2E2E2E2E2E2E2E2E2E2E2E2E22DE2E2E2E2E2E2E2E2E2E2E2E2E2E2E2E22DE2E2E2E2E2E2E2E2E2E2E2E2E2E2E2E2E2E2E2E2E2E2E2E2E2E2E2E2E2E2E2E2E2E2E2E2F5E2
310
E2E2E2E2E2E2E2E2F5E2E2E2E2E2E2E2E2E2E2E2E2E2E2E2E2E2E2E2E2E2E2E2E2E2E2E2E2E2E2E2E2E2E2DCE2E2E2BEE2E2E2E2E2E2E2E2E2E2E2E2E2E2E2E2E2E2E2E2E2E2E2E2E2E2E2E2E2E2E2E2E2E2E2E2E2E2E2E2E2E2E2E2E2E2E2E2E2E2E2E2E2E2E2E2E2E2E2E2E2E2E2E2E2E2E2E2E2E2BEE2E2E2DCE2E2E2E2
310
E2E2E2E2E2E2E2E2E2E2E2E2E2E22828E2E22828E2E22828E2E2E2E2E2BEBEBE2DE2E2E2E2E22DE2E2E228E22828E228BE28E228F5E2E2E2E2E2E2E2E2E2E2E2E2E2E2E2E2E2E2E2E22DE2E2E2E2E2E2E2E2E2E2E2E2E2E2E2E22DE2E2E2E2E2E2E2E2E2E2E2E2E2E2E2E2E2E2E2E2E2E2E2E2E2E2E2E2E2E2E2E2E2E2E2E2
310
F5E2E2E2E2E2E2E2E2E2F5E2E2E2E2E2E2E2E2E2E2E2E2E2E2E2E2E2E2E2E2E2E2E2E2E2E2E2E2E2E2E2E2E2E2DCE2E2E2BEE2E2E2E2E2E2E2E2E2E2E2E2E2E2E2E2E2E2E2E2E2E2E2E2E2E2E2E2E2E2E2E2E2E2E2E2E2E2E2E2E2E2E2E2E2E2E2E2E2E2E2E2E2E2E2E2E2E2E2E2E2E2E2E2E2E2E2E2E2E2BEE2E2E2DCE2E2
310
E2E2E2E2E2E2E2E2E2E2E2E2E2E2E2E22828E2E22828E2E22828E2E2E2E2E2BEBEBE2DE2E2E2E2E22DE2E2E228E22828E228BE28E228F5E2E2E2E2E2E2E2E2E2E2E2E2E2E2E2E2E2E2E2E22DE2E2E2E2E2E2E2E2E2E2E2E2E2E2E2E22DE2E2E2E2E2E2E2E2E2E2E2E2E2E2E2E2E2E2E2E2E2E2E2E2E2E2E2E2E2E2E2E2E2E2
310
E2E2F5E2E2E2E2E2E2E2E2E2F5E2E2E2E2E2E2E2E2E2E2E2E2E2E2E2E2E2E2E2E2E2E2E2E2E2E2E2E2E2E2E2E2E2E2DCE2E2E2BEE2E2E2E2E2E2E2E2E2E2E2E2E2E2E2E2E2E2E2E2E2E2E2E2E2E2E2E2E2E2E2E2E2E2E2E2E2E2E2E2E2E2E2E2E2E2E2E2E2E2E2E2E2E2E2E2E2E2E2E2E2E2E2E2E2E2E2E2E2E2BEE2E2E2DC
310
E2E2E2E2E2E2E2E2E2E2E2E2E2E2E2E2E2E228282828282828282828E2E2E2E2E2E2E2E22DE2E2E2E2E22DE2E2E228E22828E22828282828F5E2E2E2E2E2E2E2E2E2E2E2E2E2E2E2E2E2E2E2E22DE2E2E2E2E2E2E2E2E2E2E2E2E2E2E2E22DE2E2E2E2E2E2E2E2E2E2E2E2E2E2E2E2E2E2E2E2E2E2E2E2E2E2E2E2E2E2E2E2
310
E2E2E2E2F5E2E2E2E2E2E2E2E2E2F5E2E2E2E2E2E2E2E2E2E2E2E2E2E2E2E2E2E2E2E2E2E2E2E2E2E2E2E2E2E2E2E2E2E2DCE2E2E2BEE2E2E2E2E2E2E2E2E2E2E2E2E2E2E2E2E2E2E2E2E2E2E2E2E2E2E2E2E2E2E2E2E2E2E2E2E2E2E2E2E2E2E2E2E2E2E2E2E2E2E2E2E2E2E2E2E2E2E2E2E2E2E2E2E2E2E2E2E2E2BEE2E2
310
E2DCE2E2E2E2E2E2E2E2E2E2E2E2E2E2E2E2E2E22828E2E22828E2E22828E2E2E2E2E2E2E2E22DE2E2E2E2E22DE2E2E228E22828E228BEE22828F5E2E2E2E2E2E2E2E2E2E2E2E2E2E2E2E2E2E2E2E22DE2E2E2E2E2E2E2E2E2E2E2E2E2E2E2E22DE2E2E2E2E2E2E2E2E2E2E2E2E2E2E2E2E2E2E2E2E2E2E2E2E2E2E2E2E2E2
310
E2E2E2E2E2E2F5E2E2E2E2E2E2E2E2E2F5E2E2E2E2E2E2E2E2E2E2E2E2E2E2E2E2E2E2E2E2E2E2E2E2E2E2E2E2E2E2E2E2E2E2DCE2E2E2BEE2E2E2E2E2E2E2E2E2E2E2E2E2E2E2E2E2E2E2E2E2E2E2E2E2E2E2E2E2E2E2E2E2E2E2E2E2E2E2E2E2E2E2E2E2E2E2E2E2E2E2E2E2E2E2E2E2E2E2E2E2E2E2E2E2E2E2E2E2E2BE
310
E2E2E2DCE2E2E2E2E2E2E2E2E2E2E2E2E2E2E2E2E2E22828E2E22828E2E22828E2E2E2E2E2E2E2E22DE2E2E2E2E22DE2E2E228E22828E228BEE22828F5E2E2E2E2E2E2E2E2E2E2E2E2E2E2E2E2E2E2E2E22DE2E2E2E2E2E2E2E2E2E2E2E2E2E2E2E22DE2E2E2E2E2E2E2E2E2E2E2E2E2E2E2E2E2E2E2E2E2E2E2E2E2E2E2E2
310
E2E2E2E2E2E2E2E2F5E2E2E2E2E2E2E2E2E2F5E2E2E2E2E2E2E2E2E2E2E2E2E2E2E2E2E2E2E2E2E2E2E2E2E2E2E2E2E2E2E2E2E2E2DCE2E2E2BEE2E2E2E2E2E2E2E2E2E2E2E2E2E2E2E2E2E2E2E2E2E2E2E2E2E2E2E2E2E2E2E2E2E2E2E2E2E2E2E2E2E2E2E2E2E2E2E2E2E2E2E2E2E2E2E2E2E2E2E2E2E2E2E2E2E2E2E2E2
310
E2BEE2E2E2DCE2E2E2E2E2E2E2E2E2E2E2E2E2E2E2E2E2E22828E2E22828E2E22828E2E2E2E2E2E2E2E22DE2E2E2E2E22DE2E2E228E22828E228BEE22828F5E2E2E2E2E2E2E2E2E2E2E2E2E2E2E2E2E2E2E2E22DE2E2E2E2E2E2E2E2E2E2E2E2E2E2E2E22DE2E2E2E2E2E2E2E2E2E2E2E2E2E2E2E2E2E2E2E2E2E2E2E2E2E2
310
E2E2E2E2E2E2E2E2E2E2F5E2E2E2E2E2E2E2E2E2F5E2E2E2E2E2E2E2E2E2E2E2E2E2E2E2E2E2E2E2E2E2E2E2E2E2E2E2E2E2E2E2E2E2E2DCE2E2E2BEE2E2E2E2E2E2E2E2E2E2E2E2E2E2E2E2E2E2E2E2E2E2E2E2E2E2E2E2E2E2E2E2E2E2E2E2E2E2E2E2E2E2E2E2E2E2E2E2E2E2E2E2E2E2E2E2E2E2E2E2E2E2E2E2E2E2E2
310
E2E2E2BEE2E2E2DCE2E2E2E2E2E2E2E2E2E2E2E2E2E2E2E2E2E228282828282828282828E2E2E2E2E2E2E2E22DE2E2E2E22D2DE2E2E228282828282828282828F5E2E2E2E2E2E2E2E2E2E2E2E2E2E2E2E2E2E2E2E22DE2E2E2E2E2E2E2E2E2E2E2E2E2E2E2E22DE2E2E2E2E2E2E2E2E2E2E2E2E2E2E2E2E2E2E2E2E2E2E2E2
310
E2E2E2E2E2E2E2E2E2E2E2E2F5E2E2E2E2E2E2E2E2E2F5E2E2E2E2E2E2E2E2E2E2E2F5F5F5E2E2E2E2E2E2E2E2E2E2E2E2E2E2E2E2E2E2E2E2DCE2E2E2BEE2E2E2E2E2E2E2E2E2E2E2E2E2E2E2E2E2E2E2E2E2E2E2E2E2E2E2E2E2E2E2E2E2E2E2E2E2E2E2E2E2E2E2E2E2E2E2E2E2E2E2E2E2E2E2E2E2E2E2E2E2E2E2E2E2
310
E2E2E2E2E2BEE2E2E2DCE2E2E2E2E2E2E2E2E2E2E2E2E2E2E2E2E2E228282828282828282828E2E2E2E2E2E2E2E22DE2E2E2E2E22DE2E2E228282828282828282828F5E2E2E2E2E2E2E2E2E2E2E2E2E2E2E2E2E2E2E2E22DE2E2E2E2E2E2E2E2E2E2E2E2E2E2E2E22DE2E2E2E2E2E2E2E2E2E2E2E2E2E2E2E2E2E2E2E2E2E2
310
E2E2E2E2E2E2E2E2E2E2E2E2E2E2F5E2E2E2E2E2E2E2E2E2F5E2E2E2E2E2E2E2E2E2E2F5F5E2F5F5E2E2E2E2E2E2E2E2E2E2E2E2E2E2E2E2E2E2E2DCE2E2E2BEE2E2E2E2E2E2E2E2E2E2E2E2E2E2E2E2E2E2E2E2E2E2E2E2E2E2E2E2E2E2E2E2E2E2E2E2E2E2E2E2E2E2E2E2E2E2E2E2E2E2E2E2E2E2E2E2E2E2E2E2E2E2E2
310
E2E2E2E2E2E2E2BEE2E2E2DCE2E2E2E2E2E2E2E2E2E2E2E2E2E2E2E2E2E2F5F5F5F5F5F5F5F5F528E2E2E2E2E2E2E2E22DE2E2E2E22D2D2D2DF528F5F5F5F5F5F5F5F528F5E2E2E2E2E2E2E2E2E2E2E2E2E2E2E2E2E2E2E2E22DE2E2E2E2E2E2E2E2E2E2E22DE2E2E2E22DE2E2E2E2E2E2E2E2E2E2E2E2E2E2E2E2E2E2E2E2
310
E2E2E2E2E2E2E2E2E2E2E2E2E2E2E2E2F5F5F5F5F5F5F5F5F5F5F5E2E2E2E2E2E2E2E2E2F5F5F5F5F5E2F5E2E2E2E2E2E2E2E2E2E2E2E2E2E2E2E2E2E2DCE2E2E2BEE2E2E2E2E2E2E2E2E2E2E2E2E2E2E2E2E2E2E2E2E2E2E2E2E2E2E2E2E2E2E2E2E2E2E2E2E2E2E2E2E2E2E2E2E2E2E2E2E2E2E2E2E2E2E2E2E2E2E2E2E2
310
E2E2E2E2E2E2E2E2E2BEE2E2E2DCE2E2E2E2E2E2E2E2E2E2E2E2E2E2E2E2E2E2F5E2E2E2E2E2E2E2E2F5E2E2E2E2E2E2E2E22DE2E2E2E2E22DE2E2E2F5E2E2E2E2E2E2E2E2E2F5E2E2E2E2E2E2E2E2E2E2E2E2E2E2E2E2E2E2E2E22D2DE2E2E2E2E2E2E2E2E2E22DE2E2E2E22DE2E2E2E2E2E2E2E2E2E2E2E2E2E2E2E2E2E2
310
E2E2E2E2E2E2E2E2E2E2E2E2E2E2E2E2E2E2F5E2E2E2E2E2E2E2E2F5F5E2E2E2E2E2F5F5F5F5E2E2E2F5E2E2E2F5E2E2E2E2E2E2E2E2E2E2E2E2E2E2E2E2E2DCE2E2E2BEE2E2E2E2E2E2E2E2E2E2E2E2E2E2E2E2E2E2E2E2E2E2E2E2E2E2E2E2E2E2E2E2E2E2E2E2E2E2E2E2E2E2E2E2E2E2E2E2E2E2E2E2E2E2E2E2E2E2E2
310
E2E2E2E2E2E2E2E2E2E2E2BEE2E2E2DCE2E2E2E2E2E2E2E2E2E2E2E2E2E2E2E2E2E2F5E2E2E2E2E2E2E2E2F5E2E2E2E2E2E2E2E22DE2E2E2E22D2DE2E2E2F5E2E2E2E2E2E2E2E2E2F5E2E2E2E2E2E2E2E2E2E2E2E2E2E2E2E2E2E2E2E22D2DE2E2E2E2E2E2E2E2E2E22D2DE2E2E22DE2E2E2E2E2E2E2E2E2E2E2E2E2E2E2E2
310
E2E2E2E2E2E2E2E2E2E2E2E2E2E2E2E2E2E2E2E2F5E2E2E2E2E2E2E2E2E2F5E2E2F5F5F5E2E2E2E2E2E2E2F5E2E2E2F5E2E2E2E2E2E2E2E2E2E2E2E2E2E2E2E2E2DCE2E2E2BEE2E2E2E2E2E2E2E2E2E2E2E2E2E2E2E2E2E2E2E2E2E2E2E2E2E2E2E2E2E2E2E2E2E2E2E2E2E2E2E2E2E2E2E2E2E2E2E2E2E2E2E2E2E2E2E2E2
310
E2E2E2E2E2E2E2E2E2E2E2E2E2BEE2E2E2DCE2E2E2E2E2E2E2E2E2E2E2E2E2E2E2E2E2E2F5E2E2F5F5F5F5F5E2F5E2E2E2E2E2E2E2E22DE2E2E2E2E22DE2E2E2F5E2E2E2E2E2E2E2E2E2F5E2E2E2E2E2E2E2E2E2E2E2E2E2E2E2E2E2E2F52DF52DE2E2E2E2E2E2E2E2E2E22D2DE2E2E22DE2E2E2E2E2E2E2E2E2E2E2E2E2E2
310
E2E2E2E2E2E2E2E2E2E2E2E2E2E2E2E2E2E2E2E2E2E2F5E2E2E2E2E2E2E2E2F5F5F5F5E2E2E2E2E2E2E2E2E2E2F5F5E2E2F5E2E2E2E2E2E2E2E2E2E2E2E2E2E2E2E2E2DCE2E2E2BEE2E2E2E2E2E2E2E2E2E2E2E2E2E2E2E2E2E2E2E2E2E2E2E2E2E2E2E2E2E2E2E2E2E2E2E2E2E2E2E2E2E2E2E2E2E2E2E2E2E2E2E2E2E2E2
310
E2E2E2E2E2E2E2E2E2E2E2E2E2E2E2BEE2E2E2DCE2E2E2E2E2E2E2E2E2E2E2E2E2E2E2E2E2E2F5E2E2F5F5F5F5F5E2F5E2E2E2E2E2E2E2E22DE2E2E2E2E22DE2E2E2F5E2E2E2E2E2E2E2E2E2F5F5F5F5F5F5F5F5F5F5F5F5F5F5F5F5F5F5F5F5E2F5F5F5F52D2D2D2D2D2DBEBEF52DE2E2E22DE2E2E2E2E2E2E2E2E2E2E2E2
310
E2E2E2E2E2E2E2E2E2E2E2E2E2E2E2E2E2E2E2E2E2E2E2E2F5E2E2E2E2E2F5F5F5E2E2E2E2E2E2E2E2E2E2E2E2E2E2E2F5F5F5F5E2E2E2E2E2E2E2E2E2E2E2E2E2E2E2E2E2DCE2E2E2BEE2E2E2E2E2E2E2E2E2E2E2E2E2E2E2E2E2E2E2E2E2E2E2E2E2E2E2E2E2E2E2E2E2E2E2E2E2E2E2E2E2E2E2E2E2E2E2E2E2E2E2E2E2
310
E2E2E2E2E2E2E2E2E2E2E2E2E2E2E2E2E2BEE2E2E2DCE2E2E2E2E2E2E2E2E2E2E2E2E2E2E2E2E2E2F5E2F5F5E2E2F5F5E2F5E2E2E2E2E2E2E2E22DE2E2E2E2E22DE2E2E2F5E2E2E2E2E2E2E2E2F5E2E2E2E2E2E2E2E2E2E2E2E2E2E2E2E2E2E2E2E2F5F5F5E22DE2E2E2E2E2E2BEBEBEE2E2E2E22DE2E2E2E2E2E2E2E2E2E2
310
E2E2E2E2E2E2E2E2E2E2E2E2E2E2E2E2E2E2E2E2E2E2E2E2E2E2F5E2E2E2E2E2F5E2E2E2E2E2E2E2E2E2E2E2E2E2E2E2E2E2F5F5F5E2E2E2E2E2E2E2E2E2E2E2E2E2E2E2E2E2E2DCE2E2E2BEE2E2E2E2E2E2E2E2E2E2E2E2E2E2E2E2E2E2E2E2E2E2E2E2E2E2E2E2E2E2E2E2E2E2E2E2E2E2E2E2E2E2E2E2E2E2E2E2E2E2E2
310
E2E2E2E2E2E2E2E2E2E2E2E2E2E2E2E2E2E2E2BEE2E2E2DCE2E2E2E2E2E2E2E2E2E2E2E2E2E2E2E2E2E2F5E2F5E2E2E2E2F5E2F5E2E2E2E2E2E2E2E22DE2E2BEE2E22DE2E2E2F5E2E2E2E2E2E2E2E2F5E2E2E2E2E2E2E2E2E2E2E2E2E2E2E2E2E2E2E2E2E22DE2E22DE2E2E2E2E2E2BEBEBEE2E2E2E22DE2E2E2E2E2E2E2E2
310
E2E2E2E2E2E2E2E2E2E2E2E2E2E2E2E2E2E2E2E2E2E2E2E2E2E2E2E2F5E2E2E2E2E2F5E2E2E2E2E2E2E2E2E2E2E2E2E2F5F5F5F5E2E2E2E2E2E2E2E2E2E2E2E2E2E2E2E2E2E2E2E2E2DCE2E2E2BEE2E2E2E2E2E2E2E2E2E2E2E2E2E2E2E2E2E2E2E2E2E2E2E2E2E2E2E2E2E2E2E2E2E2E2E2E2E2E2E2E2E2E2E2E2E2E2E2E2
310
E2E2E2E2E2E2E2E2E2E2E2E2E2E2E2E2E2E2E2E2E2BEE2E2E2DCE2E2E2E2E2E2E2E2E2E2E2E2E2E2E2E2E2E2F5E2F5E2E2E2E2F5E2F5E2E2E2E2E2E2E2E22DE2E2BEE2BE2DE2E2E2F5E2E2E2E2E2E2E2E2F5E2E2E2E2E2E2E2E2E2E2E2E2E2E2E2E2E2E2E2E2E22DE2E2F52D2D2D2D2D2D2D2D2D2D2D2D2D2D2DE2E2E2E2E2
310
E2E2E2E2E2E2E2E2E2E2E2E2E2E2E2E2E2E2E2E2E2E2E2E2E2E2E2E2E2E2F5E2E2E2E2E2F5E2E2E2E2E2E2E2E2E2F5F5F5F5E2E2E2E2E2E2E2E2E2E2E2E2E2E2E2E2E2E2E2E2E2E2E2E2E2DCE2E2E2BEE2E2E2E2E2E2E2E2E2E2E2E2E2E2E2E2E2E2E2E2E2E2E2E2E2E2E2E2E2E2E2E2E2E2E2E2E2E2E2E2E2E2E2E2E2E2E2
310
E2E2E2E2E2E2E2E2E2E2E2E2E2E2E2E2E2E2E2E2E2E2E2BEE2E2E2DCE2E2E2E2E2E2E2E2E2E2E2E2E2E2E2E2E2E2F5E2F5E2E2E2E2F5E2F5E2E2E2E2E2E2E2E22DE2E2BEBEBE2DE2E2E2F5E2E2E2E2E2E2E2E2F5E2E2E2E2E2E2E2E2E2E2E2E2E2E2E2E2E2E2E2E2E22DE2E22DE2E2E2E2E2E2BEBEBEE2E2E2E2E2E2E2E2E2
310
E2E2E2E2E2E2E2E2E2E2E2E2E2E2E2E2E2E2E2E2E2E2E2E2E2E2E2E2E2E2E2E2F5E2E2E2E2E2F5F5E2E2E2E2F5F5F5F5E2E2E2E2E2E2E2E2E2E2E2E2E2E2E2E2E2E2E2E2E2E2E2E2E2E2E2E2E2DCE2E2E2BEE2E2E2E2E2E2E2E2E2E2E2E2E2E2E2E2E2E2E2E2E2E2E2E2E2E2E2E2E2E2E2E2E2E2E2E2E2E2E2E2E2E2E2E2E2
310
E2E2E2E2E2E2E2E2E2E2E2E2E2E2E2E2E2E2E2E2E2E2E2E2E2BEE2E2E2DCE2E2E2E2E2E2E2E2E2E2E2E2E2E2E2E2E2E2F5E2F5F5F5F5F5F5E2F5E2E2E2E2E2E2E2E22DE2E2BEBEBE2DE2E2E2F5E2E2E2E2E2E2E2E2F5F5E2E2E2E2E2E2E2E2E2E2E2E2E2E2E2E2E2E2E2E22DE2E22DE2E2E2E2E2E2BEBEBEE2E2E2E2E2E2E2
310
E2E2E2E2E2E2E2E2E2E2E2E2E2E2E2E2E2E2E2E2E2E2E2E2E2E2E2E2E2E2E2E2E2E2F5E2E2E2E2E2E2F5F5F5F5F5E2E2E2E2E2E2E2E2E2E2E2E2E2E2E2E2E2E2E2E2E2E2E2E2E2E2E2E2E2E2E2E2E2DCE2E2E2BEE2E2E2E2E2E2E2E2E2E2E2E2E2E2E2E2E2E2E2E2E2E2E2E2E2E2E2E2E2E2E2E2E2E2E2E2E2E2E2E2E2E2E2
310
E2E2E2E2E2E2E2E2E2E2E2E2E2E2E2E2E2E2E2E2E2E2E2E2E2E2E2BEE2E2E2DCE2E2E2E2E2E2E2E2E2E2E2E2E2E2E2E2E2E2F5E2E2E2F5F5E2E2E2F5E2E2E2E2E2E2E2E22DE2E2E2E2E22DE2E2E2F5E2E2E2E2E2E2E2E2E2F5F5F5F5F5F5F5F5F5F5F5F5F5F5F5F5F5F5F5F5F52DF5F52D2D2D2D2D2D2D2D2D2D2DE2E2E2E2
310
E2E2E2E2E2E2E2E2E2E2E2E2E2E2E2E2E2E2E2E2E2E2E2E2E2E2E2E2E2E2E2E2E2E2E2E2F5E2E2E2E2E2E2E2E2E2F5E2E2E2E2E2E2E2E2E2E2E2E2E2E2E2E2E2E2E2E2E2E2E2E2E2E2E2E2E2E2E2E2E2E2DCE2E2E2BEE2E2E2E2E2E2E2E2E2E2E2E2E2E2E2E2E2E2E2E2E2E2E2E2E2E2E2E2E2E2E2E2E2E2E2E2E2E2E2E2E2
310
E2E2E2E2E2E2E2E2E2E2E2E2E2E2E2E2E2E2E2E2E2E2E2E2E2E2E2E2E2BEE2E2E2DCE2E2E2E2E2E2E2E2E2E2E2E2E2E2E2E2E2E2F5E2E2E2E2E2E2E2E2F5E2E2E2E2E2E2E2E22DE2E2E2E2E22DE2E2E2F5E2E2E2E2E2E2E2E2E2F5E2E2E2E2E2E2E2E2E2E2E2E2E2E2E2E2E2E2E2E22DE2E22DE2E2E2E2E2E2E2E22D2DE2E2
310
E2E2E2E2E2E2E2E2E2E2E2E2E2E2E2E2E2E2E2E2E2E2E2E2E2E2E2E2E2E2E2E2E2E2E2E2E2E2F5E2E2E2E2E2E2E2E2E2F5E2E2E2E2E2E2E2E2E2E2E2E2E2E2E2E2E2E2E2E2E2E2E2E2E2E2E2E2E2E2E2E2E2E2DCE2E2E2BEE2E2E2E2E2E2E2E2E2E2E2E2E2E2E2E2E2E2E2E2E2E2E2E2E2E2E2E2E2E2E2E2E2E2E2E2E2E2E2
310
E2E2E2E2E2E2E2E2E2E2E2E2E2E2E2E2E2E2E2E2E2E2E2E2E2E2E2E2E2E2E2BEE2E2E2DCE2E2E2E2E2E2E2E2E2E2E2E2E2E2E2E2E2E2F5E2E2E2E2E2E2E2E2F5E2E2E2E2E2E2E2E22DE2E2E2E2E22DE2E2E2F5E2E2E2E2E2E2E2E2E2F5E2E2E2E2E2E2E2E2E2E2E2E2E2E2E2E2E2E2E2E22DE2E22DE2E2E2E2E2E2E2E22D2D
310
E2E2E2E2E2E2E2E2E2E2E2E2E2E2E2E2E2E2E2E2E2E2E2E2E2E2E2E2E2E2E2E2E2E2E2E2E2E2E2E2F5E2E2E2E2E2E2E2E2E2F5E2E2E2E2E2E2E2E2E2E2E2E2E2E2E2E2E2E2E2E2E2E2E2E2E2E2E2E2E2E2E2E2E2E2DCE2E2E2BEE2E2E2E2E2E2E2E2E2E2E2E2E2E2E2E2E2E2E2E2E2E2E2E2E2E2E2E2E2E2E2E2E2E2E2E2E2
310
E2E2E2E2E2E2E2E2E2E2E2E2E2E2E2E2E2E2E2E2E2E2E2E2E2E2E2E2E2E2E2E2E2BEE2E2E2DCE2E2E2E2E2E2E2E2E2E2E2E2E2E2E2E2E2E2F5E2E2E2E2E2E2E2E2F5E2E2E2E2E2E2E2E22DE2E2E2E2E22DE2E2E2F5E2E2E2E2E2E2E2E2E2F5E2E2E2E2E2E2E2E2E2E2E2E2E2E2E2E2E2E2E2E22DE2E22DE2E2E2E2E2E2E2E2
310
2DE2E2E2E2E2E2E2E2E2E2E2E2E2E2E2E2E2E2E2E2E2E2E2E2E2E2E2E2E2E2E2E2E2E2E2E2E2E2E2E2E2F5E2E2E2E2E2E2E2E2E2F5E2E2E2E2E2E2E2E2E2E2E2E2E2E2E2E2E2E2E2E2E2E2E2E2E2E2E2E2E2E2E2E2E2E2DCE2E2E2BEE2E2E2E2E2E2E2E2E2E2E2E2E2E2E2E2E2E2E2E2E2E2E2E2E2E2E2E2E2E2E2E2E2E2E2
310
E2E2E2E2E2E2E2E2E2E2E2E2E2E2E2E2E2E2E2E2E2E2E2E2E2E2E2E2E2E2E2E2E2E2E2BEE2E2E2DCE2E2E2E2E2E2E2E2E2E2E2E2E2E2E2E2E2E2F5E2E2E2E2E2E2E2E2F5E2E2E2E2E2E2E2E22DE2E2E2E22D2DE2E2E2F5E2E2E2E2E2E2E2E2E2F5E2E2E2E2E2E2E2E2E2E2E2E2E2E2E2E2E2E2E2E22DE2E22DE2E2E2E2E2E2
310
E2E2E2E2E2E2E2E2E2E2E2E2E2E2E2E2E2E2E2E2E2E2E2E2E2E2E2E2E2E2E2E2E2E2E2E2E2E2E2E2E2E2E2E2F5E2F5F5F5F5F5F5E2E2F5E2E2E2E2E2E2E2E2E2E2E2E2E2F5F5F5F5F5F5E2E2E2E2E2E2E2E2E2E2E2E2E2E2E2DCE2E2E2BEE2E2E2E2E2E2E2E2E2E2E2E2E2E2E2E2E2E2E2E2E2E2E2E2E2E2E2E2E2E2E2E2E2
310
E2E2E2E2E2E2E2E2E2E2E2E2E2E2E2E2E2E2E2E2E2E2E2E2E2E2E2E2E2E2E2E2E2E2E2E2E2BEE2E2E2DCE2E2E2E2E2E2E2E2E2E2E2E2E2E2E2E2E2E2F5F5F5F5F5F5F5F5F5F5E2E2E2E2E2E2E2E22DE2E2E2E22D2D2D2D2DF5F5F5F5F5F5F5F5F5F5F5E2E2E2E2E2E2E2E2E2E2E2E2E2E2E2E22D2D2D2DF52D2D2D2D2D2D2D
310
E2E2E2E2E2E2E2E2E2E2E2E2E2E2E2E2E2E2E2E2E2E2E2E2E2E2E2E2E2E2E2E2E2E2E2E2E2E2E2E2E2E2E2E2E2E2F5F5F5F5F5F5F5F5F5F5F5E2E2E2E2E2E2E2E2E2F5F5F5F5E2E2E2E2E2E2F5F5F5F5E2E2E2E2E2E2E2E2E2E2E2DCE2E2E2BEE2E2E2E2E2E2E2E2E2E2E2E2E2E2E2E2E2E2E2E2E2E2E2E2E2E2E2E2E2E2E2
310
E2E2E2E2E2E2E2E2E2E2E2E2E2E2E2E2E2E2E2E2E2E2E2E2E2E2E2E2E2E2E2E2E2E2E2E2E2E2E2BEE2E2E2DCE2E2E2E2E2E2E2E2E2E2E2E2E2E2E2E2E2E2F5F5F5F5F5F5F5F5F5F5E2E2E2E2E2E2E2E22DE2E2E2E2E22DE2E2E2F5E2E2E2E2F5F5F5F5F5F5E2E2E2E2E2E2E2E2E2E2E2E2E2E2E2E2E2E2E2E2BEBEBEBEE2E2
310
E2E2E2E2E2E2E2E2E2E2E2E2E2E2E2E2E2E2E2E2E2E2E2E2E2E2E2E2E2E2E2E2E2E2E2E2E2E2E2E2E2E2E2E2E2E2E2E2F5F5E2E2E2E2E2E2E2F5F5E2E2E2E2E2E2F5F5F5E2E2E2E2F5F5F5F5F5F5E2E2F5F5F5E2E2E2E2E2E2E2E2E2E2DCE2E2E2BEE2E2E2E2E2E2E2E2E2E2E2E2E2E2E2E2E2E2E2E2E2E2E2E2E2E2E2E2E2
310
E2E2E2E2E2E2E2E2E2E2E2E2E2E2E2E2E2E2E2E2E2E2E2E2E2E2E2E2E2E2E2E2E2E2E2E2E2E2E2E2E2BEE2E2E2DCE2E2E2E2E2E2E2E2E2E2E2E2E2E2E2E2E2E2F5E2E2E2F5F5E2E2E2F5E2E2E2E2E2E2E2E22DE2E2BEBEBE2DE2E2E2F5F5F5F5F5E2E2E2E2E2F5E2E2E2E2E2E2E2E2E2E2E2E2E2E2E2E2E2E2E2E2BEBEBEBE
310
E2E2E2E2E2E2E2E2E22DE2E2E2E2E2E2E2E2E2E2E2E2E2E2E2E2E2E2E2E2E2E2E2E2E2E2E2E2E2E2E2E2E2E2E2E2E2E2E2E2F5E2E2E2E2E2E2F5F5F5F5E2E2E2F5F5F5E2E2E2F5F5F5F5E2E2E2E2E2E2F5F5F5F5F5E2E2E2E2E2E2E2E2E2E2DCE2E2E2BEE2E2E2E2E2E2E2E2E2E2E2E2E2E2E2E2E2E2E2E2E2E2E2E2E2E2E2
310
E2E2E2E2E2E2E2E2E2E2E2E2E2E2E2E2E2E2E2E2E2E2E2E2E2E2E2E2E2E2E2E2E2E2E2E2E2E2E2E2E2E2E2BEE2E2E2DCE2E2E2E2E2E2E2E2E2E2E2E2E2E2E2E2E2E2F5E2E2E2F5F5E2E2E2F5E2E2E2E2E2E2E2E22DE2E2BEBEBE2DE2E2E2F5F5E2E2E2E2E2E2E2E2F5E2E2E2E2E2E2E2E2E2E2E2E2E2E2E2E2E2E2E2E2BEE2
310
BEE2E2E2E2E2E2E2E2E2E22D2DE2E2E2E2E2E2E2E2E2E2E2E2E2E2E2E2E2E2E2E2E2E2E2E2E2E2E2E2E2E2E2E2E2E2E2E2E2E2E2F5E2E2E2E2E2E2E2F5F5F5F5F5F5E2E2E2F5F5F5E2E2E2E2E2E2E2E2E2E2E2E2E2E2E2E2E2E2E2E2E2E2E2E2E2DCE2E2E2BEE2E2E2E2E2E2E2E2E2E2E2E2E2E2E2E2E2E2E2E2E2E2E2E2E2
310
E2E2E2E2E2E2E2E2E2E2E2E2E2E2E2E2E2E2E2E2E2E2E2E2E2E2E2E2E2E2E2E2E2E2E2E2E2E2E2E2E2E2E2E2E2BEE2E2E2DCE2E2E2E2E2E2E2E2E2E2E2E2E2E2E2E2E2E2F5E2E2E2F5F5E2E2E2F5E2E2E2E2E2E2E2E22DE2E2BEBEBE2DE2E2E2F5E2E2E2E2E2E2E2E2E2F5F5F5F5F5F5F5F5F5F5F5F5F5F5F5F5F5F5F5F5F5
310
F5F5E22D2D2D2D2D2D2D2D2D2D2D2DE2E2E2E2E2E2E2E2E2E2E2E2E2E2E2E2E2E2E2E2E2E2E2E2E2E2E2E2E2E2E2E2E2E2E2E2E2E2E2F5E2E2E2E2E2E2F5F5F5E2E2E2E2F5F5F5E2E2E2E2E2E2E2E2E2E2E2E2E2E2E2E2E2E2E2E2E2E2E2E2E2E2E2E2DCE2E2E2BEE2E2E2E2E2E2E2E2E2E2E2E2E2E2E2E2E2E2E2E2E2E2E2
310
E2E2E2E2E2E2E2E2E2E2E2E2E2E2E2E2E2E2E2E2E2E2E2E2E2E2E2E2E2E2E2E2E2E2E2E2E2E2E2E2E2E2E2E2E2E2E2BEE2E2E2DCE2E2E2E2E2E2E2E2E2E2E2E2E2E2E2E2E2E2F5E2E2F5F5F5F5E2E2F5E2E2E2E2E2E2E2E22DE2E2BEBEBE2DE2E2E2F5E2E2E2E2E2E2E2E2E2F5E2E2E2E2E2E2E2E2E2E2E2E2E2E2E2E2E2E2
310
E2E2E2E2F5F5F5F5E2E2E2E2E2E2E22DE2E2E2E2E2E2E2E2E2E2E2E2E2E2E2E2E2E2E2E2E2E2E2E2E2E2E2E2E2E2E2E2E2E2E2E2E2E2E2E2F5E2F5F5F5F5F5F5F5E2F5F5F5F5E2E2E2E2E2E2E2E2E2E2E2E2E2E2E2E2E2E2E2E2E2E2E2E2E2E2E2E2E2E2E2DCE2E2E2BEE2E2E2E2E2E2E2E2E2E2E2E2E2E2E2E2E2E2E2E2E2
310
E2E2E2E2E2E2E2E2E2E2E2E2E2E2E2E2E2E2E2E2E2E2E2E2E2E2E2E2E2E2E2E2E2E2E2E2E2E2E2E2E2E2E2E2E2E2E2E2E2BEE2E2E2DCE2E2E2E2E2E2E2E2E2E2E2E2E2E2E2E2E2E2F5E2E2F5F5F5F5E2E2F5E2E2E2E2E2E2E2E22DE2E2E2E2E22DE2E2E2F5E2E2E2E2E2E2E2E2E2BEBEBEBEBEBEBEBEBEBEBEBEBEBEBEBEBE
310
BEBEBEBEBEBEBEBEBEE2F5F5E2E2E2E2E2F5BEBE2DE2E2E2E2E2E2E2E2E2E2E2E2E2E2E2E2E2E2E2E2E2E2E2E2E2E2E2E2E2E2E2E2E2E2E2E2E2F5F5F5F5E2E2F5F5F5F5F5E2E2E2E2E2E2E2E2E2E2E2E2E2E2E2E2E2E2E2E2E2E2E2E2E2E2E2E2E2E2E2E2E2E2DCE2E2E2BEE2E2E2E2E2E2E2E2E2E2E2E2E2E2E2E2E2E2E2
310
E2E2E2E2E2E2E2E2E2E2E2E2E2E2E2E2E2E2E2E2E2E2E2E2E2E2E2E2E2E2E2E2E2E2E2E2E2E2E2E2E2E2E2E2E2E2E2E2E2E2E2BEE2E2E2DCE2E2E2E2E2E2E2E2E2E2E2E2E2E2E2E2E2E2F5F5F5F5F5F5F5F5F5F5E2E2E2E2E2E2E22D2D2D2D2D2D2D2D2D2D2DF5F5F5F5F5F5F5F5F5F5F5F5F5F5F5F5F5F5F5F5F5F5F5F5F5
310
F5F5F5F5F5F5F5F52DF5F5BEBEBEF5F5E2E2E22DBEBE2DE2E2E2E2E2E2E2E2E2E2E2E2E2E2E2E2E2E2E2E2E2E2E2E2E2E2E2E2E2E2E2E2E2E2E2E2E2F5F5E2E2E2E2E2E2E2F5F5E2E2E2E2E2E2E2E2E2E2E2E2E2E2E2E2E2E2E2E2E2E2E2E2E2E2E2E2E2E2E2E2E2E2DCE2E2E2BEE2E2E2E2E2E2E2E2E2E2E2E2E2E2E2E2E2
310
E2E2E2E2E2E2E2E2E2E2E2E2E2E2E2E2E2E2E2E2E2E2E2E2E2E2E2E2E2E2E2E2E2E2E2E2E2E2E2E2E2E2E2E2E2E2E2E2E2E2E2E2E2BEE2E2E2DCE2E2E2E2E2E2E2E2E2E2E2E2E2E2E2E2E2E22DE2E2E2E2E2E2E2E22DE2E2E2E2E2E2E2E2E2E2E2E2E2E2E2E2E2E22DE2E2E2E2E2E2E2E2E22DE2E2E2E2E2E2E2E2E2E2E2E2
310
E2E2E2E2E2E2E2E2E2E22DE2E2F5F5E2BE2D2D2DE2BEBE2DE2E2E2E2E2E2E2E2E2E2E2E2E2E2E2E2E2E2E2E2E2E2E2E2E2E2E2E2E2E2E2E2E2E2E2E2E2E2E2F5F5F5F5F5F5F5F5E2E2E2E2E2E2E2E2E2E2E2E2E2E2E2E2E2E2E2E2E2E2E2E2E2E2E2E2E2E2E2E2E2E2E2E2DCE2E2E2BEE2E2E2E2E2E2E2E2E2E2E2E2E2E2E2
310
E2E2E2E2E2E2E2E2E2E2E2E2E2E2E2E2E2E2E2E2E2E2E2E2E2E2E2E2E2E2E2E2E2E2E2E2E2E2E2E2E2E2E2E2E2E2E2E2E2E2E2E2E2E2E2BEE2E2E2DCE2E2E2E2E2E2E2E2E2E2E2E2E2E2E2E2E2E22DE2E2E2E2E2E2E2E22DE2E2E2E2E2E2E2E2E2E2E2E2E2E2E2E2E2E22DE2E2E2E2E2E2E2E2E22DE2E2E2E2E2E2E2E2E2E2
310
E2E2E2E2E2E2E2E2E2E2E22DE2E2E2E2E2F5F52DE2E22D2DE22DE2E2E2E2E2E2E2E2E2E2E2E2E2E2E2E2E2E2E2E2E2E2E2E2E2E2E2E2E2E2E2E2E2E2E2E2E2E2E2E2E2E2E2E2E2E2E2E2E2E2E2E2E2E2E2E2E2E2E2E2E2E2E2E2E2E2E2E2E2E2E2E2E2E2E2E2E2E2E2E2E2E2E2DCE2E2E2BEE2E2E2E2E2E2E2E2E2E2E2E2E2
310
E2E2E2E2E2E2E2E2E2E2E2E2E2E2E2E2E2E2E2E2E2E2E2E2E2E2E2E2E2E2E2E2E2E2E2E2E2E2E2E2E2E2E2E2E2E2E2E2E2E2E2E2E2E2E2E2E2BEE2E2E2DCE2E2E2E2E2E2E2E2E2E2E2E2E2E2E2E2E2E22DE2E2E2E2E2E2E2E22DE2E2E2E2E2E2E2E2E2E2E2E2E2E2E2E2E2E22DE2E2E2E2E2E2E2E2E22D2D2D2D2D2D2D2D2D
310
2D2D2D2D2D2D2D2D2D2D2D2D2D2D2D2D2D2D2D2D2DF52DE22DE2F52DBEBEBEE2E2E2E2E2E2E2E2E2E2E2E2E2E2E2E2E2E2E2E2E2E2E2E2E2E2E2E2E2E2E2E2E2E2E2E2E2E2E2E2E2E2E2E2E2E2E2E2E2E2E2E2E2E2E2E2E2E2E2E2E2E2E2E2E2E2E2E2E2E2E2E2E2E2E2E2E2E2E2E2DCE2E2E2BEE2E2E2E2E2E2E2E2E2E2E2
310
E2E2E2E2E2E2E2E2E2E2E2E2E2E2E2E2E2E2E2E2E2E2E2E2E2E2E2E2E2E2E2E2E2E2E2E2E2E2E2E2E2E2E2E2E2E2E2E2E2E2E2E2E2E2E2E2E2E2E2BEE2E2E2DCE2E2E2E2E2E2E2E2E2E2E2E2E2E2E2E2E2E22D2D2D2D2D2D2D2D2DF5E2E2E2E2E2E2E2E2E2E2E2E2E2E2E2E2E2E22DE2E2E2E2E2E2E2E2E22DE2E2E2E2E2E2
310
E2E2E2E2E2E2BEBEBEBEBEE2E2E22DF52DE2E2E2E2E22D2DE22D2DE22DE2BEBEBEE2E2E2E2E2E2E2E2E2E2E2E2E2E2E2E2E2E2E2E2E2E2E2E2E2E2E2E2E2E2E2E2E2E2E2E2E2E2E2E2E2E2E2E2E2E2E2E2E2E2E2E2E2E2E2E2E2E2E2E2E2E2E2E2E2E2E2E2E2E2E2E2E2E2E2E2E2E2E2E2DCE2E2E2BEE2E2E2E2E2E2E2E2E2
310
E2E2E2E2E2E2E2E2E2E2E2E2E2E2E2E2E2E2E2E2E2E2E2E2E2E2E2E2E2E2E2E2E2E2E2E2E2E2E2E2E2E2E2E2E2E2E2E2E2E2E2E2E2E2E2E2E2E2E2E2E2BEE2E2E2DCE2E2E2E2E2E2E2E2E2E2E2E2E2E2E2E2E2E22DE2BEBEE2BEBEBEE22DE2E2E2E2E2E2E2E2E2E2E2E2E2E2E2E2E2E22DE2E2E2E2E2E2E2E2E2E2E2E2E2E2
310
E2E2E2E2E2E2E2E2BEE2BEBEBEE2E2E22DE2BE2DE2E2E22DE22DE2E2E22D2DBEBEBEE2E2E2E2E2E2E2E2E2E2E2E2E2E2E2E2E2E2E2E2E2E2E2E2E2E2E2E2E2E2E2E2E2E2E2E2E2E2E2E2E2E2E2E2E2E2E2E2E2E2E2E2E2E2E2E2E2E2E2E2E2E2E2E2E2E2E2E2E2E2E2E2E2E2E2E2E2E2E2E2E2DCE2E2E2BEE2E2E2E2E2E2E2
310
E2E2E2E2E2E2E2E2E2E2E2E2E2E2E2E2E2E2E2E2E2E2E2E2E2E2E2E2E2E2E2E2E2E2E2E2E2E2E2E2E2E2E2E2E2E2E2E2E2E2E2E2E2E2E2E2E2E2E2E2E2E2E2BEE2E2E2DCE2E2E2E2E2E2E2E2E2E2E2E2E2E2E2E2E2E2E2E2BEBEBEBEBEBEE2E2E2E2E2E2E2E2E2E2E2E2E2E2E2E2E2E2E2E22DE2E2E2E2E2E2E2E2E2E2E2E2
310
E2E2E2E2E2E2E2E2E2E2BEE2BEBEBEE2E2E2E2E2BEBEBE2DE22DE22DE2E22D2DE2BEBEBEE2E2E2E2E2E2E2E2E2E2E2E2E2E2E2E2E2E2E2E2E2E2E2E2E2E2E2E2E2E2E2E2E2E2E2E2E2E2E2E2E2E2E2E2E2E2E2E2E2E2E2E2E2E2E2E2E2E2E2E2E2E2E2E2E2E2E2E2E2E2E2E2E2E2E2E2E2E2E2E2E2DCE2E2E2BEE2E2E2E2E2
310
E2E2E2E2E2E2E2E2E2E2E2E2E2E2E2E2E2E2E2E2E2E2E2E2E2E2E2E2E2E2E2E2E2E2E2E2E2E2E2E2E2E2E2E2E2E2E2E2E2E2E2E2E2E2E2E2E2E2E2E2E2E2E2E2E2BEE2E2E2DCE2E2E2E2E2E2E2E2E2E2E2E2E2E2E2E2E2E2E2E2E2BEE2BEBEBEE2E2E2E2E2E2E2E2E2E2E2E2E2E2E2E2E2E2E2E22DE2E2E2E2E2E2E2E2E2E2
310
E2E2E2E2E2E2E2E2E2E2E2E2E2E2E2E2E2E2E2E2E2BEBEBEBEE22D2DE22DE2E2E22DE2BEBEE2E2E2E2E2E2E2E2E2E2E2E2E2E2E2E2E2E2E2E2E2E2E2E2E2E2E2E2E2E2E2E2E2E2E2E2E2E2E2E2E2E2E2E2E2E2E2E2E2E2E2E2E2E2E2E2E2E2E2E2E2E2E2E2E2E2E2E2E2E2E2E2E2E2E2E2E2E2E2E2E2E2DCE2E2E2BEE2E2E2
310
E2E2E2E2E2E2E2E2E2E2E2E2E2E2E2E2E2E2E2E2E2E2E2E2E2E2E2E2E2E2E2E2E2E2E2E2E2E2E2E2E2E2E2E2E2E2E2E2E2E2E2E2E2E2E2E2E2E2E2E2E2E2E2E2E2E2E2BEE2E2E2DCE2E2E2E2E2E2E2E2E2E2E2E2E2E2E2E2E2E2E2E2E2E2E2E2E2E2E2E2E2E2E2E2E2E2E2E2E2E2E2E2E2E2E2E2E2E22DE2E2E2E2E2E2E2E2
310
E2E2E2E2E2E2E2E2E2E2E2E2E2E2E2E2E2E2E2E2E2E2E2E2E2BEBEE2E2E2E22DE2E22DE2E2E2E2E2E2E2E2E2E2E2E2E2E2E2E2E2E2E2E2E2E2E2E2E2E2E2E2E2E2E2E2E2E2E2E2E2E2E2E2E2E2E2E2E2E2E2E2E2E2E2E2E2E2E2E2E2E2E2E2E2E2E2E2E2E2E2E2E2E2E2E2E2E2E2E2E2E2E2E2E2E2E2E2E2E2DCE2E2E2BEE2
310
E2E2E2E2E2E2E2E2E2E2E2E2E2E2E2E2E2E2E2E2E2E2E2E2E2E2E2E2E2E2E2E2E2E2E2E2E2E2E2E2E2E2E2E2E2E2E2E2E2E2E2E2E2E2E2E2E2E2E2E2E2E2E2E2E2E2E2E2E2BEE2E2E2DCE2E2E2E2E2E2E2E2E2E2E2E2E2E2E2E2E2E2E2E2E2E2E2E2E2E2E2E2E2E2E2E2E2E2E2E2E2E2E2E2E2E2E2E2E2E22DE22DE2E2E2E2
310
E2E2E2E2E2E2E2E2E2E2E2E2E2E2E2E2E2E2E2E2E2E2E2E2E2E2E2E2E2E2E22DE22DE2E2E2E2E2E2E2E2E2E2E2E2E2E2E2E2E2E2E2E2E2E2E2E2E2E2E2E2E2E2E2E2E2E2E2E2E2E2E2E2E2E2E2E2E2E2E2E2E2E2E2E2E2E2E2E2E2E2E2E2E2E2E2E2E2E2E2E2E2E2E2E2E2E2E2E2E2E2E2E2E2E2E2E2E2E2E2E2E2DCE2E2E2
310
BEE2E2E2E2E2E2E2E2E2E2E2E2E2E2E2E2E2E2E2E2E2E2E2E2E2E2E2E2E2E2E2E2E2E2E2E2E2E2E2E2E2E2E2E2E2E2E2E2E2E2E2E2E2E2E2E2E2E2E2E2E2E2E2E2E2E2E2E2E2E2BEE2E2E2DCE2E2E2E2E2E2E2E2E2E2E2E2E2E2E2E2E2E2E2E2E2E2E2E2E2E2E2E2E2E2E2E2E2E2E2E2E2E2E2E2E2E2E2E2E2E22D2D2D2D2D
310
2D2D2D2D2D2D2D2D2D2D2D2D2DBEBEBEBEBE2D2D2D2D2D2D2D2D2D2D2D2D2D2D2D2D2DF5E2E2E2E2E2E2E2E2E2E2E2E2E2E2E2E2E2E2E2E2E2E2E2E2E2E2E2E2E2E2E2E2E2E2E2E2E2E2E2E2E2E2E2E2E2E2E2E2E2E2E2E2E2E2E2E2E2E2E2E2E2E2E2E2E2E2E2E2E2E2E2E2E2E2E2E2E2E2E2E2E2E2E2E2E2E2E2E2E2DCE2
310
E2E2BEE2E2E2E2E2E2E2E2E2E2E2E2E2E2E2E2E2E2E2E2E2E2E2E2E2E2E2E2E2E2E2E2E2E2E2E2E2E2E2E2E2E2E2E2E2E2E2E2E2E2E2E2E2E2E2E2E2E2E2E2E2E2E2E2E2E2E2E2E2E2BEE2E2E2DCE2E2E2E2E2E2E2E2E2E2E2E2E2E2E2E2E2E2E2E2E2E2E2E2E2E2E2E2E2E2E2E2E2E2E2E2E2E2E2E2E2E2E2E2E2E2E2E2E2
310
E2E2E2E2E2E2E2E2E2E2E2E2E2E2E2BEBEBEBEBEE2E2E2E2E2E2E2E2E2E2E2E2E2E2E2E2E2E2E2E2E2E2E2E2E2E2E2E2E2E2E2E2E2E2E2E2E2E2E2E2E2E2E2E2E2E2E2E2E2E2E2E2E2E2E2E2E2E2E2E2E2E2E2E2E2E2E2E2E2E2E2E2E2E2E2E2E2E2E2E2E2E2E2E2E2E2E2E2E2E2E2E2E2E2E2E2E2E2E2E2E2E2E2E2E2E2E2
310
DCE2E2E2BEE2E2E2E2E2E2E2E2E2E2E2E2E2E2E2E2E2E2E2E2E2E2E2E2E2E2E2E2E2E2E2E2E2E2E2E2E2E2E2E2E2E2E2E2E2E2E2E2E2E2E2E2E2E2E2E2E2E2E2E2E2E2E2E2E2E2E2E2E2E2BEE2E2E2DCE2E2E2E2E2E2E2E2E2E2E2E2E2E2E2E2E2E2E2E2E2E2E2E2E2E2E2E2E2E2E2E2E2E2E2E2E2E2E2E2E2E2E2E2E2E2E2
310
E2E2E2E2E2E2E2E2E2E2E2E2E2E2E2E2E2BEBEBEBEBEE2E2E2E2E2E2E2E2E2E2E2E2E2E2E2E2E2E2E2E2E2E2E2E2E2E2E2E2E2E2E2E2E2E2E2E2E2E2E2E2E2E2E2E2E2E2E2E2E2E2E2E2E2E2E2E2E2E2E2E2E2E2E2E2E2E2E2E2E2E2E2E2E2E2E2E2E2E2E2E2E2E2E2E2E2E2E2E2E2E2E2E2E2E2E2E2E2E2E2E2E2E2E2E2E2
310
E2E2DCE2E2E2BEE2E2E2E2E2E2E2E2E2E2E2E2E2E2E2E2E2E2E2E2E2E2E2E2E2E2E2E2E2E2E2E2E2E2E2E2E2E2E2E2E2E2E2E2E2E2E2E2E2E2E2E2E2E2E2E2E2E2E2E2E2E2E2E2E2E2E2E2E2E2BEE2E2E2DCE2E2E2E2E2E2E2E2E2E2E2E2E2E2E2E2E2E2E2E2E2E2E2E2E2E2E2E2E2E2E2E2E2E2E2E2E2E2E2E2E2E2E2E2E2
310
E2E2E2E2E2E2E2E2E2E2E2E2E2E2E2E2E2E2E2E2E2E2E2E2E2E2E2E2E2E2E2E2E2E2E2E2E2E2E2E2E2E2E2E2E2E2E2E2E2E2E2E2E2E2E2E2E2E2E2E2E2E2E2E2E2E2E2E2E2E2E2E2E2E2E2E2E2E2E2E2E2E2E2E2E2E2E2E2E2E2E2E2E2E2E2E2E2E2E2E2E2E2E2E2E2E2E2E2E2E2E2E2E2E2E2E2E2E2E2E2E2E2E2E2E2E2E2
310
E2E2E2E2DCE2E2E2BEE2E2E2E2E2E2E2E2E2E2E2E2E2E2E2E2E2E2E2E2E2E2E2E2E2E2E2E2E2E2E2E2E2E2E2E2E2E2E2E2E2E2E2E2E2E2E2E2E2E2E2E2E2E2E2E2E2E2E2E2E2E2E2E2E2E2E2E2E2E2BEE2E2E2DCE2E2E2E2E2E2E2E2E2E2E2E2E2E2E2E2E2E2E2E2E2E2E2E2E2E2E2E2E2E2E2E2E2E2E2E2E2E2E2E2E2E2E2
310
E2E2E2E2E2E2E2E2E2E2E2E2E2E2E2E2E2E2E2E2E2E2E2E2E2E2E2E2E2E2E2E2E2E2E2E2E2E2E2E2E2E2E2E2E2E2E2E2E2E2E2E2E2E2E2E2E2E2E2E2E2E2E2E2E2E2E2E2E2E2E2E2E2E2E2E2E2E2E2E2E2E2E2E2E2E2E2E2E2E2E2E2E2E2E2E2E2E2E2E2E2E2E2E2E2E2E2E2E2E2E2E2E2E2E2E2E2E2E2E2E2E2E2E2E2E2E2
310
E2E2E2E2E2E2DCE2E2E2BEE2E2E2E2E2E2E2E2E2E2E2E2E2E2E2E2E2E2E2E2E2E2E2E2E2E2E2E2E2E2E2E2E2E2E2E2E2E2E2E2E2E2E2E2E2E2E2E2E2E2E2E2E2E2E2E2E2E2E2E2E2E2E2E2E2E2E2E2E2E2BEE2E2E2DCE2E2E2E2E2E2E2E2E2E2E2E2E2E2E2E2E2E2E2E2E2E2E2E2E2E2E2E2E2E2E2E2E2E2E2E2E2E2E2E2E2
310
E2E2E2E2E2E2E2E2E2E2E2E2E2E2E2E2E2E2E2E2E2E2E2E2E2E2E2E2E2E2E2E2E2E2E2E2E2E2E2E2E2E2E2E2E2E2E2E2E2E2E2E2E2E2E2E2E2E2E2E2E2E2E2E2E2E2E2E2E2E2E2E2E2E2E2E2E2E2E2E2E2E2E2E2E2E2E2E2E2E2E2E2E2E2E2E2E2E2E2E2E2E2E2E2E2E2E2E2E2E2E2E2E2E2E2E2E2E2E2E2E2E2E2E2E2E2E2
310
E2E2E2E2E2E2E2E2DCE2E2E2BEE2E2E2E2E2E2E2E2E2E2E2E2E2E2E2E2E2E2E2E2E2E2E2E2E2E2E2E2E2E2E2E2E2E2E2E2E2E2E2E2E2E2E2E2E2E2E2E2E2E2E2E2E2E2E2E2E2E2E2E2E2E2E2E2E2E2E2E2E2E2BEE2E2E2DCDCDCDCDCDCDCDCDCDCDCDCDCDCDCDCDCDCDCDCDCDCDCDCDCDCDCDCDCDCDCDCDCDCDCDCDCDCDCDC
310
DCDCDCDCDCDCDCDCDCDCDCDCDCDCDCDCDCDCDCDCDCDCDCDCDCDCDCDCDCDCDCDCDCDCDCDCDCDCDCDCDCDCDCDCDCDCDCDCDCDCDCDCDCDCDCDCDCDCDCDCDCDCDCDCDCDCDCDCDCDCDCDCDCDCDCDCDCDCDCDCDCDCDCDCDCDCDCDCDCDCDCDCDCDCDCDCDCDCDCDCDCDCDCDCDCDCDCDCDCDCDCDCDCDCDCDCDCDCDCDCDCDCDCDCDCDCDC
310
DCDCDCDCDCDCDCDCDCDCDCE2E2E2BEE2E2E2E2E2E2E2E2E2E2E2E2E2E2E2E2E2E2E2E2E2E2E2E2E2E2E2E2E2E2E2E2E2E2E2E2E2E2E2E2E2E2E2E2E2E2E2E2E2E2E2E2E2E2E2E2E2E2E2E2E2E2E2E2E2E2E2E2E2E2BEE2E2E2E2E2E2E2E2E2E2E2E2E2E2E2E2E2E2E2E2E2E2E2E2E2E2E2E2E2E2E2E2E2E2E2E2E2E2E2E2E2
310
E2E2E2E2E2E2E2E2E2E2E2E2E2E2E2E2E2E2E2E2E2E2E2E2E2E2E2E2E2E2E2E2E2E2E2E2E2E2E2E2E2E2E2E2E2E2E2E2E2E2E2E2E2E2E2E2E2E2E2E2E2E2E2E2E2E2E2E2E2E2E2E2E2E2E2E2E2E2E2E2E2E2E2E2E2E2E2E2E2E2E2E2E2E2E2E2E2E2E2E2E2E2E2E2E2E2E2E2E2E2E2E2E2E2E2E2E2E2E2E2E2E2E2E2E2E2E2
310
E2E2E2E2E2E2E2E2E2E2E2E2E2E2E2E2BEE2E2E2E2E2E2E2E2E2E2E2E2E2E2E2E2E2E2E2E2E2E2E2E2E2E2E2E2E2E2E2E2E2E2E2E2E2E2E2E2E2E2E2E2E2E2E2E2E2E2E2E2E2E2E2E2E2E2E2E2E2E2E2E2E2E2E2E2E2E2BEE2E2E2E2E2E2E2E2E2E2E2E2E2E2E2E2E2E2E2E2E2E2E2E2E2E2E2E2E2E2E2E2E2E2E2E2E2E2E2
310
E2E2E2E2E2E2E2E2E2E2E2E2E2E2E2E2E2E2E2E2E2E2E2E2E2E2E2E2E2E2E2E2E2E2E2E2E2E2E2E2E2E2E2E2E2E2E2E2E2E2E2E2E2E2E2E2E2E2E2E2E2E2E2E2E2E2E2E2E2E2E2E2E2E2E2E2E2E2E2E2E2E2E2E2E2E2E2E2E2E2E2E2E2E2E2E2E2E2E2E2E2E2E2E2E2E2E2E2E2E2E2E2E2E2E2E2E2E2E2E2E2E2E2E2E2E2E2
310
E2E2E2E2E2E2E2E2E2E2E2E2E2E2E2E2E2E2BEE2E2E2E2E2E2E2E2E2E2E2E2E2E2E2E2E2E2E2E2E2E2E2E2E2E2E2E2E2E2E2E2E2E2E2E2E2E2E2E2E2E2E2E2E2E2E2E2E2E2E2E2E2E2E2E2E2E2E2E2E2E2E2E2E2E2E2E2E2E2BEBEBEBEBEBEBEBEBEBEBEBEBEBEBEBEBEBEBEBEBEBEBEBEBEBEBEBEBEBEBEBEBEBEBEBEBEBE
310
BEBEBEBEBEBEBEBEBEBEBEBEBEBEBEBEBEBEBEBEBEBEBEBEBEBEBEBEBEBEBEBEBEBEBEBEBEBEBEBEBEBEBEBEBEBEBEBEBEBEBEBEBEBEBEBEBEBEBEBEBEBEBEBEBEBEBEBEBEBEBEBEBEBEBEBEBEBEBEBEBEBEBEBEBEBEBEBEBEBEBEBEBEBEBEBEBEBEBEBEBEBEBEBEBEBEBEBEBEBEBEBEBEBEBEBEBEBEBEBEBEBEBEBEBEBEBE
310
BEBEBEBEBEBEBEBEBEBEBEBEBEBEBEBEBEBEBEBEBEE2E2E2E2E2E2E2E2E2E2E2E2E2E2E2E2E2E2E2E2E2E2E2E2E2E2E2E2E2E2E2E2E2E2E2E2E2E2E2E2E2E2E2E2E2E2E2E2E2E2E2E2E2E2E2E2E2E2E2E2E2E2E2E2E2E2E2E2E2E2E2E2E2E2E2E2E2E2E2E2E2E2E2E2E2E2E2E2E2E2E2E2E2E2E2E2E2E2E2E2E2E2E2E2E2E2
310
E2E2E2E2E2E2E2E2E2E2E2E2E2E2E2E2E2E2E2E2E2E2E2E2E2E2E2E2E2E2E2E2E2E2E2E2E2E2E2E2E2E2E2E2E2E2E2E2E2E2E2E2E2E2E2E2E2E2E2E2E2E2E2E2E2E2E2E2E2E2E2E2E2E2E2E2E2E2E2E2E2E2E2E2E2E2E2E2E2E2E2E2E2E2E2E2E2E2E2E2E2E2E2E2E2E2E2E2E2E2E2E2E2E2E2E2E2E2E2E2E2E2E2E2E2E2E2
310
E2E2E2E2E2E2E2E2E2E2E2E2E2E2E2E2E2E2E2E2E2E2E2E2E2E2E2E2E2E2E2E2E2E2E2E2E2E2E2E2E2E2E2E2E2E2E2E2E2E2E2E2E2E2E2E2E2E2
  0
XRECORD
  5
46
102
{ACAD_REACTORS
330
45
102
}
330
45
100
AcDbXrecord
280
     1
270
     1
271
     1
  0
XRECORD
  5
47
102
{ACAD_REACTORS
330
45
102
}
330
45
100
AcDbXrecord
280
     1
270
     1
271
     1
  0
XRECORD
  5
48
102
{ACAD_REACTORS
330
45
102
}
330
45
100
AcDbXrecord
280
     1
270
     1
271
     1
  0
XRECORD
  5
49
102
{ACAD_REACTORS
330
45
102
}
330
45
100
AcDbXrecord
280
     1
270
     1
271
     1
  0
XRECORD
  5
4A
102
{ACAD_REACTORS
330
45
102
}
330
45
100
AcDbXrecord
280
     1
270
     1
271
     1
  0
XRECORD
  5
4B
102
{ACAD_REACTORS
330
45
102
}
330
45
100
AcDbXrecord
280
     1
270
     1
271
     1
  0
XRECORD
  5
3E
102
{ACAD_REACTORS
330
3D
102
}
330
3D
100
AcDbXrecord
280
     1
270
     1
271
     1
  0
XRECORD
  5
3F
102
{ACAD_REACTORS
330
3D
102
}
330
3D
100
AcDbXrecord
280
     1
270
     1
271
     1
  0
XRECORD
  5
40
102
{ACAD_REACTORS
330
3D
102
}
330
3D
100
AcDbXrecord
280
     1
270
     1
271
     1
  0
XRECORD
  5
41
102
{ACAD_REACTORS
330
3D
102
}
330
3D
100
AcDbXrecord
280
     1
270
     1
271
     1
  0
XRECORD
  5
42
102
{ACAD_REACTORS
330
3D
102
}
330
3D
100
AcDbXrecord
280
     1
270
     1
271
     1
  0
XRECORD
  5
43
102
{ACAD_REACTORS
330
3D
102
}
330
3D
100
AcDbXrecord
280
     1
270
     1
271
     1
  0
XRECORD
  5
F
102
{ACAD_REACTORS
330
E
102
}
330
E
100
AcDbXrecord
280
     1
270
     1
271
     1
  0
XRECORD
  5
10
102
{ACAD_REACTORS
330
E
102
}
330
E
100
AcDbXrecord
280
     1
270
     1
271
     1
  0
XRECORD
  5
11
102
{ACAD_REACTORS
330
E
102
}
330
E
100
AcDbXrecord
280
     1
270
     1
271
     1
  0
XRECORD
  5
12
102
{ACAD_REACTORS
330
E
102
}
330
E
100
AcDbXrecord
280
     1
270
     1
271
     1
  0
XRECORD
  5
13
102
{ACAD_REACTORS
330
E
102
}
330
E
100
AcDbXrecord
280
     1
270
     1
271
     1
  0
XRECORD
  5
14
102
{ACAD_REACTORS
330
E
102
}
330
E
100
AcDbXrecord
280
     1
270
     1
271
     1
  0
CELLSTYLEMAP
  5
35B
102
{ACAD_REACTORS
330
56
102
}
330
56
100
AcDbCellStyleMap
 90
        3
300
CELLSTYLE
  1
TABLEFORMAT_BEGIN
 90
        5
170
     1
 91
        0
 92
    32768
 62
   257
 93
        1
300
CONTENTFORMAT
  1
CONTENTFORMAT_BEGIN
 90
        0
 91
        0
 92
      512
 93
        0
300

 40
0.0
140
1.0
 94
        5
 62
     0
340
26
144
6.0
309
CONTENTFORMAT_END
171
     1
301
MARGIN
  1
CELLMARGIN_BEGIN
 40
1.5
 40
1.5
 40
1.5
 40
1.5
 40
4.5
 40
4.5
309
CELLMARGIN_END
 94
        6
 95
        1
302
GRIDFORMAT
  1
GRIDFORMAT_BEGIN
 90
        0
 91
        1
 62
     0
 92
       -2
340
0
 93
        0
 40
1.125
309
GRIDFORMAT_END
 95
        2
302
GRIDFORMAT
  1
GRIDFORMAT_BEGIN
 90
        0
 91
        1
 62
     0
 92
       -2
340
0
 93
        0
 40
1.125
309
GRIDFORMAT_END
 95
        4
302
GRIDFORMAT
  1
GRIDFORMAT_BEGIN
 90
        0
 91
        1
 62
     0
 92
       -2
340
0
 93
        0
 40
1.125
309
GRIDFORMAT_END
 95
        8
302
GRIDFORMAT
  1
GRIDFORMAT_BEGIN
 90
        0
 91
        1
 62
     0
 92
       -2
340
0
 93
        0
 40
1.125
309
GRIDFORMAT_END
 95
       16
302
GRIDFORMAT
  1
GRIDFORMAT_BEGIN
 90
        0
 91
        1
 62
     0
 92
       -2
340
0
 93
        0
 40
1.125
309
GRIDFORMAT_END
 95
       32
302
GRIDFORMAT
  1
GRIDFORMAT_BEGIN
 90
        0
 91
        1
 62
     0
 92
       -2
340
0
 93
        0
 40
1.125
309
GRIDFORMAT_END
309
TABLEFORMAT_END
  1
CELLSTYLE_BEGIN
 90
        1
 91
        1
300
_TITLE
309
CELLSTYLE_END
300
CELLSTYLE
  1
TABLEFORMAT_BEGIN
 90
        5
170
     1
 91
        0
 92
        0
 62
   257
 93
        1
300
CONTENTFORMAT
  1
CONTENTFORMAT_BEGIN
 90
        0
 91
        0
 92
      512
 93
        0
300

 40
0.0
140
1.0
 94
        5
 62
     0
340
26
144
4.5
309
CONTENTFORMAT_END
171
     1
301
MARGIN
  1
CELLMARGIN_BEGIN
 40
1.5
 40
1.5
 40
1.5
 40
1.5
 40
4.5
 40
4.5
309
CELLMARGIN_END
 94
        6
 95
        1
302
GRIDFORMAT
  1
GRIDFORMAT_BEGIN
 90
        0
 91
        1
 62
     0
 92
       -2
340
0
 93
        0
 40
1.125
309
GRIDFORMAT_END
 95
        2
302
GRIDFORMAT
  1
GRIDFORMAT_BEGIN
 90
        0
 91
        1
 62
     0
 92
       -2
340
0
 93
        0
 40
1.125
309
GRIDFORMAT_END
 95
        4
302
GRIDFORMAT
  1
GRIDFORMAT_BEGIN
 90
        0
 91
        1
 62
     0
 92
       -2
340
0
 93
        0
 40
1.125
309
GRIDFORMAT_END
 95
        8
302
GRIDFORMAT
  1
GRIDFORMAT_BEGIN
 90
        0
 91
        1
 62
     0
 92
       -2
340
0
 93
        0
 40
1.125
309
GRIDFORMAT_END
 95
       16
302
GRIDFORMAT
  1
GRIDFORMAT_BEGIN
 90
        0
 91
        1
 62
     0
 92
       -2
340
0
 93
        0
 40
1.125
309
GRIDFORMAT_END
 95
       32
302
GRIDFORMAT
  1
GRIDFORMAT_BEGIN
 90
        0
 91
        1
 62
     0
 92
       -2
340
0
 93
        0
 40
1.125
309
GRIDFORMAT_END
309
TABLEFORMAT_END
  1
CELLSTYLE_BEGIN
 90
        2
 91
        1
300
_HEADER
309
CELLSTYLE_END
300
CELLSTYLE
  1
TABLEFORMAT_BEGIN
 90
        5
170
     1
 91
        0
 92
        0
 62
   257
 93
        1
300
CONTENTFORMAT
  1
CONTENTFORMAT_BEGIN
 90
        0
 91
        0
 92
      512
 93
        0
300

 40
0.0
140
1.0
 94
        2
 62
     0
340
26
144
4.5
309
CONTENTFORMAT_END
171
     1
301
MARGIN
  1
CELLMARGIN_BEGIN
 40
1.5
 40
1.5
 40
1.5
 40
1.5
 40
4.5
 40
4.5
309
CELLMARGIN_END
 94
        6
 95
        1
302
GRIDFORMAT
  1
GRIDFORMAT_BEGIN
 90
        0
 91
        1
 62
     0
 92
       -2
340
0
 93
        0
 40
1.125
309
GRIDFORMAT_END
 95
        2
302
GRIDFORMAT
  1
GRIDFORMAT_BEGIN
 90
        0
 91
        1
 62
     0
 92
       -2
340
0
 93
        0
 40
1.125
309
GRIDFORMAT_END
 95
        4
302
GRIDFORMAT
  1
GRIDFORMAT_BEGIN
 90
        0
 91
        1
 62
     0
 92
       -2
340
0
 93
        0
 40
1.125
309
GRIDFORMAT_END
 95
        8
302
GRIDFORMAT
  1
GRIDFORMAT_BEGIN
 90
        0
 91
        1
 62
     0
 92
       -2
340
0
 93
        0
 40
1.125
309
GRIDFORMAT_END
 95
       16
302
GRIDFORMAT
  1
GRIDFORMAT_BEGIN
 90
        0
 91
        1
 62
     0
 92
       -2
340
0
 93
        0
 40
1.125
309
GRIDFORMAT_END
 95
       32
302
GRIDFORMAT
  1
GRIDFORMAT_BEGIN
 90
        0
 91
        1
 62
     0
 92
       -2
340
0
 93
        0
 40
1.125
309
GRIDFORMAT_END
309
TABLEFORMAT_END
  1
CELLSTYLE_BEGIN
 90
        3
 91
        2
300
_DATA
309
CELLSTYLE_END
  0
ENDSEC
  0
EOF
