  0
SECTION
  2
HEADER
  9
$ACADVER
  1
AC1024
  9
$ACADMAINTVER
 70
     6
  9
$DWGCODEPAGE
  3
ANSI_1252
  9
$INSBASE
 10
0.0
 20
0.0
 30
0.0
  9
$EXTMIN
 10
0.0
 20
0.0
 30
0.0
  9
$EXTMAX
 10
594.0
 20
420.0
 30
0.0
  9
$LIMMIN
 10
0.0
 20
0.0
  9
$LIMMAX
 10
594.0
 20
420.0
  9
$ORTHOMODE
 70
     1
  9
$REGENMODE
 70
     1
  9
$FILLMODE
 70
     1
  9
$QTEXTMODE
 70
     0
  9
$MIRRTEXT
 70
     0
  9
$LTSCALE
 40
12.0
  9
$ATTMODE
 70
     1
  9
$TEXTSIZE
 40
3.684825464091119
  9
$TRACEWID
 40
1.0
  9
$TEXTSTYLE
  7
ROMANS
  9
$CLAYER
  8
0
  9
$CELTYPE
  6
ByLayer
  9
$CECOLOR
 62
   256
  9
$CELTSCALE
 40
1.0
  9
$DISPSILH
 70
     0
  9
$DIMSCALE
 40
2.0
  9
$DIMASZ
 40
2.5
  9
$DIMEXO
 40
1.0
  9
$DIMDLI
 40
10.0
  9
$DIMRND
 40
0.0
  9
$DIMDLE
 40
0.0
  9
$DIMEXE
 40
1.0
  9
$DIMTP
 40
0.0
  9
$DIMTM
 40
0.0
  9
$DIMTXT
 40
2.5
  9
$DIMCEN
 40
0.0
  9
$DIMTSZ
 40
0.0
  9
$DIMTOL
 70
     0
  9
$DIMLIM
 70
     0
  9
$DIMTIH
 70
     0
  9
$DIMTOH
 70
     0
  9
$DIMSE1
 70
     0
  9
$DIMSE2
 70
     0
  9
$DIMTAD
 70
     1
  9
$DIMZIN
 70
     8
  9
$DIMBLK
  1

  9
$DIMASO
 70
     1
  9
$DIMSHO
 70
     0
  9
$DIMPOST
  1

  9
$DIMAPOST
  1

  9
$DIMALT
 70
     0
  9
$DIMALTD
 70
     3
  9
$DIMALTF
 40
0.03937007874016
  9
$DIMLFAC
 40
1.0
  9
$DIMTOFL
 70
     1
  9
$DIMTVP
 40
0.0
  9
$DIMTIX
 70
     0
  9
$DIMSOXD
 70
     0
  9
$DIMSAH
 70
     0
  9
$DIMBLK1
  1

  9
$DIMBLK2
  1

  9
$DIMSTYLE
  2
Wagner
  9
$DIMCLRD
 70
     4
  9
$DIMCLRE
 70
     4
  9
$DIMCLRT
 70
     1
  9
$DIMTFAC
 40
1.0
  9
$DIMGAP
 40
1.0
  9
$DIMJUST
 70
     0
  9
$DIMSD1
 70
     0
  9
$DIMSD2
 70
     0
  9
$DIMTOLJ
 70
     0
  9
$DIMTZIN
 70
     8
  9
$DIMALTZ
 70
     0
  9
$DIMALTTZ
 70
     0
  9
$DIMUPT
 70
     0
  9
$DIMDEC
 70
     8
  9
$DIMTDEC
 70
     8
  9
$DIMALTU
 70
     2
  9
$DIMALTTD
 70
     3
  9
$DIMTXSTY
  7
STANDARD
  9
$DIMAUNIT
 70
     0
  9
$DIMADEC
 70
     2
  9
$DIMALTRND
 40
0.0
  9
$DIMAZIN
 70
     2
  9
$DIMDSEP
 70
    46
  9
$DIMATFIT
 70
     3
  9
$DIMFRAC
 70
     0
  9
$DIMLDRBLK
  1

  9
$DIMLUNIT
 70
     2
  9
$DIMLWD
 70
    -2
  9
$DIMLWE
 70
    -2
  9
$DIMTMOVE
 70
     0
  9
$DIMFXL
 40
1.0
  9
$DIMFXLON
 70
     0
  9
$DIMJOGANG
 40
0.7853981633974483
  9
$DIMTFILL
 70
     0
  9
$DIMTFILLCLR
 70
     0
  9
$DIMARCSYM
 70
     0
  9
$DIMLTYPE
  6

  9
$DIMLTEX1
  6

  9
$DIMLTEX2
  6

  9
$DIMTXTDIRECTION
 70
     0
  9
$LUNITS
 70
     2
  9
$LUPREC
 70
     2
  9
$SKETCHINC
 40
1.0
  9
$FILLETRAD
 40
0.0
  9
$AUNITS
 70
     0
  9
$AUPREC
 70
     2
  9
$MENU
  1
cncmenue
  9
$ELEVATION
 40
0.0
  9
$PELEVATION
 40
0.0
  9
$THICKNESS
 40
0.0
  9
$LIMCHECK
 70
     0
  9
$CHAMFERA
 40
0.0
  9
$CHAMFERB
 40
0.0
  9
$CHAMFERC
 40
0.0
  9
$CHAMFERD
 40
0.0
  9
$SKPOLY
 70
     0
  9
$TDCREATE
 40
2451256.417085533
  9
$TDUCREATE
 40
2451256.333752199
  9
$TDUPDATE
 40
2456125.677738137
  9
$TDUUPDATE
 40
2456125.594404803
  9
$TDINDWG
 40
0.0756925000
  9
$TDUSRTIMER
 40
0.0756925000
  9
$USRTIMER
 70
     1
  9
$ANGBASE
 50
0.0
  9
$ANGDIR
 70
     0
  9
$PDMODE
 70
     0
  9
$PDSIZE
 40
0.0
  9
$PLINEWID
 40
0.0
  9
$SPLFRAME
 70
     0
  9
$SPLINETYPE
 70
     6
  9
$SPLINESEGS
 70
     8
  9
$HANDSEED
  5
310
  9
$SURFTAB1
 70
    24
  9
$SURFTAB2
 70
    24
  9
$SURFTYPE
 70
     6
  9
$SURFU
 70
     6
  9
$SURFV
 70
     6
  9
$UCSBASE
  2

  9
$UCSNAME
  2

  9
$UCSORG
 10
0.0
 20
0.0
 30
0.0
  9
$UCSXDIR
 10
1.0
 20
0.0
 30
0.0
  9
$UCSYDIR
 10
0.0
 20
1.0
 30
0.0
  9
$UCSORTHOREF
  2

  9
$UCSORTHOVIEW
 70
     0
  9
$UCSORGTOP
 10
0.0
 20
0.0
 30
0.0
  9
$UCSORGBOTTOM
 10
0.0
 20
0.0
 30
0.0
  9
$UCSORGLEFT
 10
0.0
 20
0.0
 30
0.0
  9
$UCSORGRIGHT
 10
0.0
 20
0.0
 30
0.0
  9
$UCSORGFRONT
 10
0.0
 20
0.0
 30
0.0
  9
$UCSORGBACK
 10
0.0
 20
0.0
 30
0.0
  9
$PUCSBASE
  2

  9
$PUCSNAME
  2

  9
$PUCSORG
 10
0.0
 20
0.0
 30
0.0
  9
$PUCSXDIR
 10
1.0
 20
0.0
 30
0.0
  9
$PUCSYDIR
 10
0.0
 20
1.0
 30
0.0
  9
$PUCSORTHOREF
  2

  9
$PUCSORTHOVIEW
 70
     0
  9
$PUCSORGTOP
 10
0.0
 20
0.0
 30
0.0
  9
$PUCSORGBOTTOM
 10
0.0
 20
0.0
 30
0.0
  9
$PUCSORGLEFT
 10
0.0
 20
0.0
 30
0.0
  9
$PUCSORGRIGHT
 10
0.0
 20
0.0
 30
0.0
  9
$PUCSORGFRONT
 10
0.0
 20
0.0
 30
0.0
  9
$PUCSORGBACK
 10
0.0
 20
0.0
 30
0.0
  9
$USERI1
 70
     0
  9
$USERI2
 70
     0
  9
$USERI3
 70
     0
  9
$USERI4
 70
     0
  9
$USERI5
 70
     0
  9
$USERR1
 40
0.0
  9
$USERR2
 40
0.0
  9
$USERR3
 40
0.0
  9
$USERR4
 40
0.0
  9
$USERR5
 40
0.0
  9
$WORLDVIEW
 70
     1
  9
$SHADEDGE
 70
     3
  9
$SHADEDIF
 70
    70
  9
$TILEMODE
 70
     1
  9
$MAXACTVP
 70
    16
  9
$PINSBASE
 10
0.0
 20
0.0
 30
0.0
  9
$PLIMCHECK
 70
     0
  9
$PEXTMIN
 10
1.000000000000000E+20
 20
1.000000000000000E+20
 30
1.000000000000000E+20
  9
$PEXTMAX
 10
-1.000000000000000E+20
 20
-1.000000000000000E+20
 30
-1.000000000000000E+20
  9
$PLIMMIN
 10
0.0
 20
0.0
  9
$PLIMMAX
 10
12.0
 20
9.0
  9
$UNITMODE
 70
     0
  9
$VISRETAIN
 70
     0
  9
$PLINEGEN
 70
     0
  9
$PSLTSCALE
 70
     0
  9
$TREEDEPTH
 70
  3020
  9
$CMLSTYLE
  2
Standard
  9
$CMLJUST
 70
     0
  9
$CMLSCALE
 40
1.0
  9
$PROXYGRAPHICS
 70
     1
  9
$MEASUREMENT
 70
     0
  9
$CELWEIGHT
370
    -1
  9
$ENDCAPS
280
     0
  9
$JOINSTYLE
280
     0
  9
$LWDISPLAY
290
     0
  9
$INSUNITS
 70
     0
  9
$HYPERLINKBASE
  1

  9
$STYLESHEET
  1

  9
$XEDIT
290
     1
  9
$CEPSNTYPE
380
     0
  9
$PSTYLEMODE
290
     1
  9
$FINGERPRINTGUID
  2
{035D9230-BEFF-4463-9B37-BADB2B88656D}
  9
$VERSIONGUID
  2
{F0503112-C3EF-43E3-99CE-F58A0B49BCDF}
  9
$EXTNAMES
290
     1
  9
$PSVPSCALE
 40
0.0
  9
$OLESTARTUP
290
     0
  9
$SORTENTS
280
   127
  9
$INDEXCTL
280
     0
  9
$HIDETEXT
280
     1
  9
$XCLIPFRAME
280
     0
  9
$HALOGAP
280
     0
  9
$OBSCOLOR
 70
   257
  9
$OBSLTYPE
280
     0
  9
$INTERSECTIONDISPLAY
280
     0
  9
$INTERSECTIONCOLOR
 70
   257
  9
$DIMASSOC
280
     1
  9
$PROJECTNAME
  1

  9
$CAMERADISPLAY
290
     0
  9
$LENSLENGTH
 40
50.0
  9
$CAMERAHEIGHT
 40
0.0
  9
$STEPSPERSEC
 40
2.0
  9
$STEPSIZE
 40
6.0
  9
$3DDWFPREC
 40
2.0
  9
$PSOLWIDTH
 40
0.25
  9
$PSOLHEIGHT
 40
4.0
  9
$LOFTANG1
 40
1.570796326794896
  9
$LOFTANG2
 40
1.570796326794896
  9
$LOFTMAG1
 40
0.0
  9
$LOFTMAG2
 40
0.0
  9
$LOFTPARAM
 70
     7
  9
$LOFTNORMALS
280
     1
  9
$LATITUDE
 40
37.795
  9
$LONGITUDE
 40
-122.394
  9
$NORTHDIRECTION
 40
0.0
  9
$TIMEZONE
 70
 -8000
  9
$LIGHTGLYPHDISPLAY
280
     1
  9
$TILEMODELIGHTSYNCH
280
     1
  9
$CMATERIAL
347
39
  9
$SOLIDHIST
280
     1
  9
$SHOWHIST
280
     1
  9
$DWFFRAME
280
     2
  9
$DGNFRAME
280
     0
  9
$REALWORLDSCALE
290
     1
  9
$INTERFERECOLOR
 62
     1
  9
$INTERFEREOBJVS
345
51
  9
$INTERFEREVPVS
346
52
  9
$CSHADOW
280
     0
  9
$SHADOWPLANELOCATION
 40
0.0
  0
ENDSEC
  0
SECTION
  2
CLASSES
  0
CLASS
  1
ACDBDICTIONARYWDFLT
  2
AcDbDictionaryWithDefault
  3
ObjectDBX Classes
 90
        0
 91
        1
280
     0
281
     0
  0
CLASS
  1
MATERIAL
  2
AcDbMaterial
  3
ObjectDBX Classes
 90
     1153
 91
        3
280
     0
281
     0
  0
CLASS
  1
VISUALSTYLE
  2
AcDbVisualStyle
  3
ObjectDBX Classes
 90
     4095
 91
        3
280
     0
281
     0
  0
CLASS
  1
TABLESTYLE
  2
AcDbTableStyle
  3
ObjectDBX Classes
 90
     4095
 91
        1
280
     0
281
     0
  0
CLASS
  1
SCALE
  2
AcDbScale
  3
ObjectDBX Classes
 90
     1153
 91
       33
280
     0
281
     0
  0
CLASS
  1
MLEADERSTYLE
  2
AcDbMLeaderStyle
  3
ACDB_MLEADERSTYLE_CLASS
 90
     4095
 91
        0
280
     0
281
     0
  0
CLASS
  1
SORTENTSTABLE
  2
AcDbSortentsTable
  3
ObjectDBX Classes
 90
        0
 91
        6
280
     0
281
     0
  0
CLASS
  1
CELLSTYLEMAP
  2
AcDbCellStyleMap
  3
ObjectDBX Classes
 90
     1152
 91
        1
280
     0
281
     0
  0
CLASS
  1
DICTIONARYVAR
  2
AcDbDictionaryVar
  3
ObjectDBX Classes
 90
        0
 91
        7
280
     0
281
     0
  0
CLASS
  1
SOLID_BACKGROUND
  2
AcDbSolidBackground
  3
SCENEOE
 90
     4095
 91
        0
280
     0
281
     0
  0
CLASS
  1
NPOCOLLECTION
  2
AcDbImpNonPersistentObjectsCollection
  3
ObjectDBX Classes
 90
     1153
 91
        0
280
     0
281
     0
  0
CLASS
  1
DIMASSOC
  2
AcDbDimAssoc
  3
"AcDbDimAssoc|Product Desc:     AcDim ARX App For Dimension|Company:          Autodesk, Inc.|WEB Address:      www.autodesk.com"
 90
        0
 91
        0
280
     0
281
     0
  0
CLASS
  1
ACAD_TABLE
  2
AcDbTable
  3
ObjectDBX Classes
 90
     1025
 91
        0
280
     0
281
     1
  0
CLASS
  1
TABLECONTENT
  2
AcDbTableContent
  3
ObjectDBX Classes
 90
     1152
 91
        0
280
     0
281
     0
  0
CLASS
  1
TABLEGEOMETRY
  2
AcDbTableGeometry
  3
ObjectDBX Classes
 90
     1152
 91
        0
280
     0
281
     0
  0
ENDSEC
  0
SECTION
  2
TABLES
  0
TABLE
  2
VPORT
  5
28
102
{ACAD_XDICTIONARY
360
2C
102
}
330
0
100
AcDbSymbolTable
 70
     1
  0
VPORT
  5
29
330
28
100
AcDbSymbolTableRecord
100
AcDbViewportTableRecord
  2
*Active
 70
     0
 10
0.0
 20
0.0
 11
1.0
 21
1.0
 12
175.5675825744279
 22
221.375382011473
 13
0.0
 23
0.0
 14
1.0
 24
1.0
 15
10.0
 25
10.0
 16
0.0
 26
0.0
 36
1.0
 17
0.0
 27
0.0
 37
0.0
 40
699.1316391195603
 41
1.937738246505718
 42
50.0
 43
0.0
 44
0.0
 50
0.0
 51
0.0
 71
     0
 72
  1000
 73
     1
 74
     0
 75
     0
 76
     0
 77
     0
 78
     0
281
     0
 65
     1
110
0.0
120
0.0
130
0.0
111
1.0
121
0.0
131
0.0
112
0.0
122
1.0
132
0.0
 79
     0
146
0.0
348
2A
 60
     3
 61
     5
292
     1
282
     1
141
0.0
142
0.0
 63
   250
421
  3355443
  0
ENDTAB
  0
TABLE
  2
LTYPE
  5
23
330
0
100
AcDbSymbolTable
 70
     4
  0
LTYPE
  5
24
330
23
100
AcDbSymbolTableRecord
100
AcDbLinetypeTableRecord
  2
ByBlock
 70
     0
  3

 72
    65
 73
     0
 40
0.0
  0
LTYPE
  5
25
330
23
100
AcDbSymbolTableRecord
100
AcDbLinetypeTableRecord
  2
ByLayer
 70
     0
  3

 72
    65
 73
     0
 40
0.0
  0
LTYPE
  5
15
330
23
100
AcDbSymbolTableRecord
100
AcDbLinetypeTableRecord
  2
CONTINUOUS
 70
     0
  3
Ausgezogene Linie
 72
    65
 73
     0
 40
0.0
  0
LTYPE
  5
B8
330
23
100
AcDbSymbolTableRecord
100
AcDbLinetypeTableRecord
  2
VERDECKT
 70
     0
  3
__ __ __ __ __ __ __ __ __ __ __ __ __ __ __ __
 72
    65
 73
     2
 40
0.375
 49
0.25
 74
     0
 49
-0.125
 74
     0
  0
LTYPE
  5
19A
330
23
100
AcDbSymbolTableRecord
100
AcDbLinetypeTableRecord
  2
STRICHPUNKT
 70
     0
  3
__ . __ . __ . __ . __ . __ . __ . __ . __ . __
 72
    65
 73
     4
 40
1.0
 49
0.5
 74
     0
 49
-0.25
 74
     0
 49
0.0
 74
     0
 49
-0.25
 74
     0
  0
LTYPE
  5
2A6
330
23
100
AcDbSymbolTableRecord
100
AcDbLinetypeTableRecord
  2
AUSGEZOGEN
 70
     0
  3
Ausgezogene Linie
 72
    65
 73
     0
 40
0.0
  0
ENDTAB
  0
TABLE
  2
LAYER
  5
1D
102
{ACAD_XDICTIONARY
360
1E
102
}
330
0
100
AcDbSymbolTable
 70
    11
  0
LAYER
  5
6
102
{ACAD_XDICTIONARY
360
7
102
}
330
1D
100
AcDbSymbolTableRecord
100
AcDbLayerTableRecord
  2
0
 70
     0
 62
     7
  6
CONTINUOUS
370
    -3
390
9
347
C
  0
LAYER
  5
239
102
{ACAD_XDICTIONARY
360
23A
102
}
330
1D
100
AcDbSymbolTableRecord
100
AcDbLayerTableRecord
  2
01-01
 70
     0
 62
     2
  6
CONTINUOUS
370
    -3
390
9
347
C
  0
LAYER
  5
268
102
{ACAD_XDICTIONARY
360
269
102
}
330
1D
100
AcDbSymbolTableRecord
100
AcDbLayerTableRecord
  2
02-01
 70
     0
 62
     1
  6
CONTINUOUS
370
    -3
390
9
347
C
  0
LAYER
  5
192
102
{ACAD_XDICTIONARY
360
193
102
}
330
1D
100
AcDbSymbolTableRecord
100
AcDbLayerTableRecord
  2
03-01
 70
     0
 62
     3
  6
VERDECKT
370
    -3
390
9
347
C
  0
LAYER
  5
197
102
{ACAD_XDICTIONARY
360
198
102
}
330
1D
100
AcDbSymbolTableRecord
100
AcDbLayerTableRecord
  2
05-01
 70
     0
 62
     1
  6
STRICHPUNKT
370
    -3
390
9
347
C
  0
LAYER
  5
91
102
{ACAD_XDICTIONARY
360
92
102
}
330
1D
100
AcDbSymbolTableRecord
100
AcDbLayerTableRecord
  2
09-01
 70
     0
 62
     7
  6
CONTINUOUS
370
    -3
390
9
347
C
  0
LAYER
  5
263
102
{ACAD_XDICTIONARY
360
264
102
}
330
1D
100
AcDbSymbolTableRecord
100
AcDbLayerTableRecord
  2
01-99
 70
     0
 62
     2
  6
CONTINUOUS
370
    -3
390
9
347
C
  0
LAYER
  5
2A3
102
{ACAD_XDICTIONARY
360
2A4
102
}
330
1D
100
AcDbSymbolTableRecord
100
AcDbLayerTableRecord
  2
06-99
 70
     0
 62
     1
  6
AUSGEZOGEN
370
    -3
390
9
347
C
  0
LAYER
  5
7E
330
1D
100
AcDbSymbolTableRecord
100
AcDbLayerTableRecord
  2
DEFPOINTS
 70
     0
 62
     7
  6
CONTINUOUS
290
     0
370
    -3
390
9
347
C
  0
LAYER
  5
28D
102
{ACAD_XDICTIONARY
360
28E
102
}
330
1D
100
AcDbSymbolTableRecord
100
AcDbLayerTableRecord
  2
08-99
 70
     0
 62
     7
  6
CONTINUOUS
370
    -3
390
9
347
C
  0
LAYER
  5
A6
102
{ACAD_XDICTIONARY
360
A7
102
}
330
1D
100
AcDbSymbolTableRecord
100
AcDbLayerTableRecord
  2
02TNR-01
 70
     0
 62
     1
  6
CONTINUOUS
370
    -3
390
9
347
C
  0
ENDTAB
  0
TABLE
  2
STYLE
  5
20
330
0
100
AcDbSymbolTable
 70
     4
  0
STYLE
  5
21
330
20
100
AcDbSymbolTableRecord
100
AcDbTextStyleTableRecord
  2
STANDARD
 70
     0
 40
0.0
 41
1.0
 50
0.0
 71
     0
 42
3.5
  3
txt.shx
  4

  0
STYLE
  5
4D
330
20
100
AcDbSymbolTableRecord
100
AcDbTextStyleTableRecord
  2
ROMANS
 70
     0
 40
0.0
 41
1.0
 50
0.0
 71
     0
 42
3.684825464091119
  3
ROMANS.SHX
  4

  0
STYLE
  5
290
330
20
100
AcDbSymbolTableRecord
100
AcDbTextStyleTableRecord
  2
ROMANS8
 70
     0
 40
0.0
 41
1.0
 50
0.0
 71
     0
 42
2.5
  3
ROMANS8
  4

  0
STYLE
  5
2B7
330
20
100
AcDbSymbolTableRecord
100
AcDbTextStyleTableRecord
  2
ROMAND8
 70
     0
 40
0.0
 41
1.0
 50
0.0
 71
     0
 42
3.5
  3
ROMAND8
  4

  0
ENDTAB
  0
TABLE
  2
VIEW
  5
26
330
0
100
AcDbSymbolTable
 70
     0
  0
ENDTAB
  0
TABLE
  2
UCS
  5
27
330
0
100
AcDbSymbolTable
 70
     0
  0
ENDTAB
  0
TABLE
  2
APPID
  5
2D
330
0
100
AcDbSymbolTable
 70
     4
  0
APPID
  5
2E
330
2D
100
AcDbSymbolTableRecord
100
AcDbRegAppTableRecord
  2
ACAD
 70
     0
  0
APPID
  5
31
330
2D
100
AcDbSymbolTableRecord
100
AcDbRegAppTableRecord
  2
ACAD_DSTYLE_DIMJOGGED_JOGANGLE_SYMBOL
 70
     0
  0
APPID
  5
32
330
2D
100
AcDbSymbolTableRecord
100
AcDbRegAppTableRecord
  2
ACAD_DSTYLE_DIMJAG
 70
     0
  0
APPID
  5
33
330
2D
100
AcDbSymbolTableRecord
100
AcDbRegAppTableRecord
  2
ACAD_DSTYLE_DIMTALN
 70
     0
  0
ENDTAB
  0
TABLE
  2
DIMSTYLE
  5
2F
330
0
100
AcDbSymbolTable
 70
     3
100
AcDbDimStyleTable
 71
     2
340
30
340
34
  0
DIMSTYLE
105
34
330
2F
100
AcDbSymbolTableRecord
100
AcDbDimStyleTableRecord
  2
Standard
 70
     0
340
21
  0
DIMSTYLE
105
30
330
2F
100
AcDbSymbolTableRecord
100
AcDbDimStyleTableRecord
  2
Wagner
 70
     0
 41
2.5
 42
1.0
 43
10.0
 44
1.0
 73
     0
 74
     0
 77
     1
 78
     8
 79
     2
140
2.5
141
0.0
143
0.03937007874016
147
1.0
171
     3
172
     1
176
     4
177
     4
178
     1
179
     2
271
     8
272
     8
274
     3
283
     0
284
     8
340
21
1001
ACAD_DSTYLE_DIMJOGGED_JOGANGLE_SYMBOL
1070
   384
1040
0.7853981633974483
1001
ACAD_DSTYLE_DIMJAG
1070
   388
1040
1.5
1001
ACAD_DSTYLE_DIMTALN
1070
   392
1070
     0
  0
DIMSTYLE
105
82
102
{ACAD_REACTORS
330
1D4
330
1C7
330
1BA
330
1AD
330
184
330
16B
330
15E
330
151
330
144
330
137
330
12A
330
11D
330
110
330
103
330
F6
330
E7
330
D8
330
C9
330
BA
330
90
330
21D
330
83
330
74
102
}
330
2F
100
AcDbSymbolTableRecord
100
AcDbDimStyleTableRecord
  2
Wagner$0
 70
     0
 41
2.5
 42
1.0
 43
10.0
 44
1.0
 73
     0
 74
     0
 77
     1
 78
     8
 79
     2
140
2.5
141
0.0
143
0.03937007874016
147
1.0
171
     3
172
     1
174
     1
176
     4
177
     4
178
     1
179
     2
271
     8
272
     8
274
     3
279
     2
283
     0
284
     8
340
21
1001
ACAD_DSTYLE_DIMJOGGED_JOGANGLE_SYMBOL
1070
   384
1040
0.7853981633974483
1001
ACAD_DSTYLE_DIMJAG
1070
   388
1040
1.5
1001
ACAD_DSTYLE_DIMTALN
1070
   392
1070
     0
  0
ENDTAB
  0
TABLE
  2
BLOCK_RECORD
  5
1
330
0
100
AcDbSymbolTable
 70
    25
  0
BLOCK_RECORD
  5
2
102
{ACAD_XDICTIONARY
360
3
102
}
330
1
100
AcDbSymbolTableRecord
100
AcDbBlockTableRecord
  2
*Model_Space
340
17
 70
     0
280
     1
281
     0
  0
BLOCK_RECORD
  5
19
330
1
100
AcDbSymbolTableRecord
100
AcDbBlockTableRecord
  2
*Paper_Space
340
1C
 70
     0
280
     1
281
     0
  0
BLOCK_RECORD
  5
25E
102
{ACAD_XDICTIONARY
360
25F
102
}
330
1
100
AcDbSymbolTableRecord
100
AcDbBlockTableRecord
  2
DIN A4 Quer
340
0
102
{BLKREFS
331
25D
102
}
 70
     4
280
     1
281
     0
  0
BLOCK_RECORD
  5
A1
102
{ACAD_XDICTIONARY
360
A2
102
}
330
1
100
AcDbSymbolTableRecord
100
AcDbBlockTableRecord
  2
aaaaWagner
340
0
102
{BLKREFS
331
A0
102
}
 70
     4
280
     1
281
     0
  0
BLOCK_RECORD
  5
1D5
330
1
100
AcDbSymbolTableRecord
100
AcDbBlockTableRecord
  2
*D2
340
0
 70
     0
280
     1
281
     0
  0
BLOCK_RECORD
  5
1C8
330
1
100
AcDbSymbolTableRecord
100
AcDbBlockTableRecord
  2
*D3
340
0
 70
     0
280
     1
281
     0
  0
BLOCK_RECORD
  5
1BB
330
1
100
AcDbSymbolTableRecord
100
AcDbBlockTableRecord
  2
*D4
340
0
 70
     0
280
     1
281
     0
  0
BLOCK_RECORD
  5
1AE
330
1
100
AcDbSymbolTableRecord
100
AcDbBlockTableRecord
  2
*D5
340
0
 70
     0
280
     1
281
     0
  0
BLOCK_RECORD
  5
185
330
1
100
AcDbSymbolTableRecord
100
AcDbBlockTableRecord
  2
*D6
340
0
 70
     0
280
     1
281
     0
  0
BLOCK_RECORD
  5
16C
330
1
100
AcDbSymbolTableRecord
100
AcDbBlockTableRecord
  2
*D7
340
0
 70
     0
280
     1
281
     0
  0
BLOCK_RECORD
  5
15F
330
1
100
AcDbSymbolTableRecord
100
AcDbBlockTableRecord
  2
*D8
340
0
 70
     0
280
     1
281
     0
  0
BLOCK_RECORD
  5
152
330
1
100
AcDbSymbolTableRecord
100
AcDbBlockTableRecord
  2
*D9
340
0
 70
     0
280
     1
281
     0
  0
BLOCK_RECORD
  5
145
330
1
100
AcDbSymbolTableRecord
100
AcDbBlockTableRecord
  2
*D10
340
0
 70
     0
280
     1
281
     0
  0
BLOCK_RECORD
  5
138
330
1
100
AcDbSymbolTableRecord
100
AcDbBlockTableRecord
  2
*D11
340
0
 70
     0
280
     1
281
     0
  0
BLOCK_RECORD
  5
12B
330
1
100
AcDbSymbolTableRecord
100
AcDbBlockTableRecord
  2
*D12
340
0
 70
     0
280
     1
281
     0
  0
BLOCK_RECORD
  5
11E
330
1
100
AcDbSymbolTableRecord
100
AcDbBlockTableRecord
  2
*D13
340
0
 70
     0
280
     1
281
     0
  0
BLOCK_RECORD
  5
111
330
1
100
AcDbSymbolTableRecord
100
AcDbBlockTableRecord
  2
*D14
340
0
 70
     0
280
     1
281
     0
  0
BLOCK_RECORD
  5
104
330
1
100
AcDbSymbolTableRecord
100
AcDbBlockTableRecord
  2
*D15
340
0
 70
     0
280
     1
281
     0
  0
BLOCK_RECORD
  5
F7
330
1
100
AcDbSymbolTableRecord
100
AcDbBlockTableRecord
  2
*D16
340
0
 70
     0
280
     1
281
     0
  0
BLOCK_RECORD
  5
E8
330
1
100
AcDbSymbolTableRecord
100
AcDbBlockTableRecord
  2
*D17
340
0
 70
     0
280
     1
281
     0
  0
BLOCK_RECORD
  5
D9
330
1
100
AcDbSymbolTableRecord
100
AcDbBlockTableRecord
  2
*D18
340
0
 70
     0
280
     1
281
     0
  0
BLOCK_RECORD
  5
CA
330
1
100
AcDbSymbolTableRecord
100
AcDbBlockTableRecord
  2
*D19
340
0
 70
     0
280
     1
281
     0
  0
BLOCK_RECORD
  5
BB
330
1
100
AcDbSymbolTableRecord
100
AcDbBlockTableRecord
  2
*D20
340
0
 70
     0
280
     1
281
     0
  0
BLOCK_RECORD
  5
94
330
1
100
AcDbSymbolTableRecord
100
AcDbBlockTableRecord
  2
*D21
340
0
 70
     0
280
     1
281
     0
  0
BLOCK_RECORD
  5
21E
330
1
100
AcDbSymbolTableRecord
100
AcDbBlockTableRecord
  2
*D22
340
0
 70
     0
280
     1
281
     0
  0
BLOCK_RECORD
  5
84
330
1
100
AcDbSymbolTableRecord
100
AcDbBlockTableRecord
  2
*D23
340
0
 70
     0
280
     1
281
     0
  0
BLOCK_RECORD
  5
75
330
1
100
AcDbSymbolTableRecord
100
AcDbBlockTableRecord
  2
*D24
340
0
 70
     0
280
     1
281
     0
  0
ENDTAB
  0
ENDSEC
  0
SECTION
  2
BLOCKS
  0
BLOCK
  5
5
330
2
100
AcDbEntity
  8
0
100
AcDbBlockBegin
  2
*Model_Space
 70
     0
 10
0.0
 20
0.0
 30
0.0
  3
*Model_Space
  1

  0
ENDBLK
  5
16
330
2
100
AcDbEntity
  8
0
100
AcDbBlockEnd
  0
BLOCK
  5
1A
330
19
100
AcDbEntity
 67
     1
  8
0
100
AcDbBlockBegin
  2
*Paper_Space
 70
     0
 10
0.0
 20
0.0
 30
0.0
  3
*Paper_Space
  1

  0
ENDBLK
  5
1B
330
19
100
AcDbEntity
 67
     1
  8
0
100
AcDbBlockEnd
  0
BLOCK
  5
261
330
25E
100
AcDbEntity
  8
0
100
AcDbBlockBegin
  2
DIN A4 Quer
 70
     2
 10
0.0
 20
0.0
 30
0.0
  3
DIN A4 Quer
  1

  0
LINE
  5
262
330
25E
100
AcDbEntity
  8
01-99
100
AcDbLine
 10
6.000001890710336
 20
6.000000518749175
 30
0.0
 11
6.000001890710223
 21
204.0000005187492
 31
0.0
  0
LINE
  5
266
330
25E
100
AcDbEntity
  8
01-99
100
AcDbLine
 10
6.000001890710223
 20
204.0000005187492
 30
0.0
 11
291.0000018907103
 21
204.0000005187492
 31
0.0
  0
LINE
  5
267
330
25E
100
AcDbEntity
  8
02-01
100
AcDbLine
 10
297.0000018907104
 20
210.0000005187492
 30
0.0
 11
0.0000018907103367
 21
210.0000005187492
 31
0.0
  0
LINE
  5
26B
330
25E
100
AcDbEntity
  8
02-01
100
AcDbLine
 10
0.0000018907103367
 20
210.0000005187492
 30
0.0
 11
0.0000018907103367
 21
0.0000005187491752
 31
0.0
  0
LINE
  5
26C
330
25E
100
AcDbEntity
  8
01-99
100
AcDbLine
 10
291.0000018907103
 20
6.000000518749288
 30
0.0
 11
291.0000018907103
 21
204.0000005187492
 31
0.0
  0
LINE
  5
26D
330
25E
100
AcDbEntity
  8
01-99
100
AcDbLine
 10
291.0000018907103
 20
6.000000518749288
 30
0.0
 11
6.000001890710336
 21
6.000000518749175
 31
0.0
  0
LINE
  5
26E
330
25E
100
AcDbEntity
  8
02-01
100
AcDbLine
 10
0.0000018907103367
 20
0.0000005187491752
 30
0.0
 11
297.0000018907104
 21
0.0000005187491752
 31
0.0
  0
LINE
  5
26F
330
25E
100
AcDbEntity
  8
02-01
100
AcDbLine
 10
297.0000018907104
 20
0.0000005187491752
 30
0.0
 11
297.0000018907104
 21
210.0000005187492
 31
0.0
  0
LINE
  5
270
330
25E
100
AcDbEntity
  8
01-99
100
AcDbLine
 10
157.0000018907103
 20
11.11111162974919
 30
0.0
 11
107.0000018907103
 21
11.11111162974919
 31
0.0
  0
LINE
  5
271
330
25E
100
AcDbEntity
  8
01-99
100
AcDbLine
 10
157.0000018907103
 20
16.2222227407492
 30
0.0
 11
107.0000018907103
 21
16.2222227407492
 31
0.0
  0
LINE
  5
272
330
25E
100
AcDbEntity
  8
01-99
100
AcDbLine
 10
157.0000018907103
 20
21.33333385174922
 30
0.0
 11
107.0000018907103
 21
21.33333385174916
 31
0.0
  0
LINE
  5
273
330
25E
100
AcDbEntity
  8
01-99
100
AcDbLine
 10
202.0000018907103
 20
26.44444496274923
 30
0.0
 11
107.0000018907103
 21
26.44444496274918
 31
0.0
  0
LINE
  5
274
330
25E
100
AcDbEntity
  8
01-99
100
AcDbLine
 10
202.0000018907103
 20
31.55555607374925
 30
0.0
 11
107.0000018907103
 21
31.55555607374919
 31
0.0
  0
LINE
  5
275
330
25E
100
AcDbEntity
  8
01-99
100
AcDbLine
 10
132.0000018907103
 20
6.000000518749175
 30
0.0
 11
132.0000018907103
 21
11.11111162974919
 31
0.0
  0
LINE
  5
276
330
25E
100
AcDbEntity
  8
01-99
100
AcDbLine
 10
115.0000018907103
 20
11.11111162974919
 30
0.0
 11
115.0000018907103
 21
36.66666718541586
 31
0.0
  0
LINE
  5
277
330
25E
100
AcDbEntity
  8
01-99
100
AcDbLine
 10
157.0000018907103
 20
6.000000518749175
 30
0.0
 11
157.0000018907103
 21
52.00000051874917
 31
0.0
  0
LINE
  5
278
330
25E
100
AcDbEntity
  8
01-99
100
AcDbLine
 10
202.0000018907103
 20
6.000000518749175
 30
0.0
 11
202.0000018907103
 21
52.00000051874917
 31
0.0
  0
LINE
  5
279
330
25E
100
AcDbEntity
  8
01-99
100
AcDbLine
 10
231.5000018907103
 20
6.000000518749175
 30
0.0
 11
231.5000018907103
 21
16.22222274074926
 31
0.0
  0
LINE
  5
27A
330
25E
100
AcDbEntity
  8
01-99
100
AcDbLine
 10
264.0000018907104
 20
6.000000518749175
 30
0.0
 11
264.0000018907104
 21
16.22222274074931
 31
0.0
  0
LINE
  5
27B
330
25E
100
AcDbEntity
  8
01-99
100
AcDbLine
 10
235.5000018907103
 20
36.66666718541592
 30
0.0
 11
235.5000018907103
 21
52.00000051874929
 31
0.0
  0
LINE
  5
27C
330
25E
100
AcDbEntity
  8
01-99
100
AcDbLine
 10
269.0000018907103
 20
36.66666718541592
 30
0.0
 11
269.0000018907103
 21
52.00000051874929
 31
0.0
  0
LINE
  5
27D
330
25E
100
AcDbEntity
  8
01-99
100
AcDbLine
 10
165.0000018907103
 20
21.33333385208254
 30
0.0
 11
165.0000018907103
 21
36.66666718541592
 31
0.0
  0
LINE
  5
27E
330
25E
100
AcDbEntity
  8
01-99
100
AcDbLine
 10
147.0031902301398
 20
11.11111162974919
 30
0.0
 11
147.0031902301398
 21
36.66666718541586
 31
0.0
  0
LINE
  5
27F
330
25E
100
AcDbEntity
  8
01-99
100
AcDbLine
 10
135.0031902301398
 20
11.11111162974919
 30
0.0
 11
135.0031902301398
 21
36.66666718541586
 31
0.0
  0
LINE
  5
280
330
25E
100
AcDbEntity
  8
01-99
100
AcDbLine
 10
291.0000018907103
 20
52.00000051874929
 30
0.0
 11
107.0000018907085
 21
52.00000051874917
 31
0.0
  0
LINE
  5
281
330
25E
100
AcDbEntity
  8
01-99
100
AcDbLine
 10
202.0000018907103
 20
21.33333385208254
 30
0.0
 11
157.0000018907103
 21
21.33333385208254
 31
0.0
  0
LINE
  5
282
330
25E
100
AcDbEntity
  8
01-99
100
AcDbLine
 10
202.0000018907103
 20
36.66666718541592
 30
0.0
 11
107.0000018907103
 21
36.66666718541581
 31
0.0
  0
LINE
  5
283
330
25E
100
AcDbEntity
  8
01-99
100
AcDbLine
 10
179.0000018907103
 20
21.33333385208254
 30
0.0
 11
179.0000018907103
 21
52.00000051874923
 31
0.0
  0
LINE
  5
284
330
25E
100
AcDbEntity
  8
01-99
100
AcDbLine
 10
157.0000018907103
 20
36.66666718541586
 30
0.0
 11
165.0000018907103
 21
31.5555560854159
 31
0.0
  0
LINE
  5
285
330
25E
100
AcDbEntity
  8
01-99
100
AcDbLine
 10
157.0000018907103
 20
31.5555560854159
 30
0.0
 11
165.0000018907103
 21
36.66666718541592
 31
0.0
  0
LINE
  5
286
330
25E
100
AcDbEntity
  8
01-99
100
AcDbLine
 10
291.0000018907103
 20
44.33333385208254
 30
0.0
 11
202.0000018907103
 21
44.33333385208249
 31
0.0
  0
LINE
  5
287
330
25E
100
AcDbEntity
  8
01-99
100
AcDbLine
 10
202.0000018907103
 20
16.2222227407492
 30
0.0
 11
291.0000018907103
 21
16.22222274074931
 31
0.0
  0
LINE
  5
288
330
25E
100
AcDbEntity
  8
01-99
100
AcDbLine
 10
202.0000018907103
 20
36.66666718541592
 30
0.0
 11
291.0000018907103
 21
36.66666718541597
 31
0.0
  0
LINE
  5
289
330
25E
100
AcDbEntity
  8
01-99
100
AcDbLine
 10
179.0000018907103
 20
41.7777782967492
 30
0.0
 11
157.0000018907103
 21
41.7777782967492
 31
0.0
  0
LINE
  5
28A
330
25E
100
AcDbEntity
  8
01-99
100
AcDbLine
 10
179.0000018907103
 20
46.88888940774922
 30
0.0
 11
157.0000018907103
 21
46.88888940774916
 31
0.0
  0
LINE
  5
28B
330
25E
100
AcDbEntity
  8
01-99
100
AcDbLine
 10
107.0000018907085
 20
52.00000051874917
 30
0.0
 11
107.0000018907085
 21
6.000000518749175
 31
0.0
  0
TEXT
  5
28C
330
25E
100
AcDbEntity
  8
08-99
100
AcDbText
 10
203.4997030590166
 20
32.66987422660714
 30
0.0
 40
2.5
  1
Benennung/Teil:
 51
15.0
  7
ROMANS8
100
AcDbText
  0
TEXT
  5
291
330
25E
100
AcDbEntity
  8
08-99
100
AcDbText
 10
265.5028293382777
 20
12.01760321297985
 30
0.0
 40
2.7
  1
Ident-Nr.
 51
15.0
  7
ROMANS8
100
AcDbText
  0
TEXT
  5
292
330
25E
100
AcDbEntity
  8
08-99
100
AcDbText
 10
180.5000236238784
 20
33.05557748053161
 30
0.0
 40
2.5
  1
Name:
 51
15.0
  7
ROMANS8
100
AcDbText
  0
TEXT
  5
293
330
25E
100
AcDbEntity
  8
08-99
100
AcDbText
 10
166.5077710332552
 20
33.04841847975365
 30
0.0
 40
2.5
  1
Datum:
 50
0.102528160689452
 41
0.8933771909280748
 51
15.0
  7
ROMANS8
 72
     5
 11
177.6749680403372
 21
33.06840168621363
 31
0.0
100
AcDbText
  0
TEXT
  5
294
330
25E
100
AcDbEntity
  8
08-99
100
AcDbText
 10
116.5000099724457
 20
33.05597761772907
 30
0.0
 40
1.6
  1
Änderung:
 51
15.0
  7
ROMANS8
100
AcDbText
  0
TEXT
  5
295
330
25E
100
AcDbEntity
  8
08-99
100
AcDbText
 10
133.4999399664632
 20
9.111119817911628
 30
0.0
 40
1.0
  1
ERSETZT.DURCH:
 51
15.0
  7
ROMANS8
100
AcDbText
  0
TEXT
  5
296
330
25E
100
AcDbEntity
  8
08-99
100
AcDbText
 10
108.499362706382
 20
9.110854721685427
 30
0.0
 40
1.0
  1
ERSETZT.FÜR:
 51
15.0
  7
ROMANS8
100
AcDbText
  0
TEXT
  5
297
330
25E
100
AcDbEntity
  8
08-99
100
AcDbText
 10
232.9909087328646
 20
12.61295738281296
 30
0.0
 40
2.112
  1
AUFTRAGS.NR.:
 51
15.0
  7
ROMANS8
100
AcDbText
  0
TEXT
  5
298
330
25E
100
AcDbEntity
  8
08-99
100
AcDbText
 10
203.5034660957227
 20
12.61092917477953
 30
0.0
 40
2.112
  1
Sonder-Nr:
 51
15.0
  7
ROMANS8
100
AcDbText
  0
TEXT
  5
299
330
25E
100
AcDbEntity
  8
08-99
100
AcDbText
 10
186.6963093857886
 20
49.92370902579148
 30
0.0
 40
1.349999999999999
  1
Format
 51
15.0
  7
ROMANS8
100
AcDbText
  0
TEXT
  5
29A
330
25E
100
AcDbEntity
  8
08-99
100
AcDbText
 10
185.3043816374782
 20
44.64161931184992
 30
0.0
 40
1.822499999999999
  1
Normen
 51
15.0
  7
ROMANS8
100
AcDbText
  0
TEXT
  5
29B
330
25E
100
AcDbEntity
  8
08-99
100
AcDbText
 10
108.5000314946119
 20
33.0555683543073
 30
0.0
 40
1.6
  1
Zust.
 51
15.0
  7
ROMANS8
100
AcDbText
  0
TEXT
  5
29C
330
25E
100
AcDbEntity
  8
08-99
100
AcDbText
 10
136.5031825918795
 20
33.05555977024574
 30
0.0
 40
1.6
  1
Datum:
 51
15.0
  7
ROMANS8
100
AcDbText
  0
TEXT
  5
29D
330
25E
100
AcDbEntity
  8
08-99
100
AcDbText
 10
148.5032155076424
 20
33.05556457669462
 30
0.0
 40
1.6
  1
Name:
 51
15.0
  7
ROMANS8
100
AcDbText
  0
TEXT
  5
29E
330
25E
100
AcDbEntity
  8
08-99
100
AcDbText
 10
158.1545563363015
 20
28.03814008669803
 30
0.0
 40
1.6
  1
Erst.
 51
15.0
  7
ROMANS8
100
AcDbText
  0
TEXT
  5
29F
330
25E
100
AcDbEntity
  8
08-99
100
AcDbText
 10
157.517182253021
 20
23.19745157817022
 30
0.0
 40
1.6
  1
Bearb.
 51
15.0
  7
ROMANS8
100
AcDbText
  0
TEXT
  5
2A0
330
25E
100
AcDbEntity
  8
08-99
100
AcDbText
 10
236.4308068024784
 20
41.61949801145603
 30
0.0
 40
2.0
  1
Zuschnittsbreite:
 51
15.0
  7
ROMANS8
100
AcDbText
  0
TEXT
  5
2A1
330
25E
100
AcDbEntity
  8
08-99
100
AcDbText
 10
202.9849966647425
 20
41.73762414686279
 30
0.0
 40
2.0
  1
Zuschnittslänge:
 51
15.0
  7
ROMANS8
100
AcDbText
  0
LWPOLYLINE
  5
2A2
330
25E
100
AcDbEntity
  8
06-99
100
AcDbPolyline
 90
      133
 70
     1
 43
0.010692
 10
180.7675417027103
 20
18.87656536808259
 10
181.0090490347104
 20
19.08724766408261
 10
180.9228536947104
 20
19.2262579200825
 10
180.8242663267103
 20
19.35180694808264
 10
180.7136290747105
 20
19.46394108008263
 10
180.5912983387103
 20
19.56271377608249
 10
180.4576162627104
 20
19.64816424008256
 10
180.3129285547104
 20
19.72033880408253
 10
180.1575880507104
 20
19.77929092808256
 10
179.9919368947105
 20
19.82505981608255
 10
179.8163243587104
 20
19.85769180008265
 10
179.6310997147105
 20
19.87724034008261
 10
179.4366086707105
 20
19.88374464008257
 10
179.2756833787104
 20
19.87768227608256
 10
179.1199437067102
 20
19.85975892008253
 10
178.9697211067105
 20
19.83036304808269
 10
178.8253505947104
 20
19.78989026408254
 10
178.6871636227104
 20
19.73873617208267
 10
178.5554845147104
 20
19.67729281208255
 10
178.4306554147105
 20
19.60595222408256
 10
178.3130006467104
 20
19.52510644808251
 10
178.2028516627103
 20
19.43514752408259
 10
178.1005470427104
 20
19.33647462008258
 10
178.0064075467105
 20
19.2294726480826
 10
177.9207717547105
 20
19.1145443400826
 10
177.8439711187104
 20
18.99207460808259
 10
177.7763335267104
 20
18.86245905608262
 10
177.7181939947104
 20
18.72608972408255
 10
177.6698804107104
 20
18.58336578008254
 10
177.6317242267105
 20
18.43467213608255
 10
177.6040640227103
 20
18.28040796008252
 10
177.5872205587104
 20
18.12096172808259
 10
177.5815359787104
 20
17.95672904408258
 10
177.5871492787104
 20
17.78762437208263
 10
177.6038002867105
 20
17.62428981608258
 10
177.6311896267102
 20
17.46704257208256
 10
177.6690179227102
 20
17.31619627208249
 10
177.7169893627103
 20
17.17206454808257
 10
177.7748081347105
 20
17.0349610320826
 10
177.8421784267104
 20
16.90519579208256
 10
177.9188008627104
 20
16.78308602408253
 10
178.0043796307104
 20
16.66894179608255
 10
178.0986224827104
 20
16.56308030408257
 10
178.2012229147103
 20
16.46581161608259
 10
178.3118958067103
 20
16.3774529280825
 10
178.4303346547105
 20
16.29831430808264
 10
178.5562472107103
 20
16.22870938808262
 10
178.6893340987103
 20
16.16895536408253
 10
178.8293030707103
 20
16.11936230408258
 10
178.9758511867105
 20
16.08024384008263
 10
179.1286897627103
 20
16.05191360408264
 10
179.2875122947104
 20
16.03468522808259
 10
179.4520300987104
 20
16.02887234408263
 10
179.6160275587104
 20
16.03412568008258
 10
179.7733603387104
 20
16.04976451208262
 10
179.9238395467104
 20
16.07559638408259
 10
180.0672762907103
 20
16.11142884008262
 10
180.2034852427104
 20
16.15707298808257
 10
180.3322739467103
 20
16.21233993608257
 10
180.4534570747104
 20
16.27703722808258
 10
180.5668386067104
 20
16.3509795360826
 10
180.6722403427104
 20
16.43397440408256
 10
180.7694626987104
 20
16.52582581208259
 10
180.8583239107104
 20
16.62635556008257
 10
180.9386350867105
 20
16.73536050008255
 10
181.0102037707104
 20
16.85266243208258
 10
181.0728410707104
 20
16.97806177208258
 10
181.1263616587105
 20
17.11137319208251
 10
181.1705766427103
 20
17.25240423608255
 10
181.2052900027104
 20
17.40096601208256
 10
181.2303235387104
 20
17.55686962808261
 10
181.2454812307105
 20
17.71992619208254
 10
181.2505741867103
 20
17.88993968408255
 10
181.2505741867103
 20
17.88993968408255
 10
181.2505741867103
 20
17.9413218720826
 10
179.6164659307104
 20
17.9413218720826
 10
179.6164659307104
 20
17.65355025608255
 10
180.8857275067103
 20
17.65355025608255
 10
180.8749891747103
 20
17.49100690808257
 10
180.8476568587103
 20
17.33636138408258
 10
180.8044362307105
 20
17.19027658808261
 10
180.7460329627104
 20
17.05341898808257
 10
180.6731598547105
 20
16.9264443600826
 10
180.5865261427104
 20
16.8100263000826
 10
180.4868303707104
 20
16.7048170200826
 10
180.3747889027104
 20
16.61149011608256
 10
180.2511074107103
 20
16.53069780008258
 10
180.1164915667104
 20
16.4631101040826
 10
179.9716506067103
 20
16.40938636808255
 10
179.8172937667104
 20
16.37019306008267
 10
179.6541267187105
 20
16.34618952008253
 10
179.4828586987105
 20
16.33804221608261
 10
179.3181983347104
 20
16.34599350008256
 10
179.1599032747103
 20
16.36937690408251
 10
179.0085651427103
 20
16.40748319208256
 10
178.8647719987102
 20
16.45960669208256
 10
178.7291047747104
 20
16.52503816808257
 10
178.6021550947103
 20
16.60306838408263
 10
178.4845074547104
 20
16.69299523208258
 10
178.3767534787104
 20
16.79410591208267
 10
178.2794776627105
 20
16.90569475208258
 10
178.1932645027103
 20
17.02705608008256
 10
178.1187056227104
 20
17.15747709608257
 10
178.0563855187104
 20
17.29625569208258
 10
178.0068922507104
 20
17.44268263208255
 10
177.9708138787102
 20
17.59604511608262
 10
177.9487348987103
 20
17.75564460008269
 10
177.9412469347104
 20
17.9207682840825
 10
177.9476336227105
 20
18.0891423360826
 10
177.9665370787104
 20
18.25115464808255
 10
177.9975581347105
 20
18.40630626008254
 10
178.0403011867104
 20
18.55410177608257
 10
178.0943741947103
 20
18.69404580008256
 10
178.1593779907104
 20
18.8256465000826
 10
178.2349169707104
 20
18.94840135208261
 10
178.3205990947104
 20
19.06182208808258
 10
178.4160251947103
 20
19.16540618408265
 10
178.5208067947103
 20
19.25866180808253
 10
178.6345375987105
 20
19.3410900000826
 10
178.7568326947105
 20
19.4121989280826
 10
178.8872893507102
 20
19.47148963208258
 10
179.0255155267105
 20
19.51846671608257
 10
179.1711191827105
 20
19.55263478408255
 10
179.3236975867105
 20
19.57350200408257
 10
179.4828586987105
 20
19.5805658520826
 10
179.6605633027104
 20
19.57164872408259
 10
179.8303166227105
 20
19.54501138808257
 10
179.9917800787104
 20
19.50082135208259
 10
180.1446150907104
 20
19.43924612408256
 10
180.2884830787104
 20
19.36046034008256
 10
180.4230490267105
 20
19.26462794408263
 10
180.5479743547104
 20
19.15192357208258
 10
180.6629169187105
 20
19.02251116808264
  0
LWPOLYLINE
  5
2A7
330
25E
100
AcDbEntity
  8
06-99
100
AcDbPolyline
 90
       12
 70
     1
 43
0.010692
 10
177.4389973627103
 20
12.25281434408265
 10
179.3222648587105
 20
12.25281434408265
 10
179.4676012147104
 20
13.00768023608259
 10
178.5648720907104
 20
13.00768023608259
 10
178.6210549867103
 20
13.29950768408252
 10
179.4187173907104
 20
13.29950768408252
 10
179.5558030867103
 20
14.01156280808254
 10
178.7581406827103
 20
14.01156280808254
 10
178.8098471947103
 20
14.28005674808253
 10
179.6892285547103
 20
14.28005674808253
 10
179.8345542187104
 20
15.0349083840826
 10
177.9746344867104
 20
15.0349083840826
  0
LWPOLYLINE
  5
2A8
330
25E
100
AcDbEntity
  8
06-99
100
AcDbPolyline
 90
        4
 70
     1
 43
0.010692
 10
163.6086138067104
 20
12.88042761608255
 10
176.0658630067103
 20
12.88042761608255
 10
175.9422848707104
 20
12.25209798008257
 10
163.4850392347104
 20
12.25209798008257
  0
SOLID
  5
2A9
330
25E
100
AcDbEntity
  8
06-99
100
AcDbTrace
 10
163.6086138067104
 20
12.88042761608255
 30
0.0
 11
176.0658630067103
 21
12.88042761608255
 31
0.0
 12
163.4850392347104
 22
12.25209798008257
 32
0.0
 13
175.9422848707104
 23
12.25209798008257
 33
0.0
  0
LWPOLYLINE
  5
2AA
330
25E
100
AcDbEntity
  8
06-99
100
AcDbPolyline
 90
       10
 70
     1
 43
0.010692
 10
169.3458447787104
 20
16.02887234408263
 10
170.3221847587103
 20
19.10266909208258
 10
171.3396497347103
 20
16.02887234408263
 10
172.5678005707104
 20
19.80153385208257
 10
172.2235110427103
 20
19.80153385208257
 10
171.3396497347103
 20
16.89303186008254
 10
170.3221847587103
 20
19.94541253208251
 10
169.3458447787104
 20
16.86733898408261
 10
168.4260120187104
 20
19.80153385208257
 10
168.0765832027105
 20
19.80153385208257
  0
LWPOLYLINE
  5
2AB
330
25E
100
AcDbEntity
  8
06-99
100
AcDbPolyline
 90
        3
 70
     1
 43
0.010692
 10
174.3244177627104
 20
17.65868598008262
 10
174.9770360587104
 20
19.25683347608253
 10
175.6039650427103
 20
17.65868598008262
  0
LWPOLYLINE
  5
2AC
330
25E
100
AcDbEntity
  8
06-99
100
AcDbPolyline
 90
        7
 70
     1
 43
0.010692
 10
173.3831831827104
 20
16.12735992008254
 10
173.7231959107104
 20
16.12735992008254
 10
174.2113641187103
 20
17.37092862008256
 10
175.7118651427105
 20
17.37092862008256
 10
176.1794940187103
 20
16.12735992008254
 10
176.5443406987103
 20
16.12735992008254
 10
174.9975932107104
 20
19.94541253208251
  0
LWPOLYLINE
  5
2AD
330
25E
100
AcDbEntity
  8
06-99
100
AcDbPolyline
 90
        8
 70
     1
 43
0.010692
 10
185.9298068107102
 20
12.25281434408265
 10
187.0043813227103
 20
12.25281434408265
 10
187.1574087907104
 20
12.60301298408257
 10
187.9122746827104
 20
12.60301298408257
 10
187.9343465347103
 20
12.25281434408265
 10
189.0082759627103
 20
12.25281434408265
 10
188.5711513627103
 20
15.0349083840826
 10
187.4583137467103
 20
15.0349083840826
  0
LWPOLYLINE
  5
2AE
330
25E
100
AcDbEntity
  8
06-99
100
AcDbPolyline
 90
       34
 70
     1
 43
0.010692
 10
183.0434586427104
 20
13.66137842408255
 10
183.0784820707102
 20
13.66137842408255
 10
183.0642260707104
 20
13.48699903208262
 10
183.0638019547103
 20
13.33510135208257
 10
183.0679005547104
 20
13.20222830408261
 10
183.0952328707104
 20
12.25281434408265
 10
183.9668304547102
 20
12.25281434408265
 10
185.3156904067102
 20
15.0349083840826
 10
184.3118078347104
 20
15.0349083840826
 10
183.8579146147103
 20
13.80923096408253
 10
183.8078119027104
 20
13.66872739208253
 10
183.7488419587103
 20
13.48671391208251
 10
183.6900288307102
 20
13.26059949608265
 10
183.6666953227103
 20
13.26059949608265
 10
183.6884214667103
 20
13.45803440408258
 10
183.6929798227104
 20
13.61569507208253
 10
183.6919391347103
 20
13.73531360408259
 10
183.6775548307103
 20
15.0349083840826
 10
182.9732870467103
 20
15.0349083840826
 10
182.4584850667104
 20
13.73531360408259
 10
182.4113832427102
 20
13.61569507208253
 10
182.3552288587104
 20
13.45803440408258
 10
182.3009241907103
 20
13.26059949608265
 10
182.2775906827103
 20
13.26059949608265
 10
182.3058460747104
 20
13.48671391208251
 10
182.3169657547104
 20
13.66872739208253
 10
182.3209609987103
 20
13.80923096408253
 10
182.3390340427103
 20
15.0349083840826
 10
181.3345063867103
 20
15.0349083840826
 10
181.6127371747104
 20
12.25281434408265
 10
182.4843311947103
 20
12.25281434408265
 10
182.8772408107104
 20
13.20222830408261
 10
182.9325148867103
 20
13.33510135208257
 10
182.9905795747104
 20
13.48699903208262
  0
LWPOLYLINE
  5
2AF
330
25E
100
AcDbEntity
  8
06-99
100
AcDbPolyline
 90
       10
 70
     1
 43
0.010692
 10
187.4520696187103
 20
13.2644842560826
 10
187.5983611267103
 20
13.57965946808258
 10
187.6731124627104
 20
13.74409530008267
 10
187.7541542587104
 20
13.9457107800826
 10
187.8288307507103
 20
14.19056470808266
 10
187.8482901907103
 20
14.19056470808266
 10
187.8286668067103
 20
13.9457107800826
 10
187.8320739907103
 20
13.74409530008267
 10
187.8435073027103
 20
13.57965946808258
 10
187.8684125347105
 20
13.2644842560826
  0
LWPOLYLINE
  5
2B0
330
25E
100
AcDbEntity
  8
06-99
100
AcDbPolyline
 90
       23
 70
     1
 43
0.010692
 10
190.5867074107104
 20
12.25281434408265
 10
191.5672422187102
 20
12.25281434408265
 10
191.7440380027103
 20
13.17110389208255
 10
192.0536284267105
 20
12.25281434408265
 10
193.1742391267103
 20
12.25281434408265
 10
192.6490694707104
 20
13.38511496408256
 10
192.8084301667104
 20
13.42380931208259
 10
192.9537023707103
 20
13.49881725608259
 10
193.0813505947103
 20
13.60690268408257
 10
193.1878322227103
 20
13.74481879208258
 10
193.2696010747103
 20
13.90932234008255
 10
193.3231145347102
 20
14.09717008808257
 10
193.3446018907103
 20
14.26809240008259
 10
193.3403037067103
 20
14.42330103608265
 10
193.3102306747104
 20
14.56226139608259
 10
193.2543934867102
 20
14.6844353160825
 10
193.1728099627103
 20
14.78928819608262
 10
193.0654943587103
 20
14.87627830808259
 10
192.9324538027104
 20
14.94487461608258
 10
192.7737096787102
 20
14.99453539208264
 10
192.5892655507103
 20
15.0247260360826
 10
192.3791463667103
 20
15.0349083840826
 10
191.1223445347103
 20
15.0349083840826
  0
LWPOLYLINE
  5
2B1
330
25E
100
AcDbEntity
  8
06-99
100
AcDbPolyline
 90
        9
 70
     1
 43
0.010692
 10
191.9650345147104
 20
14.31896493608258
 10
192.1206850867104
 20
14.31896493608258
 10
192.2773549627104
 20
14.28538492808252
 10
192.3582221227102
 20
14.19041145608264
 10
192.3632188507104
 20
14.04270147608258
 10
192.3008666707103
 20
13.89700159208263
 10
192.1832938747103
 20
13.8057810120826
 10
192.0158143867103
 20
13.77422179208253
 10
191.8601638147104
 20
13.77422179208253
  0
LWPOLYLINE
  5
2B2
330
25E
100
AcDbEntity
  8
06-99
100
AcDbPolyline
 90
       12
 70
     1
 43
0.010692
 10
187.5798033787105
 20
16.12735992008254
 10
189.3989010547104
 20
16.12735992008254
 10
189.3989010547104
 20
16.44082441208252
 10
187.9138214587104
 20
16.44082441208252
 10
187.9138214587104
 20
18.02353266008265
 10
189.3989010547104
 20
18.02353266008265
 10
189.3989010547104
 20
18.33699715208263
 10
187.9138214587104
 20
18.33699715208263
 10
187.9138214587104
 20
19.48806936008259
 10
189.3989010547104
 20
19.48806936008259
 10
189.3989010547104
 20
19.80153385208257
 10
187.5798033787105
 20
19.80153385208257
  0
LWPOLYLINE
  5
2B3
330
25E
100
AcDbEntity
  8
06-99
100
AcDbPolyline
 90
        8
 70
     1
 43
0.010692
 10
182.8530269947105
 20
16.12735992008254
 10
183.1870486387104
 20
16.12735992008254
 10
183.1870486387104
 20
19.09753336808256
 10
185.7666682747103
 20
16.01858664008256
 10
185.7666682747103
 20
19.80153385208257
 10
185.4326608867104
 20
19.80153385208257
 10
185.4326608867104
 20
16.88274615608259
 10
182.8530269947105
 20
19.95568398008254
  0
LWPOLYLINE
  5
2B4
330
25E
100
AcDbEntity
  8
06-99
100
AcDbPolyline
 90
       19
 70
     1
 43
0.010692
 10
191.4484255867105
 20
19.50862651208251
 10
191.7824329747104
 20
19.50862651208251
 10
191.9866180987103
 20
19.50030813608259
 10
192.1604486347104
 20
19.47385969208255
 10
192.3048975547104
 20
19.4270572440825
 10
192.4209200107105
 20
19.35767329208255
 10
192.5094818467105
 20
19.26348033608252
 10
192.5715453427103
 20
19.14225087608264
 10
192.6080799067104
 20
18.99175028408251
 10
192.6200442547104
 20
18.80976175208258
 10
192.6074490787103
 20
18.63100933208255
 10
192.5693784307105
 20
18.48586186808256
 10
192.5054188867104
 20
18.37130421608265
 10
192.4151392027104
 20
18.28432836008261
 10
192.2981259547105
 20
18.2219227200826
 10
192.1539514627104
 20
18.18107215208255
 10
191.9821916107103
 20
18.15877220408265
 10
191.7824329747104
 20
18.15200773208261
 10
191.4484255867105
 20
18.15200773208261
  0
LWPOLYLINE
  5
2B5
330
25E
100
AcDbEntity
  8
06-99
100
AcDbPolyline
 90
       29
 70
     1
 43
0.010692
 10
193.3446018907103
 20
16.12735992008254
 10
192.0239581267103
 20
17.87965398008259
 10
192.2123761147105
 20
17.89225272008264
 10
192.3829028227104
 20
17.92942167608254
 10
192.5344013347104
 20
17.99023064408266
 10
192.6657240427104
 20
18.0737565480826
 10
192.7757304667104
 20
18.17905849208256
 10
192.8632765627103
 20
18.3052169640826
 10
192.9272254147104
 20
18.45129463208263
 10
192.9664329787103
 20
18.61636129208261
 10
192.9797552107102
 20
18.79949030408261
 10
192.9699399547105
 20
18.9745539840826
 10
192.9404834947105
 20
19.13261738408261
 10
192.8913573187104
 20
19.27374822008261
 10
192.8225436067105
 20
19.39801420808248
 10
192.7340174107104
 20
19.50548662808262
 10
192.6257537827105
 20
19.5962367600826
 10
192.4977313387104
 20
19.67032875608254
 10
192.3499251307103
 20
19.72783389608258
 10
192.1823137747103
 20
19.76882702408261
 10
191.9948758867103
 20
19.79336872808261
 10
191.7875829547104
 20
19.80153385208257
 10
191.7875829547104
 20
19.80153385208257
 10
191.1144075067104
 20
19.80153385208257
 10
191.1144075067104
 20
16.12735992008254
 10
191.4484255867105
 20
16.12735992008254
 10
191.4484255867105
 20
17.87965398008259
 10
191.6488399987104
 20
17.87965398008259
 10
192.9386409067103
 20
16.12735992008254
  0
TEXT
  5
2B6
330
25E
100
AcDbEntity
  8
06-99
100
AcDbText
 10
172.6083599897699
 20
9.633209504468425
 30
0.0
 40
1.4256
  1
GmbH & Co KG
 41
1.199203187251
 51
15.0
  7
ROMAND8
 72
     5
 11
193.04195998977
 21
9.633209504468425
 31
0.0
100
AcDbText
  0
TEXT
  5
2B8
330
25E
100
AcDbEntity
  8
06-99
100
AcDbText
 10
172.7098167443538
 20
7.391016232044876
 30
0.0
 40
1.4256
  1
72774 Reutlingen
 50
0.5663244663116128
 41
1.087840993687879
 51
15.0
  7
ROMAND8
 72
     5
 11
192.9434167443538
 21
7.591016232044864
 31
0.0
100
AcDbText
  0
TEXT
  5
2B9
330
25E
100
AcDbEntity
  8
08-99
100
AcDbText
 10
160.4141200905478
 20
48.45009214919253
 30
0.0
 40
2.25
  1
Zul. Abw.
 51
15.0
  7
ROMANS8
100
AcDbText
  0
TEXT
  5
2BA
330
25E
100
AcDbEntity
  8
08-99
100
AcDbText
 10
210.2099282109939
 20
49.2861646781227
 30
0.0
 40
2.0
  1
Mat. Art.
 51
15.0
  7
ROMANS8
100
AcDbText
  0
TEXT
  5
2BB
330
25E
100
AcDbEntity
  8
08-99
100
AcDbText
 10
242.4865328610831
 20
49.40431390209392
 30
0.0
 40
2.0
  1
Oberfläche:
 51
15.0
  7
ROMANS8
100
AcDbText
  0
TEXT
  5
2BC
330
25E
100
AcDbEntity
  8
08-99
100
AcDbText
 10
270.2625397292909
 20
41.73764723542717
 30
0.0
 40
2.0
  1
Blech Dicke:
 51
15.0
  7
ROMANS8
100
AcDbText
  0
TEXT
  5
2BD
330
25E
100
AcDbEntity
  8
08-99
100
AcDbText
 10
274.438029919268
 20
49.28616467812275
 30
0.0
 40
2.0
  1
Maßstab:
 51
15.0
  7
ROMANS8
100
AcDbText
  0
LINE
  5
2BE
330
25E
100
AcDbEntity
  8
01-99
100
AcDbLine
 10
202.0000018907103
 20
46.88888940774922
 30
0.0
 11
179.0000018907103
 21
46.88888940774922
 31
0.0
  0
LINE
  5
2BF
330
25E
100
AcDbEntity
  8
01-99
100
AcDbLine
 10
202.0000018907103
 20
44.33333385208249
 30
0.0
 11
179.0000018907103
 21
44.33333385208249
 31
0.0
  0
LINE
  5
2C0
330
25E
100
AcDbEntity
  8
01-99
100
AcDbLine
 10
202.0000018907103
 20
40.50000051874917
 30
0.0
 11
179.0000018907103
 21
40.50000051874917
 31
0.0
  0
ATTDEF
  5
2C1
330
25E
100
AcDbEntity
  8
06-99
100
AcDbText
 10
203.4954486298875
 20
26.18783921603142
 30
0.0
 40
4.5
  1

 41
0.9
  7
ROMANS8
100
AcDbAttributeDefinition
280
     0
  3
Benennung/Teil
  2
TEILE
 70
     0
280
     0
  0
ATTDEF
  5
2C2
330
25E
100
AcDbEntity
  8
06-99
100
AcDbText
 10
203.4954486298875
 20
18.95060400366537
 30
0.0
 40
4.5
  1

 41
0.9
  7
ROMANS8
100
AcDbAttributeDefinition
280
     0
  3
Benennung/Teil2
  2
TEILE2
 70
     0
280
     0
  0
ATTDEF
  5
2C3
330
25E
100
AcDbEntity
  8
06-99
100
AcDbText
 10
278.3473881024249
 20
45.33333385208254
 30
0.0
 40
3.375
  1

  7
ROMANS8
100
AcDbAttributeDefinition
280
     0
  3
Maßstab
  2
:
 70
     0
280
     0
  0
ATTDEF
  5
2C4
330
25E
100
AcDbEntity
  8
06-99
100
AcDbText
 10
179.9970696900777
 20
27.4416859867805
 30
0.0
 40
2.5
  1

 41
0.9
  7
ROMANS8
100
AcDbAttributeDefinition
280
     0
  3
Name
  2
NAME
 70
     0
280
     0
  0
ATTDEF
  5
2C5
330
25E
100
AcDbEntity
  8
06-99
100
AcDbText
 10
166.4931483426044
 20
27.46123569286044
 30
0.0
 40
2.5
  1

 50
359.9144597696142
 41
0.9542572414211148
  7
ROMANS8
 72
     5
 11
177.7397390111491
 21
27.44444498541589
 31
0.0
100
AcDbAttributeDefinition
280
     0
  3
Datum
  2
DATUM
 70
     0
280
     0
  0
ATTDEF
  5
2C6
330
25E
100
AcDbEntity
  8
06-99
100
AcDbText
 10
265.5063458578686
 20
7.492900319037914
 30
0.0
 40
2.99376
  1

  7
ROMANS8
100
AcDbAttributeDefinition
280
     0
  3
Ident-Nummer
  2
ID.NR
 70
     0
280
     0
  0
ATTDEF
  5
2C7
330
25E
100
AcDbEntity
  8
06-99
100
AcDbText
 10
203.7312681464209
 20
37.66666716319367
 30
0.0
 40
3.0
  1

 41
0.9
  7
ROMANS8
100
AcDbAttributeDefinition
280
     0
  3
Zuschnitts.Länge
  2
LÄNGE
 70
     0
280
     0
  0
ATTDEF
  5
2C8
330
25E
100
AcDbEntity
  8
06-99
100
AcDbText
 10
237.1808068024801
 20
37.67810438919398
 30
0.0
 40
3.0
  1

 41
0.9
  7
ROMANS8
100
AcDbAttributeDefinition
280
     0
  3
Zuschnitts Breite
  2
BREITE
 70
     0
280
     0
  0
ATTDEF
  5
2C9
330
25E
100
AcDbEntity
  8
06-99
100
AcDbText
 10
277.6090940174422
 20
37.66666718541598
 30
0.0
 40
3.09375
  1

  7
ROMANS8
100
AcDbAttributeDefinition
280
     0
  3
Blech.Dicke
  2
1.0
 70
     0
280
     0
  0
ATTDEF
  5
2CA
330
25E
100
AcDbEntity
  8
06-99
100
AcDbText
 10
251.127787492113
 20
45.33333385208266
 30
0.0
 40
3.0
  1

  7
ROMANS8
 72
     1
 11
251.127787492113
 21
45.33333385208266
 31
0.0
100
AcDbAttributeDefinition
280
     0
  3
Oberfläche
  2
IV
 70
     0
280
     0
  0
ATTDEF
  5
2CB
330
25E
100
AcDbEntity
  8
06-99
100
AcDbText
 10
210.2747424268261
 20
45.33333385208249
 30
0.0
 40
3.375
  1
1.4301
  7
ROMANS8
100
AcDbAttributeDefinition
280
     0
  3
Mat.Art
  2
1.4301
 70
     0
280
     0
  0
ATTDEF
  5
2CC
330
25E
100
AcDbEntity
  8
06-99
100
AcDbText
 10
233.0006357775904
 20
7.504397123103842
 30
0.0
 40
3.168
  1

 41
0.9
  7
ROMANS8
100
AcDbAttributeDefinition
280
     0
  3
Auftrags Nr.
  2
AUFTRAGS.NR.
 70
     0
280
     0
  0
ATTDEF
  5
2CD
330
25E
100
AcDbEntity
  8
06-99
100
AcDbText
 10
203.5000018907104
 20
7.500000518749232
 30
0.0
 40
3.168
  1

 41
0.9
  7
ROMANS8
100
AcDbAttributeDefinition
280
     0
  3
Sonder-NR,WPS
  2
SONDER-NR
 70
     0
280
     0
  0
ATTDEF
  5
2CE
330
25E
100
AcDbEntity
  8
06-99
100
AcDbText
 10
133.4997528857186
 20
6.601810588009072
 30
0.0
 40
1.5
  1

 41
0.9
  7
ROMANS8
100
AcDbAttributeDefinition
280
     0
  3
ERSETZT.Durch
  2
ERSETZT.DURCH
 70
     0
280
     0
  0
ATTDEF
  5
2CF
330
25E
100
AcDbEntity
  8
06-99
100
AcDbText
 10
108.4994696709088
 20
6.597456916621638
 30
0.0
 40
1.5
  1

 41
0.9
  7
ROMANS8
100
AcDbAttributeDefinition
280
     0
  3
ERSETZT.Für
  2
ERSETZT.FÜR
 70
     0
280
     0
  0
ATTDEF
  5
2D0
330
25E
100
AcDbEntity
  8
06-99
100
AcDbText
 10
186.9730745371479
 20
47.66851165875721
 30
0.0
 40
1.287
  1
DIN A4
  7
ROMANS8
 72
     1
 11
190.2518602514336
 21
47.66851165875721
 31
0.0
100
AcDbAttributeDefinition
280
     0
  3
Format
  2
FORMAT
 70
     0
280
     0
  0
ATTDEF
  5
2D1
330
25E
100
AcDbEntity
  8
06-99
100
AcDbText
 10
182.9908211122643
 20
37.31860869812611
 30
0.0
 40
2.34
  1
DIN 2768
  7
ROMANS8
 72
     1
 11
191.0136782551214
 21
37.31860869812611
 31
0.0
100
AcDbAttributeDefinition
280
     0
  3
Norm / Kanten
  2
NORM2
 70
     0
280
     0
  0
ATTDEF
  5
2D2
330
25E
100
AcDbEntity
  8
06-99
100
AcDbText
 10
179.8151068265501
 20
41.15194203145941
 30
0.0
 40
2.34
  1
DIN 6930-M
  7
ROMANS8
 72
     1
 11
190.5122496836929
 21
41.15194203145941
 31
0.0
100
AcDbAttributeDefinition
280
     0
  3
Norm / Fräsen
  2
NORM1
 70
     0
280
     0
  0
ENDBLK
  5
2D3
330
25E
100
AcDbEntity
  8
0
100
AcDbBlockEnd
  0
BLOCK
  5
A4
330
A1
100
AcDbEntity
  8
0
100
AcDbBlockBegin
  2
aaaaWagner
 70
     0
 10
0.0
 20
0.0
 30
0.0
  3
aaaaWagner
  1

  0
LWPOLYLINE
  5
A5
330
A1
100
AcDbEntity
  8
02TNR-01
100
AcDbPolyline
 90
      133
 70
     1
 43
0.0135
 10
2.64276749999999
 20
8.613321999999925
 10
2.947701000000051
 20
8.879334999999969
 10
2.838868499999989
 20
9.054852999999866
 10
2.714389500000038
 20
9.213374499999986
 10
2.57469600000013
 20
9.35495800000001
 10
2.420237999999926
 20
9.479670999999882
 10
2.25144750000004
 20
9.587562999999931
 10
2.068760999999994
 20
9.678692499999897
 10
1.872623999999973
 20
9.753126999999949
 10
1.663468500000135
 20
9.810915999999906
 10
1.441735500000049
 20
9.852118000000018
 10
1.20786600000008
 20
9.876800499999944
 10
0.9622965000000931
 20
9.885012999999958
 10
0.759108000000083
 20
9.8773584999999
 10
0.5624669999999697
 20
9.854727999999909
 10
0.372792000000004
 20
9.817611999999996
 10
0.1905060000001413
 20
9.766509999999925
 10
0.0160275000000638
 20
9.701921499999969
 10
-0.1502339999999549
 20
9.6243414999999
 10
-0.3078464999999824
 20
9.534264999999891
 10
-0.4564004999999725
 20
9.432186999999885
 10
-0.5954774999999018
 20
9.318602499999997
 10
-0.7246499999999969
 20
9.194015499999977
 10
-0.8435129999999162
 20
9.058911999999963
 10
-0.9516390000000001
 20
8.913800499999979
 10
-1.048609499999884
 20
8.759166999999933
 10
-1.134010499999931
 20
8.595510999999987
 10
-1.207418999999958
 20
8.42332749999997
 10
-1.268420999999875
 20
8.243120499999918
 10
-1.316597999999885
 20
8.05537599999991
 10
-1.351522499999987
 20
7.860597999999868
 10
-1.372789499999953
 20
7.659276999999974
 10
-1.379966999999965
 20
7.451912499999991
 10
-1.372879499999953
 20
7.238396500000021
 10
-1.351855499999942
 20
7.032165999999961
 10
-1.317273
 20
6.833621499999935
 10
-1.269509999999968
 20
6.643158999999855
 10
-1.208939999999984
 20
6.46117449999997
 10
-1.135936499999957
 20
6.288063999999963
 10
-1.050873000000024
 20
6.124218999999925
 10
-0.9541274999999131
 20
5.970039999999926
 10
-0.8460734999999885
 20
5.825918499999943
 10
-0.7270800000000009
 20
5.692254999999931
 10
-0.5975339999999961
 20
5.569440999999983
 10
-0.4577954999999747
 20
5.457876999999882
 10
-0.308251499999983
 20
5.357954499999948
 10
-0.1492709999999988
 20
5.270069499999976
 10
0.0187680000000228
 20
5.194622499999979
 10
0.1954964999999902
 20
5.132004999999992
 10
0.3805320000001302
 20
5.082613000000037
 10
0.5735100000000557
 20
5.046842500000025
 10
0.7740435000000617
 20
5.025089499999921
 10
0.9817679999999882
 20
5.017749999999921
 10
1.188835500000095
 20
5.024382999999943
 10
1.387488000000075
 20
5.044128999999998
 10
1.577487000000019
 20
5.076744999999959
 10
1.758594000000016
 20
5.121987999999987
 10
1.930574999999976
 20
5.179619500000001
 10
2.093186999999943
 20
5.24940099999992
 10
2.246196000000054
 20
5.331089499999961
 10
2.389354500000081
 20
5.424450999999976
 10
2.522437500000023
 20
5.529242499999895
 10
2.645193000000062
 20
5.645216499999946
 10
2.757391500000039
 20
5.772147999999901
 10
2.858794500000044
 20
5.909780499999897
 10
2.949159000000122
 20
6.057888999999931
 10
3.028246500000022
 20
6.21622149999996
 10
3.095823000000109
 20
6.384543999999891
 10
3.151650000000017
 20
6.562613499999883
 10
3.195480000000088
 20
6.750191499999914
 10
3.227088000000094
 20
6.947039499999959
 10
3.246226500000034
 20
7.152918999999883
 10
3.252657000000112
 20
7.367582499999912
 10
3.252657000000112
 20
7.367582499999912
 10
3.252657000000112
 20
7.432458999999994
 10
1.189389000000005
 20
7.432458999999994
 10
1.189389000000005
 20
7.069110999999907
 10
2.79199200000005
 20
7.069110999999907
 10
2.778433500000005
 20
6.863879499999995
 10
2.743922999999995
 20
6.668619999999918
 10
2.689351500000043
 20
6.48416949999995
 10
2.61561000000006
 20
6.311369499999955
 10
2.523598500000048
 20
6.151047999999946
 10
2.414212500000076
 20
6.004055499999935
 10
2.288334000000077
 20
5.871215499999948
 10
2.146867500000098
 20
5.753378499999939
 10
1.99070400000005
 20
5.651367999999933
 10
1.820734500000071
 20
5.566030000000012
 10
1.637854500000003
 20
5.49819699999989
 10
1.442959500000142
 20
5.448710500000004
 10
1.236940500000059
 20
5.418402999999898
 10
1.020693000000051
 20
5.408115999999949
 10
0.8127885000001242
 20
5.418155499999897
 10
0.6129210000000285
 20
5.447679999999877
 10
0.4218375000000379
 20
5.495793999999932
 10
0.2402805000000399
 20
5.561606499999925
 10
0.0689835000000585
 20
5.644221999999899
 10
-0.0913064999998596
 20
5.742744999999956
 10
-0.2398514999999861
 20
5.856288999999947
 10
-0.3759045000000469
 20
5.983954000000039
 10
-0.4987274999999727
 20
6.124848999999926
 10
-0.6075824999999213
 20
6.27808299999998
 10
-0.7017224999999599
 20
6.442755999999917
 10
-0.7804095000000189
 20
6.617981499999928
 10
-0.8429009999998697
 20
6.802863999999885
 10
-0.8884544999999661
 20
6.996503500000017
 10
-0.9163320000000112
 20
7.19801799999999
 10
-0.9257864999999583
 20
7.406507499999861
 10
-0.9177224999998543
 20
7.619100999999943
 10
-0.8938544999999749
 20
7.823661999999899
 10
-0.854686499999957
 20
8.019560499999897
 10
-0.8007179999999607
 20
8.206170999999926
 10
-0.7324439999999868
 20
8.382867999999916
 10
-0.6503685000000133
 20
8.549030499999958
 10
-0.5549909999999727
 20
8.704024000000003
 10
-0.446806499999866
 20
8.847231999999962
 10
-0.3263190000000122
 20
8.978020000000014
 10
-0.194018999999912
 20
9.095766999999909
 10
-0.0504194999998617
 20
9.199842999999987
 10
0.1039935000001151
 20
9.289626999999995
 10
0.2687114999999949
 20
9.364488999999935
 10
0.443239500000118
 20
9.423803499999962
 10
0.6270825000000287
 20
9.466944999999896
 10
0.8197320000000445
 20
9.493292499999938
 10
1.020693000000051
 20
9.50221149999993
 10
1.245067500000004
 20
9.490952499999934
 10
1.45940250000001
 20
9.457319499999925
 10
1.663270500000066
 20
9.401523999999994
 10
1.85624400000006
 20
9.323777499999891
 10
2.037895500000104
 20
9.224300499999912
 10
2.207802000000015
 20
9.10329999999999
 10
2.365536000000133
 20
8.960996499999964
 10
2.510665500000072
 20
8.797596999999939
  0
LWPOLYLINE
  5
A8
330
A1
100
AcDbEntity
  8
02TNR-01
100
AcDbPolyline
 90
       12
 70
     1
 43
0.0135
 10
-1.117729499999995
 20
0.25
 10
1.260133500000165
 20
0.25
 10
1.443639000000075
 20
1.203113499999972
 10
0.3038295000001199
 20
1.203113499999972
 10
0.3747675000000754
 20
1.571582499999863
 10
1.381917000000157
 20
1.571582499999863
 10
1.555004999999937
 20
2.470641999999884
 10
0.5478555000000825
 20
2.470641999999884
 10
0.6131415000000971
 20
2.809649499999864
 10
1.723471500000073
 20
2.809649499999864
 10
1.906963500000074
 20
3.762744999999995
 10
-0.4414199999999937
 20
3.762744999999995
  0
LWPOLYLINE
  5
A9
330
A1
100
AcDbEntity
  8
02TNR-01
100
AcDbPolyline
 90
        4
 70
     1
 43
0.0135
 10
-18.58033499999988
 20
1.042440999999939
 10
-2.851485000000025
 20
1.042440999999939
 10
-3.007518000000004
 20
0.2490954999999531
 10
-18.73636349999992
 20
0.2490954999999531
  0
SOLID
  5
AA
330
A1
100
AcDbEntity
  8
02TNR-01
100
AcDbTrace
 10
-18.58033499999988
 20
1.042440999999939
 30
0.0
 11
-2.851485000000025
 21
1.042440999999939
 31
0.0
 12
-18.73636349999992
 22
0.2490954999999531
 32
0.0
 13
-3.007518000000004
 23
0.2490954999999531
 33
0.0
  0
LWPOLYLINE
  5
AB
330
A1
100
AcDbEntity
  8
02TNR-01
100
AcDbPolyline
 90
       10
 70
     1
 43
0.0135
 10
-11.77856699999995
 20
5.017749999999921
 10
-10.54581449999989
 20
8.898806499999977
 10
-9.261136499999906
 20
5.017749999999921
 10
-7.710440999999946
 20
9.781211499999926
 10
-8.145149999999944
 20
9.781211499999926
 10
-9.261136499999906
 20
6.108860499999877
 10
-10.54581449999989
 20
9.962876499999879
 10
-11.77856699999995
 20
6.076419999999984
 10
-12.93997200000001
 20
9.781211499999926
 10
-13.38116999999988
 20
9.781211499999926
  0
LWPOLYLINE
  5
AC
330
A1
100
AcDbEntity
  8
02TNR-01
100
AcDbPolyline
 90
        3
 70
     1
 43
0.0135
 10
-5.492489999999861
 20
7.075595499999963
 10
-4.668476999999938
 20
9.093458499999883
 10
-3.876899999999977
 20
7.075595499999963
  0
LWPOLYLINE
  5
AD
330
A1
100
AcDbEntity
  8
02TNR-01
100
AcDbPolyline
 90
        7
 70
     1
 43
0.0135
 10
-6.68091749999985
 20
5.142102999999906
 10
-6.251608499999974
 20
5.142102999999906
 10
-5.63523449999991
 20
6.712265499999944
 10
-3.740662499999871
 20
6.712265499999944
 10
-3.150221999999985
 20
5.142102999999906
 10
-2.689556999999922
 20
5.142102999999906
 10
-4.642520999999987
 20
9.962876499999879
  0
LWPOLYLINE
  5
AE
330
A1
100
AcDbEntity
  8
02TNR-01
100
AcDbPolyline
 90
        8
 70
     1
 43
0.0135
 10
9.602989500000035
 20
0.25
 10
10.95977550000009
 20
0.25
 10
11.15299200000004
 20
0.6921699999999192
 10
12.10610550000001
 20
0.6921699999999192
 10
12.13397400000008
 20
0.25
 10
13.48994549999998
 20
0.25
 10
12.93802049999999
 20
3.762744999999995
 10
11.53292250000004
 20
3.762744999999995
  0
LWPOLYLINE
  5
AF
330
A1
100
AcDbEntity
  8
02TNR-01
100
AcDbPolyline
 90
       34
 70
     1
 43
0.0135
 10
5.958610500000077
 20
2.028489999999919
 10
6.002832000000012
 20
2.028489999999919
 10
5.984831999999983
 20
1.808313999999995
 10
5.984296500000141
 20
1.616523999999913
 10
5.989471500000036
 20
1.448755000000005
 10
6.023982000000046
 20
0.25
 10
7.124483999999938
 20
0.25
 10
8.827589999999986
 20
3.762744999999995
 10
7.560061500000074
 20
3.762744999999995
 10
6.986964000000057
 20
2.215172499999937
 10
6.923703000000045
 20
2.037768999999912
 10
6.849245999999993
 20
1.807953999999881
 10
6.77498700000001
 20
1.522456000000033
 10
6.745525500000098
 20
1.522456000000033
 10
6.772957500000075
 20
1.771742499999959
 10
6.778713000000038
 20
1.970808999999917
 10
6.777399000000059
 20
2.121842499999956
 10
6.759236999999984
 20
3.762744999999995
 10
5.870010000000092
 20
3.762744999999995
 10
5.220007500000065
 20
2.121842499999956
 10
5.160535500000037
 20
1.970808999999917
 10
5.089633500000104
 20
1.771742499999959
 10
5.021067000000016
 20
1.522456000000033
 10
4.991605499999991
 20
1.522456000000033
 10
5.027281500000071
 20
1.807953999999881
 10
5.041321500000094
 20
2.037768999999912
 10
5.046366000000034
 20
2.215172499999937
 10
5.069185500000003
 20
3.762744999999995
 10
3.800842500000044
 20
3.762744999999995
 10
4.152144000000021
 20
0.25
 10
5.252641499999981
 20
0.25
 10
5.748739500000056
 20
1.448755000000005
 10
5.818530000000009
 20
1.616523999999913
 10
5.891844000000105
 20
1.808313999999995
  0
LWPOLYLINE
  5
B0
330
A1
100
AcDbEntity
  8
02TNR-01
100
AcDbPolyline
 90
       10
 70
     1
 43
0.0135
 10
11.52503850000005
 20
1.527360999999928
 10
11.7097500000001
 20
1.925309499999912
 10
11.80413300000009
 20
2.132930500000043
 10
11.9064585000001
 20
2.387495499999999
 10
12.00074700000004
 20
2.696654500000022
 10
12.02531700000008
 20
2.696654500000022
 10
12.00054
 20
2.387495499999999
 10
12.00484200000005
 20
2.132930500000043
 10
12.0192780000001
 20
1.925309499999912
 10
12.05072400000006
 20
1.527360999999928
  0
LWPOLYLINE
  5
B1
330
A1
100
AcDbEntity
  8
02TNR-01
100
AcDbPolyline
 90
       23
 70
     1
 43
0.0135
 10
15.4829145000001
 20
0.25
 10
16.72096350000004
 20
0.25
 10
16.9441905000001
 20
1.409456499999919
 10
17.33508749999998
 20
0.25
 10
18.75
 20
0.25
 10
18.08690700000011
 20
1.679672499999924
 10
18.28812000000016
 20
1.72852899999998
 10
18.47154450000005
 20
1.823235999999951
 10
18.63271650000001
 20
1.959707499999922
 10
18.76716300000009
 20
2.133843999999953
 10
18.87040650000006
 20
2.341550499999925
 10
18.93797400000005
 20
2.578731999999945
 10
18.96510450000016
 20
2.794542999999976
 10
18.9596775
 20
2.99051350000002
 10
18.92170650000003
 20
3.165968499999962
 10
18.85120500000005
 20
3.320228499999871
 10
18.74819550000006
 20
3.452618499999971
 10
18.61269600000003
 20
3.562454499999944
 10
18.44471550000003
 20
3.649065999999947
 10
18.244281
 20
3.711769000000003
 10
18.0113970000001
 20
3.74988849999994
 10
17.74609500000008
 20
3.762744999999995
 10
16.15922399999999
 20
3.762744999999995
  0
LWPOLYLINE
  5
B2
330
A1
100
AcDbEntity
  8
02TNR-01
100
AcDbPolyline
 90
        9
 70
     1
 43
0.0135
 10
17.22322650000001
 20
2.85877599999992
 10
17.41975500000012
 20
2.85877599999992
 10
17.61757050000005
 20
2.816376999999931
 10
17.71967549999999
 20
2.696460999999999
 10
17.72598450000009
 20
2.509958499999925
 10
17.64725700000008
 20
2.32599399999998
 10
17.4988065
 20
2.210816499999964
 10
17.28734250000002
 20
2.1709689999999
 10
17.09081400000002
 20
2.1709689999999
  0
LWPOLYLINE
  5
B3
330
A1
100
AcDbEntity
  8
02TNR-01
100
AcDbPolyline
 90
       12
 70
     1
 43
0.0135
 10
11.24410800000009
 20
5.142102999999906
 10
13.54094850000001
 20
5.142102999999906
 10
13.54094850000001
 20
5.537891499999943
 10
11.66584800000009
 20
5.537891499999943
 10
11.66584800000009
 20
7.536260500000025
 10
13.54094850000001
 20
7.536260500000025
 10
13.54094850000001
 20
7.932049000000006
 10
11.66584800000009
 20
7.932049000000006
 10
11.66584800000009
 20
9.385422999999946
 10
13.54094850000001
 20
9.385422999999946
 10
13.54094850000001
 20
9.781211499999926
 10
11.24410800000009
 20
9.781211499999926
  0
LWPOLYLINE
  5
B4
330
A1
100
AcDbEntity
  8
02TNR-01
100
AcDbPolyline
 90
        8
 70
     1
 43
0.0135
 10
5.275956000000064
 20
5.142102999999906
 10
5.697700499999996
 20
5.142102999999906
 10
5.697700499999996
 20
8.892321999999921
 10
8.954796000000101
 20
5.004762999999968
 10
8.954796000000101
 20
9.781211499999926
 10
8.53306950000001
 20
9.781211499999926
 10
8.53306950000001
 20
6.095873499999925
 10
5.275956000000064
 20
9.975845499999877
  0
LWPOLYLINE
  5
B5
330
A1
100
AcDbEntity
  8
02TNR-01
100
AcDbPolyline
 90
       19
 70
     1
 43
0.0135
 10
16.12873200000001
 20
9.411378999999897
 10
16.55045849999999
 20
9.411378999999897
 10
16.80826800000011
 20
9.400875999999925
 10
17.02775099999996
 20
9.367481499999939
 10
17.21013600000015
 20
9.308387499999867
 10
17.35662900000011
 20
9.22078149999993
 10
17.46844950000002
 20
9.101850999999896
 10
17.5468125000001
 20
8.94878349999999
 10
17.59294199999999
 20
8.758757499999887
 10
17.60804850000011
 20
8.528973999999948
 10
17.59214550000013
 20
8.303276499999924
 10
17.54407650000007
 20
8.120009499999923
 10
17.46331950000012
 20
7.975366000000008
 10
17.34933000000001
 20
7.865547999999989
 10
17.20158600000002
 20
7.786752999999976
 10
17.01954750000004
 20
7.735173999999915
 10
16.80267900000001
 20
7.707017500000006
 10
16.55045849999999
 20
7.698476499999969
 10
16.12873200000001
 20
7.698476499999969
  0
LWPOLYLINE
  5
B6
330
A1
100
AcDbEntity
  8
02TNR-01
100
AcDbPolyline
 90
       29
 70
     1
 43
0.0135
 10
18.52289400000006
 20
5.142102999999906
 10
16.85541450000005
 20
7.354595499999959
 10
17.09331600000007
 20
7.370502999999985
 10
17.30862750000006
 20
7.417433499999901
 10
17.49991350000005
 20
7.494212500000003
 10
17.66572500000006
 20
7.599674499999991
 10
17.80462199999999
 20
7.732631499999911
 10
17.91516000000001
 20
7.891922499999964
 10
17.99590350000005
 20
8.076364000000012
 10
18.04540800000006
 20
8.284781500000008
 10
18.062229
 20
8.51600499999995
 10
18.04983600000014
 20
8.737044999999966
 10
18.01264350000008
 20
8.936619999999891
 10
17.95061550000002
 20
9.114815499999963
 10
17.86372950000009
 20
9.271716999999853
 10
17.75195399999995
 20
9.407414499999958
 10
17.6152575000001
 20
9.521997999999939
 10
17.45361300000002
 20
9.615548499999931
 10
17.26698900000008
 20
9.688155999999935
 10
17.05535850000001
 20
9.739914999999996
 10
16.81869449999999
 20
9.770901999999978
 10
16.55696100000011
 20
9.781211499999926
 10
16.55696100000011
 20
9.781211499999926
 10
15.70699200000001
 20
9.781211499999926
 10
15.70699200000001
 20
5.142102999999906
 10
16.12873200000001
 20
5.142102999999906
 10
16.12873200000001
 20
7.354595499999959
 10
16.3817805000001
 20
7.354595499999959
 10
18.0103170000001
 20
5.142102999999906
  0
LWPOLYLINE
  5
B7
330
A1
100
AcDbEntity
  8
02TNR-01
  6
VERDECKT
100
AcDbPolyline
 90
        4
 70
     1
 43
0.0
 10
-19.0
 20
0.0
 10
19.0
 20
0.0
 10
19.0
 20
10.0
 10
-19.0
 20
10.0
  0
ENDBLK
  5
B9
330
A1
100
AcDbEntity
  8
0
100
AcDbBlockEnd
  0
BLOCK
  5
1D6
330
1D5
100
AcDbEntity
  8
0
100
AcDbBlockBegin
  2
*D2
 70
     1
 10
0.0
 20
0.0
 30
0.0
  3
*D2
  1

  0
LINE
  5
1D7
330
1D5
100
AcDbEntity
  8
09-01
 62
     4
370
    -2
100
AcDbLine
 10
474.6015063193214
 20
276.5782580882063
 30
0.0
 11
474.6015063193214
 21
307.1249743711541
 31
0.0
  0
LINE
  5
1D8
330
1D5
100
AcDbEntity
  8
09-01
 62
     4
370
    -2
100
AcDbLine
 10
402.6015063193214
 20
289.5782580882064
 30
0.0
 11
402.6015063193214
 21
307.1249743711541
 31
0.0
  0
LINE
  5
1D9
330
1D5
100
AcDbEntity
  8
09-01
 62
     4
370
    -2
100
AcDbLine
 10
469.6015063193214
 20
305.1249743711541
 30
0.0
 11
407.6015063193215
 21
305.1249743711541
 31
0.0
  0
SOLID
  5
1DA
330
1D5
100
AcDbEntity
  8
09-01
 62
     4
100
AcDbTrace
 10
469.6015063193214
 20
305.9583077044873
 30
0.0
 11
469.6015063193214
 21
304.2916410378207
 31
0.0
 12
474.6015063193214
 22
305.1249743711541
 32
0.0
 13
474.6015063193214
 23
305.1249743711541
 33
0.0
  0
SOLID
  5
1DB
330
1D5
100
AcDbEntity
  8
09-01
 62
     4
100
AcDbTrace
 10
407.6015063193215
 20
305.9583077044873
 30
0.0
 11
407.6015063193215
 21
304.2916410378207
 31
0.0
 12
402.6015063193214
 22
305.1249743711541
 32
0.0
 13
402.6015063193214
 23
305.1249743711541
 33
0.0
  0
MTEXT
  5
1DC
330
1D5
100
AcDbEntity
  8
09-01
 62
     1
100
AcDbMText
 10
438.6015063193214
 20
309.6249743711541
 30
0.0
 40
5.0
 41
0.0
 46
0.0
 71
     5
 72
     1
  1
72
 73
     1
 44
1.0
  0
POINT
  5
1DD
330
1D5
100
AcDbEntity
  8
DEFPOINTS
 62
     0
100
AcDbPoint
 10
474.6015063193214
 20
274.5782580882063
 30
0.0
  0
POINT
  5
1DE
330
1D5
100
AcDbEntity
  8
DEFPOINTS
 62
     0
100
AcDbPoint
 10
402.6015063193214
 20
287.5782580882064
 30
0.0
  0
POINT
  5
1DF
330
1D5
100
AcDbEntity
  8
DEFPOINTS
 62
     0
100
AcDbPoint
 10
402.6015063193214
 20
305.1249743711541
 30
0.0
  0
ENDBLK
  5
1E0
330
1D5
100
AcDbEntity
  8
0
100
AcDbBlockEnd
  0
BLOCK
  5
1C9
330
1C8
100
AcDbEntity
  8
0
100
AcDbBlockBegin
  2
*D3
 70
     1
 10
0.0
 20
0.0
 30
0.0
  3
*D3
  1

  0
LINE
  5
1CA
330
1C8
100
AcDbEntity
  8
09-01
 62
     4
370
    -2
100
AcDbLine
 10
402.6015063193214
 20
259.5782580882064
 30
0.0
 11
402.6015063193214
 21
231.0630507397612
 31
0.0
  0
LINE
  5
1CB
330
1C8
100
AcDbEntity
  8
09-01
 62
     4
370
    -2
100
AcDbLine
 10
429.6756352484439
 20
253.5461025096609
 30
0.0
 11
429.6756352484439
 21
231.0630507397612
 31
0.0
  0
LINE
  5
1CC
330
1C8
100
AcDbEntity
  8
09-01
 62
     4
370
    -2
100
AcDbLine
 10
407.6015063193215
 20
233.0630507397613
 30
0.0
 11
424.6756352484439
 21
233.0630507397613
 31
0.0
  0
SOLID
  5
1CD
330
1C8
100
AcDbEntity
  8
09-01
 62
     4
100
AcDbTrace
 10
407.6015063193215
 20
233.8963840730946
 30
0.0
 11
407.6015063193215
 21
232.2297174064279
 31
0.0
 12
402.6015063193214
 22
233.0630507397613
 32
0.0
 13
402.6015063193214
 23
233.0630507397613
 33
0.0
  0
SOLID
  5
1CE
330
1C8
100
AcDbEntity
  8
09-01
 62
     4
100
AcDbTrace
 10
424.6756352484439
 20
233.8963840730946
 30
0.0
 11
424.6756352484439
 21
232.2297174064279
 31
0.0
 12
429.6756352484439
 22
233.0630507397613
 32
0.0
 13
429.6756352484439
 23
233.0630507397613
 33
0.0
  0
MTEXT
  5
1CF
330
1C8
100
AcDbEntity
  8
09-01
 62
     1
100
AcDbMText
 10
416.1385707838826
 20
237.5630507397612
 30
0.0
 40
5.0
 41
0.0
 46
0.0
 71
     5
 72
     1
  1
27
 73
     1
 44
1.0
  0
POINT
  5
1D0
330
1C8
100
AcDbEntity
  8
DEFPOINTS
 62
     0
100
AcDbPoint
 10
402.6015063193214
 20
261.5782580882064
 30
0.0
  0
POINT
  5
1D1
330
1C8
100
AcDbEntity
  8
DEFPOINTS
 62
     0
100
AcDbPoint
 10
429.6756352484439
 20
255.5461025096609
 30
0.0
  0
POINT
  5
1D2
330
1C8
100
AcDbEntity
  8
DEFPOINTS
 62
     0
100
AcDbPoint
 10
429.6756352484439
 20
233.0630507397613
 30
0.0
  0
ENDBLK
  5
1D3
330
1C8
100
AcDbEntity
  8
0
100
AcDbBlockEnd
  0
BLOCK
  5
1BC
330
1BB
100
AcDbEntity
  8
0
100
AcDbBlockBegin
  2
*D4
 70
     1
 10
0.0
 20
0.0
 30
0.0
  3
*D4
  1

  0
LINE
  5
1BD
330
1BB
100
AcDbEntity
  8
09-01
 62
     4
370
    -2
100
AcDbLine
 10
402.6015063193214
 20
289.5782580882064
 30
0.0
 11
402.6015063193214
 21
296.2863940101378
 31
0.0
  0
LINE
  5
1BE
330
1BB
100
AcDbEntity
  8
09-01
 62
     4
370
    -2
100
AcDbLine
 10
453.6015063193215
 20
285.0782580882064
 30
0.0
 11
453.6015063193215
 21
296.2863940101378
 31
0.0
  0
LINE
  5
1BF
330
1BB
100
AcDbEntity
  8
09-01
 62
     4
370
    -2
100
AcDbLine
 10
407.6015063193215
 20
294.2863940101378
 30
0.0
 11
448.6015063193214
 21
294.2863940101378
 31
0.0
  0
SOLID
  5
1C0
330
1BB
100
AcDbEntity
  8
09-01
 62
     4
100
AcDbTrace
 10
407.6015063193215
 20
295.1197273434711
 30
0.0
 11
407.6015063193215
 21
293.4530606768045
 31
0.0
 12
402.6015063193214
 22
294.2863940101378
 32
0.0
 13
402.6015063193214
 23
294.2863940101378
 33
0.0
  0
SOLID
  5
1C1
330
1BB
100
AcDbEntity
  8
09-01
 62
     4
100
AcDbTrace
 10
448.6015063193214
 20
295.1197273434711
 30
0.0
 11
448.6015063193214
 21
293.4530606768045
 31
0.0
 12
453.6015063193215
 22
294.2863940101378
 32
0.0
 13
453.6015063193215
 23
294.2863940101378
 33
0.0
  0
MTEXT
  5
1C2
330
1BB
100
AcDbEntity
  8
09-01
 62
     1
100
AcDbMText
 10
428.1015063193215
 20
298.7863940101378
 30
0.0
 40
5.0
 41
0.0
 46
0.0
 71
     5
 72
     1
  1
51
 73
     1
 44
1.0
  0
POINT
  5
1C3
330
1BB
100
AcDbEntity
  8
DEFPOINTS
 62
     0
100
AcDbPoint
 10
402.6015063193214
 20
287.5782580882064
 30
0.0
  0
POINT
  5
1C4
330
1BB
100
AcDbEntity
  8
DEFPOINTS
 62
     0
100
AcDbPoint
 10
453.6015063193215
 20
283.0782580882064
 30
0.0
  0
POINT
  5
1C5
330
1BB
100
AcDbEntity
  8
DEFPOINTS
 62
     0
100
AcDbPoint
 10
453.6015063193215
 20
294.2863940101378
 30
0.0
  0
ENDBLK
  5
1C6
330
1BB
100
AcDbEntity
  8
0
100
AcDbBlockEnd
  0
BLOCK
  5
1AF
330
1AE
100
AcDbEntity
  8
0
100
AcDbBlockBegin
  2
*D5
 70
     1
 10
0.0
 20
0.0
 30
0.0
  3
*D5
  1

  0
LINE
  5
1B0
330
1AE
100
AcDbEntity
  8
09-01
 62
     4
370
    -2
100
AcDbLine
 10
475.6015063193214
 20
287.5782580882046
 30
0.0
 11
491.7654727864687
 21
287.5782580882046
 31
0.0
  0
LINE
  5
1B1
330
1AE
100
AcDbEntity
  8
09-01
 62
     4
370
    -2
100
AcDbLine
 10
475.6015063193214
 20
261.5782580882044
 30
0.0
 11
491.7654727864687
 21
261.5782580882044
 31
0.0
  0
LINE
  5
1B2
330
1AE
100
AcDbEntity
  8
09-01
 62
     4
370
    -2
100
AcDbLine
 10
489.7654727864686
 20
282.5782580882046
 30
0.0
 11
489.7654727864686
 21
266.5782580882044
 31
0.0
  0
SOLID
  5
1B3
330
1AE
100
AcDbEntity
  8
09-01
 62
     4
100
AcDbTrace
 10
488.9321394531354
 20
282.5782580882046
 30
0.0
 11
490.598806119802
 21
282.5782580882046
 31
0.0
 12
489.7654727864686
 22
287.5782580882046
 32
0.0
 13
489.7654727864686
 23
287.5782580882046
 33
0.0
  0
SOLID
  5
1B4
330
1AE
100
AcDbEntity
  8
09-01
 62
     4
100
AcDbTrace
 10
488.9321394531354
 20
266.5782580882044
 30
0.0
 11
490.598806119802
 21
266.5782580882044
 31
0.0
 12
489.7654727864686
 22
261.5782580882044
 32
0.0
 13
489.7654727864686
 23
261.5782580882044
 33
0.0
  0
MTEXT
  5
1B5
330
1AE
100
AcDbEntity
  8
09-01
 62
     1
100
AcDbMText
 10
485.2654727864686
 20
274.5782580882046
 30
0.0
 40
5.0
 41
0.0
 46
0.0
 71
     5
 72
     1
  1
%%C26
 11
0.0000000000000001
 21
1.0
 31
0.0
 73
     1
 44
1.0
  0
POINT
  5
1B6
330
1AE
100
AcDbEntity
  8
DEFPOINTS
 62
     0
100
AcDbPoint
 10
473.6015063193214
 20
287.5782580882046
 30
0.0
  0
POINT
  5
1B7
330
1AE
100
AcDbEntity
  8
DEFPOINTS
 62
     0
100
AcDbPoint
 10
473.6015063193214
 20
261.5782580882044
 30
0.0
  0
POINT
  5
1B8
330
1AE
100
AcDbEntity
  8
DEFPOINTS
 62
     0
100
AcDbPoint
 10
489.7654727864686
 20
261.5782580882044
 30
0.0
  0
ENDBLK
  5
1B9
330
1AE
100
AcDbEntity
  8
0
100
AcDbBlockEnd
  0
BLOCK
  5
186
330
185
100
AcDbEntity
  8
0
100
AcDbBlockBegin
  2
*D6
 70
     1
 10
0.0
 20
0.0
 30
0.0
  3
*D6
  1

  0
LINE
  5
187
330
185
100
AcDbEntity
  8
09-01
 62
     4
370
    -2
100
AcDbLine
 10
402.6015063193214
 20
238.3759113539397
 30
0.0
 11
402.6015063193214
 21
217.6254617480609
 31
0.0
  0
LINE
  5
188
330
185
100
AcDbEntity
  8
09-01
 62
     4
370
    -2
100
AcDbLine
 10
437.6015063193214
 20
259.5782580882048
 30
0.0
 11
437.6015063193214
 21
217.6254617480609
 31
0.0
  0
LINE
  5
189
330
185
100
AcDbEntity
  8
09-01
 62
     4
370
    -2
100
AcDbLine
 10
407.6015063193215
 20
219.6254617480609
 30
0.0
 11
432.6015063193215
 21
219.6254617480609
 31
0.0
  0
SOLID
  5
18A
330
185
100
AcDbEntity
  8
09-01
 62
     4
100
AcDbTrace
 10
407.6015063193215
 20
220.4587950813943
 30
0.0
 11
407.6015063193215
 21
218.7921284147276
 31
0.0
 12
402.6015063193214
 22
219.6254617480609
 32
0.0
 13
402.6015063193214
 23
219.6254617480609
 33
0.0
  0
SOLID
  5
18B
330
185
100
AcDbEntity
  8
09-01
 62
     4
100
AcDbTrace
 10
432.6015063193215
 20
220.4587950813943
 30
0.0
 11
432.6015063193215
 21
218.7921284147276
 31
0.0
 12
437.6015063193214
 22
219.6254617480609
 32
0.0
 13
437.6015063193214
 23
219.6254617480609
 33
0.0
  0
MTEXT
  5
18C
330
185
100
AcDbEntity
  8
09-01
 62
     1
100
AcDbMText
 10
420.1015063193215
 20
224.125461748061
 30
0.0
 40
5.0
 41
0.0
 46
0.0
 71
     5
 72
     1
  1
35
 73
     1
 44
1.0
  0
POINT
  5
18D
330
185
100
AcDbEntity
  8
DEFPOINTS
 62
     0
100
AcDbPoint
 10
402.6015063193214
 20
240.3759113539397
 30
0.0
  0
POINT
  5
18E
330
185
100
AcDbEntity
  8
DEFPOINTS
 62
     0
100
AcDbPoint
 10
437.6015063193214
 20
261.5782580882048
 30
0.0
  0
POINT
  5
18F
330
185
100
AcDbEntity
  8
DEFPOINTS
 62
     0
100
AcDbPoint
 10
437.6015063193214
 20
219.6254617480609
 30
0.0
  0
ENDBLK
  5
190
330
185
100
AcDbEntity
  8
0
100
AcDbBlockEnd
  0
BLOCK
  5
16D
330
16C
100
AcDbEntity
  8
0
100
AcDbBlockBegin
  2
*D7
 70
     1
 10
0.0
 20
0.0
 30
0.0
  3
*D7
  1

  0
LINE
  5
16E
330
16C
100
AcDbEntity
  8
09-01
 62
     4
370
    -2
100
AcDbLine
 10
392.6015063193214
 20
393.5782580882063
 30
0.0
 11
392.6015063193214
 21
400.4759495501873
 31
0.0
  0
LINE
  5
16F
330
16C
100
AcDbEntity
  8
09-01
 62
     4
370
    -2
100
AcDbLine
 10
402.6015063193214
 20
392.5782580882063
 30
0.0
 11
402.6015063193214
 21
400.4759495501873
 31
0.0
  0
LINE
  5
170
330
16C
100
AcDbEntity
  8
09-01
 62
     4
370
    -2
100
AcDbLine
 10
387.6015063193214
 20
398.4759495501874
 30
0.0
 11
382.6015063193214
 21
398.4759495501874
 31
0.0
  0
LINE
  5
171
330
16C
100
AcDbEntity
  8
09-01
 62
     4
370
    -2
100
AcDbLine
 10
407.6015063193215
 20
398.4759495501874
 30
0.0
 11
412.6015063193214
 21
398.4759495501874
 31
0.0
  0
LINE
  5
172
330
16C
100
AcDbEntity
  8
09-01
 62
     4
370
    -2
100
AcDbLine
 10
392.6015063193214
 20
398.4759495501874
 30
0.0
 11
402.6015063193214
 21
398.4759495501874
 31
0.0
  0
SOLID
  5
173
330
16C
100
AcDbEntity
  8
09-01
 62
     4
100
AcDbTrace
 10
387.6015063193214
 20
399.3092828835207
 30
0.0
 11
387.6015063193214
 21
397.642616216854
 31
0.0
 12
392.6015063193214
 22
398.4759495501874
 32
0.0
 13
392.6015063193214
 23
398.4759495501874
 33
0.0
  0
SOLID
  5
174
330
16C
100
AcDbEntity
  8
09-01
 62
     4
100
AcDbTrace
 10
407.6015063193215
 20
399.3092828835207
 30
0.0
 11
407.6015063193215
 21
397.642616216854
 31
0.0
 12
402.6015063193214
 22
398.4759495501874
 32
0.0
 13
402.6015063193214
 23
398.4759495501874
 33
0.0
  0
MTEXT
  5
175
330
16C
100
AcDbEntity
  8
09-01
 62
     1
100
AcDbMText
 10
397.6015063193214
 20
402.9759495501873
 30
0.0
 40
5.0
 41
0.0
 46
0.0
 71
     5
 72
     1
  1
10
 73
     1
 44
1.0
  0
POINT
  5
176
330
16C
100
AcDbEntity
  8
DEFPOINTS
 62
     0
100
AcDbPoint
 10
392.6015063193214
 20
391.5782580882063
 30
0.0
  0
POINT
  5
177
330
16C
100
AcDbEntity
  8
DEFPOINTS
 62
     0
100
AcDbPoint
 10
402.6015063193214
 20
390.5782580882063
 30
0.0
  0
POINT
  5
178
330
16C
100
AcDbEntity
  8
DEFPOINTS
 62
     0
100
AcDbPoint
 10
402.6015063193214
 20
398.4759495501874
 30
0.0
  0
ENDBLK
  5
179
330
16C
100
AcDbEntity
  8
0
100
AcDbBlockEnd
  0
BLOCK
  5
160
330
15F
100
AcDbEntity
  8
0
100
AcDbBlockBegin
  2
*D8
 70
     1
 10
0.0
 20
0.0
 30
0.0
  3
*D8
  1

  0
LINE
  5
161
330
15F
100
AcDbEntity
  8
09-01
 62
     4
370
    -2
100
AcDbLine
 10
282.6015063193214
 20
241.5782580882063
 30
0.0
 11
282.6015063193214
 21
217.6254617480609
 31
0.0
  0
LINE
  5
162
330
15F
100
AcDbEntity
  8
09-01
 62
     4
370
    -2
100
AcDbLine
 10
402.6015063193215
 20
243.8782580882065
 30
0.0
 11
402.6015063193215
 21
217.6254617480609
 31
0.0
  0
LINE
  5
163
330
15F
100
AcDbEntity
  8
09-01
 62
     4
370
    -2
100
AcDbLine
 10
287.6015063193214
 20
219.6254617480609
 30
0.0
 11
397.6015063193215
 21
219.6254617480609
 31
0.0
  0
SOLID
  5
164
330
15F
100
AcDbEntity
  8
09-01
 62
     4
100
AcDbTrace
 10
287.6015063193214
 20
220.4587950813943
 30
0.0
 11
287.6015063193214
 21
218.7921284147276
 31
0.0
 12
282.6015063193214
 22
219.6254617480609
 32
0.0
 13
282.6015063193214
 23
219.6254617480609
 33
0.0
  0
SOLID
  5
165
330
15F
100
AcDbEntity
  8
09-01
 62
     4
100
AcDbTrace
 10
397.6015063193215
 20
220.4587950813943
 30
0.0
 11
397.6015063193215
 21
218.7921284147276
 31
0.0
 12
402.6015063193215
 22
219.6254617480609
 32
0.0
 13
402.6015063193215
 23
219.6254617480609
 33
0.0
  0
MTEXT
  5
166
330
15F
100
AcDbEntity
  8
09-01
 62
     1
100
AcDbMText
 10
342.6015063193215
 20
224.125461748061
 30
0.0
 40
5.0
 41
0.0
 46
0.0
 71
     5
 72
     1
  1
120
 73
     1
 44
1.0
  0
POINT
  5
167
330
15F
100
AcDbEntity
  8
DEFPOINTS
 62
     0
100
AcDbPoint
 10
282.6015063193214
 20
243.5782580882063
 30
0.0
  0
POINT
  5
168
330
15F
100
AcDbEntity
  8
DEFPOINTS
 62
     0
100
AcDbPoint
 10
402.6015063193215
 20
245.8782580882065
 30
0.0
  0
POINT
  5
169
330
15F
100
AcDbEntity
  8
DEFPOINTS
 62
     0
100
AcDbPoint
 10
402.6015063193215
 20
219.6254617480609
 30
0.0
  0
ENDBLK
  5
16A
330
15F
100
AcDbEntity
  8
0
100
AcDbBlockEnd
  0
BLOCK
  5
153
330
152
100
AcDbEntity
  8
0
100
AcDbBlockBegin
  2
*D9
 70
     1
 10
0.0
 20
0.0
 30
0.0
  3
*D9
  1

  0
LINE
  5
154
330
152
100
AcDbEntity
  8
09-01
 62
     4
370
    -2
100
AcDbLine
 10
282.6015063193214
 20
241.5782580882063
 30
0.0
 11
282.6015063193214
 21
205.0866628054134
 31
0.0
  0
LINE
  5
155
330
152
100
AcDbEntity
  8
09-01
 62
     4
370
    -2
100
AcDbLine
 10
474.6015063193214
 20
272.5782580882064
 30
0.0
 11
474.6015063193214
 21
205.0866628054134
 31
0.0
  0
LINE
  5
156
330
152
100
AcDbEntity
  8
09-01
 62
     4
370
    -2
100
AcDbLine
 10
287.6015063193214
 20
207.0866628054134
 30
0.0
 11
469.6015063193214
 21
207.0866628054134
 31
0.0
  0
SOLID
  5
157
330
152
100
AcDbEntity
  8
09-01
 62
     4
100
AcDbTrace
 10
287.6015063193214
 20
207.9199961387468
 30
0.0
 11
287.6015063193214
 21
206.2533294720801
 31
0.0
 12
282.6015063193214
 22
207.0866628054134
 32
0.0
 13
282.6015063193214
 23
207.0866628054134
 33
0.0
  0
SOLID
  5
158
330
152
100
AcDbEntity
  8
09-01
 62
     4
100
AcDbTrace
 10
469.6015063193214
 20
207.9199961387468
 30
0.0
 11
469.6015063193214
 21
206.2533294720801
 31
0.0
 12
474.6015063193214
 22
207.0866628054134
 32
0.0
 13
474.6015063193214
 23
207.0866628054134
 33
0.0
  0
MTEXT
  5
159
330
152
100
AcDbEntity
  8
09-01
 62
     1
100
AcDbMText
 10
378.6015063193214
 20
211.5866628054134
 30
0.0
 40
5.0
 41
0.0
 46
0.0
 71
     5
 72
     1
  1
192
 73
     1
 44
1.0
  0
POINT
  5
15A
330
152
100
AcDbEntity
  8
DEFPOINTS
 62
     0
100
AcDbPoint
 10
282.6015063193214
 20
243.5782580882063
 30
0.0
  0
POINT
  5
15B
330
152
100
AcDbEntity
  8
DEFPOINTS
 62
     0
100
AcDbPoint
 10
474.6015063193214
 20
274.5782580882064
 30
0.0
  0
POINT
  5
15C
330
152
100
AcDbEntity
  8
DEFPOINTS
 62
     0
100
AcDbPoint
 10
474.6015063193214
 20
207.0866628054134
 30
0.0
  0
ENDBLK
  5
15D
330
152
100
AcDbEntity
  8
0
100
AcDbBlockEnd
  0
BLOCK
  5
146
330
145
100
AcDbEntity
  8
0
100
AcDbBlockBegin
  2
*D10
 70
     1
 10
0.0
 20
0.0
 30
0.0
  3
*D10
  1

  0
LINE
  5
147
330
145
100
AcDbEntity
  8
09-01
 62
     4
370
    -2
100
AcDbLine
 10
47.94346360254528
 20
241.5782580882063
 30
0.0
 11
47.94346360254528
 21
230.1522382427918
 31
0.0
  0
LINE
  5
148
330
145
100
AcDbEntity
  8
09-01
 62
     4
370
    -2
100
AcDbLine
 10
195.9434636025453
 20
241.5782580882063
 30
0.0
 11
195.9434636025453
 21
230.1522382427918
 31
0.0
  0
LINE
  5
149
330
145
100
AcDbEntity
  8
09-01
 62
     4
370
    -2
100
AcDbLine
 10
52.94346360254528
 20
232.1522382427918
 30
0.0
 11
190.9434636025453
 21
232.1522382427918
 31
0.0
  0
SOLID
  5
14A
330
145
100
AcDbEntity
  8
09-01
 62
     4
100
AcDbTrace
 10
52.94346360254528
 20
232.9855715761251
 30
0.0
 11
52.94346360254528
 21
231.3189049094584
 31
0.0
 12
47.94346360254528
 22
232.1522382427918
 32
0.0
 13
47.94346360254528
 23
232.1522382427918
 33
0.0
  0
SOLID
  5
14B
330
145
100
AcDbEntity
  8
09-01
 62
     4
100
AcDbTrace
 10
190.9434636025453
 20
232.9855715761251
 30
0.0
 11
190.9434636025453
 21
231.3189049094584
 31
0.0
 12
195.9434636025453
 22
232.1522382427918
 32
0.0
 13
195.9434636025453
 23
232.1522382427918
 33
0.0
  0
MTEXT
  5
14C
330
145
100
AcDbEntity
  8
09-01
 62
     1
100
AcDbMText
 10
121.9434636025453
 20
236.6522382427918
 30
0.0
 40
5.0
 41
0.0
 46
0.0
 71
     5
 72
     1
  1
148
 73
     1
 44
1.0
  0
POINT
  5
14D
330
145
100
AcDbEntity
  8
DEFPOINTS
 62
     0
100
AcDbPoint
 10
47.94346360254528
 20
243.5782580882063
 30
0.0
  0
POINT
  5
14E
330
145
100
AcDbEntity
  8
DEFPOINTS
 62
     0
100
AcDbPoint
 10
195.9434636025453
 20
243.5782580882063
 30
0.0
  0
POINT
  5
14F
330
145
100
AcDbEntity
  8
DEFPOINTS
 62
     0
100
AcDbPoint
 10
195.9434636025453
 20
232.1522382427918
 30
0.0
  0
ENDBLK
  5
150
330
145
100
AcDbEntity
  8
0
100
AcDbBlockEnd
  0
BLOCK
  5
139
330
138
100
AcDbEntity
  8
0
100
AcDbBlockBegin
  2
*D11
 70
     1
 10
0.0
 20
0.0
 30
0.0
  3
*D11
  1

  0
LINE
  5
13A
330
138
100
AcDbEntity
  8
09-01
 62
     4
370
    -2
100
AcDbLine
 10
197.9434636025453
 20
243.5782580882063
 30
0.0
 11
210.9035082267355
 21
243.5782580882063
 31
0.0
  0
LINE
  5
13B
330
138
100
AcDbEntity
  8
09-01
 62
     4
370
    -2
100
AcDbLine
 10
197.9434636025454
 20
391.5782580882063
 30
0.0
 11
210.9035082267356
 21
391.5782580882063
 31
0.0
  0
LINE
  5
13C
330
138
100
AcDbEntity
  8
09-01
 62
     4
370
    -2
100
AcDbLine
 10
208.9035082267355
 20
248.5782580882063
 30
0.0
 11
208.9035082267356
 21
386.5782580882063
 31
0.0
  0
SOLID
  5
13D
330
138
100
AcDbEntity
  8
09-01
 62
     4
100
AcDbTrace
 10
208.0701748934022
 20
248.5782580882063
 30
0.0
 11
209.7368415600688
 21
248.5782580882063
 31
0.0
 12
208.9035082267355
 22
243.5782580882063
 32
0.0
 13
208.9035082267355
 23
243.5782580882063
 33
0.0
  0
SOLID
  5
13E
330
138
100
AcDbEntity
  8
09-01
 62
     4
100
AcDbTrace
 10
208.0701748934022
 20
386.5782580882063
 30
0.0
 11
209.7368415600689
 21
386.5782580882063
 31
0.0
 12
208.9035082267356
 22
391.5782580882063
 32
0.0
 13
208.9035082267356
 23
391.5782580882063
 33
0.0
  0
MTEXT
  5
13F
330
138
100
AcDbEntity
  8
09-01
 62
     1
100
AcDbMText
 10
204.4035082267355
 20
317.5782580882064
 30
0.0
 40
5.0
 41
0.0
 46
0.0
 71
     5
 72
     1
  1
148
 11
0.0000000000000001
 21
1.0
 31
0.0
 73
     1
 44
1.0
  0
POINT
  5
140
330
138
100
AcDbEntity
  8
DEFPOINTS
 62
     0
100
AcDbPoint
 10
195.9434636025453
 20
243.5782580882063
 30
0.0
  0
POINT
  5
141
330
138
100
AcDbEntity
  8
DEFPOINTS
 62
     0
100
AcDbPoint
 10
195.9434636025454
 20
391.5782580882063
 30
0.0
  0
POINT
  5
142
330
138
100
AcDbEntity
  8
DEFPOINTS
 62
     0
100
AcDbPoint
 10
208.9035082267356
 20
391.5782580882063
 30
0.0
  0
ENDBLK
  5
143
330
138
100
AcDbEntity
  8
0
100
AcDbBlockEnd
  0
BLOCK
  5
12C
330
12B
100
AcDbEntity
  8
0
100
AcDbBlockBegin
  2
*D12
 70
     1
 10
0.0
 20
0.0
 30
0.0
  3
*D12
  1

  0
LINE
  5
12D
330
12B
100
AcDbEntity
  8
09-01
 62
     4
370
    -2
100
AcDbLine
 10
45.94346360254539
 20
391.5782580882063
 30
0.0
 11
37.66793353393769
 21
391.5782580882063
 31
0.0
  0
LINE
  5
12E
330
12B
100
AcDbEntity
  8
09-01
 62
     4
370
    -2
100
AcDbLine
 10
69.44346360254505
 20
364.5782580882064
 30
0.0
 11
37.66793353393768
 21
364.5782580882064
 31
0.0
  0
LINE
  5
12F
330
12B
100
AcDbEntity
  8
09-01
 62
     4
370
    -2
100
AcDbLine
 10
39.66793353393768
 20
386.5782580882063
 30
0.0
 11
39.66793353393768
 21
369.5782580882065
 31
0.0
  0
SOLID
  5
130
330
12B
100
AcDbEntity
  8
09-01
 62
     4
100
AcDbTrace
 10
38.83460020060435
 20
386.5782580882063
 30
0.0
 11
40.50126686727102
 21
386.5782580882063
 31
0.0
 12
39.66793353393768
 22
391.5782580882063
 32
0.0
 13
39.66793353393768
 23
391.5782580882063
 33
0.0
  0
SOLID
  5
131
330
12B
100
AcDbEntity
  8
09-01
 62
     4
100
AcDbTrace
 10
38.83460020060435
 20
369.5782580882065
 30
0.0
 11
40.50126686727102
 21
369.5782580882065
 31
0.0
 12
39.66793353393768
 22
364.5782580882064
 32
0.0
 13
39.66793353393768
 23
364.5782580882064
 33
0.0
  0
MTEXT
  5
132
330
12B
100
AcDbEntity
  8
09-01
 62
     1
100
AcDbMText
 10
35.16793353393762
 20
378.0782580882064
 30
0.0
 40
5.0
 41
0.0
 46
0.0
 71
     5
 72
     1
  1
27
 11
0.0000000000000001
 21
1.0
 31
0.0
 73
     1
 44
1.0
  0
POINT
  5
133
330
12B
100
AcDbEntity
  8
DEFPOINTS
 62
     0
100
AcDbPoint
 10
47.94346360254539
 20
391.5782580882063
 30
0.0
  0
POINT
  5
134
330
12B
100
AcDbEntity
  8
DEFPOINTS
 62
     0
100
AcDbPoint
 10
71.44346360254505
 20
364.5782580882064
 30
0.0
  0
POINT
  5
135
330
12B
100
AcDbEntity
  8
DEFPOINTS
 62
     0
100
AcDbPoint
 10
39.66793353393768
 20
364.5782580882064
 30
0.0
  0
ENDBLK
  5
136
330
12B
100
AcDbEntity
  8
0
100
AcDbBlockEnd
  0
BLOCK
  5
11F
330
11E
100
AcDbEntity
  8
0
100
AcDbBlockBegin
  2
*D13
 70
     1
 10
0.0
 20
0.0
 30
0.0
  3
*D13
  1

  0
LINE
  5
120
330
11E
100
AcDbEntity
  8
09-01
 62
     4
370
    -2
100
AcDbLine
 10
69.44346360254505
 20
364.5782580882064
 30
0.0
 11
37.66793353393768
 21
364.5782580882064
 31
0.0
  0
LINE
  5
121
330
11E
100
AcDbEntity
  8
09-01
 62
     4
370
    -2
100
AcDbLine
 10
69.44346360254505
 20
278.5782580882062
 30
0.0
 11
37.66793353393766
 21
278.5782580882062
 31
0.0
  0
LINE
  5
122
330
11E
100
AcDbEntity
  8
09-01
 62
     4
370
    -2
100
AcDbLine
 10
39.66793353393768
 20
359.5782580882064
 30
0.0
 11
39.66793353393767
 21
283.5782580882062
 31
0.0
  0
SOLID
  5
123
330
11E
100
AcDbEntity
  8
09-01
 62
     4
100
AcDbTrace
 10
38.83460020060434
 20
359.5782580882064
 30
0.0
 11
40.50126686727101
 21
359.5782580882064
 31
0.0
 12
39.66793353393768
 22
364.5782580882064
 32
0.0
 13
39.66793353393768
 23
364.5782580882064
 33
0.0
  0
SOLID
  5
124
330
11E
100
AcDbEntity
  8
09-01
 62
     4
100
AcDbTrace
 10
38.83460020060433
 20
283.5782580882062
 30
0.0
 11
40.50126686727099
 21
283.5782580882062
 31
0.0
 12
39.66793353393767
 22
278.5782580882062
 32
0.0
 13
39.66793353393767
 23
278.5782580882062
 33
0.0
  0
MTEXT
  5
125
330
11E
100
AcDbEntity
  8
09-01
 62
     1
100
AcDbMText
 10
35.16793353393762
 20
321.5782580882063
 30
0.0
 40
5.0
 41
0.0
 46
0.0
 71
     5
 72
     1
  1
86
 11
0.0000000000000001
 21
1.0
 31
0.0
 73
     1
 44
1.0
  0
POINT
  5
126
330
11E
100
AcDbEntity
  8
DEFPOINTS
 62
     0
100
AcDbPoint
 10
71.44346360254505
 20
364.5782580882064
 30
0.0
  0
POINT
  5
127
330
11E
100
AcDbEntity
  8
DEFPOINTS
 62
     0
100
AcDbPoint
 10
71.44346360254505
 20
278.5782580882062
 30
0.0
  0
POINT
  5
128
330
11E
100
AcDbEntity
  8
DEFPOINTS
 62
     0
100
AcDbPoint
 10
39.66793353393767
 20
278.5782580882062
 30
0.0
  0
ENDBLK
  5
129
330
11E
100
AcDbEntity
  8
0
100
AcDbBlockEnd
  0
BLOCK
  5
112
330
111
100
AcDbEntity
  8
0
100
AcDbBlockBegin
  2
*D14
 70
     1
 10
0.0
 20
0.0
 30
0.0
  3
*D14
  1

  0
LINE
  5
113
330
111
100
AcDbEntity
  8
09-01
 62
     4
370
    -2
100
AcDbLine
 10
69.44346360254505
 20
278.5782580882062
 30
0.0
 11
37.66793353393766
 21
278.5782580882062
 31
0.0
  0
LINE
  5
114
330
111
100
AcDbEntity
  8
09-01
 62
     4
370
    -2
100
AcDbLine
 10
45.94346360254528
 20
243.5782580882063
 30
0.0
 11
37.66793353393766
 21
243.5782580882063
 31
0.0
  0
LINE
  5
115
330
111
100
AcDbEntity
  8
09-01
 62
     4
370
    -2
100
AcDbLine
 10
39.66793353393767
 20
273.5782580882062
 30
0.0
 11
39.66793353393766
 21
248.5782580882063
 31
0.0
  0
SOLID
  5
116
330
111
100
AcDbEntity
  8
09-01
 62
     4
100
AcDbTrace
 10
38.83460020060433
 20
273.5782580882062
 30
0.0
 11
40.50126686727099
 21
273.5782580882062
 31
0.0
 12
39.66793353393767
 22
278.5782580882062
 32
0.0
 13
39.66793353393767
 23
278.5782580882062
 33
0.0
  0
SOLID
  5
117
330
111
100
AcDbEntity
  8
09-01
 62
     4
100
AcDbTrace
 10
38.83460020060432
 20
248.5782580882063
 30
0.0
 11
40.50126686727099
 21
248.5782580882063
 31
0.0
 12
39.66793353393766
 22
243.5782580882063
 32
0.0
 13
39.66793353393766
 23
243.5782580882063
 33
0.0
  0
MTEXT
  5
118
330
111
100
AcDbEntity
  8
09-01
 62
     1
100
AcDbMText
 10
35.16793353393762
 20
261.0782580882063
 30
0.0
 40
5.0
 41
0.0
 46
0.0
 71
     5
 72
     1
  1
35
 11
0.0000000000000001
 21
1.0
 31
0.0
 73
     1
 44
1.0
  0
POINT
  5
119
330
111
100
AcDbEntity
  8
DEFPOINTS
 62
     0
100
AcDbPoint
 10
71.44346360254505
 20
278.5782580882062
 30
0.0
  0
POINT
  5
11A
330
111
100
AcDbEntity
  8
DEFPOINTS
 62
     0
100
AcDbPoint
 10
47.94346360254528
 20
243.5782580882063
 30
0.0
  0
POINT
  5
11B
330
111
100
AcDbEntity
  8
DEFPOINTS
 62
     0
100
AcDbPoint
 10
39.66793353393766
 20
243.5782580882063
 30
0.0
  0
ENDBLK
  5
11C
330
111
100
AcDbEntity
  8
0
100
AcDbBlockEnd
  0
BLOCK
  5
105
330
104
100
AcDbEntity
  8
0
100
AcDbBlockBegin
  2
*D15
 70
     1
 10
0.0
 20
0.0
 30
0.0
  3
*D15
  1

  0
LINE
  5
106
330
104
100
AcDbEntity
  8
09-01
 62
     4
370
    -2
100
AcDbLine
 10
47.94346360254531
 20
280.5782580882062
 30
0.0
 11
47.94346360254531
 21
292.6002548605191
 31
0.0
  0
LINE
  5
107
330
104
100
AcDbEntity
  8
09-01
 62
     4
370
    -2
100
AcDbLine
 10
74.94346360254505
 20
284.0782580882062
 30
0.0
 11
74.94346360254505
 21
292.6002548605191
 31
0.0
  0
LINE
  5
108
330
104
100
AcDbEntity
  8
09-01
 62
     4
370
    -2
100
AcDbLine
 10
52.94346360254531
 20
290.600254860519
 30
0.0
 11
69.94346360254505
 21
290.600254860519
 31
0.0
  0
MTEXT
  5
109
330
104
100
AcDbEntity
  8
09-01
 62
     1
100
AcDbMText
 10
56.4606235992951
 20
295.1847811135151
 30
0.0
 40
5.0
 41
0.0
 46
0.0
 71
     5
 72
     1
  1
27
 73
     1
 44
1.0
  0
SOLID
  5
10A
330
104
100
AcDbEntity
  8
09-01
 62
     4
100
AcDbTrace
 10
52.94346360254531
 20
291.4335881938523
 30
0.0
 11
52.94346360254531
 21
289.7669215271857
 31
0.0
 12
47.94346360254531
 22
290.600254860519
 32
0.0
 13
47.94346360254531
 23
290.600254860519
 33
0.0
  0
SOLID
  5
10B
330
104
100
AcDbEntity
  8
09-01
 62
     4
100
AcDbTrace
 10
69.94346360254505
 20
291.4335881938523
 30
0.0
 11
69.94346360254505
 21
289.7669215271857
 31
0.0
 12
74.94346360254505
 22
290.600254860519
 32
0.0
 13
74.94346360254505
 23
290.600254860519
 33
0.0
  0
POINT
  5
10C
330
104
100
AcDbEntity
  8
DEFPOINTS
 62
     0
100
AcDbPoint
 10
47.94346360254531
 20
278.5782580882062
 30
0.0
  0
POINT
  5
10D
330
104
100
AcDbEntity
  8
DEFPOINTS
 62
     0
100
AcDbPoint
 10
74.94346360254505
 20
282.0782580882062
 30
0.0
  0
POINT
  5
10E
330
104
100
AcDbEntity
  8
DEFPOINTS
 62
     0
100
AcDbPoint
 10
74.94346360254505
 20
290.600254860519
 30
0.0
  0
ENDBLK
  5
10F
330
104
100
AcDbEntity
  8
0
100
AcDbBlockEnd
  0
BLOCK
  5
F8
330
F7
100
AcDbEntity
  8
0
100
AcDbBlockBegin
  2
*D16
 70
     1
 10
0.0
 20
0.0
 30
0.0
  3
*D16
  1

  0
LINE
  5
F9
330
F7
100
AcDbEntity
  8
09-01
 62
     4
370
    -2
100
AcDbLine
 10
74.94346360254505
 20
284.0782580882062
 30
0.0
 11
74.94346360254505
 21
292.6002548605191
 31
0.0
  0
LINE
  5
FA
330
F7
100
AcDbEntity
  8
09-01
 62
     4
370
    -2
100
AcDbLine
 10
168.943463602545
 20
284.0782580882062
 30
0.0
 11
168.943463602545
 21
292.6002548605191
 31
0.0
  0
LINE
  5
FB
330
F7
100
AcDbEntity
  8
09-01
 62
     4
370
    -2
100
AcDbLine
 10
79.94346360254505
 20
290.600254860519
 30
0.0
 11
163.943463602545
 21
290.600254860519
 31
0.0
  0
SOLID
  5
FC
330
F7
100
AcDbEntity
  8
09-01
 62
     4
100
AcDbTrace
 10
79.94346360254505
 20
291.4335881938523
 30
0.0
 11
79.94346360254505
 21
289.7669215271857
 31
0.0
 12
74.94346360254505
 22
290.600254860519
 32
0.0
 13
74.94346360254505
 23
290.600254860519
 33
0.0
  0
SOLID
  5
FD
330
F7
100
AcDbEntity
  8
09-01
 62
     4
100
AcDbTrace
 10
163.943463602545
 20
291.4335881938523
 30
0.0
 11
163.943463602545
 21
289.7669215271857
 31
0.0
 12
168.943463602545
 22
290.600254860519
 32
0.0
 13
168.943463602545
 23
290.600254860519
 33
0.0
  0
MTEXT
  5
FE
330
F7
100
AcDbEntity
  8
09-01
 62
     1
100
AcDbMText
 10
121.943463602545
 20
295.100254860519
 30
0.0
 40
5.0
 41
0.0
 46
0.0
 71
     5
 72
     1
  1
94
 73
     1
 44
1.0
  0
POINT
  5
FF
330
F7
100
AcDbEntity
  8
DEFPOINTS
 62
     0
100
AcDbPoint
 10
74.94346360254505
 20
282.0782580882062
 30
0.0
  0
POINT
  5
100
330
F7
100
AcDbEntity
  8
DEFPOINTS
 62
     0
100
AcDbPoint
 10
168.943463602545
 20
282.0782580882062
 30
0.0
  0
POINT
  5
101
330
F7
100
AcDbEntity
  8
DEFPOINTS
 62
     0
100
AcDbPoint
 10
168.943463602545
 20
290.600254860519
 30
0.0
  0
ENDBLK
  5
102
330
F7
100
AcDbEntity
  8
0
100
AcDbBlockEnd
  0
BLOCK
  5
E9
330
E8
100
AcDbEntity
  8
0
100
AcDbBlockBegin
  2
*D17
 70
     1
 10
0.0
 20
0.0
 30
0.0
  3
*D17
  1

  0
LINE
  5
EA
330
E8
100
AcDbEntity
  8
09-01
 62
     4
370
    -2
100
AcDbLine
 10
168.943463602545
 20
284.0782580882062
 30
0.0
 11
168.943463602545
 21
292.6002548605191
 31
0.0
  0
LINE
  5
EB
330
E8
100
AcDbEntity
  8
09-01
 62
     4
370
    -2
100
AcDbLine
 10
195.9434636025453
 20
290.0090014021932
 30
0.0
 11
195.9434636025453
 21
292.6002548605191
 31
0.0
  0
LINE
  5
EC
330
E8
100
AcDbEntity
  8
09-01
 62
     4
370
    -2
100
AcDbLine
 10
163.943463602545
 20
290.600254860519
 30
0.0
 11
158.943463602545
 21
290.600254860519
 31
0.0
  0
LINE
  5
ED
330
E8
100
AcDbEntity
  8
09-01
 62
     4
370
    -2
100
AcDbLine
 10
200.9434636025453
 20
290.600254860519
 30
0.0
 11
205.9434636025453
 21
290.600254860519
 31
0.0
  0
MTEXT
  5
EE
330
E8
100
AcDbEntity
  8
09-01
 62
     1
100
AcDbMText
 10
188.6966449127476
 20
294.9854532466754
 30
0.0
 40
5.0
 41
0.0
 46
0.0
 71
     5
 72
     1
  1
27
 73
     1
 44
1.0
  0
LINE
  5
EF
330
E8
100
AcDbEntity
  8
09-01
 62
     4
370
    -2
100
AcDbLine
 10
168.943463602545
 20
290.600254860519
 30
0.0
 11
195.9434636025453
 21
290.600254860519
 31
0.0
  0
SOLID
  5
F0
330
E8
100
AcDbEntity
  8
09-01
 62
     4
100
AcDbTrace
 10
163.943463602545
 20
291.4335881938523
 30
0.0
 11
163.943463602545
 21
289.7669215271857
 31
0.0
 12
168.943463602545
 22
290.600254860519
 32
0.0
 13
168.943463602545
 23
290.600254860519
 33
0.0
  0
SOLID
  5
F1
330
E8
100
AcDbEntity
  8
09-01
 62
     4
100
AcDbTrace
 10
200.9434636025453
 20
291.4335881938523
 30
0.0
 11
200.9434636025453
 21
289.7669215271857
 31
0.0
 12
195.9434636025453
 22
290.600254860519
 32
0.0
 13
195.9434636025453
 23
290.600254860519
 33
0.0
  0
POINT
  5
F2
330
E8
100
AcDbEntity
  8
DEFPOINTS
 62
     0
100
AcDbPoint
 10
168.943463602545
 20
282.0782580882062
 30
0.0
  0
POINT
  5
F3
330
E8
100
AcDbEntity
  8
DEFPOINTS
 62
     0
100
AcDbPoint
 10
195.9434636025453
 20
288.0090014021932
 30
0.0
  0
POINT
  5
F4
330
E8
100
AcDbEntity
  8
DEFPOINTS
 62
     0
100
AcDbPoint
 10
195.9434636025453
 20
290.600254860519
 30
0.0
  0
ENDBLK
  5
F5
330
E8
100
AcDbEntity
  8
0
100
AcDbBlockEnd
  0
BLOCK
  5
DA
330
D9
100
AcDbEntity
  8
0
100
AcDbBlockBegin
  2
*D18
 70
     1
 10
0.0
 20
0.0
 30
0.0
  3
*D18
  1

  0
LINE
  5
DB
330
D9
100
AcDbEntity
  8
09-01
 62
     4
370
    -2
100
AcDbLine
 10
80.44346360254506
 20
364.5782580882064
 30
0.0
 11
97.50069592559704
 21
364.5782580882064
 31
0.0
  0
LINE
  5
DC
330
D9
100
AcDbEntity
  8
09-01
 62
     4
370
    -2
100
AcDbLine
 10
84.19346360254506
 20
352.5782580882065
 30
0.0
 11
97.50069592559704
 21
352.5782580882065
 31
0.0
  0
LINE
  5
DD
330
D9
100
AcDbEntity
  8
09-01
 62
     4
370
    -2
100
AcDbLine
 10
95.50069592559703
 20
369.5782580882065
 30
0.0
 11
95.50069592559703
 21
374.5782580882064
 31
0.0
  0
LINE
  5
DE
330
D9
100
AcDbEntity
  8
09-01
 62
     4
370
    -2
100
AcDbLine
 10
95.50069592559701
 20
347.5782580882064
 30
0.0
 11
95.50069592559701
 21
342.5782580882064
 31
0.0
  0
LINE
  5
DF
330
D9
100
AcDbEntity
  8
09-01
 62
     4
370
    -2
100
AcDbLine
 10
95.50069592559703
 20
364.5782580882064
 30
0.0
 11
95.50069592559703
 21
352.5782580882065
 31
0.0
  0
SOLID
  5
E0
330
D9
100
AcDbEntity
  8
09-01
 62
     4
100
AcDbTrace
 10
94.66736259226371
 20
369.5782580882065
 30
0.0
 11
96.33402925893037
 21
369.5782580882065
 31
0.0
 12
95.50069592559703
 22
364.5782580882064
 32
0.0
 13
95.50069592559703
 23
364.5782580882064
 33
0.0
  0
SOLID
  5
E1
330
D9
100
AcDbEntity
  8
09-01
 62
     4
100
AcDbTrace
 10
94.66736259226369
 20
347.5782580882064
 30
0.0
 11
96.33402925893035
 21
347.5782580882064
 31
0.0
 12
95.50069592559703
 22
352.5782580882065
 32
0.0
 13
95.50069592559703
 23
352.5782580882065
 33
0.0
  0
MTEXT
  5
E2
330
D9
100
AcDbEntity
  8
09-01
 62
     1
100
AcDbMText
 10
91.00069592559696
 20
358.5782580882064
 30
0.0
 40
5.0
 41
0.0
 46
0.0
 71
     5
 72
     1
  1
12
 11
0.0000000000000001
 21
1.0
 31
0.0
 73
     1
 44
1.0
  0
POINT
  5
E3
330
D9
100
AcDbEntity
  8
DEFPOINTS
 62
     0
100
AcDbPoint
 10
78.44346360254505
 20
364.5782580882064
 30
0.0
  0
POINT
  5
E4
330
D9
100
AcDbEntity
  8
DEFPOINTS
 62
     0
100
AcDbPoint
 10
82.19346360254505
 20
352.5782580882065
 30
0.0
  0
POINT
  5
E5
330
D9
100
AcDbEntity
  8
DEFPOINTS
 62
     0
100
AcDbPoint
 10
95.50069592559703
 20
352.5782580882065
 30
0.0
  0
ENDBLK
  5
E6
330
D9
100
AcDbEntity
  8
0
100
AcDbBlockEnd
  0
BLOCK
  5
CB
330
CA
100
AcDbEntity
  8
0
100
AcDbBlockBegin
  2
*D19
 70
     1
 10
0.0
 20
0.0
 30
0.0
  3
*D19
  1

  0
LINE
  5
CC
330
CA
100
AcDbEntity
  8
09-01
 62
     4
370
    -2
100
AcDbLine
 10
72.44346360254505
 20
366.5782580882064
 30
0.0
 11
72.44346360254505
 21
372.5038953408832
 31
0.0
  0
LINE
  5
CD
330
CA
100
AcDbEntity
  8
09-01
 62
     4
370
    -2
100
AcDbLine
 10
77.44346360254505
 20
366.5782580882064
 30
0.0
 11
77.44346360254505
 21
372.5038953408832
 31
0.0
  0
LINE
  5
CE
330
CA
100
AcDbEntity
  8
09-01
 62
     4
370
    -2
100
AcDbLine
 10
67.44346360254505
 20
370.5038953408832
 30
0.0
 11
62.44346360254505
 21
370.5038953408832
 31
0.0
  0
LINE
  5
CF
330
CA
100
AcDbEntity
  8
09-01
 62
     4
370
    -2
100
AcDbLine
 10
82.44346360254505
 20
370.5038953408832
 30
0.0
 11
87.44346360254505
 21
370.5038953408832
 31
0.0
  0
LINE
  5
D0
330
CA
100
AcDbEntity
  8
09-01
 62
     4
370
    -2
100
AcDbLine
 10
72.44346360254505
 20
370.5038953408832
 30
0.0
 11
77.44346360254505
 21
370.5038953408832
 31
0.0
  0
SOLID
  5
D1
330
CA
100
AcDbEntity
  8
09-01
 62
     4
100
AcDbTrace
 10
67.44346360254505
 20
371.3372286742165
 30
0.0
 11
67.44346360254505
 21
369.6705620075499
 31
0.0
 12
72.44346360254505
 22
370.5038953408832
 32
0.0
 13
72.44346360254505
 23
370.5038953408832
 33
0.0
  0
SOLID
  5
D2
330
CA
100
AcDbEntity
  8
09-01
 62
     4
100
AcDbTrace
 10
82.44346360254505
 20
371.3372286742165
 30
0.0
 11
82.44346360254505
 21
369.6705620075499
 31
0.0
 12
77.44346360254505
 22
370.5038953408832
 32
0.0
 13
77.44346360254505
 23
370.5038953408832
 33
0.0
  0
MTEXT
  5
D3
330
CA
100
AcDbEntity
  8
09-01
 62
     1
100
AcDbMText
 10
74.94346360254505
 20
375.0038953408832
 30
0.0
 40
5.0
 41
0.0
 46
0.0
 71
     5
 72
     1
  1
5
 73
     1
 44
1.0
  0
POINT
  5
D4
330
CA
100
AcDbEntity
  8
DEFPOINTS
 62
     0
100
AcDbPoint
 10
72.44346360254505
 20
364.5782580882064
 30
0.0
  0
POINT
  5
D5
330
CA
100
AcDbEntity
  8
DEFPOINTS
 62
     0
100
AcDbPoint
 10
77.44346360254505
 20
364.5782580882064
 30
0.0
  0
POINT
  5
D6
330
CA
100
AcDbEntity
  8
DEFPOINTS
 62
     0
100
AcDbPoint
 10
77.44346360254505
 20
370.5038953408832
 30
0.0
  0
ENDBLK
  5
D7
330
CA
100
AcDbEntity
  8
0
100
AcDbBlockEnd
  0
BLOCK
  5
BC
330
BB
100
AcDbEntity
  8
0
100
AcDbBlockBegin
  2
*D20
 70
     1
 10
0.0
 20
0.0
 30
0.0
  3
*D20
  1

  0
LINE
  5
BD
330
BB
100
AcDbEntity
  8
09-01
 62
     4
370
    -2
100
AcDbLine
 10
68.69346360254505
 20
350.5782580882065
 30
0.0
 11
68.69346360254505
 21
331.592671620929
 31
0.0
  0
LINE
  5
BE
330
BB
100
AcDbEntity
  8
09-01
 62
     4
370
    -2
100
AcDbLine
 10
81.19346360254505
 20
350.5782580882065
 30
0.0
 11
81.19346360254505
 21
331.592671620929
 31
0.0
  0
LINE
  5
BF
330
BB
100
AcDbEntity
  8
09-01
 62
     4
370
    -2
100
AcDbLine
 10
63.69346360254505
 20
333.592671620929
 30
0.0
 11
58.69346360254505
 21
333.592671620929
 31
0.0
  0
LINE
  5
C0
330
BB
100
AcDbEntity
  8
09-01
 62
     4
370
    -2
100
AcDbLine
 10
86.19346360254505
 20
333.592671620929
 30
0.0
 11
91.19346360254505
 21
333.592671620929
 31
0.0
  0
MTEXT
  5
C1
330
BB
100
AcDbEntity
  8
09-01
 62
     1
100
AcDbMText
 10
93.45753215970944
 20
338.3047429215737
 30
0.0
 40
5.0
 41
0.0
 46
0.0
 71
     5
 72
     1
  1
12.5
 73
     1
 44
1.0
  0
LINE
  5
C2
330
BB
100
AcDbEntity
  8
09-01
 62
     4
370
    -2
100
AcDbLine
 10
68.69346360254505
 20
333.592671620929
 30
0.0
 11
81.19346360254505
 21
333.592671620929
 31
0.0
  0
SOLID
  5
C3
330
BB
100
AcDbEntity
  8
09-01
 62
     4
100
AcDbTrace
 10
63.69346360254505
 20
334.4260049542623
 30
0.0
 11
63.69346360254505
 21
332.7593382875956
 31
0.0
 12
68.69346360254505
 22
333.592671620929
 32
0.0
 13
68.69346360254505
 23
333.592671620929
 33
0.0
  0
SOLID
  5
C4
330
BB
100
AcDbEntity
  8
09-01
 62
     4
100
AcDbTrace
 10
86.19346360254505
 20
334.4260049542623
 30
0.0
 11
86.19346360254505
 21
332.7593382875956
 31
0.0
 12
81.19346360254505
 22
333.592671620929
 32
0.0
 13
81.19346360254505
 23
333.592671620929
 33
0.0
  0
POINT
  5
C5
330
BB
100
AcDbEntity
  8
DEFPOINTS
 62
     0
100
AcDbPoint
 10
68.69346360254505
 20
352.5782580882065
 30
0.0
  0
POINT
  5
C6
330
BB
100
AcDbEntity
  8
DEFPOINTS
 62
     0
100
AcDbPoint
 10
81.19346360254505
 20
352.5782580882065
 30
0.0
  0
POINT
  5
C7
330
BB
100
AcDbEntity
  8
DEFPOINTS
 62
     0
100
AcDbPoint
 10
81.19346360254505
 20
333.592671620929
 30
0.0
  0
ENDBLK
  5
C8
330
BB
100
AcDbEntity
  8
0
100
AcDbBlockEnd
  0
BLOCK
  5
95
330
94
100
AcDbEntity
  8
0
100
AcDbBlockBegin
  2
*D21
 70
     1
 10
0.0
 20
0.0
 30
0.0
  3
*D21
  1

  0
LINE
  5
96
330
94
100
AcDbEntity
  8
09-01
 62
     4
370
    -2
100
AcDbLine
 10
48.94346360254528
 20
93.27476330701825
 30
0.0
 11
48.94346360254528
 21
72.60507643687128
 31
0.0
  0
LINE
  5
97
330
94
100
AcDbEntity
  8
09-01
 62
     4
370
    -2
100
AcDbLine
 10
194.9434636025453
 20
93.27476330701825
 30
0.0
 11
194.9434636025453
 21
72.60507643687128
 31
0.0
  0
LINE
  5
98
330
94
100
AcDbEntity
  8
09-01
 62
     4
370
    -2
100
AcDbLine
 10
53.94346360254528
 20
74.60507643687129
 30
0.0
 11
189.9434636025453
 21
74.60507643687129
 31
0.0
  0
MTEXT
  5
99
330
94
100
AcDbEntity
  8
09-01
 62
     1
100
AcDbMText
 10
145.332146699744
 20
79.48115982001877
 30
0.0
 40
5.0
 41
0.0
 46
0.0
 71
     5
 72
     1
  1
146
 73
     1
 44
1.0
  0
SOLID
  5
9A
330
94
100
AcDbEntity
  8
09-01
 62
     4
100
AcDbTrace
 10
53.94346360254528
 20
75.43840977020462
 30
0.0
 11
53.94346360254528
 21
73.77174310353796
 31
0.0
 12
48.94346360254528
 22
74.60507643687129
 32
0.0
 13
48.94346360254528
 23
74.60507643687129
 33
0.0
  0
SOLID
  5
9B
330
94
100
AcDbEntity
  8
09-01
 62
     4
100
AcDbTrace
 10
189.9434636025453
 20
75.43840977020462
 30
0.0
 11
189.9434636025453
 21
73.77174310353796
 31
0.0
 12
194.9434636025453
 22
74.60507643687129
 32
0.0
 13
194.9434636025453
 23
74.60507643687129
 33
0.0
  0
POINT
  5
9C
330
94
100
AcDbEntity
  8
DEFPOINTS
 62
     0
100
AcDbPoint
 10
48.94346360254528
 20
95.27476330701825
 30
0.0
  0
POINT
  5
9D
330
94
100
AcDbEntity
  8
DEFPOINTS
 62
     0
100
AcDbPoint
 10
194.9434636025453
 20
95.27476330701825
 30
0.0
  0
POINT
  5
9E
330
94
100
AcDbEntity
  8
DEFPOINTS
 62
     0
100
AcDbPoint
 10
194.9434636025453
 20
74.60507643687129
 30
0.0
  0
ENDBLK
  5
9F
330
94
100
AcDbEntity
  8
0
100
AcDbBlockEnd
  0
BLOCK
  5
21F
330
21E
100
AcDbEntity
  8
0
100
AcDbBlockBegin
  2
*D22
 70
     1
 10
0.0
 20
0.0
 30
0.0
  3
*D22
  1

  0
LINE
  5
220
330
21E
100
AcDbEntity
  8
09-01
 62
     4
370
    -2
100
AcDbLine
 10
282.6015063193214
 20
393.5782580882063
 30
0.0
 11
282.6015063193214
 21
400.4759495501873
 31
0.0
  0
LINE
  5
221
330
21E
100
AcDbEntity
  8
09-01
 62
     4
370
    -2
100
AcDbLine
 10
392.6015063193214
 20
393.5782580882063
 30
0.0
 11
392.6015063193214
 21
400.4759495501873
 31
0.0
  0
LINE
  5
222
330
21E
100
AcDbEntity
  8
09-01
 62
     4
370
    -2
100
AcDbLine
 10
287.6015063193214
 20
398.4759495501874
 30
0.0
 11
387.6015063193214
 21
398.4759495501874
 31
0.0
  0
SOLID
  5
223
330
21E
100
AcDbEntity
  8
09-01
 62
     4
100
AcDbTrace
 10
287.6015063193214
 20
399.3092828835207
 30
0.0
 11
287.6015063193214
 21
397.642616216854
 31
0.0
 12
282.6015063193214
 22
398.4759495501874
 32
0.0
 13
282.6015063193214
 23
398.4759495501874
 33
0.0
  0
SOLID
  5
224
330
21E
100
AcDbEntity
  8
09-01
 62
     4
100
AcDbTrace
 10
387.6015063193214
 20
399.3092828835207
 30
0.0
 11
387.6015063193214
 21
397.642616216854
 31
0.0
 12
392.6015063193214
 22
398.4759495501874
 32
0.0
 13
392.6015063193214
 23
398.4759495501874
 33
0.0
  0
MTEXT
  5
225
330
21E
100
AcDbEntity
  8
09-01
 62
     1
100
AcDbMText
 10
337.6015063193214
 20
402.9759495501873
 30
0.0
 40
5.0
 41
0.0
 46
0.0
 71
     5
 72
     1
  1
110
 73
     1
 44
1.0
  0
POINT
  5
226
330
21E
100
AcDbEntity
  8
DEFPOINTS
 62
     0
100
AcDbPoint
 10
282.6015063193214
 20
391.5782580882063
 30
0.0
  0
POINT
  5
227
330
21E
100
AcDbEntity
  8
DEFPOINTS
 62
     0
100
AcDbPoint
 10
392.6015063193214
 20
391.5782580882063
 30
0.0
  0
POINT
  5
228
330
21E
100
AcDbEntity
  8
DEFPOINTS
 62
     0
100
AcDbPoint
 10
392.6015063193214
 20
398.4759495501874
 30
0.0
  0
ENDBLK
  5
229
330
21E
100
AcDbEntity
  8
0
100
AcDbBlockEnd
  0
BLOCK
  5
85
330
84
100
AcDbEntity
  8
0
100
AcDbBlockBegin
  2
*D23
 70
     1
 10
0.0
 20
0.0
 30
0.0
  3
*D23
  1

  0
LINE
  5
86
330
84
100
AcDbEntity
  8
0
 62
     4
370
    -2
100
AcDbLine
 10
404.6015063193214
 20
390.5782580882063
 30
0.0
 11
420.5877389988612
 21
390.5782580882063
 31
0.0
  0
LINE
  5
87
330
84
100
AcDbEntity
  8
0
 62
     4
370
    -2
100
AcDbLine
 10
403.3015063193214
 20
244.5782580882065
 30
0.0
 11
420.5877389988611
 21
244.5782580882065
 31
0.0
  0
LINE
  5
88
330
84
100
AcDbEntity
  8
0
 62
     4
370
    -2
100
AcDbLine
 10
418.5877389988611
 20
385.5782580882063
 30
0.0
 11
418.5877389988611
 21
249.5782580882065
 31
0.0
  0
SOLID
  5
89
330
84
100
AcDbEntity
  8
0
 62
     4
100
AcDbTrace
 10
417.7544056655278
 20
385.5782580882063
 30
0.0
 11
419.4210723321945
 21
385.5782580882063
 31
0.0
 12
418.5877389988611
 22
390.5782580882063
 32
0.0
 13
418.5877389988611
 23
390.5782580882063
 33
0.0
  0
SOLID
  5
8A
330
84
100
AcDbEntity
  8
0
 62
     4
100
AcDbTrace
 10
417.7544056655277
 20
249.5782580882065
 30
0.0
 11
419.4210723321944
 21
249.5782580882065
 31
0.0
 12
418.5877389988611
 22
244.5782580882065
 32
0.0
 13
418.5877389988611
 23
244.5782580882065
 33
0.0
  0
MTEXT
  5
8B
330
84
100
AcDbEntity
  8
0
 62
     1
100
AcDbMText
 10
414.087738998861
 20
317.5782580882065
 30
0.0
 40
5.0
 41
0.0
 46
0.0
 71
     5
 72
     1
  1
146
 11
0.0000000000000001
 21
1.0
 31
0.0
 73
     1
 44
1.0
  0
POINT
  5
8C
330
84
100
AcDbEntity
  8
DEFPOINTS
 62
     0
100
AcDbPoint
 10
402.6015063193214
 20
390.5782580882063
 30
0.0
  0
POINT
  5
8D
330
84
100
AcDbEntity
  8
DEFPOINTS
 62
     0
100
AcDbPoint
 10
401.3015063193215
 20
244.5782580882065
 30
0.0
  0
POINT
  5
8E
330
84
100
AcDbEntity
  8
DEFPOINTS
 62
     0
100
AcDbPoint
 10
418.5877389988611
 20
244.5782580882065
 30
0.0
  0
ENDBLK
  5
8F
330
84
100
AcDbEntity
  8
0
100
AcDbBlockEnd
  0
BLOCK
  5
76
330
75
100
AcDbEntity
  8
0
100
AcDbBlockBegin
  2
*D24
 70
     1
 10
0.0
 20
0.0
 30
0.0
  3
*D24
  1

  0
LINE
  5
77
330
75
100
AcDbEntity
  8
0
 62
     4
370
    -2
100
AcDbLine
 10
138.9434635007671
 20
274.5782580882063
 30
0.0
 11
150.2700951845413
 21
274.5782580882063
 31
0.0
  0
LINE
  5
78
330
75
100
AcDbEntity
  8
0
 62
     4
370
    -2
100
AcDbLine
 10
135.9402505781829
 20
243.5782580882064
 30
0.0
 11
150.2700951845413
 21
243.5782580882064
 31
0.0
  0
LINE
  5
79
330
75
100
AcDbEntity
  8
0
 62
     4
370
    -2
100
AcDbLine
 10
148.2700951845413
 20
269.5782580882063
 30
0.0
 11
148.2700951845413
 21
248.5782580882065
 31
0.0
  0
MTEXT
  5
7A
330
75
100
AcDbEntity
  8
0
 62
     1
100
AcDbMText
 10
143.6225782280144
 20
264.3538508011332
 30
0.0
 40
5.0
 41
0.0
 46
0.0
 71
     5
 72
     1
  1
31
 11
0.0000000000000001
 21
1.0
 31
0.0
 73
     1
 44
1.0
  0
SOLID
  5
7B
330
75
100
AcDbEntity
  8
0
 62
     4
100
AcDbTrace
 10
147.436761851208
 20
269.5782580882063
 30
0.0
 11
149.1034285178747
 21
269.5782580882063
 31
0.0
 12
148.2700951845413
 22
274.5782580882063
 32
0.0
 13
148.2700951845413
 23
274.5782580882063
 33
0.0
  0
SOLID
  5
7C
330
75
100
AcDbEntity
  8
0
 62
     4
100
AcDbTrace
 10
147.436761851208
 20
248.5782580882065
 30
0.0
 11
149.1034285178747
 21
248.5782580882065
 31
0.0
 12
148.2700951845413
 22
243.5782580882064
 32
0.0
 13
148.2700951845413
 23
243.5782580882064
 33
0.0
  0
POINT
  5
7D
330
75
100
AcDbEntity
  8
DEFPOINTS
 62
     0
100
AcDbPoint
 10
136.9434635007671
 20
274.5782580882063
 30
0.0
  0
POINT
  5
7F
330
75
100
AcDbEntity
  8
DEFPOINTS
 62
     0
100
AcDbPoint
 10
133.9402505781829
 20
243.5782580882064
 30
0.0
  0
POINT
  5
80
330
75
100
AcDbEntity
  8
DEFPOINTS
 62
     0
100
AcDbPoint
 10
148.2700951845413
 20
243.5782580882064
 30
0.0
  0
ENDBLK
  5
81
330
75
100
AcDbEntity
  8
0
100
AcDbBlockEnd
  0
ENDSEC
  0
SECTION
  2
ENTITIES
  0
DIMENSION
  5
74
330
2
100
AcDbEntity
  8
0
100
AcDbDimension
280
     0
  2
*D24
 10
148.2700951845413
 20
243.5782580882064
 30
0.0
 11
143.6225782280144
 21
264.3538508011332
 31
0.0
 70
   128
 71
     5
 42
30.99999999999992
 73
     0
 74
     0
 75
     0
  3
Wagner$0
100
AcDbAlignedDimension
 13
136.9434635007671
 23
274.5782580882063
 33
0.0
 14
133.9402505781829
 24
243.5782580882064
 34
0.0
 50
90.0
100
AcDbRotatedDimension
1001
ACAD
1000
DSTYLE
1002
{
1070
    40
1040
2.0
1002
}
  0
DIMENSION
  5
83
330
2
100
AcDbEntity
  8
0
100
AcDbDimension
280
     0
  2
*D23
 10
418.5877389988611
 20
244.5782580882065
 30
0.0
 11
414.087738998861
 21
317.5782580882065
 31
0.0
 71
     5
 42
145.9999999999998
 73
     0
 74
     0
 75
     0
  3
Wagner$0
100
AcDbAlignedDimension
 13
402.6015063193214
 23
390.5782580882063
 33
0.0
 14
401.3015063193215
 24
244.5782580882065
 34
0.0
 50
90.0
100
AcDbRotatedDimension
1001
ACAD
1000
DSTYLE
1002
{
1070
    40
1040
2.0
1002
}
  0
DIMENSION
  5
90
330
2
100
AcDbEntity
  8
09-01
100
AcDbDimension
280
     0
  2
*D21
 10
194.9434636025453
 20
74.60507643687129
 30
0.0
 11
145.332146699744
 21
79.48115982001877
 31
0.0
 70
   128
 71
     5
 42
146.0
 73
     0
 74
     0
 75
     0
  3
Wagner$0
100
AcDbAlignedDimension
 13
48.94346360254528
 23
95.27476330701825
 33
0.0
 14
194.9434636025453
 24
95.27476330701825
 34
0.0
100
AcDbRotatedDimension
1001
ACAD
1000
DSTYLE
1002
{
1070
    40
1040
2.0
1002
}
  0
INSERT
  5
A0
330
2
100
AcDbEntity
  8
09-01
100
AcDbBlockReference
  2
aaaaWagner
 10
121.943463602545
 20
335.7782580882064
 30
0.0
  0
DIMENSION
  5
BA
330
2
100
AcDbEntity
  8
09-01
100
AcDbDimension
280
     0
  2
*D20
 10
81.19346360254505
 20
333.592671620929
 30
0.0
 11
93.45753215970944
 21
338.3047429215737
 31
0.0
 70
   128
 71
     5
 42
12.5
 73
     0
 74
     0
 75
     0
  3
Wagner$0
100
AcDbAlignedDimension
 13
68.69346360254505
 23
352.5782580882065
 33
0.0
 14
81.19346360254505
 24
352.5782580882065
 34
0.0
100
AcDbRotatedDimension
1001
ACAD
1000
DSTYLE
1002
{
1070
    40
1040
2.0
1002
}
  0
DIMENSION
  5
C9
330
2
100
AcDbEntity
  8
09-01
100
AcDbDimension
280
     0
  2
*D19
 10
77.44346360254505
 20
370.5038953408832
 30
0.0
 11
74.94346360254505
 21
375.0038953408832
 31
0.0
 71
     5
 42
5.0
 73
     0
 74
     0
 75
     0
  3
Wagner$0
100
AcDbAlignedDimension
 13
72.44346360254505
 23
364.5782580882064
 33
0.0
 14
77.44346360254505
 24
364.5782580882064
 34
0.0
100
AcDbRotatedDimension
1001
ACAD
1000
DSTYLE
1002
{
1070
    40
1040
2.0
1002
}
  0
DIMENSION
  5
D8
330
2
100
AcDbEntity
  8
09-01
100
AcDbDimension
280
     0
  2
*D18
 10
95.50069592559703
 20
352.5782580882065
 30
0.0
 11
91.00069592559696
 21
358.5782580882064
 31
0.0
 71
     5
 42
12.0
 73
     0
 74
     0
 75
     0
  3
Wagner$0
100
AcDbAlignedDimension
 13
78.44346360254505
 23
364.5782580882064
 33
0.0
 14
82.19346360254505
 24
352.5782580882065
 34
0.0
 50
90.0
100
AcDbRotatedDimension
1001
ACAD
1000
DSTYLE
1002
{
1070
    40
1040
2.0
1002
}
  0
DIMENSION
  5
E7
330
2
100
AcDbEntity
  8
09-01
100
AcDbDimension
280
     0
  2
*D17
 10
195.9434636025453
 20
290.600254860519
 30
0.0
 11
188.6966449127476
 21
294.9854532466754
 31
0.0
 70
   128
 71
     5
 42
27.00000000000026
 73
     0
 74
     0
 75
     0
  3
Wagner$0
100
AcDbAlignedDimension
 13
168.943463602545
 23
282.0782580882062
 33
0.0
 14
195.9434636025453
 24
288.0090014021932
 34
0.0
100
AcDbRotatedDimension
1001
ACAD
1000
DSTYLE
1002
{
1070
    40
1040
2.0
1002
}
  0
DIMENSION
  5
F6
330
2
100
AcDbEntity
  8
09-01
100
AcDbDimension
280
     0
  2
*D16
 10
168.943463602545
 20
290.600254860519
 30
0.0
 11
121.943463602545
 21
295.100254860519
 31
0.0
 71
     5
 42
94.0
 73
     0
 74
     0
 75
     0
  3
Wagner$0
100
AcDbAlignedDimension
 13
74.94346360254505
 23
282.0782580882062
 33
0.0
 14
168.943463602545
 24
282.0782580882062
 34
0.0
100
AcDbRotatedDimension
1001
ACAD
1000
DSTYLE
1002
{
1070
    40
1040
2.0
1002
}
  0
DIMENSION
  5
103
330
2
100
AcDbEntity
  8
09-01
100
AcDbDimension
280
     0
  2
*D15
 10
74.94346360254505
 20
290.600254860519
 30
0.0
 11
56.4606235992951
 21
295.1847811135151
 31
0.0
 70
   128
 71
     5
 42
26.99999999999974
 73
     0
 74
     0
 75
     0
  3
Wagner$0
100
AcDbAlignedDimension
 13
47.94346360254531
 23
278.5782580882062
 33
0.0
 14
74.94346360254505
 24
282.0782580882062
 34
0.0
100
AcDbRotatedDimension
1001
ACAD
1000
DSTYLE
1002
{
1070
    40
1040
2.0
1002
}
  0
DIMENSION
  5
110
330
2
100
AcDbEntity
  8
09-01
100
AcDbDimension
280
     0
  2
*D14
 10
39.66793353393766
 20
243.5782580882063
 30
0.0
 11
35.16793353393762
 21
261.0782580882063
 31
0.0
 71
     5
 42
34.99999999999989
 73
     0
 74
     0
 75
     0
  3
Wagner$0
100
AcDbAlignedDimension
 13
71.44346360254505
 23
278.5782580882062
 33
0.0
 14
47.94346360254528
 24
243.5782580882063
 34
0.0
 50
90.0
100
AcDbRotatedDimension
1001
ACAD
1000
DSTYLE
1002
{
1070
    40
1040
2.0
1002
}
  0
DIMENSION
  5
11D
330
2
100
AcDbEntity
  8
09-01
100
AcDbDimension
280
     0
  2
*D13
 10
39.66793353393767
 20
278.5782580882062
 30
0.0
 11
35.16793353393762
 21
321.5782580882063
 31
0.0
 71
     5
 42
86.00000000000022
 73
     0
 74
     0
 75
     0
  3
Wagner$0
100
AcDbAlignedDimension
 13
71.44346360254505
 23
364.5782580882064
 33
0.0
 14
71.44346360254505
 24
278.5782580882062
 34
0.0
 50
90.0
100
AcDbRotatedDimension
1001
ACAD
1000
DSTYLE
1002
{
1070
    40
1040
2.0
1002
}
  0
DIMENSION
  5
12A
330
2
100
AcDbEntity
  8
09-01
100
AcDbDimension
280
     0
  2
*D12
 10
39.66793353393768
 20
364.5782580882064
 30
0.0
 11
35.16793353393762
 21
378.0782580882064
 31
0.0
 71
     5
 42
26.99999999999989
 73
     0
 74
     0
 75
     0
  3
Wagner$0
100
AcDbAlignedDimension
 13
47.94346360254539
 23
391.5782580882063
 33
0.0
 14
71.44346360254505
 24
364.5782580882064
 34
0.0
 50
90.0
100
AcDbRotatedDimension
1001
ACAD
1000
DSTYLE
1002
{
1070
    40
1040
2.0
1002
}
  0
DIMENSION
  5
137
330
2
100
AcDbEntity
  8
09-01
100
AcDbDimension
280
     0
  2
*D11
 10
208.9035082267356
 20
391.5782580882063
 30
0.0
 11
204.4035082267355
 21
317.5782580882064
 31
0.0
 71
     5
 42
148.0
 73
     0
 74
     0
 75
     0
  3
Wagner$0
100
AcDbAlignedDimension
 13
195.9434636025453
 23
243.5782580882063
 33
0.0
 14
195.9434636025454
 24
391.5782580882063
 34
0.0
 50
90.0
100
AcDbRotatedDimension
1001
ACAD
1000
DSTYLE
1002
{
1070
    40
1040
2.0
1002
}
  0
DIMENSION
  5
144
330
2
100
AcDbEntity
  8
09-01
100
AcDbDimension
280
     0
  2
*D10
 10
195.9434636025453
 20
232.1522382427918
 30
0.0
 11
121.9434636025453
 21
236.6522382427918
 31
0.0
 71
     5
 42
148.0
 73
     0
 74
     0
 75
     0
  3
Wagner$0
100
AcDbAlignedDimension
 13
47.94346360254528
 23
243.5782580882063
 33
0.0
 14
195.9434636025453
 24
243.5782580882063
 34
0.0
100
AcDbRotatedDimension
1001
ACAD
1000
DSTYLE
1002
{
1070
    40
1040
2.0
1002
}
  0
DIMENSION
  5
151
330
2
100
AcDbEntity
  8
09-01
100
AcDbDimension
280
     0
  2
*D9
 10
474.6015063193214
 20
207.0866628054134
 30
0.0
 11
378.6015063193214
 21
211.5866628054134
 31
0.0
 71
     5
 42
192.0
 73
     0
 74
     0
 75
     0
  3
Wagner$0
100
AcDbAlignedDimension
 13
282.6015063193214
 23
243.5782580882063
 33
0.0
 14
474.6015063193214
 24
274.5782580882064
 34
0.0
100
AcDbRotatedDimension
1001
ACAD
1000
DSTYLE
1002
{
1070
    40
1040
2.0
1002
}
  0
DIMENSION
  5
15E
330
2
100
AcDbEntity
  8
09-01
100
AcDbDimension
280
     0
  2
*D8
 10
402.6015063193215
 20
219.6254617480609
 30
0.0
 11
342.6015063193215
 21
224.125461748061
 31
0.0
 71
     5
 42
120.0000000000001
 73
     0
 74
     0
 75
     0
  3
Wagner$0
100
AcDbAlignedDimension
 13
282.6015063193214
 23
243.5782580882063
 33
0.0
 14
402.6015063193215
 24
245.8782580882065
 34
0.0
100
AcDbRotatedDimension
1001
ACAD
1000
DSTYLE
1002
{
1070
    40
1040
2.0
1002
}
  0
DIMENSION
  5
16B
330
2
100
AcDbEntity
  8
09-01
100
AcDbDimension
280
     0
  2
*D7
 10
402.6015063193214
 20
398.4759495501874
 30
0.0
 11
397.6015063193214
 21
402.9759495501873
 31
0.0
 71
     5
 42
10.00000000000005
 73
     0
 74
     0
 75
     0
  3
Wagner$0
100
AcDbAlignedDimension
 13
392.6015063193214
 23
391.5782580882063
 33
0.0
 14
402.6015063193214
 24
390.5782580882063
 34
0.0
100
AcDbRotatedDimension
1001
ACAD
1000
DSTYLE
1002
{
1070
    40
1040
2.0
1002
}
  0
LINE
  5
17A
330
2
100
AcDbEntity
  8
0
100
AcDbLine
 10
113.4434636025453
 20
95.27476330701825
 30
0.0
 11
113.4434636025453
 21
93.47476330701823
 31
0.0
  0
LINE
  5
17B
330
2
100
AcDbEntity
  8
0
100
AcDbLine
 10
130.4434636025453
 20
93.47476330701823
 30
0.0
 11
130.4434636025453
 21
95.27476330701825
 31
0.0
  0
LINE
  5
17C
330
2
100
AcDbEntity
  8
0
100
AcDbLine
 10
113.4434636025453
 20
93.47476330701823
 30
0.0
 11
130.4434636025453
 21
93.47476330701823
 31
0.0
  0
LINE
  5
17D
330
2
100
AcDbEntity
  8
0
100
AcDbLine
 10
114.6934636025453
 20
91.97476330701823
 30
0.0
 11
113.4434636025453
 21
93.47476330701823
 31
0.0
  0
LINE
  5
17E
330
2
100
AcDbEntity
  8
0
100
AcDbLine
 10
129.1934636025453
 20
91.97476330701823
 30
0.0
 11
130.4434636025453
 21
93.47476330701823
 31
0.0
  0
LINE
  5
17F
330
2
100
AcDbEntity
  8
0
100
AcDbLine
 10
129.1934636025453
 20
91.97476330701823
 30
0.0
 11
114.6934636025453
 21
91.97476330701823
 31
0.0
  0
LINE
  5
180
330
2
100
AcDbEntity
  8
09-01
100
AcDbLine
 10
195.9434636025453
 20
105.2747633070189
 30
0.0
 11
47.94346360254528
 21
105.2747633070188
 31
0.0
  0
LINE
  5
181
330
2
100
AcDbEntity
  8
09-01
100
AcDbLine
 10
195.9434636025452
 20
215.2747633070189
 30
0.0
 11
47.94346360254528
 21
215.2747633070191
 31
0.0
  0
LINE
  5
182
330
2
100
AcDbEntity
  8
09-01
100
AcDbLine
 10
195.9434636025452
 20
215.2747633070189
 30
0.0
 11
195.9434636025453
 21
105.2747633070189
 31
0.0
  0
LINE
  5
183
330
2
100
AcDbEntity
  8
09-01
100
AcDbLine
 10
47.94346360254528
 20
215.2747633070191
 30
0.0
 11
47.94346360254528
 21
105.2747633070188
 31
0.0
  0
DIMENSION
  5
184
330
2
100
AcDbEntity
  8
09-01
100
AcDbDimension
280
     0
  2
*D6
 10
437.6015063193214
 20
219.6254617480609
 30
0.0
 11
420.1015063193215
 21
224.125461748061
 31
0.0
 71
     5
 42
35.0
 73
     0
 74
     0
 75
     0
  3
Wagner$0
100
AcDbAlignedDimension
 13
402.6015063193214
 23
240.3759113539397
 33
0.0
 14
437.6015063193214
 24
261.5782580882048
 34
0.0
100
AcDbRotatedDimension
1001
ACAD
1000
DSTYLE
1002
{
1070
    40
1040
2.0
1002
}
  0
LINE
  5
191
330
2
100
AcDbEntity
  8
03-01
100
AcDbLine
 10
294.8515063193218
 20
345.5782580882064
 30
0.0
 11
294.8515063193217
 21
348.0782580882063
 31
0.0
  0
LINE
  5
195
330
2
100
AcDbEntity
  8
03-01
100
AcDbLine
 10
393.3515063193214
 20
345.5782580882064
 30
0.0
 11
393.3515063193216
 21
348.0782580882063
 31
0.0
  0
LINE
  5
196
330
2
100
AcDbEntity
  8
05-01
100
AcDbLine
 10
344.1015063193217
 20
338.1448369769695
 30
0.0
 11
344.1015063193217
 21
355.8532305931957
 31
0.0
  0
LINE
  5
19B
330
2
100
AcDbEntity
  8
03-01
100
AcDbLine
 10
291.1015063193217
 20
343.0782580882064
 30
0.0
 11
291.1015063193217
 21
265.0782580882065
 31
0.0
  0
LINE
  5
19C
330
2
100
AcDbEntity
  8
03-01
100
AcDbLine
 10
394.6015063193217
 20
345.5782580882064
 30
0.0
 11
293.6015063193216
 21
345.5782580882064
 31
0.0
  0
LINE
  5
19D
330
2
100
AcDbEntity
  8
03-01
100
AcDbLine
 10
397.1015063193218
 20
258.0782580882063
 30
0.0
 11
397.1015063193217
 21
343.0782580882062
 31
0.0
  0
LINE
  5
19E
330
2
100
AcDbEntity
  8
03-01
100
AcDbLine
 10
298.6015063193217
 20
257.5782580882064
 30
0.0
 11
396.6015063193216
 21
257.5782580882064
 31
0.0
  0
ARC
  5
19F
330
2
100
AcDbEntity
  8
03-01
100
AcDbCircle
 10
298.6015063193217
 20
265.0782580882065
 30
0.0
 40
7.5
100
AcDbArc
 50
180.0
 51
270.0
  0
ARC
  5
1A0
330
2
100
AcDbEntity
  8
03-01
100
AcDbCircle
 10
298.6015063193217
 20
265.0782580882065
 30
0.0
 40
10.0
100
AcDbArc
 50
180.0
 51
270.0
  0
LINE
  5
1A1
330
2
100
AcDbEntity
  8
03-01
100
AcDbLine
 10
288.6015063193216
 20
343.0782580882064
 30
0.0
 11
288.6015063193217
 21
265.0782580882065
 31
0.0
  0
ARC
  5
1A2
330
2
100
AcDbEntity
  8
03-01
100
AcDbCircle
 10
293.6015063193216
 20
343.0782580882064
 30
0.0
 40
2.5
100
AcDbArc
 50
90.0
 51
180.0
  0
ARC
  5
1A3
330
2
100
AcDbEntity
  8
03-01
100
AcDbCircle
 10
293.6015063193216
 20
343.0782580882064
 30
0.0
 40
5.0
100
AcDbArc
 50
90.0
 51
180.0
  0
ARC
  5
1A4
330
2
100
AcDbEntity
  8
03-01
100
AcDbCircle
 10
394.6015063193217
 20
343.0782580882062
 30
0.0
 40
2.5
100
AcDbArc
 50
0.0
 51
90.0
  0
ARC
  5
1A5
330
2
100
AcDbEntity
  8
03-01
100
AcDbCircle
 10
394.6015063193217
 20
343.0782580882062
 30
0.0
 40
5.0
100
AcDbArc
 50
0.0
 51
90.0
  0
LINE
  5
1A6
330
2
100
AcDbEntity
  8
03-01
100
AcDbLine
 10
392.6015063193212
 20
348.0782580882063
 30
0.0
 11
293.6015063193216
 21
348.0782580882063
 31
0.0
  0
LINE
  5
1A7
330
2
100
AcDbEntity
  8
03-01
100
AcDbLine
 10
394.6015063193217
 20
348.0782580882063
 30
0.0
 11
392.6015063193212
 21
348.0782580882063
 31
0.0
  0
LINE
  5
1A8
330
2
100
AcDbEntity
  8
03-01
100
AcDbLine
 10
399.6015063193216
 20
258.0782580882063
 30
0.0
 11
399.6015063193217
 21
343.0782580882062
 31
0.0
  0
ARC
  5
1A9
330
2
100
AcDbEntity
  8
03-01
100
AcDbCircle
 10
396.6015063193216
 20
258.0782580882063
 30
0.0
 40
0.5
100
AcDbArc
 50
270.0
 51
0.0
  0
ARC
  5
1AA
330
2
100
AcDbEntity
  8
03-01
100
AcDbCircle
 10
396.6015063193216
 20
258.0782580882063
 30
0.0
 40
3.0
100
AcDbArc
 50
270.0
 51
0.0
  0
LINE
  5
1AB
330
2
100
AcDbEntity
  8
03-01
100
AcDbLine
 10
392.6015063193211
 20
255.0782580882063
 30
0.0
 11
396.6015063193216
 21
255.0782580882063
 31
0.0
  0
LINE
  5
1AC
330
2
100
AcDbEntity
  8
03-01
100
AcDbLine
 10
298.6015063193217
 20
255.0782580882064
 30
0.0
 11
392.6015063193211
 21
255.0782580882063
 31
0.0
  0
DIMENSION
  5
1AD
330
2
100
AcDbEntity
  8
09-01
100
AcDbDimension
280
     0
  2
*D5
 10
489.7654727864686
 20
261.5782580882044
 30
0.0
 11
485.2654727864686
 21
274.5782580882046
 31
0.0
  1
%%C<>
 71
     5
 42
26.00000000000023
 73
     0
 74
     0
 75
     0
  3
Wagner$0
100
AcDbAlignedDimension
 13
473.6015063193214
 23
287.5782580882046
 33
0.0
 14
473.6015063193214
 24
261.5782580882044
 34
0.0
 50
90.0
100
AcDbRotatedDimension
1001
ACAD
1000
DSTYLE
1002
{
1070
    40
1040
2.0
1002
}
  0
DIMENSION
  5
1BA
330
2
100
AcDbEntity
  8
09-01
100
AcDbDimension
280
     0
  2
*D4
 10
453.6015063193215
 20
294.2863940101378
 30
0.0
 11
428.1015063193215
 21
298.7863940101378
 31
0.0
 71
     5
 42
51.0
 73
     0
 74
     0
 75
     0
  3
Wagner$0
100
AcDbAlignedDimension
 13
402.6015063193214
 23
287.5782580882064
 33
0.0
 14
453.6015063193215
 24
283.0782580882064
 34
0.0
100
AcDbRotatedDimension
1001
ACAD
1000
DSTYLE
1002
{
1070
    40
1040
2.0
1002
}
  0
DIMENSION
  5
1C7
330
2
100
AcDbEntity
  8
09-01
100
AcDbDimension
280
     0
  2
*D3
 10
429.6756352484439
 20
233.0630507397613
 30
0.0
 11
416.1385707838826
 21
237.5630507397612
 31
0.0
 71
     5
 42
27.07412892912248
 73
     0
 74
     0
 75
     0
  3
Wagner$0
100
AcDbAlignedDimension
 13
402.6015063193214
 23
261.5782580882064
 33
0.0
 14
429.6756352484439
 24
255.5461025096609
 34
0.0
100
AcDbRotatedDimension
1001
ACAD
1000
DSTYLE
1002
{
1070
   271
1070
     0
1070
    40
1040
2.0
1002
}
  0
DIMENSION
  5
1D4
330
2
100
AcDbEntity
  8
09-01
100
AcDbDimension
280
     0
  2
*D2
 10
402.6015063193214
 20
305.1249743711541
 30
0.0
 11
438.6015063193214
 21
309.6249743711541
 31
0.0
 71
     5
 42
72.0
 73
     0
 74
     0
 75
     0
  3
Wagner$0
100
AcDbAlignedDimension
 13
474.6015063193214
 23
274.5782580882063
 33
0.0
 14
402.6015063193214
 24
287.5782580882064
 34
0.0
100
AcDbRotatedDimension
1001
ACAD
1000
DSTYLE
1002
{
1070
    40
1040
2.0
1002
}
  0
ARC
  5
1E1
330
2
100
AcDbEntity
  8
0
100
AcDbCircle
 10
389.6015063193214
 20
274.5782580882045
 30
0.0
 40
85.00000000000012
100
AcDbArc
 50
351.2025892900104
 51
8.797410709989589
  0
LINE
  5
1E2
330
2
100
AcDbEntity
  8
0
100
AcDbLine
 10
464.6015063193213
 20
267.5782580882064
 30
0.0
 11
469.1015063193213
 21
261.5782580882045
 31
0.0
  0
LINE
  5
1E3
330
2
100
AcDbEntity
  8
0
100
AcDbLine
 10
464.6015063193214
 20
281.5782580882064
 30
0.0
 11
469.1015063193214
 21
287.5782580882046
 31
0.0
  0
LINE
  5
1E4
330
2
100
AcDbEntity
  8
0
100
AcDbLine
 10
469.1015063193213
 20
261.5782580882045
 30
0.0
 11
473.6015063193214
 21
261.5782580882046
 31
0.0
  0
LINE
  5
1E5
330
2
100
AcDbEntity
  8
0
100
AcDbLine
 10
469.1015063193214
 20
287.5782580882046
 30
0.0
 11
473.6015063193214
 21
287.5782580882046
 31
0.0
  0
LINE
  5
1E6
330
2
100
AcDbEntity
  8
0
100
AcDbLine
 10
453.6015063193215
 20
266.0782580882064
 30
0.0
 11
451.6015063193214
 21
261.5782580882044
 31
0.0
  0
LINE
  5
1E7
330
2
100
AcDbEntity
  8
0
100
AcDbLine
 10
453.6015063193213
 20
283.0782580882064
 30
0.0
 11
451.6015063193214
 21
287.5782580882046
 31
0.0
  0
LINE
  5
1E8
330
2
100
AcDbEntity
  8
0
100
AcDbLine
 10
402.6015063193214
 20
287.5782580882064
 30
0.0
 11
451.6015063193214
 21
287.5782580882046
 31
0.0
  0
LINE
  5
1E9
330
2
100
AcDbEntity
  8
0
100
AcDbLine
 10
402.6015063193214
 20
261.5782580882064
 30
0.0
 11
451.6015063193214
 21
261.5782580882045
 31
0.0
  0
LINE
  5
1EA
330
2
100
AcDbEntity
  8
0
100
AcDbLine
 10
464.6015063193214
 20
281.5782580882064
 30
0.0
 11
453.6015063193213
 21
281.5782580882063
 31
0.0
  0
LINE
  5
1EB
330
2
100
AcDbEntity
  8
0
100
AcDbLine
 10
464.6015063193214
 20
267.5782580882064
 30
0.0
 11
453.6015063193213
 21
267.5782580882064
 31
0.0
  0
LINE
  5
1EC
330
2
100
AcDbEntity
  8
05-01
100
AcDbLine
 10
476.195466547964
 20
274.5782580882064
 30
0.0
 11
382.9259037535154
 21
274.5782580882064
 31
0.0
  0
LINE
  5
1ED
330
2
100
AcDbEntity
  8
0
100
AcDbLine
 10
426.3836440147658
 20
253.5782580882054
 30
0.0
 11
421.6015063193214
 21
261.5782580882056
 31
0.0
  0
LINE
  5
1EE
330
2
100
AcDbEntity
  8
0
100
AcDbLine
 10
433.2503422227427
 20
257.6829451311562
 30
0.0
 11
430.9218518568104
 21
261.5782580882053
 31
0.0
  0
LINE
  5
1EF
330
2
100
AcDbEntity
  8
0
100
AcDbLine
 10
426.3836440147658
 20
253.5782580882054
 30
0.0
 11
433.2503422227427
 21
257.6829451311562
 31
0.0
  0
LINE
  5
1F0
330
2
100
AcDbEntity
  8
05-01
100
AcDbLine
 10
431.8693366402293
 20
252.1972525056924
 30
0.0
 11
425.03485542331
 21
262.630601609681
 31
0.0
  0
LINE
  5
1F1
330
2
100
AcDbEntity
  8
0
100
AcDbLine
 10
437.6015063193214
 20
287.5782580882051
 30
0.0
 11
437.6015063193214
 21
261.578258088205
 31
0.0
  0
LINE
  5
1F2
330
2
100
AcDbEntity
  8
0
100
AcDbLine
 10
451.6015063193214
 20
287.5782580882047
 30
0.0
 11
451.6015063193214
 21
261.5782580882044
 31
0.0
  0
LINE
  5
1F3
330
2
100
AcDbEntity
  8
0
100
AcDbLine
 10
464.6015063193214
 20
281.5782580882064
 30
0.0
 11
464.6015063193214
 21
267.5782580882064
 31
0.0
  0
LINE
  5
1F4
330
2
100
AcDbEntity
  8
0
100
AcDbLine
 10
453.6015063193215
 20
283.0782580882064
 30
0.0
 11
453.6015063193215
 21
266.0782580882062
 31
0.0
  0
LINE
  5
1F5
330
2
100
AcDbEntity
  8
0
100
AcDbLine
 10
473.6015063193214
 20
287.5782580882046
 30
0.0
 11
473.6015063193214
 21
261.5782580882044
 31
0.0
  0
LINE
  5
1F6
330
2
100
AcDbEntity
  8
0
100
AcDbLine
 10
469.1015063193213
 20
287.5782580882045
 30
0.0
 11
469.1015063193214
 21
261.5782580882045
 31
0.0
  0
LINE
  5
1F7
330
2
100
AcDbEntity
  8
03-01
100
AcDbLine
 10
72.69346360254516
 20
345.5806048224731
 30
0.0
 11
72.69346360254505
 21
348.0806048224731
 31
0.0
  0
LINE
  5
1F8
330
2
100
AcDbEntity
  8
03-01
100
AcDbLine
 10
171.1934636025448
 20
345.5806048224731
 30
0.0
 11
171.1934636025449
 21
348.0806048224731
 31
0.0
  0
LWPOLYLINE
  5
1F9
330
2
100
AcDbEntity
  8
03-01
100
AcDbPolyline
 90
        8
 70
     1
 43
0.0
 10
72.69346360254505
 20
257.5806048224732
 10
171.193463602545
 20
257.5806048224734
 42
0.4142135623730951
 10
178.693463602545
 20
265.0806048224733
 10
178.693463602545
 20
343.0806048224732
 42
0.4142135623730951
 10
176.193463602545
 20
345.5806048224732
 10
67.69346360254505
 20
345.5806048224731
 42
0.4142135623730951
 10
65.19346360254505
 20
343.0806048224731
 10
65.19346360254505
 20
265.0806048224732
 42
0.4142135623730951
  0
LWPOLYLINE
  5
1FA
330
2
100
AcDbEntity
  8
03-01
100
AcDbPolyline
 90
        8
 70
     1
 43
0.0
 10
72.69346360254505
 20
255.0806048224732
 10
171.193463602545
 20
255.0806048224733
 42
0.4142135623730951
 10
181.193463602545
 20
265.0806048224733
 10
181.193463602545
 20
343.0806048224732
 42
0.4142135623730951
 10
176.193463602545
 20
348.0806048224732
 10
67.69346360254505
 20
348.0806048224731
 42
0.4142135623730951
 10
62.69346360254505
 20
343.0806048224731
 10
62.69346360254505
 20
265.0806048224732
 42
0.4142135623730951
  0
CIRCLE
  5
1FB
330
2
100
AcDbEntity
  8
0
100
AcDbCircle
 10
121.9434636025449
 20
274.5782580882063
 30
0.0
 40
13.00000000000074
  0
LINE
  5
1FC
330
2
100
AcDbEntity
  8
05-01
100
AcDbLine
 10
121.943463602545
 20
289.576510708308
 30
0.0
 11
121.943463602545
 21
252.5782580881956
 31
0.0
  0
LINE
  5
1FD
330
2
100
AcDbEntity
  8
05-01
100
AcDbLine
 10
106.9434637043229
 20
274.5782580882063
 30
0.0
 11
136.9434635007671
 21
274.5782580882063
 31
0.0
  0
LWPOLYLINE
  5
1FE
330
2
100
AcDbEntity
  8
0
100
AcDbPolyline
 90
       16
 70
     1
 43
0.0
 10
121.943463602545
 20
256.6829451311464
 42
0.0524007201276657
 10
120.3276301737918
 20
256.5131371959489
 42
0.0662592296011239
 10
119.1150364777988
 20
256.0818276310306
 42
0.1047706852721717
 10
118.1904781537825
 20
255.3298185168095
 42
0.1714446435898086
 10
117.943463602545
 20
254.630601609671
 42
0.1714446435898349
 10
118.1904781537825
 20
253.9313847025327
 42
0.1047706852722091
 10
119.1150364777988
 20
253.1793755883116
 42
0.0662592296011165
 10
120.3276301737918
 20
252.7480660233932
 42
0.0524007201276639
 10
121.943463602545
 20
252.5782580881956
 42
0.0524007201276777
 10
123.5592970312984
 20
252.7480660233932
 42
0.0662592296011222
 10
124.7718907272912
 20
253.1793755883116
 42
0.1047706852722093
 10
125.6964490513075
 20
253.9313847025327
 42
0.1714446435898349
 10
125.943463602545
 20
254.630601609671
 42
0.1714446435898218
 10
125.6964490513075
 20
255.3298185168094
 42
0.1047706852721904
 10
124.7718907272912
 20
256.0818276310306
 42
0.0662592296011313
 10
123.5592970312982
 20
256.5131371959489
 42
0.0524007201276676
  0
CIRCLE
  5
1FF
330
2
100
AcDbEntity
  8
0
100
AcDbCircle
 10
121.943463602545
 20
254.630601609671
 30
0.0
 40
0.5
  0
LINE
  5
200
330
2
100
AcDbEntity
  8
0
100
AcDbLine
 10
125.943463602545
 20
262.2089412113534
 30
0.0
 11
125.943463602545
 21
254.630601609671
 31
0.0
  0
LINE
  5
201
330
2
100
AcDbEntity
  8
0
100
AcDbLine
 10
117.943463602545
 20
262.2089412113532
 30
0.0
 11
117.943463602545
 21
254.630601609671
 31
0.0
  0
LINE
  5
202
330
2
100
AcDbEntity
  8
05-01
100
AcDbLine
 10
121.9434636025451
 20
354.0782580882063
 30
0.0
 11
121.9434636025451
 21
375.0782580882063
 31
0.0
  0
LINE
  5
203
330
2
100
AcDbEntity
  8
05-01
100
AcDbLine
 10
111.4434636025451
 20
364.5782580882063
 30
0.0
 11
132.4434636025451
 21
364.5782580882063
 31
0.0
  0
CIRCLE
  5
204
330
2
100
AcDbEntity
  8
0
100
AcDbCircle
 10
121.9434636025451
 20
364.5782580882063
 30
0.0
 40
8.5
  0
LINE
  5
205
330
2
100
AcDbEntity
  8
0
100
AcDbLine
 10
120.6934636025451
 20
361.3828299261623
 30
0.0
 11
123.1934636025451
 21
361.3828299261623
 31
0.0
  0
LINE
  5
206
330
2
100
AcDbEntity
  8
0
100
AcDbLine
 10
120.6934636025451
 20
369.3782580882063
 30
0.0
 11
123.1934636025451
 21
369.3782580882063
 31
0.0
  0
LWPOLYLINE
  5
207
330
2
100
AcDbEntity
  8
0
100
AcDbPolyline
 90
        2
 70
     0
 43
0.0
 10
120.6934636025451
 20
367.5768665620922
 10
120.6934636025451
 20
369.3782580882063
  0
LWPOLYLINE
  5
208
330
2
100
AcDbEntity
  8
0
100
AcDbPolyline
 90
        2
 70
     0
 43
0.0
 10
120.6934636025451
 20
361.3828299261623
 10
120.6934636025451
 20
363.24673954317
  0
LWPOLYLINE
  5
209
330
2
100
AcDbEntity
  8
0
100
AcDbPolyline
 90
        2
 70
     0
 43
0.0
 10
123.1934636025451
 20
367.5768665620922
 10
123.1934636025451
 20
369.3782580882063
  0
LWPOLYLINE
  5
20A
330
2
100
AcDbEntity
  8
0
100
AcDbPolyline
 90
        2
 70
     0
 43
0.0
 10
123.1934636025451
 20
361.3828299261623
 10
123.1934636025451
 20
363.24673954317
  0
ARC
  5
20B
330
2
100
AcDbEntity
  8
0
100
AcDbCircle
 10
121.9434636025451
 20
365.4118030526311
 30
0.0
 40
2.5
100
AcDbArc
 50
300.0000000000005
 51
59.99999999999946
  0
ARC
  5
20C
330
2
100
AcDbEntity
  8
0
100
AcDbCircle
 10
121.9434636025451
 20
365.4118030526311
 30
0.0
 40
2.5
100
AcDbArc
 50
120.0000000000005
 51
239.9999999999995
  0
CIRCLE
  5
20D
330
2
100
AcDbEntity
  8
0
100
AcDbCircle
 10
121.9434636025451
 20
364.5782580882063
 30
0.0
 40
7.25
  0
LINE
  5
20E
330
2
100
AcDbEntity
  8
0
100
AcDbLine
 10
48.74346360254545
 20
244.3782580882064
 30
0.0
 11
195.1434636025456
 21
244.3782580882064
 31
0.0
  0
LINE
  5
20F
330
2
100
AcDbEntity
  8
0
100
AcDbLine
 10
47.94346360254528
 20
243.5782580882064
 30
0.0
 11
195.9434636025452
 21
243.5782580882064
 31
0.0
  0
LINE
  5
210
330
2
100
AcDbEntity
  8
05-01
100
AcDbLine
 10
407.3607574964882
 20
364.5782580882063
 30
0.0
 11
384.5607574964883
 21
364.5782580882063
 31
0.0
  0
LINE
  5
211
330
2
100
AcDbEntity
  8
0
100
AcDbLine
 10
402.6015063193213
 20
356.0782580882063
 30
0.0
 11
404.4015063193213
 21
356.0782580882063
 31
0.0
  0
LINE
  5
212
330
2
100
AcDbEntity
  8
0
100
AcDbLine
 10
404.4015063193213
 20
373.0782580882063
 30
0.0
 11
402.6015063193213
 21
373.0782580882063
 31
0.0
  0
LINE
  5
213
330
2
100
AcDbEntity
  8
0
100
AcDbLine
 10
404.4015063193213
 20
356.0782580882063
 30
0.0
 11
404.4015063193213
 21
373.0782580882063
 31
0.0
  0
LINE
  5
214
330
2
100
AcDbEntity
  8
0
100
AcDbLine
 10
405.9015063193213
 20
357.3282580882063
 30
0.0
 11
404.4015063193213
 21
356.0782580882063
 31
0.0
  0
LINE
  5
215
330
2
100
AcDbEntity
  8
0
100
AcDbLine
 10
405.9015063193213
 20
371.8282580882063
 30
0.0
 11
404.4015063193213
 21
373.0782580882063
 31
0.0
  0
LINE
  5
216
330
2
100
AcDbEntity
  8
0
100
AcDbLine
 10
405.9015063193213
 20
371.8282580882063
 30
0.0
 11
405.9015063193213
 21
357.3282580882063
 31
0.0
  0
ARC
  5
217
330
2
100
AcDbEntity
  8
0
100
AcDbCircle
 10
401.3015063193215
 20
245.8782580882065
 30
0.0
 40
1.3
100
AcDbArc
 50
225.0000000000096
 51
0.0
  0
LINE
  5
218
330
2
100
AcDbEntity
  8
0
100
AcDbLine
 10
392.6015063193215
 20
390.5782580882063
 30
0.0
 11
392.6015063193214
 21
252.7397804571217
 31
0.0
  0
LINE
  5
219
330
2
100
AcDbEntity
  8
0
100
AcDbLine
 10
392.6015063193213
 20
252.7397804571219
 30
0.0
 11
400.3822675037792
 21
244.959019272664
 31
0.0
  0
LINE
  5
21A
330
2
100
AcDbEntity
  8
0
100
AcDbLine
 10
402.6015063193214
 20
390.5782580882063
 30
0.0
 11
402.6015063193214
 21
245.8782580882065
 31
0.0
  0
LINE
  5
21B
330
2
100
AcDbEntity
  8
0
100
AcDbLine
 10
392.6015063193215
 20
390.5782580882063
 30
0.0
 11
402.6015063193214
 21
390.5782580882063
 31
0.0
  0
LINE
  5
21C
330
2
100
AcDbEntity
  8
09-01
100
AcDbLine
 10
391.8015063193214
 20
255.0782580882062
 30
0.0
 11
392.6015063193214
 21
255.0782580882062
 31
0.0
  0
DIMENSION
  5
21D
330
2
100
AcDbEntity
  8
09-01
100
AcDbDimension
280
     0
  2
*D22
 10
392.6015063193214
 20
398.4759495501874
 30
0.0
 11
337.6015063193214
 21
402.9759495501873
 31
0.0
 71
     5
 42
110.0
 73
     0
 74
     0
 75
     0
  3
Wagner$0
100
AcDbAlignedDimension
 13
282.6015063193214
 23
391.5782580882063
 33
0.0
 14
392.6015063193214
 24
391.5782580882063
 34
0.0
100
AcDbRotatedDimension
1001
ACAD
1000
DSTYLE
1002
{
1070
    40
1040
2.0
1002
}
  0
LINE
  5
22A
330
2
100
AcDbEntity
  8
09-01
100
AcDbLine
 10
392.6015063193214
 20
255.0782580882062
 30
0.0
 11
392.6015063193214
 21
391.5782580882063
 31
0.0
  0
LINE
  5
22B
330
2
100
AcDbEntity
  8
09-01
100
AcDbLine
 10
282.6015063193214
 20
243.5782580882063
 30
0.0
 11
282.6015063193214
 21
391.5782580882063
 31
0.0
  0
LINE
  5
22C
330
2
100
AcDbEntity
  8
09-01
100
AcDbLine
 10
391.8015063193215
 20
243.5782580882063
 30
0.0
 11
392.6015063193214
 21
243.5782580882062
 31
0.0
  0
LINE
  5
22D
330
2
100
AcDbEntity
  8
09-01
100
AcDbLine
 10
282.6015063193214
 20
243.5782580882063
 30
0.0
 11
392.6015063193215
 21
243.5782580882063
 31
0.0
  0
LINE
  5
22E
330
2
100
AcDbEntity
  8
09-01
100
AcDbLine
 10
282.6015063193214
 20
391.5782580882063
 30
0.0
 11
392.6015063193214
 21
391.5782580882063
 31
0.0
  0
LINE
  5
22F
330
2
100
AcDbEntity
  8
0
100
AcDbLine
 10
392.6015063193215
 20
253.6782580882062
 30
0.0
 11
392.6015063193215
 21
243.5782580882063
 31
0.0
  0
LINE
  5
230
330
2
100
AcDbEntity
  8
03-01
100
AcDbLine
 10
284.2015063193214
 20
243.5782580882063
 30
0.0
 11
392.6015063193215
 21
243.5782580882063
 31
0.0
  0
CIRCLE
  5
231
330
2
100
AcDbEntity
  8
03-01
100
AcDbCircle
 10
121.943463602545
 20
352.5782580882062
 30
0.0
 40
3.25
  0
LINE
  5
232
330
2
100
AcDbEntity
  8
05-01
100
AcDbLine
 10
121.943463602545
 20
356.8282580882062
 30
0.0
 11
121.943463602545
 21
348.3282580882062
 31
0.0
  0
LINE
  5
233
330
2
100
AcDbEntity
  8
05-01
100
AcDbLine
 10
117.693463602545
 20
352.5782580882062
 30
0.0
 11
126.193463602545
 21
352.5782580882062
 31
0.0
  0
ARC
  5
234
330
2
100
AcDbEntity
  8
03-01
100
AcDbCircle
 10
168.943463602545
 20
266.5782580882062
 30
0.0
 40
6.25
100
AcDbArc
 50
113.5781784782065
 51
66.42182152179316
  0
LINE
  5
235
330
2
100
AcDbEntity
  8
05-01
100
AcDbLine
 10
161.693463602545
 20
266.5782580882062
 30
0.0
 11
176.193463602545
 21
266.5782580882062
 31
0.0
  0
LINE
  5
236
330
2
100
AcDbEntity
  8
05-01
100
AcDbLine
 10
165.443463602545
 20
278.5782580882062
 30
0.0
 11
172.443463602545
 21
278.5782580882062
 31
0.0
  0
LINE
  5
237
330
2
100
AcDbEntity
  8
03-01
100
AcDbLine
 10
166.443463602545
 20
278.5782580882062
 30
0.0
 11
166.443463602545
 21
272.3064777069012
 31
0.0
  0
LINE
  5
238
330
2
100
AcDbEntity
  8
01-01
100
AcDbLine
 10
168.943463602545
 20
281.0782580882062
 30
0.0
 11
168.943463602545
 21
281.0782580882062
 31
0.0
  0
ARC
  5
23C
330
2
100
AcDbEntity
  8
03-01
100
AcDbCircle
 10
168.943463602545
 20
278.5782580882062
 30
0.0
 40
2.5
100
AcDbArc
 50
0.0
 51
180.0
  0
LINE
  5
23D
330
2
100
AcDbEntity
  8
03-01
100
AcDbLine
 10
171.443463602545
 20
272.306477706901
 30
0.0
 11
171.443463602545
 21
278.5782580882062
 31
0.0
  0
LINE
  5
23E
330
2
100
AcDbEntity
  8
05-01
100
AcDbLine
 10
168.943463602545
 20
282.0782580882062
 30
0.0
 11
168.943463602545
 21
259.3282580882062
 31
0.0
  0
ARC
  5
23F
330
2
100
AcDbEntity
  8
03-01
100
AcDbCircle
 10
168.943463602545
 20
352.5782580882062
 30
0.0
 40
6.25
100
AcDbArc
 50
113.5781784782065
 51
66.42182152179316
  0
LINE
  5
240
330
2
100
AcDbEntity
  8
05-01
100
AcDbLine
 10
161.693463602545
 20
352.5782580882062
 30
0.0
 11
176.193463602545
 21
352.5782580882062
 31
0.0
  0
LINE
  5
241
330
2
100
AcDbEntity
  8
05-01
100
AcDbLine
 10
165.443463602545
 20
364.5782580882062
 30
0.0
 11
172.443463602545
 21
364.5782580882062
 31
0.0
  0
LINE
  5
242
330
2
100
AcDbEntity
  8
03-01
100
AcDbLine
 10
166.443463602545
 20
364.5782580882062
 30
0.0
 11
166.443463602545
 21
358.3064777069012
 31
0.0
  0
LINE
  5
243
330
2
100
AcDbEntity
  8
01-01
100
AcDbLine
 10
168.943463602545
 20
367.0782580882062
 30
0.0
 11
168.943463602545
 21
367.0782580882062
 31
0.0
  0
ARC
  5
244
330
2
100
AcDbEntity
  8
03-01
100
AcDbCircle
 10
168.943463602545
 20
364.5782580882062
 30
0.0
 40
2.5
100
AcDbArc
 50
0.0
 51
180.0
  0
LINE
  5
245
330
2
100
AcDbEntity
  8
03-01
100
AcDbLine
 10
171.443463602545
 20
358.306477706901
 30
0.0
 11
171.443463602545
 21
364.5782580882062
 31
0.0
  0
LINE
  5
246
330
2
100
AcDbEntity
  8
05-01
100
AcDbLine
 10
168.943463602545
 20
368.0782580882062
 30
0.0
 11
168.943463602545
 21
345.3282580882062
 31
0.0
  0
ARC
  5
247
330
2
100
AcDbEntity
  8
03-01
100
AcDbCircle
 10
74.94346360254505
 20
266.5782580882062
 30
0.0
 40
6.25
100
AcDbArc
 50
113.5781784782065
 51
66.42182152179316
  0
LINE
  5
248
330
2
100
AcDbEntity
  8
05-01
100
AcDbLine
 10
67.69346360254505
 20
266.5782580882062
 30
0.0
 11
82.19346360254505
 21
266.5782580882062
 31
0.0
  0
LINE
  5
249
330
2
100
AcDbEntity
  8
05-01
100
AcDbLine
 10
71.44346360254505
 20
278.5782580882062
 30
0.0
 11
78.44346360254505
 21
278.5782580882062
 31
0.0
  0
LINE
  5
24A
330
2
100
AcDbEntity
  8
03-01
100
AcDbLine
 10
72.44346360254505
 20
278.5782580882062
 30
0.0
 11
72.44346360254505
 21
272.3064777069012
 31
0.0
  0
LINE
  5
24B
330
2
100
AcDbEntity
  8
01-01
100
AcDbLine
 10
74.94346360254505
 20
281.0782580882062
 30
0.0
 11
74.94346360254505
 21
281.0782580882062
 31
0.0
  0
ARC
  5
24C
330
2
100
AcDbEntity
  8
03-01
100
AcDbCircle
 10
74.94346360254505
 20
278.5782580882062
 30
0.0
 40
2.5
100
AcDbArc
 50
0.0
 51
180.0
  0
LINE
  5
24D
330
2
100
AcDbEntity
  8
03-01
100
AcDbLine
 10
77.44346360254505
 20
272.306477706901
 30
0.0
 11
77.44346360254505
 21
278.5782580882062
 31
0.0
  0
LINE
  5
24E
330
2
100
AcDbEntity
  8
05-01
100
AcDbLine
 10
74.94346360254505
 20
282.0782580882062
 30
0.0
 11
74.94346360254505
 21
259.3282580882062
 31
0.0
  0
ARC
  5
24F
330
2
100
AcDbEntity
  8
03-01
100
AcDbCircle
 10
74.94346360254505
 20
352.5782580882065
 30
0.0
 40
6.25
100
AcDbArc
 50
113.5781784782065
 51
66.42182152179316
  0
LINE
  5
250
330
2
100
AcDbEntity
  8
05-01
100
AcDbLine
 10
67.69346360254505
 20
352.5782580882065
 30
0.0
 11
82.19346360254505
 21
352.5782580882065
 31
0.0
  0
LINE
  5
251
330
2
100
AcDbEntity
  8
05-01
100
AcDbLine
 10
71.44346360254505
 20
364.5782580882064
 30
0.0
 11
78.44346360254505
 21
364.5782580882064
 31
0.0
  0
LINE
  5
252
330
2
100
AcDbEntity
  8
03-01
100
AcDbLine
 10
72.44346360254505
 20
364.5782580882064
 30
0.0
 11
72.44346360254505
 21
358.3064777069014
 31
0.0
  0
LINE
  5
253
330
2
100
AcDbEntity
  8
01-01
100
AcDbLine
 10
74.94346360254505
 20
367.0782580882065
 30
0.0
 11
74.94346360254505
 21
367.0782580882065
 31
0.0
  0
ARC
  5
254
330
2
100
AcDbEntity
  8
03-01
100
AcDbCircle
 10
74.94346360254505
 20
364.5782580882064
 30
0.0
 40
2.5
100
AcDbArc
 50
0.0
 51
180.0
  0
LINE
  5
255
330
2
100
AcDbEntity
  8
03-01
100
AcDbLine
 10
77.44346360254505
 20
358.3064777069012
 30
0.0
 11
77.44346360254505
 21
364.5782580882064
 31
0.0
  0
LINE
  5
256
330
2
100
AcDbEntity
  8
05-01
100
AcDbLine
 10
74.94346360254505
 20
368.0782580882064
 30
0.0
 11
74.94346360254505
 21
345.3282580882064
 31
0.0
  0
LINE
  5
257
330
2
100
AcDbEntity
  8
0
100
AcDbLine
 10
48.74346360254557
 20
390.7782580882064
 30
0.0
 11
195.1434636025456
 21
390.7782580882064
 31
0.0
  0
LINE
  5
258
330
2
100
AcDbEntity
  8
0
100
AcDbLine
 10
195.1434636025456
 20
390.7782580882064
 30
0.0
 11
195.1434636025456
 21
244.3782580882064
 31
0.0
  0
LINE
  5
259
330
2
100
AcDbEntity
  8
0
100
AcDbLine
 10
48.74346360254557
 20
390.7782580882064
 30
0.0
 11
48.74346360254545
 21
244.3782580882064
 31
0.0
  0
LINE
  5
25A
330
2
100
AcDbEntity
  8
0
100
AcDbLine
 10
195.9434636025454
 20
391.5782580882063
 30
0.0
 11
195.9434636025452
 21
243.5782580882064
 31
0.0
  0
LINE
  5
25B
330
2
100
AcDbEntity
  8
0
100
AcDbLine
 10
47.94346360254539
 20
391.5782580882063
 30
0.0
 11
47.94346360254528
 21
243.5782580882064
 31
0.0
  0
LINE
  5
25C
330
2
100
AcDbEntity
  8
0
100
AcDbLine
 10
47.94346360254539
 20
391.5782580882063
 30
0.0
 11
195.9434636025454
 21
391.5782580882063
 31
0.0
  0
INSERT
  5
25D
330
2
100
AcDbEntity
  8
09-01
100
AcDbBlockReference
 66
     1
  2
DIN A4 Quer
 10
-0.0000037814206735
 20
-0.0000010374983503
 30
0.0
 41
2.0
 42
2.0
 43
2.0
  0
ATTRIB
  5
2D4
330
25D
100
AcDbEntity
  8
06-99
100
AcDbText
 10
406.9908934783543
 20
52.37567739456449
 30
0.0
 40
9.0
  1
Flüssigseifenspender WP105
 41
0.9
  7
ROMANS8
100
AcDbAttribute
280
     0
  2
TEILE
 70
     0
280
     0
  0
ATTRIB
  5
2D5
330
25D
100
AcDbEntity
  8
06-99
100
AcDbText
 10
406.9908934783543
 20
37.9012069698324
 30
0.0
 40
9.0
  1

 41
0.9
  7
ROMANS8
100
AcDbAttribute
280
     0
  2
TEILE2
 70
     0
280
     0
  0
ATTRIB
  5
2D6
330
25D
100
AcDbEntity
  8
06-99
100
AcDbText
 10
556.6947724234291
 20
90.66666666666675
 30
0.0
 40
6.75
  1
1:2
  7
ROMANS8
100
AcDbAttribute
280
     0
  2
:
 70
     0
280
     0
  0
ATTRIB
  5
2D7
330
25D
100
AcDbEntity
  8
06-99
100
AcDbText
 10
359.9941355987348
 20
54.88337093606265
 30
0.0
 40
5.0
  1
Pfrepper
 41
0.9
  7
ROMANS8
100
AcDbAttribute
280
     0
  2
NAME
 70
     0
280
     0
  0
ATTRIB
  5
2D8
330
25D
100
AcDbEntity
  8
06-99
100
AcDbText
 10
332.9862929037881
 20
54.92247034822253
 30
0.0
 40
5.0
  1
16.07.2012
 50
359.9144597696142
 41
0.5691052222933154
  7
ROMANS8
 72
     5
 11
355.4794742408776
 21
54.88888893333342
 31
0.0
100
AcDbAttribute
280
     0
  2
DATUM
 70
     0
280
     0
  0
ATTRIB
  5
2D9
330
25D
100
AcDbEntity
  8
06-99
100
AcDbText
 10
531.0126879343165
 20
14.98579960057748
 30
0.0
 40
5.98752
  1
727599
  7
ROMANS8
100
AcDbAttribute
280
     0
  2
ID.NR
 70
     0
280
     0
  0
ATTRIB
  5
2DA
330
25D
100
AcDbEntity
  8
06-99
100
AcDbText
 10
407.4625325114211
 20
75.33333328888898
 30
0.0
 40
6.0
  1

 41
0.9
  7
ROMANS8
100
AcDbAttribute
280
     0
  2
LÄNGE
 70
     0
280
     0
  0
ATTRIB
  5
2DB
330
25D
100
AcDbEntity
  8
06-99
100
AcDbText
 10
474.3616098235395
 20
75.3562077408896
 30
0.0
 40
6.0
  1

 41
0.9
  7
ROMANS8
100
AcDbAttribute
280
     0
  2
BREITE
 70
     0
280
     0
  0
ATTRIB
  5
2DC
330
25D
100
AcDbEntity
  8
06-99
100
AcDbText
 10
555.2181842534637
 20
75.33333333333359
 30
0.0
 40
6.187500000000001
  1

  7
ROMANS8
100
AcDbAttribute
280
     0
  2
1.0
 70
     0
280
     0
  0
ATTRIB
  5
2DD
330
25D
100
AcDbEntity
  8
06-99
100
AcDbText
 10
502.2555712028053
 20
90.66666666666696
 30
0.0
 40
6.0
  1

  7
ROMANS8
 72
     1
 11
502.2555712028053
 21
90.66666666666696
 31
0.0
100
AcDbAttribute
280
     0
  2
IV
 70
     0
280
     0
  0
ATTRIB
  5
2DE
330
25D
100
AcDbEntity
  8
06-99
100
AcDbText
 10
420.5494810722316
 20
90.66666666666662
 30
0.0
 40
6.75
  1
1.4301
  7
ROMANS8
100
AcDbAttribute
280
     0
  2
1.4301
 70
     0
280
     0
  0
ATTRIB
  5
2DF
330
25D
100
AcDbEntity
  8
06-99
100
AcDbText
 10
466.0012677737602
 20
15.00879320870933
 30
0.0
 40
6.336
  1

 41
0.9000000000000001
  7
ROMANS8
100
AcDbAttribute
280
     0
  2
AUFTRAGS.NR.
 70
     0
280
     0
  0
ATTRIB
  5
2E0
330
25D
100
AcDbEntity
  8
06-99
100
AcDbText
 10
407.0
 20
15.00000000000011
 30
0.0
 40
6.336
  1

 41
0.9000000000000001
  7
ROMANS8
100
AcDbAttribute
280
     0
  2
SONDER-NR
 70
     0
280
     0
  0
ATTRIB
  5
2E1
330
25D
100
AcDbEntity
  8
06-99
100
AcDbText
 10
266.9995019900166
 20
13.20362013851979
 30
0.0
 40
3.0
  1

 41
0.9
  7
ROMANS8
100
AcDbAttribute
280
     0
  2
ERSETZT.DURCH
 70
     0
280
     0
  0
ATTRIB
  5
2E2
330
25D
100
AcDbEntity
  8
06-99
100
AcDbText
 10
216.998935560397
 20
13.19491279574492
 30
0.0
 40
3.0
  1

 41
0.9
  7
ROMANS8
100
AcDbAttribute
280
     0
  2
ERSETZT.FÜR
 70
     0
280
     0
  0
ATTRIB
  5
2E3
330
25D
100
AcDbEntity
  8
06-99
100
AcDbText
 10
373.9461452928752
 20
95.33702228001606
 30
0.0
 40
2.574
  1
DIN A4
  7
ROMANS8
 72
     1
 11
380.5037167214466
 21
95.33702228001606
 31
0.0
100
AcDbAttribute
280
     0
  2
FORMAT
 70
     0
280
     0
  0
ATTRIB
  5
2E4
330
25D
100
AcDbEntity
  8
06-99
100
AcDbText
 10
365.981638443108
 20
74.63721635875391
 30
0.0
 40
4.68
  1
DIN 2768
  7
ROMANS8
 72
     1
 11
382.0273527288223
 21
74.63721635875391
 31
0.0
100
AcDbAttribute
280
     0
  2
NORM2
 70
     0
280
     0
  0
ATTRIB
  5
2E5
330
25D
100
AcDbEntity
  8
06-99
100
AcDbText
 10
359.6302098716795
 20
82.30388302542047
 30
0.0
 40
4.68
  1
DIN 6930-M
  7
ROMANS8
 72
     1
 11
381.0244955859652
 21
82.30388302542047
 31
0.0
100
AcDbAttribute
280
     0
  2
NORM1
 70
     0
280
     0
  0
SEQEND
  5
2E6
330
25D
100
AcDbEntity
  8
09-01
  0
CIRCLE
  5
2E7
330
2
100
AcDbEntity
  8
03-01
100
AcDbCircle
 10
121.9434636025453
 20
153.7747633070182
 30
0.0
 40
49.25
  0
LWPOLYLINE
  5
2E8
330
2
100
AcDbEntity
  8
03-01
100
AcDbPolyline
 90
        8
 70
     1
 43
0.0
 10
72.69346360254528
 20
100.7747633070182
 10
171.1934636025453
 20
100.7747633070182
 42
0.4142135623730951
 10
178.6934636025453
 20
108.2747633070182
 10
178.6934636025451
 20
199.2747633070182
 42
0.4142135623730951
 10
171.1934636025451
 20
206.7747633070183
 10
72.69346360254528
 20
206.7747633070183
 42
0.4142135623730951
 10
65.19346360254528
 20
199.2747633070182
 10
65.19346360254528
 20
108.2747633070182
 42
0.4142135623730951
  0
LWPOLYLINE
  5
2E9
330
2
100
AcDbEntity
  8
03-01
100
AcDbPolyline
 90
        2
 70
     0
 43
0.0
 10
63.15407158837544
 20
105.2747633070194
 42
0.3275382217185752
 10
72.69346360254528
 20
98.27476330701825
  0
LWPOLYLINE
  5
2EA
330
2
100
AcDbEntity
  8
03-01
100
AcDbPolyline
 90
        8
 70
     0
 43
0.0
 10
180.7328556167147
 20
105.2747633070185
 42
0.0763208340542204
 10
181.1934636025453
 20
108.2747633070182
 10
181.1934636025451
 20
199.2747633070182
 42
0.4142135623730951
 10
171.1934636025451
 20
209.2747633070183
 10
72.69346360254528
 20
209.2747633070183
 42
0.4142135623730951
 10
62.69346360254528
 20
199.2747633070182
 10
62.69346360254528
 20
108.2747633070182
 42
0.0763208340541934
 10
63.15407158837544
 20
105.2747633070194
  0
LWPOLYLINE
  5
2EB
330
2
100
AcDbEntity
  8
03-01
100
AcDbPolyline
 90
        3
 70
     0
 43
0.0
 10
72.69346360254528
 20
98.27476330701825
 10
171.1934636025453
 20
98.27476330701825
 42
0.327538221718545
 10
180.7328556167147
 20
105.2747633070185
 42
0.327538221718545
  0
ARC
  5
2EC
330
2
100
AcDbEntity
  8
0
100
AcDbCircle
 10
121.9434636025433
 20
108.2747633070182
 30
0.0
 40
85.00000000000012
100
AcDbArc
 50
261.2025892900073
 51
278.7974107099924
  0
LINE
  5
2ED
330
2
100
AcDbEntity
  8
0
100
AcDbLine
 10
114.9434636025454
 20
33.27476330701836
 30
0.0
 11
108.9434636025433
 21
28.77476330701836
 31
0.0
  0
LINE
  5
2EE
330
2
100
AcDbEntity
  8
0
100
AcDbLine
 10
128.9434636025452
 20
33.27476330701825
 30
0.0
 11
134.9434636025434
 21
28.77476330701825
 31
0.0
  0
LINE
  5
2EF
330
2
100
AcDbEntity
  8
0
100
AcDbLine
 10
108.9434636025433
 20
28.77476330701836
 30
0.0
 11
108.9434636025434
 21
24.27476330701825
 31
0.0
  0
LINE
  5
2F0
330
2
100
AcDbEntity
  8
0
100
AcDbLine
 10
134.9434636025434
 20
28.77476330701825
 30
0.0
 11
134.9434636025435
 21
24.27476330701825
 31
0.0
  0
LINE
  5
2F1
330
2
100
AcDbEntity
  8
0
100
AcDbLine
 10
113.4434636025453
 20
44.27476330701824
 30
0.0
 11
108.9434636025433
 21
46.27476330701824
 31
0.0
  0
LINE
  5
2F2
330
2
100
AcDbEntity
  8
0
100
AcDbLine
 10
130.4434636025453
 20
44.27476330701836
 30
0.0
 11
134.9434636025434
 21
46.27476330701824
 31
0.0
  0
LINE
  5
2F3
330
2
100
AcDbEntity
  8
0
100
AcDbLine
 10
134.9434636025454
 20
95.27476330701825
 30
0.0
 11
134.9434636025435
 21
46.27476330701824
 31
0.0
  0
LINE
  5
2F4
330
2
100
AcDbEntity
  8
0
100
AcDbLine
 10
108.9434636025452
 20
95.27476330701825
 30
0.0
 11
108.9434636025433
 21
46.27476330701824
 31
0.0
  0
LINE
  5
2F5
330
2
100
AcDbEntity
  8
0
100
AcDbLine
 10
128.9434636025452
 20
33.27476330701825
 30
0.0
 11
128.9434636025451
 21
44.27476330701836
 31
0.0
  0
LINE
  5
2F6
330
2
100
AcDbEntity
  8
0
100
AcDbLine
 10
114.9434636025453
 20
33.27476330701825
 30
0.0
 11
114.9434636025453
 21
44.27476330701836
 31
0.0
  0
LINE
  5
2F7
330
2
100
AcDbEntity
  8
05-01
100
AcDbLine
 10
121.9434636025453
 20
21.68080307837568
 30
0.0
 11
121.9434636025453
 21
95.27476330701825
 31
0.0
  0
LINE
  5
2F8
330
2
100
AcDbEntity
  8
0
100
AcDbLine
 10
134.9434636025439
 20
60.27476330701825
 30
0.0
 11
108.9434636025438
 21
60.27476330701825
 31
0.0
  0
LINE
  5
2F9
330
2
100
AcDbEntity
  8
0
100
AcDbLine
 10
134.9434636025435
 20
46.27476330701824
 30
0.0
 11
108.9434636025433
 21
46.27476330701824
 31
0.0
  0
LINE
  5
2FA
330
2
100
AcDbEntity
  8
0
100
AcDbLine
 10
128.9434636025452
 20
33.27476330701825
 30
0.0
 11
114.9434636025454
 21
33.27476330701825
 31
0.0
  0
LINE
  5
2FB
330
2
100
AcDbEntity
  8
0
100
AcDbLine
 10
130.4434636025453
 20
44.27476330701824
 30
0.0
 11
113.4434636025451
 21
44.27476330701824
 31
0.0
  0
LINE
  5
2FC
330
2
100
AcDbEntity
  8
0
100
AcDbLine
 10
134.9434636025434
 20
24.27476330701825
 30
0.0
 11
108.9434636025432
 21
24.27476330701825
 31
0.0
  0
LINE
  5
2FD
330
2
100
AcDbEntity
  8
0
100
AcDbLine
 10
134.9434636025433
 20
28.77476330701836
 30
0.0
 11
108.9434636025433
 21
28.77476330701825
 31
0.0
  0
LINE
  5
2FE
330
2
100
AcDbEntity
  8
0
100
AcDbLine
 10
48.94346360254528
 20
105.2747633070196
 30
0.0
 11
194.9434636025453
 21
105.2747633070182
 31
0.0
  0
LINE
  5
2FF
330
2
100
AcDbEntity
  8
0
100
AcDbLine
 10
194.9434636025453
 20
95.27476330701825
 30
0.0
 11
194.9434636025453
 21
105.2747633070182
 31
0.0
  0
LINE
  5
300
330
2
100
AcDbEntity
  8
0
100
AcDbLine
 10
48.94346360254528
 20
95.27476330701825
 30
0.0
 11
48.94346360254528
 21
105.2747633070196
 31
0.0
  0
LINE
  5
301
330
2
100
AcDbEntity
  8
0
100
AcDbLine
 10
48.94346360254528
 20
95.27476330701825
 30
0.0
 11
194.9434636025453
 21
95.27476330701825
 31
0.0
  0
ENDSEC
  0
SECTION
  2
OBJECTS
  0
DICTIONARY
  5
B
330
0
100
AcDbDictionary
281
     1
  3
ACAD_COLOR
350
49
  3
ACAD_GROUP
350
36
  3
ACAD_LAYOUT
350
18
  3
ACAD_MATERIAL
350
D
  3
ACAD_MLEADERSTYLE
350
4C
  3
ACAD_MLINESTYLE
350
37
  3
ACAD_PLOTSETTINGS
350
38
  3
ACAD_PLOTSTYLENAME
350
A
  3
ACAD_SCALELIST
350
4A
  3
ACAD_TABLESTYLE
350
4B
  3
ACAD_VISUALSTYLE
350
2B
  3
ACDB_RECOMPOSE_DATA
350
30F
  3
AcDbVariableDictionary
350
305
  0
DICTIONARY
  5
2C
330
28
100
AcDbDictionary
280
     1
281
     1
  0
DICTIONARY
  5
1E
330
1D
100
AcDbDictionary
280
     1
281
     1
  3
ACAD_LAYERSTATES
360
1F
  0
DICTIONARY
  5
7
330
6
100
AcDbDictionary
280
     1
281
     1
  3
ADSK_XREC_LAYER_RECONCILED
360
8
  0
DICTIONARY
  5
23A
330
239
100
AcDbDictionary
280
     1
281
     1
  3
ADSK_XREC_LAYER_RECONCILED
360
23B
  0
DICTIONARY
  5
269
330
268
100
AcDbDictionary
280
     1
281
     1
  3
ADSK_XREC_LAYER_RECONCILED
360
26A
  0
DICTIONARY
  5
193
330
192
100
AcDbDictionary
280
     1
281
     1
  3
ADSK_XREC_LAYER_RECONCILED
360
194
  0
DICTIONARY
  5
198
330
197
100
AcDbDictionary
280
     1
281
     1
  3
ADSK_XREC_LAYER_RECONCILED
360
199
  0
DICTIONARY
  5
92
330
91
100
AcDbDictionary
280
     1
281
     1
  3
ADSK_XREC_LAYER_RECONCILED
360
93
  0
DICTIONARY
  5
264
330
263
100
AcDbDictionary
280
     1
281
     1
  3
ADSK_XREC_LAYER_RECONCILED
360
265
  0
DICTIONARY
  5
2A4
330
2A3
100
AcDbDictionary
280
     1
281
     1
  3
ADSK_XREC_LAYER_RECONCILED
360
2A5
  0
DICTIONARY
  5
28E
330
28D
100
AcDbDictionary
280
     1
281
     1
  3
ADSK_XREC_LAYER_RECONCILED
360
28F
  0
DICTIONARY
  5
A7
330
A6
100
AcDbDictionary
280
     1
281
     1
  0
DICTIONARY
  5
3
330
2
100
AcDbDictionary
280
     1
281
     1
  3
ACAD_SORTENTS
360
304
  0
DICTIONARY
  5
25F
330
25E
100
AcDbDictionary
280
     1
281
     1
  3
ACAD_SORTENTS
360
302
  0
DICTIONARY
  5
A2
330
A1
100
AcDbDictionary
280
     1
281
     1
  3
ACAD_SORTENTS
360
303
  0
DICTIONARY
  5
49
102
{ACAD_REACTORS
330
B
102
}
330
B
100
AcDbDictionary
281
     1
  0
DICTIONARY
  5
36
102
{ACAD_REACTORS
330
B
102
}
330
B
100
AcDbDictionary
281
     1
  0
DICTIONARY
  5
18
102
{ACAD_REACTORS
330
B
102
}
330
B
100
AcDbDictionary
281
     1
  3
Layout1
350
1C
  3
Model
350
17
  0
DICTIONARY
  5
D
102
{ACAD_REACTORS
330
B
102
}
330
B
100
AcDbDictionary
281
     1
  3
ByBlock
350
41
  3
ByLayer
350
39
  3
Global
350
C
  0
DICTIONARY
  5
4C
102
{ACAD_REACTORS
330
B
102
}
330
B
100
AcDbDictionary
281
     1
  0
DICTIONARY
  5
37
102
{ACAD_REACTORS
330
B
102
}
330
B
100
AcDbDictionary
281
     1
  3
Standard
350
4E
  0
DICTIONARY
  5
38
102
{ACAD_REACTORS
330
B
102
}
330
B
100
AcDbDictionary
281
     1
  0
ACDBDICTIONARYWDFLT
  5
A
102
{ACAD_REACTORS
330
B
102
}
330
B
100
AcDbDictionary
281
     1
  3
Normal
350
9
100
AcDbDictionaryWithDefault
340
9
  0
DICTIONARY
  5
4A
102
{ACAD_REACTORS
330
B
102
}
330
B
100
AcDbDictionary
281
     1
  3
A0
350
53
  3
A1
350
54
  3
A2
350
55
  3
A3
350
56
  3
A4
350
57
  3
A5
350
58
  3
A6
350
59
  3
A7
350
5A
  3
A8
350
5B
  3
A9
350
5C
  3
B0
350
5D
  3
B1
350
5E
  3
B2
350
5F
  3
B3
350
60
  3
B4
350
61
  3
B5
350
62
  3
B6
350
63
  3
B7
350
64
  3
B8
350
65
  3
B9
350
66
  3
C0
350
67
  3
C1
350
68
  3
C2
350
69
  3
C3
350
6A
  3
C4
350
6B
  3
C5
350
6C
  3
C6
350
6D
  3
C7
350
6E
  3
C8
350
6F
  3
C9
350
70
  3
D0
350
71
  3
D1
350
72
  3
D2
350
73
  0
DICTIONARY
  5
4B
102
{ACAD_REACTORS
330
B
102
}
330
B
100
AcDbDictionary
281
     1
  3
Standard
350
4F
  0
DICTIONARY
  5
2B
102
{ACAD_REACTORS
330
B
102
}
330
B
100
AcDbDictionary
281
     1
  3
2dWireframe
350
2A
  3
3dWireframe
350
52
  3
Realistic
350
51
  0
XRECORD
  5
30F
102
{ACAD_REACTORS
330
B
102
}
330
B
100
AcDbXrecord
280
     1
 90
        1
330
4F
  0
DICTIONARY
  5
305
102
{ACAD_REACTORS
330
B
102
}
330
B
100
AcDbDictionary
281
     1
  3
CANNOSCALE
350
309
  3
CMLEADERSTYLE
350
307
  3
CTABLESTYLE
350
306
  3
LAYEREVAL
350
30B
  3
LAYERNOTIFY
350
30C
  3
LIGHTINGUNITS
350
30A
  3
MSLTSCALE
350
308
  0
DICTIONARY
  5
1F
102
{ACAD_REACTORS
330
1E
102
}
330
1E
100
AcDbDictionary
281
     1
  0
XRECORD
  5
8
102
{ACAD_REACTORS
330
7
102
}
330
7
100
AcDbXrecord
280
     1
290
     1
  0
XRECORD
  5
23B
102
{ACAD_REACTORS
330
23A
102
}
330
23A
100
AcDbXrecord
280
     1
290
     1
  0
XRECORD
  5
26A
102
{ACAD_REACTORS
330
269
102
}
330
269
100
AcDbXrecord
280
     1
290
     1
  0
XRECORD
  5
194
102
{ACAD_REACTORS
330
193
102
}
330
193
100
AcDbXrecord
280
     1
290
     1
  0
XRECORD
  5
199
102
{ACAD_REACTORS
330
198
102
}
330
198
100
AcDbXrecord
280
     1
290
     1
  0
XRECORD
  5
93
102
{ACAD_REACTORS
330
92
102
}
330
92
100
AcDbXrecord
280
     1
290
     1
  0
XRECORD
  5
265
102
{ACAD_REACTORS
330
264
102
}
330
264
100
AcDbXrecord
280
     1
290
     1
  0
XRECORD
  5
2A5
102
{ACAD_REACTORS
330
2A4
102
}
330
2A4
100
AcDbXrecord
280
     1
290
     1
  0
XRECORD
  5
28F
102
{ACAD_REACTORS
330
28E
102
}
330
28E
100
AcDbXrecord
280
     1
290
     1
  0
SORTENTSTABLE
  5
304
102
{ACAD_REACTORS
330
3
102
}
330
3
100
AcDbSortentsTable
330
2
331
1A6
  5
24D
331
21C
  5
1F8
331
1A2
  5
251
331
19E
  5
255
331
218
  5
1FC
331
257
  5
19C
331
253
  5
1A0
331
214
  5
200
331
210
  5
204
331
300
  5
83
331
11D
  5
2F6
331
24F
  5
1A4
331
196
  5
259
331
20C
  5
208
331
24B
  5
1A8
331
208
  5
20C
331
247
  5
1AC
331
204
  5
210
331
243
  5
1D4
331
200
  5
214
331
2FC
  5
C9
331
2F8
  5
103
331
2F4
  5
137
331
2F0
  5
16B
331
144
  5
2F3
331
23F
  5
1E4
331
1FC
  5
218
331
182
  5
2E7
331
1F8
  5
21C
331
237
  5
1E9
331
17E
  5
2EB
331
17A
  5
2EF
331
1F4
  5
22C
331
233
  5
1ED
331
1F0
  5
230
331
2EC
  5
17D
331
2E8
  5
181
331
83
  5
300
331
BA
  5
2FD
331
22F
  5
1F1
331
1EC
  5
234
331
22B
  5
1F5
331
1AD
  5
246
331
1E8
  5
238
331
1A9
  5
24A
331
1E4
  5
23F
331
25A
  5
195
331
1A5
  5
24E
331
21B
  5
1F9
331
1A1
  5
252
331
19D
  5
256
331
217
  5
1FD
331
256
  5
19D
331
252
  5
1A1
331
213
  5
201
331
110
  5
2F7
331
20F
  5
205
331
24E
  5
1A5
331
195
  5
25A
331
1D4
  5
243
331
20B
  5
209
331
24A
  5
1A9
331
191
  5
25B
331
207
  5
20D
331
246
  5
1AD
331
242
  5
1E1
331
203
  5
211
331
2FF
  5
90
331
2FB
  5
D8
331
2F7
  5
110
331
2F3
  5
144
331
C9
  5
2FC
331
23E
  5
1E5
331
1FF
  5
215
331
1FB
  5
219
331
181
  5
2E8
331
17D
  5
2EC
331
1F7
  5
21D
331
236
  5
1EA
331
1F3
  5
22D
331
232
  5
1EE
331
2EF
  5
17A
331
2EB
  5
17E
331
2E7
  5
182
331
137
  5
2F4
331
22E
  5
1F2
331
1EF
  5
231
331
1EB
  5
235
331
22A
  5
1F6
331
1AC
  5
247
331
1E7
  5
23C
331
1A8
  5
24B
331
1E3
  5
240
331
25D
  5
183
331
259
  5
196
331
1A4
  5
24F
331
21A
  5
1FA
331
1A0
  5
253
331
19C
  5
257
331
216
  5
1FE
331
255
  5
19E
331
251
  5
1A2
331
212
  5
202
331
74
  5
301
331
15E
  5
2F1
331
D8
  5
2FB
331
20E
  5
206
331
24D
  5
1A6
331
249
  5
1AA
331
206
  5
20E
331
245
  5
1BA
331
241
  5
1E2
331
202
  5
212
331
2FE
  5
A0
331
2FA
  5
E7
331
2F6
  5
11D
331
2F2
  5
151
331
103
  5
2F8
331
1C7
  5
244
331
1FE
  5
216
331
23D
  5
1E6
331
184
  5
25C
331
1FA
  5
21A
331
180
  5
2E9
331
17C
  5
2ED
331
1F6
  5
22A
331
235
  5
1EB
331
231
  5
1EF
331
1F2
  5
22E
331
2EE
  5
17B
331
2EA
  5
17F
331
22D
  5
1F3
331
1EE
  5
232
331
1EA
  5
236
331
1AB
  5
248
331
1E6
  5
23D
331
1E2
  5
241
331
25C
  5
184
331
258
  5
19B
331
12A
  5
2F5
331
1A7
  5
24C
331
21D
  5
1F7
331
1A3
  5
250
331
19F
  5
254
331
219
  5
1FB
331
19B
  5
258
331
215
  5
1FF
331
254
  5
19F
331
250
  5
1A3
331
211
  5
203
331
301
  5
74
331
E7
  5
2FA
331
A0
  5
2FE
331
151
  5
2F2
331
20D
  5
207
331
24C
  5
1A7
331
209
  5
20B
331
248
  5
1AB
331
205
  5
20F
331
244
  5
1C7
331
240
  5
1E3
331
201
  5
213
331
2FD
  5
BA
331
2F9
  5
F6
331
2F5
  5
12A
331
2F1
  5
15E
331
90
  5
2FF
331
1FD
  5
217
331
23C
  5
1E7
331
183
  5
25D
331
1F9
  5
21B
331
238
  5
1E8
331
17F
  5
2EA
331
17B
  5
2EE
331
1BA
  5
245
331
1F5
  5
22B
331
234
  5
1EC
331
230
  5
1F0
331
1F1
  5
22F
331
2ED
  5
17C
331
2E9
  5
180
331
F6
  5
2F9
331
1ED
  5
233
331
22C
  5
1F4
331
1E9
  5
237
331
16B
  5
2F0
331
1AA
  5
249
331
1E5
  5
23E
331
1E1
  5
242
331
25B
  5
191
  0
SORTENTSTABLE
  5
302
102
{ACAD_REACTORS
330
25F
102
}
330
25F
100
AcDbSortentsTable
330
25E
  0
SORTENTSTABLE
  5
303
102
{ACAD_REACTORS
330
A2
102
}
330
A2
100
AcDbSortentsTable
330
A1
  0
LAYOUT
  5
1C
102
{ACAD_REACTORS
330
18
102
}
330
18
100
AcDbPlotSettings
  1

  2
HP LaserJet 4 Plus
  4

  6

 40
0.0
 41
0.0
 42
0.0
 43
0.0
 44
0.0
 45
0.0
 46
0.0
 47
0.0
 48
0.0
 49
0.0
140
0.0
141
0.0
142
1.0
143
1.0
 70
   688
 72
     0
 73
     0
 74
     5
  7
CNC-Soft.ctb
 75
    16
147
1.0
 76
     0
 77
     2
 78
   300
148
0.0
149
0.0
100
AcDbLayout
  1
Layout1
 70
     0
 71
     1
 10
0.0
 20
0.0
 11
12.0
 21
9.0
 12
0.0
 22
0.0
 32
0.0
 14
1.000000000000000E+20
 24
1.000000000000000E+20
 34
1.000000000000000E+20
 15
-1.000000000000000E+20
 25
-1.000000000000000E+20
 35
-1.000000000000000E+20
146
0.0
 13
0.0
 23
0.0
 33
0.0
 16
1.0
 26
0.0
 36
0.0
 17
0.0
 27
1.0
 37
0.0
 76
     0
330
19
  0
LAYOUT
  5
17
102
{ACAD_REACTORS
330
18
102
}
330
18
100
AcDbPlotSettings
  1

  2
HP LaserJet 4 Plus
  4
A4
  6

 40
6.805083274841308
 41
5.069413185119628
 42
6.805084228515625
 43
5.027069091796875
 44
209.9733276367187
 45
296.9683227539062
 46
0.0
 47
0.0
 48
0.0
 49
0.0
140
0.0
141
0.0
142
1.0
143
2.139155179671431
 70
 11952
 72
     1
 73
     0
 74
     1
  7
CNC-Soft.ctb
 75
     0
147
0.4674742671794373
 76
     0
 77
     2
 78
   300
148
0.0256335921286564
149
0.0362532231533805
100
AcDbLayout
  1
Model
 70
     1
 71
     0
 10
0.0
 20
0.0
 11
12.0
 21
9.0
 12
0.0
 22
0.0
 32
0.0
 14
0.0
 24
0.0
 34
0.0
 15
0.0
 25
0.0
 35
0.0
146
0.0
 13
0.0
 23
0.0
 33
0.0
 16
1.0
 26
0.0
 36
0.0
 17
0.0
 27
1.0
 37
0.0
 76
     0
330
2
331
29
  0
MATERIAL
  5
41
102
{ACAD_XDICTIONARY
360
42
102
}
102
{ACAD_REACTORS
330
D
102
}
330
D
100
AcDbMaterial
  1
ByBlock
 72
     0
 43
0.0208333333333333
 43
0.0
 43
0.0
 43
0.0
 43
0.0
 43
0.0208333333333333
 43
0.0
 43
0.0
 43
0.0
 43
0.0
 43
1.0
 43
0.0
 43
0.0
 43
0.0
 43
0.0
 43
1.0
 77
     0
 47
0.0208333333333333
 47
0.0
 47
0.0
 47
0.0
 47
0.0
 47
0.0208333333333333
 47
0.0
 47
0.0
 47
0.0
 47
0.0
 47
1.0
 47
0.0
 47
0.0
 47
0.0
 47
0.0
 47
1.0
171
     0
 49
0.0208333333333333
 49
0.0
 49
0.0
 49
0.0
 49
0.0
 49
0.0208333333333333
 49
0.0
 49
0.0
 49
0.0
 49
0.0
 49
1.0
 49
0.0
 49
0.0
 49
0.0
 49
0.0
 49
1.0
175
     0
142
0.0208333333333333
142
0.0
142
0.0
142
0.0
142
0.0
142
0.0208333333333333
142
0.0
142
0.0
142
0.0
142
0.0
142
1.0
142
0.0
142
0.0
142
0.0
142
0.0
142
1.0
179
     0
144
0.0208333333333333
144
0.0
144
0.0
144
0.0
144
0.0
144
0.0208333333333333
144
0.0
144
0.0
144
0.0
144
0.0
144
1.0
144
0.0
144
0.0
144
0.0
144
0.0
144
1.0
147
0.0208333333333333
147
0.0
147
0.0
147
0.0
147
0.0
147
0.0208333333333333
147
0.0
147
0.0
147
0.0
147
0.0
147
1.0
147
0.0
147
0.0
147
0.0
147
0.0
147
1.0
  0
MATERIAL
  5
39
102
{ACAD_XDICTIONARY
360
3A
102
}
102
{ACAD_REACTORS
330
D
102
}
330
D
100
AcDbMaterial
  1
ByLayer
 72
     0
 43
0.0208333333333333
 43
0.0
 43
0.0
 43
0.0
 43
0.0
 43
0.0208333333333333
 43
0.0
 43
0.0
 43
0.0
 43
0.0
 43
1.0
 43
0.0
 43
0.0
 43
0.0
 43
0.0
 43
1.0
 77
     0
 47
0.0208333333333333
 47
0.0
 47
0.0
 47
0.0
 47
0.0
 47
0.0208333333333333
 47
0.0
 47
0.0
 47
0.0
 47
0.0
 47
1.0
 47
0.0
 47
0.0
 47
0.0
 47
0.0
 47
1.0
171
     0
 49
0.0208333333333333
 49
0.0
 49
0.0
 49
0.0
 49
0.0
 49
0.0208333333333333
 49
0.0
 49
0.0
 49
0.0
 49
0.0
 49
1.0
 49
0.0
 49
0.0
 49
0.0
 49
0.0
 49
1.0
175
     0
142
0.0208333333333333
142
0.0
142
0.0
142
0.0
142
0.0
142
0.0208333333333333
142
0.0
142
0.0
142
0.0
142
0.0
142
1.0
142
0.0
142
0.0
142
0.0
142
0.0
142
1.0
179
     0
144
0.0208333333333333
144
0.0
144
0.0
144
0.0
144
0.0
144
0.0208333333333333
144
0.0
144
0.0
144
0.0
144
0.0
144
1.0
144
0.0
144
0.0
144
0.0
144
0.0
144
1.0
147
0.0208333333333333
147
0.0
147
0.0
147
0.0
147
0.0
147
0.0208333333333333
147
0.0
147
0.0
147
0.0
147
0.0
147
1.0
147
0.0
147
0.0
147
0.0
147
0.0
147
1.0
  0
MATERIAL
  5
C
102
{ACAD_XDICTIONARY
360
E
102
}
102
{ACAD_REACTORS
330
D
102
}
330
D
100
AcDbMaterial
  1
Global
 72
     0
 43
0.0208333333333333
 43
0.0
 43
0.0
 43
0.0
 43
0.0
 43
0.0208333333333333
 43
0.0
 43
0.0
 43
0.0
 43
0.0
 43
1.0
 43
0.0
 43
0.0
 43
0.0
 43
0.0
 43
1.0
 77
     0
 47
0.0208333333333333
 47
0.0
 47
0.0
 47
0.0
 47
0.0
 47
0.0208333333333333
 47
0.0
 47
0.0
 47
0.0
 47
0.0
 47
1.0
 47
0.0
 47
0.0
 47
0.0
 47
0.0
 47
1.0
171
     0
 49
0.0208333333333333
 49
0.0
 49
0.0
 49
0.0
 49
0.0
 49
0.0208333333333333
 49
0.0
 49
0.0
 49
0.0
 49
0.0
 49
1.0
 49
0.0
 49
0.0
 49
0.0
 49
0.0
 49
1.0
175
     0
142
0.0208333333333333
142
0.0
142
0.0
142
0.0
142
0.0
142
0.0208333333333333
142
0.0
142
0.0
142
0.0
142
0.0
142
1.0
142
0.0
142
0.0
142
0.0
142
0.0
142
1.0
179
     0
144
0.0208333333333333
144
0.0
144
0.0
144
0.0
144
0.0
144
0.0208333333333333
144
0.0
144
0.0
144
0.0
144
0.0
144
1.0
144
0.0
144
0.0
144
0.0
144
0.0
144
1.0
147
0.0208333333333333
147
0.0
147
0.0
147
0.0
147
0.0
147
0.0208333333333333
147
0.0
147
0.0
147
0.0
147
0.0
147
1.0
147
0.0
147
0.0
147
0.0
147
0.0
147
1.0
  0
MLINESTYLE
  5
4E
102
{ACAD_REACTORS
330
37
102
}
330
37
100
AcDbMlineStyle
  2
STANDARD
 70
     0
  3

 62
   256
 51
90.0
 52
90.0
 71
     2
 49
0.5
 62
   256
  6
BYLAYER
 49
-0.5
 62
   256
  6
BYLAYER
  0
ACDBPLACEHOLDER
  5
9
102
{ACAD_REACTORS
330
A
102
}
330
A
  0
SCALE
  5
53
102
{ACAD_REACTORS
330
4A
102
}
330
4A
100
AcDbScale
 70
     0
300
1:1
140
1.0
141
1.0
290
     1
  0
SCALE
  5
54
102
{ACAD_REACTORS
330
4A
102
}
330
4A
100
AcDbScale
 70
     0
300
1:2
140
1.0
141
2.0
290
     0
  0
SCALE
  5
55
102
{ACAD_REACTORS
330
4A
102
}
330
4A
100
AcDbScale
 70
     0
300
1:4
140
1.0
141
4.0
290
     0
  0
SCALE
  5
56
102
{ACAD_REACTORS
330
4A
102
}
330
4A
100
AcDbScale
 70
     0
300
1:5
140
1.0
141
5.0
290
     0
  0
SCALE
  5
57
102
{ACAD_REACTORS
330
4A
102
}
330
4A
100
AcDbScale
 70
     0
300
1:8
140
1.0
141
8.0
290
     0
  0
SCALE
  5
58
102
{ACAD_REACTORS
330
4A
102
}
330
4A
100
AcDbScale
 70
     0
300
1:10
140
1.0
141
10.0
290
     0
  0
SCALE
  5
59
102
{ACAD_REACTORS
330
4A
102
}
330
4A
100
AcDbScale
 70
     0
300
1:16
140
1.0
141
16.0
290
     0
  0
SCALE
  5
5A
102
{ACAD_REACTORS
330
4A
102
}
330
4A
100
AcDbScale
 70
     0
300
1:20
140
1.0
141
20.0
290
     0
  0
SCALE
  5
5B
102
{ACAD_REACTORS
330
4A
102
}
330
4A
100
AcDbScale
 70
     0
300
1:30
140
1.0
141
30.0
290
     0
  0
SCALE
  5
5C
102
{ACAD_REACTORS
330
4A
102
}
330
4A
100
AcDbScale
 70
     0
300
1:40
140
1.0
141
40.0
290
     0
  0
SCALE
  5
5D
102
{ACAD_REACTORS
330
4A
102
}
330
4A
100
AcDbScale
 70
     0
300
1:50
140
1.0
141
50.0
290
     0
  0
SCALE
  5
5E
102
{ACAD_REACTORS
330
4A
102
}
330
4A
100
AcDbScale
 70
     0
300
1:100
140
1.0
141
100.0
290
     0
  0
SCALE
  5
5F
102
{ACAD_REACTORS
330
4A
102
}
330
4A
100
AcDbScale
 70
     0
300
2:1
140
2.0
141
1.0
290
     0
  0
SCALE
  5
60
102
{ACAD_REACTORS
330
4A
102
}
330
4A
100
AcDbScale
 70
     0
300
4:1
140
4.0
141
1.0
290
     0
  0
SCALE
  5
61
102
{ACAD_REACTORS
330
4A
102
}
330
4A
100
AcDbScale
 70
     0
300
8:1
140
8.0
141
1.0
290
     0
  0
SCALE
  5
62
102
{ACAD_REACTORS
330
4A
102
}
330
4A
100
AcDbScale
 70
     0
300
10:1
140
10.0
141
1.0
290
     0
  0
SCALE
  5
63
102
{ACAD_REACTORS
330
4A
102
}
330
4A
100
AcDbScale
 70
     0
300
100:1
140
100.0
141
1.0
290
     0
  0
SCALE
  5
64
102
{ACAD_REACTORS
330
4A
102
}
330
4A
100
AcDbScale
 70
     0
300
1/128" = 1'-0"
140
0.0078125
141
12.0
290
     0
  0
SCALE
  5
65
102
{ACAD_REACTORS
330
4A
102
}
330
4A
100
AcDbScale
 70
     0
300
1/64" = 1'-0"
140
0.015625
141
12.0
290
     0
  0
SCALE
  5
66
102
{ACAD_REACTORS
330
4A
102
}
330
4A
100
AcDbScale
 70
     0
300
1/32" = 1'-0"
140
0.03125
141
12.0
290
     0
  0
SCALE
  5
67
102
{ACAD_REACTORS
330
4A
102
}
330
4A
100
AcDbScale
 70
     0
300
1/16" = 1'-0"
140
0.0625
141
12.0
290
     0
  0
SCALE
  5
68
102
{ACAD_REACTORS
330
4A
102
}
330
4A
100
AcDbScale
 70
     0
300
3/32" = 1'-0"
140
0.09375
141
12.0
290
     0
  0
SCALE
  5
69
102
{ACAD_REACTORS
330
4A
102
}
330
4A
100
AcDbScale
 70
     0
300
1/8" = 1'-0"
140
0.125
141
12.0
290
     0
  0
SCALE
  5
6A
102
{ACAD_REACTORS
330
4A
102
}
330
4A
100
AcDbScale
 70
     0
300
3/16" = 1'-0"
140
0.1875
141
12.0
290
     0
  0
SCALE
  5
6B
102
{ACAD_REACTORS
330
4A
102
}
330
4A
100
AcDbScale
 70
     0
300
1/4" = 1'-0"
140
0.25
141
12.0
290
     0
  0
SCALE
  5
6C
102
{ACAD_REACTORS
330
4A
102
}
330
4A
100
AcDbScale
 70
     0
300
3/8" = 1'-0"
140
0.375
141
12.0
290
     0
  0
SCALE
  5
6D
102
{ACAD_REACTORS
330
4A
102
}
330
4A
100
AcDbScale
 70
     0
300
1/2" = 1'-0"
140
0.5
141
12.0
290
     0
  0
SCALE
  5
6E
102
{ACAD_REACTORS
330
4A
102
}
330
4A
100
AcDbScale
 70
     0
300
3/4" = 1'-0"
140
0.75
141
12.0
290
     0
  0
SCALE
  5
6F
102
{ACAD_REACTORS
330
4A
102
}
330
4A
100
AcDbScale
 70
     0
300
1" = 1'-0"
140
1.0
141
12.0
290
     0
  0
SCALE
  5
70
102
{ACAD_REACTORS
330
4A
102
}
330
4A
100
AcDbScale
 70
     0
300
1-1/2" = 1'-0"
140
1.5
141
12.0
290
     0
  0
SCALE
  5
71
102
{ACAD_REACTORS
330
4A
102
}
330
4A
100
AcDbScale
 70
     0
300
3" = 1'-0"
140
3.0
141
12.0
290
     0
  0
SCALE
  5
72
102
{ACAD_REACTORS
330
4A
102
}
330
4A
100
AcDbScale
 70
     0
300
6" = 1'-0"
140
6.0
141
12.0
290
     0
  0
SCALE
  5
73
102
{ACAD_REACTORS
330
4A
102
}
330
4A
100
AcDbScale
 70
     0
300
1'-0" = 1'-0"
140
12.0
141
12.0
290
     0
  0
TABLESTYLE
  5
4F
102
{ACAD_XDICTIONARY
360
50
102
}
102
{ACAD_REACTORS
330
4B
102
}
330
4B
100
AcDbTableStyle
280
     0
  3
Standard
 70
     0
 71
     0
 40
0.06
 41
0.06
280
     0
281
     0
  7
STANDARD
140
0.18
170
     2
 62
     0
 63
     7
283
     0
 90
      512
 91
        0
  1

274
    -2
284
     1
 64
     0
275
    -2
285
     1
 65
     0
276
    -2
286
     1
 66
     0
277
    -2
287
     1
 67
     0
278
    -2
288
     1
 68
     0
279
    -2
289
     1
 69
     0
  7
STANDARD
140
0.25
170
     5
 62
     0
 63
     7
283
     0
 90
      512
 91
        0
  1

274
    -2
284
     1
 64
     0
275
    -2
285
     1
 65
     0
276
    -2
286
     1
 66
     0
277
    -2
287
     1
 67
     0
278
    -2
288
     1
 68
     0
279
    -2
289
     1
 69
     0
  7
STANDARD
140
0.18
170
     5
 62
     0
 63
     7
283
     0
 90
      512
 91
        0
  1

274
    -2
284
     1
 64
     0
275
    -2
285
     1
 65
     0
276
    -2
286
     1
 66
     0
277
    -2
287
     1
 67
     0
278
    -2
288
     1
 68
     0
279
    -2
289
     1
 69
     0
  0
VISUALSTYLE
  5
2A
102
{ACAD_REACTORS
330
2B
102
}
330
2B
100
AcDbVisualStyle
  2
2dWireframe
 70
     4
177
     2
291
     0
 71
     0
176
     1
 72
     2
176
     1
 73
     0
176
     1
 90
        0
176
     1
 40
0.6
176
     1
 41
30.0
176
     1
 63
     7
176
     1
 74
     1
176
     1
 91
        4
176
     1
 64
     7
176
     1
 65
   257
176
     1
 75
     1
176
     1
175
     1
176
     1
 42
1.0
176
     1
 92
        0
176
     1
 66
   257
176
     1
 43
1.0
176
     1
 76
     1
176
     1
 77
     6
176
     1
 78
     2
176
     1
 67
     7
176
     1
 79
     5
176
     1
170
     0
176
     1
171
     0
176
     1
290
     0
176
     1
 93
        1
176
     1
 44
0.0
176
     1
173
     0
176
     1
  0
VISUALSTYLE
  5
52
102
{ACAD_REACTORS
330
2B
102
}
330
2B
100
AcDbVisualStyle
  2
3dWireframe
 70
     5
177
     2
291
     0
 71
     0
176
     1
 72
     2
176
     1
 73
     0
176
     1
 90
        0
176
     1
 40
0.6
176
     1
 41
30.0
176
     1
 63
     7
176
     1
 74
     1
176
     1
 91
        4
176
     1
 64
     7
176
     1
 65
   257
176
     1
 75
     1
176
     1
175
     1
176
     1
 42
1.0
176
     1
 92
        0
176
     1
 66
   257
176
     1
 43
1.0
176
     1
 76
     1
176
     1
 77
     6
176
     1
 78
     2
176
     1
 67
     7
176
     1
 79
     5
176
     1
170
     0
176
     1
171
     0
176
     1
290
     0
176
     1
 93
        1
176
     1
 44
0.0
176
     1
173
     0
176
     1
  0
VISUALSTYLE
  5
51
102
{ACAD_REACTORS
330
2B
102
}
330
2B
100
AcDbVisualStyle
  2
Realistic
 70
     8
177
     2
291
     0
 71
     2
176
     1
 72
     2
176
     1
 73
     0
176
     1
 90
        0
176
     1
 40
0.6
176
     1
 41
30.0
176
     1
 63
     7
176
     1
 74
     1
176
     1
 91
        0
176
     1
 64
     7
176
     1
 65
   257
176
     1
 75
     1
176
     1
175
     1
176
     1
 42
1.0
176
     1
 92
        8
176
     1
 66
     8
176
     1
 43
1.0
176
     1
 76
     1
176
     1
 77
     6
176
     1
 78
     2
176
     1
 67
     7
176
     1
 79
     5
176
     1
170
     0
176
     1
171
     0
176
     1
290
     0
176
     1
 93
       13
176
     1
 44
0.0
176
     1
173
     0
176
     1
  0
DICTIONARYVAR
  5
309
102
{ACAD_REACTORS
330
305
102
}
330
305
100
DictionaryVariables
280
     0
  1
1:1
  0
DICTIONARYVAR
  5
307
102
{ACAD_REACTORS
330
305
102
}
330
305
100
DictionaryVariables
280
     0
  1
STANDARD
  0
DICTIONARYVAR
  5
306
102
{ACAD_REACTORS
330
305
102
}
330
305
100
DictionaryVariables
280
     0
  1
STANDARD
  0
DICTIONARYVAR
  5
30B
102
{ACAD_REACTORS
330
305
102
}
330
305
100
DictionaryVariables
280
     0
  1
1
  0
DICTIONARYVAR
  5
30C
102
{ACAD_REACTORS
330
305
102
}
330
305
100
DictionaryVariables
280
     0
  1
15
  0
DICTIONARYVAR
  5
30A
102
{ACAD_REACTORS
330
305
102
}
330
305
100
DictionaryVariables
280
     0
  1
0
  0
DICTIONARYVAR
  5
308
102
{ACAD_REACTORS
330
305
102
}
330
305
100
DictionaryVariables
280
     0
  1
0
  0
DICTIONARY
  5
42
330
41
100
AcDbDictionary
280
     1
281
     1
  3
BUMPTILE
360
43
  3
DIFFUSETILE
360
44
  3
OPACITYTILE
360
45
  3
REFLECTIONTILE
360
46
  3
REFRACTIONTILE
360
47
  3
SPECULARTILE
360
48
  0
DICTIONARY
  5
3A
330
39
100
AcDbDictionary
280
     1
281
     1
  3
BUMPTILE
360
3B
  3
DIFFUSETILE
360
3C
  3
OPACITYTILE
360
3D
  3
REFLECTIONTILE
360
3E
  3
REFRACTIONTILE
360
3F
  3
SPECULARTILE
360
40
  0
DICTIONARY
  5
E
330
C
100
AcDbDictionary
280
     1
281
     1
  3
BUMPTILE
360
F
  3
DIFFUSETILE
360
10
  3
OPACITYTILE
360
11
  3
REFLECTIONTILE
360
12
  3
REFRACTIONTILE
360
13
  3
SPECULARTILE
360
14
  0
DICTIONARY
  5
50
330
4F
100
AcDbDictionary
280
     1
281
     1
  3
ACAD_ROUNDTRIP_2008_TABLESTYLE_CELLSTYLEMAP
360
30D
  0
XRECORD
  5
43
102
{ACAD_REACTORS
330
42
102
}
330
42
100
AcDbXrecord
280
     1
270
     1
271
     1
  0
XRECORD
  5
44
102
{ACAD_REACTORS
330
42
102
}
330
42
100
AcDbXrecord
280
     1
270
     1
271
     1
  0
XRECORD
  5
45
102
{ACAD_REACTORS
330
42
102
}
330
42
100
AcDbXrecord
280
     1
270
     1
271
     1
  0
XRECORD
  5
46
102
{ACAD_REACTORS
330
42
102
}
330
42
100
AcDbXrecord
280
     1
270
     1
271
     1
  0
XRECORD
  5
47
102
{ACAD_REACTORS
330
42
102
}
330
42
100
AcDbXrecord
280
     1
270
     1
271
     1
  0
XRECORD
  5
48
102
{ACAD_REACTORS
330
42
102
}
330
42
100
AcDbXrecord
280
     1
270
     1
271
     1
  0
XRECORD
  5
3B
102
{ACAD_REACTORS
330
3A
102
}
330
3A
100
AcDbXrecord
280
     1
270
     1
271
     1
  0
XRECORD
  5
3C
102
{ACAD_REACTORS
330
3A
102
}
330
3A
100
AcDbXrecord
280
     1
270
     1
271
     1
  0
XRECORD
  5
3D
102
{ACAD_REACTORS
330
3A
102
}
330
3A
100
AcDbXrecord
280
     1
270
     1
271
     1
  0
XRECORD
  5
3E
102
{ACAD_REACTORS
330
3A
102
}
330
3A
100
AcDbXrecord
280
     1
270
     1
271
     1
  0
XRECORD
  5
3F
102
{ACAD_REACTORS
330
3A
102
}
330
3A
100
AcDbXrecord
280
     1
270
     1
271
     1
  0
XRECORD
  5
40
102
{ACAD_REACTORS
330
3A
102
}
330
3A
100
AcDbXrecord
280
     1
270
     1
271
     1
  0
XRECORD
  5
F
102
{ACAD_REACTORS
330
E
102
}
330
E
100
AcDbXrecord
280
     1
270
     1
271
     1
  0
XRECORD
  5
10
102
{ACAD_REACTORS
330
E
102
}
330
E
100
AcDbXrecord
280
     1
270
     1
271
     1
  0
XRECORD
  5
11
102
{ACAD_REACTORS
330
E
102
}
330
E
100
AcDbXrecord
280
     1
270
     1
271
     1
  0
XRECORD
  5
12
102
{ACAD_REACTORS
330
E
102
}
330
E
100
AcDbXrecord
280
     1
270
     1
271
     1
  0
XRECORD
  5
13
102
{ACAD_REACTORS
330
E
102
}
330
E
100
AcDbXrecord
280
     1
270
     1
271
     1
  0
XRECORD
  5
14
102
{ACAD_REACTORS
330
E
102
}
330
E
100
AcDbXrecord
280
     1
270
     1
271
     1
  0
CELLSTYLEMAP
  5
30D
102
{ACAD_REACTORS
330
50
102
}
330
50
100
AcDbCellStyleMap
 90
        3
300
CELLSTYLE
  1
TABLEFORMAT_BEGIN
 90
        5
170
     1
 91
        0
 92
    32768
 62
   257
 93
        1
300
CONTENTFORMAT
  1
CONTENTFORMAT_BEGIN
 90
        0
 91
        0
 92
      512
 93
        0
300

 40
0.0
140
1.0
 94
        5
 62
     0
340
21
144
0.25
309
CONTENTFORMAT_END
171
     0
 94
        0
309
TABLEFORMAT_END
  1
CELLSTYLE_BEGIN
 90
        1
 91
        1
300
_TITLE
309
CELLSTYLE_END
300
CELLSTYLE
  1
TABLEFORMAT_BEGIN
 90
        5
170
     1
 91
        0
 92
        0
 62
   257
 93
        1
300
CONTENTFORMAT
  1
CONTENTFORMAT_BEGIN
 90
        0
 91
        0
 92
      512
 93
        0
300

 40
0.0
140
1.0
 94
        5
 62
     0
340
21
144
0.18
309
CONTENTFORMAT_END
171
     0
 94
        0
309
TABLEFORMAT_END
  1
CELLSTYLE_BEGIN
 90
        2
 91
        1
300
_HEADER
309
CELLSTYLE_END
300
CELLSTYLE
  1
TABLEFORMAT_BEGIN
 90
        5
170
     1
 91
        0
 92
        0
 62
   257
 93
        1
300
CONTENTFORMAT
  1
CONTENTFORMAT_BEGIN
 90
        0
 91
        0
 92
      512
 93
        0
300

 40
0.0
140
1.0
 94
        2
 62
     0
340
21
144
0.18
309
CONTENTFORMAT_END
171
     0
 94
        0
309
TABLEFORMAT_END
  1
CELLSTYLE_BEGIN
 90
        3
 91
        2
300
_DATA
309
CELLSTYLE_END
  0
ENDSEC
  0
EOF
