  0
SECTION
  2
HEADER
  9
$ACADVER
  1
AC1024
  9
$ACADMAINTVER
 70
     6
  9
$DWGCODEPAGE
  3
ANSI_1252
  9
$INSBASE
 10
0.0
 20
0.0
 30
0.0
  9
$EXTMIN
 10
0.0
 20
0.0
 30
0.0
  9
$EXTMAX
 10
839.9999999999163
 20
593.9999999999408
 30
0.0
  9
$LIMMIN
 10
0.0
 20
0.0
  9
$LIMMAX
 10
839.9999999999163
 20
593.9999999999408
  9
$ORTHOMODE
 70
     1
  9
$REGENMODE
 70
     1
  9
$FILLMODE
 70
     1
  9
$QTEXTMODE
 70
     0
  9
$MIRRTEXT
 70
     0
  9
$LTSCALE
 40
15.0
  9
$ATTMODE
 70
     1
  9
$TEXTSIZE
 40
20.0
  9
$TRACEWID
 40
1.0
  9
$TEXTSTYLE
  7
STANDARD
  9
$CLAYER
  8
09-01
  9
$CELTYPE
  6
ByLayer
  9
$CECOLOR
 62
   256
  9
$CELTSCALE
 40
1.0
  9
$DISPSILH
 70
     0
  9
$DIMSCALE
 40
2.5
  9
$DIMASZ
 40
2.5
  9
$DIMEXO
 40
1.0
  9
$DIMDLI
 40
10.0
  9
$DIMRND
 40
0.0
  9
$DIMDLE
 40
0.0
  9
$DIMEXE
 40
1.0
  9
$DIMTP
 40
0.0
  9
$DIMTM
 40
0.0
  9
$DIMTXT
 40
2.5
  9
$DIMCEN
 40
0.0
  9
$DIMTSZ
 40
0.0
  9
$DIMTOL
 70
     0
  9
$DIMLIM
 70
     0
  9
$DIMTIH
 70
     0
  9
$DIMTOH
 70
     0
  9
$DIMSE1
 70
     0
  9
$DIMSE2
 70
     0
  9
$DIMTAD
 70
     1
  9
$DIMZIN
 70
     8
  9
$DIMBLK
  1

  9
$DIMASO
 70
     1
  9
$DIMSHO
 70
     0
  9
$DIMPOST
  1

  9
$DIMAPOST
  1

  9
$DIMALT
 70
     0
  9
$DIMALTD
 70
     3
  9
$DIMALTF
 40
0.03937007874016
  9
$DIMLFAC
 40
1.0
  9
$DIMTOFL
 70
     1
  9
$DIMTVP
 40
0.0
  9
$DIMTIX
 70
     0
  9
$DIMSOXD
 70
     0
  9
$DIMSAH
 70
     0
  9
$DIMBLK1
  1

  9
$DIMBLK2
  1

  9
$DIMSTYLE
  2
Wagner
  9
$DIMCLRD
 70
     4
  9
$DIMCLRE
 70
     4
  9
$DIMCLRT
 70
     1
  9
$DIMTFAC
 40
1.0
  9
$DIMGAP
 40
1.0
  9
$DIMJUST
 70
     0
  9
$DIMSD1
 70
     0
  9
$DIMSD2
 70
     0
  9
$DIMTOLJ
 70
     0
  9
$DIMTZIN
 70
     8
  9
$DIMALTZ
 70
     0
  9
$DIMALTTZ
 70
     0
  9
$DIMUPT
 70
     0
  9
$DIMDEC
 70
     8
  9
$DIMTDEC
 70
     8
  9
$DIMALTU
 70
     2
  9
$DIMALTTD
 70
     3
  9
$DIMTXSTY
  7
STANDARD
  9
$DIMAUNIT
 70
     0
  9
$DIMADEC
 70
     2
  9
$DIMALTRND
 40
0.0
  9
$DIMAZIN
 70
     2
  9
$DIMDSEP
 70
    46
  9
$DIMATFIT
 70
     3
  9
$DIMFRAC
 70
     0
  9
$DIMLDRBLK
  1

  9
$DIMLUNIT
 70
     2
  9
$DIMLWD
 70
    -2
  9
$DIMLWE
 70
    -2
  9
$DIMTMOVE
 70
     0
  9
$DIMFXL
 40
1.0
  9
$DIMFXLON
 70
     0
  9
$DIMJOGANG
 40
0.7853981633974483
  9
$DIMTFILL
 70
     0
  9
$DIMTFILLCLR
 70
     0
  9
$DIMARCSYM
 70
     0
  9
$DIMLTYPE
  6

  9
$DIMLTEX1
  6

  9
$DIMLTEX2
  6

  9
$DIMTXTDIRECTION
 70
     0
  9
$LUNITS
 70
     2
  9
$LUPREC
 70
     1
  9
$SKETCHINC
 40
1.0
  9
$FILLETRAD
 40
0.0
  9
$AUNITS
 70
     0
  9
$AUPREC
 70
     2
  9
$MENU
  1
cncmenue
  9
$ELEVATION
 40
0.0
  9
$PELEVATION
 40
0.0
  9
$THICKNESS
 40
0.0
  9
$LIMCHECK
 70
     0
  9
$CHAMFERA
 40
0.0
  9
$CHAMFERB
 40
0.0
  9
$CHAMFERC
 40
0.0
  9
$CHAMFERD
 40
0.0
  9
$SKPOLY
 70
     0
  9
$TDCREATE
 40
2451284.494370255
  9
$TDUCREATE
 40
2451284.411036921
  9
$TDUPDATE
 40
2456126.436298565
  9
$TDUUPDATE
 40
2456126.352965231
  9
$TDINDWG
 40
0.0765929167
  9
$TDUSRTIMER
 40
0.0765929167
  9
$USRTIMER
 70
     1
  9
$ANGBASE
 50
0.0
  9
$ANGDIR
 70
     0
  9
$PDMODE
 70
     0
  9
$PDSIZE
 40
0.0
  9
$PLINEWID
 40
0.0
  9
$SPLFRAME
 70
     0
  9
$SPLINETYPE
 70
     6
  9
$SPLINESEGS
 70
     8
  9
$HANDSEED
  5
3B8
  9
$SURFTAB1
 70
    24
  9
$SURFTAB2
 70
    24
  9
$SURFTYPE
 70
     6
  9
$SURFU
 70
     6
  9
$SURFV
 70
     6
  9
$UCSBASE
  2

  9
$UCSNAME
  2

  9
$UCSORG
 10
0.0
 20
0.0
 30
0.0
  9
$UCSXDIR
 10
1.0
 20
0.0
 30
0.0
  9
$UCSYDIR
 10
0.0
 20
1.0
 30
0.0
  9
$UCSORTHOREF
  2

  9
$UCSORTHOVIEW
 70
     0
  9
$UCSORGTOP
 10
0.0
 20
0.0
 30
0.0
  9
$UCSORGBOTTOM
 10
0.0
 20
0.0
 30
0.0
  9
$UCSORGLEFT
 10
0.0
 20
0.0
 30
0.0
  9
$UCSORGRIGHT
 10
0.0
 20
0.0
 30
0.0
  9
$UCSORGFRONT
 10
0.0
 20
0.0
 30
0.0
  9
$UCSORGBACK
 10
0.0
 20
0.0
 30
0.0
  9
$PUCSBASE
  2

  9
$PUCSNAME
  2

  9
$PUCSORG
 10
0.0
 20
0.0
 30
0.0
  9
$PUCSXDIR
 10
1.0
 20
0.0
 30
0.0
  9
$PUCSYDIR
 10
0.0
 20
1.0
 30
0.0
  9
$PUCSORTHOREF
  2

  9
$PUCSORTHOVIEW
 70
     0
  9
$PUCSORGTOP
 10
0.0
 20
0.0
 30
0.0
  9
$PUCSORGBOTTOM
 10
0.0
 20
0.0
 30
0.0
  9
$PUCSORGLEFT
 10
0.0
 20
0.0
 30
0.0
  9
$PUCSORGRIGHT
 10
0.0
 20
0.0
 30
0.0
  9
$PUCSORGFRONT
 10
0.0
 20
0.0
 30
0.0
  9
$PUCSORGBACK
 10
0.0
 20
0.0
 30
0.0
  9
$USERI1
 70
     0
  9
$USERI2
 70
     0
  9
$USERI3
 70
     0
  9
$USERI4
 70
     0
  9
$USERI5
 70
     0
  9
$USERR1
 40
0.0
  9
$USERR2
 40
0.0
  9
$USERR3
 40
0.0
  9
$USERR4
 40
0.0
  9
$USERR5
 40
0.0
  9
$WORLDVIEW
 70
     1
  9
$SHADEDGE
 70
     3
  9
$SHADEDIF
 70
    70
  9
$TILEMODE
 70
     1
  9
$MAXACTVP
 70
    16
  9
$PINSBASE
 10
0.0
 20
0.0
 30
0.0
  9
$PLIMCHECK
 70
     0
  9
$PEXTMIN
 10
1.000000000000000E+20
 20
1.000000000000000E+20
 30
1.000000000000000E+20
  9
$PEXTMAX
 10
-1.000000000000000E+20
 20
-1.000000000000000E+20
 30
-1.000000000000000E+20
  9
$PLIMMIN
 10
0.0
 20
0.0
  9
$PLIMMAX
 10
12.0
 20
9.0
  9
$UNITMODE
 70
     0
  9
$VISRETAIN
 70
     0
  9
$PLINEGEN
 70
     0
  9
$PSLTSCALE
 70
     0
  9
$TREEDEPTH
 70
  3020
  9
$CMLSTYLE
  2
Standard
  9
$CMLJUST
 70
     0
  9
$CMLSCALE
 40
1.0
  9
$PROXYGRAPHICS
 70
     1
  9
$MEASUREMENT
 70
     0
  9
$CELWEIGHT
370
    -1
  9
$ENDCAPS
280
     0
  9
$JOINSTYLE
280
     0
  9
$LWDISPLAY
290
     0
  9
$INSUNITS
 70
     0
  9
$HYPERLINKBASE
  1

  9
$STYLESHEET
  1

  9
$XEDIT
290
     1
  9
$CEPSNTYPE
380
     0
  9
$PSTYLEMODE
290
     1
  9
$FINGERPRINTGUID
  2
{E1700534-F760-4AF0-90A9-9E1BC9AA1D37}
  9
$VERSIONGUID
  2
{CCC51D32-58F2-4180-B597-CF15F219BF70}
  9
$EXTNAMES
290
     1
  9
$PSVPSCALE
 40
0.0
  9
$OLESTARTUP
290
     0
  9
$SORTENTS
280
   127
  9
$INDEXCTL
280
     0
  9
$HIDETEXT
280
     1
  9
$XCLIPFRAME
280
     0
  9
$HALOGAP
280
     0
  9
$OBSCOLOR
 70
   257
  9
$OBSLTYPE
280
     0
  9
$INTERSECTIONDISPLAY
280
     0
  9
$INTERSECTIONCOLOR
 70
   257
  9
$DIMASSOC
280
     1
  9
$PROJECTNAME
  1

  9
$CAMERADISPLAY
290
     0
  9
$LENSLENGTH
 40
50.0
  9
$CAMERAHEIGHT
 40
0.0
  9
$STEPSPERSEC
 40
2.0
  9
$STEPSIZE
 40
6.0
  9
$3DDWFPREC
 40
2.0
  9
$PSOLWIDTH
 40
0.25
  9
$PSOLHEIGHT
 40
4.0
  9
$LOFTANG1
 40
1.570796326794896
  9
$LOFTANG2
 40
1.570796326794896
  9
$LOFTMAG1
 40
0.0
  9
$LOFTMAG2
 40
0.0
  9
$LOFTPARAM
 70
     7
  9
$LOFTNORMALS
280
     1
  9
$LATITUDE
 40
37.795
  9
$LONGITUDE
 40
-122.394
  9
$NORTHDIRECTION
 40
0.0
  9
$TIMEZONE
 70
 -8000
  9
$LIGHTGLYPHDISPLAY
280
     1
  9
$TILEMODELIGHTSYNCH
280
     1
  9
$CMATERIAL
347
39
  9
$SOLIDHIST
280
     1
  9
$SHOWHIST
280
     1
  9
$DWFFRAME
280
     2
  9
$DGNFRAME
280
     0
  9
$REALWORLDSCALE
290
     1
  9
$INTERFERECOLOR
 62
     1
  9
$INTERFEREOBJVS
345
53
  9
$INTERFEREVPVS
346
54
  9
$CSHADOW
280
     0
  9
$SHADOWPLANELOCATION
 40
0.0
  0
ENDSEC
  0
SECTION
  2
CLASSES
  0
CLASS
  1
ACDBDICTIONARYWDFLT
  2
AcDbDictionaryWithDefault
  3
ObjectDBX Classes
 90
        0
 91
        1
280
     0
281
     0
  0
CLASS
  1
MATERIAL
  2
AcDbMaterial
  3
ObjectDBX Classes
 90
     1153
 91
        3
280
     0
281
     0
  0
CLASS
  1
VISUALSTYLE
  2
AcDbVisualStyle
  3
ObjectDBX Classes
 90
     4095
 91
        3
280
     0
281
     0
  0
CLASS
  1
TABLESTYLE
  2
AcDbTableStyle
  3
ObjectDBX Classes
 90
     4095
 91
        1
280
     0
281
     0
  0
CLASS
  1
SCALE
  2
AcDbScale
  3
ObjectDBX Classes
 90
     1153
 91
       33
280
     0
281
     0
  0
CLASS
  1
MLEADERSTYLE
  2
AcDbMLeaderStyle
  3
ACDB_MLEADERSTYLE_CLASS
 90
     4095
 91
        0
280
     0
281
     0
  0
CLASS
  1
CELLSTYLEMAP
  2
AcDbCellStyleMap
  3
ObjectDBX Classes
 90
     1152
 91
        1
280
     0
281
     0
  0
CLASS
  1
DICTIONARYVAR
  2
AcDbDictionaryVar
  3
ObjectDBX Classes
 90
        0
 91
        7
280
     0
281
     0
  0
CLASS
  1
SORTENTSTABLE
  2
AcDbSortentsTable
  3
ObjectDBX Classes
 90
        0
 91
        6
280
     0
281
     0
  0
CLASS
  1
SOLID_BACKGROUND
  2
AcDbSolidBackground
  3
SCENEOE
 90
     4095
 91
        0
280
     0
281
     0
  0
CLASS
  1
NPOCOLLECTION
  2
AcDbImpNonPersistentObjectsCollection
  3
ObjectDBX Classes
 90
     1153
 91
        0
280
     0
281
     0
  0
ENDSEC
  0
SECTION
  2
TABLES
  0
TABLE
  2
VPORT
  5
29
102
{ACAD_XDICTIONARY
360
2D
102
}
330
0
100
AcDbSymbolTable
 70
     1
  0
VPORT
  5
2A
330
29
100
AcDbSymbolTableRecord
100
AcDbViewportTableRecord
  2
*Active
 70
     0
 10
0.0
 20
0.0
 11
1.0
 21
1.0
 12
155.5876869649407
 22
386.9153639854192
 13
0.0
 23
0.0
 14
10.0
 24
10.0
 15
100.0
 25
100.0
 16
0.0
 26
0.0
 36
1.0
 17
0.0
 27
0.0
 37
0.0
 40
988.7417157139298
 41
1.937738246505718
 42
50.0
 43
0.0
 44
0.0
 50
0.0
 51
0.0
 71
     0
 72
  1000
 73
     1
 74
     0
 75
     0
 76
     0
 77
     0
 78
     0
281
     0
 65
     1
110
0.0
120
0.0
130
0.0
111
1.0
121
0.0
131
0.0
112
0.0
122
1.0
132
0.0
 79
     0
146
0.0
348
2B
 60
     3
 61
     5
292
     1
282
     1
141
0.0
142
0.0
 63
   250
421
  3355443
  0
ENDTAB
  0
TABLE
  2
LTYPE
  5
24
330
0
100
AcDbSymbolTable
 70
     4
  0
LTYPE
  5
25
330
24
100
AcDbSymbolTableRecord
100
AcDbLinetypeTableRecord
  2
ByBlock
 70
     0
  3

 72
    65
 73
     0
 40
0.0
  0
LTYPE
  5
26
330
24
100
AcDbSymbolTableRecord
100
AcDbLinetypeTableRecord
  2
ByLayer
 70
     0
  3

 72
    65
 73
     0
 40
0.0
  0
LTYPE
  5
15
330
24
100
AcDbSymbolTableRecord
100
AcDbLinetypeTableRecord
  2
CONTINUOUS
 70
     0
  3
Ausgezogene Linie
 72
    65
 73
     0
 40
0.0
  0
LTYPE
  5
16B
330
24
100
AcDbSymbolTableRecord
100
AcDbLinetypeTableRecord
  2
AUSGEZOGEN
 70
     0
  3
Ausgezogene Linie
 72
    65
 73
     0
 40
0.0
  0
LTYPE
  5
7A
330
24
100
AcDbSymbolTableRecord
100
AcDbLinetypeTableRecord
  2
STRICHPUNKT
 70
     0
  3
__ . __ . __ . __ . __ . __ . __ . __ . __ . __
 72
    65
 73
     4
 40
1.0
 49
0.5
 74
     0
 49
-0.25
 74
     0
 49
0.0
 74
     0
 49
-0.25
 74
     0
  0
LTYPE
  5
B3
330
24
100
AcDbSymbolTableRecord
100
AcDbLinetypeTableRecord
  2
VERDECKT
 70
     0
  3
__ __ __ __ __ __ __ __ __ __ __ __ __ __ __ __
 72
    65
 73
     2
 40
0.375
 49
0.25
 74
     0
 49
-0.125
 74
     0
  0
ENDTAB
  0
TABLE
  2
LAYER
  5
1D
102
{ACAD_XDICTIONARY
360
1E
102
}
330
0
100
AcDbSymbolTable
 70
    11
  0
LAYER
  5
6
102
{ACAD_XDICTIONARY
360
7
102
}
330
1D
100
AcDbSymbolTableRecord
100
AcDbLayerTableRecord
  2
0
 70
     0
 62
     7
  6
CONTINUOUS
370
    -3
390
9
347
C
  0
LAYER
  5
344
102
{ACAD_XDICTIONARY
360
345
102
}
330
1D
100
AcDbSymbolTableRecord
100
AcDbLayerTableRecord
  2
01-01
 70
     0
 62
     2
  6
CONTINUOUS
370
    -3
390
9
347
C
  0
LAYER
  5
12B
102
{ACAD_XDICTIONARY
360
12C
102
}
330
1D
100
AcDbSymbolTableRecord
100
AcDbLayerTableRecord
  2
01-99
 70
     0
 62
     2
  6
CONTINUOUS
370
    -3
390
9
347
C
  0
LAYER
  5
77
102
{ACAD_XDICTIONARY
360
78
102
}
330
1D
100
AcDbSymbolTableRecord
100
AcDbLayerTableRecord
  2
05-01
 70
     0
 62
     1
  6
STRICHPUNKT
370
    -3
390
9
347
C
  0
LAYER
  5
7E
102
{ACAD_XDICTIONARY
360
7F
102
}
330
1D
100
AcDbSymbolTableRecord
100
AcDbLayerTableRecord
  2
02-01
 70
     0
 62
     1
  6
CONTINUOUS
370
    -3
390
9
347
C
  0
LAYER
  5
B0
102
{ACAD_XDICTIONARY
360
B1
102
}
330
1D
100
AcDbSymbolTableRecord
100
AcDbLayerTableRecord
  2
03-01
 70
     0
 62
     3
  6
VERDECKT
370
    -3
390
9
347
C
  0
LAYER
  5
4D
102
{ACAD_XDICTIONARY
360
4E
102
}
330
1D
100
AcDbSymbolTableRecord
100
AcDbLayerTableRecord
  2
09-01
 70
     0
 62
     7
  6
CONTINUOUS
370
    -3
390
9
347
C
  0
LAYER
  5
8E
330
1D
100
AcDbSymbolTableRecord
100
AcDbLayerTableRecord
  2
DEFPOINTS
 70
     0
 62
     7
  6
CONTINUOUS
290
     0
370
    -3
390
9
347
C
  0
LAYER
  5
168
102
{ACAD_XDICTIONARY
360
169
102
}
330
1D
100
AcDbSymbolTableRecord
100
AcDbLayerTableRecord
  2
06-99
 70
     0
 62
     1
  6
AUSGEZOGEN
370
    -3
390
9
347
C
  0
LAYER
  5
152
102
{ACAD_XDICTIONARY
360
153
102
}
330
1D
100
AcDbSymbolTableRecord
100
AcDbLayerTableRecord
  2
08-99
 70
     0
 62
     7
  6
CONTINUOUS
370
    -3
390
9
347
C
  0
LAYER
  5
BC
102
{ACAD_XDICTIONARY
360
BD
102
}
330
1D
100
AcDbSymbolTableRecord
100
AcDbLayerTableRecord
  2
02TNR-01
 70
     0
 62
     1
  6
CONTINUOUS
370
    -3
390
9
347
C
  0
ENDTAB
  0
TABLE
  2
STYLE
  5
20
330
0
100
AcDbSymbolTable
 70
     3
  0
STYLE
  5
21
330
20
100
AcDbSymbolTableRecord
100
AcDbTextStyleTableRecord
  2
STANDARD
 70
     0
 40
0.0
 41
1.0
 50
0.0
 71
     0
 42
20.0
  3
arial.ttf
  4

1001
ACAD
1000
Arial
1071
       34
  0
STYLE
  5
155
330
20
100
AcDbSymbolTableRecord
100
AcDbTextStyleTableRecord
  2
ROMANS8
 70
     0
 40
0.0
 41
1.0
 50
0.0
 71
     0
 42
2.5
  3
ROMANS8
  4

  0
STYLE
  5
2AD
330
20
100
AcDbSymbolTableRecord
100
AcDbTextStyleTableRecord
  2
ROMAND8
 70
     0
 40
0.0
 41
1.0
 50
0.0
 71
     0
 42
3.5
  3
ROMAND8
  4

  0
ENDTAB
  0
TABLE
  2
VIEW
  5
27
330
0
100
AcDbSymbolTable
 70
     0
  0
ENDTAB
  0
TABLE
  2
UCS
  5
28
330
0
100
AcDbSymbolTable
 70
     0
  0
ENDTAB
  0
TABLE
  2
APPID
  5
2E
330
0
100
AcDbSymbolTable
 70
     4
  0
APPID
  5
22
330
2E
100
AcDbSymbolTableRecord
100
AcDbRegAppTableRecord
  2
ACAD
 70
     0
  0
APPID
  5
31
330
2E
100
AcDbSymbolTableRecord
100
AcDbRegAppTableRecord
  2
ACAD_DSTYLE_DIMJOGGED_JOGANGLE_SYMBOL
 70
     0
  0
APPID
  5
32
330
2E
100
AcDbSymbolTableRecord
100
AcDbRegAppTableRecord
  2
ACAD_DSTYLE_DIMJAG
 70
     0
  0
APPID
  5
33
330
2E
100
AcDbSymbolTableRecord
100
AcDbRegAppTableRecord
  2
ACAD_DSTYLE_DIMTALN
 70
     0
  0
ENDTAB
  0
TABLE
  2
DIMSTYLE
  5
2F
330
0
100
AcDbSymbolTable
 70
     3
100
AcDbDimStyleTable
 71
     2
340
30
340
34
  0
DIMSTYLE
105
34
330
2F
100
AcDbSymbolTableRecord
100
AcDbDimStyleTableRecord
  2
Standard
 70
     0
340
21
  0
DIMSTYLE
105
30
330
2F
100
AcDbSymbolTableRecord
100
AcDbDimStyleTableRecord
  2
Wagner
 70
     0
 41
2.5
 42
1.0
 43
10.0
 44
1.0
 73
     0
 74
     0
 77
     1
 78
     8
 79
     2
140
2.5
141
0.0
143
0.03937007874016
147
1.0
171
     3
172
     1
176
     4
177
     4
178
     1
179
     2
271
     8
272
     8
274
     3
283
     0
284
     8
340
21
1001
ACAD_DSTYLE_DIMJOGGED_JOGANGLE_SYMBOL
1070
   384
1040
0.7853981633974483
1001
ACAD_DSTYLE_DIMJAG
1070
   388
1040
1.5
1001
ACAD_DSTYLE_DIMTALN
1070
   392
1070
     0
  0
DIMSTYLE
105
92
102
{ACAD_REACTORS
330
336
330
31D
330
310
330
2FD
330
2F0
330
2E3
330
FA
330
EB
330
DC
330
CF
330
384
330
377
330
36A
330
343
330
A0
330
93
330
84
102
}
330
2F
100
AcDbSymbolTableRecord
100
AcDbDimStyleTableRecord
  2
Wagner$0
 70
     0
 41
2.5
 42
1.0
 43
10.0
 44
1.0
 73
     0
 74
     0
 77
     1
 78
     8
 79
     2
140
2.5
141
0.0
143
0.03937007874016
147
1.0
171
     3
172
     1
174
     1
176
     4
177
     4
178
     1
179
     2
271
     8
272
     8
274
     3
279
     2
283
     0
284
     8
340
21
1001
ACAD_DSTYLE_DIMJOGGED_JOGANGLE_SYMBOL
1070
   384
1040
0.7853981633974483
1001
ACAD_DSTYLE_DIMJAG
1070
   388
1040
1.5
1001
ACAD_DSTYLE_DIMTALN
1070
   392
1070
     0
  0
ENDTAB
  0
TABLE
  2
BLOCK_RECORD
  5
1
330
0
100
AcDbSymbolTable
 70
    19
  0
BLOCK_RECORD
  5
2
102
{ACAD_XDICTIONARY
360
3
102
}
330
1
100
AcDbSymbolTableRecord
100
AcDbBlockTableRecord
  2
*Model_Space
340
17
 70
     0
280
     1
281
     0
  0
BLOCK_RECORD
  5
19
330
1
100
AcDbSymbolTableRecord
100
AcDbBlockTableRecord
  2
*Paper_Space
340
1C
 70
     0
280
     1
281
     0
  0
BLOCK_RECORD
  5
126
102
{ACAD_XDICTIONARY
360
127
102
}
330
1
100
AcDbSymbolTableRecord
100
AcDbBlockTableRecord
  2
DIN A3
340
0
102
{BLKREFS
331
125
102
}
 70
     4
280
     1
281
     0
  0
BLOCK_RECORD
  5
B7
102
{ACAD_XDICTIONARY
360
B8
102
}
330
1
100
AcDbSymbolTableRecord
100
AcDbBlockTableRecord
  2
aaaaWagner
340
0
102
{BLKREFS
331
B6
102
}
 70
     4
280
     1
281
     0
  0
BLOCK_RECORD
  5
337
330
1
100
AcDbSymbolTableRecord
100
AcDbBlockTableRecord
  2
*D2
340
0
 70
     0
280
     1
281
     0
  0
BLOCK_RECORD
  5
31E
330
1
100
AcDbSymbolTableRecord
100
AcDbBlockTableRecord
  2
*D3
340
0
 70
     0
280
     1
281
     0
  0
BLOCK_RECORD
  5
311
330
1
100
AcDbSymbolTableRecord
100
AcDbBlockTableRecord
  2
*D4
340
0
 70
     0
280
     1
281
     0
  0
BLOCK_RECORD
  5
2FE
330
1
100
AcDbSymbolTableRecord
100
AcDbBlockTableRecord
  2
*D5
340
0
 70
     0
280
     1
281
     0
  0
BLOCK_RECORD
  5
2F1
330
1
100
AcDbSymbolTableRecord
100
AcDbBlockTableRecord
  2
*D6
340
0
 70
     0
280
     1
281
     0
  0
BLOCK_RECORD
  5
2E4
330
1
100
AcDbSymbolTableRecord
100
AcDbBlockTableRecord
  2
*D7
340
0
 70
     0
280
     1
281
     0
  0
BLOCK_RECORD
  5
FB
330
1
100
AcDbSymbolTableRecord
100
AcDbBlockTableRecord
  2
*D8
340
0
 70
     0
280
     1
281
     0
  0
BLOCK_RECORD
  5
EC
330
1
100
AcDbSymbolTableRecord
100
AcDbBlockTableRecord
  2
*D9
340
0
 70
     0
280
     1
281
     0
  0
BLOCK_RECORD
  5
DD
330
1
100
AcDbSymbolTableRecord
100
AcDbBlockTableRecord
  2
*D10
340
0
 70
     0
280
     1
281
     0
  0
BLOCK_RECORD
  5
D0
330
1
100
AcDbSymbolTableRecord
100
AcDbBlockTableRecord
  2
*D11
340
0
 70
     0
280
     1
281
     0
  0
BLOCK_RECORD
  5
385
330
1
100
AcDbSymbolTableRecord
100
AcDbBlockTableRecord
  2
*D12
340
0
 70
     0
280
     1
281
     0
  0
BLOCK_RECORD
  5
378
330
1
100
AcDbSymbolTableRecord
100
AcDbBlockTableRecord
  2
*D13
340
0
 70
     0
280
     1
281
     0
  0
BLOCK_RECORD
  5
36B
330
1
100
AcDbSymbolTableRecord
100
AcDbBlockTableRecord
  2
*D14
340
0
 70
     0
280
     1
281
     0
  0
BLOCK_RECORD
  5
347
330
1
100
AcDbSymbolTableRecord
100
AcDbBlockTableRecord
  2
*D15
340
0
 70
     0
280
     1
281
     0
  0
BLOCK_RECORD
  5
A1
330
1
100
AcDbSymbolTableRecord
100
AcDbBlockTableRecord
  2
*D16
340
0
 70
     0
280
     1
281
     0
  0
BLOCK_RECORD
  5
94
330
1
100
AcDbSymbolTableRecord
100
AcDbBlockTableRecord
  2
*D17
340
0
 70
     0
280
     1
281
     0
  0
BLOCK_RECORD
  5
85
330
1
100
AcDbSymbolTableRecord
100
AcDbBlockTableRecord
  2
*D18
340
0
 70
     0
280
     1
281
     0
  0
ENDTAB
  0
ENDSEC
  0
SECTION
  2
BLOCKS
  0
BLOCK
  5
5
330
2
100
AcDbEntity
  8
0
100
AcDbBlockBegin
  2
*Model_Space
 70
     0
 10
0.0
 20
0.0
 30
0.0
  3
*Model_Space
  1

  0
ENDBLK
  5
16
330
2
100
AcDbEntity
  8
0
100
AcDbBlockEnd
  0
BLOCK
  5
1A
330
19
100
AcDbEntity
 67
     1
  8
0
100
AcDbBlockBegin
  2
*Paper_Space
 70
     0
 10
0.0
 20
0.0
 30
0.0
  3
*Paper_Space
  1

  0
ENDBLK
  5
1B
330
19
100
AcDbEntity
 67
     1
  8
0
100
AcDbBlockEnd
  0
BLOCK
  5
129
330
126
100
AcDbEntity
  8
0
100
AcDbBlockBegin
  2
DIN A3
 70
     2
 10
0.0
 20
0.0
 30
0.0
  3
DIN A3
  1

  0
LINE
  5
12A
330
126
100
AcDbEntity
  8
01-99
100
AcDbLine
 10
412.9999997697348
 20
290.0000007613509
 30
0.0
 11
6.999999769775513
 21
290.0000007613508
 31
0.0
  0
LINE
  5
12E
330
126
100
AcDbEntity
  8
01-99
100
AcDbLine
 10
6.999999769775286
 20
7.000000761378942
 30
0.0
 11
6.999999769775513
 21
290.0000007613508
 31
0.0
  0
LINE
  5
12F
330
126
100
AcDbEntity
  8
02-01
100
AcDbLine
 10
419.9999997697341
 20
297.0000007613501
 30
0.0
 11
-0.0000002302240318
 21
297.0000007613501
 31
0.0
  0
LINE
  5
130
330
126
100
AcDbEntity
  8
02-01
100
AcDbLine
 10
-0.0000002302240318
 20
297.0000007613501
 30
0.0
 11
-0.0000002302240318
 21
0.0000007613796242
 31
0.0
  0
LINE
  5
131
330
126
100
AcDbEntity
  8
02-01
100
AcDbLine
 10
-0.0000002302240318
 20
0.0000007613796242
 30
0.0
 11
419.9999997697341
 21
0.0000007613796242
 31
0.0
  0
LINE
  5
132
330
126
100
AcDbEntity
  8
02-01
100
AcDbLine
 10
419.9999997697341
 20
0.0000007613796242
 30
0.0
 11
419.9999997697341
 21
297.0000007613501
 31
0.0
  0
LINE
  5
133
330
126
100
AcDbEntity
  8
01-99
100
AcDbLine
 10
412.9999997697348
 20
290.0000007613509
 30
0.0
 11
412.9999997697348
 21
7.000000761379055
 31
0.0
  0
LINE
  5
134
330
126
100
AcDbEntity
  8
01-99
100
AcDbLine
 10
412.9999997697348
 20
7.000000761379055
 30
0.0
 11
6.999999769775286
 21
7.000000761378942
 31
0.0
  0
LINE
  5
135
330
126
100
AcDbEntity
  8
01-99
100
AcDbLine
 10
412.9999997697348
 20
53.00000076137905
 30
0.0
 11
228.999999769733
 21
53.00000076137894
 31
0.0
  0
LINE
  5
136
330
126
100
AcDbEntity
  8
01-99
100
AcDbLine
 10
228.999999769733
 20
53.00000076137894
 30
0.0
 11
228.999999769733
 21
7.000000761378942
 31
0.0
  0
LINE
  5
137
330
126
100
AcDbEntity
  8
01-99
100
AcDbLine
 10
278.9999997697348
 20
12.11111187237895
 30
0.0
 11
228.9999997697348
 21
12.11111187237895
 31
0.0
  0
LINE
  5
138
330
126
100
AcDbEntity
  8
01-99
100
AcDbLine
 10
278.9999997697348
 20
17.22222298337897
 30
0.0
 11
228.9999997697348
 21
17.22222298337897
 31
0.0
  0
LINE
  5
139
330
126
100
AcDbEntity
  8
01-99
100
AcDbLine
 10
278.9999997697348
 20
22.33333409437898
 30
0.0
 11
228.9999997697348
 21
22.33333409437893
 31
0.0
  0
LINE
  5
13A
330
126
100
AcDbEntity
  8
01-99
100
AcDbLine
 10
323.9999997697348
 20
27.444445205379
 30
0.0
 11
228.9999997697348
 21
27.44444520537894
 31
0.0
  0
LINE
  5
13B
330
126
100
AcDbEntity
  8
01-99
100
AcDbLine
 10
323.9999997697348
 20
32.55555631637901
 30
0.0
 11
228.9999997697348
 21
32.55555631637895
 31
0.0
  0
LINE
  5
13C
330
126
100
AcDbEntity
  8
01-99
100
AcDbLine
 10
253.9999997697348
 20
7.000000761378942
 30
0.0
 11
253.9999997697348
 21
12.11111187237895
 31
0.0
  0
LINE
  5
13D
330
126
100
AcDbEntity
  8
01-99
100
AcDbLine
 10
236.9999997697348
 20
12.11111187237895
 30
0.0
 11
236.9999997697348
 21
37.66666742804563
 31
0.0
  0
LINE
  5
13E
330
126
100
AcDbEntity
  8
01-99
100
AcDbLine
 10
278.9999997697348
 20
7.000000761378942
 30
0.0
 11
278.9999997697348
 21
53.00000076137894
 31
0.0
  0
LINE
  5
13F
330
126
100
AcDbEntity
  8
01-99
100
AcDbLine
 10
323.9999997697348
 20
7.000000761378942
 30
0.0
 11
323.9999997697348
 21
53.00000076137894
 31
0.0
  0
LINE
  5
140
330
126
100
AcDbEntity
  8
01-99
100
AcDbLine
 10
353.4999997697348
 20
7.000000761378942
 30
0.0
 11
353.4999997697348
 21
17.22222298337903
 31
0.0
  0
LINE
  5
141
330
126
100
AcDbEntity
  8
01-99
100
AcDbLine
 10
385.9999997697348
 20
7.000000761378942
 30
0.0
 11
385.9999997697348
 21
17.22222298337908
 31
0.0
  0
LINE
  5
142
330
126
100
AcDbEntity
  8
01-99
100
AcDbLine
 10
357.4999997697348
 20
37.66666742804569
 30
0.0
 11
357.4999997697348
 21
53.00000076137905
 31
0.0
  0
LINE
  5
143
330
126
100
AcDbEntity
  8
01-99
100
AcDbLine
 10
390.9999997697348
 20
37.66666742804569
 30
0.0
 11
390.9999997697348
 21
53.00000076137905
 31
0.0
  0
LINE
  5
144
330
126
100
AcDbEntity
  8
01-99
100
AcDbLine
 10
286.9999997697348
 20
22.33333409471232
 30
0.0
 11
286.9999997697348
 21
37.66666742804569
 31
0.0
  0
LINE
  5
145
330
126
100
AcDbEntity
  8
01-99
100
AcDbLine
 10
269.0031881091643
 20
12.11111187237895
 30
0.0
 11
269.0031881091643
 21
37.66666742804563
 31
0.0
  0
LINE
  5
146
330
126
100
AcDbEntity
  8
01-99
100
AcDbLine
 10
257.0031881091643
 20
12.11111187237895
 30
0.0
 11
257.0031881091643
 21
37.66666742804563
 31
0.0
  0
LINE
  5
147
330
126
100
AcDbEntity
  8
01-99
100
AcDbLine
 10
323.9999997697348
 20
22.33333409471232
 30
0.0
 11
278.9999997697348
 21
22.33333409471232
 31
0.0
  0
LINE
  5
148
330
126
100
AcDbEntity
  8
01-99
100
AcDbLine
 10
323.9999997697348
 20
37.66666742804569
 30
0.0
 11
228.9999997697348
 21
37.66666742804557
 31
0.0
  0
LINE
  5
149
330
126
100
AcDbEntity
  8
01-99
100
AcDbLine
 10
300.9999997697348
 20
22.33333409471232
 30
0.0
 11
300.9999997697348
 21
53.000000761379
 31
0.0
  0
LINE
  5
14A
330
126
100
AcDbEntity
  8
01-99
100
AcDbLine
 10
278.9999997697348
 20
37.66666742804563
 30
0.0
 11
286.9999997697348
 21
32.55555632804567
 31
0.0
  0
LINE
  5
14B
330
126
100
AcDbEntity
  8
01-99
100
AcDbLine
 10
278.9999997697348
 20
32.55555632804567
 30
0.0
 11
286.9999997697348
 21
37.66666742804569
 31
0.0
  0
LINE
  5
14C
330
126
100
AcDbEntity
  8
01-99
100
AcDbLine
 10
412.9999997697348
 20
45.33333409471231
 30
0.0
 11
323.9999997697349
 21
45.33333409471225
 31
0.0
  0
LINE
  5
14D
330
126
100
AcDbEntity
  8
01-99
100
AcDbLine
 10
323.9999997697348
 20
17.22222298337897
 30
0.0
 11
412.9999997697348
 21
17.22222298337908
 31
0.0
  0
LINE
  5
14E
330
126
100
AcDbEntity
  8
01-99
100
AcDbLine
 10
323.9999997697348
 20
37.66666742804569
 30
0.0
 11
412.9999997697348
 21
37.66666742804574
 31
0.0
  0
LINE
  5
14F
330
126
100
AcDbEntity
  8
01-99
100
AcDbLine
 10
300.9999997697348
 20
42.77777853937897
 30
0.0
 11
278.9999997697348
 21
42.77777853937897
 31
0.0
  0
LINE
  5
150
330
126
100
AcDbEntity
  8
01-99
100
AcDbLine
 10
300.9999997697348
 20
47.88888965037898
 30
0.0
 11
278.9999997697348
 21
47.88888965037893
 31
0.0
  0
TEXT
  5
151
330
126
100
AcDbEntity
  8
08-99
100
AcDbText
 10
325.4997009380411
 20
33.6698744692369
 30
0.0
 40
2.5
  1
Benennung/Teil:
 51
15.0
  7
ROMANS8
100
AcDbText
  0
TEXT
  5
156
330
126
100
AcDbEntity
  8
08-99
100
AcDbText
 10
387.5028272173022
 20
13.01760345560962
 30
0.0
 40
2.7
  1
Ident-Nr.
 51
15.0
  7
ROMANS8
100
AcDbText
  0
TEXT
  5
157
330
126
100
AcDbEntity
  8
08-99
100
AcDbText
 10
302.5000215029029
 20
34.05557772316138
 30
0.0
 40
2.5
  1
Name:
 51
15.0
  7
ROMANS8
100
AcDbText
  0
TEXT
  5
158
330
126
100
AcDbEntity
  8
08-99
100
AcDbText
 10
288.5077689122797
 20
34.04841872238342
 30
0.0
 40
2.5
  1
Datum:
 50
0.102528160689452
 41
0.8933771909280748
 51
15.0
  7
ROMANS8
 72
     5
 11
299.6749659193617
 21
34.0684019288434
 31
0.0
100
AcDbText
  0
TEXT
  5
159
330
126
100
AcDbEntity
  8
08-99
100
AcDbText
 10
238.5000078514702
 20
34.05597786035884
 30
0.0
 40
1.6
  1
Änderung:
 51
15.0
  7
ROMANS8
100
AcDbText
  0
TEXT
  5
15A
330
126
100
AcDbEntity
  8
08-99
100
AcDbText
 10
255.4999378454877
 20
10.11112006054139
 30
0.0
 40
1.0
  1
ERSETZT.DURCH:
 51
15.0
  7
ROMANS8
100
AcDbText
  0
TEXT
  5
15B
330
126
100
AcDbEntity
  8
08-99
100
AcDbText
 10
230.4993605854065
 20
10.11085496431519
 30
0.0
 40
1.0
  1
ERSETZT.FÜR:
 51
15.0
  7
ROMANS8
100
AcDbText
  0
TEXT
  5
15C
330
126
100
AcDbEntity
  8
08-99
100
AcDbText
 10
354.990906611889
 20
13.61295762544273
 30
0.0
 40
2.112
  1
AUFTRAGS.NR.:
 51
15.0
  7
ROMANS8
100
AcDbText
  0
TEXT
  5
15D
330
126
100
AcDbEntity
  8
08-99
100
AcDbText
 10
325.5034639747472
 20
13.61092941740929
 30
0.0
 40
2.112
  1
Sonder-Nr:
 51
15.0
  7
ROMANS8
100
AcDbText
  0
TEXT
  5
15E
330
126
100
AcDbEntity
  8
08-99
100
AcDbText
 10
308.6963072648131
 20
50.92370926842125
 30
0.0
 40
1.349999999999999
  1
Format
 51
15.0
  7
ROMANS8
100
AcDbText
  0
TEXT
  5
15F
330
126
100
AcDbEntity
  8
08-99
100
AcDbText
 10
307.3043795165026
 20
45.64161955447966
 30
0.0
 40
1.822499999999999
  1
Normen
 51
15.0
  7
ROMANS8
100
AcDbText
  0
TEXT
  5
160
330
126
100
AcDbEntity
  8
08-99
100
AcDbText
 10
230.5000293736364
 20
34.05556859693707
 30
0.0
 40
1.6
  1
Zust.
 51
15.0
  7
ROMANS8
100
AcDbText
  0
TEXT
  5
161
330
126
100
AcDbEntity
  8
08-99
100
AcDbText
 10
258.503180470904
 20
34.0555600128755
 30
0.0
 40
1.6
  1
Datum:
 51
15.0
  7
ROMANS8
100
AcDbText
  0
TEXT
  5
162
330
126
100
AcDbEntity
  8
08-99
100
AcDbText
 10
270.5032133866668
 20
34.05556481932439
 30
0.0
 40
1.6
  1
Name:
 51
15.0
  7
ROMANS8
100
AcDbText
  0
TEXT
  5
163
330
126
100
AcDbEntity
  8
08-99
100
AcDbText
 10
280.154554215326
 20
29.0381403293278
 30
0.0
 40
1.6
  1
Erst.
 51
15.0
  7
ROMANS8
100
AcDbText
  0
TEXT
  5
164
330
126
100
AcDbEntity
  8
08-99
100
AcDbText
 10
279.5171801320455
 20
24.19745182079998
 30
0.0
 40
1.6
  1
Bearb.
 51
15.0
  7
ROMANS8
100
AcDbText
  0
TEXT
  5
165
330
126
100
AcDbEntity
  8
08-99
100
AcDbText
 10
358.4308046815029
 20
42.61949825408587
 30
0.0
 40
2.0
  1
Zuschnittsbreite:
 51
15.0
  7
ROMANS8
100
AcDbText
  0
TEXT
  5
166
330
126
100
AcDbEntity
  8
08-99
100
AcDbText
 10
324.984994543767
 20
42.73762438949257
 30
0.0
 40
2.0
  1
Zuschnittslänge:
 51
15.0
  7
ROMANS8
100
AcDbText
  0
LINE
  5
167
330
126
100
AcDbEntity
  8
06-99
100
AcDbLine
 10
302.7675395817348
 20
19.87656561071236
 30
0.0
 11
303.0090469137349
 21
20.08724790671238
 31
0.0
  0
LINE
  5
16C
330
126
100
AcDbEntity
  8
06-99
100
AcDbLine
 10
303.0090469137349
 20
20.08724790671238
 30
0.0
 11
302.9228515737349
 21
20.22625816271227
 31
0.0
  0
LINE
  5
16D
330
126
100
AcDbEntity
  8
06-99
100
AcDbLine
 10
302.9228515737349
 20
20.22625816271227
 30
0.0
 11
302.8242642057348
 21
20.35180719071241
 31
0.0
  0
LINE
  5
16E
330
126
100
AcDbEntity
  8
06-99
100
AcDbLine
 10
302.8242642057348
 20
20.35180719071241
 30
0.0
 11
302.713626953735
 21
20.4639413227124
 31
0.0
  0
LINE
  5
16F
330
126
100
AcDbEntity
  8
06-99
100
AcDbLine
 10
302.713626953735
 20
20.4639413227124
 30
0.0
 11
302.5912962177348
 21
20.56271401871226
 31
0.0
  0
LINE
  5
170
330
126
100
AcDbEntity
  8
06-99
100
AcDbLine
 10
302.5912962177348
 20
20.56271401871226
 30
0.0
 11
302.4576141417349
 21
20.64816448271233
 31
0.0
  0
LINE
  5
171
330
126
100
AcDbEntity
  8
06-99
100
AcDbLine
 10
302.4576141417349
 20
20.64816448271233
 30
0.0
 11
302.3129264337349
 21
20.7203390467123
 31
0.0
  0
LINE
  5
172
330
126
100
AcDbEntity
  8
06-99
100
AcDbLine
 10
302.3129264337349
 20
20.7203390467123
 30
0.0
 11
302.1575859297349
 21
20.77929117071233
 31
0.0
  0
LINE
  5
173
330
126
100
AcDbEntity
  8
06-99
100
AcDbLine
 10
302.1575859297349
 20
20.77929117071233
 30
0.0
 11
301.991934773735
 21
20.82506005871232
 31
0.0
  0
LINE
  5
174
330
126
100
AcDbEntity
  8
06-99
100
AcDbLine
 10
301.991934773735
 20
20.82506005871232
 30
0.0
 11
301.8163222377349
 21
20.85769204271242
 31
0.0
  0
LINE
  5
175
330
126
100
AcDbEntity
  8
06-99
100
AcDbLine
 10
301.8163222377349
 20
20.85769204271242
 30
0.0
 11
301.631097593735
 21
20.87724058271238
 31
0.0
  0
LINE
  5
176
330
126
100
AcDbEntity
  8
06-99
100
AcDbLine
 10
301.631097593735
 20
20.87724058271238
 30
0.0
 11
301.436606549735
 21
20.88374488271234
 31
0.0
  0
LINE
  5
177
330
126
100
AcDbEntity
  8
06-99
100
AcDbLine
 10
301.436606549735
 20
20.88374488271234
 30
0.0
 11
301.2756812577348
 21
20.87768251871233
 31
0.0
  0
LINE
  5
178
330
126
100
AcDbEntity
  8
06-99
100
AcDbLine
 10
301.2756812577348
 20
20.87768251871233
 30
0.0
 11
301.1199415857348
 21
20.85975916271229
 31
0.0
  0
LINE
  5
179
330
126
100
AcDbEntity
  8
06-99
100
AcDbLine
 10
301.1199415857348
 20
20.85975916271229
 30
0.0
 11
300.969718985735
 21
20.83036329071246
 31
0.0
  0
LINE
  5
17A
330
126
100
AcDbEntity
  8
06-99
100
AcDbLine
 10
300.969718985735
 20
20.83036329071246
 30
0.0
 11
300.825348473735
 21
20.78989050671231
 31
0.0
  0
LINE
  5
17B
330
126
100
AcDbEntity
  8
06-99
100
AcDbLine
 10
300.825348473735
 20
20.78989050671231
 30
0.0
 11
300.6871615017349
 21
20.73873641471243
 31
0.0
  0
LINE
  5
17C
330
126
100
AcDbEntity
  8
06-99
100
AcDbLine
 10
300.6871615017349
 20
20.73873641471243
 30
0.0
 11
300.5554823937349
 21
20.67729305471232
 31
0.0
  0
LINE
  5
17D
330
126
100
AcDbEntity
  8
06-99
100
AcDbLine
 10
300.5554823937349
 20
20.67729305471232
 30
0.0
 11
300.4306532937349
 21
20.60595246671232
 31
0.0
  0
LINE
  5
17E
330
126
100
AcDbEntity
  8
06-99
100
AcDbLine
 10
300.4306532937349
 20
20.60595246671232
 30
0.0
 11
300.3129985257349
 21
20.52510669071228
 31
0.0
  0
LINE
  5
17F
330
126
100
AcDbEntity
  8
06-99
100
AcDbLine
 10
300.3129985257349
 20
20.52510669071228
 30
0.0
 11
300.2028495417349
 21
20.43514776671236
 31
0.0
  0
LINE
  5
180
330
126
100
AcDbEntity
  8
06-99
100
AcDbLine
 10
300.2028495417349
 20
20.43514776671236
 30
0.0
 11
300.1005449217349
 21
20.33647486271235
 31
0.0
  0
LINE
  5
181
330
126
100
AcDbEntity
  8
06-99
100
AcDbLine
 10
300.1005449217349
 20
20.33647486271235
 30
0.0
 11
300.006405425735
 21
20.22947289071237
 31
0.0
  0
LINE
  5
182
330
126
100
AcDbEntity
  8
06-99
100
AcDbLine
 10
300.006405425735
 20
20.22947289071237
 30
0.0
 11
299.920769633735
 21
20.11454458271237
 31
0.0
  0
LINE
  5
183
330
126
100
AcDbEntity
  8
06-99
100
AcDbLine
 10
299.920769633735
 20
20.11454458271237
 30
0.0
 11
299.8439689977349
 21
19.99207485071235
 31
0.0
  0
LINE
  5
184
330
126
100
AcDbEntity
  8
06-99
100
AcDbLine
 10
299.8439689977349
 20
19.99207485071235
 30
0.0
 11
299.7763314057349
 21
19.86245929871239
 31
0.0
  0
LINE
  5
185
330
126
100
AcDbEntity
  8
06-99
100
AcDbLine
 10
299.7763314057349
 20
19.86245929871239
 30
0.0
 11
299.7181918737349
 21
19.72608996671232
 31
0.0
  0
LINE
  5
186
330
126
100
AcDbEntity
  8
06-99
100
AcDbLine
 10
299.7181918737349
 20
19.72608996671232
 30
0.0
 11
299.6698782897349
 21
19.58336602271231
 31
0.0
  0
LINE
  5
187
330
126
100
AcDbEntity
  8
06-99
100
AcDbLine
 10
299.6698782897349
 20
19.58336602271231
 30
0.0
 11
299.631722105735
 21
19.43467237871232
 31
0.0
  0
LINE
  5
188
330
126
100
AcDbEntity
  8
06-99
100
AcDbLine
 10
299.631722105735
 20
19.43467237871232
 30
0.0
 11
299.6040619017348
 21
19.28040820271229
 31
0.0
  0
LINE
  5
189
330
126
100
AcDbEntity
  8
06-99
100
AcDbLine
 10
299.6040619017348
 20
19.28040820271229
 30
0.0
 11
299.5872184377349
 21
19.12096197071235
 31
0.0
  0
LINE
  5
18A
330
126
100
AcDbEntity
  8
06-99
100
AcDbLine
 10
299.5872184377349
 20
19.12096197071235
 30
0.0
 11
299.5815338577349
 21
18.95672928671234
 31
0.0
  0
LINE
  5
18B
330
126
100
AcDbEntity
  8
06-99
100
AcDbLine
 10
299.5815338577349
 20
18.95672928671234
 30
0.0
 11
299.5871471577349
 21
18.7876246147124
 31
0.0
  0
LINE
  5
18C
330
126
100
AcDbEntity
  8
06-99
100
AcDbLine
 10
299.5871471577349
 20
18.7876246147124
 30
0.0
 11
299.603798165735
 21
18.62429005871234
 31
0.0
  0
LINE
  5
18D
330
126
100
AcDbEntity
  8
06-99
100
AcDbLine
 10
299.603798165735
 20
18.62429005871234
 30
0.0
 11
299.6311875057347
 21
18.46704281471233
 31
0.0
  0
LINE
  5
18E
330
126
100
AcDbEntity
  8
06-99
100
AcDbLine
 10
299.6311875057347
 20
18.46704281471233
 30
0.0
 11
299.6690158017348
 21
18.31619651471226
 31
0.0
  0
LINE
  5
18F
330
126
100
AcDbEntity
  8
06-99
100
AcDbLine
 10
299.6690158017348
 20
18.31619651471226
 30
0.0
 11
299.7169872417348
 21
18.17206479071234
 31
0.0
  0
LINE
  5
190
330
126
100
AcDbEntity
  8
06-99
100
AcDbLine
 10
299.7169872417348
 20
18.17206479071234
 30
0.0
 11
299.774806013735
 21
18.03496127471237
 31
0.0
  0
LINE
  5
191
330
126
100
AcDbEntity
  8
06-99
100
AcDbLine
 10
299.774806013735
 20
18.03496127471237
 30
0.0
 11
299.8421763057349
 21
17.90519603471233
 31
0.0
  0
LINE
  5
192
330
126
100
AcDbEntity
  8
06-99
100
AcDbLine
 10
299.8421763057349
 20
17.90519603471233
 30
0.0
 11
299.9187987417349
 21
17.7830862667123
 31
0.0
  0
LINE
  5
193
330
126
100
AcDbEntity
  8
06-99
100
AcDbLine
 10
299.9187987417349
 20
17.7830862667123
 30
0.0
 11
300.0043775097349
 21
17.66894203871231
 31
0.0
  0
LINE
  5
194
330
126
100
AcDbEntity
  8
06-99
100
AcDbLine
 10
300.0043775097349
 20
17.66894203871231
 30
0.0
 11
300.0986203617349
 21
17.56308054671234
 31
0.0
  0
LINE
  5
195
330
126
100
AcDbEntity
  8
06-99
100
AcDbLine
 10
300.0986203617349
 20
17.56308054671234
 30
0.0
 11
300.2012207937348
 21
17.46581185871235
 31
0.0
  0
LINE
  5
196
330
126
100
AcDbEntity
  8
06-99
100
AcDbLine
 10
300.2012207937348
 20
17.46581185871235
 30
0.0
 11
300.3118936857348
 21
17.37745317071227
 31
0.0
  0
LINE
  5
197
330
126
100
AcDbEntity
  8
06-99
100
AcDbLine
 10
300.3118936857348
 20
17.37745317071227
 30
0.0
 11
300.430332533735
 21
17.2983145507124
 31
0.0
  0
LINE
  5
198
330
126
100
AcDbEntity
  8
06-99
100
AcDbLine
 10
300.430332533735
 20
17.2983145507124
 30
0.0
 11
300.5562450897348
 21
17.22870963071239
 31
0.0
  0
LINE
  5
199
330
126
100
AcDbEntity
  8
06-99
100
AcDbLine
 10
300.5562450897348
 20
17.22870963071239
 30
0.0
 11
300.6893319777348
 21
17.1689556067123
 31
0.0
  0
LINE
  5
19A
330
126
100
AcDbEntity
  8
06-99
100
AcDbLine
 10
300.6893319777348
 20
17.1689556067123
 30
0.0
 11
300.8293009497348
 21
17.11936254671235
 31
0.0
  0
LINE
  5
19B
330
126
100
AcDbEntity
  8
06-99
100
AcDbLine
 10
300.8293009497348
 20
17.11936254671235
 30
0.0
 11
300.975849065735
 21
17.0802440827124
 31
0.0
  0
LINE
  5
19C
330
126
100
AcDbEntity
  8
06-99
100
AcDbLine
 10
300.975849065735
 20
17.0802440827124
 30
0.0
 11
301.1286876417348
 21
17.05191384671241
 31
0.0
  0
LINE
  5
19D
330
126
100
AcDbEntity
  8
06-99
100
AcDbLine
 10
301.1286876417348
 20
17.05191384671241
 30
0.0
 11
301.2875101737348
 21
17.03468547071236
 31
0.0
  0
LINE
  5
19E
330
126
100
AcDbEntity
  8
06-99
100
AcDbLine
 10
301.2875101737348
 20
17.03468547071236
 30
0.0
 11
301.4520279777349
 21
17.02887258671239
 31
0.0
  0
LINE
  5
19F
330
126
100
AcDbEntity
  8
06-99
100
AcDbLine
 10
301.4520279777349
 20
17.02887258671239
 30
0.0
 11
301.616025437735
 21
17.03412592271235
 31
0.0
  0
LINE
  5
1A0
330
126
100
AcDbEntity
  8
06-99
100
AcDbLine
 10
301.616025437735
 20
17.03412592271235
 30
0.0
 11
301.7733582177349
 21
17.04976475471238
 31
0.0
  0
LINE
  5
1A1
330
126
100
AcDbEntity
  8
06-99
100
AcDbLine
 10
301.7733582177349
 20
17.04976475471238
 30
0.0
 11
301.9238374257349
 21
17.07559662671235
 31
0.0
  0
LINE
  5
1A2
330
126
100
AcDbEntity
  8
06-99
100
AcDbLine
 10
301.9238374257349
 20
17.07559662671235
 30
0.0
 11
302.0672741697348
 21
17.11142908271239
 31
0.0
  0
LINE
  5
1A3
330
126
100
AcDbEntity
  8
06-99
100
AcDbLine
 10
302.0672741697348
 20
17.11142908271239
 30
0.0
 11
302.203483121735
 21
17.15707323071234
 31
0.0
  0
LINE
  5
1A4
330
126
100
AcDbEntity
  8
06-99
100
AcDbLine
 10
302.203483121735
 20
17.15707323071234
 30
0.0
 11
302.3322718257348
 21
17.21234017871234
 31
0.0
  0
LINE
  5
1A5
330
126
100
AcDbEntity
  8
06-99
100
AcDbLine
 10
302.3322718257348
 20
17.21234017871234
 30
0.0
 11
302.4534549537349
 21
17.27703747071234
 31
0.0
  0
LINE
  5
1A6
330
126
100
AcDbEntity
  8
06-99
100
AcDbLine
 10
302.4534549537349
 20
17.27703747071234
 30
0.0
 11
302.5668364857349
 21
17.35097977871237
 31
0.0
  0
LINE
  5
1A7
330
126
100
AcDbEntity
  8
06-99
100
AcDbLine
 10
302.5668364857349
 20
17.35097977871237
 30
0.0
 11
302.6722382217349
 21
17.43397464671233
 31
0.0
  0
LINE
  5
1A8
330
126
100
AcDbEntity
  8
06-99
100
AcDbLine
 10
302.6722382217349
 20
17.43397464671233
 30
0.0
 11
302.7694605777349
 21
17.52582605471235
 31
0.0
  0
LINE
  5
1A9
330
126
100
AcDbEntity
  8
06-99
100
AcDbLine
 10
302.7694605777349
 20
17.52582605471235
 30
0.0
 11
302.8583217897349
 21
17.62635580271234
 31
0.0
  0
LINE
  5
1AA
330
126
100
AcDbEntity
  8
06-99
100
AcDbLine
 10
302.8583217897349
 20
17.62635580271234
 30
0.0
 11
302.938632965735
 21
17.73536074271232
 31
0.0
  0
LINE
  5
1AB
330
126
100
AcDbEntity
  8
06-99
100
AcDbLine
 10
302.938632965735
 20
17.73536074271232
 30
0.0
 11
303.0102016497349
 21
17.85266267471235
 31
0.0
  0
LINE
  5
1AC
330
126
100
AcDbEntity
  8
06-99
100
AcDbLine
 10
303.0102016497349
 20
17.85266267471235
 30
0.0
 11
303.0728389497349
 21
17.97806201471235
 31
0.0
  0
LINE
  5
1AD
330
126
100
AcDbEntity
  8
06-99
100
AcDbLine
 10
303.0728389497349
 20
17.97806201471235
 30
0.0
 11
303.126359537735
 21
18.11137343471228
 31
0.0
  0
LINE
  5
1AE
330
126
100
AcDbEntity
  8
06-99
100
AcDbLine
 10
303.126359537735
 20
18.11137343471228
 30
0.0
 11
303.1705745217348
 21
18.25240447871232
 31
0.0
  0
LINE
  5
1AF
330
126
100
AcDbEntity
  8
06-99
100
AcDbLine
 10
303.1705745217348
 20
18.25240447871232
 30
0.0
 11
303.2052878817349
 21
18.40096625471233
 31
0.0
  0
LINE
  5
1B0
330
126
100
AcDbEntity
  8
06-99
100
AcDbLine
 10
303.2052878817349
 20
18.40096625471233
 30
0.0
 11
303.2303214177349
 21
18.55686987071237
 31
0.0
  0
LINE
  5
1B1
330
126
100
AcDbEntity
  8
06-99
100
AcDbLine
 10
303.2303214177349
 20
18.55686987071237
 30
0.0
 11
303.245479109735
 21
18.7199264347123
 31
0.0
  0
LINE
  5
1B2
330
126
100
AcDbEntity
  8
06-99
100
AcDbLine
 10
303.245479109735
 20
18.7199264347123
 30
0.0
 11
303.2505720657348
 21
18.88993992671231
 31
0.0
  0
LINE
  5
1B3
330
126
100
AcDbEntity
  8
06-99
100
AcDbLine
 10
303.2505720657348
 20
18.88993992671231
 30
0.0
 11
303.2505720657348
 21
18.88993992671231
 31
0.0
  0
LINE
  5
1B4
330
126
100
AcDbEntity
  8
06-99
100
AcDbLine
 10
303.2505720657348
 20
18.88993992671231
 30
0.0
 11
303.2505720657348
 21
18.94132211471236
 31
0.0
  0
LINE
  5
1B5
330
126
100
AcDbEntity
  8
06-99
100
AcDbLine
 10
303.2505720657348
 20
18.94132211471236
 30
0.0
 11
301.6164638097349
 21
18.94132211471236
 31
0.0
  0
LINE
  5
1B6
330
126
100
AcDbEntity
  8
06-99
100
AcDbLine
 10
301.6164638097349
 20
18.94132211471236
 30
0.0
 11
301.6164638097349
 21
18.65355049871232
 31
0.0
  0
LINE
  5
1B7
330
126
100
AcDbEntity
  8
06-99
100
AcDbLine
 10
301.6164638097349
 20
18.65355049871232
 30
0.0
 11
302.8857253857347
 21
18.65355049871232
 31
0.0
  0
LINE
  5
1B8
330
126
100
AcDbEntity
  8
06-99
100
AcDbLine
 10
302.8857253857347
 20
18.65355049871232
 30
0.0
 11
302.8749870537348
 21
18.49100715071233
 31
0.0
  0
LINE
  5
1B9
330
126
100
AcDbEntity
  8
06-99
100
AcDbLine
 10
302.8749870537348
 20
18.49100715071233
 30
0.0
 11
302.8476547377348
 21
18.33636162671234
 31
0.0
  0
LINE
  5
1BA
330
126
100
AcDbEntity
  8
06-99
100
AcDbLine
 10
302.8476547377348
 20
18.33636162671234
 30
0.0
 11
302.804434109735
 21
18.19027683071238
 31
0.0
  0
LINE
  5
1BB
330
126
100
AcDbEntity
  8
06-99
100
AcDbLine
 10
302.804434109735
 20
18.19027683071238
 30
0.0
 11
302.7460308417349
 21
18.05341923071233
 31
0.0
  0
LINE
  5
1BC
330
126
100
AcDbEntity
  8
06-99
100
AcDbLine
 10
302.7460308417349
 20
18.05341923071233
 30
0.0
 11
302.673157733735
 21
17.92644460271236
 31
0.0
  0
LINE
  5
1BD
330
126
100
AcDbEntity
  8
06-99
100
AcDbLine
 10
302.673157733735
 20
17.92644460271236
 30
0.0
 11
302.586524021735
 21
17.81002654271236
 31
0.0
  0
LINE
  5
1BE
330
126
100
AcDbEntity
  8
06-99
100
AcDbLine
 10
302.586524021735
 20
17.81002654271236
 30
0.0
 11
302.4868282497349
 21
17.70481726271237
 31
0.0
  0
LINE
  5
1BF
330
126
100
AcDbEntity
  8
06-99
100
AcDbLine
 10
302.4868282497349
 20
17.70481726271237
 30
0.0
 11
302.3747867817349
 21
17.61149035871233
 31
0.0
  0
LINE
  5
1C0
330
126
100
AcDbEntity
  8
06-99
100
AcDbLine
 10
302.3747867817349
 20
17.61149035871233
 30
0.0
 11
302.2511052897348
 21
17.53069804271234
 31
0.0
  0
LINE
  5
1C1
330
126
100
AcDbEntity
  8
06-99
100
AcDbLine
 10
302.2511052897348
 20
17.53069804271234
 30
0.0
 11
302.116489445735
 21
17.46311034671237
 31
0.0
  0
LINE
  5
1C2
330
126
100
AcDbEntity
  8
06-99
100
AcDbLine
 10
302.116489445735
 20
17.46311034671237
 30
0.0
 11
301.9716484857348
 21
17.40938661071232
 31
0.0
  0
LINE
  5
1C3
330
126
100
AcDbEntity
  8
06-99
100
AcDbLine
 10
301.9716484857348
 20
17.40938661071232
 30
0.0
 11
301.8172916457349
 21
17.37019330271244
 31
0.0
  0
LINE
  5
1C4
330
126
100
AcDbEntity
  8
06-99
100
AcDbLine
 10
301.8172916457349
 20
17.37019330271244
 30
0.0
 11
301.654124597735
 21
17.3461897627123
 31
0.0
  0
LINE
  5
1C5
330
126
100
AcDbEntity
  8
06-99
100
AcDbLine
 10
301.654124597735
 20
17.3461897627123
 30
0.0
 11
301.482856577735
 21
17.33804245871238
 31
0.0
  0
LINE
  5
1C6
330
126
100
AcDbEntity
  8
06-99
100
AcDbLine
 10
301.482856577735
 20
17.33804245871238
 30
0.0
 11
301.318196213735
 21
17.34599374271232
 31
0.0
  0
LINE
  5
1C7
330
126
100
AcDbEntity
  8
06-99
100
AcDbLine
 10
301.318196213735
 20
17.34599374271232
 30
0.0
 11
301.1599011537348
 21
17.36937714671228
 31
0.0
  0
LINE
  5
1C8
330
126
100
AcDbEntity
  8
06-99
100
AcDbLine
 10
301.1599011537348
 20
17.36937714671228
 30
0.0
 11
301.0085630217349
 21
17.40748343471233
 31
0.0
  0
LINE
  5
1C9
330
126
100
AcDbEntity
  8
06-99
100
AcDbLine
 10
301.0085630217349
 20
17.40748343471233
 30
0.0
 11
300.8647698777347
 21
17.45960693471232
 31
0.0
  0
LINE
  5
1CA
330
126
100
AcDbEntity
  8
06-99
100
AcDbLine
 10
300.8647698777347
 20
17.45960693471232
 30
0.0
 11
300.7291026537349
 21
17.52503841071234
 31
0.0
  0
LINE
  5
1CB
330
126
100
AcDbEntity
  8
06-99
100
AcDbLine
 10
300.7291026537349
 20
17.52503841071234
 30
0.0
 11
300.6021529737349
 21
17.6030686267124
 31
0.0
  0
LINE
  5
1CC
330
126
100
AcDbEntity
  8
06-99
100
AcDbLine
 10
300.6021529737349
 20
17.6030686267124
 30
0.0
 11
300.4845053337349
 21
17.69299547471234
 31
0.0
  0
LINE
  5
1CD
330
126
100
AcDbEntity
  8
06-99
100
AcDbLine
 10
300.4845053337349
 20
17.69299547471234
 30
0.0
 11
300.3767513577348
 21
17.79410615471244
 31
0.0
  0
LINE
  5
1CE
330
126
100
AcDbEntity
  8
06-99
100
AcDbLine
 10
300.3767513577348
 20
17.79410615471244
 30
0.0
 11
300.279475541735
 21
17.90569499471235
 31
0.0
  0
LINE
  5
1CF
330
126
100
AcDbEntity
  8
06-99
100
AcDbLine
 10
300.279475541735
 20
17.90569499471235
 30
0.0
 11
300.1932623817348
 21
18.02705632271232
 31
0.0
  0
LINE
  5
1D0
330
126
100
AcDbEntity
  8
06-99
100
AcDbLine
 10
300.1932623817348
 20
18.02705632271232
 30
0.0
 11
300.1187035017349
 21
18.15747733871234
 31
0.0
  0
LINE
  5
1D1
330
126
100
AcDbEntity
  8
06-99
100
AcDbLine
 10
300.1187035017349
 20
18.15747733871234
 30
0.0
 11
300.0563833977349
 21
18.29625593471235
 31
0.0
  0
LINE
  5
1D2
330
126
100
AcDbEntity
  8
06-99
100
AcDbLine
 10
300.0563833977349
 20
18.29625593471235
 30
0.0
 11
300.0068901297349
 21
18.44268287471232
 31
0.0
  0
LINE
  5
1D3
330
126
100
AcDbEntity
  8
06-99
100
AcDbLine
 10
300.0068901297349
 20
18.44268287471232
 30
0.0
 11
299.9708117577347
 21
18.59604535871239
 31
0.0
  0
LINE
  5
1D4
330
126
100
AcDbEntity
  8
06-99
100
AcDbLine
 10
299.9708117577347
 20
18.59604535871239
 30
0.0
 11
299.9487327777348
 21
18.75564484271246
 31
0.0
  0
LINE
  5
1D5
330
126
100
AcDbEntity
  8
06-99
100
AcDbLine
 10
299.9487327777348
 20
18.75564484271246
 30
0.0
 11
299.9412448137349
 21
18.92076852671226
 31
0.0
  0
LINE
  5
1D6
330
126
100
AcDbEntity
  8
06-99
100
AcDbLine
 10
299.9412448137349
 20
18.92076852671226
 30
0.0
 11
299.947631501735
 21
19.08914257871237
 31
0.0
  0
LINE
  5
1D7
330
126
100
AcDbEntity
  8
06-99
100
AcDbLine
 10
299.947631501735
 20
19.08914257871237
 30
0.0
 11
299.9665349577349
 21
19.25115489071231
 31
0.0
  0
LINE
  5
1D8
330
126
100
AcDbEntity
  8
06-99
100
AcDbLine
 10
299.9665349577349
 20
19.25115489071231
 30
0.0
 11
299.997556013735
 21
19.40630650271231
 31
0.0
  0
LINE
  5
1D9
330
126
100
AcDbEntity
  8
06-99
100
AcDbLine
 10
299.997556013735
 20
19.40630650271231
 30
0.0
 11
300.0402990657349
 21
19.55410201871234
 31
0.0
  0
LINE
  5
1DA
330
126
100
AcDbEntity
  8
06-99
100
AcDbLine
 10
300.0402990657349
 20
19.55410201871234
 30
0.0
 11
300.0943720737348
 21
19.69404604271233
 31
0.0
  0
LINE
  5
1DB
330
126
100
AcDbEntity
  8
06-99
100
AcDbLine
 10
300.0943720737348
 20
19.69404604271233
 30
0.0
 11
300.1593758697349
 21
19.82564674271236
 31
0.0
  0
LINE
  5
1DC
330
126
100
AcDbEntity
  8
06-99
100
AcDbLine
 10
300.1593758697349
 20
19.82564674271236
 30
0.0
 11
300.2349148497349
 21
19.94840159471238
 31
0.0
  0
LINE
  5
1DD
330
126
100
AcDbEntity
  8
06-99
100
AcDbLine
 10
300.2349148497349
 20
19.94840159471238
 30
0.0
 11
300.3205969737349
 21
20.06182233071235
 31
0.0
  0
LINE
  5
1DE
330
126
100
AcDbEntity
  8
06-99
100
AcDbLine
 10
300.3205969737349
 20
20.06182233071235
 30
0.0
 11
300.4160230737348
 21
20.16540642671242
 31
0.0
  0
LINE
  5
1DF
330
126
100
AcDbEntity
  8
06-99
100
AcDbLine
 10
300.4160230737348
 20
20.16540642671242
 30
0.0
 11
300.5208046737348
 21
20.2586620507123
 31
0.0
  0
LINE
  5
1E0
330
126
100
AcDbEntity
  8
06-99
100
AcDbLine
 10
300.5208046737348
 20
20.2586620507123
 30
0.0
 11
300.634535477735
 21
20.34109024271237
 31
0.0
  0
LINE
  5
1E1
330
126
100
AcDbEntity
  8
06-99
100
AcDbLine
 10
300.634535477735
 20
20.34109024271237
 30
0.0
 11
300.756830573735
 21
20.41219917071237
 31
0.0
  0
LINE
  5
1E2
330
126
100
AcDbEntity
  8
06-99
100
AcDbLine
 10
300.756830573735
 20
20.41219917071237
 30
0.0
 11
300.8872872297347
 21
20.47148987471235
 31
0.0
  0
LINE
  5
1E3
330
126
100
AcDbEntity
  8
06-99
100
AcDbLine
 10
300.8872872297347
 20
20.47148987471235
 30
0.0
 11
301.025513405735
 21
20.51846695871234
 31
0.0
  0
LINE
  5
1E4
330
126
100
AcDbEntity
  8
06-99
100
AcDbLine
 10
301.025513405735
 20
20.51846695871234
 30
0.0
 11
301.171117061735
 21
20.55263502671232
 31
0.0
  0
LINE
  5
1E5
330
126
100
AcDbEntity
  8
06-99
100
AcDbLine
 10
301.171117061735
 20
20.55263502671232
 30
0.0
 11
301.323695465735
 21
20.57350224671234
 31
0.0
  0
LINE
  5
1E6
330
126
100
AcDbEntity
  8
06-99
100
AcDbLine
 10
301.323695465735
 20
20.57350224671234
 30
0.0
 11
301.482856577735
 21
20.58056609471237
 31
0.0
  0
LINE
  5
1E7
330
126
100
AcDbEntity
  8
06-99
100
AcDbLine
 10
301.482856577735
 20
20.58056609471237
 30
0.0
 11
301.6605611817349
 21
20.57164896671236
 31
0.0
  0
LINE
  5
1E8
330
126
100
AcDbEntity
  8
06-99
100
AcDbLine
 10
301.6605611817349
 20
20.57164896671236
 30
0.0
 11
301.830314501735
 21
20.54501163071234
 31
0.0
  0
LINE
  5
1E9
330
126
100
AcDbEntity
  8
06-99
100
AcDbLine
 10
301.830314501735
 20
20.54501163071234
 30
0.0
 11
301.9917779577349
 21
20.50082159471236
 31
0.0
  0
LINE
  5
1EA
330
126
100
AcDbEntity
  8
06-99
100
AcDbLine
 10
301.9917779577349
 20
20.50082159471236
 30
0.0
 11
302.1446129697349
 21
20.43924636671233
 31
0.0
  0
LINE
  5
1EB
330
126
100
AcDbEntity
  8
06-99
100
AcDbLine
 10
302.1446129697349
 20
20.43924636671233
 30
0.0
 11
302.2884809577349
 21
20.36046058271233
 31
0.0
  0
LINE
  5
1EC
330
126
100
AcDbEntity
  8
06-99
100
AcDbLine
 10
302.2884809577349
 20
20.36046058271233
 30
0.0
 11
302.423046905735
 21
20.2646281867124
 31
0.0
  0
LINE
  5
1ED
330
126
100
AcDbEntity
  8
06-99
100
AcDbLine
 10
302.423046905735
 20
20.2646281867124
 30
0.0
 11
302.5479722337349
 21
20.15192381471235
 31
0.0
  0
LINE
  5
1EE
330
126
100
AcDbEntity
  8
06-99
100
AcDbLine
 10
302.5479722337349
 20
20.15192381471235
 30
0.0
 11
302.662914797735
 21
20.02251141071241
 31
0.0
  0
LINE
  5
1EF
330
126
100
AcDbEntity
  8
06-99
100
AcDbLine
 10
302.662914797735
 20
20.02251141071241
 30
0.0
 11
302.7675395817348
 21
19.87656561071236
 31
0.0
  0
LINE
  5
1F0
330
126
100
AcDbEntity
  8
06-99
100
AcDbLine
 10
299.4389952417348
 20
13.25281458671242
 30
0.0
 11
301.3222627377349
 21
13.25281458671242
 31
0.0
  0
LINE
  5
1F1
330
126
100
AcDbEntity
  8
06-99
100
AcDbLine
 10
301.3222627377349
 20
13.25281458671242
 30
0.0
 11
301.4675990937349
 21
14.00768047871236
 31
0.0
  0
LINE
  5
1F2
330
126
100
AcDbEntity
  8
06-99
100
AcDbLine
 10
301.4675990937349
 20
14.00768047871236
 30
0.0
 11
300.5648699697349
 21
14.00768047871236
 31
0.0
  0
LINE
  5
1F3
330
126
100
AcDbEntity
  8
06-99
100
AcDbLine
 10
300.5648699697349
 20
14.00768047871236
 30
0.0
 11
300.6210528657348
 21
14.29950792671229
 31
0.0
  0
LINE
  5
1F4
330
126
100
AcDbEntity
  8
06-99
100
AcDbLine
 10
300.6210528657348
 20
14.29950792671229
 30
0.0
 11
301.4187152697349
 21
14.29950792671229
 31
0.0
  0
LINE
  5
1F5
330
126
100
AcDbEntity
  8
06-99
100
AcDbLine
 10
301.4187152697349
 20
14.29950792671229
 30
0.0
 11
301.5558009657348
 21
15.01156305071231
 31
0.0
  0
LINE
  5
1F6
330
126
100
AcDbEntity
  8
06-99
100
AcDbLine
 10
301.5558009657348
 20
15.01156305071231
 30
0.0
 11
300.7581385617348
 21
15.01156305071231
 31
0.0
  0
LINE
  5
1F7
330
126
100
AcDbEntity
  8
06-99
100
AcDbLine
 10
300.7581385617348
 20
15.01156305071231
 30
0.0
 11
300.8098450737348
 21
15.28005699071229
 31
0.0
  0
LINE
  5
1F8
330
126
100
AcDbEntity
  8
06-99
100
AcDbLine
 10
300.8098450737348
 20
15.28005699071229
 30
0.0
 11
301.6892264337348
 21
15.28005699071229
 31
0.0
  0
LINE
  5
1F9
330
126
100
AcDbEntity
  8
06-99
100
AcDbLine
 10
301.6892264337348
 20
15.28005699071229
 30
0.0
 11
301.8345520977349
 21
16.03490862671236
 31
0.0
  0
LINE
  5
1FA
330
126
100
AcDbEntity
  8
06-99
100
AcDbLine
 10
301.8345520977349
 20
16.03490862671236
 30
0.0
 11
299.9746323657349
 21
16.03490862671236
 31
0.0
  0
LINE
  5
1FB
330
126
100
AcDbEntity
  8
06-99
100
AcDbLine
 10
299.9746323657349
 20
16.03490862671236
 30
0.0
 11
299.4389952417348
 21
13.25281458671242
 31
0.0
  0
LINE
  5
1FC
330
126
100
AcDbEntity
  8
06-99
100
AcDbLine
 10
285.6086116857349
 20
13.88042785871232
 30
0.0
 11
298.0658608857348
 21
13.88042785871232
 31
0.0
  0
LINE
  5
1FD
330
126
100
AcDbEntity
  8
06-99
100
AcDbLine
 10
298.0658608857348
 20
13.88042785871232
 30
0.0
 11
297.9422827497349
 21
13.25209822271233
 31
0.0
  0
LINE
  5
1FE
330
126
100
AcDbEntity
  8
06-99
100
AcDbLine
 10
297.9422827497349
 20
13.25209822271233
 30
0.0
 11
285.4850371137349
 21
13.25209822271233
 31
0.0
  0
LINE
  5
1FF
330
126
100
AcDbEntity
  8
06-99
100
AcDbLine
 10
285.4850371137349
 20
13.25209822271233
 30
0.0
 11
285.6086116857349
 21
13.88042785871232
 31
0.0
  0
LINE
  5
200
330
126
100
AcDbEntity
  8
06-99
100
AcDbLine
 10
291.3458426577349
 20
17.02887258671239
 30
0.0
 11
292.3221826377348
 21
20.10266933471235
 31
0.0
  0
LINE
  5
201
330
126
100
AcDbEntity
  8
06-99
100
AcDbLine
 10
292.3221826377348
 20
20.10266933471235
 30
0.0
 11
293.3396476137348
 21
17.02887258671239
 31
0.0
  0
LINE
  5
202
330
126
100
AcDbEntity
  8
06-99
100
AcDbLine
 10
293.3396476137348
 20
17.02887258671239
 30
0.0
 11
294.5677984497349
 21
20.80153409471234
 31
0.0
  0
LINE
  5
203
330
126
100
AcDbEntity
  8
06-99
100
AcDbLine
 10
294.5677984497349
 20
20.80153409471234
 30
0.0
 11
294.2235089217348
 21
20.80153409471234
 31
0.0
  0
LINE
  5
204
330
126
100
AcDbEntity
  8
06-99
100
AcDbLine
 10
294.2235089217348
 20
20.80153409471234
 30
0.0
 11
293.3396476137348
 21
17.89303210271231
 31
0.0
  0
LINE
  5
205
330
126
100
AcDbEntity
  8
06-99
100
AcDbLine
 10
293.3396476137348
 20
17.89303210271231
 30
0.0
 11
292.3221826377348
 21
20.94541277471228
 31
0.0
  0
LINE
  5
206
330
126
100
AcDbEntity
  8
06-99
100
AcDbLine
 10
292.3221826377348
 20
20.94541277471228
 30
0.0
 11
291.3458426577349
 21
17.86733922671237
 31
0.0
  0
LINE
  5
207
330
126
100
AcDbEntity
  8
06-99
100
AcDbLine
 10
291.3458426577349
 20
17.86733922671237
 30
0.0
 11
290.426009897735
 21
20.80153409471234
 31
0.0
  0
LINE
  5
208
330
126
100
AcDbEntity
  8
06-99
100
AcDbLine
 10
290.426009897735
 20
20.80153409471234
 30
0.0
 11
290.0765810817349
 21
20.80153409471234
 31
0.0
  0
LINE
  5
209
330
126
100
AcDbEntity
  8
06-99
100
AcDbLine
 10
290.0765810817349
 20
20.80153409471234
 30
0.0
 11
291.3458426577349
 21
17.02887258671239
 31
0.0
  0
LINE
  5
20A
330
126
100
AcDbEntity
  8
06-99
100
AcDbLine
 10
296.324415641735
 20
18.65868622271239
 30
0.0
 11
296.9770339377348
 21
20.2568337187123
 31
0.0
  0
LINE
  5
20B
330
126
100
AcDbEntity
  8
06-99
100
AcDbLine
 10
296.9770339377348
 20
20.2568337187123
 30
0.0
 11
297.6039629217348
 21
18.65868622271239
 31
0.0
  0
LINE
  5
20C
330
126
100
AcDbEntity
  8
06-99
100
AcDbLine
 10
297.6039629217348
 20
18.65868622271239
 30
0.0
 11
296.324415641735
 21
18.65868622271239
 31
0.0
  0
LINE
  5
20D
330
126
100
AcDbEntity
  8
06-99
100
AcDbLine
 10
295.3831810617349
 20
17.12736016271231
 30
0.0
 11
295.7231937897349
 21
17.12736016271231
 31
0.0
  0
LINE
  5
20E
330
126
100
AcDbEntity
  8
06-99
100
AcDbLine
 10
295.7231937897349
 20
17.12736016271231
 30
0.0
 11
296.2113619977348
 21
18.37092886271233
 31
0.0
  0
LINE
  5
20F
330
126
100
AcDbEntity
  8
06-99
100
AcDbLine
 10
296.2113619977348
 20
18.37092886271233
 30
0.0
 11
297.711863021735
 21
18.37092886271233
 31
0.0
  0
LINE
  5
210
330
126
100
AcDbEntity
  8
06-99
100
AcDbLine
 10
297.711863021735
 20
18.37092886271233
 30
0.0
 11
298.1794918977348
 21
17.12736016271231
 31
0.0
  0
LINE
  5
211
330
126
100
AcDbEntity
  8
06-99
100
AcDbLine
 10
298.1794918977348
 20
17.12736016271231
 30
0.0
 11
298.5443385777348
 21
17.12736016271231
 31
0.0
  0
LINE
  5
212
330
126
100
AcDbEntity
  8
06-99
100
AcDbLine
 10
298.5443385777348
 20
17.12736016271231
 30
0.0
 11
296.9975910897349
 21
20.94541277471228
 31
0.0
  0
LINE
  5
213
330
126
100
AcDbEntity
  8
06-99
100
AcDbLine
 10
296.9975910897349
 20
20.94541277471228
 30
0.0
 11
295.3831810617349
 21
17.12736016271231
 31
0.0
  0
LINE
  5
214
330
126
100
AcDbEntity
  8
06-99
100
AcDbLine
 10
307.9298046897347
 20
13.25281458671242
 30
0.0
 11
309.0043792017348
 21
13.25281458671242
 31
0.0
  0
LINE
  5
215
330
126
100
AcDbEntity
  8
06-99
100
AcDbLine
 10
309.0043792017348
 20
13.25281458671242
 30
0.0
 11
309.1574066697349
 21
13.60301322671233
 31
0.0
  0
LINE
  5
216
330
126
100
AcDbEntity
  8
06-99
100
AcDbLine
 10
309.1574066697349
 20
13.60301322671233
 30
0.0
 11
309.9122725617349
 21
13.60301322671233
 31
0.0
  0
LINE
  5
217
330
126
100
AcDbEntity
  8
06-99
100
AcDbLine
 10
309.9122725617349
 20
13.60301322671233
 30
0.0
 11
309.9343444137348
 21
13.25281458671242
 31
0.0
  0
LINE
  5
218
330
126
100
AcDbEntity
  8
06-99
100
AcDbLine
 10
309.9343444137348
 20
13.25281458671242
 30
0.0
 11
311.0082738417347
 21
13.25281458671242
 31
0.0
  0
LINE
  5
219
330
126
100
AcDbEntity
  8
06-99
100
AcDbLine
 10
311.0082738417347
 20
13.25281458671242
 30
0.0
 11
310.5711492417348
 21
16.03490862671236
 31
0.0
  0
LINE
  5
21A
330
126
100
AcDbEntity
  8
06-99
100
AcDbLine
 10
310.5711492417348
 20
16.03490862671236
 30
0.0
 11
309.4583116257348
 21
16.03490862671236
 31
0.0
  0
LINE
  5
21B
330
126
100
AcDbEntity
  8
06-99
100
AcDbLine
 10
309.4583116257348
 20
16.03490862671236
 30
0.0
 11
307.9298046897347
 21
13.25281458671242
 31
0.0
  0
LINE
  5
21C
330
126
100
AcDbEntity
  8
06-99
100
AcDbLine
 10
305.0434565217349
 20
14.66137866671232
 30
0.0
 11
305.0784799497348
 21
14.66137866671232
 31
0.0
  0
LINE
  5
21D
330
126
100
AcDbEntity
  8
06-99
100
AcDbLine
 10
305.0784799497348
 20
14.66137866671232
 30
0.0
 11
305.0642239497349
 21
14.48699927471239
 31
0.0
  0
LINE
  5
21E
330
126
100
AcDbEntity
  8
06-99
100
AcDbLine
 10
305.0642239497349
 20
14.48699927471239
 30
0.0
 11
305.0637998337348
 21
14.33510159471234
 31
0.0
  0
LINE
  5
21F
330
126
100
AcDbEntity
  8
06-99
100
AcDbLine
 10
305.0637998337348
 20
14.33510159471234
 30
0.0
 11
305.0678984337348
 21
14.20222854671237
 31
0.0
  0
LINE
  5
220
330
126
100
AcDbEntity
  8
06-99
100
AcDbLine
 10
305.0678984337348
 20
14.20222854671237
 30
0.0
 11
305.0952307497349
 21
13.25281458671242
 31
0.0
  0
LINE
  5
221
330
126
100
AcDbEntity
  8
06-99
100
AcDbLine
 10
305.0952307497349
 20
13.25281458671242
 30
0.0
 11
305.9668283337347
 21
13.25281458671242
 31
0.0
  0
LINE
  5
222
330
126
100
AcDbEntity
  8
06-99
100
AcDbLine
 10
305.9668283337347
 20
13.25281458671242
 30
0.0
 11
307.3156882857347
 21
16.03490862671236
 31
0.0
  0
LINE
  5
223
330
126
100
AcDbEntity
  8
06-99
100
AcDbLine
 10
307.3156882857347
 20
16.03490862671236
 30
0.0
 11
306.3118057137349
 21
16.03490862671236
 31
0.0
  0
LINE
  5
224
330
126
100
AcDbEntity
  8
06-99
100
AcDbLine
 10
306.3118057137349
 20
16.03490862671236
 30
0.0
 11
305.8579124937348
 21
14.8092312067123
 31
0.0
  0
LINE
  5
225
330
126
100
AcDbEntity
  8
06-99
100
AcDbLine
 10
305.8579124937348
 20
14.8092312067123
 30
0.0
 11
305.8078097817349
 21
14.66872763471229
 31
0.0
  0
LINE
  5
226
330
126
100
AcDbEntity
  8
06-99
100
AcDbLine
 10
305.8078097817349
 20
14.66872763471229
 30
0.0
 11
305.7488398377348
 21
14.48671415471227
 31
0.0
  0
LINE
  5
227
330
126
100
AcDbEntity
  8
06-99
100
AcDbLine
 10
305.7488398377348
 20
14.48671415471227
 30
0.0
 11
305.6900267097347
 21
14.26059973871241
 31
0.0
  0
LINE
  5
228
330
126
100
AcDbEntity
  8
06-99
100
AcDbLine
 10
305.6900267097347
 20
14.26059973871241
 30
0.0
 11
305.6666932017348
 21
14.26059973871241
 31
0.0
  0
LINE
  5
229
330
126
100
AcDbEntity
  8
06-99
100
AcDbLine
 10
305.6666932017348
 20
14.26059973871241
 30
0.0
 11
305.6884193457348
 21
14.45803464671235
 31
0.0
  0
LINE
  5
22A
330
126
100
AcDbEntity
  8
06-99
100
AcDbLine
 10
305.6884193457348
 20
14.45803464671235
 30
0.0
 11
305.6929777017349
 21
14.6156953147123
 31
0.0
  0
LINE
  5
22B
330
126
100
AcDbEntity
  8
06-99
100
AcDbLine
 10
305.6929777017349
 20
14.6156953147123
 30
0.0
 11
305.6919370137348
 21
14.73531384671236
 31
0.0
  0
LINE
  5
22C
330
126
100
AcDbEntity
  8
06-99
100
AcDbLine
 10
305.6919370137348
 20
14.73531384671236
 30
0.0
 11
305.6775527097348
 21
16.03490862671236
 31
0.0
  0
LINE
  5
22D
330
126
100
AcDbEntity
  8
06-99
100
AcDbLine
 10
305.6775527097348
 20
16.03490862671236
 30
0.0
 11
304.9732849257348
 21
16.03490862671236
 31
0.0
  0
LINE
  5
22E
330
126
100
AcDbEntity
  8
06-99
100
AcDbLine
 10
304.9732849257348
 20
16.03490862671236
 30
0.0
 11
304.4584829457349
 21
14.73531384671236
 31
0.0
  0
LINE
  5
22F
330
126
100
AcDbEntity
  8
06-99
100
AcDbLine
 10
304.4584829457349
 20
14.73531384671236
 30
0.0
 11
304.4113811217347
 21
14.6156953147123
 31
0.0
  0
LINE
  5
230
330
126
100
AcDbEntity
  8
06-99
100
AcDbLine
 10
304.4113811217347
 20
14.6156953147123
 30
0.0
 11
304.355226737735
 21
14.45803464671235
 31
0.0
  0
LINE
  5
231
330
126
100
AcDbEntity
  8
06-99
100
AcDbLine
 10
304.355226737735
 20
14.45803464671235
 30
0.0
 11
304.3009220697348
 21
14.26059973871241
 31
0.0
  0
LINE
  5
232
330
126
100
AcDbEntity
  8
06-99
100
AcDbLine
 10
304.3009220697348
 20
14.26059973871241
 30
0.0
 11
304.2775885617348
 21
14.26059973871241
 31
0.0
  0
LINE
  5
233
330
126
100
AcDbEntity
  8
06-99
100
AcDbLine
 10
304.2775885617348
 20
14.26059973871241
 30
0.0
 11
304.3058439537349
 21
14.48671415471227
 31
0.0
  0
LINE
  5
234
330
126
100
AcDbEntity
  8
06-99
100
AcDbLine
 10
304.3058439537349
 20
14.48671415471227
 30
0.0
 11
304.3169636337349
 21
14.66872763471229
 31
0.0
  0
LINE
  5
235
330
126
100
AcDbEntity
  8
06-99
100
AcDbLine
 10
304.3169636337349
 20
14.66872763471229
 30
0.0
 11
304.3209588777348
 21
14.8092312067123
 31
0.0
  0
LINE
  5
236
330
126
100
AcDbEntity
  8
06-99
100
AcDbLine
 10
304.3209588777348
 20
14.8092312067123
 30
0.0
 11
304.3390319217348
 21
16.03490862671236
 31
0.0
  0
LINE
  5
237
330
126
100
AcDbEntity
  8
06-99
100
AcDbLine
 10
304.3390319217348
 20
16.03490862671236
 30
0.0
 11
303.3345042657348
 21
16.03490862671236
 31
0.0
  0
LINE
  5
238
330
126
100
AcDbEntity
  8
06-99
100
AcDbLine
 10
303.3345042657348
 20
16.03490862671236
 30
0.0
 11
303.6127350537349
 21
13.25281458671242
 31
0.0
  0
LINE
  5
239
330
126
100
AcDbEntity
  8
06-99
100
AcDbLine
 10
303.6127350537349
 20
13.25281458671242
 30
0.0
 11
304.4843290737348
 21
13.25281458671242
 31
0.0
  0
LINE
  5
23A
330
126
100
AcDbEntity
  8
06-99
100
AcDbLine
 10
304.4843290737348
 20
13.25281458671242
 30
0.0
 11
304.8772386897349
 21
14.20222854671237
 31
0.0
  0
LINE
  5
23B
330
126
100
AcDbEntity
  8
06-99
100
AcDbLine
 10
304.8772386897349
 20
14.20222854671237
 30
0.0
 11
304.9325127657348
 21
14.33510159471234
 31
0.0
  0
LINE
  5
23C
330
126
100
AcDbEntity
  8
06-99
100
AcDbLine
 10
304.9325127657348
 20
14.33510159471234
 30
0.0
 11
304.9905774537349
 21
14.48699927471239
 31
0.0
  0
LINE
  5
23D
330
126
100
AcDbEntity
  8
06-99
100
AcDbLine
 10
304.9905774537349
 20
14.48699927471239
 30
0.0
 11
305.0434565217349
 21
14.66137866671232
 31
0.0
  0
LINE
  5
23E
330
126
100
AcDbEntity
  8
06-99
100
AcDbLine
 10
309.4520674977348
 20
14.26448449871236
 30
0.0
 11
309.5983590057348
 21
14.57965971071235
 31
0.0
  0
LINE
  5
23F
330
126
100
AcDbEntity
  8
06-99
100
AcDbLine
 10
309.5983590057348
 20
14.57965971071235
 30
0.0
 11
309.6731103417349
 21
14.74409554271244
 31
0.0
  0
LINE
  5
240
330
126
100
AcDbEntity
  8
06-99
100
AcDbLine
 10
309.6731103417349
 20
14.74409554271244
 30
0.0
 11
309.7541521377349
 21
14.94571102271237
 31
0.0
  0
LINE
  5
241
330
126
100
AcDbEntity
  8
06-99
100
AcDbLine
 10
309.7541521377349
 20
14.94571102271237
 30
0.0
 11
309.8288286297349
 21
15.19056495071243
 31
0.0
  0
LINE
  5
242
330
126
100
AcDbEntity
  8
06-99
100
AcDbLine
 10
309.8288286297349
 20
15.19056495071243
 30
0.0
 11
309.8482880697349
 21
15.19056495071243
 31
0.0
  0
LINE
  5
243
330
126
100
AcDbEntity
  8
06-99
100
AcDbLine
 10
309.8482880697349
 20
15.19056495071243
 30
0.0
 11
309.8286646857348
 21
14.94571102271237
 31
0.0
  0
LINE
  5
244
330
126
100
AcDbEntity
  8
06-99
100
AcDbLine
 10
309.8286646857348
 20
14.94571102271237
 30
0.0
 11
309.8320718697348
 21
14.74409554271244
 31
0.0
  0
LINE
  5
245
330
126
100
AcDbEntity
  8
06-99
100
AcDbLine
 10
309.8320718697348
 20
14.74409554271244
 30
0.0
 11
309.8435051817348
 21
14.57965971071235
 31
0.0
  0
LINE
  5
246
330
126
100
AcDbEntity
  8
06-99
100
AcDbLine
 10
309.8435051817348
 20
14.57965971071235
 30
0.0
 11
309.868410413735
 21
14.26448449871236
 31
0.0
  0
LINE
  5
247
330
126
100
AcDbEntity
  8
06-99
100
AcDbLine
 10
309.868410413735
 20
14.26448449871236
 30
0.0
 11
309.4520674977348
 21
14.26448449871236
 31
0.0
  0
LINE
  5
248
330
126
100
AcDbEntity
  8
06-99
100
AcDbLine
 10
312.586705289735
 20
13.25281458671242
 30
0.0
 11
313.5672400977347
 21
13.25281458671242
 31
0.0
  0
LINE
  5
249
330
126
100
AcDbEntity
  8
06-99
100
AcDbLine
 10
313.5672400977347
 20
13.25281458671242
 30
0.0
 11
313.7440358817348
 21
14.17110413471232
 31
0.0
  0
LINE
  5
24A
330
126
100
AcDbEntity
  8
06-99
100
AcDbLine
 10
313.7440358817348
 20
14.17110413471232
 30
0.0
 11
314.053626305735
 21
13.25281458671242
 31
0.0
  0
LINE
  5
24B
330
126
100
AcDbEntity
  8
06-99
100
AcDbLine
 10
314.053626305735
 20
13.25281458671242
 30
0.0
 11
315.1742370057348
 21
13.25281458671242
 31
0.0
  0
LINE
  5
24C
330
126
100
AcDbEntity
  8
06-99
100
AcDbLine
 10
315.1742370057348
 20
13.25281458671242
 30
0.0
 11
314.6490673497349
 21
14.38511520671233
 31
0.0
  0
LINE
  5
24D
330
126
100
AcDbEntity
  8
06-99
100
AcDbLine
 10
314.6490673497349
 20
14.38511520671233
 30
0.0
 11
314.8084280457349
 21
14.42380955471236
 31
0.0
  0
LINE
  5
24E
330
126
100
AcDbEntity
  8
06-99
100
AcDbLine
 10
314.8084280457349
 20
14.42380955471236
 30
0.0
 11
314.9537002497348
 21
14.49881749871235
 31
0.0
  0
LINE
  5
24F
330
126
100
AcDbEntity
  8
06-99
100
AcDbLine
 10
314.9537002497348
 20
14.49881749871235
 30
0.0
 11
315.0813484737348
 21
14.60690292671233
 31
0.0
  0
LINE
  5
250
330
126
100
AcDbEntity
  8
06-99
100
AcDbLine
 10
315.0813484737348
 20
14.60690292671233
 30
0.0
 11
315.1878301017348
 21
14.74481903471235
 31
0.0
  0
LINE
  5
251
330
126
100
AcDbEntity
  8
06-99
100
AcDbLine
 10
315.1878301017348
 20
14.74481903471235
 30
0.0
 11
315.2695989537348
 21
14.90932258271232
 31
0.0
  0
LINE
  5
252
330
126
100
AcDbEntity
  8
06-99
100
AcDbLine
 10
315.2695989537348
 20
14.90932258271232
 30
0.0
 11
315.3231124137347
 21
15.09717033071234
 31
0.0
  0
LINE
  5
253
330
126
100
AcDbEntity
  8
06-99
100
AcDbLine
 10
315.3231124137347
 20
15.09717033071234
 30
0.0
 11
315.3445997697348
 21
15.26809264271236
 31
0.0
  0
LINE
  5
254
330
126
100
AcDbEntity
  8
06-99
100
AcDbLine
 10
315.3445997697348
 20
15.26809264271236
 30
0.0
 11
315.3403015857348
 21
15.42330127871241
 31
0.0
  0
LINE
  5
255
330
126
100
AcDbEntity
  8
06-99
100
AcDbLine
 10
315.3403015857348
 20
15.42330127871241
 30
0.0
 11
315.3102285537349
 21
15.56226163871236
 31
0.0
  0
LINE
  5
256
330
126
100
AcDbEntity
  8
06-99
100
AcDbLine
 10
315.3102285537349
 20
15.56226163871236
 30
0.0
 11
315.2543913657347
 21
15.68443555871226
 31
0.0
  0
LINE
  5
257
330
126
100
AcDbEntity
  8
06-99
100
AcDbLine
 10
315.2543913657347
 20
15.68443555871226
 30
0.0
 11
315.1728078417348
 21
15.78928843871239
 31
0.0
  0
LINE
  5
258
330
126
100
AcDbEntity
  8
06-99
100
AcDbLine
 10
315.1728078417348
 20
15.78928843871239
 30
0.0
 11
315.0654922377348
 21
15.87627855071235
 31
0.0
  0
LINE
  5
259
330
126
100
AcDbEntity
  8
06-99
100
AcDbLine
 10
315.0654922377348
 20
15.87627855071235
 30
0.0
 11
314.9324516817348
 21
15.94487485871235
 31
0.0
  0
LINE
  5
25A
330
126
100
AcDbEntity
  8
06-99
100
AcDbLine
 10
314.9324516817348
 20
15.94487485871235
 30
0.0
 11
314.7737075577347
 21
15.9945356347124
 31
0.0
  0
LINE
  5
25B
330
126
100
AcDbEntity
  8
06-99
100
AcDbLine
 10
314.7737075577347
 20
15.9945356347124
 30
0.0
 11
314.5892634297348
 21
16.02472627871236
 31
0.0
  0
LINE
  5
25C
330
126
100
AcDbEntity
  8
06-99
100
AcDbLine
 10
314.5892634297348
 20
16.02472627871236
 30
0.0
 11
314.3791442457348
 21
16.03490862671236
 31
0.0
  0
LINE
  5
25D
330
126
100
AcDbEntity
  8
06-99
100
AcDbLine
 10
314.3791442457348
 20
16.03490862671236
 30
0.0
 11
313.1223424137348
 21
16.03490862671236
 31
0.0
  0
LINE
  5
25E
330
126
100
AcDbEntity
  8
06-99
100
AcDbLine
 10
313.1223424137348
 20
16.03490862671236
 30
0.0
 11
312.586705289735
 21
13.25281458671242
 31
0.0
  0
LINE
  5
25F
330
126
100
AcDbEntity
  8
06-99
100
AcDbLine
 10
313.9650323937349
 20
15.31896517871234
 30
0.0
 11
314.1206829657349
 21
15.31896517871234
 31
0.0
  0
LINE
  5
260
330
126
100
AcDbEntity
  8
06-99
100
AcDbLine
 10
314.1206829657349
 20
15.31896517871234
 30
0.0
 11
314.2773528417349
 21
15.28538517071229
 31
0.0
  0
LINE
  5
261
330
126
100
AcDbEntity
  8
06-99
100
AcDbLine
 10
314.2773528417349
 20
15.28538517071229
 30
0.0
 11
314.3582200017347
 21
15.19041169871241
 31
0.0
  0
LINE
  5
262
330
126
100
AcDbEntity
  8
06-99
100
AcDbLine
 10
314.3582200017347
 20
15.19041169871241
 30
0.0
 11
314.3632167297349
 21
15.04270171871235
 31
0.0
  0
LINE
  5
263
330
126
100
AcDbEntity
  8
06-99
100
AcDbLine
 10
314.3632167297349
 20
15.04270171871235
 30
0.0
 11
314.3008645497348
 21
14.8970018347124
 31
0.0
  0
LINE
  5
264
330
126
100
AcDbEntity
  8
06-99
100
AcDbLine
 10
314.3008645497348
 20
14.8970018347124
 30
0.0
 11
314.1832917537348
 21
14.80578125471237
 31
0.0
  0
LINE
  5
265
330
126
100
AcDbEntity
  8
06-99
100
AcDbLine
 10
314.1832917537348
 20
14.80578125471237
 30
0.0
 11
314.0158122657348
 21
14.77422203471229
 31
0.0
  0
LINE
  5
266
330
126
100
AcDbEntity
  8
06-99
100
AcDbLine
 10
314.0158122657348
 20
14.77422203471229
 30
0.0
 11
313.8601616937349
 21
14.77422203471229
 31
0.0
  0
LINE
  5
267
330
126
100
AcDbEntity
  8
06-99
100
AcDbLine
 10
313.8601616937349
 20
14.77422203471229
 30
0.0
 11
313.9650323937349
 21
15.31896517871234
 31
0.0
  0
LINE
  5
268
330
126
100
AcDbEntity
  8
06-99
100
AcDbLine
 10
309.579801257735
 20
17.12736016271231
 30
0.0
 11
311.3988989337349
 21
17.12736016271231
 31
0.0
  0
LINE
  5
269
330
126
100
AcDbEntity
  8
06-99
100
AcDbLine
 10
311.3988989337349
 20
17.12736016271231
 30
0.0
 11
311.3988989337349
 21
17.44082465471229
 31
0.0
  0
LINE
  5
26A
330
126
100
AcDbEntity
  8
06-99
100
AcDbLine
 10
311.3988989337349
 20
17.44082465471229
 30
0.0
 11
309.913819337735
 21
17.44082465471229
 31
0.0
  0
LINE
  5
26B
330
126
100
AcDbEntity
  8
06-99
100
AcDbLine
 10
309.913819337735
 20
17.44082465471229
 30
0.0
 11
309.913819337735
 21
19.02353290271242
 31
0.0
  0
LINE
  5
26C
330
126
100
AcDbEntity
  8
06-99
100
AcDbLine
 10
309.913819337735
 20
19.02353290271242
 30
0.0
 11
311.3988989337349
 21
19.02353290271242
 31
0.0
  0
LINE
  5
26D
330
126
100
AcDbEntity
  8
06-99
100
AcDbLine
 10
311.3988989337349
 20
19.02353290271242
 30
0.0
 11
311.3988989337349
 21
19.3369973947124
 31
0.0
  0
LINE
  5
26E
330
126
100
AcDbEntity
  8
06-99
100
AcDbLine
 10
311.3988989337349
 20
19.3369973947124
 30
0.0
 11
309.913819337735
 21
19.3369973947124
 31
0.0
  0
LINE
  5
26F
330
126
100
AcDbEntity
  8
06-99
100
AcDbLine
 10
309.913819337735
 20
19.3369973947124
 30
0.0
 11
309.913819337735
 21
20.48806960271236
 31
0.0
  0
LINE
  5
270
330
126
100
AcDbEntity
  8
06-99
100
AcDbLine
 10
309.913819337735
 20
20.48806960271236
 30
0.0
 11
311.3988989337349
 21
20.48806960271236
 31
0.0
  0
LINE
  5
271
330
126
100
AcDbEntity
  8
06-99
100
AcDbLine
 10
311.3988989337349
 20
20.48806960271236
 30
0.0
 11
311.3988989337349
 21
20.80153409471234
 31
0.0
  0
LINE
  5
272
330
126
100
AcDbEntity
  8
06-99
100
AcDbLine
 10
311.3988989337349
 20
20.80153409471234
 30
0.0
 11
309.579801257735
 21
20.80153409471234
 31
0.0
  0
LINE
  5
273
330
126
100
AcDbEntity
  8
06-99
100
AcDbLine
 10
309.579801257735
 20
20.80153409471234
 30
0.0
 11
309.579801257735
 21
17.12736016271231
 31
0.0
  0
LINE
  5
274
330
126
100
AcDbEntity
  8
06-99
100
AcDbLine
 10
304.853024873735
 20
17.12736016271231
 30
0.0
 11
305.1870465177349
 21
17.12736016271231
 31
0.0
  0
LINE
  5
275
330
126
100
AcDbEntity
  8
06-99
100
AcDbLine
 10
305.1870465177349
 20
17.12736016271231
 30
0.0
 11
305.1870465177349
 21
20.09753361071233
 31
0.0
  0
LINE
  5
276
330
126
100
AcDbEntity
  8
06-99
100
AcDbLine
 10
305.1870465177349
 20
20.09753361071233
 30
0.0
 11
307.7666661537348
 21
17.01858688271232
 31
0.0
  0
LINE
  5
277
330
126
100
AcDbEntity
  8
06-99
100
AcDbLine
 10
307.7666661537348
 20
17.01858688271232
 30
0.0
 11
307.7666661537348
 21
20.80153409471234
 31
0.0
  0
LINE
  5
278
330
126
100
AcDbEntity
  8
06-99
100
AcDbLine
 10
307.7666661537348
 20
20.80153409471234
 30
0.0
 11
307.4326587657349
 21
20.80153409471234
 31
0.0
  0
LINE
  5
279
330
126
100
AcDbEntity
  8
06-99
100
AcDbLine
 10
307.4326587657349
 20
20.80153409471234
 30
0.0
 11
307.4326587657349
 21
17.88274639871235
 31
0.0
  0
LINE
  5
27A
330
126
100
AcDbEntity
  8
06-99
100
AcDbLine
 10
307.4326587657349
 20
17.88274639871235
 30
0.0
 11
304.853024873735
 21
20.95568422271231
 31
0.0
  0
LINE
  5
27B
330
126
100
AcDbEntity
  8
06-99
100
AcDbLine
 10
304.853024873735
 20
20.95568422271231
 30
0.0
 11
304.853024873735
 21
17.12736016271231
 31
0.0
  0
LINE
  5
27C
330
126
100
AcDbEntity
  8
06-99
100
AcDbLine
 10
313.448423465735
 20
20.50862675471228
 30
0.0
 11
313.7824308537349
 21
20.50862675471228
 31
0.0
  0
LINE
  5
27D
330
126
100
AcDbEntity
  8
06-99
100
AcDbLine
 10
313.7824308537349
 20
20.50862675471228
 30
0.0
 11
313.9866159777348
 21
20.50030837871236
 31
0.0
  0
LINE
  5
27E
330
126
100
AcDbEntity
  8
06-99
100
AcDbLine
 10
313.9866159777348
 20
20.50030837871236
 30
0.0
 11
314.1604465137349
 21
20.47385993471232
 31
0.0
  0
LINE
  5
27F
330
126
100
AcDbEntity
  8
06-99
100
AcDbLine
 10
314.1604465137349
 20
20.47385993471232
 30
0.0
 11
314.3048954337349
 21
20.42705748671227
 31
0.0
  0
LINE
  5
280
330
126
100
AcDbEntity
  8
06-99
100
AcDbLine
 10
314.3048954337349
 20
20.42705748671227
 30
0.0
 11
314.4209178897349
 21
20.35767353471232
 31
0.0
  0
LINE
  5
281
330
126
100
AcDbEntity
  8
06-99
100
AcDbLine
 10
314.4209178897349
 20
20.35767353471232
 30
0.0
 11
314.509479725735
 21
20.26348057871229
 31
0.0
  0
LINE
  5
282
330
126
100
AcDbEntity
  8
06-99
100
AcDbLine
 10
314.509479725735
 20
20.26348057871229
 30
0.0
 11
314.5715432217348
 21
20.14225111871241
 31
0.0
  0
LINE
  5
283
330
126
100
AcDbEntity
  8
06-99
100
AcDbLine
 10
314.5715432217348
 20
20.14225111871241
 30
0.0
 11
314.6080777857349
 21
19.99175052671228
 31
0.0
  0
LINE
  5
284
330
126
100
AcDbEntity
  8
06-99
100
AcDbLine
 10
314.6080777857349
 20
19.99175052671228
 30
0.0
 11
314.6200421337348
 21
19.80976199471234
 31
0.0
  0
LINE
  5
285
330
126
100
AcDbEntity
  8
06-99
100
AcDbLine
 10
314.6200421337348
 20
19.80976199471234
 30
0.0
 11
314.6074469577349
 21
19.63100957471232
 31
0.0
  0
LINE
  5
286
330
126
100
AcDbEntity
  8
06-99
100
AcDbLine
 10
314.6074469577349
 20
19.63100957471232
 30
0.0
 11
314.5693763097349
 21
19.48586211071233
 31
0.0
  0
LINE
  5
287
330
126
100
AcDbEntity
  8
06-99
100
AcDbLine
 10
314.5693763097349
 20
19.48586211071233
 30
0.0
 11
314.5054167657349
 21
19.37130445871241
 31
0.0
  0
LINE
  5
288
330
126
100
AcDbEntity
  8
06-99
100
AcDbLine
 10
314.5054167657349
 20
19.37130445871241
 30
0.0
 11
314.4151370817349
 21
19.28432860271238
 31
0.0
  0
LINE
  5
289
330
126
100
AcDbEntity
  8
06-99
100
AcDbLine
 10
314.4151370817349
 20
19.28432860271238
 30
0.0
 11
314.298123833735
 21
19.22192296271237
 31
0.0
  0
LINE
  5
28A
330
126
100
AcDbEntity
  8
06-99
100
AcDbLine
 10
314.298123833735
 20
19.22192296271237
 30
0.0
 11
314.1539493417349
 21
19.18107239471232
 31
0.0
  0
LINE
  5
28B
330
126
100
AcDbEntity
  8
06-99
100
AcDbLine
 10
314.1539493417349
 20
19.18107239471232
 30
0.0
 11
313.9821894897348
 21
19.15877244671242
 31
0.0
  0
LINE
  5
28C
330
126
100
AcDbEntity
  8
06-99
100
AcDbLine
 10
313.9821894897348
 20
19.15877244671242
 30
0.0
 11
313.7824308537349
 21
19.15200797471237
 31
0.0
  0
LINE
  5
28D
330
126
100
AcDbEntity
  8
06-99
100
AcDbLine
 10
313.7824308537349
 20
19.15200797471237
 30
0.0
 11
313.448423465735
 21
19.15200797471237
 31
0.0
  0
LINE
  5
28E
330
126
100
AcDbEntity
  8
06-99
100
AcDbLine
 10
313.448423465735
 20
19.15200797471237
 30
0.0
 11
313.448423465735
 21
20.50862675471228
 31
0.0
  0
LINE
  5
28F
330
126
100
AcDbEntity
  8
06-99
100
AcDbLine
 10
315.3445997697348
 20
17.12736016271231
 30
0.0
 11
314.0239560057348
 21
18.87965422271236
 31
0.0
  0
LINE
  5
290
330
126
100
AcDbEntity
  8
06-99
100
AcDbLine
 10
314.0239560057348
 20
18.87965422271236
 30
0.0
 11
314.212373993735
 21
18.8922529627124
 31
0.0
  0
LINE
  5
291
330
126
100
AcDbEntity
  8
06-99
100
AcDbLine
 10
314.212373993735
 20
18.8922529627124
 30
0.0
 11
314.3829007017349
 21
18.92942191871231
 31
0.0
  0
LINE
  5
292
330
126
100
AcDbEntity
  8
06-99
100
AcDbLine
 10
314.3829007017349
 20
18.92942191871231
 30
0.0
 11
314.5343992137349
 21
18.99023088671242
 31
0.0
  0
LINE
  5
293
330
126
100
AcDbEntity
  8
06-99
100
AcDbLine
 10
314.5343992137349
 20
18.99023088671242
 30
0.0
 11
314.6657219217349
 21
19.07375679071236
 31
0.0
  0
LINE
  5
294
330
126
100
AcDbEntity
  8
06-99
100
AcDbLine
 10
314.6657219217349
 20
19.07375679071236
 30
0.0
 11
314.7757283457349
 21
19.17905873471233
 31
0.0
  0
LINE
  5
295
330
126
100
AcDbEntity
  8
06-99
100
AcDbLine
 10
314.7757283457349
 20
19.17905873471233
 30
0.0
 11
314.8632744417348
 21
19.30521720671237
 31
0.0
  0
LINE
  5
296
330
126
100
AcDbEntity
  8
06-99
100
AcDbLine
 10
314.8632744417348
 20
19.30521720671237
 30
0.0
 11
314.9272232937349
 21
19.4512948747124
 31
0.0
  0
LINE
  5
297
330
126
100
AcDbEntity
  8
06-99
100
AcDbLine
 10
314.9272232937349
 20
19.4512948747124
 30
0.0
 11
314.9664308577349
 21
19.61636153471238
 31
0.0
  0
LINE
  5
298
330
126
100
AcDbEntity
  8
06-99
100
AcDbLine
 10
314.9664308577349
 20
19.61636153471238
 30
0.0
 11
314.9797530897347
 21
19.79949054671237
 31
0.0
  0
LINE
  5
299
330
126
100
AcDbEntity
  8
06-99
100
AcDbLine
 10
314.9797530897347
 20
19.79949054671237
 30
0.0
 11
314.969937833735
 21
19.97455422671237
 31
0.0
  0
LINE
  5
29A
330
126
100
AcDbEntity
  8
06-99
100
AcDbLine
 10
314.969937833735
 20
19.97455422671237
 30
0.0
 11
314.940481373735
 21
20.13261762671238
 31
0.0
  0
LINE
  5
29B
330
126
100
AcDbEntity
  8
06-99
100
AcDbLine
 10
314.940481373735
 20
20.13261762671238
 30
0.0
 11
314.8913551977349
 21
20.27374846271237
 31
0.0
  0
LINE
  5
29C
330
126
100
AcDbEntity
  8
06-99
100
AcDbLine
 10
314.8913551977349
 20
20.27374846271237
 30
0.0
 11
314.822541485735
 21
20.39801445071225
 31
0.0
  0
LINE
  5
29D
330
126
100
AcDbEntity
  8
06-99
100
AcDbLine
 10
314.822541485735
 20
20.39801445071225
 30
0.0
 11
314.7340152897349
 21
20.50548687071239
 31
0.0
  0
LINE
  5
29E
330
126
100
AcDbEntity
  8
06-99
100
AcDbLine
 10
314.7340152897349
 20
20.50548687071239
 30
0.0
 11
314.625751661735
 21
20.59623700271237
 31
0.0
  0
LINE
  5
29F
330
126
100
AcDbEntity
  8
06-99
100
AcDbLine
 10
314.625751661735
 20
20.59623700271237
 30
0.0
 11
314.4977292177349
 21
20.67032899871231
 31
0.0
  0
LINE
  5
2A0
330
126
100
AcDbEntity
  8
06-99
100
AcDbLine
 10
314.4977292177349
 20
20.67032899871231
 30
0.0
 11
314.3499230097348
 21
20.72783413871235
 31
0.0
  0
LINE
  5
2A1
330
126
100
AcDbEntity
  8
06-99
100
AcDbLine
 10
314.3499230097348
 20
20.72783413871235
 30
0.0
 11
314.1823116537348
 21
20.76882726671238
 31
0.0
  0
LINE
  5
2A2
330
126
100
AcDbEntity
  8
06-99
100
AcDbLine
 10
314.1823116537348
 20
20.76882726671238
 30
0.0
 11
313.9948737657348
 21
20.79336897071238
 31
0.0
  0
LINE
  5
2A3
330
126
100
AcDbEntity
  8
06-99
100
AcDbLine
 10
313.9948737657348
 20
20.79336897071238
 30
0.0
 11
313.7875808337349
 21
20.80153409471234
 31
0.0
  0
LINE
  5
2A4
330
126
100
AcDbEntity
  8
06-99
100
AcDbLine
 10
313.7875808337349
 20
20.80153409471234
 30
0.0
 11
313.7875808337349
 21
20.80153409471234
 31
0.0
  0
LINE
  5
2A5
330
126
100
AcDbEntity
  8
06-99
100
AcDbLine
 10
313.7875808337349
 20
20.80153409471234
 30
0.0
 11
313.1144053857349
 21
20.80153409471234
 31
0.0
  0
LINE
  5
2A6
330
126
100
AcDbEntity
  8
06-99
100
AcDbLine
 10
313.1144053857349
 20
20.80153409471234
 30
0.0
 11
313.1144053857349
 21
17.12736016271231
 31
0.0
  0
LINE
  5
2A7
330
126
100
AcDbEntity
  8
06-99
100
AcDbLine
 10
313.1144053857349
 20
17.12736016271231
 30
0.0
 11
313.448423465735
 21
17.12736016271231
 31
0.0
  0
LINE
  5
2A8
330
126
100
AcDbEntity
  8
06-99
100
AcDbLine
 10
313.448423465735
 20
17.12736016271231
 30
0.0
 11
313.448423465735
 21
18.87965422271236
 31
0.0
  0
LINE
  5
2A9
330
126
100
AcDbEntity
  8
06-99
100
AcDbLine
 10
313.448423465735
 20
18.87965422271236
 30
0.0
 11
313.6488378777349
 21
18.87965422271236
 31
0.0
  0
LINE
  5
2AA
330
126
100
AcDbEntity
  8
06-99
100
AcDbLine
 10
313.6488378777349
 20
18.87965422271236
 30
0.0
 11
314.9386387857348
 21
17.12736016271231
 31
0.0
  0
LINE
  5
2AB
330
126
100
AcDbEntity
  8
06-99
100
AcDbLine
 10
314.9386387857348
 20
17.12736016271231
 30
0.0
 11
315.3445997697348
 21
17.12736016271231
 31
0.0
  0
TEXT
  5
2AC
330
126
100
AcDbEntity
  8
06-99
100
AcDbText
 10
294.6083578687944
 20
10.63320974709819
 30
0.0
 40
1.4256
  1
GmbH & Co KG
 41
1.199203187251
 51
15.0
  7
ROMAND8
 72
     5
 11
315.0419578687945
 21
10.63320974709819
 31
0.0
100
AcDbText
  0
TEXT
  5
2AE
330
126
100
AcDbEntity
  8
06-99
100
AcDbText
 10
294.7098146233783
 20
8.391016474674643
 30
0.0
 40
1.4256
  1
72774 Reutlingen
 50
0.5663244663116128
 41
1.087840993687879
 51
15.0
  7
ROMAND8
 72
     5
 11
314.9434146233783
 21
8.591016474674631
 31
0.0
100
AcDbText
  0
TEXT
  5
2AF
330
126
100
AcDbEntity
  8
08-99
100
AcDbText
 10
282.4141179695723
 20
49.4500923918223
 30
0.0
 40
2.25
  1
Zul. Abw.
 51
15.0
  7
ROMANS8
100
AcDbText
  0
TEXT
  5
2B0
330
126
100
AcDbEntity
  8
08-99
100
AcDbText
 10
332.2099260900184
 20
50.28616492075241
 30
0.0
 40
2.0
  1
Mat. Art.
 51
15.0
  7
ROMANS8
100
AcDbText
  0
TEXT
  5
2B1
330
126
100
AcDbEntity
  8
08-99
100
AcDbText
 10
364.4865307401076
 20
50.40431414472369
 30
0.0
 40
2.0
  1
Oberfläche:
 51
15.0
  7
ROMANS8
100
AcDbText
  0
TEXT
  5
2B2
330
126
100
AcDbEntity
  8
08-99
100
AcDbText
 10
393.7625376083154
 20
42.73764747805694
 30
0.0
 40
2.0
  1
Blech Dicke:
 51
15.0
  7
ROMANS8
100
AcDbText
  0
TEXT
  5
2B3
330
126
100
AcDbEntity
  8
08-99
100
AcDbText
 10
396.4380277982925
 20
50.28616492075252
 30
0.0
 40
2.0
  1
Maßstab:
 51
15.0
  7
ROMANS8
100
AcDbText
  0
LINE
  5
2B4
330
126
100
AcDbEntity
  8
01-99
100
AcDbLine
 10
323.9999997697348
 20
47.88888965037898
 30
0.0
 11
300.9999997697348
 21
47.88888965037898
 31
0.0
  0
LINE
  5
2B5
330
126
100
AcDbEntity
  8
01-99
100
AcDbLine
 10
323.9999997697348
 20
45.33333409471225
 30
0.0
 11
300.9999997697348
 21
45.33333409471225
 31
0.0
  0
LINE
  5
2B6
330
126
100
AcDbEntity
  8
01-99
100
AcDbLine
 10
323.9999997697349
 20
41.50000076137894
 30
0.0
 11
300.9999997697347
 21
41.50000076137897
 31
0.0
  0
ATTDEF
  5
2B7
330
126
100
AcDbEntity
  8
06-99
100
AcDbText
 10
325.495446508912
 20
27.18783945866119
 30
0.0
 40
4.5
  1

 41
0.9
  7
ROMANS8
100
AcDbAttributeDefinition
280
     0
  3
Benennung/Teil
  2
TEILE
 70
     0
280
     0
  0
ATTDEF
  5
2B8
330
126
100
AcDbEntity
  8
06-99
100
AcDbText
 10
325.495446508912
 20
19.89177436492207
 30
0.0
 40
4.5
  1

 41
0.9
  7
ROMANS8
100
AcDbAttributeDefinition
280
     0
  3
Benennung/Teil2
  2
TEILE2
 70
     0
280
     0
  0
ATTDEF
  5
2B9
330
126
100
AcDbEntity
  8
06-99
100
AcDbText
 10
400.3473859814493
 20
46.33333409471231
 30
0.0
 40
3.375
  1

  7
ROMANS8
100
AcDbAttributeDefinition
280
     0
  3
Maßstab
  2
:
 70
     0
280
     0
  0
ATTDEF
  5
2BA
330
126
100
AcDbEntity
  8
06-99
100
AcDbText
 10
301.9970675691022
 20
28.44168622941026
 30
0.0
 40
2.5
  1

 41
0.9
  7
ROMANS8
100
AcDbAttributeDefinition
280
     0
  3
Name
  2
NAME
 70
     0
280
     0
  0
ATTDEF
  5
2BB
330
126
100
AcDbEntity
  8
06-99
100
AcDbText
 10
288.4931462216289
 20
28.46123593549021
 30
0.0
 40
2.5
  1

 50
359.9144597696142
 41
0.9542572414211148
  7
ROMANS8
 72
     5
 11
299.7397368901736
 21
28.44444522804565
 31
0.0
100
AcDbAttributeDefinition
280
     0
  3
Datum
  2
DATUM
 70
     0
280
     0
  0
ATTDEF
  5
2BC
330
126
100
AcDbEntity
  8
06-99
100
AcDbText
 10
387.5063437368931
 20
8.492900561667681
 30
0.0
 40
2.99376
  1

  7
ROMANS8
100
AcDbAttributeDefinition
280
     0
  3
Ident-Nummer
  2
ID.NR
 70
     0
280
     0
  0
ATTDEF
  5
2BD
330
126
100
AcDbEntity
  8
06-99
100
AcDbText
 10
325.7312660254454
 20
38.66666740582343
 30
0.0
 40
3.0
  1

 41
0.9
  7
ROMANS8
100
AcDbAttributeDefinition
280
     0
  3
Zuschnitts.Länge
  2
LÄNGE
 70
     0
280
     0
  0
ATTDEF
  5
2BE
330
126
100
AcDbEntity
  8
06-99
100
AcDbText
 10
359.1808046815046
 20
38.6781046318238
 30
0.0
 40
3.0
  1

 41
0.9
  7
ROMANS8
100
AcDbAttributeDefinition
280
     0
  3
Zuschnitts Breite
  2
BREITE
 70
     0
280
     0
  0
ATTDEF
  5
2BF
330
126
100
AcDbEntity
  8
06-99
100
AcDbText
 10
399.6090918964667
 20
38.66666742804574
 30
0.0
 40
3.09375
  1

  7
ROMANS8
100
AcDbAttributeDefinition
280
     0
  3
Blech.Dicke
  2
1.0
 70
     0
280
     0
  0
ATTDEF
  5
2C0
330
126
100
AcDbEntity
  8
06-99
100
AcDbText
 10
373.1277853711375
 20
46.33333409471243
 30
0.0
 40
3.0
  1

  7
ROMANS8
 72
     1
 11
373.1277853711375
 21
46.33333409471243
 31
0.0
100
AcDbAttributeDefinition
280
     0
  3
Oberfläche
  2
IV
 70
     0
280
     0
  0
ATTDEF
  5
2C1
330
126
100
AcDbEntity
  8
06-99
100
AcDbText
 10
332.2747403058506
 20
46.33333409471219
 30
0.0
 40
3.375
  1
1.4301
  7
ROMANS8
100
AcDbAttributeDefinition
280
     0
  3
Mat.Art
  2
1.4301
 70
     0
280
     0
  0
ATTDEF
  5
2C2
330
126
100
AcDbEntity
  8
06-99
100
AcDbText
 10
355.0006336566149
 20
8.504397365733609
 30
0.0
 40
3.168
  1

 41
0.9
  7
ROMANS8
100
AcDbAttributeDefinition
280
     0
  3
Auftrags Nr.
  2
AUFTRAGS.NR.
 70
     0
280
     0
  0
ATTDEF
  5
2C3
330
126
100
AcDbEntity
  8
06-99
100
AcDbText
 10
325.4999997697348
 20
8.500000761378998
 30
0.0
 40
3.168
  1

 41
0.9
  7
ROMANS8
100
AcDbAttributeDefinition
280
     0
  3
Sonder-NR,WPS
  2
SONDER-NR
 70
     0
280
     0
  0
ATTDEF
  5
2C4
330
126
100
AcDbEntity
  8
06-99
100
AcDbText
 10
255.4997507647431
 20
7.601810830638839
 30
0.0
 40
1.5
  1

 41
0.9
  7
ROMANS8
100
AcDbAttributeDefinition
280
     0
  3
ERSETZT.Durch
  2
ERSETZT.DURCH
 70
     0
280
     0
  0
ATTDEF
  5
2C5
330
126
100
AcDbEntity
  8
06-99
100
AcDbText
 10
230.4994675499334
 20
7.597457159251405
 30
0.0
 40
1.5
  1

 41
0.9
  7
ROMANS8
100
AcDbAttributeDefinition
280
     0
  3
ERSETZT.Für
  2
ERSETZT.FÜR
 70
     0
280
     0
  0
ATTDEF
  5
2C6
330
126
100
AcDbEntity
  8
06-99
100
AcDbText
 10
309.0037152733153
 20
48.66851190138698
 30
0.0
 40
1.287
  1
DIN A3
  7
ROMANS8
 72
     1
 11
312.2518581304581
 21
48.66851190138698
 31
0.0
100
AcDbAttributeDefinition
280
     0
  3
Format
  2
FORMAT
 70
     0
280
     0
  0
ATTDEF
  5
2C7
330
126
100
AcDbEntity
  8
06-99
100
AcDbText
 10
304.9914283411633
 20
38.39666742804565
 30
0.0
 40
2.34
  1
DIN 2768
  7
ROMANS8
 72
     1
 11
313.0142854840205
 21
38.39666742804565
 31
0.0
100
AcDbAttributeDefinition
280
     0
  3
Norm / Kanten
  2
NORM2
 70
     0
280
     0
  0
ATTDEF
  5
2C8
330
126
100
AcDbEntity
  8
06-99
100
AcDbText
 10
301.8157140554491
 20
42.23000076137895
 30
0.0
 40
2.34
  1
DIN 6930-M
  7
ROMANS8
 72
     1
 11
312.5128569125919
 21
42.23000076137895
 31
0.0
100
AcDbAttributeDefinition
280
     0
  3
Norm / Fräsen
  2
NORM1
 70
     0
280
     0
  0
ENDBLK
  5
2C9
330
126
100
AcDbEntity
  8
0
100
AcDbBlockEnd
  0
BLOCK
  5
BA
330
B7
100
AcDbEntity
  8
0
100
AcDbBlockBegin
  2
aaaaWagner
 70
     0
 10
0.0
 20
0.0
 30
0.0
  3
aaaaWagner
  1

  0
LWPOLYLINE
  5
BB
330
B7
100
AcDbEntity
  8
02TNR-01
100
AcDbPolyline
 90
      133
 70
     1
 43
0.0135
 10
2.64276749999999
 20
8.613321999999925
 10
2.947701000000051
 20
8.879334999999969
 10
2.838868499999989
 20
9.054852999999866
 10
2.714389500000038
 20
9.213374499999986
 10
2.57469600000013
 20
9.35495800000001
 10
2.420237999999926
 20
9.479670999999882
 10
2.25144750000004
 20
9.587562999999931
 10
2.068760999999994
 20
9.678692499999897
 10
1.872623999999973
 20
9.753126999999949
 10
1.663468500000135
 20
9.810915999999906
 10
1.441735500000049
 20
9.852118000000018
 10
1.20786600000008
 20
9.876800499999944
 10
0.9622965000000931
 20
9.885012999999958
 10
0.759108000000083
 20
9.8773584999999
 10
0.5624669999999697
 20
9.854727999999909
 10
0.372792000000004
 20
9.817611999999996
 10
0.1905060000001413
 20
9.766509999999925
 10
0.0160275000000638
 20
9.701921499999969
 10
-0.1502339999999549
 20
9.6243414999999
 10
-0.3078464999999824
 20
9.534264999999891
 10
-0.4564004999999725
 20
9.432186999999885
 10
-0.5954774999999018
 20
9.318602499999997
 10
-0.7246499999999969
 20
9.194015499999977
 10
-0.8435129999999162
 20
9.058911999999963
 10
-0.9516390000000001
 20
8.913800499999979
 10
-1.048609499999884
 20
8.759166999999933
 10
-1.134010499999931
 20
8.595510999999987
 10
-1.207418999999958
 20
8.42332749999997
 10
-1.268420999999875
 20
8.243120499999918
 10
-1.316597999999885
 20
8.05537599999991
 10
-1.351522499999987
 20
7.860597999999868
 10
-1.372789499999953
 20
7.659276999999974
 10
-1.379966999999965
 20
7.451912499999991
 10
-1.372879499999953
 20
7.238396500000021
 10
-1.351855499999942
 20
7.032165999999961
 10
-1.317273
 20
6.833621499999935
 10
-1.269509999999968
 20
6.643158999999855
 10
-1.208939999999984
 20
6.46117449999997
 10
-1.135936499999957
 20
6.288063999999963
 10
-1.050873000000024
 20
6.124218999999925
 10
-0.9541274999999131
 20
5.970039999999926
 10
-0.8460734999999885
 20
5.825918499999943
 10
-0.7270800000000009
 20
5.692254999999931
 10
-0.5975339999999961
 20
5.569440999999983
 10
-0.4577954999999747
 20
5.457876999999882
 10
-0.308251499999983
 20
5.357954499999948
 10
-0.1492709999999988
 20
5.270069499999976
 10
0.0187680000000228
 20
5.194622499999979
 10
0.1954964999999902
 20
5.132004999999992
 10
0.3805320000001302
 20
5.082613000000037
 10
0.5735100000000557
 20
5.046842500000025
 10
0.7740435000000617
 20
5.025089499999921
 10
0.9817679999999882
 20
5.017749999999921
 10
1.188835500000095
 20
5.024382999999943
 10
1.387488000000075
 20
5.044128999999998
 10
1.577487000000019
 20
5.076744999999959
 10
1.758594000000016
 20
5.121987999999987
 10
1.930574999999976
 20
5.179619500000001
 10
2.093186999999943
 20
5.24940099999992
 10
2.246196000000054
 20
5.331089499999961
 10
2.389354500000081
 20
5.424450999999976
 10
2.522437500000023
 20
5.529242499999895
 10
2.645193000000062
 20
5.645216499999946
 10
2.757391500000039
 20
5.772147999999901
 10
2.858794500000044
 20
5.909780499999897
 10
2.949159000000122
 20
6.057888999999931
 10
3.028246500000022
 20
6.21622149999996
 10
3.095823000000109
 20
6.384543999999891
 10
3.151650000000017
 20
6.562613499999883
 10
3.195480000000088
 20
6.750191499999914
 10
3.227088000000094
 20
6.947039499999959
 10
3.246226500000034
 20
7.152918999999883
 10
3.252657000000112
 20
7.367582499999912
 10
3.252657000000112
 20
7.367582499999912
 10
3.252657000000112
 20
7.432458999999994
 10
1.189389000000005
 20
7.432458999999994
 10
1.189389000000005
 20
7.069110999999907
 10
2.79199200000005
 20
7.069110999999907
 10
2.778433500000005
 20
6.863879499999995
 10
2.743922999999995
 20
6.668619999999918
 10
2.689351500000043
 20
6.48416949999995
 10
2.61561000000006
 20
6.311369499999955
 10
2.523598500000048
 20
6.151047999999946
 10
2.414212500000076
 20
6.004055499999935
 10
2.288334000000077
 20
5.871215499999948
 10
2.146867500000098
 20
5.753378499999939
 10
1.99070400000005
 20
5.651367999999933
 10
1.820734500000071
 20
5.566030000000012
 10
1.637854500000003
 20
5.49819699999989
 10
1.442959500000142
 20
5.448710500000004
 10
1.236940500000059
 20
5.418402999999898
 10
1.020693000000051
 20
5.408115999999949
 10
0.8127885000001242
 20
5.418155499999897
 10
0.6129210000000285
 20
5.447679999999877
 10
0.4218375000000379
 20
5.495793999999932
 10
0.2402805000000399
 20
5.561606499999925
 10
0.0689835000000585
 20
5.644221999999899
 10
-0.0913064999998596
 20
5.742744999999956
 10
-0.2398514999999861
 20
5.856288999999947
 10
-0.3759045000000469
 20
5.983954000000039
 10
-0.4987274999999727
 20
6.124848999999926
 10
-0.6075824999999213
 20
6.27808299999998
 10
-0.7017224999999599
 20
6.442755999999917
 10
-0.7804095000000189
 20
6.617981499999928
 10
-0.8429009999998697
 20
6.802863999999885
 10
-0.8884544999999661
 20
6.996503500000017
 10
-0.9163320000000112
 20
7.19801799999999
 10
-0.9257864999999583
 20
7.406507499999861
 10
-0.9177224999998543
 20
7.619100999999943
 10
-0.8938544999999749
 20
7.823661999999899
 10
-0.854686499999957
 20
8.019560499999897
 10
-0.8007179999999607
 20
8.206170999999926
 10
-0.7324439999999868
 20
8.382867999999916
 10
-0.6503685000000133
 20
8.549030499999958
 10
-0.5549909999999727
 20
8.704024000000003
 10
-0.446806499999866
 20
8.847231999999962
 10
-0.3263190000000122
 20
8.978020000000014
 10
-0.194018999999912
 20
9.095766999999909
 10
-0.0504194999998617
 20
9.199842999999987
 10
0.1039935000001151
 20
9.289626999999995
 10
0.2687114999999949
 20
9.364488999999935
 10
0.443239500000118
 20
9.423803499999962
 10
0.6270825000000287
 20
9.466944999999896
 10
0.8197320000000445
 20
9.493292499999938
 10
1.020693000000051
 20
9.50221149999993
 10
1.245067500000004
 20
9.490952499999934
 10
1.45940250000001
 20
9.457319499999925
 10
1.663270500000066
 20
9.401523999999994
 10
1.85624400000006
 20
9.323777499999891
 10
2.037895500000104
 20
9.224300499999912
 10
2.207802000000015
 20
9.10329999999999
 10
2.365536000000133
 20
8.960996499999964
 10
2.510665500000072
 20
8.797596999999939
  0
LWPOLYLINE
  5
BE
330
B7
100
AcDbEntity
  8
02TNR-01
100
AcDbPolyline
 90
       12
 70
     1
 43
0.0135
 10
-1.117729499999995
 20
0.25
 10
1.260133500000165
 20
0.25
 10
1.443639000000075
 20
1.203113499999972
 10
0.3038295000001199
 20
1.203113499999972
 10
0.3747675000000754
 20
1.571582499999863
 10
1.381917000000157
 20
1.571582499999863
 10
1.555004999999937
 20
2.470641999999884
 10
0.5478555000000825
 20
2.470641999999884
 10
0.6131415000000971
 20
2.809649499999864
 10
1.723471500000073
 20
2.809649499999864
 10
1.906963500000074
 20
3.762744999999995
 10
-0.4414199999999937
 20
3.762744999999995
  0
LWPOLYLINE
  5
BF
330
B7
100
AcDbEntity
  8
02TNR-01
100
AcDbPolyline
 90
        4
 70
     1
 43
0.0135
 10
-18.58033499999988
 20
1.042440999999939
 10
-2.851485000000025
 20
1.042440999999939
 10
-3.007518000000004
 20
0.2490954999999531
 10
-18.73636349999992
 20
0.2490954999999531
  0
SOLID
  5
C0
330
B7
100
AcDbEntity
  8
02TNR-01
100
AcDbTrace
 10
-18.58033499999988
 20
1.042440999999939
 30
0.0
 11
-2.851485000000025
 21
1.042440999999939
 31
0.0
 12
-18.73636349999992
 22
0.2490954999999531
 32
0.0
 13
-3.007518000000004
 23
0.2490954999999531
 33
0.0
  0
LWPOLYLINE
  5
C1
330
B7
100
AcDbEntity
  8
02TNR-01
100
AcDbPolyline
 90
       10
 70
     1
 43
0.0135
 10
-11.77856699999995
 20
5.017749999999921
 10
-10.54581449999989
 20
8.898806499999977
 10
-9.261136499999906
 20
5.017749999999921
 10
-7.710440999999946
 20
9.781211499999926
 10
-8.145149999999944
 20
9.781211499999926
 10
-9.261136499999906
 20
6.108860499999877
 10
-10.54581449999989
 20
9.962876499999879
 10
-11.77856699999995
 20
6.076419999999984
 10
-12.93997200000001
 20
9.781211499999926
 10
-13.38116999999988
 20
9.781211499999926
  0
LWPOLYLINE
  5
C2
330
B7
100
AcDbEntity
  8
02TNR-01
100
AcDbPolyline
 90
        3
 70
     1
 43
0.0135
 10
-5.492489999999861
 20
7.075595499999963
 10
-4.668476999999938
 20
9.093458499999883
 10
-3.876899999999977
 20
7.075595499999963
  0
LWPOLYLINE
  5
C3
330
B7
100
AcDbEntity
  8
02TNR-01
100
AcDbPolyline
 90
        7
 70
     1
 43
0.0135
 10
-6.68091749999985
 20
5.142102999999906
 10
-6.251608499999974
 20
5.142102999999906
 10
-5.63523449999991
 20
6.712265499999944
 10
-3.740662499999871
 20
6.712265499999944
 10
-3.150221999999985
 20
5.142102999999906
 10
-2.689556999999922
 20
5.142102999999906
 10
-4.642520999999987
 20
9.962876499999879
  0
LWPOLYLINE
  5
C4
330
B7
100
AcDbEntity
  8
02TNR-01
100
AcDbPolyline
 90
        8
 70
     1
 43
0.0135
 10
9.602989500000035
 20
0.25
 10
10.95977550000009
 20
0.25
 10
11.15299200000004
 20
0.6921699999999192
 10
12.10610550000001
 20
0.6921699999999192
 10
12.13397400000008
 20
0.25
 10
13.48994549999998
 20
0.25
 10
12.93802049999999
 20
3.762744999999995
 10
11.53292250000004
 20
3.762744999999995
  0
LWPOLYLINE
  5
C5
330
B7
100
AcDbEntity
  8
02TNR-01
100
AcDbPolyline
 90
       34
 70
     1
 43
0.0135
 10
5.958610500000077
 20
2.028489999999919
 10
6.002832000000012
 20
2.028489999999919
 10
5.984831999999983
 20
1.808313999999995
 10
5.984296500000141
 20
1.616523999999913
 10
5.989471500000036
 20
1.448755000000005
 10
6.023982000000046
 20
0.25
 10
7.124483999999938
 20
0.25
 10
8.827589999999986
 20
3.762744999999995
 10
7.560061500000074
 20
3.762744999999995
 10
6.986964000000057
 20
2.215172499999937
 10
6.923703000000045
 20
2.037768999999912
 10
6.849245999999993
 20
1.807953999999881
 10
6.77498700000001
 20
1.522456000000033
 10
6.745525500000098
 20
1.522456000000033
 10
6.772957500000075
 20
1.771742499999959
 10
6.778713000000038
 20
1.970808999999917
 10
6.777399000000059
 20
2.121842499999956
 10
6.759236999999984
 20
3.762744999999995
 10
5.870010000000092
 20
3.762744999999995
 10
5.220007500000065
 20
2.121842499999956
 10
5.160535500000037
 20
1.970808999999917
 10
5.089633500000104
 20
1.771742499999959
 10
5.021067000000016
 20
1.522456000000033
 10
4.991605499999991
 20
1.522456000000033
 10
5.027281500000071
 20
1.807953999999881
 10
5.041321500000094
 20
2.037768999999912
 10
5.046366000000034
 20
2.215172499999937
 10
5.069185500000003
 20
3.762744999999995
 10
3.800842500000044
 20
3.762744999999995
 10
4.152144000000021
 20
0.25
 10
5.252641499999981
 20
0.25
 10
5.748739500000056
 20
1.448755000000005
 10
5.818530000000009
 20
1.616523999999913
 10
5.891844000000105
 20
1.808313999999995
  0
LWPOLYLINE
  5
C6
330
B7
100
AcDbEntity
  8
02TNR-01
100
AcDbPolyline
 90
       10
 70
     1
 43
0.0135
 10
11.52503850000005
 20
1.527360999999928
 10
11.7097500000001
 20
1.925309499999912
 10
11.80413300000009
 20
2.132930500000043
 10
11.9064585000001
 20
2.387495499999999
 10
12.00074700000004
 20
2.696654500000022
 10
12.02531700000008
 20
2.696654500000022
 10
12.00054
 20
2.387495499999999
 10
12.00484200000005
 20
2.132930500000043
 10
12.0192780000001
 20
1.925309499999912
 10
12.05072400000006
 20
1.527360999999928
  0
LWPOLYLINE
  5
C7
330
B7
100
AcDbEntity
  8
02TNR-01
100
AcDbPolyline
 90
       23
 70
     1
 43
0.0135
 10
15.4829145000001
 20
0.25
 10
16.72096350000004
 20
0.25
 10
16.9441905000001
 20
1.409456499999919
 10
17.33508749999998
 20
0.25
 10
18.75
 20
0.25
 10
18.08690700000011
 20
1.679672499999924
 10
18.28812000000016
 20
1.72852899999998
 10
18.47154450000005
 20
1.823235999999951
 10
18.63271650000001
 20
1.959707499999922
 10
18.76716300000009
 20
2.133843999999953
 10
18.87040650000006
 20
2.341550499999925
 10
18.93797400000005
 20
2.578731999999945
 10
18.96510450000016
 20
2.794542999999976
 10
18.9596775
 20
2.99051350000002
 10
18.92170650000003
 20
3.165968499999962
 10
18.85120500000005
 20
3.320228499999871
 10
18.74819550000006
 20
3.452618499999971
 10
18.61269600000003
 20
3.562454499999944
 10
18.44471550000003
 20
3.649065999999947
 10
18.244281
 20
3.711769000000003
 10
18.0113970000001
 20
3.74988849999994
 10
17.74609500000008
 20
3.762744999999995
 10
16.15922399999999
 20
3.762744999999995
  0
LWPOLYLINE
  5
C8
330
B7
100
AcDbEntity
  8
02TNR-01
100
AcDbPolyline
 90
        9
 70
     1
 43
0.0135
 10
17.22322650000001
 20
2.85877599999992
 10
17.41975500000012
 20
2.85877599999992
 10
17.61757050000005
 20
2.816376999999931
 10
17.71967549999999
 20
2.696460999999999
 10
17.72598450000009
 20
2.509958499999925
 10
17.64725700000008
 20
2.32599399999998
 10
17.4988065
 20
2.210816499999964
 10
17.28734250000002
 20
2.1709689999999
 10
17.09081400000002
 20
2.1709689999999
  0
LWPOLYLINE
  5
C9
330
B7
100
AcDbEntity
  8
02TNR-01
100
AcDbPolyline
 90
       12
 70
     1
 43
0.0135
 10
11.24410800000009
 20
5.142102999999906
 10
13.54094850000001
 20
5.142102999999906
 10
13.54094850000001
 20
5.537891499999943
 10
11.66584800000009
 20
5.537891499999943
 10
11.66584800000009
 20
7.536260500000025
 10
13.54094850000001
 20
7.536260500000025
 10
13.54094850000001
 20
7.932049000000006
 10
11.66584800000009
 20
7.932049000000006
 10
11.66584800000009
 20
9.385422999999946
 10
13.54094850000001
 20
9.385422999999946
 10
13.54094850000001
 20
9.781211499999926
 10
11.24410800000009
 20
9.781211499999926
  0
LWPOLYLINE
  5
CA
330
B7
100
AcDbEntity
  8
02TNR-01
100
AcDbPolyline
 90
        8
 70
     1
 43
0.0135
 10
5.275956000000064
 20
5.142102999999906
 10
5.697700499999996
 20
5.142102999999906
 10
5.697700499999996
 20
8.892321999999921
 10
8.954796000000101
 20
5.004762999999968
 10
8.954796000000101
 20
9.781211499999926
 10
8.53306950000001
 20
9.781211499999926
 10
8.53306950000001
 20
6.095873499999925
 10
5.275956000000064
 20
9.975845499999877
  0
LWPOLYLINE
  5
CB
330
B7
100
AcDbEntity
  8
02TNR-01
100
AcDbPolyline
 90
       19
 70
     1
 43
0.0135
 10
16.12873200000001
 20
9.411378999999897
 10
16.55045849999999
 20
9.411378999999897
 10
16.80826800000011
 20
9.400875999999925
 10
17.02775099999996
 20
9.367481499999939
 10
17.21013600000015
 20
9.308387499999867
 10
17.35662900000011
 20
9.22078149999993
 10
17.46844950000002
 20
9.101850999999896
 10
17.5468125000001
 20
8.94878349999999
 10
17.59294199999999
 20
8.758757499999887
 10
17.60804850000011
 20
8.528973999999948
 10
17.59214550000013
 20
8.303276499999924
 10
17.54407650000007
 20
8.120009499999923
 10
17.46331950000012
 20
7.975366000000008
 10
17.34933000000001
 20
7.865547999999989
 10
17.20158600000002
 20
7.786752999999976
 10
17.01954750000004
 20
7.735173999999915
 10
16.80267900000001
 20
7.707017500000006
 10
16.55045849999999
 20
7.698476499999969
 10
16.12873200000001
 20
7.698476499999969
  0
LWPOLYLINE
  5
CC
330
B7
100
AcDbEntity
  8
02TNR-01
100
AcDbPolyline
 90
       29
 70
     1
 43
0.0135
 10
18.52289400000006
 20
5.142102999999906
 10
16.85541450000005
 20
7.354595499999959
 10
17.09331600000007
 20
7.370502999999985
 10
17.30862750000006
 20
7.417433499999901
 10
17.49991350000005
 20
7.494212500000003
 10
17.66572500000006
 20
7.599674499999991
 10
17.80462199999999
 20
7.732631499999911
 10
17.91516000000001
 20
7.891922499999964
 10
17.99590350000005
 20
8.076364000000012
 10
18.04540800000006
 20
8.284781500000008
 10
18.062229
 20
8.51600499999995
 10
18.04983600000014
 20
8.737044999999966
 10
18.01264350000008
 20
8.936619999999891
 10
17.95061550000002
 20
9.114815499999963
 10
17.86372950000009
 20
9.271716999999853
 10
17.75195399999995
 20
9.407414499999958
 10
17.6152575000001
 20
9.521997999999939
 10
17.45361300000002
 20
9.615548499999931
 10
17.26698900000008
 20
9.688155999999935
 10
17.05535850000001
 20
9.739914999999996
 10
16.81869449999999
 20
9.770901999999978
 10
16.55696100000011
 20
9.781211499999926
 10
16.55696100000011
 20
9.781211499999926
 10
15.70699200000001
 20
9.781211499999926
 10
15.70699200000001
 20
5.142102999999906
 10
16.12873200000001
 20
5.142102999999906
 10
16.12873200000001
 20
7.354595499999959
 10
16.3817805000001
 20
7.354595499999959
 10
18.0103170000001
 20
5.142102999999906
  0
LWPOLYLINE
  5
CD
330
B7
100
AcDbEntity
  8
02TNR-01
  6
VERDECKT
100
AcDbPolyline
 90
        4
 70
     1
 43
0.0
 10
-19.0
 20
0.0
 10
19.0
 20
0.0
 10
19.0
 20
10.0
 10
-19.0
 20
10.0
  0
ENDBLK
  5
CE
330
B7
100
AcDbEntity
  8
0
100
AcDbBlockEnd
  0
BLOCK
  5
338
330
337
100
AcDbEntity
  8
0
100
AcDbBlockBegin
  2
*D2
 70
     1
 10
0.0
 20
0.0
 30
0.0
  3
*D2
  1

  0
LINE
  5
339
330
337
100
AcDbEntity
  8
09-01
 62
     4
370
    -2
100
AcDbLine
 10
690.8108234864291
 20
527.5133884532261
 30
0.0
 11
709.3093354990834
 21
527.5133884532261
 31
0.0
  0
LINE
  5
33A
330
337
100
AcDbEntity
  8
09-01
 62
     4
370
    -2
100
AcDbLine
 10
690.8108234864291
 20
249.5133884532261
 30
0.0
 11
709.3093354990833
 21
249.513388453226
 31
0.0
  0
LINE
  5
33B
330
337
100
AcDbEntity
  8
09-01
 62
     4
370
    -2
100
AcDbLine
 10
706.8093354990834
 20
521.2633884532261
 30
0.0
 11
706.8093354990833
 21
255.763388453226
 31
0.0
  0
SOLID
  5
33C
330
337
100
AcDbEntity
  8
09-01
 62
     4
100
AcDbTrace
 10
705.7676688324168
 20
521.2633884532261
 30
0.0
 11
707.85100216575
 21
521.2633884532261
 31
0.0
 12
706.8093354990834
 22
527.5133884532261
 32
0.0
 13
706.8093354990834
 23
527.5133884532261
 33
0.0
  0
SOLID
  5
33D
330
337
100
AcDbEntity
  8
09-01
 62
     4
100
AcDbTrace
 10
705.7676688324167
 20
255.763388453226
 30
0.0
 11
707.8510021657499
 21
255.763388453226
 31
0.0
 12
706.8093354990833
 22
249.513388453226
 32
0.0
 13
706.8093354990833
 23
249.513388453226
 33
0.0
  0
MTEXT
  5
33E
330
337
100
AcDbEntity
  8
09-01
 62
     1
100
AcDbMText
 10
701.1182543258227
 20
388.5133884532261
 30
0.0
 40
6.25
 41
0.0
 46
0.0
 71
     5
 72
     1
  1
278
 11
0.0000000000000001
 21
1.0
 31
0.0
 73
     1
 44
1.0
  0
POINT
  5
33F
330
337
100
AcDbEntity
  8
DEFPOINTS
 62
     0
100
AcDbPoint
 10
688.3108234864291
 20
527.5133884532261
 30
0.0
  0
POINT
  5
340
330
337
100
AcDbEntity
  8
DEFPOINTS
 62
     0
100
AcDbPoint
 10
688.3108234864291
 20
249.5133884532261
 30
0.0
  0
POINT
  5
341
330
337
100
AcDbEntity
  8
DEFPOINTS
 62
     0
100
AcDbPoint
 10
706.8093354990833
 20
249.513388453226
 30
0.0
  0
ENDBLK
  5
342
330
337
100
AcDbEntity
  8
0
100
AcDbBlockEnd
  0
BLOCK
  5
31F
330
31E
100
AcDbEntity
  8
0
100
AcDbBlockBegin
  2
*D3
 70
     1
 10
0.0
 20
0.0
 30
0.0
  3
*D3
  1

  0
LINE
  5
320
330
31E
100
AcDbEntity
  8
09-01
 62
     4
370
    -2
100
AcDbLine
 10
158.2823228034549
 20
497.013388453226
 30
0.0
 11
171.3510671023532
 21
497.013388453226
 31
0.0
  0
LINE
  5
321
330
31E
100
AcDbEntity
  8
09-01
 62
     4
370
    -2
100
AcDbLine
 10
158.2823228034549
 20
528.013388453226
 30
0.0
 11
171.3510671023532
 21
528.013388453226
 31
0.0
  0
LINE
  5
322
330
31E
100
AcDbEntity
  8
09-01
 62
     4
370
    -2
100
AcDbLine
 10
168.8510671023532
 20
503.263388453226
 30
0.0
 11
168.8510671023532
 21
521.763388453226
 31
0.0
  0
MTEXT
  5
323
330
31E
100
AcDbEntity
  8
09-01
 62
     1
100
AcDbMText
 10
162.2632713778885
 20
506.4620870152452
 30
0.0
 40
6.25
 41
0.0
 46
0.0
 71
     5
 72
     1
  1
31
 11
0.0000000000000001
 21
1.0
 31
0.0
 73
     1
 44
1.0
  0
SOLID
  5
324
330
31E
100
AcDbEntity
  8
09-01
 62
     4
100
AcDbTrace
 10
167.8094004356865
 20
503.263388453226
 30
0.0
 11
169.8927337690198
 21
503.263388453226
 31
0.0
 12
168.8510671023532
 22
497.013388453226
 32
0.0
 13
168.8510671023532
 23
497.013388453226
 33
0.0
  0
SOLID
  5
325
330
31E
100
AcDbEntity
  8
09-01
 62
     4
100
AcDbTrace
 10
167.8094004356865
 20
521.763388453226
 30
0.0
 11
169.8927337690198
 21
521.763388453226
 31
0.0
 12
168.8510671023532
 22
528.013388453226
 32
0.0
 13
168.8510671023532
 23
528.013388453226
 33
0.0
  0
POINT
  5
326
330
31E
100
AcDbEntity
  8
DEFPOINTS
 62
     0
100
AcDbPoint
 10
155.7823228034549
 20
497.013388453226
 30
0.0
  0
POINT
  5
327
330
31E
100
AcDbEntity
  8
DEFPOINTS
 62
     0
100
AcDbPoint
 10
155.7823228034549
 20
528.013388453226
 30
0.0
  0
POINT
  5
328
330
31E
100
AcDbEntity
  8
DEFPOINTS
 62
     0
100
AcDbPoint
 10
168.8510671023532
 20
528.013388453226
 30
0.0
  0
ENDBLK
  5
329
330
31E
100
AcDbEntity
  8
0
100
AcDbBlockEnd
  0
BLOCK
  5
312
330
311
100
AcDbEntity
  8
0
100
AcDbBlockBegin
  2
*D4
 70
     1
 10
0.0
 20
0.0
 30
0.0
  3
*D4
  1

  0
LINE
  5
313
330
311
100
AcDbEntity
  8
09-01
 62
     4
370
    -2
100
AcDbLine
 10
158.2823228034549
 20
497.013388453226
 30
0.0
 11
171.3510671023532
 21
497.013388453226
 31
0.0
  0
LINE
  5
314
330
311
100
AcDbEntity
  8
09-01
 62
     4
370
    -2
100
AcDbLine
 10
158.2823228034549
 20
307.0133884532261
 30
0.0
 11
171.3510671023532
 21
307.0133884532261
 31
0.0
  0
LINE
  5
315
330
311
100
AcDbEntity
  8
09-01
 62
     4
370
    -2
100
AcDbLine
 10
168.8510671023532
 20
490.763388453226
 30
0.0
 11
168.8510671023532
 21
313.2633884532261
 31
0.0
  0
SOLID
  5
316
330
311
100
AcDbEntity
  8
09-01
 62
     4
100
AcDbTrace
 10
167.8094004356866
 20
490.763388453226
 30
0.0
 11
169.8927337690199
 21
490.763388453226
 31
0.0
 12
168.8510671023532
 22
497.013388453226
 32
0.0
 13
168.8510671023532
 23
497.013388453226
 33
0.0
  0
SOLID
  5
317
330
311
100
AcDbEntity
  8
09-01
 62
     4
100
AcDbTrace
 10
167.8094004356865
 20
313.2633884532261
 30
0.0
 11
169.8927337690198
 21
313.2633884532261
 31
0.0
 12
168.8510671023532
 22
307.0133884532261
 32
0.0
 13
168.8510671023532
 23
307.0133884532261
 33
0.0
  0
MTEXT
  5
318
330
311
100
AcDbEntity
  8
09-01
 62
     1
100
AcDbMText
 10
163.1599859290926
 20
402.0133884532261
 30
0.0
 40
6.25
 41
0.0
 46
0.0
 71
     5
 72
     1
  1
190
 11
0.0000000000000001
 21
1.0
 31
0.0
 73
     1
 44
1.0
  0
POINT
  5
319
330
311
100
AcDbEntity
  8
DEFPOINTS
 62
     0
100
AcDbPoint
 10
155.7823228034549
 20
497.013388453226
 30
0.0
  0
POINT
  5
31A
330
311
100
AcDbEntity
  8
DEFPOINTS
 62
     0
100
AcDbPoint
 10
155.7823228034549
 20
307.0133884532261
 30
0.0
  0
POINT
  5
31B
330
311
100
AcDbEntity
  8
DEFPOINTS
 62
     0
100
AcDbPoint
 10
168.8510671023532
 20
307.0133884532261
 30
0.0
  0
ENDBLK
  5
31C
330
311
100
AcDbEntity
  8
0
100
AcDbBlockEnd
  0
BLOCK
  5
2FF
330
2FE
100
AcDbEntity
  8
0
100
AcDbBlockBegin
  2
*D5
 70
     1
 10
0.0
 20
0.0
 30
0.0
  3
*D5
  1

  0
LINE
  5
300
330
2FE
100
AcDbEntity
  8
09-01
 62
     4
370
    -2
100
AcDbLine
 10
151.7823228034551
 20
475.2633884532261
 30
0.0
 11
151.7823228034551
 21
447.4643201782278
 31
0.0
  0
LINE
  5
301
330
2FE
100
AcDbEntity
  8
09-01
 62
     4
370
    -2
100
AcDbLine
 10
343.7823228034553
 20
475.2633884532261
 30
0.0
 11
343.7823228034553
 21
447.4643201782278
 31
0.0
  0
LINE
  5
302
330
2FE
100
AcDbEntity
  8
09-01
 62
     4
370
    -2
100
AcDbLine
 10
158.0323228034551
 20
449.9643201782277
 30
0.0
 11
337.5323228034553
 21
449.9643201782277
 31
0.0
  0
SOLID
  5
303
330
2FE
100
AcDbEntity
  8
09-01
 62
     4
100
AcDbTrace
 10
158.0323228034551
 20
451.0059868448944
 30
0.0
 11
158.0323228034551
 21
448.9226535115611
 31
0.0
 12
151.7823228034551
 22
449.9643201782277
 32
0.0
 13
151.7823228034551
 23
449.9643201782277
 33
0.0
  0
SOLID
  5
304
330
2FE
100
AcDbEntity
  8
09-01
 62
     4
100
AcDbTrace
 10
337.5323228034553
 20
451.0059868448944
 30
0.0
 11
337.5323228034553
 21
448.9226535115611
 31
0.0
 12
343.7823228034553
 22
449.9643201782277
 32
0.0
 13
343.7823228034553
 23
449.9643201782277
 33
0.0
  0
MTEXT
  5
305
330
2FE
100
AcDbEntity
  8
09-01
 62
     1
100
AcDbMText
 10
247.7823228034552
 20
455.6554013514883
 30
0.0
 40
6.25
 41
0.0
 46
0.0
 71
     5
 72
     1
  1
192
 73
     1
 44
1.0
  0
POINT
  5
306
330
2FE
100
AcDbEntity
  8
DEFPOINTS
 62
     0
100
AcDbPoint
 10
151.7823228034551
 20
477.763388453226
 30
0.0
  0
POINT
  5
307
330
2FE
100
AcDbEntity
  8
DEFPOINTS
 62
     0
100
AcDbPoint
 10
343.7823228034553
 20
477.763388453226
 30
0.0
  0
POINT
  5
308
330
2FE
100
AcDbEntity
  8
DEFPOINTS
 62
     0
100
AcDbPoint
 10
343.7823228034553
 20
449.9643201782277
 30
0.0
  0
ENDBLK
  5
309
330
2FE
100
AcDbEntity
  8
0
100
AcDbBlockEnd
  0
BLOCK
  5
2F2
330
2F1
100
AcDbEntity
  8
0
100
AcDbBlockBegin
  2
*D6
 70
     1
 10
0.0
 20
0.0
 30
0.0
  3
*D6
  1

  0
LINE
  5
2F3
330
2F1
100
AcDbEntity
  8
09-01
 62
     4
370
    -2
100
AcDbLine
 10
343.7823228034553
 20
475.2633884532261
 30
0.0
 11
343.7823228034553
 21
447.4643201782278
 31
0.0
  0
LINE
  5
2F4
330
2F1
100
AcDbEntity
  8
09-01
 62
     4
370
    -2
100
AcDbLine
 10
396.7823228034551
 20
466.155158098436
 30
0.0
 11
396.7823228034551
 21
447.4643201782278
 31
0.0
  0
LINE
  5
2F5
330
2F1
100
AcDbEntity
  8
09-01
 62
     4
370
    -2
100
AcDbLine
 10
350.0323228034553
 20
449.9643201782277
 30
0.0
 11
390.5323228034551
 21
449.9643201782277
 31
0.0
  0
MTEXT
  5
2F6
330
2F1
100
AcDbEntity
  8
09-01
 62
     1
100
AcDbMText
 10
367.1824450064443
 20
455.8025538601973
 30
0.0
 40
6.25
 41
0.0
 46
0.0
 71
     5
 72
     1
  1
53
 73
     1
 44
1.0
  0
SOLID
  5
2F7
330
2F1
100
AcDbEntity
  8
09-01
 62
     4
100
AcDbTrace
 10
350.0323228034553
 20
451.0059868448944
 30
0.0
 11
350.0323228034553
 21
448.9226535115611
 31
0.0
 12
343.7823228034553
 22
449.9643201782277
 32
0.0
 13
343.7823228034553
 23
449.9643201782277
 33
0.0
  0
SOLID
  5
2F8
330
2F1
100
AcDbEntity
  8
09-01
 62
     4
100
AcDbTrace
 10
390.5323228034551
 20
451.0059868448944
 30
0.0
 11
390.5323228034551
 21
448.9226535115611
 31
0.0
 12
396.7823228034551
 22
449.9643201782277
 32
0.0
 13
396.7823228034551
 23
449.9643201782277
 33
0.0
  0
POINT
  5
2F9
330
2F1
100
AcDbEntity
  8
DEFPOINTS
 62
     0
100
AcDbPoint
 10
343.7823228034553
 20
477.763388453226
 30
0.0
  0
POINT
  5
2FA
330
2F1
100
AcDbEntity
  8
DEFPOINTS
 62
     0
100
AcDbPoint
 10
396.7823228034551
 20
468.6551580984359
 30
0.0
  0
POINT
  5
2FB
330
2F1
100
AcDbEntity
  8
DEFPOINTS
 62
     0
100
AcDbPoint
 10
396.7823228034551
 20
449.9643201782277
 30
0.0
  0
ENDBLK
  5
2FC
330
2F1
100
AcDbEntity
  8
0
100
AcDbBlockEnd
  0
BLOCK
  5
2E5
330
2E4
100
AcDbEntity
  8
0
100
AcDbBlockBegin
  2
*D7
 70
     1
 10
0.0
 20
0.0
 30
0.0
  3
*D7
  1

  0
LINE
  5
2E6
330
2E4
100
AcDbEntity
  8
09-01
 62
     4
370
    -2
100
AcDbLine
 10
151.7823228034551
 20
475.2633884532261
 30
0.0
 11
151.7823228034551
 21
447.4643201782278
 31
0.0
  0
LINE
  5
2E7
330
2E4
100
AcDbEntity
  8
09-01
 62
     4
370
    -2
100
AcDbLine
 10
98.78232280345514
 20
475.7465406146443
 30
0.0
 11
98.78232280345514
 21
447.4643201782278
 31
0.0
  0
LINE
  5
2E8
330
2E4
100
AcDbEntity
  8
09-01
 62
     4
370
    -2
100
AcDbLine
 10
145.5323228034551
 20
449.9643201782277
 30
0.0
 11
105.0323228034551
 21
449.9643201782277
 31
0.0
  0
MTEXT
  5
2E9
330
2E4
100
AcDbEntity
  8
09-01
 62
     1
100
AcDbMText
 10
127.6761471266555
 20
455.8025538601973
 30
0.0
 40
6.25
 41
0.0
 46
0.0
 71
     5
 72
     1
  1
53
 73
     1
 44
1.0
  0
SOLID
  5
2EA
330
2E4
100
AcDbEntity
  8
09-01
 62
     4
100
AcDbTrace
 10
145.5323228034551
 20
451.0059868448944
 30
0.0
 11
145.5323228034551
 21
448.9226535115611
 31
0.0
 12
151.7823228034551
 22
449.9643201782277
 32
0.0
 13
151.7823228034551
 23
449.9643201782277
 33
0.0
  0
SOLID
  5
2EB
330
2E4
100
AcDbEntity
  8
09-01
 62
     4
100
AcDbTrace
 10
105.0323228034551
 20
451.0059868448944
 30
0.0
 11
105.0323228034551
 21
448.9226535115611
 31
0.0
 12
98.78232280345514
 22
449.9643201782277
 32
0.0
 13
98.78232280345514
 23
449.9643201782277
 33
0.0
  0
POINT
  5
2EC
330
2E4
100
AcDbEntity
  8
DEFPOINTS
 62
     0
100
AcDbPoint
 10
151.7823228034551
 20
477.763388453226
 30
0.0
  0
POINT
  5
2ED
330
2E4
100
AcDbEntity
  8
DEFPOINTS
 62
     0
100
AcDbPoint
 10
98.78232280345514
 20
478.2465406146443
 30
0.0
  0
POINT
  5
2EE
330
2E4
100
AcDbEntity
  8
DEFPOINTS
 62
     0
100
AcDbPoint
 10
98.78232280345514
 20
449.9643201782277
 30
0.0
  0
ENDBLK
  5
2EF
330
2E4
100
AcDbEntity
  8
0
100
AcDbBlockEnd
  0
BLOCK
  5
FC
330
FB
100
AcDbEntity
  8
0
100
AcDbBlockBegin
  2
*D8
 70
     1
 10
0.0
 20
0.0
 30
0.0
  3
*D8
  1

  0
LINE
  5
FD
330
FB
100
AcDbEntity
  8
09-01
 62
     4
370
    -2
100
AcDbLine
 10
341.0323228034553
 20
499.513388453226
 30
0.0
 11
341.0323228034553
 21
506.7869672477072
 31
0.0
  0
LINE
  5
FE
330
FB
100
AcDbEntity
  8
09-01
 62
     4
370
    -2
100
AcDbLine
 10
346.5323228034553
 20
499.513388453226
 30
0.0
 11
346.5323228034553
 21
506.7869672477072
 31
0.0
  0
LINE
  5
FF
330
FB
100
AcDbEntity
  8
09-01
 62
     4
370
    -2
100
AcDbLine
 10
334.7823228034553
 20
504.2869672477072
 30
0.0
 11
328.5323228034553
 21
504.2869672477072
 31
0.0
  0
LINE
  5
100
330
FB
100
AcDbEntity
  8
09-01
 62
     4
370
    -2
100
AcDbLine
 10
352.7823228034553
 20
504.2869672477072
 30
0.0
 11
359.0323228034553
 21
504.2869672477072
 31
0.0
  0
MTEXT
  5
101
330
FB
100
AcDbEntity
  8
09-01
 62
     1
100
AcDbMText
 10
359.5091062567735
 20
508.9091492541988
 30
0.0
 40
6.25
 41
0.0
 46
0.0
 71
     5
 72
     1
  1
5.5
 73
     1
 44
1.0
  0
LINE
  5
102
330
FB
100
AcDbEntity
  8
09-01
 62
     4
370
    -2
100
AcDbLine
 10
341.0323228034553
 20
504.2869672477072
 30
0.0
 11
346.5323228034553
 21
504.2869672477072
 31
0.0
  0
SOLID
  5
103
330
FB
100
AcDbEntity
  8
09-01
 62
     4
100
AcDbTrace
 10
334.7823228034553
 20
505.3286339143739
 30
0.0
 11
334.7823228034553
 21
503.2453005810405
 31
0.0
 12
341.0323228034553
 22
504.2869672477072
 32
0.0
 13
341.0323228034553
 23
504.2869672477072
 33
0.0
  0
SOLID
  5
104
330
FB
100
AcDbEntity
  8
09-01
 62
     4
100
AcDbTrace
 10
352.7823228034553
 20
505.3286339143739
 30
0.0
 11
352.7823228034553
 21
503.2453005810405
 31
0.0
 12
346.5323228034553
 22
504.2869672477072
 32
0.0
 13
346.5323228034553
 23
504.2869672477072
 33
0.0
  0
POINT
  5
105
330
FB
100
AcDbEntity
  8
DEFPOINTS
 62
     0
100
AcDbPoint
 10
341.0323228034553
 20
497.013388453226
 30
0.0
  0
POINT
  5
106
330
FB
100
AcDbEntity
  8
DEFPOINTS
 62
     0
100
AcDbPoint
 10
346.5323228034553
 20
497.013388453226
 30
0.0
  0
POINT
  5
107
330
FB
100
AcDbEntity
  8
DEFPOINTS
 62
     0
100
AcDbPoint
 10
346.5323228034553
 20
504.2869672477072
 30
0.0
  0
ENDBLK
  5
108
330
FB
100
AcDbEntity
  8
0
100
AcDbBlockEnd
  0
BLOCK
  5
ED
330
EC
100
AcDbEntity
  8
0
100
AcDbBlockBegin
  2
*D9
 70
     1
 10
0.0
 20
0.0
 30
0.0
  3
*D9
  1

  0
LINE
  5
EE
330
EC
100
AcDbEntity
  8
09-01
 62
     4
370
    -2
100
AcDbLine
 10
337.2823228034552
 20
497.013388453226
 30
0.0
 11
324.1825209739327
 21
497.013388453226
 31
0.0
  0
LINE
  5
EF
330
EC
100
AcDbEntity
  8
09-01
 62
     4
370
    -2
100
AcDbLine
 10
334.0323228034553
 20
485.0133884532261
 30
0.0
 11
324.1825209739327
 21
485.0133884532261
 31
0.0
  0
LINE
  5
F0
330
EC
100
AcDbEntity
  8
09-01
 62
     4
370
    -2
100
AcDbLine
 10
326.6825209739327
 20
503.263388453226
 30
0.0
 11
326.6825209739327
 21
509.513388453226
 31
0.0
  0
LINE
  5
F1
330
EC
100
AcDbEntity
  8
09-01
 62
     4
370
    -2
100
AcDbLine
 10
326.6825209739327
 20
478.7633884532261
 30
0.0
 11
326.6825209739327
 21
472.5133884532261
 31
0.0
  0
LINE
  5
F2
330
EC
100
AcDbEntity
  8
09-01
 62
     4
370
    -2
100
AcDbLine
 10
326.6825209739327
 20
497.013388453226
 30
0.0
 11
326.6825209739327
 21
485.0133884532261
 31
0.0
  0
SOLID
  5
F3
330
EC
100
AcDbEntity
  8
09-01
 62
     4
100
AcDbTrace
 10
325.640854307266
 20
503.263388453226
 30
0.0
 11
327.7241876405994
 21
503.263388453226
 31
0.0
 12
326.6825209739327
 22
497.013388453226
 32
0.0
 13
326.6825209739327
 23
497.013388453226
 33
0.0
  0
SOLID
  5
F4
330
EC
100
AcDbEntity
  8
09-01
 62
     4
100
AcDbTrace
 10
325.640854307266
 20
478.7633884532261
 30
0.0
 11
327.7241876405994
 21
478.7633884532261
 31
0.0
 12
326.6825209739327
 22
485.0133884532261
 32
0.0
 13
326.6825209739327
 23
485.0133884532261
 33
0.0
  0
MTEXT
  5
F5
330
EC
100
AcDbEntity
  8
09-01
 62
     1
100
AcDbMText
 10
321.0447310694306
 20
491.0133884532261
 30
0.0
 40
6.25
 41
0.0
 46
0.0
 71
     5
 72
     1
  1
12
 11
0.0000000000000001
 21
1.0
 31
0.0
 73
     1
 44
1.0
  0
POINT
  5
F6
330
EC
100
AcDbEntity
  8
DEFPOINTS
 62
     0
100
AcDbPoint
 10
339.7823228034553
 20
497.013388453226
 30
0.0
  0
POINT
  5
F7
330
EC
100
AcDbEntity
  8
DEFPOINTS
 62
     0
100
AcDbPoint
 10
336.5323228034553
 20
485.0133884532261
 30
0.0
  0
POINT
  5
F8
330
EC
100
AcDbEntity
  8
DEFPOINTS
 62
     0
100
AcDbPoint
 10
326.6825209739327
 20
485.0133884532261
 30
0.0
  0
ENDBLK
  5
F9
330
EC
100
AcDbEntity
  8
0
100
AcDbBlockEnd
  0
BLOCK
  5
DE
330
DD
100
AcDbEntity
  8
0
100
AcDbBlockBegin
  2
*D10
 70
     1
 10
0.0
 20
0.0
 30
0.0
  3
*D10
  1

  0
LINE
  5
DF
330
DD
100
AcDbEntity
  8
09-01
 62
     4
370
    -2
100
AcDbLine
 10
337.5323228034553
 20
482.513388453226
 30
0.0
 11
337.5323228034553
 21
464.1942862478331
 31
0.0
  0
LINE
  5
E0
330
DD
100
AcDbEntity
  8
09-01
 62
     4
370
    -2
100
AcDbLine
 10
350.0323228034553
 20
482.513388453226
 30
0.0
 11
350.0323228034553
 21
464.1942862478331
 31
0.0
  0
LINE
  5
E1
330
DD
100
AcDbEntity
  8
09-01
 62
     4
370
    -2
100
AcDbLine
 10
331.2823228034553
 20
466.6942862478331
 30
0.0
 11
325.0323228034553
 21
466.6942862478331
 31
0.0
  0
LINE
  5
E2
330
DD
100
AcDbEntity
  8
09-01
 62
     4
370
    -2
100
AcDbLine
 10
356.2823228034553
 20
466.6942862478331
 30
0.0
 11
362.5323228034553
 21
466.6942862478331
 31
0.0
  0
MTEXT
  5
E3
330
DD
100
AcDbEntity
  8
09-01
 62
     1
100
AcDbMText
 10
364.6799717166305
 20
472.7521549167891
 30
0.0
 40
6.25
 41
0.0
 46
0.0
 71
     5
 72
     1
  1
12.5
 73
     1
 44
1.0
  0
LINE
  5
E4
330
DD
100
AcDbEntity
  8
09-01
 62
     4
370
    -2
100
AcDbLine
 10
337.5323228034553
 20
466.6942862478331
 30
0.0
 11
350.0323228034553
 21
466.6942862478331
 31
0.0
  0
SOLID
  5
E5
330
DD
100
AcDbEntity
  8
09-01
 62
     4
100
AcDbTrace
 10
331.2823228034553
 20
467.7359529144998
 30
0.0
 11
331.2823228034553
 21
465.6526195811664
 31
0.0
 12
337.5323228034553
 22
466.6942862478331
 32
0.0
 13
337.5323228034553
 23
466.6942862478331
 33
0.0
  0
SOLID
  5
E6
330
DD
100
AcDbEntity
  8
09-01
 62
     4
100
AcDbTrace
 10
356.2823228034553
 20
467.7359529144998
 30
0.0
 11
356.2823228034553
 21
465.6526195811664
 31
0.0
 12
350.0323228034553
 22
466.6942862478331
 32
0.0
 13
350.0323228034553
 23
466.6942862478331
 33
0.0
  0
POINT
  5
E7
330
DD
100
AcDbEntity
  8
DEFPOINTS
 62
     0
100
AcDbPoint
 10
337.5323228034553
 20
485.0133884532261
 30
0.0
  0
POINT
  5
E8
330
DD
100
AcDbEntity
  8
DEFPOINTS
 62
     0
100
AcDbPoint
 10
350.0323228034553
 20
485.0133884532261
 30
0.0
  0
POINT
  5
E9
330
DD
100
AcDbEntity
  8
DEFPOINTS
 62
     0
100
AcDbPoint
 10
350.0323228034553
 20
466.6942862478331
 30
0.0
  0
ENDBLK
  5
EA
330
DD
100
AcDbEntity
  8
0
100
AcDbBlockEnd
  0
BLOCK
  5
D1
330
D0
100
AcDbEntity
  8
0
100
AcDbBlockBegin
  2
*D11
 70
     1
 10
0.0
 20
0.0
 30
0.0
  3
*D11
  1

  0
LINE
  5
D2
330
D0
100
AcDbEntity
  8
09-01
 62
     4
370
    -2
100
AcDbLine
 10
99.78232280345503
 20
48.97959800589115
 30
0.0
 11
99.78232280345503
 21
31.47002508349033
 31
0.0
  0
LINE
  5
D3
330
D0
100
AcDbEntity
  8
09-01
 62
     4
370
    -2
100
AcDbLine
 10
395.782322803455
 20
48.97959800589115
 30
0.0
 11
395.782322803455
 21
31.47002508349033
 31
0.0
  0
LINE
  5
D4
330
D0
100
AcDbEntity
  8
09-01
 62
     4
370
    -2
100
AcDbLine
 10
106.032322803455
 20
33.97002508349033
 30
0.0
 11
389.532322803455
 21
33.97002508349033
 31
0.0
  0
SOLID
  5
D5
330
D0
100
AcDbEntity
  8
09-01
 62
     4
100
AcDbTrace
 10
106.032322803455
 20
35.01169175015699
 30
0.0
 11
106.032322803455
 21
32.92835841682367
 31
0.0
 12
99.78232280345503
 22
33.97002508349033
 32
0.0
 13
99.78232280345503
 23
33.97002508349033
 33
0.0
  0
SOLID
  5
D6
330
D0
100
AcDbEntity
  8
09-01
 62
     4
100
AcDbTrace
 10
389.532322803455
 20
35.01169175015699
 30
0.0
 11
389.532322803455
 21
32.92835841682367
 31
0.0
 12
395.782322803455
 22
33.97002508349033
 32
0.0
 13
395.782322803455
 23
33.97002508349033
 33
0.0
  0
MTEXT
  5
D7
330
D0
100
AcDbEntity
  8
09-01
 62
     1
100
AcDbMText
 10
247.782322803455
 20
39.6611062567509
 30
0.0
 40
6.25
 41
0.0
 46
0.0
 71
     5
 72
     1
  1
296
 73
     1
 44
1.0
  0
POINT
  5
D8
330
D0
100
AcDbEntity
  8
DEFPOINTS
 62
     0
100
AcDbPoint
 10
99.78232280345503
 20
51.47959800589115
 30
0.0
  0
POINT
  5
D9
330
D0
100
AcDbEntity
  8
DEFPOINTS
 62
     0
100
AcDbPoint
 10
395.782322803455
 20
51.47959800589115
 30
0.0
  0
POINT
  5
DA
330
D0
100
AcDbEntity
  8
DEFPOINTS
 62
     0
100
AcDbPoint
 10
395.782322803455
 20
33.97002508349033
 30
0.0
  0
ENDBLK
  5
DB
330
D0
100
AcDbEntity
  8
0
100
AcDbBlockEnd
  0
BLOCK
  5
386
330
385
100
AcDbEntity
  8
0
100
AcDbBlockBegin
  2
*D12
 70
     1
 10
0.0
 20
0.0
 30
0.0
  3
*D12
  1

  0
LINE
  5
387
330
385
100
AcDbEntity
  8
01-01
 62
     4
370
    -2
100
AcDbLine
 10
98.78232280345503
 20
530.513388453226
 30
0.0
 11
98.78232280345503
 21
544.0617540961259
 31
0.0
  0
LINE
  5
388
330
385
100
AcDbEntity
  8
01-01
 62
     4
370
    -2
100
AcDbLine
 10
396.782322803455
 20
530.513388453226
 30
0.0
 11
396.782322803455
 21
544.0617540961259
 31
0.0
  0
LINE
  5
389
330
385
100
AcDbEntity
  8
01-01
 62
     4
370
    -2
100
AcDbLine
 10
105.032322803455
 20
541.5617540961259
 30
0.0
 11
390.532322803455
 21
541.5617540961259
 31
0.0
  0
SOLID
  5
38A
330
385
100
AcDbEntity
  8
01-01
 62
     4
100
AcDbTrace
 10
105.032322803455
 20
542.6034207627925
 30
0.0
 11
105.032322803455
 21
540.5200874294592
 31
0.0
 12
98.78232280345503
 22
541.5617540961259
 32
0.0
 13
98.78232280345503
 23
541.5617540961259
 33
0.0
  0
SOLID
  5
38B
330
385
100
AcDbEntity
  8
01-01
 62
     4
100
AcDbTrace
 10
390.532322803455
 20
542.6034207627925
 30
0.0
 11
390.532322803455
 21
540.5200874294592
 31
0.0
 12
396.782322803455
 22
541.5617540961259
 32
0.0
 13
396.782322803455
 23
541.5617540961259
 33
0.0
  0
MTEXT
  5
38C
330
385
100
AcDbEntity
  8
01-01
 62
     1
100
AcDbMText
 10
247.782322803455
 20
547.2528352693865
 30
0.0
 40
6.25
 41
0.0
 46
0.0
 71
     5
 72
     1
  1
298
 73
     1
 44
1.0
  0
POINT
  5
38D
330
385
100
AcDbEntity
  8
DEFPOINTS
 62
     0
100
AcDbPoint
 10
98.78232280345503
 20
528.013388453226
 30
0.0
  0
POINT
  5
38E
330
385
100
AcDbEntity
  8
DEFPOINTS
 62
     0
100
AcDbPoint
 10
396.782322803455
 20
528.013388453226
 30
0.0
  0
POINT
  5
38F
330
385
100
AcDbEntity
  8
DEFPOINTS
 62
     0
100
AcDbPoint
 10
396.782322803455
 20
541.5617540961259
 30
0.0
  0
ENDBLK
  5
390
330
385
100
AcDbEntity
  8
0
100
AcDbBlockEnd
  0
BLOCK
  5
379
330
378
100
AcDbEntity
  8
0
100
AcDbBlockBegin
  2
*D13
 70
     1
 10
0.0
 20
0.0
 30
0.0
  3
*D13
  1

  0
LINE
  5
37A
330
378
100
AcDbEntity
  8
09-01
 62
     4
370
    -2
100
AcDbLine
 10
568.3108234864291
 20
530.513388453226
 30
0.0
 11
568.3108234864291
 21
544.5005562862824
 31
0.0
  0
LINE
  5
37B
330
378
100
AcDbEntity
  8
09-01
 62
     4
370
    -2
100
AcDbLine
 10
678.3108234864291
 20
530.513388453226
 30
0.0
 11
678.3108234864291
 21
544.5005562862824
 31
0.0
  0
LINE
  5
37C
330
378
100
AcDbEntity
  8
09-01
 62
     4
370
    -2
100
AcDbLine
 10
574.5608234864291
 20
542.0005562862825
 30
0.0
 11
672.0608234864291
 21
542.0005562862825
 31
0.0
  0
SOLID
  5
37D
330
378
100
AcDbEntity
  8
09-01
 62
     4
100
AcDbTrace
 10
574.5608234864291
 20
543.0422229529491
 30
0.0
 11
574.5608234864291
 21
540.9588896196159
 31
0.0
 12
568.3108234864291
 22
542.0005562862825
 32
0.0
 13
568.3108234864291
 23
542.0005562862825
 33
0.0
  0
SOLID
  5
37E
330
378
100
AcDbEntity
  8
09-01
 62
     4
100
AcDbTrace
 10
672.0608234864291
 20
543.0422229529491
 30
0.0
 11
672.0608234864291
 21
540.9588896196159
 31
0.0
 12
678.3108234864291
 22
542.0005562862825
 32
0.0
 13
678.3108234864291
 23
542.0005562862825
 33
0.0
  0
MTEXT
  5
37F
330
378
100
AcDbEntity
  8
09-01
 62
     1
100
AcDbMText
 10
623.3108234864292
 20
547.6916374595431
 30
0.0
 40
6.25
 41
0.0
 46
0.0
 71
     5
 72
     1
  1
110
 73
     1
 44
1.0
  0
POINT
  5
380
330
378
100
AcDbEntity
  8
DEFPOINTS
 62
     0
100
AcDbPoint
 10
568.3108234864291
 20
528.013388453226
 30
0.0
  0
POINT
  5
381
330
378
100
AcDbEntity
  8
DEFPOINTS
 62
     0
100
AcDbPoint
 10
678.3108234864291
 20
528.013388453226
 30
0.0
  0
POINT
  5
382
330
378
100
AcDbEntity
  8
DEFPOINTS
 62
     0
100
AcDbPoint
 10
678.3108234864291
 20
542.0005562862825
 30
0.0
  0
ENDBLK
  5
383
330
378
100
AcDbEntity
  8
0
100
AcDbBlockEnd
  0
BLOCK
  5
36C
330
36B
100
AcDbEntity
  8
0
100
AcDbBlockBegin
  2
*D14
 70
     1
 10
0.0
 20
0.0
 30
0.0
  3
*D14
  1

  0
LINE
  5
36D
330
36B
100
AcDbEntity
  8
01-01
 62
     4
370
    -2
100
AcDbLine
 10
688.3108234864291
 20
530.013388453226
 30
0.0
 11
688.3108234864291
 21
556.5976375383538
 31
0.0
  0
LINE
  5
36E
330
36B
100
AcDbEntity
  8
01-01
 62
     4
370
    -2
100
AcDbLine
 10
568.3108234864291
 20
530.513388453226
 30
0.0
 11
568.3108234864291
 21
556.5976375383538
 31
0.0
  0
LINE
  5
36F
330
36B
100
AcDbEntity
  8
01-01
 62
     4
370
    -2
100
AcDbLine
 10
682.0608234864291
 20
554.0976375383539
 30
0.0
 11
574.5608234864291
 21
554.0976375383539
 31
0.0
  0
SOLID
  5
370
330
36B
100
AcDbEntity
  8
01-01
 62
     4
100
AcDbTrace
 10
682.0608234864291
 20
555.1393042050205
 30
0.0
 11
682.0608234864291
 21
553.0559708716872
 31
0.0
 12
688.3108234864291
 22
554.0976375383539
 32
0.0
 13
688.3108234864291
 23
554.0976375383539
 33
0.0
  0
SOLID
  5
371
330
36B
100
AcDbEntity
  8
01-01
 62
     4
100
AcDbTrace
 10
574.5608234864291
 20
555.1393042050205
 30
0.0
 11
574.5608234864291
 21
553.0559708716872
 31
0.0
 12
568.3108234864291
 22
554.0976375383539
 32
0.0
 13
568.3108234864291
 23
554.0976375383539
 33
0.0
  0
MTEXT
  5
372
330
36B
100
AcDbEntity
  8
01-01
 62
     1
100
AcDbMText
 10
628.3108234864291
 20
559.7887187116144
 30
0.0
 40
6.25
 41
0.0
 46
0.0
 71
     5
 72
     1
  1
120
 73
     1
 44
1.0
  0
POINT
  5
373
330
36B
100
AcDbEntity
  8
DEFPOINTS
 62
     0
100
AcDbPoint
 10
688.3108234864291
 20
527.5133884532261
 30
0.0
  0
POINT
  5
374
330
36B
100
AcDbEntity
  8
DEFPOINTS
 62
     0
100
AcDbPoint
 10
568.3108234864291
 20
528.013388453226
 30
0.0
  0
POINT
  5
375
330
36B
100
AcDbEntity
  8
DEFPOINTS
 62
     0
100
AcDbPoint
 10
568.3108234864291
 20
554.0976375383539
 30
0.0
  0
ENDBLK
  5
376
330
36B
100
AcDbEntity
  8
0
100
AcDbBlockEnd
  0
BLOCK
  5
348
330
347
100
AcDbEntity
  8
0
100
AcDbBlockBegin
  2
*D15
 70
     1
 10
0.0
 20
0.0
 30
0.0
  3
*D15
  1

  0
LINE
  5
349
330
347
100
AcDbEntity
  8
01-01
 62
     4
370
    -2
100
AcDbLine
 10
96.28232280345503
 20
230.0133884532261
 30
0.0
 11
83.85472400408986
 21
230.0133884532261
 31
0.0
  0
LINE
  5
34A
330
347
100
AcDbEntity
  8
01-01
 62
     4
370
    -2
100
AcDbLine
 10
96.28232280345503
 20
528.013388453226
 30
0.0
 11
83.85472400408991
 21
528.013388453226
 31
0.0
  0
LINE
  5
34B
330
347
100
AcDbEntity
  8
01-01
 62
     4
370
    -2
100
AcDbLine
 10
86.35472400408986
 20
236.2633884532261
 30
0.0
 11
86.35472400408991
 21
521.763388453226
 31
0.0
  0
SOLID
  5
34C
330
347
100
AcDbEntity
  8
01-01
 62
     4
100
AcDbTrace
 10
85.31305733742319
 20
236.2633884532261
 30
0.0
 11
87.39639067075653
 21
236.2633884532261
 31
0.0
 12
86.35472400408986
 22
230.0133884532261
 32
0.0
 13
86.35472400408986
 23
230.0133884532261
 33
0.0
  0
SOLID
  5
34D
330
347
100
AcDbEntity
  8
01-01
 62
     4
100
AcDbTrace
 10
85.31305733742325
 20
521.763388453226
 30
0.0
 11
87.39639067075659
 21
521.763388453226
 31
0.0
 12
86.35472400408991
 22
528.013388453226
 32
0.0
 13
86.35472400408991
 23
528.013388453226
 33
0.0
  0
MTEXT
  5
34E
330
347
100
AcDbEntity
  8
01-01
 62
     1
100
AcDbMText
 10
80.66364283082926
 20
379.0133884532261
 30
0.0
 40
6.25
 41
0.0
 46
0.0
 71
     5
 72
     1
  1
298
 11
0.0000000000000001
 21
1.0
 31
0.0
 73
     1
 44
1.0
  0
POINT
  5
34F
330
347
100
AcDbEntity
  8
DEFPOINTS
 62
     0
100
AcDbPoint
 10
98.78232280345503
 20
230.0133884532261
 30
0.0
  0
POINT
  5
350
330
347
100
AcDbEntity
  8
DEFPOINTS
 62
     0
100
AcDbPoint
 10
98.78232280345503
 20
528.013388453226
 30
0.0
  0
POINT
  5
351
330
347
100
AcDbEntity
  8
DEFPOINTS
 62
     0
100
AcDbPoint
 10
86.35472400408991
 20
528.013388453226
 30
0.0
  0
ENDBLK
  5
352
330
347
100
AcDbEntity
  8
0
100
AcDbBlockEnd
  0
BLOCK
  5
A2
330
A1
100
AcDbEntity
  8
0
100
AcDbBlockBegin
  2
*D16
 70
     1
 10
0.0
 20
0.0
 30
0.0
  3
*D16
  1

  0
LINE
  5
A3
330
A1
100
AcDbEntity
  8
09-01
 62
     4
370
    -2
100
AcDbLine
 10
678.3108234864291
 20
530.513388453226
 30
0.0
 11
678.3108234864291
 21
544.5005562862824
 31
0.0
  0
LINE
  5
A4
330
A1
100
AcDbEntity
  8
09-01
 62
     4
370
    -2
100
AcDbLine
 10
688.3108234864291
 20
530.013388453226
 30
0.0
 11
688.3108234864291
 21
544.5005562862824
 31
0.0
  0
LINE
  5
A5
330
A1
100
AcDbEntity
  8
09-01
 62
     4
370
    -2
100
AcDbLine
 10
672.0608234864291
 20
542.0005562862825
 30
0.0
 11
665.8108234864291
 21
542.0005562862825
 31
0.0
  0
LINE
  5
A6
330
A1
100
AcDbEntity
  8
09-01
 62
     4
370
    -2
100
AcDbLine
 10
694.5608234864291
 20
542.0005562862825
 30
0.0
 11
700.8108234864291
 21
542.0005562862825
 31
0.0
  0
MTEXT
  5
A7
330
A1
100
AcDbEntity
  8
09-01
 62
     1
100
AcDbMText
 10
699.9037469583754
 20
546.659706132837
 30
0.0
 40
6.25
 41
0.0
 46
0.0
 71
     5
 72
     1
  1
10
 73
     1
 44
1.0
  0
LINE
  5
A8
330
A1
100
AcDbEntity
  8
09-01
 62
     4
370
    -2
100
AcDbLine
 10
678.3108234864291
 20
542.0005562862825
 30
0.0
 11
688.3108234864291
 21
542.0005562862825
 31
0.0
  0
SOLID
  5
A9
330
A1
100
AcDbEntity
  8
09-01
 62
     4
100
AcDbTrace
 10
672.0608234864291
 20
543.0422229529491
 30
0.0
 11
672.0608234864291
 21
540.9588896196159
 31
0.0
 12
678.3108234864291
 22
542.0005562862825
 32
0.0
 13
678.3108234864291
 23
542.0005562862825
 33
0.0
  0
SOLID
  5
AA
330
A1
100
AcDbEntity
  8
09-01
 62
     4
100
AcDbTrace
 10
694.5608234864291
 20
543.0422229529491
 30
0.0
 11
694.5608234864291
 21
540.9588896196159
 31
0.0
 12
688.3108234864291
 22
542.0005562862825
 32
0.0
 13
688.3108234864291
 23
542.0005562862825
 33
0.0
  0
POINT
  5
AB
330
A1
100
AcDbEntity
  8
DEFPOINTS
 62
     0
100
AcDbPoint
 10
678.3108234864291
 20
528.013388453226
 30
0.0
  0
POINT
  5
AC
330
A1
100
AcDbEntity
  8
DEFPOINTS
 62
     0
100
AcDbPoint
 10
688.3108234864291
 20
527.5133884532261
 30
0.0
  0
POINT
  5
AD
330
A1
100
AcDbEntity
  8
DEFPOINTS
 62
     0
100
AcDbPoint
 10
688.3108234864291
 20
542.0005562862825
 30
0.0
  0
ENDBLK
  5
AE
330
A1
100
AcDbEntity
  8
0
100
AcDbBlockEnd
  0
BLOCK
  5
95
330
94
100
AcDbEntity
  8
0
100
AcDbBlockBegin
  2
*D17
 70
     1
 10
0.0
 20
0.0
 30
0.0
  3
*D17
  1

  0
LINE
  5
96
330
94
100
AcDbEntity
  8
09-01
 62
     4
370
    -2
100
AcDbLine
 10
568.3108234864291
 20
227.6544500377929
 30
0.0
 11
568.3108234864291
 21
207.0082122092463
 31
0.0
  0
LINE
  5
97
330
94
100
AcDbEntity
  8
09-01
 62
     4
370
    -2
100
AcDbLine
 10
623.9698426127686
 20
233.2658687974256
 30
0.0
 11
623.9698426127686
 21
207.0082122092463
 31
0.0
  0
LINE
  5
98
330
94
100
AcDbEntity
  8
09-01
 62
     4
370
    -2
100
AcDbLine
 10
574.5608234864291
 20
209.5082122092463
 30
0.0
 11
617.7198426127686
 21
209.5082122092463
 31
0.0
  0
SOLID
  5
99
330
94
100
AcDbEntity
  8
09-01
 62
     4
100
AcDbTrace
 10
574.5608234864291
 20
210.5498788759129
 30
0.0
 11
574.5608234864291
 21
208.4665455425796
 31
0.0
 12
568.3108234864291
 22
209.5082122092463
 32
0.0
 13
568.3108234864291
 23
209.5082122092463
 33
0.0
  0
SOLID
  5
9A
330
94
100
AcDbEntity
  8
09-01
 62
     4
100
AcDbTrace
 10
617.7198426127686
 20
210.5498788759129
 30
0.0
 11
617.7198426127686
 21
208.4665455425796
 31
0.0
 12
623.9698426127686
 22
209.5082122092463
 32
0.0
 13
623.9698426127686
 23
209.5082122092463
 33
0.0
  0
MTEXT
  5
9B
330
94
100
AcDbEntity
  8
09-01
 62
     1
100
AcDbMText
 10
596.1403330495989
 20
215.1992933825069
 30
0.0
 40
6.25
 41
0.0
 46
0.0
 71
     5
 72
     1
  1
56
 73
     1
 44
1.0
  0
POINT
  5
9C
330
94
100
AcDbEntity
  8
DEFPOINTS
 62
     0
100
AcDbPoint
 10
568.3108234864291
 20
230.1544500377929
 30
0.0
  0
POINT
  5
9D
330
94
100
AcDbEntity
  8
DEFPOINTS
 62
     0
100
AcDbPoint
 10
623.9698426127686
 20
235.7658687974256
 30
0.0
  0
POINT
  5
9E
330
94
100
AcDbEntity
  8
DEFPOINTS
 62
     0
100
AcDbPoint
 10
623.9698426127686
 20
209.5082122092463
 30
0.0
  0
ENDBLK
  5
9F
330
94
100
AcDbEntity
  8
0
100
AcDbBlockEnd
  0
BLOCK
  5
86
330
85
100
AcDbEntity
  8
0
100
AcDbBlockBegin
  2
*D18
 70
     1
 10
0.0
 20
0.0
 30
0.0
  3
*D18
  1

  0
LINE
  5
87
330
85
100
AcDbEntity
  8
09-01
 62
     4
370
    -2
100
AcDbLine
 10
98.78232280345503
 20
173.9795980058911
 30
0.0
 11
98.78232280345503
 21
190.7050130337998
 31
0.0
  0
LINE
  5
88
330
85
100
AcDbEntity
  8
09-01
 62
     4
370
    -2
100
AcDbLine
 10
396.782322803455
 20
173.9795980058912
 30
0.0
 11
396.782322803455
 21
190.7050130337998
 31
0.0
  0
LINE
  5
89
330
85
100
AcDbEntity
  8
09-01
 62
     4
370
    -2
100
AcDbLine
 10
105.032322803455
 20
188.2050130337998
 30
0.0
 11
390.532322803455
 21
188.2050130337998
 31
0.0
  0
SOLID
  5
8A
330
85
100
AcDbEntity
  8
09-01
 62
     4
100
AcDbTrace
 10
105.032322803455
 20
189.2466797004664
 30
0.0
 11
105.032322803455
 21
187.1633463671331
 31
0.0
 12
98.78232280345503
 22
188.2050130337998
 32
0.0
 13
98.78232280345503
 23
188.2050130337998
 33
0.0
  0
SOLID
  5
8B
330
85
100
AcDbEntity
  8
09-01
 62
     4
100
AcDbTrace
 10
390.532322803455
 20
189.2466797004664
 30
0.0
 11
390.532322803455
 21
187.1633463671331
 31
0.0
 12
396.782322803455
 22
188.2050130337998
 32
0.0
 13
396.782322803455
 23
188.2050130337998
 33
0.0
  0
MTEXT
  5
8C
330
85
100
AcDbEntity
  8
09-01
 62
     1
100
AcDbMText
 10
247.782322803455
 20
193.8960942070604
 30
0.0
 40
6.25
 41
0.0
 46
0.0
 71
     5
 72
     1
  1
298
 73
     1
 44
1.0
  0
POINT
  5
8D
330
85
100
AcDbEntity
  8
DEFPOINTS
 62
     0
100
AcDbPoint
 10
98.78232280345503
 20
171.4795980058911
 30
0.0
  0
POINT
  5
8F
330
85
100
AcDbEntity
  8
DEFPOINTS
 62
     0
100
AcDbPoint
 10
396.782322803455
 20
171.4795980058912
 30
0.0
  0
POINT
  5
90
330
85
100
AcDbEntity
  8
DEFPOINTS
 62
     0
100
AcDbPoint
 10
396.782322803455
 20
188.2050130337998
 30
0.0
  0
ENDBLK
  5
91
330
85
100
AcDbEntity
  8
0
100
AcDbBlockEnd
  0
ENDSEC
  0
SECTION
  2
ENTITIES
  0
LINE
  5
76
330
2
100
AcDbEntity
  8
05-01
100
AcDbLine
 10
247.2823228034553
 20
380.5133884532261
 30
0.0
 11
247.2823228034553
 21
322.5133884532261
 31
0.0
  0
ARC
  5
7B
330
2
100
AcDbEntity
  8
0
100
AcDbCircle
 10
247.2823228034553
 20
377.5133884532261
 30
0.0
 40
2.5
100
AcDbArc
 50
0.0000000000010178
 51
180.000000000001
  0
ARC
  5
7C
330
2
100
AcDbEntity
  8
0
100
AcDbCircle
 10
247.2823228034553
 20
326.5133884532261
 30
0.0
 40
2.5
100
AcDbArc
 50
179.999999999999
 51
359.999999999999
  0
LINE
  5
7D
330
2
100
AcDbEntity
  8
02-01
100
AcDbLine
 10
251.2823228034553
 20
377.5133884532261
 30
0.0
 11
243.2823228034552
 21
377.513388453226
 31
0.0
  0
LINE
  5
81
330
2
100
AcDbEntity
  8
02-01
100
AcDbLine
 10
251.2823228034553
 20
326.513388453226
 30
0.0
 11
243.2823228034552
 21
326.5133884532262
 31
0.0
  0
LINE
  5
82
330
2
100
AcDbEntity
  8
0
100
AcDbLine
 10
249.7823228034552
 20
377.5133884532261
 30
0.0
 11
249.7823228034552
 21
326.5133884532261
 31
0.0
  0
LINE
  5
83
330
2
100
AcDbEntity
  8
0
100
AcDbLine
 10
244.7823228034553
 20
377.513388453226
 30
0.0
 11
244.7823228034553
 21
326.5133884532261
 31
0.0
  0
DIMENSION
  5
84
330
2
100
AcDbEntity
  8
09-01
100
AcDbDimension
280
     0
  2
*D18
 10
396.782322803455
 20
188.2050130337998
 30
0.0
 11
247.782322803455
 21
193.8960942070604
 31
0.0
 71
     5
 42
298.0
 73
     0
 74
     0
 75
     0
  3
Wagner$0
100
AcDbAlignedDimension
 13
98.78232280345503
 23
171.4795980058911
 33
0.0
 14
396.782322803455
 24
171.4795980058912
 34
0.0
100
AcDbRotatedDimension
1001
ACAD
1000
DSTYLE
1002
{
1070
    40
1040
2.5
1002
}
  0
DIMENSION
  5
93
330
2
100
AcDbEntity
  8
09-01
100
AcDbDimension
280
     0
  2
*D17
 10
623.9698426127686
 20
209.5082122092463
 30
0.0
 11
596.1403330495989
 21
215.1992933825069
 31
0.0
 71
     5
 42
55.65901912633944
 73
     0
 74
     0
 75
     0
  3
Wagner$0
100
AcDbAlignedDimension
 13
568.3108234864291
 23
230.1544500377929
 33
0.0
 14
623.9698426127686
 24
235.7658687974256
 34
0.0
100
AcDbRotatedDimension
1001
ACAD
1000
DSTYLE
1002
{
1070
   271
1070
     0
1070
    40
1040
2.5
1002
}
  0
DIMENSION
  5
A0
330
2
100
AcDbEntity
  8
09-01
100
AcDbDimension
280
     0
  2
*D16
 10
688.3108234864291
 20
542.0005562862825
 30
0.0
 11
699.9037469583754
 21
546.659706132837
 31
0.0
 70
   128
 71
     5
 42
10.00000000000011
 73
     0
 74
     0
 75
     0
  3
Wagner$0
100
AcDbAlignedDimension
 13
678.3108234864291
 23
528.013388453226
 33
0.0
 14
688.3108234864291
 24
527.5133884532261
 34
0.0
100
AcDbRotatedDimension
1001
ACAD
1000
DSTYLE
1002
{
1070
    40
1040
2.5
1002
}
  0
CIRCLE
  5
AF
330
2
100
AcDbEntity
  8
03-01
100
AcDbCircle
 10
247.7823228034552
 20
485.0133884532261
 30
0.0
 40
3.25
  0
LINE
  5
B4
330
2
100
AcDbEntity
  8
05-01
100
AcDbLine
 10
243.5323228034552
 20
485.0133884532261
 30
0.0
 11
252.0323228034551
 21
485.0133884532261
 31
0.0
  0
LINE
  5
B5
330
2
100
AcDbEntity
  8
05-01
100
AcDbLine
 10
247.7823228034552
 20
489.263388453226
 30
0.0
 11
247.7823228034552
 21
480.763388453226
 31
0.0
  0
INSERT
  5
B6
330
2
100
AcDbEntity
  8
09-01
100
AcDbBlockReference
  2
aaaaWagner
 10
247.8008179354525
 20
471.013388453226
 30
0.0
  0
DIMENSION
  5
CF
330
2
100
AcDbEntity
  8
09-01
100
AcDbDimension
280
     0
  2
*D11
 10
395.782322803455
 20
33.97002508349033
 30
0.0
 11
247.782322803455
 21
39.6611062567509
 31
0.0
 71
     5
 42
296.0
 73
     0
 74
     0
 75
     0
  3
Wagner$0
100
AcDbAlignedDimension
 13
99.78232280345503
 23
51.47959800589115
 33
0.0
 14
395.782322803455
 24
51.47959800589115
 34
0.0
100
AcDbRotatedDimension
1001
ACAD
1000
DSTYLE
1002
{
1070
    40
1040
2.5
1002
}
  0
DIMENSION
  5
DC
330
2
100
AcDbEntity
  8
09-01
100
AcDbDimension
280
     0
  2
*D10
 10
350.0323228034553
 20
466.6942862478331
 30
0.0
 11
364.6799717166305
 21
472.7521549167891
 31
0.0
 70
   128
 71
     5
 42
12.5
 73
     0
 74
     0
 75
     0
  3
Wagner$0
100
AcDbAlignedDimension
 13
337.5323228034553
 23
485.0133884532261
 33
0.0
 14
350.0323228034553
 24
485.0133884532261
 34
0.0
100
AcDbRotatedDimension
1001
ACAD
1000
DSTYLE
1002
{
1070
    40
1040
2.5
1002
}
  0
DIMENSION
  5
EB
330
2
100
AcDbEntity
  8
09-01
100
AcDbDimension
280
     0
  2
*D9
 10
326.6825209739327
 20
485.0133884532261
 30
0.0
 11
321.0447310694306
 21
491.0133884532261
 31
0.0
 71
     5
 42
12.0
 73
     0
 74
     0
 75
     0
  3
Wagner$0
100
AcDbAlignedDimension
 13
339.7823228034553
 23
497.013388453226
 33
0.0
 14
336.5323228034553
 24
485.0133884532261
 34
0.0
 50
90.0
100
AcDbRotatedDimension
1001
ACAD
1000
DSTYLE
1002
{
1070
    40
1040
2.5
1002
}
  0
DIMENSION
  5
FA
330
2
100
AcDbEntity
  8
09-01
100
AcDbDimension
280
     0
  2
*D8
 10
346.5323228034553
 20
504.2869672477072
 30
0.0
 11
359.5091062567735
 21
508.9091492541988
 31
0.0
 70
   128
 71
     5
 42
5.5
 73
     0
 74
     0
 75
     0
  3
Wagner$0
100
AcDbAlignedDimension
 13
341.0323228034553
 23
497.013388453226
 33
0.0
 14
346.5323228034553
 24
497.013388453226
 34
0.0
100
AcDbRotatedDimension
1001
ACAD
1000
DSTYLE
1002
{
1070
    40
1040
2.5
1002
}
  0
ARC
  5
109
330
2
100
AcDbEntity
  8
03-01
100
AcDbCircle
 10
343.7823228034553
 20
295.0133884532263
 30
0.0
 40
6.25
100
AcDbArc
 50
116.1038811373415
 51
63.89611886265846
  0
LINE
  5
10A
330
2
100
AcDbEntity
  8
05-01
100
AcDbLine
 10
336.5323228034553
 20
295.0133884532263
 30
0.0
 11
351.0323228034553
 21
295.0133884532263
 31
0.0
  0
LINE
  5
10B
330
2
100
AcDbEntity
  8
03-01
100
AcDbLine
 10
341.0323228034553
 20
307.0133884532263
 30
0.0
 11
341.0323228034553
 21
300.6258745333871
 31
0.0
  0
ARC
  5
10C
330
2
100
AcDbEntity
  8
03-01
100
AcDbCircle
 10
343.7823228034553
 20
307.0133884532263
 30
0.0
 40
2.75
100
AcDbArc
 50
0.0
 51
180.0
  0
LINE
  5
10D
330
2
100
AcDbEntity
  8
03-01
100
AcDbLine
 10
346.5323228034553
 20
300.6258745333871
 30
0.0
 11
346.5323228034553
 21
307.0133884532263
 31
0.0
  0
LINE
  5
10E
330
2
100
AcDbEntity
  8
05-01
100
AcDbLine
 10
343.7823228034553
 20
310.5133884532263
 30
0.0
 11
343.7823228034553
 21
287.7633884532263
 31
0.0
  0
LINE
  5
10F
330
2
100
AcDbEntity
  8
05-01
100
AcDbLine
 10
339.7823228034553
 20
307.0133884532263
 30
0.0
 11
347.7823228034552
 21
307.0133884532263
 31
0.0
  0
ARC
  5
110
330
2
100
AcDbEntity
  8
03-01
100
AcDbCircle
 10
151.7823228034551
 20
295.0133884532263
 30
0.0
 40
6.25
100
AcDbArc
 50
116.1038811373415
 51
63.89611886265846
  0
LINE
  5
111
330
2
100
AcDbEntity
  8
05-01
100
AcDbLine
 10
144.5323228034551
 20
295.0133884532263
 30
0.0
 11
159.0323228034551
 21
295.0133884532263
 31
0.0
  0
LINE
  5
112
330
2
100
AcDbEntity
  8
03-01
100
AcDbLine
 10
149.0323228034551
 20
307.0133884532263
 30
0.0
 11
149.0323228034551
 21
300.6258745333871
 31
0.0
  0
ARC
  5
113
330
2
100
AcDbEntity
  8
03-01
100
AcDbCircle
 10
151.7823228034551
 20
307.0133884532263
 30
0.0
 40
2.75
100
AcDbArc
 50
0.0
 51
180.0
  0
LINE
  5
114
330
2
100
AcDbEntity
  8
03-01
100
AcDbLine
 10
154.5323228034551
 20
300.6258745333871
 30
0.0
 11
154.5323228034551
 21
307.0133884532263
 31
0.0
  0
LINE
  5
115
330
2
100
AcDbEntity
  8
05-01
100
AcDbLine
 10
151.7823228034551
 20
310.5133884532263
 30
0.0
 11
151.7823228034551
 21
287.7633884532263
 31
0.0
  0
LINE
  5
116
330
2
100
AcDbEntity
  8
05-01
100
AcDbLine
 10
147.782322803455
 20
307.0133884532263
 30
0.0
 11
155.782322803455
 21
307.0133884532263
 31
0.0
  0
ARC
  5
117
330
2
100
AcDbEntity
  8
03-01
100
AcDbCircle
 10
343.7823228034553
 20
485.0133884532261
 30
0.0
 40
6.25
100
AcDbArc
 50
116.1038811373415
 51
63.89611886265846
  0
LINE
  5
118
330
2
100
AcDbEntity
  8
05-01
100
AcDbLine
 10
336.5323228034553
 20
485.0133884532261
 30
0.0
 11
351.0323228034553
 21
485.0133884532261
 31
0.0
  0
LINE
  5
119
330
2
100
AcDbEntity
  8
03-01
100
AcDbLine
 10
341.0323228034553
 20
497.013388453226
 30
0.0
 11
341.0323228034553
 21
490.6258745333868
 31
0.0
  0
ARC
  5
11A
330
2
100
AcDbEntity
  8
03-01
100
AcDbCircle
 10
343.7823228034553
 20
497.013388453226
 30
0.0
 40
2.75
100
AcDbArc
 50
0.0
 51
180.0
  0
LINE
  5
11B
330
2
100
AcDbEntity
  8
03-01
100
AcDbLine
 10
346.5323228034553
 20
490.6258745333868
 30
0.0
 11
346.5323228034553
 21
497.013388453226
 31
0.0
  0
LINE
  5
11C
330
2
100
AcDbEntity
  8
05-01
100
AcDbLine
 10
343.7823228034553
 20
500.513388453226
 30
0.0
 11
343.7823228034553
 21
477.763388453226
 31
0.0
  0
LINE
  5
11D
330
2
100
AcDbEntity
  8
05-01
100
AcDbLine
 10
339.7823228034553
 20
497.013388453226
 30
0.0
 11
347.7823228034552
 21
497.013388453226
 31
0.0
  0
ARC
  5
11E
330
2
100
AcDbEntity
  8
03-01
100
AcDbCircle
 10
151.7823228034551
 20
485.0133884532261
 30
0.0
 40
6.25
100
AcDbArc
 50
116.1038811373415
 51
63.89611886265846
  0
LINE
  5
11F
330
2
100
AcDbEntity
  8
05-01
100
AcDbLine
 10
144.5323228034551
 20
485.0133884532261
 30
0.0
 11
159.0323228034551
 21
485.0133884532261
 31
0.0
  0
LINE
  5
120
330
2
100
AcDbEntity
  8
03-01
100
AcDbLine
 10
149.0323228034551
 20
497.013388453226
 30
0.0
 11
149.0323228034551
 21
490.6258745333868
 31
0.0
  0
ARC
  5
121
330
2
100
AcDbEntity
  8
03-01
100
AcDbCircle
 10
151.7823228034551
 20
497.013388453226
 30
0.0
 40
2.75
100
AcDbArc
 50
0.0
 51
180.0
  0
LINE
  5
122
330
2
100
AcDbEntity
  8
03-01
100
AcDbLine
 10
154.5323228034551
 20
490.6258745333868
 30
0.0
 11
154.5323228034551
 21
497.013388453226
 31
0.0
  0
LINE
  5
123
330
2
100
AcDbEntity
  8
05-01
100
AcDbLine
 10
151.7823228034551
 20
500.513388453226
 30
0.0
 11
151.7823228034551
 21
477.763388453226
 31
0.0
  0
LINE
  5
124
330
2
100
AcDbEntity
  8
05-01
100
AcDbLine
 10
147.7823228034551
 20
497.013388453226
 30
0.0
 11
155.7823228034551
 21
497.013388453226
 31
0.0
  0
INSERT
  5
125
330
2
100
AcDbEntity
  8
09-01
100
AcDbBlockReference
 66
     1
  2
DIN A3
 10
0.0000004604480637
 20
-0.0000015227592485
 30
0.0
 41
2.0
 42
2.0
 43
2.0
  0
ATTRIB
  5
2CA
330
125
100
AcDbEntity
  8
06-99
100
AcDbText
 10
650.990893478272
 20
54.37567739456312
 30
0.0
 40
9.0
  1
Handtuchspender WP 113
 41
0.9
  7
ROMANS8
100
AcDbAttribute
280
     0
  2
TEILE
 70
     0
280
     0
  0
ATTRIB
  5
2CB
330
125
100
AcDbEntity
  8
06-99
100
AcDbText
 10
650.990893478272
 20
39.7835472070849
 30
0.0
 40
9.0
  1

 41
0.9
  7
ROMANS8
100
AcDbAttribute
280
     0
  2
TEILE2
 70
     0
280
     0
  0
ATTRIB
  5
2CC
330
125
100
AcDbEntity
  8
06-99
100
AcDbText
 10
800.6947724233468
 20
92.66666666666537
 30
0.0
 40
6.75
  1
1:2
  7
ROMANS8
100
AcDbAttribute
280
     0
  2
:
 70
     0
280
     0
  0
ATTRIB
  5
2CD
330
125
100
AcDbEntity
  8
06-99
100
AcDbText
 10
603.9941355986525
 20
56.88337093606128
 30
0.0
 40
5.0
  1
Pfrepper
 41
0.9
  7
ROMANS8
100
AcDbAttribute
280
     0
  2
NAME
 70
     0
280
     0
  0
ATTRIB
  5
2CE
330
125
100
AcDbEntity
  8
06-99
100
AcDbText
 10
576.9862929037058
 20
56.92247034822116
 30
0.0
 40
5.0
  1
16.07.2012
 50
359.9144597696142
 41
0.5691052222933156
  7
ROMANS8
 72
     5
 11
599.4794742407953
 21
56.88888893333206
 31
0.0
100
AcDbAttribute
280
     0
  2
DATUM
 70
     0
280
     0
  0
ATTRIB
  5
2CF
330
125
100
AcDbEntity
  8
06-99
100
AcDbText
 10
775.0126879342342
 20
16.98579960057611
 30
0.0
 40
5.98752
  1
727433
  7
ROMANS8
100
AcDbAttribute
280
     0
  2
ID.NR
 70
     0
280
     0
  0
ATTRIB
  5
2D0
330
125
100
AcDbEntity
  8
06-99
100
AcDbText
 10
651.4625325113388
 20
77.33333328888761
 30
0.0
 40
6.0
  1

 41
0.9
  7
ROMANS8
100
AcDbAttribute
280
     0
  2
LÄNGE
 70
     0
280
     0
  0
ATTRIB
  5
2D1
330
125
100
AcDbEntity
  8
06-99
100
AcDbText
 10
718.3616098234572
 20
77.35620774088829
 30
0.0
 40
6.0
  1

 41
0.9
  7
ROMANS8
100
AcDbAttribute
280
     0
  2
BREITE
 70
     0
280
     0
  0
ATTRIB
  5
2D2
330
125
100
AcDbEntity
  8
06-99
100
AcDbText
 10
799.2181842533814
 20
77.33333333333224
 30
0.0
 40
6.187500000000001
  1

  7
ROMANS8
100
AcDbAttribute
280
     0
  2
1.0
 70
     0
280
     0
  0
ATTRIB
  5
2D3
330
125
100
AcDbEntity
  8
06-99
100
AcDbText
 10
746.2555712027231
 20
92.6666666666656
 30
0.0
 40
6.0
  1

  7
ROMANS8
 72
     1
 11
746.2555712027231
 21
92.6666666666656
 31
0.0
100
AcDbAttribute
280
     0
  2
IV
 70
     0
280
     0
  0
ATTRIB
  5
2D4
330
125
100
AcDbEntity
  8
06-99
100
AcDbText
 10
664.5494810721493
 20
92.66666666666514
 30
0.0
 40
6.75
  1
1.4301
  7
ROMANS8
100
AcDbAttribute
280
     0
  2
1.4301
 70
     0
280
     0
  0
ATTRIB
  5
2D5
330
125
100
AcDbEntity
  8
06-99
100
AcDbText
 10
710.0012677736779
 20
17.00879320870797
 30
0.0
 40
6.336
  1

 41
0.9000000000000001
  7
ROMANS8
100
AcDbAttribute
280
     0
  2
AUFTRAGS.NR.
 70
     0
280
     0
  0
ATTRIB
  5
2D6
330
125
100
AcDbEntity
  8
06-99
100
AcDbText
 10
650.9999999999177
 20
16.99999999999875
 30
0.0
 40
6.336
  1

 41
0.9000000000000001
  7
ROMANS8
100
AcDbAttribute
280
     0
  2
SONDER-NR
 70
     0
280
     0
  0
ATTRIB
  5
2D7
330
125
100
AcDbEntity
  8
06-99
100
AcDbText
 10
510.9995019899343
 20
15.20362013851843
 30
0.0
 40
3.0
  1

 41
0.9
  7
ROMANS8
100
AcDbAttribute
280
     0
  2
ERSETZT.DURCH
 70
     0
280
     0
  0
ATTRIB
  5
2D8
330
125
100
AcDbEntity
  8
06-99
100
AcDbText
 10
460.9989355603147
 20
15.19491279574356
 30
0.0
 40
3.0
  1

 41
0.9
  7
ROMANS8
100
AcDbAttribute
280
     0
  2
ERSETZT.FÜR
 70
     0
280
     0
  0
ATTRIB
  5
2D9
330
125
100
AcDbEntity
  8
06-99
100
AcDbText
 10
618.0074310070786
 20
97.33702228001471
 30
0.0
 40
2.574
  1
DIN A3
  7
ROMANS8
 72
     1
 11
624.5037167213642
 21
97.33702228001471
 31
0.0
100
AcDbAttribute
280
     0
  2
FORMAT
 70
     0
280
     0
  0
ATTRIB
  5
2DA
330
125
100
AcDbEntity
  8
06-99
100
AcDbText
 10
609.9828571427747
 20
76.79333333333204
 30
0.0
 40
4.68
  1
DIN 2768
  7
ROMANS8
 72
     1
 11
626.028571428489
 21
76.79333333333204
 31
0.0
100
AcDbAttribute
280
     0
  2
NORM2
 70
     0
280
     0
  0
ATTRIB
  5
2DB
330
125
100
AcDbEntity
  8
06-99
100
AcDbText
 10
603.6314285713461
 20
84.45999999999868
 30
0.0
 40
4.68
  1
DIN 6930-M
  7
ROMANS8
 72
     1
 11
625.0257142856319
 21
84.45999999999868
 31
0.0
100
AcDbAttribute
280
     0
  2
NORM1
 70
     0
280
     0
  0
SEQEND
  5
2DC
330
125
100
AcDbEntity
  8
09-01
  0
LINE
  5
2DD
330
2
100
AcDbEntity
  8
0
100
AcDbLine
 10
239.2805724342368
 20
51.47959800589115
 30
0.0
 11
239.2805724342368
 21
49.67959800589119
 31
0.0
  0
LINE
  5
2DE
330
2
100
AcDbEntity
  8
0
100
AcDbLine
 10
256.2805724342368
 20
49.67959800589119
 30
0.0
 11
256.2805724342368
 21
51.47959800589115
 31
0.0
  0
LINE
  5
2DF
330
2
100
AcDbEntity
  8
0
100
AcDbLine
 10
239.2805724342368
 20
49.67959800589119
 30
0.0
 11
256.2805724342368
 21
49.67959800589119
 31
0.0
  0
LINE
  5
2E0
330
2
100
AcDbEntity
  8
0
100
AcDbLine
 10
240.5305724342368
 20
48.17959800589119
 30
0.0
 11
239.2805724342368
 21
49.67959800589119
 31
0.0
  0
LINE
  5
2E1
330
2
100
AcDbEntity
  8
0
100
AcDbLine
 10
255.0305724342368
 20
48.17959800589119
 30
0.0
 11
256.2805724342368
 21
49.67959800589119
 31
0.0
  0
LINE
  5
2E2
330
2
100
AcDbEntity
  8
0
100
AcDbLine
 10
255.0305724342368
 20
48.17959800589119
 30
0.0
 11
240.5305724342368
 21
48.17959800589119
 31
0.0
  0
DIMENSION
  5
2E3
330
2
100
AcDbEntity
  8
09-01
100
AcDbDimension
280
     0
  2
*D7
 10
98.78232280345514
 20
449.9643201782277
 30
0.0
 11
127.6761471266555
 21
455.8025538601973
 31
0.0
 70
   128
 71
     5
 42
53.0
 73
     0
 74
     0
 75
     0
  3
Wagner$0
100
AcDbAlignedDimension
 13
151.7823228034551
 23
477.763388453226
 33
0.0
 14
98.78232280345514
 24
478.2465406146443
 34
0.0
100
AcDbRotatedDimension
1001
ACAD
1000
DSTYLE
1002
{
1070
    40
1040
2.5
1002
}
  0
DIMENSION
  5
2F0
330
2
100
AcDbEntity
  8
09-01
100
AcDbDimension
280
     0
  2
*D6
 10
396.7823228034551
 20
449.9643201782277
 30
0.0
 11
367.1824450064443
 21
455.8025538601973
 31
0.0
 70
   128
 71
     5
 42
52.99999999999989
 73
     0
 74
     0
 75
     0
  3
Wagner$0
100
AcDbAlignedDimension
 13
343.7823228034553
 23
477.763388453226
 33
0.0
 14
396.7823228034551
 24
468.6551580984359
 34
0.0
100
AcDbRotatedDimension
1001
ACAD
1000
DSTYLE
1002
{
1070
    40
1040
2.5
1002
}
  0
DIMENSION
  5
2FD
330
2
100
AcDbEntity
  8
09-01
100
AcDbDimension
280
     0
  2
*D5
 10
343.7823228034553
 20
449.9643201782277
 30
0.0
 11
247.7823228034552
 21
455.6554013514883
 31
0.0
 71
     5
 42
192.0000000000001
 73
     0
 74
     0
 75
     0
  3
Wagner$0
100
AcDbAlignedDimension
 13
151.7823228034551
 23
477.763388453226
 33
0.0
 14
343.7823228034553
 24
477.763388453226
 34
0.0
100
AcDbRotatedDimension
1001
ACAD
1000
DSTYLE
1002
{
1070
    40
1040
2.5
1002
}
  0
LINE
  5
30A
330
2
100
AcDbEntity
  8
0
100
AcDbLine
 10
688.3108234864291
 20
492.513388453226
 30
0.0
 11
690.1108234864291
 21
492.513388453226
 31
0.0
  0
LINE
  5
30B
330
2
100
AcDbEntity
  8
0
100
AcDbLine
 10
690.1108234864291
 20
509.513388453226
 30
0.0
 11
688.3108234864291
 21
509.513388453226
 31
0.0
  0
LINE
  5
30C
330
2
100
AcDbEntity
  8
0
100
AcDbLine
 10
690.1108234864291
 20
492.513388453226
 30
0.0
 11
690.1108234864291
 21
509.513388453226
 31
0.0
  0
LINE
  5
30D
330
2
100
AcDbEntity
  8
0
100
AcDbLine
 10
691.6108234864291
 20
493.763388453226
 30
0.0
 11
690.1108234864291
 21
492.513388453226
 31
0.0
  0
LINE
  5
30E
330
2
100
AcDbEntity
  8
0
100
AcDbLine
 10
691.6108234864291
 20
508.2633884532261
 30
0.0
 11
690.1108234864291
 21
509.513388453226
 31
0.0
  0
LINE
  5
30F
330
2
100
AcDbEntity
  8
0
100
AcDbLine
 10
691.6108234864291
 20
508.2633884532261
 30
0.0
 11
691.6108234864291
 21
493.763388453226
 31
0.0
  0
DIMENSION
  5
310
330
2
100
AcDbEntity
  8
09-01
100
AcDbDimension
280
     0
  2
*D4
 10
168.8510671023532
 20
307.0133884532261
 30
0.0
 11
163.1599859290926
 21
402.0133884532261
 31
0.0
 71
     5
 42
190.0
 73
     0
 74
     0
 75
     0
  3
Wagner$0
100
AcDbAlignedDimension
 13
155.7823228034549
 23
497.013388453226
 33
0.0
 14
155.7823228034549
 24
307.0133884532261
 34
0.0
 50
90.0
100
AcDbRotatedDimension
1001
ACAD
1000
DSTYLE
1002
{
1070
    40
1040
2.5
1002
}
  0
DIMENSION
  5
31D
330
2
100
AcDbEntity
  8
09-01
100
AcDbDimension
280
     0
  2
*D3
 10
168.8510671023532
 20
528.013388453226
 30
0.0
 11
162.2632713778885
 21
506.4620870152452
 31
0.0
 70
   128
 71
     5
 42
30.99999999999994
 73
     0
 74
     0
 75
     0
  3
Wagner$0
100
AcDbAlignedDimension
 13
155.7823228034549
 23
497.013388453226
 33
0.0
 14
155.7823228034549
 24
528.013388453226
 34
0.0
 50
90.0
100
AcDbRotatedDimension
1001
ACAD
1000
DSTYLE
1002
{
1070
    40
1040
2.5
1002
}
  0
LINE
  5
32A
330
2
100
AcDbEntity
  8
05-01
100
AcDbLine
 10
247.8008179354525
 20
490.513388453226
 30
0.0
 11
247.8008179354525
 21
511.513388453226
 31
0.0
  0
LINE
  5
32B
330
2
100
AcDbEntity
  8
05-01
100
AcDbLine
 10
237.3008179354525
 20
501.013388453226
 30
0.0
 11
258.3008179354525
 21
501.013388453226
 31
0.0
  0
CIRCLE
  5
32C
330
2
100
AcDbEntity
  8
0
100
AcDbCircle
 10
247.8008179354525
 20
501.013388453226
 30
0.0
 40
8.5
  0
LINE
  5
32D
330
2
100
AcDbEntity
  8
0
100
AcDbLine
 10
246.5508179354525
 20
497.817960291182
 30
0.0
 11
249.0508179354525
 21
497.817960291182
 31
0.0
  0
LINE
  5
32E
330
2
100
AcDbEntity
  8
0
100
AcDbLine
 10
246.5508179354525
 20
505.813388453226
 30
0.0
 11
249.0508179354525
 21
505.813388453226
 31
0.0
  0
LWPOLYLINE
  5
32F
330
2
100
AcDbEntity
  8
0
100
AcDbPolyline
 90
        2
 70
     0
 43
0.0
 10
246.5508179354525
 20
504.011996927112
 10
246.5508179354525
 20
505.813388453226
  0
LWPOLYLINE
  5
330
330
2
100
AcDbEntity
  8
0
100
AcDbPolyline
 90
        2
 70
     0
 43
0.0
 10
246.5508179354525
 20
497.817960291182
 10
246.5508179354525
 20
499.6818699081898
  0
LWPOLYLINE
  5
331
330
2
100
AcDbEntity
  8
0
100
AcDbPolyline
 90
        2
 70
     0
 43
0.0
 10
249.0508179354525
 20
504.011996927112
 10
249.0508179354525
 20
505.813388453226
  0
LWPOLYLINE
  5
332
330
2
100
AcDbEntity
  8
0
100
AcDbPolyline
 90
        2
 70
     0
 43
0.0
 10
249.0508179354525
 20
497.817960291182
 10
249.0508179354525
 20
499.6818699081898
  0
ARC
  5
333
330
2
100
AcDbEntity
  8
0
100
AcDbCircle
 10
247.8008179354525
 20
501.8469334176509
 30
0.0
 40
2.5
100
AcDbArc
 50
299.9999999999985
 51
60.0000000000015
  0
ARC
  5
334
330
2
100
AcDbEntity
  8
0
100
AcDbCircle
 10
247.8008179354525
 20
501.8469334176509
 30
0.0
 40
2.5
100
AcDbArc
 50
119.9999999999985
 51
240.0000000000015
  0
CIRCLE
  5
335
330
2
100
AcDbEntity
  8
0
100
AcDbCircle
 10
247.8008179354525
 20
501.013388453226
 30
0.0
 40
7.25
  0
DIMENSION
  5
336
330
2
100
AcDbEntity
  8
09-01
100
AcDbDimension
280
     0
  2
*D2
 10
706.8093354990833
 20
249.513388453226
 30
0.0
 11
701.1182543258227
 21
388.5133884532261
 31
0.0
 71
     5
 42
278.0
 73
     0
 74
     0
 75
     0
  3
Wagner$0
100
AcDbAlignedDimension
 13
688.3108234864291
 23
527.5133884532261
 33
0.0
 14
688.3108234864291
 24
249.5133884532261
 34
0.0
 50
90.0
100
AcDbRotatedDimension
1001
ACAD
1000
DSTYLE
1002
{
1070
    40
1040
2.5
1002
}
  0
DIMENSION
  5
343
330
2
100
AcDbEntity
  8
01-01
100
AcDbDimension
280
     0
  2
*D15
 10
86.35472400408991
 20
528.013388453226
 30
0.0
 11
80.66364283082926
 21
379.0133884532261
 31
0.0
 71
     5
 42
298.0
 73
     0
 74
     0
 75
     0
  3
Wagner$0
100
AcDbAlignedDimension
 13
98.78232280345503
 23
230.0133884532261
 33
0.0
 14
98.78232280345503
 24
528.013388453226
 34
0.0
 50
90.0
100
AcDbRotatedDimension
1001
ACAD
1000
DSTYLE
1002
{
1070
    40
1040
2.5
1002
}
  0
LINE
  5
353
330
2
100
AcDbEntity
  8
05-01
100
AcDbLine
 10
623.1363313599675
 20
240.492946011884
 30
0.0
 11
623.9698426127686
 21
235.7658687974256
 31
0.0
  0
LINE
  5
354
330
2
100
AcDbEntity
  8
0
100
AcDbLine
 10
678.3108234864291
 20
528.013388453226
 30
0.0
 11
678.3108234864292
 21
249.4093563311574
 31
0.0
  0
ARC
  5
355
330
2
100
AcDbEntity
  8
03-01
100
AcDbCircle
 10
365.0419788616609
 20
111.4505250747183
 30
0.0
 40
5.0
100
AcDbArc
 50
286.758342696612
 51
0.0084463854031491
  0
ARC
  5
356
330
2
100
AcDbEntity
  8
03-01
100
AcDbCircle
 10
365.040362900135
 20
122.4123472255835
 30
0.0
 40
5.0
100
AcDbArc
 50
0.0084463854031491
 51
74.10935128312009
  0
ARC
  5
357
330
2
100
AcDbEntity
  8
0
100
AcDbCircle
 10
128.0836737638118
 20
235.2986904263326
 30
0.0
 40
3.0
100
AcDbArc
 50
180.0
 51
268.839350616578
  0
LINE
  5
358
330
2
100
AcDbEntity
  8
0
100
AcDbLine
 10
125.0836737638116
 20
237.7827244403836
 30
0.0
 11
125.0836737638116
 21
236.2851670839002
 31
0.0
  0
ARC
  5
359
330
2
100
AcDbEntity
  8
0
100
AcDbCircle
 10
128.0836737638116
 20
237.7827244403832
 30
0.0
 40
3.0
100
AcDbArc
 50
93.87582613199798
 51
179.9999999999935
  0
ARC
  5
35A
330
2
100
AcDbEntity
  8
0
100
AcDbCircle
 10
128.0836737638118
 20
236.37281889325
 30
0.0
 40
3.0
100
AcDbArc
 50
91.32457210194543
 51
180.0
  0
ARC
  5
35B
330
2
100
AcDbEntity
  8
0
100
AcDbCircle
 10
366.9196014221084
 20
237.2410126946268
 30
0.0
 40
3.0
100
AcDbArc
 50
0.0
 51
85.8642653707564
  0
LINE
  5
35C
330
2
100
AcDbEntity
  8
0
100
AcDbLine
 10
369.9196014221084
 20
237.2410126946268
 30
0.0
 11
369.9196014221084
 21
235.8349912924334
 31
0.0
  0
ARC
  5
35D
330
2
100
AcDbEntity
  8
0
100
AcDbCircle
 10
366.8836737638118
 20
235.4017631652441
 30
0.0
 40
3.0
100
AcDbArc
 50
271.2101102925363
 51
0.0
  0
ARC
  5
35E
330
2
100
AcDbEntity
  8
0
100
AcDbCircle
 10
366.8836737638118
 20
236.37281889325
 30
0.0
 40
3.0
100
AcDbArc
 50
0.0
 51
88.67542789805536
  0
LINE
  5
35F
330
2
100
AcDbEntity
  8
0
100
AcDbLine
 10
369.8836737638118
 20
236.37281889325
 30
0.0
 11
369.8836737638118
 21
235.4017631652441
 31
0.0
  0
LINE
  5
360
330
2
100
AcDbEntity
  8
0
100
AcDbLine
 10
125.0836737638119
 20
236.37281889325
 30
0.0
 11
125.0836737638119
 21
235.2986904263326
 31
0.0
  0
ARC
  5
361
330
2
100
AcDbEntity
  8
03-01
100
AcDbCircle
 10
130.5096456250322
 20
111.5312265981029
 30
0.0
 40
5.0
100
AcDbArc
 50
180.0
 51
253.2022268637245
  0
ARC
  5
362
330
2
100
AcDbEntity
  8
03-01
100
AcDbCircle
 10
130.5096456250322
 20
122.335592258074
 30
0.0
 40
5.0
100
AcDbArc
 50
105.9281511437601
 51
180.0
  0
LINE
  5
363
330
2
100
AcDbEntity
  8
03-01
100
AcDbLine
 10
370.0403628458055
 20
122.4130843117568
 30
0.0
 11
370.0419788073312
 21
111.4512621608917
 31
0.0
  0
LINE
  5
364
330
2
100
AcDbEntity
  8
03-01
100
AcDbLine
 10
125.5096456250322
 20
122.335592258074
 30
0.0
 11
125.5096456250322
 21
111.5312265981029
 31
0.0
  0
ARC
  5
365
330
2
100
AcDbEntity
  8
03-01
100
AcDbCircle
 10
247.9096456250322
 20
500.4334131684136
 30
0.0
 40
411.2359791047181
100
AcDbArc
 50
253.2022268637224
 51
286.758342696612
  0
ARC
  5
366
330
2
100
AcDbEntity
  8
03-01
100
AcDbCircle
 10
247.9096456250322
 20
-289.0330874768505
 30
0.0
 40
432.7931166660526
100
AcDbArc
 50
74.10935128312009
 51
105.9281511437615
  0
ARC
  5
367
330
2
100
AcDbEntity
  8
0
100
AcDbCircle
 10
247.4836737638118
 20
-4927.481439204422
 30
0.0
 40
5168.234472787606
100
AcDbArc
 50
88.67542789805133
 51
91.32457210194868
  0
ARC
  5
368
330
2
100
AcDbEntity
  8
0
100
AcDbCircle
 10
244.9929994155386
 20
6005.770617753217
 30
0.0
 40
5774.656092881141
100
AcDbArc
 50
268.8393506165819
 51
271.2101102925956
  0
ARC
  5
369
330
2
100
AcDbEntity
  8
0
100
AcDbCircle
 10
243.6338257496152
 20
-1467.772236585022
 30
0.0
 40
1712.464700630673
100
AcDbArc
 50
85.86426537076443
 51
93.87582613200772
  0
DIMENSION
  5
36A
330
2
100
AcDbEntity
  8
01-01
100
AcDbDimension
280
     0
  2
*D14
 10
568.3108234864291
 20
554.0976375383539
 30
0.0
 11
628.3108234864291
 21
559.7887187116144
 31
0.0
 71
     5
 42
120.0
 73
     0
 74
     0
 75
     0
  3
Wagner$0
100
AcDbAlignedDimension
 13
688.3108234864291
 23
527.5133884532261
 33
0.0
 14
568.3108234864291
 24
528.013388453226
 34
0.0
100
AcDbRotatedDimension
1001
ACAD
1000
DSTYLE
1002
{
1070
    40
1040
2.5
1002
}
  0
DIMENSION
  5
377
330
2
100
AcDbEntity
  8
09-01
100
AcDbDimension
280
     0
  2
*D13
 10
678.3108234864291
 20
542.0005562862825
 30
0.0
 11
623.3108234864292
 21
547.6916374595431
 31
0.0
 71
     5
 42
110.0
 73
     0
 74
     0
 75
     0
  3
Wagner$0
100
AcDbAlignedDimension
 13
568.3108234864291
 23
528.013388453226
 33
0.0
 14
678.3108234864291
 24
528.013388453226
 34
0.0
100
AcDbRotatedDimension
1001
ACAD
1000
DSTYLE
1002
{
1070
    40
1040
2.5
1002
}
  0
DIMENSION
  5
384
330
2
100
AcDbEntity
  8
01-01
100
AcDbDimension
280
     0
  2
*D12
 10
396.782322803455
 20
541.5617540961259
 30
0.0
 11
247.782322803455
 21
547.2528352693865
 31
0.0
 71
     5
 42
298.0
 73
     0
 74
     0
 75
     0
  3
Wagner$0
100
AcDbAlignedDimension
 13
98.78232280345503
 23
528.013388453226
 33
0.0
 14
396.782322803455
 24
528.013388453226
 34
0.0
100
AcDbRotatedDimension
1001
ACAD
1000
DSTYLE
1002
{
1070
    40
1040
2.5
1002
}
  0
LINE
  5
391
330
2
100
AcDbEntity
  8
0
100
AcDbLine
 10
396.782322803455
 20
171.4795980058912
 30
0.0
 11
98.78232280345503
 21
171.4795980058911
 31
0.0
  0
LINE
  5
392
330
2
100
AcDbEntity
  8
0
100
AcDbLine
 10
650.870537782448
 20
244.5708936031967
 30
0.0
 11
651.5647453763189
 21
240.6338466970353
 31
0.0
  0
LINE
  5
393
330
2
100
AcDbEntity
  8
0
100
AcDbLine
 10
595.7213036137643
 20
234.8465956538484
 30
0.0
 11
596.4155112076353
 21
230.9095487476873
 31
0.0
  0
LINE
  5
394
330
2
100
AcDbEntity
  8
0
100
AcDbLine
 10
596.4155112076353
 20
230.9095487476873
 30
0.0
 11
651.5647453763189
 21
240.6338466970353
 31
0.0
  0
LINE
  5
395
330
2
100
AcDbEntity
  8
0
100
AcDbLine
 10
569.1108234864294
 20
230.1544500377929
 30
0.0
 11
678.3108234864292
 21
249.4093563311574
 31
0.0
  0
LINE
  5
396
330
2
100
AcDbEntity
  8
0
100
AcDbLine
 10
569.1108234864294
 20
230.1544500377929
 30
0.0
 11
568.3108234864291
 21
230.1544500377929
 31
0.0
  0
LINE
  5
397
330
2
100
AcDbEntity
  8
0
100
AcDbLine
 10
395.782322803455
 20
51.47959800589115
 30
0.0
 11
395.782322803455
 21
61.47959800589115
 31
0.0
  0
LINE
  5
398
330
2
100
AcDbEntity
  8
0
100
AcDbLine
 10
99.78232280345503
 20
51.47959800589115
 30
0.0
 11
99.78232280345503
 21
61.47959800589115
 31
0.0
  0
LINE
  5
399
330
2
100
AcDbEntity
  8
0
100
AcDbLine
 10
99.78232280345503
 20
51.47959800589115
 30
0.0
 11
395.782322803455
 21
51.47959800589115
 31
0.0
  0
LINE
  5
39A
330
2
100
AcDbEntity
  8
0
100
AcDbLine
 10
98.78232280345503
 20
61.47959800589115
 30
0.0
 11
396.782322803455
 21
61.47959800589115
 31
0.0
  0
LINE
  5
39B
330
2
100
AcDbEntity
  8
0
100
AcDbLine
 10
396.782322803455
 20
61.47959800589115
 30
0.0
 11
396.782322803455
 21
171.4795980058912
 31
0.0
  0
LINE
  5
39C
330
2
100
AcDbEntity
  8
0
100
AcDbLine
 10
98.78232280345503
 20
61.47959800589115
 30
0.0
 11
98.78232280345503
 21
171.4795980058911
 31
0.0
  0
LINE
  5
39D
330
2
100
AcDbEntity
  8
0
100
AcDbLine
 10
395.782322803455
 20
249.5133884532261
 30
0.0
 11
99.78232280345505
 21
249.5133884532261
 31
0.0
  0
LINE
  5
39E
330
2
100
AcDbEntity
  8
0
100
AcDbLine
 10
395.782322803455
 20
527.0133884532261
 30
0.0
 11
395.782322803455
 21
249.5133884532261
 31
0.0
  0
LINE
  5
39F
330
2
100
AcDbEntity
  8
0
100
AcDbLine
 10
99.78232280345503
 20
527.0133884532261
 30
0.0
 11
395.782322803455
 21
527.0133884532261
 31
0.0
  0
LINE
  5
3A0
330
2
100
AcDbEntity
  8
0
100
AcDbLine
 10
99.78232280345503
 20
527.0133884532261
 30
0.0
 11
99.78232280345505
 21
249.5133884532261
 31
0.0
  0
LINE
  5
3A1
330
2
100
AcDbEntity
  8
0
100
AcDbLine
 10
678.3108234864292
 20
249.5133884532261
 30
0.0
 11
688.3108234864291
 21
249.5133884532261
 31
0.0
  0
LINE
  5
3A2
330
2
100
AcDbEntity
  8
0
100
AcDbLine
 10
678.3108234864291
 20
527.5133884532261
 30
0.0
 11
688.3108234864291
 21
527.5133884532261
 31
0.0
  0
LINE
  5
3A3
330
2
100
AcDbEntity
  8
0
100
AcDbLine
 10
688.3108234864291
 20
527.5133884532261
 30
0.0
 11
688.3108234864291
 21
249.5133884532261
 31
0.0
  0
LINE
  5
3A4
330
2
100
AcDbEntity
  8
0
100
AcDbLine
 10
568.3108234864291
 20
528.013388453226
 30
0.0
 11
678.3108234864291
 21
528.013388453226
 31
0.0
  0
LINE
  5
3A5
330
2
100
AcDbEntity
  8
0
100
AcDbLine
 10
568.3108234864291
 20
528.013388453226
 30
0.0
 11
568.3108234864291
 21
230.1544500377929
 31
0.0
  0
LINE
  5
3A6
330
2
100
AcDbEntity
  8
0
100
AcDbLine
 10
396.782322803455
 20
528.013388453226
 30
0.0
 11
396.782322803455
 21
230.013388453226
 31
0.0
  0
LINE
  5
3A7
330
2
100
AcDbEntity
  8
0
100
AcDbLine
 10
98.78232280345503
 20
528.013388453226
 30
0.0
 11
98.78232280345503
 21
230.0133884532261
 31
0.0
  0
LINE
  5
3A8
330
2
100
AcDbEntity
  8
0
100
AcDbLine
 10
98.78232280345503
 20
230.0133884532261
 30
0.0
 11
396.782322803455
 21
230.013388453226
 31
0.0
  0
LINE
  5
3A9
330
2
100
AcDbEntity
  8
0
100
AcDbLine
 10
98.78232280345503
 20
528.013388453226
 30
0.0
 11
396.782322803455
 21
528.013388453226
 31
0.0
  0
ENDSEC
  0
SECTION
  2
OBJECTS
  0
DICTIONARY
  5
B
330
0
100
AcDbDictionary
281
     1
  3
ACAD_COLOR
350
49
  3
ACAD_GROUP
350
36
  3
ACAD_LAYOUT
350
18
  3
ACAD_MATERIAL
350
D
  3
ACAD_MLEADERSTYLE
350
4C
  3
ACAD_MLINESTYLE
350
37
  3
ACAD_PLOTSETTINGS
350
38
  3
ACAD_PLOTSTYLENAME
350
A
  3
ACAD_SCALELIST
350
4A
  3
ACAD_TABLESTYLE
350
4B
  3
ACAD_VISUALSTYLE
350
2C
  3
ACDB_RECOMPOSE_DATA
350
3B7
  3
AcDbVariableDictionary
350
3AD
  0
DICTIONARY
  5
2D
330
29
100
AcDbDictionary
280
     1
281
     1
  0
DICTIONARY
  5
1E
330
1D
100
AcDbDictionary
280
     1
281
     1
  3
ACAD_LAYERSTATES
360
1F
  0
DICTIONARY
  5
7
330
6
100
AcDbDictionary
280
     1
281
     1
  3
ADSK_XREC_LAYER_RECONCILED
360
8
  0
DICTIONARY
  5
345
330
344
100
AcDbDictionary
280
     1
281
     1
  3
ADSK_XREC_LAYER_RECONCILED
360
346
  0
DICTIONARY
  5
12C
330
12B
100
AcDbDictionary
280
     1
281
     1
  3
ADSK_XREC_LAYER_RECONCILED
360
12D
  0
DICTIONARY
  5
78
330
77
100
AcDbDictionary
280
     1
281
     1
  3
ADSK_XREC_LAYER_RECONCILED
360
79
  0
DICTIONARY
  5
7F
330
7E
100
AcDbDictionary
280
     1
281
     1
  3
ADSK_XREC_LAYER_RECONCILED
360
80
  0
DICTIONARY
  5
B1
330
B0
100
AcDbDictionary
280
     1
281
     1
  3
ADSK_XREC_LAYER_RECONCILED
360
B2
  0
DICTIONARY
  5
4E
330
4D
100
AcDbDictionary
280
     1
281
     1
  3
ADSK_XREC_LAYER_RECONCILED
360
4F
  0
DICTIONARY
  5
169
330
168
100
AcDbDictionary
280
     1
281
     1
  3
ADSK_XREC_LAYER_RECONCILED
360
16A
  0
DICTIONARY
  5
153
330
152
100
AcDbDictionary
280
     1
281
     1
  3
ADSK_XREC_LAYER_RECONCILED
360
154
  0
DICTIONARY
  5
BD
330
BC
100
AcDbDictionary
280
     1
281
     1
  0
DICTIONARY
  5
3
330
2
100
AcDbDictionary
280
     1
281
     1
  3
ACAD_SORTENTS
360
3AC
  0
DICTIONARY
  5
127
330
126
100
AcDbDictionary
280
     1
281
     1
  3
ACAD_SORTENTS
360
3AB
  0
DICTIONARY
  5
B8
330
B7
100
AcDbDictionary
280
     1
281
     1
  3
ACAD_SORTENTS
360
3AA
  0
DICTIONARY
  5
49
102
{ACAD_REACTORS
330
B
102
}
330
B
100
AcDbDictionary
281
     1
  0
DICTIONARY
  5
36
102
{ACAD_REACTORS
330
B
102
}
330
B
100
AcDbDictionary
281
     1
  0
DICTIONARY
  5
18
102
{ACAD_REACTORS
330
B
102
}
330
B
100
AcDbDictionary
281
     1
  3
Layout1
350
1C
  3
Model
350
17
  0
DICTIONARY
  5
D
102
{ACAD_REACTORS
330
B
102
}
330
B
100
AcDbDictionary
281
     1
  3
ByBlock
350
41
  3
ByLayer
350
39
  3
Global
350
C
  0
DICTIONARY
  5
4C
102
{ACAD_REACTORS
330
B
102
}
330
B
100
AcDbDictionary
281
     1
  0
DICTIONARY
  5
37
102
{ACAD_REACTORS
330
B
102
}
330
B
100
AcDbDictionary
281
     1
  3
Standard
350
50
  0
DICTIONARY
  5
38
102
{ACAD_REACTORS
330
B
102
}
330
B
100
AcDbDictionary
281
     1
  0
ACDBDICTIONARYWDFLT
  5
A
102
{ACAD_REACTORS
330
B
102
}
330
B
100
AcDbDictionary
281
     1
  3
Normal
350
9
100
AcDbDictionaryWithDefault
340
9
  0
DICTIONARY
  5
4A
102
{ACAD_REACTORS
330
B
102
}
330
B
100
AcDbDictionary
281
     1
  3
A0
350
55
  3
A1
350
56
  3
A2
350
57
  3
A3
350
58
  3
A4
350
59
  3
A5
350
5A
  3
A6
350
5B
  3
A7
350
5C
  3
A8
350
5D
  3
A9
350
5E
  3
B0
350
5F
  3
B1
350
60
  3
B2
350
61
  3
B3
350
62
  3
B4
350
63
  3
B5
350
64
  3
B6
350
65
  3
B7
350
66
  3
B8
350
67
  3
B9
350
68
  3
C0
350
69
  3
C1
350
6A
  3
C2
350
6B
  3
C3
350
6C
  3
C4
350
6D
  3
C5
350
6E
  3
C6
350
6F
  3
C7
350
70
  3
C8
350
71
  3
C9
350
72
  3
D0
350
73
  3
D1
350
74
  3
D2
350
75
  0
DICTIONARY
  5
4B
102
{ACAD_REACTORS
330
B
102
}
330
B
100
AcDbDictionary
281
     1
  3
Standard
350
51
  0
DICTIONARY
  5
2C
102
{ACAD_REACTORS
330
B
102
}
330
B
100
AcDbDictionary
281
     1
  3
2dWireframe
350
2B
  3
3dWireframe
350
54
  3
Realistic
350
53
  0
XRECORD
  5
3B7
102
{ACAD_REACTORS
330
B
102
}
330
B
100
AcDbXrecord
280
     1
 90
        1
330
51
  0
DICTIONARY
  5
3AD
102
{ACAD_REACTORS
330
B
102
}
330
B
100
AcDbDictionary
281
     1
  3
CANNOSCALE
350
3B1
  3
CMLEADERSTYLE
350
3AF
  3
CTABLESTYLE
350
3AE
  3
LAYEREVAL
350
3B3
  3
LAYERNOTIFY
350
3B4
  3
LIGHTINGUNITS
350
3B2
  3
MSLTSCALE
350
3B0
  0
DICTIONARY
  5
1F
102
{ACAD_REACTORS
330
1E
102
}
330
1E
100
AcDbDictionary
281
     1
  0
XRECORD
  5
8
102
{ACAD_REACTORS
330
7
102
}
330
7
100
AcDbXrecord
280
     1
290
     1
  0
XRECORD
  5
346
102
{ACAD_REACTORS
330
345
102
}
330
345
100
AcDbXrecord
280
     1
290
     1
  0
XRECORD
  5
12D
102
{ACAD_REACTORS
330
12C
102
}
330
12C
100
AcDbXrecord
280
     1
290
     1
  0
XRECORD
  5
79
102
{ACAD_REACTORS
330
78
102
}
330
78
100
AcDbXrecord
280
     1
290
     1
  0
XRECORD
  5
80
102
{ACAD_REACTORS
330
7F
102
}
330
7F
100
AcDbXrecord
280
     1
290
     1
  0
XRECORD
  5
B2
102
{ACAD_REACTORS
330
B1
102
}
330
B1
100
AcDbXrecord
280
     1
290
     1
  0
XRECORD
  5
4F
102
{ACAD_REACTORS
330
4E
102
}
330
4E
100
AcDbXrecord
280
     1
290
     1
  0
XRECORD
  5
16A
102
{ACAD_REACTORS
330
169
102
}
330
169
100
AcDbXrecord
280
     1
290
     1
  0
XRECORD
  5
154
102
{ACAD_REACTORS
330
153
102
}
330
153
100
AcDbXrecord
280
     1
290
     1
  0
SORTENTSTABLE
  5
3AC
102
{ACAD_REACTORS
330
3
102
}
330
3
100
AcDbSortentsTable
330
2
331
358
  5
124
331
368
  5
114
331
398
  5
FA
331
2E0
  5
353
331
2F0
  5
334
331
310
  5
32C
331
110
  5
384
331
120
  5
35C
331
359
  5
123
331
369
  5
113
331
330
  5
30C
331
399
  5
EB
331
2E1
  5
343
331
111
  5
377
331
121
  5
35B
331
35A
  5
122
331
36A
  5
112
331
331
  5
30B
331
2E2
  5
336
331
112
  5
36A
331
122
  5
35A
331
35B
  5
121
331
332
  5
30A
331
2E3
  5
335
331
333
  5
2FD
331
7B
  5
3A8
331
343
  5
2E1
331
39B
  5
CF
331
39A
  5
DC
331
113
  5
369
331
123
  5
359
331
35C
  5
120
331
7C
  5
3A7
331
334
  5
2F0
331
39C
  5
B6
331
DC
  5
39A
331
EB
  5
399
331
3A9
  5
76
331
3A8
  5
7B
331
124
  5
358
331
35D
  5
11F
331
7D
  5
3A6
331
335
  5
2E3
331
39D
  5
B5
331
115
  5
367
331
35E
  5
11E
331
336
  5
2E2
331
39E
  5
B4
331
35F
  5
11D
331
AF
  5
39F
331
39F
  5
AF
331
CF
  5
39B
331
76
  5
3A9
331
360
  5
11C
331
A0
  5
3A0
331
3A0
  5
A0
331
361
  5
11B
331
391
  5
10F
331
81
  5
3A5
331
3A1
  5
93
331
109
  5
397
331
362
  5
11A
331
392
  5
10E
331
3A2
  5
84
331
119
  5
363
331
118
  5
364
331
117
  5
365
331
116
  5
366
331
30A
  5
332
331
FA
  5
398
331
10A
  5
396
331
11A
  5
362
331
353
  5
2E0
331
393
  5
10D
331
3A3
  5
83
331
32B
  5
31D
331
30B
  5
331
331
83
  5
3A3
331
363
  5
119
331
10B
  5
395
331
11B
  5
361
331
354
  5
2DF
331
384
  5
110
331
394
  5
10C
331
3A4
  5
82
331
30C
  5
330
331
364
  5
118
331
B4
  5
39E
331
10C
  5
394
331
11C
  5
360
331
355
  5
2DE
331
395
  5
10B
331
3A5
  5
81
331
2DD
  5
356
331
2FD
  5
333
331
30D
  5
32F
331
365
  5
117
331
31D
  5
32B
331
84
  5
3A2
331
32D
  5
30F
331
32C
  5
310
331
10D
  5
393
331
11D
  5
35F
331
356
  5
2DD
331
366
  5
116
331
3A6
  5
7D
331
2DE
  5
355
331
30E
  5
32E
331
32E
  5
30E
331
10E
  5
392
331
11E
  5
35E
331
357
  5
125
331
367
  5
115
331
377
  5
111
331
397
  5
109
331
B6
  5
39C
331
2DF
  5
354
331
30F
  5
32D
331
10F
  5
391
331
11F
  5
35D
331
32F
  5
30D
331
3A7
  5
7C
331
396
  5
10A
331
B5
  5
39D
331
93
  5
3A1
331
82
  5
3A4
331
125
  5
357
331
114
  5
368
  0
SORTENTSTABLE
  5
3AB
102
{ACAD_REACTORS
330
127
102
}
330
127
100
AcDbSortentsTable
330
126
  0
SORTENTSTABLE
  5
3AA
102
{ACAD_REACTORS
330
B8
102
}
330
B8
100
AcDbSortentsTable
330
B7
  0
LAYOUT
  5
1C
102
{ACAD_REACTORS
330
18
102
}
330
18
100
AcDbPlotSettings
  1

  2
HP LaserJet 4 Plus
  4

  6

 40
0.0
 41
0.0
 42
0.0
 43
0.0
 44
0.0
 45
0.0
 46
0.0
 47
0.0
 48
0.0
 49
0.0
140
0.0
141
0.0
142
1.0
143
1.0
 70
   688
 72
     0
 73
     0
 74
     5
  7
CNC-Soft.ctb
 75
    16
147
1.0
 76
     0
 77
     2
 78
   300
148
0.0
149
0.0
100
AcDbLayout
  1
Layout1
 70
     0
 71
     1
 10
0.0
 20
0.0
 11
12.0
 21
9.0
 12
0.0
 22
0.0
 32
0.0
 14
1.000000000000000E+20
 24
1.000000000000000E+20
 34
1.000000000000000E+20
 15
-1.000000000000000E+20
 25
-1.000000000000000E+20
 35
-1.000000000000000E+20
146
0.0
 13
0.0
 23
0.0
 33
0.0
 16
1.0
 26
0.0
 36
0.0
 17
0.0
 27
1.0
 37
0.0
 76
     0
330
19
  0
LAYOUT
  5
17
102
{ACAD_REACTORS
330
18
102
}
330
18
100
AcDbPlotSettings
  1

  2
HP LaserJet 4 Plus
  4
A4
  6

 40
6.805083274841308
 41
5.069413185119628
 42
6.805084228515625
 43
5.027069091796875
 44
209.9733276367187
 45
296.9683227539062
 46
0.0
 47
0.0
 48
0.0
 49
0.0
140
0.0
141
0.0
142
1.0
143
3.552539542078075
 70
 11952
 72
     1
 73
     1
 74
     1
  7
CNC-Soft.ctb
 75
     0
147
0.281488773919472
 76
     0
 77
     2
 78
   300
148
0.0640830024331081
149
0.0453158374352825
100
AcDbLayout
  1
Model
 70
     1
 71
     0
 10
0.0
 20
0.0
 11
12.0
 21
9.0
 12
0.0
 22
0.0
 32
0.0
 14
0.0
 24
0.0
 34
0.0
 15
0.0
 25
0.0
 35
0.0
146
0.0
 13
0.0
 23
0.0
 33
0.0
 16
1.0
 26
0.0
 36
0.0
 17
0.0
 27
1.0
 37
0.0
 76
     0
330
2
331
2A
  0
MATERIAL
  5
41
102
{ACAD_XDICTIONARY
360
42
102
}
102
{ACAD_REACTORS
330
D
102
}
330
D
100
AcDbMaterial
  1
ByBlock
 72
     0
 43
0.0208333333333333
 43
0.0
 43
0.0
 43
0.0
 43
0.0
 43
0.0208333333333333
 43
0.0
 43
0.0
 43
0.0
 43
0.0
 43
1.0
 43
0.0
 43
0.0
 43
0.0
 43
0.0
 43
1.0
 77
     0
 47
0.0208333333333333
 47
0.0
 47
0.0
 47
0.0
 47
0.0
 47
0.0208333333333333
 47
0.0
 47
0.0
 47
0.0
 47
0.0
 47
1.0
 47
0.0
 47
0.0
 47
0.0
 47
0.0
 47
1.0
171
     0
 49
0.0208333333333333
 49
0.0
 49
0.0
 49
0.0
 49
0.0
 49
0.0208333333333333
 49
0.0
 49
0.0
 49
0.0
 49
0.0
 49
1.0
 49
0.0
 49
0.0
 49
0.0
 49
0.0
 49
1.0
175
     0
142
0.0208333333333333
142
0.0
142
0.0
142
0.0
142
0.0
142
0.0208333333333333
142
0.0
142
0.0
142
0.0
142
0.0
142
1.0
142
0.0
142
0.0
142
0.0
142
0.0
142
1.0
179
     0
144
0.0208333333333333
144
0.0
144
0.0
144
0.0
144
0.0
144
0.0208333333333333
144
0.0
144
0.0
144
0.0
144
0.0
144
1.0
144
0.0
144
0.0
144
0.0
144
0.0
144
1.0
147
0.0208333333333333
147
0.0
147
0.0
147
0.0
147
0.0
147
0.0208333333333333
147
0.0
147
0.0
147
0.0
147
0.0
147
1.0
147
0.0
147
0.0
147
0.0
147
0.0
147
1.0
  0
MATERIAL
  5
39
102
{ACAD_XDICTIONARY
360
3A
102
}
102
{ACAD_REACTORS
330
D
102
}
330
D
100
AcDbMaterial
  1
ByLayer
 72
     0
 43
0.0208333333333333
 43
0.0
 43
0.0
 43
0.0
 43
0.0
 43
0.0208333333333333
 43
0.0
 43
0.0
 43
0.0
 43
0.0
 43
1.0
 43
0.0
 43
0.0
 43
0.0
 43
0.0
 43
1.0
 77
     0
 47
0.0208333333333333
 47
0.0
 47
0.0
 47
0.0
 47
0.0
 47
0.0208333333333333
 47
0.0
 47
0.0
 47
0.0
 47
0.0
 47
1.0
 47
0.0
 47
0.0
 47
0.0
 47
0.0
 47
1.0
171
     0
 49
0.0208333333333333
 49
0.0
 49
0.0
 49
0.0
 49
0.0
 49
0.0208333333333333
 49
0.0
 49
0.0
 49
0.0
 49
0.0
 49
1.0
 49
0.0
 49
0.0
 49
0.0
 49
0.0
 49
1.0
175
     0
142
0.0208333333333333
142
0.0
142
0.0
142
0.0
142
0.0
142
0.0208333333333333
142
0.0
142
0.0
142
0.0
142
0.0
142
1.0
142
0.0
142
0.0
142
0.0
142
0.0
142
1.0
179
     0
144
0.0208333333333333
144
0.0
144
0.0
144
0.0
144
0.0
144
0.0208333333333333
144
0.0
144
0.0
144
0.0
144
0.0
144
1.0
144
0.0
144
0.0
144
0.0
144
0.0
144
1.0
147
0.0208333333333333
147
0.0
147
0.0
147
0.0
147
0.0
147
0.0208333333333333
147
0.0
147
0.0
147
0.0
147
0.0
147
1.0
147
0.0
147
0.0
147
0.0
147
0.0
147
1.0
  0
MATERIAL
  5
C
102
{ACAD_XDICTIONARY
360
E
102
}
102
{ACAD_REACTORS
330
D
102
}
330
D
100
AcDbMaterial
  1
Global
 72
     0
 43
0.0208333333333333
 43
0.0
 43
0.0
 43
0.0
 43
0.0
 43
0.0208333333333333
 43
0.0
 43
0.0
 43
0.0
 43
0.0
 43
1.0
 43
0.0
 43
0.0
 43
0.0
 43
0.0
 43
1.0
 77
     0
 47
0.0208333333333333
 47
0.0
 47
0.0
 47
0.0
 47
0.0
 47
0.0208333333333333
 47
0.0
 47
0.0
 47
0.0
 47
0.0
 47
1.0
 47
0.0
 47
0.0
 47
0.0
 47
0.0
 47
1.0
171
     0
 49
0.0208333333333333
 49
0.0
 49
0.0
 49
0.0
 49
0.0
 49
0.0208333333333333
 49
0.0
 49
0.0
 49
0.0
 49
0.0
 49
1.0
 49
0.0
 49
0.0
 49
0.0
 49
0.0
 49
1.0
175
     0
142
0.0208333333333333
142
0.0
142
0.0
142
0.0
142
0.0
142
0.0208333333333333
142
0.0
142
0.0
142
0.0
142
0.0
142
1.0
142
0.0
142
0.0
142
0.0
142
0.0
142
1.0
179
     0
144
0.0208333333333333
144
0.0
144
0.0
144
0.0
144
0.0
144
0.0208333333333333
144
0.0
144
0.0
144
0.0
144
0.0
144
1.0
144
0.0
144
0.0
144
0.0
144
0.0
144
1.0
147
0.0208333333333333
147
0.0
147
0.0
147
0.0
147
0.0
147
0.0208333333333333
147
0.0
147
0.0
147
0.0
147
0.0
147
1.0
147
0.0
147
0.0
147
0.0
147
0.0
147
1.0
  0
MLINESTYLE
  5
50
102
{ACAD_REACTORS
330
37
102
}
330
37
100
AcDbMlineStyle
  2
STANDARD
 70
     0
  3

 62
   256
 51
90.0
 52
90.0
 71
     2
 49
0.5
 62
   256
  6
BYLAYER
 49
-0.5
 62
   256
  6
BYLAYER
  0
ACDBPLACEHOLDER
  5
9
102
{ACAD_REACTORS
330
A
102
}
330
A
  0
SCALE
  5
55
102
{ACAD_REACTORS
330
4A
102
}
330
4A
100
AcDbScale
 70
     0
300
1:1
140
1.0
141
1.0
290
     1
  0
SCALE
  5
56
102
{ACAD_REACTORS
330
4A
102
}
330
4A
100
AcDbScale
 70
     0
300
1:2
140
1.0
141
2.0
290
     0
  0
SCALE
  5
57
102
{ACAD_REACTORS
330
4A
102
}
330
4A
100
AcDbScale
 70
     0
300
1:4
140
1.0
141
4.0
290
     0
  0
SCALE
  5
58
102
{ACAD_REACTORS
330
4A
102
}
330
4A
100
AcDbScale
 70
     0
300
1:5
140
1.0
141
5.0
290
     0
  0
SCALE
  5
59
102
{ACAD_REACTORS
330
4A
102
}
330
4A
100
AcDbScale
 70
     0
300
1:8
140
1.0
141
8.0
290
     0
  0
SCALE
  5
5A
102
{ACAD_REACTORS
330
4A
102
}
330
4A
100
AcDbScale
 70
     0
300
1:10
140
1.0
141
10.0
290
     0
  0
SCALE
  5
5B
102
{ACAD_REACTORS
330
4A
102
}
330
4A
100
AcDbScale
 70
     0
300
1:16
140
1.0
141
16.0
290
     0
  0
SCALE
  5
5C
102
{ACAD_REACTORS
330
4A
102
}
330
4A
100
AcDbScale
 70
     0
300
1:20
140
1.0
141
20.0
290
     0
  0
SCALE
  5
5D
102
{ACAD_REACTORS
330
4A
102
}
330
4A
100
AcDbScale
 70
     0
300
1:30
140
1.0
141
30.0
290
     0
  0
SCALE
  5
5E
102
{ACAD_REACTORS
330
4A
102
}
330
4A
100
AcDbScale
 70
     0
300
1:40
140
1.0
141
40.0
290
     0
  0
SCALE
  5
5F
102
{ACAD_REACTORS
330
4A
102
}
330
4A
100
AcDbScale
 70
     0
300
1:50
140
1.0
141
50.0
290
     0
  0
SCALE
  5
60
102
{ACAD_REACTORS
330
4A
102
}
330
4A
100
AcDbScale
 70
     0
300
1:100
140
1.0
141
100.0
290
     0
  0
SCALE
  5
61
102
{ACAD_REACTORS
330
4A
102
}
330
4A
100
AcDbScale
 70
     0
300
2:1
140
2.0
141
1.0
290
     0
  0
SCALE
  5
62
102
{ACAD_REACTORS
330
4A
102
}
330
4A
100
AcDbScale
 70
     0
300
4:1
140
4.0
141
1.0
290
     0
  0
SCALE
  5
63
102
{ACAD_REACTORS
330
4A
102
}
330
4A
100
AcDbScale
 70
     0
300
8:1
140
8.0
141
1.0
290
     0
  0
SCALE
  5
64
102
{ACAD_REACTORS
330
4A
102
}
330
4A
100
AcDbScale
 70
     0
300
10:1
140
10.0
141
1.0
290
     0
  0
SCALE
  5
65
102
{ACAD_REACTORS
330
4A
102
}
330
4A
100
AcDbScale
 70
     0
300
100:1
140
100.0
141
1.0
290
     0
  0
SCALE
  5
66
102
{ACAD_REACTORS
330
4A
102
}
330
4A
100
AcDbScale
 70
     0
300
1/128" = 1'-0"
140
0.0078125
141
12.0
290
     0
  0
SCALE
  5
67
102
{ACAD_REACTORS
330
4A
102
}
330
4A
100
AcDbScale
 70
     0
300
1/64" = 1'-0"
140
0.015625
141
12.0
290
     0
  0
SCALE
  5
68
102
{ACAD_REACTORS
330
4A
102
}
330
4A
100
AcDbScale
 70
     0
300
1/32" = 1'-0"
140
0.03125
141
12.0
290
     0
  0
SCALE
  5
69
102
{ACAD_REACTORS
330
4A
102
}
330
4A
100
AcDbScale
 70
     0
300
1/16" = 1'-0"
140
0.0625
141
12.0
290
     0
  0
SCALE
  5
6A
102
{ACAD_REACTORS
330
4A
102
}
330
4A
100
AcDbScale
 70
     0
300
3/32" = 1'-0"
140
0.09375
141
12.0
290
     0
  0
SCALE
  5
6B
102
{ACAD_REACTORS
330
4A
102
}
330
4A
100
AcDbScale
 70
     0
300
1/8" = 1'-0"
140
0.125
141
12.0
290
     0
  0
SCALE
  5
6C
102
{ACAD_REACTORS
330
4A
102
}
330
4A
100
AcDbScale
 70
     0
300
3/16" = 1'-0"
140
0.1875
141
12.0
290
     0
  0
SCALE
  5
6D
102
{ACAD_REACTORS
330
4A
102
}
330
4A
100
AcDbScale
 70
     0
300
1/4" = 1'-0"
140
0.25
141
12.0
290
     0
  0
SCALE
  5
6E
102
{ACAD_REACTORS
330
4A
102
}
330
4A
100
AcDbScale
 70
     0
300
3/8" = 1'-0"
140
0.375
141
12.0
290
     0
  0
SCALE
  5
6F
102
{ACAD_REACTORS
330
4A
102
}
330
4A
100
AcDbScale
 70
     0
300
1/2" = 1'-0"
140
0.5
141
12.0
290
     0
  0
SCALE
  5
70
102
{ACAD_REACTORS
330
4A
102
}
330
4A
100
AcDbScale
 70
     0
300
3/4" = 1'-0"
140
0.75
141
12.0
290
     0
  0
SCALE
  5
71
102
{ACAD_REACTORS
330
4A
102
}
330
4A
100
AcDbScale
 70
     0
300
1" = 1'-0"
140
1.0
141
12.0
290
     0
  0
SCALE
  5
72
102
{ACAD_REACTORS
330
4A
102
}
330
4A
100
AcDbScale
 70
     0
300
1-1/2" = 1'-0"
140
1.5
141
12.0
290
     0
  0
SCALE
  5
73
102
{ACAD_REACTORS
330
4A
102
}
330
4A
100
AcDbScale
 70
     0
300
3" = 1'-0"
140
3.0
141
12.0
290
     0
  0
SCALE
  5
74
102
{ACAD_REACTORS
330
4A
102
}
330
4A
100
AcDbScale
 70
     0
300
6" = 1'-0"
140
6.0
141
12.0
290
     0
  0
SCALE
  5
75
102
{ACAD_REACTORS
330
4A
102
}
330
4A
100
AcDbScale
 70
     0
300
1'-0" = 1'-0"
140
12.0
141
12.0
290
     0
  0
TABLESTYLE
  5
51
102
{ACAD_XDICTIONARY
360
52
102
}
102
{ACAD_REACTORS
330
4B
102
}
330
4B
100
AcDbTableStyle
280
     0
  3
Standard
 70
     0
 71
     0
 40
0.06
 41
0.06
280
     0
281
     0
  7
STANDARD
140
0.18
170
     2
 62
     0
 63
     7
283
     0
 90
      512
 91
        0
  1

274
    -2
284
     1
 64
     0
275
    -2
285
     1
 65
     0
276
    -2
286
     1
 66
     0
277
    -2
287
     1
 67
     0
278
    -2
288
     1
 68
     0
279
    -2
289
     1
 69
     0
  7
STANDARD
140
0.25
170
     5
 62
     0
 63
     7
283
     0
 90
      512
 91
        0
  1

274
    -2
284
     1
 64
     0
275
    -2
285
     1
 65
     0
276
    -2
286
     1
 66
     0
277
    -2
287
     1
 67
     0
278
    -2
288
     1
 68
     0
279
    -2
289
     1
 69
     0
  7
STANDARD
140
0.18
170
     5
 62
     0
 63
     7
283
     0
 90
      512
 91
        0
  1

274
    -2
284
     1
 64
     0
275
    -2
285
     1
 65
     0
276
    -2
286
     1
 66
     0
277
    -2
287
     1
 67
     0
278
    -2
288
     1
 68
     0
279
    -2
289
     1
 69
     0
  0
VISUALSTYLE
  5
2B
102
{ACAD_REACTORS
330
2C
102
}
330
2C
100
AcDbVisualStyle
  2
2dWireframe
 70
     4
177
     2
291
     0
 71
     0
176
     1
 72
     2
176
     1
 73
     0
176
     1
 90
        0
176
     1
 40
0.6
176
     1
 41
30.0
176
     1
 63
     7
176
     1
 74
     1
176
     1
 91
        4
176
     1
 64
     7
176
     1
 65
   257
176
     1
 75
     1
176
     1
175
     1
176
     1
 42
1.0
176
     1
 92
        0
176
     1
 66
   257
176
     1
 43
1.0
176
     1
 76
     1
176
     1
 77
     6
176
     1
 78
     2
176
     1
 67
     7
176
     1
 79
     5
176
     1
170
     0
176
     1
171
     0
176
     1
290
     0
176
     1
 93
        1
176
     1
 44
0.0
176
     1
173
     0
176
     1
  0
VISUALSTYLE
  5
54
102
{ACAD_REACTORS
330
2C
102
}
330
2C
100
AcDbVisualStyle
  2
3dWireframe
 70
     5
177
     2
291
     0
 71
     0
176
     1
 72
     2
176
     1
 73
     0
176
     1
 90
        0
176
     1
 40
0.6
176
     1
 41
30.0
176
     1
 63
     7
176
     1
 74
     1
176
     1
 91
        4
176
     1
 64
     7
176
     1
 65
   257
176
     1
 75
     1
176
     1
175
     1
176
     1
 42
1.0
176
     1
 92
        0
176
     1
 66
   257
176
     1
 43
1.0
176
     1
 76
     1
176
     1
 77
     6
176
     1
 78
     2
176
     1
 67
     7
176
     1
 79
     5
176
     1
170
     0
176
     1
171
     0
176
     1
290
     0
176
     1
 93
        1
176
     1
 44
0.0
176
     1
173
     0
176
     1
  0
VISUALSTYLE
  5
53
102
{ACAD_REACTORS
330
2C
102
}
330
2C
100
AcDbVisualStyle
  2
Realistic
 70
     8
177
     2
291
     0
 71
     2
176
     1
 72
     2
176
     1
 73
     0
176
     1
 90
        0
176
     1
 40
0.6
176
     1
 41
30.0
176
     1
 63
     7
176
     1
 74
     1
176
     1
 91
        0
176
     1
 64
     7
176
     1
 65
   257
176
     1
 75
     1
176
     1
175
     1
176
     1
 42
1.0
176
     1
 92
        8
176
     1
 66
     8
176
     1
 43
1.0
176
     1
 76
     1
176
     1
 77
     6
176
     1
 78
     2
176
     1
 67
     7
176
     1
 79
     5
176
     1
170
     0
176
     1
171
     0
176
     1
290
     0
176
     1
 93
       13
176
     1
 44
0.0
176
     1
173
     0
176
     1
  0
DICTIONARYVAR
  5
3B1
102
{ACAD_REACTORS
330
3AD
102
}
330
3AD
100
DictionaryVariables
280
     0
  1
1:1
  0
DICTIONARYVAR
  5
3AF
102
{ACAD_REACTORS
330
3AD
102
}
330
3AD
100
DictionaryVariables
280
     0
  1
STANDARD
  0
DICTIONARYVAR
  5
3AE
102
{ACAD_REACTORS
330
3AD
102
}
330
3AD
100
DictionaryVariables
280
     0
  1
STANDARD
  0
DICTIONARYVAR
  5
3B3
102
{ACAD_REACTORS
330
3AD
102
}
330
3AD
100
DictionaryVariables
280
     0
  1
1
  0
DICTIONARYVAR
  5
3B4
102
{ACAD_REACTORS
330
3AD
102
}
330
3AD
100
DictionaryVariables
280
     0
  1
15
  0
DICTIONARYVAR
  5
3B2
102
{ACAD_REACTORS
330
3AD
102
}
330
3AD
100
DictionaryVariables
280
     0
  1
0
  0
DICTIONARYVAR
  5
3B0
102
{ACAD_REACTORS
330
3AD
102
}
330
3AD
100
DictionaryVariables
280
     0
  1
0
  0
DICTIONARY
  5
42
330
41
100
AcDbDictionary
280
     1
281
     1
  3
BUMPTILE
360
43
  3
DIFFUSETILE
360
44
  3
OPACITYTILE
360
45
  3
REFLECTIONTILE
360
46
  3
REFRACTIONTILE
360
47
  3
SPECULARTILE
360
48
  0
DICTIONARY
  5
3A
330
39
100
AcDbDictionary
280
     1
281
     1
  3
BUMPTILE
360
3B
  3
DIFFUSETILE
360
3C
  3
OPACITYTILE
360
3D
  3
REFLECTIONTILE
360
3E
  3
REFRACTIONTILE
360
3F
  3
SPECULARTILE
360
40
  0
DICTIONARY
  5
E
330
C
100
AcDbDictionary
280
     1
281
     1
  3
BUMPTILE
360
F
  3
DIFFUSETILE
360
10
  3
OPACITYTILE
360
11
  3
REFLECTIONTILE
360
12
  3
REFRACTIONTILE
360
13
  3
SPECULARTILE
360
14
  0
DICTIONARY
  5
52
330
51
100
AcDbDictionary
280
     1
281
     1
  3
ACAD_ROUNDTRIP_2008_TABLESTYLE_CELLSTYLEMAP
360
3B5
  0
XRECORD
  5
43
102
{ACAD_REACTORS
330
42
102
}
330
42
100
AcDbXrecord
280
     1
270
     1
271
     1
  0
XRECORD
  5
44
102
{ACAD_REACTORS
330
42
102
}
330
42
100
AcDbXrecord
280
     1
270
     1
271
     1
  0
XRECORD
  5
45
102
{ACAD_REACTORS
330
42
102
}
330
42
100
AcDbXrecord
280
     1
270
     1
271
     1
  0
XRECORD
  5
46
102
{ACAD_REACTORS
330
42
102
}
330
42
100
AcDbXrecord
280
     1
270
     1
271
     1
  0
XRECORD
  5
47
102
{ACAD_REACTORS
330
42
102
}
330
42
100
AcDbXrecord
280
     1
270
     1
271
     1
  0
XRECORD
  5
48
102
{ACAD_REACTORS
330
42
102
}
330
42
100
AcDbXrecord
280
     1
270
     1
271
     1
  0
XRECORD
  5
3B
102
{ACAD_REACTORS
330
3A
102
}
330
3A
100
AcDbXrecord
280
     1
270
     1
271
     1
  0
XRECORD
  5
3C
102
{ACAD_REACTORS
330
3A
102
}
330
3A
100
AcDbXrecord
280
     1
270
     1
271
     1
  0
XRECORD
  5
3D
102
{ACAD_REACTORS
330
3A
102
}
330
3A
100
AcDbXrecord
280
     1
270
     1
271
     1
  0
XRECORD
  5
3E
102
{ACAD_REACTORS
330
3A
102
}
330
3A
100
AcDbXrecord
280
     1
270
     1
271
     1
  0
XRECORD
  5
3F
102
{ACAD_REACTORS
330
3A
102
}
330
3A
100
AcDbXrecord
280
     1
270
     1
271
     1
  0
XRECORD
  5
40
102
{ACAD_REACTORS
330
3A
102
}
330
3A
100
AcDbXrecord
280
     1
270
     1
271
     1
  0
XRECORD
  5
F
102
{ACAD_REACTORS
330
E
102
}
330
E
100
AcDbXrecord
280
     1
270
     1
271
     1
  0
XRECORD
  5
10
102
{ACAD_REACTORS
330
E
102
}
330
E
100
AcDbXrecord
280
     1
270
     1
271
     1
  0
XRECORD
  5
11
102
{ACAD_REACTORS
330
E
102
}
330
E
100
AcDbXrecord
280
     1
270
     1
271
     1
  0
XRECORD
  5
12
102
{ACAD_REACTORS
330
E
102
}
330
E
100
AcDbXrecord
280
     1
270
     1
271
     1
  0
XRECORD
  5
13
102
{ACAD_REACTORS
330
E
102
}
330
E
100
AcDbXrecord
280
     1
270
     1
271
     1
  0
XRECORD
  5
14
102
{ACAD_REACTORS
330
E
102
}
330
E
100
AcDbXrecord
280
     1
270
     1
271
     1
  0
CELLSTYLEMAP
  5
3B5
102
{ACAD_REACTORS
330
52
102
}
330
52
100
AcDbCellStyleMap
 90
        3
300
CELLSTYLE
  1
TABLEFORMAT_BEGIN
 90
        5
170
     1
 91
        0
 92
    32768
 62
   257
 93
        1
300
CONTENTFORMAT
  1
CONTENTFORMAT_BEGIN
 90
        0
 91
        0
 92
      512
 93
        0
300

 40
0.0
140
1.0
 94
        5
 62
     0
340
21
144
0.25
309
CONTENTFORMAT_END
171
     0
 94
        0
309
TABLEFORMAT_END
  1
CELLSTYLE_BEGIN
 90
        1
 91
        1
300
_TITLE
309
CELLSTYLE_END
300
CELLSTYLE
  1
TABLEFORMAT_BEGIN
 90
        5
170
     1
 91
        0
 92
        0
 62
   257
 93
        1
300
CONTENTFORMAT
  1
CONTENTFORMAT_BEGIN
 90
        0
 91
        0
 92
      512
 93
        0
300

 40
0.0
140
1.0
 94
        5
 62
     0
340
21
144
0.18
309
CONTENTFORMAT_END
171
     0
 94
        0
309
TABLEFORMAT_END
  1
CELLSTYLE_BEGIN
 90
        2
 91
        1
300
_HEADER
309
CELLSTYLE_END
300
CELLSTYLE
  1
TABLEFORMAT_BEGIN
 90
        5
170
     1
 91
        0
 92
        0
 62
   257
 93
        1
300
CONTENTFORMAT
  1
CONTENTFORMAT_BEGIN
 90
        0
 91
        0
 92
      512
 93
        0
300

 40
0.0
140
1.0
 94
        2
 62
     0
340
21
144
0.18
309
CONTENTFORMAT_END
171
     0
 94
        0
309
TABLEFORMAT_END
  1
CELLSTYLE_BEGIN
 90
        3
 91
        2
300
_DATA
309
CELLSTYLE_END
  0
ENDSEC
  0
EOF
