  0
SECTION
  2
HEADER
  9
$ACADVER
  1
AC1024
  9
$ACADMAINTVER
 70
     6
  9
$DWGCODEPAGE
  3
ANSI_1252
  9
$INSBASE
 10
0.0
 20
0.0
 30
0.0
  9
$EXTMIN
 10
0.0
 20
0.0
 30
0.0
  9
$EXTMAX
 10
1680.000000452414
 20
594.0000005323327
 30
0.0
  9
$LIMMIN
 10
0.0
 20
0.0
  9
$LIMMAX
 10
839.9999999999163
 20
593.9999999999408
  9
$ORTHOMODE
 70
     0
  9
$REGENMODE
 70
     1
  9
$FILLMODE
 70
     1
  9
$QTEXTMODE
 70
     0
  9
$MIRRTEXT
 70
     0
  9
$LTSCALE
 40
15.0
  9
$ATTMODE
 70
     1
  9
$TEXTSIZE
 40
15.0
  9
$TRACEWID
 40
1.0
  9
$TEXTSTYLE
  7
Bemaßung
  9
$CLAYER
  8
09-01
  9
$CELTYPE
  6
BYLAYER
  9
$CECOLOR
 62
   256
  9
$CELTSCALE
 40
1.0
  9
$DISPSILH
 70
     0
  9
$DIMSCALE
 40
2.5
  9
$DIMASZ
 40
2.5
  9
$DIMEXO
 40
1.0
  9
$DIMDLI
 40
10.0
  9
$DIMRND
 40
0.0
  9
$DIMDLE
 40
0.0
  9
$DIMEXE
 40
1.0
  9
$DIMTP
 40
0.0
  9
$DIMTM
 40
0.0
  9
$DIMTXT
 40
2.5
  9
$DIMCEN
 40
0.0
  9
$DIMTSZ
 40
0.0
  9
$DIMTOL
 70
     0
  9
$DIMLIM
 70
     0
  9
$DIMTIH
 70
     0
  9
$DIMTOH
 70
     0
  9
$DIMSE1
 70
     0
  9
$DIMSE2
 70
     0
  9
$DIMTAD
 70
     1
  9
$DIMZIN
 70
     8
  9
$DIMBLK
  1

  9
$DIMASO
 70
     1
  9
$DIMSHO
 70
     0
  9
$DIMPOST
  1

  9
$DIMAPOST
  1

  9
$DIMALT
 70
     0
  9
$DIMALTD
 70
     3
  9
$DIMALTF
 40
0.03937007874016
  9
$DIMLFAC
 40
1.0
  9
$DIMTOFL
 70
     1
  9
$DIMTVP
 40
0.0
  9
$DIMTIX
 70
     0
  9
$DIMSOXD
 70
     0
  9
$DIMSAH
 70
     0
  9
$DIMBLK1
  1

  9
$DIMBLK2
  1

  9
$DIMSTYLE
  2
Wagner
  9
$DIMCLRD
 70
     4
  9
$DIMCLRE
 70
     4
  9
$DIMCLRT
 70
     1
  9
$DIMTFAC
 40
1.0
  9
$DIMGAP
 40
1.0
  9
$DIMJUST
 70
     0
  9
$DIMSD1
 70
     0
  9
$DIMSD2
 70
     0
  9
$DIMTOLJ
 70
     0
  9
$DIMTZIN
 70
     8
  9
$DIMALTZ
 70
     0
  9
$DIMALTTZ
 70
     0
  9
$DIMUPT
 70
     0
  9
$DIMDEC
 70
     8
  9
$DIMTDEC
 70
     8
  9
$DIMALTU
 70
     2
  9
$DIMALTTD
 70
     3
  9
$DIMTXSTY
  7
STANDARD
  9
$DIMAUNIT
 70
     0
  9
$DIMADEC
 70
     2
  9
$DIMALTRND
 40
0.0
  9
$DIMAZIN
 70
     2
  9
$DIMDSEP
 70
    46
  9
$DIMATFIT
 70
     3
  9
$DIMFRAC
 70
     0
  9
$DIMLDRBLK
  1

  9
$DIMLUNIT
 70
     2
  9
$DIMLWD
 70
    -2
  9
$DIMLWE
 70
    -2
  9
$DIMTMOVE
 70
     0
  9
$DIMFXL
 40
1.0
  9
$DIMFXLON
 70
     0
  9
$DIMJOGANG
 40
0.7853981633974483
  9
$DIMTFILL
 70
     0
  9
$DIMTFILLCLR
 70
     0
  9
$DIMARCSYM
 70
     0
  9
$DIMLTYPE
  6

  9
$DIMLTEX1
  6

  9
$DIMLTEX2
  6

  9
$DIMTXTDIRECTION
 70
     0
  9
$LUNITS
 70
     2
  9
$LUPREC
 70
     1
  9
$SKETCHINC
 40
1.0
  9
$FILLETRAD
 40
0.0
  9
$AUNITS
 70
     0
  9
$AUPREC
 70
     2
  9
$MENU
  1
.
  9
$ELEVATION
 40
0.0
  9
$PELEVATION
 40
0.0
  9
$THICKNESS
 40
0.0
  9
$LIMCHECK
 70
     1
  9
$CHAMFERA
 40
0.0
  9
$CHAMFERB
 40
0.0
  9
$CHAMFERC
 40
20.0
  9
$CHAMFERD
 40
0.0
  9
$SKPOLY
 70
     0
  9
$TDCREATE
 40
2451928.637769074
  9
$TDUCREATE
 40
2451928.554435741
  9
$TDUPDATE
 40
2456874.686654282
  9
$TDUUPDATE
 40
2456874.603320949
  9
$TDINDWG
 40
1.5298676852
  9
$TDUSRTIMER
 40
1.5298675694
  9
$USRTIMER
 70
     1
  9
$ANGBASE
 50
0.0
  9
$ANGDIR
 70
     0
  9
$PDMODE
 70
     0
  9
$PDSIZE
 40
0.0
  9
$PLINEWID
 40
0.0
  9
$SPLFRAME
 70
     0
  9
$SPLINETYPE
 70
     6
  9
$SPLINESEGS
 70
     8
  9
$HANDSEED
  5
466
  9
$SURFTAB1
 70
    24
  9
$SURFTAB2
 70
    24
  9
$SURFTYPE
 70
     6
  9
$SURFU
 70
     6
  9
$SURFV
 70
     6
  9
$UCSBASE
  2

  9
$UCSNAME
  2

  9
$UCSORG
 10
0.0
 20
0.0
 30
0.0
  9
$UCSXDIR
 10
1.0
 20
0.0
 30
0.0
  9
$UCSYDIR
 10
0.0
 20
1.0
 30
0.0
  9
$UCSORTHOREF
  2

  9
$UCSORTHOVIEW
 70
     0
  9
$UCSORGTOP
 10
0.0
 20
0.0
 30
0.0
  9
$UCSORGBOTTOM
 10
0.0
 20
0.0
 30
0.0
  9
$UCSORGLEFT
 10
0.0
 20
0.0
 30
0.0
  9
$UCSORGRIGHT
 10
0.0
 20
0.0
 30
0.0
  9
$UCSORGFRONT
 10
0.0
 20
0.0
 30
0.0
  9
$UCSORGBACK
 10
0.0
 20
0.0
 30
0.0
  9
$PUCSBASE
  2

  9
$PUCSNAME
  2

  9
$PUCSORG
 10
0.0
 20
0.0
 30
0.0
  9
$PUCSXDIR
 10
1.0
 20
0.0
 30
0.0
  9
$PUCSYDIR
 10
0.0
 20
1.0
 30
0.0
  9
$PUCSORTHOREF
  2

  9
$PUCSORTHOVIEW
 70
     0
  9
$PUCSORGTOP
 10
0.0
 20
0.0
 30
0.0
  9
$PUCSORGBOTTOM
 10
0.0
 20
0.0
 30
0.0
  9
$PUCSORGLEFT
 10
0.0
 20
0.0
 30
0.0
  9
$PUCSORGRIGHT
 10
0.0
 20
0.0
 30
0.0
  9
$PUCSORGFRONT
 10
0.0
 20
0.0
 30
0.0
  9
$PUCSORGBACK
 10
0.0
 20
0.0
 30
0.0
  9
$USERI1
 70
     0
  9
$USERI2
 70
     0
  9
$USERI3
 70
     0
  9
$USERI4
 70
     0
  9
$USERI5
 70
     0
  9
$USERR1
 40
0.0
  9
$USERR2
 40
0.0
  9
$USERR3
 40
0.0
  9
$USERR4
 40
0.0
  9
$USERR5
 40
0.0
  9
$WORLDVIEW
 70
     1
  9
$SHADEDGE
 70
     3
  9
$SHADEDIF
 70
    70
  9
$TILEMODE
 70
     1
  9
$MAXACTVP
 70
    48
  9
$PINSBASE
 10
0.0
 20
0.0
 30
0.0
  9
$PLIMCHECK
 70
     0
  9
$PEXTMIN
 10
1.000000000000000E+20
 20
1.000000000000000E+20
 30
1.000000000000000E+20
  9
$PEXTMAX
 10
-1.000000000000000E+20
 20
-1.000000000000000E+20
 30
-1.000000000000000E+20
  9
$PLIMMIN
 10
0.0
 20
0.0
  9
$PLIMMAX
 10
420.0
 20
297.0
  9
$UNITMODE
 70
     0
  9
$VISRETAIN
 70
     0
  9
$PLINEGEN
 70
     0
  9
$PSLTSCALE
 70
     0
  9
$TREEDEPTH
 70
  3020
  9
$CMLSTYLE
  2
STANDARD
  9
$CMLJUST
 70
     0
  9
$CMLSCALE
 40
20.0
  9
$PROXYGRAPHICS
 70
     1
  9
$MEASUREMENT
 70
     1
  9
$CELWEIGHT
370
    -1
  9
$ENDCAPS
280
     0
  9
$JOINSTYLE
280
     0
  9
$LWDISPLAY
290
     0
  9
$INSUNITS
 70
     0
  9
$HYPERLINKBASE
  1

  9
$STYLESHEET
  1

  9
$XEDIT
290
     1
  9
$CEPSNTYPE
380
     0
  9
$PSTYLEMODE
290
     1
  9
$FINGERPRINTGUID
  2
{7E950BF4-AB31-47F9-AD52-930645070022}
  9
$VERSIONGUID
  2
{7677D196-3659-4420-A7AC-CF0AF836CEBA}
  9
$EXTNAMES
290
     1
  9
$PSVPSCALE
 40
0.0
  9
$OLESTARTUP
290
     0
  9
$SORTENTS
280
   127
  9
$INDEXCTL
280
     0
  9
$HIDETEXT
280
     1
  9
$XCLIPFRAME
280
     0
  9
$HALOGAP
280
     0
  9
$OBSCOLOR
 70
   257
  9
$OBSLTYPE
280
     0
  9
$INTERSECTIONDISPLAY
280
     0
  9
$INTERSECTIONCOLOR
 70
   257
  9
$DIMASSOC
280
     1
  9
$PROJECTNAME
  1

  9
$CAMERADISPLAY
290
     0
  9
$LENSLENGTH
 40
50.0
  9
$CAMERAHEIGHT
 40
0.0
  9
$STEPSPERSEC
 40
2.0
  9
$STEPSIZE
 40
6.0
  9
$3DDWFPREC
 40
2.0
  9
$PSOLWIDTH
 40
0.25
  9
$PSOLHEIGHT
 40
4.0
  9
$LOFTANG1
 40
1.570796326794896
  9
$LOFTANG2
 40
1.570796326794896
  9
$LOFTMAG1
 40
0.0
  9
$LOFTMAG2
 40
0.0
  9
$LOFTPARAM
 70
     7
  9
$LOFTNORMALS
280
     1
  9
$LATITUDE
 40
37.795
  9
$LONGITUDE
 40
-122.394
  9
$NORTHDIRECTION
 40
0.0
  9
$TIMEZONE
 70
 -8000
  9
$LIGHTGLYPHDISPLAY
280
     1
  9
$TILEMODELIGHTSYNCH
280
     1
  9
$CMATERIAL
347
3E
  9
$SOLIDHIST
280
     1
  9
$SHOWHIST
280
     1
  9
$DWFFRAME
280
     2
  9
$DGNFRAME
280
     0
  9
$REALWORLDSCALE
290
     1
  9
$INTERFERECOLOR
 62
     1
  9
$INTERFEREOBJVS
345
59
  9
$INTERFEREVPVS
346
5A
  9
$CSHADOW
280
     0
  9
$SHADOWPLANELOCATION
 40
0.0
  0
ENDSEC
  0
SECTION
  2
CLASSES
  0
CLASS
  1
ACDBDICTIONARYWDFLT
  2
AcDbDictionaryWithDefault
  3
ObjectDBX Classes
 90
        0
 91
        1
280
     0
281
     0
  0
CLASS
  1
DICTIONARYVAR
  2
AcDbDictionaryVar
  3
ObjectDBX Classes
 90
        0
 91
        7
280
     0
281
     0
  0
CLASS
  1
MATERIAL
  2
AcDbMaterial
  3
ObjectDBX Classes
 90
     1153
 91
        3
280
     0
281
     0
  0
CLASS
  1
VISUALSTYLE
  2
AcDbVisualStyle
  3
ObjectDBX Classes
 90
     4095
 91
        3
280
     0
281
     0
  0
CLASS
  1
TABLESTYLE
  2
AcDbTableStyle
  3
ObjectDBX Classes
 90
     4095
 91
        1
280
     0
281
     0
  0
CLASS
  1
SCALE
  2
AcDbScale
  3
ObjectDBX Classes
 90
     1153
 91
       33
280
     0
281
     0
  0
CLASS
  1
MLEADERSTYLE
  2
AcDbMLeaderStyle
  3
ACDB_MLEADERSTYLE_CLASS
 90
     4095
 91
        0
280
     0
281
     0
  0
CLASS
  1
CELLSTYLEMAP
  2
AcDbCellStyleMap
  3
ObjectDBX Classes
 90
     1152
 91
        1
280
     0
281
     0
  0
CLASS
  1
SORTENTSTABLE
  2
AcDbSortentsTable
  3
ObjectDBX Classes
 90
        0
 91
        4
280
     0
281
     0
  0
CLASS
  1
SOLID_BACKGROUND
  2
AcDbSolidBackground
  3
SCENEOE
 90
     4095
 91
        0
280
     0
281
     0
  0
CLASS
  1
NPOCOLLECTION
  2
AcDbImpNonPersistentObjectsCollection
  3
ObjectDBX Classes
 90
     1153
 91
        0
280
     0
281
     0
  0
CLASS
  1
AEC_REFEDIT_STATUS_TRACKER
  2
AecDbRefEditStatusTracker
  3
AecArchBase60|Product Desc: Autodesk Architectural Desktop 2007 |Company: Autodesk,Inc. |WEB Address: www.autodesk.com
 90
      129
 91
        0
280
     0
281
     0
  0
ENDSEC
  0
SECTION
  2
TABLES
  0
TABLE
  2
VPORT
  5
2E
102
{ACAD_XDICTIONARY
360
32
102
}
330
0
100
AcDbSymbolTable
 70
     1
  0
VPORT
  5
2F
330
2E
100
AcDbSymbolTableRecord
100
AcDbViewportTableRecord
  2
*Active
 70
     0
 10
0.0
 20
0.0
 11
1.0
 21
1.0
 12
711.0539168832111
 22
358.4931517301479
 13
0.0
 23
0.0
 14
1.0
 24
1.0
 15
100.0
 25
100.0
 16
0.0
 26
0.0
 36
1.0
 17
0.0
 27
0.0
 37
0.0
 40
925.9863716895088
 41
1.937738246505718
 42
50.0
 43
0.0
 44
0.0
 50
0.0
 51
0.0
 71
     0
 72
  1000
 73
     1
 74
     0
 75
     0
 76
     0
 77
     0
 78
     0
281
     0
 65
     1
110
0.0
120
0.0
130
0.0
111
1.0
121
0.0
131
0.0
112
0.0
122
1.0
132
0.0
 79
     0
146
0.0
348
30
 60
     3
 61
     5
292
     1
282
     1
141
0.0
142
0.0
 63
   250
421
  3355443
  0
ENDTAB
  0
TABLE
  2
LTYPE
  5
29
330
0
100
AcDbSymbolTable
 70
     4
  0
LTYPE
  5
2A
330
29
100
AcDbSymbolTableRecord
100
AcDbLinetypeTableRecord
  2
BYBLOCK
 70
     0
  3

 72
    65
 73
     0
 40
0.0
  0
LTYPE
  5
2B
330
29
100
AcDbSymbolTableRecord
100
AcDbLinetypeTableRecord
  2
BYLAYER
 70
     0
  3

 72
    65
 73
     0
 40
0.0
  0
LTYPE
  5
15
330
29
100
AcDbSymbolTableRecord
100
AcDbLinetypeTableRecord
  2
CONTINUOUS
 70
     0
  3
Solid line
 72
    65
 73
     0
 40
0.0
  0
LTYPE
  5
2B2
330
29
100
AcDbSymbolTableRecord
100
AcDbLinetypeTableRecord
  2
STRICHPUNKT
 70
     0
  3
Strichpunkt __ . __ . __ . __ . __ . __ . __ . 
 72
    65
 73
     4
 40
1.0
 49
0.5
 74
     0
 49
-0.25
 74
     0
 49
0.0
 74
     0
 49
-0.25
 74
     0
  0
LTYPE
  5
D0
330
29
100
AcDbSymbolTableRecord
100
AcDbLinetypeTableRecord
  2
VERDECKT
 70
     0
  3
Verdeckt __ __ __ __ __ __ __ __ __ __ __ __ __
 72
    65
 73
     2
 40
0.375
 49
0.25
 74
     0
 49
-0.125
 74
     0
  0
LTYPE
  5
12E
330
29
100
AcDbSymbolTableRecord
100
AcDbLinetypeTableRecord
  2
AUSGEZOGEN
 70
     0
  3
Ausgezogene Linie
 72
    65
 73
     0
 40
0.0
  0
ENDTAB
  0
TABLE
  2
LAYER
  5
20
102
{ACAD_XDICTIONARY
360
21
102
}
330
0
100
AcDbSymbolTable
 70
    10
  0
LAYER
  5
6
102
{ACAD_XDICTIONARY
360
7
102
}
330
20
100
AcDbSymbolTableRecord
100
AcDbLayerTableRecord
  2
0
 70
     0
 62
     7
  6
CONTINUOUS
370
    -3
390
9
347
C
  0
LAYER
  5
2AF
102
{ACAD_XDICTIONARY
360
2B0
102
}
330
20
100
AcDbSymbolTableRecord
100
AcDbLayerTableRecord
  2
05-01
 70
     0
 62
     1
  6
STRICHPUNKT
370
    -3
390
9
347
C
  0
LAYER
  5
2B8
102
{ACAD_XDICTIONARY
360
2B9
102
}
330
20
100
AcDbSymbolTableRecord
100
AcDbLayerTableRecord
  2
01-01
 70
     0
 62
     2
  6
CONTINUOUS
370
    -3
390
9
347
C
  0
LAYER
  5
F0
102
{ACAD_XDICTIONARY
360
F1
102
}
330
20
100
AcDbSymbolTableRecord
100
AcDbLayerTableRecord
  2
02-01
 70
     0
 62
     1
  6
CONTINUOUS
370
    -3
390
9
347
C
  0
LAYER
  5
CD
102
{ACAD_XDICTIONARY
360
CE
102
}
330
20
100
AcDbSymbolTableRecord
100
AcDbLayerTableRecord
  2
03-01
 70
     0
 62
     3
  6
VERDECKT
370
    -3
390
9
347
C
  0
LAYER
  5
52
102
{ACAD_XDICTIONARY
360
53
102
}
330
20
100
AcDbSymbolTableRecord
100
AcDbLayerTableRecord
  2
09-01
 70
     0
 62
     7
  6
CONTINUOUS
370
    -3
390
9
347
C
  0
LAYER
  5
EB
102
{ACAD_XDICTIONARY
360
EC
102
}
330
20
100
AcDbSymbolTableRecord
100
AcDbLayerTableRecord
  2
01-99
 70
     0
 62
     2
  6
CONTINUOUS
370
    -3
390
9
347
C
  0
LAYER
  5
12B
102
{ACAD_XDICTIONARY
360
12C
102
}
330
20
100
AcDbSymbolTableRecord
100
AcDbLayerTableRecord
  2
06-99
 70
     0
 62
     1
  6
AUSGEZOGEN
370
    -3
390
9
347
C
  0
LAYER
  5
115
102
{ACAD_XDICTIONARY
360
116
102
}
330
20
100
AcDbSymbolTableRecord
100
AcDbLayerTableRecord
  2
08-99
 70
     0
 62
     7
  6
CONTINUOUS
370
    -3
390
9
347
C
  0
LAYER
  5
86
330
20
100
AcDbSymbolTableRecord
100
AcDbLayerTableRecord
  2
Defpoints
 70
     0
 62
     7
  6
CONTINUOUS
290
     0
370
    -3
390
9
347
C
  0
ENDTAB
  0
TABLE
  2
STYLE
  5
26
330
0
100
AcDbSymbolTable
 70
     4
  0
STYLE
  5
27
330
26
100
AcDbSymbolTableRecord
100
AcDbTextStyleTableRecord
  2
STANDARD
 70
     0
 40
0.0
 41
1.0
 50
0.0
 71
     0
 42
3.5
  3
romans.shx
  4

  0
STYLE
  5
55
330
26
100
AcDbSymbolTableRecord
100
AcDbTextStyleTableRecord
  2
Bemaßung
 70
     0
 40
0.0
 41
1.0
 50
0.0
 71
     0
 42
15.0
  3
arial.ttf
  4

1001
ACAD
1000
Arial
1071
       34
  0
STYLE
  5
118
330
26
100
AcDbSymbolTableRecord
100
AcDbTextStyleTableRecord
  2
ROMANS8
 70
     0
 40
0.0
 41
1.0
 50
0.0
 71
     0
 42
2.5
  3
romans.shx
  4

  0
STYLE
  5
270
330
26
100
AcDbSymbolTableRecord
100
AcDbTextStyleTableRecord
  2
ROMAND8
 70
     0
 40
0.0
 41
1.0
 50
0.0
 71
     0
 42
3.5
  3
ROMAND8
  4

  0
ENDTAB
  0
TABLE
  2
VIEW
  5
2C
330
0
100
AcDbSymbolTable
 70
     0
  0
ENDTAB
  0
TABLE
  2
UCS
  5
2D
330
0
100
AcDbSymbolTable
 70
     0
  0
ENDTAB
  0
TABLE
  2
APPID
  5
33
330
0
100
AcDbSymbolTable
 70
     5
  0
APPID
  5
25
330
33
100
AcDbSymbolTableRecord
100
AcDbRegAppTableRecord
  2
ACAD
 70
     0
  0
APPID
  5
36
330
33
100
AcDbSymbolTableRecord
100
AcDbRegAppTableRecord
  2
ACAD_DSTYLE_DIMJOGGED_JOGANGLE_SYMBOL
 70
     0
  0
APPID
  5
37
330
33
100
AcDbSymbolTableRecord
100
AcDbRegAppTableRecord
  2
ACAD_DSTYLE_DIMJAG
 70
     0
  0
APPID
  5
38
330
33
100
AcDbSymbolTableRecord
100
AcDbRegAppTableRecord
  2
ACAD_DSTYLE_DIMTALN
 70
     0
  0
APPID
  5
1B
330
33
100
AcDbSymbolTableRecord
100
AcDbRegAppTableRecord
  2
ACAD_PSEXT
 70
     0
  0
ENDTAB
  0
TABLE
  2
DIMSTYLE
  5
34
330
0
100
AcDbSymbolTable
 70
     3
100
AcDbDimStyleTable
 71
     2
340
35
340
39
  0
DIMSTYLE
105
39
330
34
100
AcDbSymbolTableRecord
100
AcDbDimStyleTableRecord
  2
STANDARD
 70
     0
340
27
  0
DIMSTYLE
105
35
330
34
100
AcDbSymbolTableRecord
100
AcDbDimStyleTableRecord
  2
Wagner
 70
     0
 41
2.5
 42
1.0
 43
10.0
 44
1.0
 73
     0
 74
     0
 77
     1
 78
     8
 79
     2
140
2.5
141
0.0
143
0.03937007874016
147
1.0
171
     3
172
     1
176
     4
177
     4
178
     1
179
     2
271
     8
272
     8
274
     3
283
     0
284
     8
340
27
1001
ACAD_DSTYLE_DIMJOGGED_JOGANGLE_SYMBOL
1070
   384
1040
0.7853981633974483
1001
ACAD_DSTYLE_DIMJAG
1070
   388
1040
1.5
1001
ACAD_DSTYLE_DIMTALN
1070
   392
1070
     0
  0
DIMSTYLE
105
8A
102
{ACAD_REACTORS
330
3D7
330
3E5
330
3F3
330
435
330
3C9
330
44B
330
2E3
330
2D0
330
2A0
330
D2
330
BF
330
B2
330
A5
330
98
330
8B
330
7C
102
}
330
34
100
AcDbSymbolTableRecord
100
AcDbDimStyleTableRecord
  2
Wagner$0
 70
     0
 41
2.5
 42
1.0
 43
10.0
 44
1.0
 73
     0
 74
     0
 77
     1
 78
     8
 79
     2
140
2.5
141
0.0
143
0.03937007874016
147
1.0
171
     3
172
     1
174
     1
176
     4
177
     4
178
     1
179
     2
271
     8
272
     8
274
     3
279
     2
283
     0
284
     8
340
27
1001
ACAD_DSTYLE_DIMJOGGED_JOGANGLE_SYMBOL
1070
   384
1040
0.7853981633974483
1001
ACAD_DSTYLE_DIMJAG
1070
   388
1040
1.5
1001
ACAD_DSTYLE_DIMTALN
1070
   392
1070
     0
  0
ENDTAB
  0
TABLE
  2
BLOCK_RECORD
  5
1
330
0
100
AcDbSymbolTable
 70
    17
  0
BLOCK_RECORD
  5
2
102
{ACAD_XDICTIONARY
360
3
102
}
330
1
100
AcDbSymbolTableRecord
100
AcDbBlockTableRecord
  2
*MODEL_SPACE
340
17
 70
     0
280
     1
281
     0
  0
BLOCK_RECORD
  5
1C
330
1
100
AcDbSymbolTableRecord
100
AcDbBlockTableRecord
  2
*PAPER_SPACE
340
1F
 70
     0
280
     1
281
     0
  0
BLOCK_RECORD
  5
44C
330
1
100
AcDbSymbolTableRecord
100
AcDbBlockTableRecord
  2
*D0
340
0
 70
     0
280
     1
281
     0
  0
BLOCK_RECORD
  5
436
330
1
100
AcDbSymbolTableRecord
100
AcDbBlockTableRecord
  2
*D1
340
0
 70
     0
280
     1
281
     0
  0
BLOCK_RECORD
  5
3F4
330
1
100
AcDbSymbolTableRecord
100
AcDbBlockTableRecord
  2
*D2
340
0
 70
     0
280
     1
281
     0
  0
BLOCK_RECORD
  5
3E6
330
1
100
AcDbSymbolTableRecord
100
AcDbBlockTableRecord
  2
*D3
340
0
 70
     0
280
     1
281
     0
  0
BLOCK_RECORD
  5
3D8
330
1
100
AcDbSymbolTableRecord
100
AcDbBlockTableRecord
  2
*D4
340
0
 70
     0
280
     1
281
     0
  0
BLOCK_RECORD
  5
3CA
330
1
100
AcDbSymbolTableRecord
100
AcDbBlockTableRecord
  2
*D5
340
0
 70
     0
280
     1
281
     0
  0
BLOCK_RECORD
  5
2E4
330
1
100
AcDbSymbolTableRecord
100
AcDbBlockTableRecord
  2
*D6
340
0
 70
     0
280
     1
281
     0
  0
BLOCK_RECORD
  5
2D1
330
1
100
AcDbSymbolTableRecord
100
AcDbBlockTableRecord
  2
*D7
340
0
 70
     0
280
     1
281
     0
  0
BLOCK_RECORD
  5
E6
102
{ACAD_XDICTIONARY
360
E7
102
}
330
1
100
AcDbSymbolTableRecord
100
AcDbBlockTableRecord
  2
DIN A3
340
0
102
{BLKREFS
331
E5
102
}
 70
     4
280
     1
281
     0
  0
BLOCK_RECORD
  5
2A1
330
1
100
AcDbSymbolTableRecord
100
AcDbBlockTableRecord
  2
*D9
340
0
 70
     0
280
     1
281
     0
  0
BLOCK_RECORD
  5
D3
330
1
100
AcDbSymbolTableRecord
100
AcDbBlockTableRecord
  2
*D10
340
0
 70
     0
280
     1
281
     0
  0
BLOCK_RECORD
  5
C0
330
1
100
AcDbSymbolTableRecord
100
AcDbBlockTableRecord
  2
*D11
340
0
 70
     0
280
     1
281
     0
  0
BLOCK_RECORD
  5
B3
330
1
100
AcDbSymbolTableRecord
100
AcDbBlockTableRecord
  2
*D12
340
0
 70
     0
280
     1
281
     0
  0
BLOCK_RECORD
  5
A6
330
1
100
AcDbSymbolTableRecord
100
AcDbBlockTableRecord
  2
*D13
340
0
 70
     0
280
     1
281
     0
  0
BLOCK_RECORD
  5
99
330
1
100
AcDbSymbolTableRecord
100
AcDbBlockTableRecord
  2
*D14
340
0
 70
     0
280
     1
281
     0
  0
BLOCK_RECORD
  5
8C
330
1
100
AcDbSymbolTableRecord
100
AcDbBlockTableRecord
  2
*D15
340
0
 70
     0
280
     1
281
     0
  0
BLOCK_RECORD
  5
7D
330
1
100
AcDbSymbolTableRecord
100
AcDbBlockTableRecord
  2
*D16
340
0
 70
     0
280
     1
281
     0
  0
ENDTAB
  0
ENDSEC
  0
SECTION
  2
BLOCKS
  0
BLOCK
  5
5
330
2
100
AcDbEntity
  8
0
100
AcDbBlockBegin
  2
*MODEL_SPACE
 70
     0
 10
0.0
 20
0.0
 30
0.0
  3
*MODEL_SPACE
  1

  0
ENDBLK
  5
16
330
2
100
AcDbEntity
  8
0
100
AcDbBlockEnd
  0
BLOCK
  5
1D
330
1C
100
AcDbEntity
 67
     1
  8
0
100
AcDbBlockBegin
  2
*PAPER_SPACE
 70
     0
 10
0.0
 20
0.0
 30
0.0
  3
*PAPER_SPACE
  1

  0
ENDBLK
  5
1E
330
1C
100
AcDbEntity
 67
     1
  8
0
100
AcDbBlockEnd
  0
BLOCK
  5
44D
330
44C
100
AcDbEntity
  8
0
100
AcDbBlockBegin
  2
*D0
 70
     1
 10
0.0
 20
0.0
 30
0.0
  3
*D0
  1

  0
LINE
  5
44E
330
44C
100
AcDbEntity
  8
09-01
 62
     4
440
 16777216
370
    -2
100
AcDbLine
 10
92.74740196012377
 20
426.4484753199192
 30
0.0
 11
92.74740196012377
 21
440.5072417923256
 31
0.0
  0
LINE
  5
44F
330
44C
100
AcDbEntity
  8
09-01
 62
     4
440
 16777216
370
    -2
100
AcDbLine
 10
348.7474019601237
 20
426.4484753199192
 30
0.0
 11
348.7474019601237
 21
440.5072417923256
 31
0.0
  0
LINE
  5
450
330
44C
100
AcDbEntity
  8
09-01
 62
     4
440
 16777216
370
    -2
100
AcDbLine
 10
98.99740196012377
 20
438.0072417923257
 30
0.0
 11
342.4974019601237
 21
438.0072417923257
 31
0.0
  0
SOLID
  5
451
330
44C
100
AcDbEntity
  8
09-01
 62
     4
440
 16777216
100
AcDbTrace
 10
98.99740196012377
 20
439.0489084589923
 30
0.0
 11
98.99740196012377
 21
436.965575125659
 31
0.0
 12
92.74740196012377
 22
438.0072417923257
 32
0.0
 13
92.74740196012377
 23
438.0072417923257
 33
0.0
  0
SOLID
  5
452
330
44C
100
AcDbEntity
  8
09-01
 62
     4
440
 16777216
100
AcDbTrace
 10
342.4974019601237
 20
439.0489084589923
 30
0.0
 11
342.4974019601237
 21
436.965575125659
 31
0.0
 12
348.7474019601237
 22
438.0072417923257
 32
0.0
 13
348.7474019601237
 23
438.0072417923257
 33
0.0
  0
MTEXT
  5
453
330
44C
100
AcDbEntity
  8
09-01
 62
     1
440
 16777216
100
AcDbMText
 10
220.7474019601237
 20
443.6322417923256
 30
0.0
 40
6.25
 41
0.0
 46
0.0
 71
     5
 72
     1
  1
256
 73
     1
 44
1.0
  0
POINT
  5
454
330
44C
100
AcDbEntity
  8
Defpoints
 62
     0
440
 16777216
100
AcDbPoint
 10
92.74740196012377
 20
423.9484753199191
 30
0.0
  0
POINT
  5
455
330
44C
100
AcDbEntity
  8
Defpoints
 62
     0
440
 16777216
100
AcDbPoint
 10
348.7474019601237
 20
423.9484753199191
 30
0.0
  0
POINT
  5
456
330
44C
100
AcDbEntity
  8
Defpoints
 62
     0
440
 16777216
100
AcDbPoint
 10
348.7474019601237
 20
438.0072417923257
 30
0.0
  0
ENDBLK
  5
457
330
44C
100
AcDbEntity
  8
0
100
AcDbBlockEnd
  0
BLOCK
  5
437
330
436
100
AcDbEntity
  8
0
100
AcDbBlockBegin
  2
*D1
 70
     1
 10
0.0
 20
0.0
 30
0.0
  3
*D1
  1

  0
LINE
  5
438
330
436
100
AcDbEntity
  8
09-01
 62
     4
440
 16777216
370
    -2
100
AcDbLine
 10
528.3378897715351
 20
426.4484753199192
 30
0.0
 11
528.3378897715351
 21
437.2458282993541
 31
0.0
  0
LINE
  5
439
330
436
100
AcDbEntity
  8
09-01
 62
     4
440
 16777216
370
    -2
100
AcDbLine
 10
648.3378897715351
 20
426.4484753199192
 30
0.0
 11
648.3378897715351
 21
437.2458282993541
 31
0.0
  0
LINE
  5
43A
330
436
100
AcDbEntity
  8
09-01
 62
     4
440
 16777216
370
    -2
100
AcDbLine
 10
534.5878897715351
 20
434.7458282993541
 30
0.0
 11
642.0878897715351
 21
434.7458282993541
 31
0.0
  0
SOLID
  5
43B
330
436
100
AcDbEntity
  8
09-01
 62
     4
440
 16777216
100
AcDbTrace
 10
534.5878897715351
 20
435.7874949660208
 30
0.0
 11
534.5878897715351
 21
433.7041616326874
 31
0.0
 12
528.3378897715351
 22
434.7458282993541
 32
0.0
 13
528.3378897715351
 23
434.7458282993541
 33
0.0
  0
SOLID
  5
43C
330
436
100
AcDbEntity
  8
09-01
 62
     4
440
 16777216
100
AcDbTrace
 10
642.0878897715351
 20
435.7874949660208
 30
0.0
 11
642.0878897715351
 21
433.7041616326874
 31
0.0
 12
648.3378897715351
 22
434.7458282993541
 32
0.0
 13
648.3378897715351
 23
434.7458282993541
 33
0.0
  0
MTEXT
  5
43D
330
436
100
AcDbEntity
  8
09-01
 62
     1
440
 16777216
100
AcDbMText
 10
588.3378897715352
 20
440.3708282993541
 30
0.0
 40
6.25
 41
0.0
 46
0.0
 71
     5
 72
     1
  1
120
 73
     1
 44
1.0
  0
POINT
  5
43E
330
436
100
AcDbEntity
  8
Defpoints
 62
     0
440
 16777216
100
AcDbPoint
 10
528.3378897715351
 20
423.9484753199191
 30
0.0
  0
POINT
  5
43F
330
436
100
AcDbEntity
  8
Defpoints
 62
     0
440
 16777216
100
AcDbPoint
 10
648.3378897715351
 20
423.9484753199191
 30
0.0
  0
POINT
  5
440
330
436
100
AcDbEntity
  8
Defpoints
 62
     0
440
 16777216
100
AcDbPoint
 10
648.3378897715351
 20
434.7458282993541
 30
0.0
  0
ENDBLK
  5
441
330
436
100
AcDbEntity
  8
0
100
AcDbBlockEnd
  0
BLOCK
  5
3F5
330
3F4
100
AcDbEntity
  8
0
100
AcDbBlockBegin
  2
*D2
 70
     1
 10
0.0
 20
0.0
 30
0.0
  3
*D2
  1

  0
LINE
  5
3F6
330
3F4
100
AcDbEntity
  8
09-01
 62
     4
440
 16777216
370
    -2
100
AcDbLine
 10
352.4974019601259
 20
206.7734418333962
 30
0.0
 11
393.5786420104344
 21
206.7734418333962
 31
0.0
  0
LINE
  5
3F7
330
3F4
100
AcDbEntity
  8
09-01
 62
     4
440
 16777216
370
    -2
100
AcDbLine
 10
370.7474019601248
 20
234.2734418333626
 30
0.0
 11
393.5786420104344
 21
234.2734418333626
 31
0.0
  0
LINE
  5
3F8
330
3F4
100
AcDbEntity
  8
09-01
 62
     4
440
 16777216
370
    -2
100
AcDbLine
 10
391.0786420104344
 20
213.0234418333962
 30
0.0
 11
391.0786420104344
 21
228.0234418333626
 31
0.0
  0
SOLID
  5
3F9
330
3F4
100
AcDbEntity
  8
09-01
 62
     4
440
 16777216
100
AcDbTrace
 10
390.0369753437677
 20
213.0234418333962
 30
0.0
 11
392.1203086771011
 21
213.0234418333962
 31
0.0
 12
391.0786420104344
 22
206.7734418333962
 32
0.0
 13
391.0786420104344
 23
206.7734418333962
 33
0.0
  0
SOLID
  5
3FA
330
3F4
100
AcDbEntity
  8
09-01
 62
     4
440
 16777216
100
AcDbTrace
 10
390.0369753437677
 20
228.0234418333626
 30
0.0
 11
392.1203086771011
 21
228.0234418333626
 31
0.0
 12
391.0786420104344
 22
234.2734418333626
 32
0.0
 13
391.0786420104344
 23
234.2734418333626
 33
0.0
  0
MTEXT
  5
3FB
330
3F4
100
AcDbEntity
  8
09-01
 62
     1
440
 16777216
100
AcDbMText
 10
385.4536420104343
 20
220.5234418333795
 30
0.0
 40
6.25
 41
0.0
 46
0.0
 71
     5
 72
     1
  1
27.5
 11
0.0000000000000001
 21
1.0
 31
0.0
 73
     1
 44
1.0
  0
POINT
  5
3FC
330
3F4
100
AcDbEntity
  8
Defpoints
 62
     0
440
 16777216
100
AcDbPoint
 10
349.9974019601259
 20
206.7734418333962
 30
0.0
  0
POINT
  5
3FD
330
3F4
100
AcDbEntity
  8
Defpoints
 62
     0
440
 16777216
100
AcDbPoint
 10
368.2474019601248
 20
234.2734418333626
 30
0.0
  0
POINT
  5
3FE
330
3F4
100
AcDbEntity
  8
Defpoints
 62
     0
440
 16777216
100
AcDbPoint
 10
391.0786420104344
 20
234.2734418333626
 30
0.0
  0
ENDBLK
  5
3FF
330
3F4
100
AcDbEntity
  8
0
100
AcDbBlockEnd
  0
BLOCK
  5
3E7
330
3E6
100
AcDbEntity
  8
0
100
AcDbBlockBegin
  2
*D3
 70
     1
 10
0.0
 20
0.0
 30
0.0
  3
*D3
  1

  0
LINE
  5
3E8
330
3E6
100
AcDbEntity
  8
09-01
 62
     4
440
 16777216
370
    -2
100
AcDbLine
 10
70.24740196012476
 20
233.7734418333625
 30
0.0
 11
70.24740196012476
 21
257.8677277617603
 31
0.0
  0
LINE
  5
3E9
330
3E6
100
AcDbEntity
  8
09-01
 62
     4
440
 16777216
370
    -2
100
AcDbLine
 10
371.2474019601248
 20
233.7734418333625
 30
0.0
 11
371.2474019601248
 21
257.8677277617603
 31
0.0
  0
LINE
  5
3EA
330
3E6
100
AcDbEntity
  8
09-01
 62
     4
440
 16777216
370
    -2
100
AcDbLine
 10
76.49740196012476
 20
255.3677277617603
 30
0.0
 11
364.9974019601248
 21
255.3677277617603
 31
0.0
  0
SOLID
  5
3EB
330
3E6
100
AcDbEntity
  8
09-01
 62
     4
440
 16777216
100
AcDbTrace
 10
76.49740196012476
 20
256.409394428427
 30
0.0
 11
76.49740196012476
 21
254.3260610950937
 31
0.0
 12
70.24740196012476
 22
255.3677277617603
 32
0.0
 13
70.24740196012476
 23
255.3677277617603
 33
0.0
  0
SOLID
  5
3EC
330
3E6
100
AcDbEntity
  8
09-01
 62
     4
440
 16777216
100
AcDbTrace
 10
364.9974019601248
 20
256.409394428427
 30
0.0
 11
364.9974019601248
 21
254.3260610950937
 31
0.0
 12
371.2474019601248
 22
255.3677277617603
 32
0.0
 13
371.2474019601248
 23
255.3677277617603
 33
0.0
  0
MTEXT
  5
3ED
330
3E6
100
AcDbEntity
  8
09-01
 62
     1
440
 16777216
100
AcDbMText
 10
220.7474019601248
 20
260.9927277617603
 30
0.0
 40
6.25
 41
0.0
 46
0.0
 71
     5
 72
     1
  1
301
 73
     1
 44
1.0
  0
POINT
  5
3EE
330
3E6
100
AcDbEntity
  8
Defpoints
 62
     0
440
 16777216
100
AcDbPoint
 10
70.24740196012476
 20
231.2734418333625
 30
0.0
  0
POINT
  5
3EF
330
3E6
100
AcDbEntity
  8
Defpoints
 62
     0
440
 16777216
100
AcDbPoint
 10
371.2474019601248
 20
231.2734418333625
 30
0.0
  0
POINT
  5
3F0
330
3E6
100
AcDbEntity
  8
Defpoints
 62
     0
440
 16777216
100
AcDbPoint
 10
371.2474019601248
 20
255.3677277617603
 30
0.0
  0
ENDBLK
  5
3F1
330
3E6
100
AcDbEntity
  8
0
100
AcDbBlockEnd
  0
BLOCK
  5
3D9
330
3D8
100
AcDbEntity
  8
0
100
AcDbBlockBegin
  2
*D4
 70
     1
 10
0.0
 20
0.0
 30
0.0
  3
*D4
  1

  0
LINE
  5
3DA
330
3D8
100
AcDbEntity
  8
09-01
 62
     4
440
 16777216
370
    -2
100
AcDbLine
 10
511.8378897714563
 20
447.648475320245
 30
0.0
 11
511.8378897714563
 21
256.5475234904722
 31
0.0
  0
LINE
  5
3DB
330
3D8
100
AcDbEntity
  8
09-01
 62
     4
440
 16777216
370
    -2
100
AcDbLine
 10
664.8378897719386
 20
447.6484753202449
 30
0.0
 11
664.8378897719386
 21
256.5475234904722
 31
0.0
  0
LINE
  5
3DC
330
3D8
100
AcDbEntity
  8
09-01
 62
     4
440
 16777216
370
    -2
100
AcDbLine
 10
518.0878897714563
 20
259.0475234904722
 30
0.0
 11
658.5878897719386
 21
259.0475234904722
 31
0.0
  0
SOLID
  5
3DD
330
3D8
100
AcDbEntity
  8
09-01
 62
     4
440
 16777216
100
AcDbTrace
 10
518.0878897714563
 20
260.0891901571389
 30
0.0
 11
518.0878897714563
 21
258.0058568238056
 31
0.0
 12
511.8378897714563
 22
259.0475234904722
 32
0.0
 13
511.8378897714563
 23
259.0475234904722
 33
0.0
  0
SOLID
  5
3DE
330
3D8
100
AcDbEntity
  8
09-01
 62
     4
440
 16777216
100
AcDbTrace
 10
658.5878897719386
 20
260.0891901571389
 30
0.0
 11
658.5878897719386
 21
258.0058568238056
 31
0.0
 12
664.8378897719386
 22
259.0475234904722
 32
0.0
 13
664.8378897719386
 23
259.0475234904722
 33
0.0
  0
MTEXT
  5
3DF
330
3D8
100
AcDbEntity
  8
09-01
 62
     1
440
 16777216
100
AcDbMText
 10
588.3378897716974
 20
264.6725234904723
 30
0.0
 40
6.25
 41
0.0
 46
0.0
 71
     5
 72
     1
  1
153
 73
     1
 44
1.0
  0
POINT
  5
3E0
330
3D8
100
AcDbEntity
  8
Defpoints
 62
     0
440
 16777216
100
AcDbPoint
 10
511.8378897714563
 20
450.1484753202451
 30
0.0
  0
POINT
  5
3E1
330
3D8
100
AcDbEntity
  8
Defpoints
 62
     0
440
 16777216
100
AcDbPoint
 10
664.8378897719386
 20
450.148475320245
 30
0.0
  0
POINT
  5
3E2
330
3D8
100
AcDbEntity
  8
Defpoints
 62
     0
440
 16777216
100
AcDbPoint
 10
664.8378897719386
 20
259.0475234904722
 30
0.0
  0
ENDBLK
  5
3E3
330
3D8
100
AcDbEntity
  8
0
100
AcDbBlockEnd
  0
BLOCK
  5
3CB
330
3CA
100
AcDbEntity
  8
0
100
AcDbBlockBegin
  2
*D5
 70
     1
 10
0.0
 20
0.0
 30
0.0
  3
*D5
  1

  0
LINE
  5
3CC
330
3CA
100
AcDbEntity
  8
02-01
 62
     4
440
 16777216
370
    -2
100
AcDbLine
 10
683.4348927137528
 20
473.1446700179901
 30
0.0
 11
700.3628373266124
 21
473.1446700179901
 31
0.0
  0
LINE
  5
3CD
330
3CA
100
AcDbEntity
  8
02-01
 62
     4
440
 16777216
370
    -2
100
AcDbLine
 10
652.8378897716375
 20
287.1484753198997
 30
0.0
 11
700.3628373266124
 21
287.1484753198997
 31
0.0
  0
LINE
  5
3CE
330
3CA
100
AcDbEntity
  8
02-01
 62
     4
440
 16777216
370
    -2
100
AcDbLine
 10
697.8628373266124
 20
466.8946700179901
 30
0.0
 11
697.8628373266124
 21
293.3984753198997
 31
0.0
  0
SOLID
  5
3CF
330
3CA
100
AcDbEntity
  8
02-01
 62
     4
440
 16777216
100
AcDbTrace
 10
696.8211706599458
 20
466.8946700179901
 30
0.0
 11
698.904503993279
 21
466.8946700179901
 31
0.0
 12
697.8628373266124
 22
473.1446700179901
 32
0.0
 13
697.8628373266124
 23
473.1446700179901
 33
0.0
  0
SOLID
  5
3D0
330
3CA
100
AcDbEntity
  8
02-01
 62
     4
440
 16777216
100
AcDbTrace
 10
696.8211706599458
 20
293.3984753198997
 30
0.0
 11
698.904503993279
 21
293.3984753198997
 31
0.0
 12
697.8628373266124
 22
287.1484753198997
 32
0.0
 13
697.8628373266124
 23
287.1484753198997
 33
0.0
  0
MTEXT
  5
3D1
330
3CA
100
AcDbEntity
  8
02-01
 62
     1
440
 16777216
100
AcDbMText
 10
692.2378373266123
 20
380.1465726689451
 30
0.0
 40
6.25
 41
0.0
 46
0.0
 71
     5
 72
     1
  1
186
 11
0.0000000000000001
 21
1.0
 31
0.0
 73
     1
 44
1.0
  0
POINT
  5
3D2
330
3CA
100
AcDbEntity
  8
Defpoints
 62
     0
440
 16777216
100
AcDbPoint
 10
680.9348927137529
 20
473.1446700179901
 30
0.0
  0
POINT
  5
3D3
330
3CA
100
AcDbEntity
  8
Defpoints
 62
     0
440
 16777216
100
AcDbPoint
 10
650.3378897716374
 20
287.1484753198997
 30
0.0
  0
POINT
  5
3D4
330
3CA
100
AcDbEntity
  8
Defpoints
 62
     0
440
 16777216
100
AcDbPoint
 10
697.8628373266124
 20
287.1484753198997
 30
0.0
  0
ENDBLK
  5
3D5
330
3CA
100
AcDbEntity
  8
0
100
AcDbBlockEnd
  0
BLOCK
  5
2E5
330
2E4
100
AcDbEntity
  8
0
100
AcDbBlockBegin
  2
*D6
 70
     1
 10
0.0
 20
0.0
 30
0.0
  3
*D6
  1

  0
LINE
  5
2E6
330
2E4
100
AcDbEntity
  8
09-01
 62
     4
440
 16777216
370
    -2
100
AcDbLine
 10
510.8378897715371
 20
473.6522806201787
 30
0.0
 11
510.8378897715371
 21
497.1764083540866
 31
0.0
  0
LINE
  5
2E7
330
2E4
100
AcDbEntity
  8
09-01
 62
     4
440
 16777216
370
    -2
100
AcDbLine
 10
665.8378897716369
 20
473.6522806201787
 30
0.0
 11
665.8378897716369
 21
497.1764083540866
 31
0.0
  0
LINE
  5
2E8
330
2E4
100
AcDbEntity
  8
09-01
 62
     4
440
 16777216
370
    -2
100
AcDbLine
 10
517.0878897715371
 20
494.6764083540865
 30
0.0
 11
659.5878897716369
 21
494.6764083540865
 31
0.0
  0
SOLID
  5
2E9
330
2E4
100
AcDbEntity
  8
09-01
 62
     4
440
 16777216
100
AcDbTrace
 10
517.0878897715371
 20
495.7180750207532
 30
0.0
 11
517.0878897715371
 21
493.6347416874198
 31
0.0
 12
510.8378897715371
 22
494.6764083540865
 32
0.0
 13
510.8378897715371
 23
494.6764083540865
 33
0.0
  0
SOLID
  5
2EA
330
2E4
100
AcDbEntity
  8
09-01
 62
     4
440
 16777216
100
AcDbTrace
 10
659.5878897716369
 20
495.7180750207532
 30
0.0
 11
659.5878897716369
 21
493.6347416874198
 31
0.0
 12
665.8378897716369
 22
494.6764083540865
 32
0.0
 13
665.8378897716369
 23
494.6764083540865
 33
0.0
  0
MTEXT
  5
2EB
330
2E4
100
AcDbEntity
  8
09-01
 62
     1
440
 16777216
100
AcDbMText
 10
588.337889771587
 20
500.3014083540866
 30
0.0
 40
6.25
 41
0.0
 46
0.0
 71
     5
 72
     1
  1
Ausschnitt 155
 73
     1
 44
1.0
  0
POINT
  5
2EC
330
2E4
100
AcDbEntity
  8
Defpoints
 62
     0
440
 16777216
100
AcDbPoint
 10
510.8378897715371
 20
471.1522806201787
 30
0.0
  0
POINT
  5
2ED
330
2E4
100
AcDbEntity
  8
Defpoints
 62
     0
440
 16777216
100
AcDbPoint
 10
665.8378897716369
 20
471.1522806201787
 30
0.0
  0
POINT
  5
2EE
330
2E4
100
AcDbEntity
  8
Defpoints
 62
     0
440
 16777216
100
AcDbPoint
 10
665.8378897716369
 20
494.6764083540865
 30
0.0
  0
ENDBLK
  5
2EF
330
2E4
100
AcDbEntity
  8
0
100
AcDbBlockEnd
  0
BLOCK
  5
2D2
330
2D1
100
AcDbEntity
  8
0
100
AcDbBlockBegin
  2
*D7
 70
     1
 10
0.0
 20
0.0
 30
0.0
  3
*D7
  1

  0
LINE
  5
2D3
330
2D1
100
AcDbEntity
  8
09-01
 62
     4
440
 16777216
370
    -2
100
AcDbLine
 10
87.74740196012462
 20
473.6522806218083
 30
0.0
 11
87.74740196012462
 21
499.0651816795453
 31
0.0
  0
LINE
  5
2D4
330
2D1
100
AcDbEntity
  8
09-01
 62
     4
440
 16777216
370
    -2
100
AcDbLine
 10
353.7474019601228
 20
473.6484753198999
 30
0.0
 11
353.7474019601228
 21
499.0651816795453
 31
0.0
  0
LINE
  5
2D5
330
2D1
100
AcDbEntity
  8
09-01
 62
     4
440
 16777216
370
    -2
100
AcDbLine
 10
93.99740196012462
 20
496.5651816795452
 30
0.0
 11
347.4974019601228
 21
496.5651816795452
 31
0.0
  0
SOLID
  5
2D6
330
2D1
100
AcDbEntity
  8
09-01
 62
     4
440
 16777216
100
AcDbTrace
 10
93.99740196012462
 20
497.6068483462119
 30
0.0
 11
93.99740196012462
 21
495.5235150128785
 31
0.0
 12
87.74740196012462
 22
496.5651816795452
 32
0.0
 13
87.74740196012462
 23
496.5651816795452
 33
0.0
  0
SOLID
  5
2D7
330
2D1
100
AcDbEntity
  8
09-01
 62
     4
440
 16777216
100
AcDbTrace
 10
347.4974019601228
 20
497.6068483462119
 30
0.0
 11
347.4974019601228
 21
495.5235150128785
 31
0.0
 12
353.7474019601228
 22
496.5651816795452
 32
0.0
 13
353.7474019601228
 23
496.5651816795452
 33
0.0
  0
MTEXT
  5
2D8
330
2D1
100
AcDbEntity
  8
09-01
 62
     1
440
 16777216
100
AcDbMText
 10
220.7474019601237
 20
502.1901816795453
 30
0.0
 40
6.25
 41
0.0
 46
0.0
 71
     5
 72
     1
  1
Ausschnitt 266
 73
     1
 44
1.0
  0
POINT
  5
2D9
330
2D1
100
AcDbEntity
  8
Defpoints
 62
     0
440
 16777216
100
AcDbPoint
 10
87.74740196012462
 20
471.1522806218083
 30
0.0
  0
POINT
  5
2DA
330
2D1
100
AcDbEntity
  8
Defpoints
 62
     0
440
 16777216
100
AcDbPoint
 10
353.7474019601228
 20
471.1484753198998
 30
0.0
  0
POINT
  5
2DB
330
2D1
100
AcDbEntity
  8
Defpoints
 62
     0
440
 16777216
100
AcDbPoint
 10
353.7474019601228
 20
496.5651816795452
 30
0.0
  0
ENDBLK
  5
2DC
330
2D1
100
AcDbEntity
  8
0
100
AcDbBlockEnd
  0
BLOCK
  5
E9
330
E6
100
AcDbEntity
  8
0
100
AcDbBlockBegin
  2
DIN A3
 70
     2
 10
0.0
 20
0.0
 30
0.0
  3
DIN A3
  1

  0
LINE
  5
EA
330
E6
100
AcDbEntity
  8
01-99
100
AcDbLine
 10
412.9999997697348
 20
290.0000007613509
 30
0.0
 11
6.999999769775513
 21
290.0000007613508
 31
0.0
  0
LINE
  5
EE
330
E6
100
AcDbEntity
  8
01-99
100
AcDbLine
 10
6.999999769775286
 20
7.000000761378942
 30
0.0
 11
6.999999769775513
 21
290.0000007613508
 31
0.0
  0
LINE
  5
EF
330
E6
100
AcDbEntity
  8
02-01
100
AcDbLine
 10
419.9999997697341
 20
297.0000007613501
 30
0.0
 11
-0.0000002302240318
 21
297.0000007613501
 31
0.0
  0
LINE
  5
F3
330
E6
100
AcDbEntity
  8
02-01
100
AcDbLine
 10
-0.0000002302240318
 20
297.0000007613501
 30
0.0
 11
-0.0000002302240318
 21
0.0000007613796242
 31
0.0
  0
LINE
  5
F4
330
E6
100
AcDbEntity
  8
02-01
100
AcDbLine
 10
-0.0000002302240318
 20
0.0000007613796242
 30
0.0
 11
419.9999997697341
 21
0.0000007613796242
 31
0.0
  0
LINE
  5
F5
330
E6
100
AcDbEntity
  8
02-01
100
AcDbLine
 10
419.9999997697341
 20
0.0000007613796242
 30
0.0
 11
419.9999997697341
 21
297.0000007613501
 31
0.0
  0
LINE
  5
F6
330
E6
100
AcDbEntity
  8
01-99
100
AcDbLine
 10
412.9999997697348
 20
290.0000007613509
 30
0.0
 11
412.9999997697348
 21
7.000000761379055
 31
0.0
  0
LINE
  5
F7
330
E6
100
AcDbEntity
  8
01-99
100
AcDbLine
 10
412.9999997697348
 20
7.000000761379055
 30
0.0
 11
6.999999769775286
 21
7.000000761378942
 31
0.0
  0
LINE
  5
F8
330
E6
100
AcDbEntity
  8
01-99
100
AcDbLine
 10
412.9999997697348
 20
53.00000076137905
 30
0.0
 11
228.999999769733
 21
53.00000076137894
 31
0.0
  0
LINE
  5
F9
330
E6
100
AcDbEntity
  8
01-99
100
AcDbLine
 10
228.999999769733
 20
53.00000076137894
 30
0.0
 11
228.999999769733
 21
7.000000761378942
 31
0.0
  0
LINE
  5
FA
330
E6
100
AcDbEntity
  8
01-99
100
AcDbLine
 10
278.9999997697348
 20
12.11111187237895
 30
0.0
 11
228.9999997697348
 21
12.11111187237895
 31
0.0
  0
LINE
  5
FB
330
E6
100
AcDbEntity
  8
01-99
100
AcDbLine
 10
278.9999997697348
 20
17.22222298337897
 30
0.0
 11
228.9999997697348
 21
17.22222298337897
 31
0.0
  0
LINE
  5
FC
330
E6
100
AcDbEntity
  8
01-99
100
AcDbLine
 10
278.9999997697348
 20
22.33333409437898
 30
0.0
 11
228.9999997697348
 21
22.33333409437893
 31
0.0
  0
LINE
  5
FD
330
E6
100
AcDbEntity
  8
01-99
100
AcDbLine
 10
323.9999997697348
 20
27.444445205379
 30
0.0
 11
228.9999997697348
 21
27.44444520537894
 31
0.0
  0
LINE
  5
FE
330
E6
100
AcDbEntity
  8
01-99
100
AcDbLine
 10
323.9999997697348
 20
32.55555631637901
 30
0.0
 11
228.9999997697348
 21
32.55555631637895
 31
0.0
  0
LINE
  5
FF
330
E6
100
AcDbEntity
  8
01-99
100
AcDbLine
 10
253.9999997697348
 20
7.000000761378942
 30
0.0
 11
253.9999997697348
 21
12.11111187237895
 31
0.0
  0
LINE
  5
100
330
E6
100
AcDbEntity
  8
01-99
100
AcDbLine
 10
236.9999997697348
 20
12.11111187237895
 30
0.0
 11
236.9999997697348
 21
37.66666742804563
 31
0.0
  0
LINE
  5
101
330
E6
100
AcDbEntity
  8
01-99
100
AcDbLine
 10
278.9999997697348
 20
7.000000761378942
 30
0.0
 11
278.9999997697348
 21
53.00000076137894
 31
0.0
  0
LINE
  5
102
330
E6
100
AcDbEntity
  8
01-99
100
AcDbLine
 10
323.9999997697348
 20
7.000000761378942
 30
0.0
 11
323.9999997697348
 21
53.00000076137894
 31
0.0
  0
LINE
  5
103
330
E6
100
AcDbEntity
  8
01-99
100
AcDbLine
 10
353.4999997697348
 20
7.000000761378942
 30
0.0
 11
353.4999997697348
 21
17.22222298337903
 31
0.0
  0
LINE
  5
104
330
E6
100
AcDbEntity
  8
01-99
100
AcDbLine
 10
385.9999997697348
 20
7.000000761378942
 30
0.0
 11
385.9999997697348
 21
17.22222298337908
 31
0.0
  0
LINE
  5
105
330
E6
100
AcDbEntity
  8
01-99
100
AcDbLine
 10
357.4999997697348
 20
37.66666742804569
 30
0.0
 11
357.4999997697348
 21
53.00000076137905
 31
0.0
  0
LINE
  5
106
330
E6
100
AcDbEntity
  8
01-99
100
AcDbLine
 10
390.9999997697348
 20
37.66666742804569
 30
0.0
 11
390.9999997697348
 21
53.00000076137905
 31
0.0
  0
LINE
  5
107
330
E6
100
AcDbEntity
  8
01-99
100
AcDbLine
 10
286.9999997697348
 20
22.33333409471232
 30
0.0
 11
286.9999997697348
 21
37.66666742804569
 31
0.0
  0
LINE
  5
108
330
E6
100
AcDbEntity
  8
01-99
100
AcDbLine
 10
269.0031881091643
 20
12.11111187237895
 30
0.0
 11
269.0031881091643
 21
37.66666742804563
 31
0.0
  0
LINE
  5
109
330
E6
100
AcDbEntity
  8
01-99
100
AcDbLine
 10
257.0031881091643
 20
12.11111187237895
 30
0.0
 11
257.0031881091643
 21
37.66666742804563
 31
0.0
  0
LINE
  5
10A
330
E6
100
AcDbEntity
  8
01-99
100
AcDbLine
 10
323.9999997697348
 20
22.33333409471232
 30
0.0
 11
278.9999997697348
 21
22.33333409471232
 31
0.0
  0
LINE
  5
10B
330
E6
100
AcDbEntity
  8
01-99
100
AcDbLine
 10
323.9999997697348
 20
37.66666742804569
 30
0.0
 11
228.9999997697348
 21
37.66666742804557
 31
0.0
  0
LINE
  5
10C
330
E6
100
AcDbEntity
  8
01-99
100
AcDbLine
 10
300.9999997697348
 20
22.33333409471232
 30
0.0
 11
300.9999997697348
 21
53.000000761379
 31
0.0
  0
LINE
  5
10D
330
E6
100
AcDbEntity
  8
01-99
100
AcDbLine
 10
278.9999997697348
 20
37.66666742804563
 30
0.0
 11
286.9999997697348
 21
32.55555632804567
 31
0.0
  0
LINE
  5
10E
330
E6
100
AcDbEntity
  8
01-99
100
AcDbLine
 10
278.9999997697348
 20
32.55555632804567
 30
0.0
 11
286.9999997697348
 21
37.66666742804569
 31
0.0
  0
LINE
  5
10F
330
E6
100
AcDbEntity
  8
01-99
100
AcDbLine
 10
412.9999997697348
 20
45.33333409471231
 30
0.0
 11
323.9999997697349
 21
45.33333409471225
 31
0.0
  0
LINE
  5
110
330
E6
100
AcDbEntity
  8
01-99
100
AcDbLine
 10
323.9999997697348
 20
17.22222298337897
 30
0.0
 11
412.9999997697348
 21
17.22222298337908
 31
0.0
  0
LINE
  5
111
330
E6
100
AcDbEntity
  8
01-99
100
AcDbLine
 10
323.9999997697348
 20
37.66666742804569
 30
0.0
 11
412.9999997697348
 21
37.66666742804574
 31
0.0
  0
LINE
  5
112
330
E6
100
AcDbEntity
  8
01-99
100
AcDbLine
 10
300.9999997697348
 20
42.77777853937897
 30
0.0
 11
278.9999997697348
 21
42.77777853937897
 31
0.0
  0
LINE
  5
113
330
E6
100
AcDbEntity
  8
01-99
100
AcDbLine
 10
300.9999997697348
 20
47.88888965037898
 30
0.0
 11
278.9999997697348
 21
47.88888965037893
 31
0.0
  0
TEXT
  5
114
330
E6
100
AcDbEntity
  8
08-99
100
AcDbText
 10
325.4997009380411
 20
33.6698744692369
 30
0.0
 40
2.5
  1
Benennung/Teil:
 51
15.0
  7
ROMANS8
100
AcDbText
  0
TEXT
  5
119
330
E6
100
AcDbEntity
  8
08-99
100
AcDbText
 10
387.5028272173022
 20
13.01760345560962
 30
0.0
 40
2.7
  1
Ident-Nr.
 51
15.0
  7
ROMANS8
100
AcDbText
  0
TEXT
  5
11A
330
E6
100
AcDbEntity
  8
08-99
100
AcDbText
 10
302.5000215029029
 20
34.05557772316138
 30
0.0
 40
2.5
  1
Name:
 51
15.0
  7
ROMANS8
100
AcDbText
  0
TEXT
  5
11B
330
E6
100
AcDbEntity
  8
08-99
100
AcDbText
 10
288.5077689122797
 20
34.04841872238342
 30
0.0
 40
2.5
  1
Datum:
 50
0.102528160689452
 41
0.8766785518453071
 51
15.0
  7
ROMANS8
 72
     5
 11
299.6749659193617
 21
34.0684019288434
 31
0.0
100
AcDbText
  0
TEXT
  5
11C
330
E6
100
AcDbEntity
  8
08-99
100
AcDbText
 10
238.5000078514702
 20
34.05597786035884
 30
0.0
 40
1.6
  1
Änderung:
 51
15.0
  7
ROMANS8
100
AcDbText
  0
TEXT
  5
11D
330
E6
100
AcDbEntity
  8
08-99
100
AcDbText
 10
255.4999378454877
 20
10.11112006054139
 30
0.0
 40
1.0
  1
ERSETZT.DURCH:
 51
15.0
  7
ROMANS8
100
AcDbText
  0
TEXT
  5
11E
330
E6
100
AcDbEntity
  8
08-99
100
AcDbText
 10
230.4993605854065
 20
10.11085496431519
 30
0.0
 40
1.0
  1
ERSETZT.FÜR:
 51
15.0
  7
ROMANS8
100
AcDbText
  0
TEXT
  5
11F
330
E6
100
AcDbEntity
  8
08-99
100
AcDbText
 10
354.990906611889
 20
13.61295762544273
 30
0.0
 40
2.112
  1
AUFTRAGS.NR.:
 51
15.0
  7
ROMANS8
100
AcDbText
  0
TEXT
  5
120
330
E6
100
AcDbEntity
  8
08-99
100
AcDbText
 10
325.5034639747472
 20
13.61092941740929
 30
0.0
 40
2.112
  1
Sonder-Nr:
 51
15.0
  7
ROMANS8
100
AcDbText
  0
TEXT
  5
121
330
E6
100
AcDbEntity
  8
08-99
100
AcDbText
 10
308.6963072648131
 20
50.92370926842125
 30
0.0
 40
1.349999999999999
  1
Format
 51
15.0
  7
ROMANS8
100
AcDbText
  0
TEXT
  5
122
330
E6
100
AcDbEntity
  8
08-99
100
AcDbText
 10
307.3043795165026
 20
45.64161955447966
 30
0.0
 40
1.822499999999999
  1
Normen
 51
15.0
  7
ROMANS8
100
AcDbText
  0
TEXT
  5
123
330
E6
100
AcDbEntity
  8
08-99
100
AcDbText
 10
230.5000293736364
 20
34.05556859693707
 30
0.0
 40
1.6
  1
Zust.
 51
15.0
  7
ROMANS8
100
AcDbText
  0
TEXT
  5
124
330
E6
100
AcDbEntity
  8
08-99
100
AcDbText
 10
258.503180470904
 20
34.0555600128755
 30
0.0
 40
1.6
  1
Datum:
 51
15.0
  7
ROMANS8
100
AcDbText
  0
TEXT
  5
125
330
E6
100
AcDbEntity
  8
08-99
100
AcDbText
 10
270.5032133866668
 20
34.05556481932439
 30
0.0
 40
1.6
  1
Name:
 51
15.0
  7
ROMANS8
100
AcDbText
  0
TEXT
  5
126
330
E6
100
AcDbEntity
  8
08-99
100
AcDbText
 10
280.154554215326
 20
29.0381403293278
 30
0.0
 40
1.6
  1
Erst.
 51
15.0
  7
ROMANS8
100
AcDbText
  0
TEXT
  5
127
330
E6
100
AcDbEntity
  8
08-99
100
AcDbText
 10
279.5171801320455
 20
24.19745182079998
 30
0.0
 40
1.6
  1
Bearb.
 51
15.0
  7
ROMANS8
100
AcDbText
  0
TEXT
  5
128
330
E6
100
AcDbEntity
  8
08-99
100
AcDbText
 10
358.4308046815029
 20
42.61949825408587
 30
0.0
 40
2.0
  1
Zuschnittsbreite:
 51
15.0
  7
ROMANS8
100
AcDbText
  0
TEXT
  5
129
330
E6
100
AcDbEntity
  8
08-99
100
AcDbText
 10
324.984994543767
 20
42.73762438949257
 30
0.0
 40
2.0
  1
Zuschnittslänge:
 51
15.0
  7
ROMANS8
100
AcDbText
  0
LINE
  5
12A
330
E6
100
AcDbEntity
  8
06-99
100
AcDbLine
 10
302.7675395817348
 20
19.87656561071236
 30
0.0
 11
303.0090469137349
 21
20.08724790671238
 31
0.0
  0
LINE
  5
12F
330
E6
100
AcDbEntity
  8
06-99
100
AcDbLine
 10
303.0090469137349
 20
20.08724790671238
 30
0.0
 11
302.9228515737349
 21
20.22625816271227
 31
0.0
  0
LINE
  5
130
330
E6
100
AcDbEntity
  8
06-99
100
AcDbLine
 10
302.9228515737349
 20
20.22625816271227
 30
0.0
 11
302.8242642057348
 21
20.35180719071241
 31
0.0
  0
LINE
  5
131
330
E6
100
AcDbEntity
  8
06-99
100
AcDbLine
 10
302.8242642057348
 20
20.35180719071241
 30
0.0
 11
302.713626953735
 21
20.4639413227124
 31
0.0
  0
LINE
  5
132
330
E6
100
AcDbEntity
  8
06-99
100
AcDbLine
 10
302.713626953735
 20
20.4639413227124
 30
0.0
 11
302.5912962177348
 21
20.56271401871226
 31
0.0
  0
LINE
  5
133
330
E6
100
AcDbEntity
  8
06-99
100
AcDbLine
 10
302.5912962177348
 20
20.56271401871226
 30
0.0
 11
302.4576141417349
 21
20.64816448271233
 31
0.0
  0
LINE
  5
134
330
E6
100
AcDbEntity
  8
06-99
100
AcDbLine
 10
302.4576141417349
 20
20.64816448271233
 30
0.0
 11
302.3129264337349
 21
20.7203390467123
 31
0.0
  0
LINE
  5
135
330
E6
100
AcDbEntity
  8
06-99
100
AcDbLine
 10
302.3129264337349
 20
20.7203390467123
 30
0.0
 11
302.1575859297349
 21
20.77929117071233
 31
0.0
  0
LINE
  5
136
330
E6
100
AcDbEntity
  8
06-99
100
AcDbLine
 10
302.1575859297349
 20
20.77929117071233
 30
0.0
 11
301.991934773735
 21
20.82506005871232
 31
0.0
  0
LINE
  5
137
330
E6
100
AcDbEntity
  8
06-99
100
AcDbLine
 10
301.991934773735
 20
20.82506005871232
 30
0.0
 11
301.8163222377349
 21
20.85769204271242
 31
0.0
  0
LINE
  5
138
330
E6
100
AcDbEntity
  8
06-99
100
AcDbLine
 10
301.8163222377349
 20
20.85769204271242
 30
0.0
 11
301.631097593735
 21
20.87724058271238
 31
0.0
  0
LINE
  5
139
330
E6
100
AcDbEntity
  8
06-99
100
AcDbLine
 10
301.631097593735
 20
20.87724058271238
 30
0.0
 11
301.436606549735
 21
20.88374488271234
 31
0.0
  0
LINE
  5
13A
330
E6
100
AcDbEntity
  8
06-99
100
AcDbLine
 10
301.436606549735
 20
20.88374488271234
 30
0.0
 11
301.2756812577348
 21
20.87768251871233
 31
0.0
  0
LINE
  5
13B
330
E6
100
AcDbEntity
  8
06-99
100
AcDbLine
 10
301.2756812577348
 20
20.87768251871233
 30
0.0
 11
301.1199415857348
 21
20.85975916271229
 31
0.0
  0
LINE
  5
13C
330
E6
100
AcDbEntity
  8
06-99
100
AcDbLine
 10
301.1199415857348
 20
20.85975916271229
 30
0.0
 11
300.969718985735
 21
20.83036329071246
 31
0.0
  0
LINE
  5
13D
330
E6
100
AcDbEntity
  8
06-99
100
AcDbLine
 10
300.969718985735
 20
20.83036329071246
 30
0.0
 11
300.825348473735
 21
20.78989050671231
 31
0.0
  0
LINE
  5
13E
330
E6
100
AcDbEntity
  8
06-99
100
AcDbLine
 10
300.825348473735
 20
20.78989050671231
 30
0.0
 11
300.6871615017349
 21
20.73873641471243
 31
0.0
  0
LINE
  5
13F
330
E6
100
AcDbEntity
  8
06-99
100
AcDbLine
 10
300.6871615017349
 20
20.73873641471243
 30
0.0
 11
300.5554823937349
 21
20.67729305471232
 31
0.0
  0
LINE
  5
140
330
E6
100
AcDbEntity
  8
06-99
100
AcDbLine
 10
300.5554823937349
 20
20.67729305471232
 30
0.0
 11
300.4306532937349
 21
20.60595246671232
 31
0.0
  0
LINE
  5
141
330
E6
100
AcDbEntity
  8
06-99
100
AcDbLine
 10
300.4306532937349
 20
20.60595246671232
 30
0.0
 11
300.3129985257349
 21
20.52510669071228
 31
0.0
  0
LINE
  5
142
330
E6
100
AcDbEntity
  8
06-99
100
AcDbLine
 10
300.3129985257349
 20
20.52510669071228
 30
0.0
 11
300.2028495417349
 21
20.43514776671236
 31
0.0
  0
LINE
  5
143
330
E6
100
AcDbEntity
  8
06-99
100
AcDbLine
 10
300.2028495417349
 20
20.43514776671236
 30
0.0
 11
300.1005449217349
 21
20.33647486271235
 31
0.0
  0
LINE
  5
144
330
E6
100
AcDbEntity
  8
06-99
100
AcDbLine
 10
300.1005449217349
 20
20.33647486271235
 30
0.0
 11
300.006405425735
 21
20.22947289071237
 31
0.0
  0
LINE
  5
145
330
E6
100
AcDbEntity
  8
06-99
100
AcDbLine
 10
300.006405425735
 20
20.22947289071237
 30
0.0
 11
299.920769633735
 21
20.11454458271237
 31
0.0
  0
LINE
  5
146
330
E6
100
AcDbEntity
  8
06-99
100
AcDbLine
 10
299.920769633735
 20
20.11454458271237
 30
0.0
 11
299.8439689977349
 21
19.99207485071235
 31
0.0
  0
LINE
  5
147
330
E6
100
AcDbEntity
  8
06-99
100
AcDbLine
 10
299.8439689977349
 20
19.99207485071235
 30
0.0
 11
299.7763314057349
 21
19.86245929871239
 31
0.0
  0
LINE
  5
148
330
E6
100
AcDbEntity
  8
06-99
100
AcDbLine
 10
299.7763314057349
 20
19.86245929871239
 30
0.0
 11
299.7181918737349
 21
19.72608996671232
 31
0.0
  0
LINE
  5
149
330
E6
100
AcDbEntity
  8
06-99
100
AcDbLine
 10
299.7181918737349
 20
19.72608996671232
 30
0.0
 11
299.6698782897349
 21
19.58336602271231
 31
0.0
  0
LINE
  5
14A
330
E6
100
AcDbEntity
  8
06-99
100
AcDbLine
 10
299.6698782897349
 20
19.58336602271231
 30
0.0
 11
299.631722105735
 21
19.43467237871232
 31
0.0
  0
LINE
  5
14B
330
E6
100
AcDbEntity
  8
06-99
100
AcDbLine
 10
299.631722105735
 20
19.43467237871232
 30
0.0
 11
299.6040619017348
 21
19.28040820271229
 31
0.0
  0
LINE
  5
14C
330
E6
100
AcDbEntity
  8
06-99
100
AcDbLine
 10
299.6040619017348
 20
19.28040820271229
 30
0.0
 11
299.5872184377349
 21
19.12096197071235
 31
0.0
  0
LINE
  5
14D
330
E6
100
AcDbEntity
  8
06-99
100
AcDbLine
 10
299.5872184377349
 20
19.12096197071235
 30
0.0
 11
299.5815338577349
 21
18.95672928671234
 31
0.0
  0
LINE
  5
14E
330
E6
100
AcDbEntity
  8
06-99
100
AcDbLine
 10
299.5815338577349
 20
18.95672928671234
 30
0.0
 11
299.5871471577349
 21
18.7876246147124
 31
0.0
  0
LINE
  5
14F
330
E6
100
AcDbEntity
  8
06-99
100
AcDbLine
 10
299.5871471577349
 20
18.7876246147124
 30
0.0
 11
299.603798165735
 21
18.62429005871234
 31
0.0
  0
LINE
  5
150
330
E6
100
AcDbEntity
  8
06-99
100
AcDbLine
 10
299.603798165735
 20
18.62429005871234
 30
0.0
 11
299.6311875057347
 21
18.46704281471233
 31
0.0
  0
LINE
  5
151
330
E6
100
AcDbEntity
  8
06-99
100
AcDbLine
 10
299.6311875057347
 20
18.46704281471233
 30
0.0
 11
299.6690158017348
 21
18.31619651471226
 31
0.0
  0
LINE
  5
152
330
E6
100
AcDbEntity
  8
06-99
100
AcDbLine
 10
299.6690158017348
 20
18.31619651471226
 30
0.0
 11
299.7169872417348
 21
18.17206479071234
 31
0.0
  0
LINE
  5
153
330
E6
100
AcDbEntity
  8
06-99
100
AcDbLine
 10
299.7169872417348
 20
18.17206479071234
 30
0.0
 11
299.774806013735
 21
18.03496127471237
 31
0.0
  0
LINE
  5
154
330
E6
100
AcDbEntity
  8
06-99
100
AcDbLine
 10
299.774806013735
 20
18.03496127471237
 30
0.0
 11
299.8421763057349
 21
17.90519603471233
 31
0.0
  0
LINE
  5
155
330
E6
100
AcDbEntity
  8
06-99
100
AcDbLine
 10
299.8421763057349
 20
17.90519603471233
 30
0.0
 11
299.9187987417349
 21
17.7830862667123
 31
0.0
  0
LINE
  5
156
330
E6
100
AcDbEntity
  8
06-99
100
AcDbLine
 10
299.9187987417349
 20
17.7830862667123
 30
0.0
 11
300.0043775097349
 21
17.66894203871231
 31
0.0
  0
LINE
  5
157
330
E6
100
AcDbEntity
  8
06-99
100
AcDbLine
 10
300.0043775097349
 20
17.66894203871231
 30
0.0
 11
300.0986203617349
 21
17.56308054671234
 31
0.0
  0
LINE
  5
158
330
E6
100
AcDbEntity
  8
06-99
100
AcDbLine
 10
300.0986203617349
 20
17.56308054671234
 30
0.0
 11
300.2012207937348
 21
17.46581185871235
 31
0.0
  0
LINE
  5
159
330
E6
100
AcDbEntity
  8
06-99
100
AcDbLine
 10
300.2012207937348
 20
17.46581185871235
 30
0.0
 11
300.3118936857348
 21
17.37745317071227
 31
0.0
  0
LINE
  5
15A
330
E6
100
AcDbEntity
  8
06-99
100
AcDbLine
 10
300.3118936857348
 20
17.37745317071227
 30
0.0
 11
300.430332533735
 21
17.2983145507124
 31
0.0
  0
LINE
  5
15B
330
E6
100
AcDbEntity
  8
06-99
100
AcDbLine
 10
300.430332533735
 20
17.2983145507124
 30
0.0
 11
300.5562450897348
 21
17.22870963071239
 31
0.0
  0
LINE
  5
15C
330
E6
100
AcDbEntity
  8
06-99
100
AcDbLine
 10
300.5562450897348
 20
17.22870963071239
 30
0.0
 11
300.6893319777348
 21
17.1689556067123
 31
0.0
  0
LINE
  5
15D
330
E6
100
AcDbEntity
  8
06-99
100
AcDbLine
 10
300.6893319777348
 20
17.1689556067123
 30
0.0
 11
300.8293009497348
 21
17.11936254671235
 31
0.0
  0
LINE
  5
15E
330
E6
100
AcDbEntity
  8
06-99
100
AcDbLine
 10
300.8293009497348
 20
17.11936254671235
 30
0.0
 11
300.975849065735
 21
17.0802440827124
 31
0.0
  0
LINE
  5
15F
330
E6
100
AcDbEntity
  8
06-99
100
AcDbLine
 10
300.975849065735
 20
17.0802440827124
 30
0.0
 11
301.1286876417348
 21
17.05191384671241
 31
0.0
  0
LINE
  5
160
330
E6
100
AcDbEntity
  8
06-99
100
AcDbLine
 10
301.1286876417348
 20
17.05191384671241
 30
0.0
 11
301.2875101737348
 21
17.03468547071236
 31
0.0
  0
LINE
  5
161
330
E6
100
AcDbEntity
  8
06-99
100
AcDbLine
 10
301.2875101737348
 20
17.03468547071236
 30
0.0
 11
301.4520279777349
 21
17.02887258671239
 31
0.0
  0
LINE
  5
162
330
E6
100
AcDbEntity
  8
06-99
100
AcDbLine
 10
301.4520279777349
 20
17.02887258671239
 30
0.0
 11
301.616025437735
 21
17.03412592271235
 31
0.0
  0
LINE
  5
163
330
E6
100
AcDbEntity
  8
06-99
100
AcDbLine
 10
301.616025437735
 20
17.03412592271235
 30
0.0
 11
301.7733582177349
 21
17.04976475471238
 31
0.0
  0
LINE
  5
164
330
E6
100
AcDbEntity
  8
06-99
100
AcDbLine
 10
301.7733582177349
 20
17.04976475471238
 30
0.0
 11
301.9238374257349
 21
17.07559662671235
 31
0.0
  0
LINE
  5
165
330
E6
100
AcDbEntity
  8
06-99
100
AcDbLine
 10
301.9238374257349
 20
17.07559662671235
 30
0.0
 11
302.0672741697348
 21
17.11142908271239
 31
0.0
  0
LINE
  5
166
330
E6
100
AcDbEntity
  8
06-99
100
AcDbLine
 10
302.0672741697348
 20
17.11142908271239
 30
0.0
 11
302.203483121735
 21
17.15707323071234
 31
0.0
  0
LINE
  5
167
330
E6
100
AcDbEntity
  8
06-99
100
AcDbLine
 10
302.203483121735
 20
17.15707323071234
 30
0.0
 11
302.3322718257348
 21
17.21234017871234
 31
0.0
  0
LINE
  5
168
330
E6
100
AcDbEntity
  8
06-99
100
AcDbLine
 10
302.3322718257348
 20
17.21234017871234
 30
0.0
 11
302.4534549537349
 21
17.27703747071234
 31
0.0
  0
LINE
  5
169
330
E6
100
AcDbEntity
  8
06-99
100
AcDbLine
 10
302.4534549537349
 20
17.27703747071234
 30
0.0
 11
302.5668364857349
 21
17.35097977871237
 31
0.0
  0
LINE
  5
16A
330
E6
100
AcDbEntity
  8
06-99
100
AcDbLine
 10
302.5668364857349
 20
17.35097977871237
 30
0.0
 11
302.6722382217349
 21
17.43397464671233
 31
0.0
  0
LINE
  5
16B
330
E6
100
AcDbEntity
  8
06-99
100
AcDbLine
 10
302.6722382217349
 20
17.43397464671233
 30
0.0
 11
302.7694605777349
 21
17.52582605471235
 31
0.0
  0
LINE
  5
16C
330
E6
100
AcDbEntity
  8
06-99
100
AcDbLine
 10
302.7694605777349
 20
17.52582605471235
 30
0.0
 11
302.8583217897349
 21
17.62635580271234
 31
0.0
  0
LINE
  5
16D
330
E6
100
AcDbEntity
  8
06-99
100
AcDbLine
 10
302.8583217897349
 20
17.62635580271234
 30
0.0
 11
302.938632965735
 21
17.73536074271232
 31
0.0
  0
LINE
  5
16E
330
E6
100
AcDbEntity
  8
06-99
100
AcDbLine
 10
302.938632965735
 20
17.73536074271232
 30
0.0
 11
303.0102016497349
 21
17.85266267471235
 31
0.0
  0
LINE
  5
16F
330
E6
100
AcDbEntity
  8
06-99
100
AcDbLine
 10
303.0102016497349
 20
17.85266267471235
 30
0.0
 11
303.0728389497349
 21
17.97806201471235
 31
0.0
  0
LINE
  5
170
330
E6
100
AcDbEntity
  8
06-99
100
AcDbLine
 10
303.0728389497349
 20
17.97806201471235
 30
0.0
 11
303.126359537735
 21
18.11137343471228
 31
0.0
  0
LINE
  5
171
330
E6
100
AcDbEntity
  8
06-99
100
AcDbLine
 10
303.126359537735
 20
18.11137343471228
 30
0.0
 11
303.1705745217348
 21
18.25240447871232
 31
0.0
  0
LINE
  5
172
330
E6
100
AcDbEntity
  8
06-99
100
AcDbLine
 10
303.1705745217348
 20
18.25240447871232
 30
0.0
 11
303.2052878817349
 21
18.40096625471233
 31
0.0
  0
LINE
  5
173
330
E6
100
AcDbEntity
  8
06-99
100
AcDbLine
 10
303.2052878817349
 20
18.40096625471233
 30
0.0
 11
303.2303214177349
 21
18.55686987071237
 31
0.0
  0
LINE
  5
174
330
E6
100
AcDbEntity
  8
06-99
100
AcDbLine
 10
303.2303214177349
 20
18.55686987071237
 30
0.0
 11
303.245479109735
 21
18.7199264347123
 31
0.0
  0
LINE
  5
175
330
E6
100
AcDbEntity
  8
06-99
100
AcDbLine
 10
303.245479109735
 20
18.7199264347123
 30
0.0
 11
303.2505720657348
 21
18.88993992671231
 31
0.0
  0
LINE
  5
176
330
E6
100
AcDbEntity
  8
06-99
100
AcDbLine
 10
303.2505720657348
 20
18.88993992671231
 30
0.0
 11
303.2505720657348
 21
18.88993992671231
 31
0.0
  0
LINE
  5
177
330
E6
100
AcDbEntity
  8
06-99
100
AcDbLine
 10
303.2505720657348
 20
18.88993992671231
 30
0.0
 11
303.2505720657348
 21
18.94132211471236
 31
0.0
  0
LINE
  5
178
330
E6
100
AcDbEntity
  8
06-99
100
AcDbLine
 10
303.2505720657348
 20
18.94132211471236
 30
0.0
 11
301.6164638097349
 21
18.94132211471236
 31
0.0
  0
LINE
  5
179
330
E6
100
AcDbEntity
  8
06-99
100
AcDbLine
 10
301.6164638097349
 20
18.94132211471236
 30
0.0
 11
301.6164638097349
 21
18.65355049871232
 31
0.0
  0
LINE
  5
17A
330
E6
100
AcDbEntity
  8
06-99
100
AcDbLine
 10
301.6164638097349
 20
18.65355049871232
 30
0.0
 11
302.8857253857347
 21
18.65355049871232
 31
0.0
  0
LINE
  5
17B
330
E6
100
AcDbEntity
  8
06-99
100
AcDbLine
 10
302.8857253857347
 20
18.65355049871232
 30
0.0
 11
302.8749870537348
 21
18.49100715071233
 31
0.0
  0
LINE
  5
17C
330
E6
100
AcDbEntity
  8
06-99
100
AcDbLine
 10
302.8749870537348
 20
18.49100715071233
 30
0.0
 11
302.8476547377348
 21
18.33636162671234
 31
0.0
  0
LINE
  5
17D
330
E6
100
AcDbEntity
  8
06-99
100
AcDbLine
 10
302.8476547377348
 20
18.33636162671234
 30
0.0
 11
302.804434109735
 21
18.19027683071238
 31
0.0
  0
LINE
  5
17E
330
E6
100
AcDbEntity
  8
06-99
100
AcDbLine
 10
302.804434109735
 20
18.19027683071238
 30
0.0
 11
302.7460308417349
 21
18.05341923071233
 31
0.0
  0
LINE
  5
17F
330
E6
100
AcDbEntity
  8
06-99
100
AcDbLine
 10
302.7460308417349
 20
18.05341923071233
 30
0.0
 11
302.673157733735
 21
17.92644460271236
 31
0.0
  0
LINE
  5
180
330
E6
100
AcDbEntity
  8
06-99
100
AcDbLine
 10
302.673157733735
 20
17.92644460271236
 30
0.0
 11
302.586524021735
 21
17.81002654271236
 31
0.0
  0
LINE
  5
181
330
E6
100
AcDbEntity
  8
06-99
100
AcDbLine
 10
302.586524021735
 20
17.81002654271236
 30
0.0
 11
302.4868282497349
 21
17.70481726271237
 31
0.0
  0
LINE
  5
182
330
E6
100
AcDbEntity
  8
06-99
100
AcDbLine
 10
302.4868282497349
 20
17.70481726271237
 30
0.0
 11
302.3747867817349
 21
17.61149035871233
 31
0.0
  0
LINE
  5
183
330
E6
100
AcDbEntity
  8
06-99
100
AcDbLine
 10
302.3747867817349
 20
17.61149035871233
 30
0.0
 11
302.2511052897348
 21
17.53069804271234
 31
0.0
  0
LINE
  5
184
330
E6
100
AcDbEntity
  8
06-99
100
AcDbLine
 10
302.2511052897348
 20
17.53069804271234
 30
0.0
 11
302.116489445735
 21
17.46311034671237
 31
0.0
  0
LINE
  5
185
330
E6
100
AcDbEntity
  8
06-99
100
AcDbLine
 10
302.116489445735
 20
17.46311034671237
 30
0.0
 11
301.9716484857348
 21
17.40938661071232
 31
0.0
  0
LINE
  5
186
330
E6
100
AcDbEntity
  8
06-99
100
AcDbLine
 10
301.9716484857348
 20
17.40938661071232
 30
0.0
 11
301.8172916457349
 21
17.37019330271244
 31
0.0
  0
LINE
  5
187
330
E6
100
AcDbEntity
  8
06-99
100
AcDbLine
 10
301.8172916457349
 20
17.37019330271244
 30
0.0
 11
301.654124597735
 21
17.3461897627123
 31
0.0
  0
LINE
  5
188
330
E6
100
AcDbEntity
  8
06-99
100
AcDbLine
 10
301.654124597735
 20
17.3461897627123
 30
0.0
 11
301.482856577735
 21
17.33804245871238
 31
0.0
  0
LINE
  5
189
330
E6
100
AcDbEntity
  8
06-99
100
AcDbLine
 10
301.482856577735
 20
17.33804245871238
 30
0.0
 11
301.318196213735
 21
17.34599374271232
 31
0.0
  0
LINE
  5
18A
330
E6
100
AcDbEntity
  8
06-99
100
AcDbLine
 10
301.318196213735
 20
17.34599374271232
 30
0.0
 11
301.1599011537348
 21
17.36937714671228
 31
0.0
  0
LINE
  5
18B
330
E6
100
AcDbEntity
  8
06-99
100
AcDbLine
 10
301.1599011537348
 20
17.36937714671228
 30
0.0
 11
301.0085630217349
 21
17.40748343471233
 31
0.0
  0
LINE
  5
18C
330
E6
100
AcDbEntity
  8
06-99
100
AcDbLine
 10
301.0085630217349
 20
17.40748343471233
 30
0.0
 11
300.8647698777347
 21
17.45960693471232
 31
0.0
  0
LINE
  5
18D
330
E6
100
AcDbEntity
  8
06-99
100
AcDbLine
 10
300.8647698777347
 20
17.45960693471232
 30
0.0
 11
300.7291026537349
 21
17.52503841071234
 31
0.0
  0
LINE
  5
18E
330
E6
100
AcDbEntity
  8
06-99
100
AcDbLine
 10
300.7291026537349
 20
17.52503841071234
 30
0.0
 11
300.6021529737349
 21
17.6030686267124
 31
0.0
  0
LINE
  5
18F
330
E6
100
AcDbEntity
  8
06-99
100
AcDbLine
 10
300.6021529737349
 20
17.6030686267124
 30
0.0
 11
300.4845053337349
 21
17.69299547471234
 31
0.0
  0
LINE
  5
190
330
E6
100
AcDbEntity
  8
06-99
100
AcDbLine
 10
300.4845053337349
 20
17.69299547471234
 30
0.0
 11
300.3767513577348
 21
17.79410615471244
 31
0.0
  0
LINE
  5
191
330
E6
100
AcDbEntity
  8
06-99
100
AcDbLine
 10
300.3767513577348
 20
17.79410615471244
 30
0.0
 11
300.279475541735
 21
17.90569499471235
 31
0.0
  0
LINE
  5
192
330
E6
100
AcDbEntity
  8
06-99
100
AcDbLine
 10
300.279475541735
 20
17.90569499471235
 30
0.0
 11
300.1932623817348
 21
18.02705632271232
 31
0.0
  0
LINE
  5
193
330
E6
100
AcDbEntity
  8
06-99
100
AcDbLine
 10
300.1932623817348
 20
18.02705632271232
 30
0.0
 11
300.1187035017349
 21
18.15747733871234
 31
0.0
  0
LINE
  5
194
330
E6
100
AcDbEntity
  8
06-99
100
AcDbLine
 10
300.1187035017349
 20
18.15747733871234
 30
0.0
 11
300.0563833977349
 21
18.29625593471235
 31
0.0
  0
LINE
  5
195
330
E6
100
AcDbEntity
  8
06-99
100
AcDbLine
 10
300.0563833977349
 20
18.29625593471235
 30
0.0
 11
300.0068901297349
 21
18.44268287471232
 31
0.0
  0
LINE
  5
196
330
E6
100
AcDbEntity
  8
06-99
100
AcDbLine
 10
300.0068901297349
 20
18.44268287471232
 30
0.0
 11
299.9708117577347
 21
18.59604535871239
 31
0.0
  0
LINE
  5
197
330
E6
100
AcDbEntity
  8
06-99
100
AcDbLine
 10
299.9708117577347
 20
18.59604535871239
 30
0.0
 11
299.9487327777348
 21
18.75564484271246
 31
0.0
  0
LINE
  5
198
330
E6
100
AcDbEntity
  8
06-99
100
AcDbLine
 10
299.9487327777348
 20
18.75564484271246
 30
0.0
 11
299.9412448137349
 21
18.92076852671226
 31
0.0
  0
LINE
  5
199
330
E6
100
AcDbEntity
  8
06-99
100
AcDbLine
 10
299.9412448137349
 20
18.92076852671226
 30
0.0
 11
299.947631501735
 21
19.08914257871237
 31
0.0
  0
LINE
  5
19A
330
E6
100
AcDbEntity
  8
06-99
100
AcDbLine
 10
299.947631501735
 20
19.08914257871237
 30
0.0
 11
299.9665349577349
 21
19.25115489071231
 31
0.0
  0
LINE
  5
19B
330
E6
100
AcDbEntity
  8
06-99
100
AcDbLine
 10
299.9665349577349
 20
19.25115489071231
 30
0.0
 11
299.997556013735
 21
19.40630650271231
 31
0.0
  0
LINE
  5
19C
330
E6
100
AcDbEntity
  8
06-99
100
AcDbLine
 10
299.997556013735
 20
19.40630650271231
 30
0.0
 11
300.0402990657349
 21
19.55410201871234
 31
0.0
  0
LINE
  5
19D
330
E6
100
AcDbEntity
  8
06-99
100
AcDbLine
 10
300.0402990657349
 20
19.55410201871234
 30
0.0
 11
300.0943720737348
 21
19.69404604271233
 31
0.0
  0
LINE
  5
19E
330
E6
100
AcDbEntity
  8
06-99
100
AcDbLine
 10
300.0943720737348
 20
19.69404604271233
 30
0.0
 11
300.1593758697349
 21
19.82564674271236
 31
0.0
  0
LINE
  5
19F
330
E6
100
AcDbEntity
  8
06-99
100
AcDbLine
 10
300.1593758697349
 20
19.82564674271236
 30
0.0
 11
300.2349148497349
 21
19.94840159471238
 31
0.0
  0
LINE
  5
1A0
330
E6
100
AcDbEntity
  8
06-99
100
AcDbLine
 10
300.2349148497349
 20
19.94840159471238
 30
0.0
 11
300.3205969737349
 21
20.06182233071235
 31
0.0
  0
LINE
  5
1A1
330
E6
100
AcDbEntity
  8
06-99
100
AcDbLine
 10
300.3205969737349
 20
20.06182233071235
 30
0.0
 11
300.4160230737348
 21
20.16540642671242
 31
0.0
  0
LINE
  5
1A2
330
E6
100
AcDbEntity
  8
06-99
100
AcDbLine
 10
300.4160230737348
 20
20.16540642671242
 30
0.0
 11
300.5208046737348
 21
20.2586620507123
 31
0.0
  0
LINE
  5
1A3
330
E6
100
AcDbEntity
  8
06-99
100
AcDbLine
 10
300.5208046737348
 20
20.2586620507123
 30
0.0
 11
300.634535477735
 21
20.34109024271237
 31
0.0
  0
LINE
  5
1A4
330
E6
100
AcDbEntity
  8
06-99
100
AcDbLine
 10
300.634535477735
 20
20.34109024271237
 30
0.0
 11
300.756830573735
 21
20.41219917071237
 31
0.0
  0
LINE
  5
1A5
330
E6
100
AcDbEntity
  8
06-99
100
AcDbLine
 10
300.756830573735
 20
20.41219917071237
 30
0.0
 11
300.8872872297347
 21
20.47148987471235
 31
0.0
  0
LINE
  5
1A6
330
E6
100
AcDbEntity
  8
06-99
100
AcDbLine
 10
300.8872872297347
 20
20.47148987471235
 30
0.0
 11
301.025513405735
 21
20.51846695871234
 31
0.0
  0
LINE
  5
1A7
330
E6
100
AcDbEntity
  8
06-99
100
AcDbLine
 10
301.025513405735
 20
20.51846695871234
 30
0.0
 11
301.171117061735
 21
20.55263502671232
 31
0.0
  0
LINE
  5
1A8
330
E6
100
AcDbEntity
  8
06-99
100
AcDbLine
 10
301.171117061735
 20
20.55263502671232
 30
0.0
 11
301.323695465735
 21
20.57350224671234
 31
0.0
  0
LINE
  5
1A9
330
E6
100
AcDbEntity
  8
06-99
100
AcDbLine
 10
301.323695465735
 20
20.57350224671234
 30
0.0
 11
301.482856577735
 21
20.58056609471237
 31
0.0
  0
LINE
  5
1AA
330
E6
100
AcDbEntity
  8
06-99
100
AcDbLine
 10
301.482856577735
 20
20.58056609471237
 30
0.0
 11
301.6605611817349
 21
20.57164896671236
 31
0.0
  0
LINE
  5
1AB
330
E6
100
AcDbEntity
  8
06-99
100
AcDbLine
 10
301.6605611817349
 20
20.57164896671236
 30
0.0
 11
301.830314501735
 21
20.54501163071234
 31
0.0
  0
LINE
  5
1AC
330
E6
100
AcDbEntity
  8
06-99
100
AcDbLine
 10
301.830314501735
 20
20.54501163071234
 30
0.0
 11
301.9917779577349
 21
20.50082159471236
 31
0.0
  0
LINE
  5
1AD
330
E6
100
AcDbEntity
  8
06-99
100
AcDbLine
 10
301.9917779577349
 20
20.50082159471236
 30
0.0
 11
302.1446129697349
 21
20.43924636671233
 31
0.0
  0
LINE
  5
1AE
330
E6
100
AcDbEntity
  8
06-99
100
AcDbLine
 10
302.1446129697349
 20
20.43924636671233
 30
0.0
 11
302.2884809577349
 21
20.36046058271233
 31
0.0
  0
LINE
  5
1AF
330
E6
100
AcDbEntity
  8
06-99
100
AcDbLine
 10
302.2884809577349
 20
20.36046058271233
 30
0.0
 11
302.423046905735
 21
20.2646281867124
 31
0.0
  0
LINE
  5
1B0
330
E6
100
AcDbEntity
  8
06-99
100
AcDbLine
 10
302.423046905735
 20
20.2646281867124
 30
0.0
 11
302.5479722337349
 21
20.15192381471235
 31
0.0
  0
LINE
  5
1B1
330
E6
100
AcDbEntity
  8
06-99
100
AcDbLine
 10
302.5479722337349
 20
20.15192381471235
 30
0.0
 11
302.662914797735
 21
20.02251141071241
 31
0.0
  0
LINE
  5
1B2
330
E6
100
AcDbEntity
  8
06-99
100
AcDbLine
 10
302.662914797735
 20
20.02251141071241
 30
0.0
 11
302.7675395817348
 21
19.87656561071236
 31
0.0
  0
LINE
  5
1B3
330
E6
100
AcDbEntity
  8
06-99
100
AcDbLine
 10
299.4389952417348
 20
13.25281458671242
 30
0.0
 11
301.3222627377349
 21
13.25281458671242
 31
0.0
  0
LINE
  5
1B4
330
E6
100
AcDbEntity
  8
06-99
100
AcDbLine
 10
301.3222627377349
 20
13.25281458671242
 30
0.0
 11
301.4675990937349
 21
14.00768047871236
 31
0.0
  0
LINE
  5
1B5
330
E6
100
AcDbEntity
  8
06-99
100
AcDbLine
 10
301.4675990937349
 20
14.00768047871236
 30
0.0
 11
300.5648699697349
 21
14.00768047871236
 31
0.0
  0
LINE
  5
1B6
330
E6
100
AcDbEntity
  8
06-99
100
AcDbLine
 10
300.5648699697349
 20
14.00768047871236
 30
0.0
 11
300.6210528657348
 21
14.29950792671229
 31
0.0
  0
LINE
  5
1B7
330
E6
100
AcDbEntity
  8
06-99
100
AcDbLine
 10
300.6210528657348
 20
14.29950792671229
 30
0.0
 11
301.4187152697349
 21
14.29950792671229
 31
0.0
  0
LINE
  5
1B8
330
E6
100
AcDbEntity
  8
06-99
100
AcDbLine
 10
301.4187152697349
 20
14.29950792671229
 30
0.0
 11
301.5558009657348
 21
15.01156305071231
 31
0.0
  0
LINE
  5
1B9
330
E6
100
AcDbEntity
  8
06-99
100
AcDbLine
 10
301.5558009657348
 20
15.01156305071231
 30
0.0
 11
300.7581385617348
 21
15.01156305071231
 31
0.0
  0
LINE
  5
1BA
330
E6
100
AcDbEntity
  8
06-99
100
AcDbLine
 10
300.7581385617348
 20
15.01156305071231
 30
0.0
 11
300.8098450737348
 21
15.28005699071229
 31
0.0
  0
LINE
  5
1BB
330
E6
100
AcDbEntity
  8
06-99
100
AcDbLine
 10
300.8098450737348
 20
15.28005699071229
 30
0.0
 11
301.6892264337348
 21
15.28005699071229
 31
0.0
  0
LINE
  5
1BC
330
E6
100
AcDbEntity
  8
06-99
100
AcDbLine
 10
301.6892264337348
 20
15.28005699071229
 30
0.0
 11
301.8345520977349
 21
16.03490862671236
 31
0.0
  0
LINE
  5
1BD
330
E6
100
AcDbEntity
  8
06-99
100
AcDbLine
 10
301.8345520977349
 20
16.03490862671236
 30
0.0
 11
299.9746323657349
 21
16.03490862671236
 31
0.0
  0
LINE
  5
1BE
330
E6
100
AcDbEntity
  8
06-99
100
AcDbLine
 10
299.9746323657349
 20
16.03490862671236
 30
0.0
 11
299.4389952417348
 21
13.25281458671242
 31
0.0
  0
LINE
  5
1BF
330
E6
100
AcDbEntity
  8
06-99
100
AcDbLine
 10
285.6086116857349
 20
13.88042785871232
 30
0.0
 11
298.0658608857348
 21
13.88042785871232
 31
0.0
  0
LINE
  5
1C0
330
E6
100
AcDbEntity
  8
06-99
100
AcDbLine
 10
298.0658608857348
 20
13.88042785871232
 30
0.0
 11
297.9422827497349
 21
13.25209822271233
 31
0.0
  0
LINE
  5
1C1
330
E6
100
AcDbEntity
  8
06-99
100
AcDbLine
 10
297.9422827497349
 20
13.25209822271233
 30
0.0
 11
285.4850371137349
 21
13.25209822271233
 31
0.0
  0
LINE
  5
1C2
330
E6
100
AcDbEntity
  8
06-99
100
AcDbLine
 10
285.4850371137349
 20
13.25209822271233
 30
0.0
 11
285.6086116857349
 21
13.88042785871232
 31
0.0
  0
LINE
  5
1C3
330
E6
100
AcDbEntity
  8
06-99
100
AcDbLine
 10
291.3458426577349
 20
17.02887258671239
 30
0.0
 11
292.3221826377348
 21
20.10266933471235
 31
0.0
  0
LINE
  5
1C4
330
E6
100
AcDbEntity
  8
06-99
100
AcDbLine
 10
292.3221826377348
 20
20.10266933471235
 30
0.0
 11
293.3396476137348
 21
17.02887258671239
 31
0.0
  0
LINE
  5
1C5
330
E6
100
AcDbEntity
  8
06-99
100
AcDbLine
 10
293.3396476137348
 20
17.02887258671239
 30
0.0
 11
294.5677984497349
 21
20.80153409471234
 31
0.0
  0
LINE
  5
1C6
330
E6
100
AcDbEntity
  8
06-99
100
AcDbLine
 10
294.5677984497349
 20
20.80153409471234
 30
0.0
 11
294.2235089217348
 21
20.80153409471234
 31
0.0
  0
LINE
  5
1C7
330
E6
100
AcDbEntity
  8
06-99
100
AcDbLine
 10
294.2235089217348
 20
20.80153409471234
 30
0.0
 11
293.3396476137348
 21
17.89303210271231
 31
0.0
  0
LINE
  5
1C8
330
E6
100
AcDbEntity
  8
06-99
100
AcDbLine
 10
293.3396476137348
 20
17.89303210271231
 30
0.0
 11
292.3221826377348
 21
20.94541277471228
 31
0.0
  0
LINE
  5
1C9
330
E6
100
AcDbEntity
  8
06-99
100
AcDbLine
 10
292.3221826377348
 20
20.94541277471228
 30
0.0
 11
291.3458426577349
 21
17.86733922671237
 31
0.0
  0
LINE
  5
1CA
330
E6
100
AcDbEntity
  8
06-99
100
AcDbLine
 10
291.3458426577349
 20
17.86733922671237
 30
0.0
 11
290.426009897735
 21
20.80153409471234
 31
0.0
  0
LINE
  5
1CB
330
E6
100
AcDbEntity
  8
06-99
100
AcDbLine
 10
290.426009897735
 20
20.80153409471234
 30
0.0
 11
290.0765810817349
 21
20.80153409471234
 31
0.0
  0
LINE
  5
1CC
330
E6
100
AcDbEntity
  8
06-99
100
AcDbLine
 10
290.0765810817349
 20
20.80153409471234
 30
0.0
 11
291.3458426577349
 21
17.02887258671239
 31
0.0
  0
LINE
  5
1CD
330
E6
100
AcDbEntity
  8
06-99
100
AcDbLine
 10
296.324415641735
 20
18.65868622271239
 30
0.0
 11
296.9770339377348
 21
20.2568337187123
 31
0.0
  0
LINE
  5
1CE
330
E6
100
AcDbEntity
  8
06-99
100
AcDbLine
 10
296.9770339377348
 20
20.2568337187123
 30
0.0
 11
297.6039629217348
 21
18.65868622271239
 31
0.0
  0
LINE
  5
1CF
330
E6
100
AcDbEntity
  8
06-99
100
AcDbLine
 10
297.6039629217348
 20
18.65868622271239
 30
0.0
 11
296.324415641735
 21
18.65868622271239
 31
0.0
  0
LINE
  5
1D0
330
E6
100
AcDbEntity
  8
06-99
100
AcDbLine
 10
295.3831810617349
 20
17.12736016271231
 30
0.0
 11
295.7231937897349
 21
17.12736016271231
 31
0.0
  0
LINE
  5
1D1
330
E6
100
AcDbEntity
  8
06-99
100
AcDbLine
 10
295.7231937897349
 20
17.12736016271231
 30
0.0
 11
296.2113619977348
 21
18.37092886271233
 31
0.0
  0
LINE
  5
1D2
330
E6
100
AcDbEntity
  8
06-99
100
AcDbLine
 10
296.2113619977348
 20
18.37092886271233
 30
0.0
 11
297.711863021735
 21
18.37092886271233
 31
0.0
  0
LINE
  5
1D3
330
E6
100
AcDbEntity
  8
06-99
100
AcDbLine
 10
297.711863021735
 20
18.37092886271233
 30
0.0
 11
298.1794918977348
 21
17.12736016271231
 31
0.0
  0
LINE
  5
1D4
330
E6
100
AcDbEntity
  8
06-99
100
AcDbLine
 10
298.1794918977348
 20
17.12736016271231
 30
0.0
 11
298.5443385777348
 21
17.12736016271231
 31
0.0
  0
LINE
  5
1D5
330
E6
100
AcDbEntity
  8
06-99
100
AcDbLine
 10
298.5443385777348
 20
17.12736016271231
 30
0.0
 11
296.9975910897349
 21
20.94541277471228
 31
0.0
  0
LINE
  5
1D6
330
E6
100
AcDbEntity
  8
06-99
100
AcDbLine
 10
296.9975910897349
 20
20.94541277471228
 30
0.0
 11
295.3831810617349
 21
17.12736016271231
 31
0.0
  0
LINE
  5
1D7
330
E6
100
AcDbEntity
  8
06-99
100
AcDbLine
 10
307.9298046897347
 20
13.25281458671242
 30
0.0
 11
309.0043792017348
 21
13.25281458671242
 31
0.0
  0
LINE
  5
1D8
330
E6
100
AcDbEntity
  8
06-99
100
AcDbLine
 10
309.0043792017348
 20
13.25281458671242
 30
0.0
 11
309.1574066697349
 21
13.60301322671233
 31
0.0
  0
LINE
  5
1D9
330
E6
100
AcDbEntity
  8
06-99
100
AcDbLine
 10
309.1574066697349
 20
13.60301322671233
 30
0.0
 11
309.9122725617349
 21
13.60301322671233
 31
0.0
  0
LINE
  5
1DA
330
E6
100
AcDbEntity
  8
06-99
100
AcDbLine
 10
309.9122725617349
 20
13.60301322671233
 30
0.0
 11
309.9343444137348
 21
13.25281458671242
 31
0.0
  0
LINE
  5
1DB
330
E6
100
AcDbEntity
  8
06-99
100
AcDbLine
 10
309.9343444137348
 20
13.25281458671242
 30
0.0
 11
311.0082738417347
 21
13.25281458671242
 31
0.0
  0
LINE
  5
1DC
330
E6
100
AcDbEntity
  8
06-99
100
AcDbLine
 10
311.0082738417347
 20
13.25281458671242
 30
0.0
 11
310.5711492417348
 21
16.03490862671236
 31
0.0
  0
LINE
  5
1DD
330
E6
100
AcDbEntity
  8
06-99
100
AcDbLine
 10
310.5711492417348
 20
16.03490862671236
 30
0.0
 11
309.4583116257348
 21
16.03490862671236
 31
0.0
  0
LINE
  5
1DE
330
E6
100
AcDbEntity
  8
06-99
100
AcDbLine
 10
309.4583116257348
 20
16.03490862671236
 30
0.0
 11
307.9298046897347
 21
13.25281458671242
 31
0.0
  0
LINE
  5
1DF
330
E6
100
AcDbEntity
  8
06-99
100
AcDbLine
 10
305.0434565217349
 20
14.66137866671232
 30
0.0
 11
305.0784799497348
 21
14.66137866671232
 31
0.0
  0
LINE
  5
1E0
330
E6
100
AcDbEntity
  8
06-99
100
AcDbLine
 10
305.0784799497348
 20
14.66137866671232
 30
0.0
 11
305.0642239497349
 21
14.48699927471239
 31
0.0
  0
LINE
  5
1E1
330
E6
100
AcDbEntity
  8
06-99
100
AcDbLine
 10
305.0642239497349
 20
14.48699927471239
 30
0.0
 11
305.0637998337348
 21
14.33510159471234
 31
0.0
  0
LINE
  5
1E2
330
E6
100
AcDbEntity
  8
06-99
100
AcDbLine
 10
305.0637998337348
 20
14.33510159471234
 30
0.0
 11
305.0678984337348
 21
14.20222854671237
 31
0.0
  0
LINE
  5
1E3
330
E6
100
AcDbEntity
  8
06-99
100
AcDbLine
 10
305.0678984337348
 20
14.20222854671237
 30
0.0
 11
305.0952307497349
 21
13.25281458671242
 31
0.0
  0
LINE
  5
1E4
330
E6
100
AcDbEntity
  8
06-99
100
AcDbLine
 10
305.0952307497349
 20
13.25281458671242
 30
0.0
 11
305.9668283337347
 21
13.25281458671242
 31
0.0
  0
LINE
  5
1E5
330
E6
100
AcDbEntity
  8
06-99
100
AcDbLine
 10
305.9668283337347
 20
13.25281458671242
 30
0.0
 11
307.3156882857347
 21
16.03490862671236
 31
0.0
  0
LINE
  5
1E6
330
E6
100
AcDbEntity
  8
06-99
100
AcDbLine
 10
307.3156882857347
 20
16.03490862671236
 30
0.0
 11
306.3118057137349
 21
16.03490862671236
 31
0.0
  0
LINE
  5
1E7
330
E6
100
AcDbEntity
  8
06-99
100
AcDbLine
 10
306.3118057137349
 20
16.03490862671236
 30
0.0
 11
305.8579124937348
 21
14.8092312067123
 31
0.0
  0
LINE
  5
1E8
330
E6
100
AcDbEntity
  8
06-99
100
AcDbLine
 10
305.8579124937348
 20
14.8092312067123
 30
0.0
 11
305.8078097817349
 21
14.66872763471229
 31
0.0
  0
LINE
  5
1E9
330
E6
100
AcDbEntity
  8
06-99
100
AcDbLine
 10
305.8078097817349
 20
14.66872763471229
 30
0.0
 11
305.7488398377348
 21
14.48671415471227
 31
0.0
  0
LINE
  5
1EA
330
E6
100
AcDbEntity
  8
06-99
100
AcDbLine
 10
305.7488398377348
 20
14.48671415471227
 30
0.0
 11
305.6900267097347
 21
14.26059973871241
 31
0.0
  0
LINE
  5
1EB
330
E6
100
AcDbEntity
  8
06-99
100
AcDbLine
 10
305.6900267097347
 20
14.26059973871241
 30
0.0
 11
305.6666932017348
 21
14.26059973871241
 31
0.0
  0
LINE
  5
1EC
330
E6
100
AcDbEntity
  8
06-99
100
AcDbLine
 10
305.6666932017348
 20
14.26059973871241
 30
0.0
 11
305.6884193457348
 21
14.45803464671235
 31
0.0
  0
LINE
  5
1ED
330
E6
100
AcDbEntity
  8
06-99
100
AcDbLine
 10
305.6884193457348
 20
14.45803464671235
 30
0.0
 11
305.6929777017349
 21
14.6156953147123
 31
0.0
  0
LINE
  5
1EE
330
E6
100
AcDbEntity
  8
06-99
100
AcDbLine
 10
305.6929777017349
 20
14.6156953147123
 30
0.0
 11
305.6919370137348
 21
14.73531384671236
 31
0.0
  0
LINE
  5
1EF
330
E6
100
AcDbEntity
  8
06-99
100
AcDbLine
 10
305.6919370137348
 20
14.73531384671236
 30
0.0
 11
305.6775527097348
 21
16.03490862671236
 31
0.0
  0
LINE
  5
1F0
330
E6
100
AcDbEntity
  8
06-99
100
AcDbLine
 10
305.6775527097348
 20
16.03490862671236
 30
0.0
 11
304.9732849257348
 21
16.03490862671236
 31
0.0
  0
LINE
  5
1F1
330
E6
100
AcDbEntity
  8
06-99
100
AcDbLine
 10
304.9732849257348
 20
16.03490862671236
 30
0.0
 11
304.4584829457349
 21
14.73531384671236
 31
0.0
  0
LINE
  5
1F2
330
E6
100
AcDbEntity
  8
06-99
100
AcDbLine
 10
304.4584829457349
 20
14.73531384671236
 30
0.0
 11
304.4113811217347
 21
14.6156953147123
 31
0.0
  0
LINE
  5
1F3
330
E6
100
AcDbEntity
  8
06-99
100
AcDbLine
 10
304.4113811217347
 20
14.6156953147123
 30
0.0
 11
304.355226737735
 21
14.45803464671235
 31
0.0
  0
LINE
  5
1F4
330
E6
100
AcDbEntity
  8
06-99
100
AcDbLine
 10
304.355226737735
 20
14.45803464671235
 30
0.0
 11
304.3009220697348
 21
14.26059973871241
 31
0.0
  0
LINE
  5
1F5
330
E6
100
AcDbEntity
  8
06-99
100
AcDbLine
 10
304.3009220697348
 20
14.26059973871241
 30
0.0
 11
304.2775885617348
 21
14.26059973871241
 31
0.0
  0
LINE
  5
1F6
330
E6
100
AcDbEntity
  8
06-99
100
AcDbLine
 10
304.2775885617348
 20
14.26059973871241
 30
0.0
 11
304.3058439537349
 21
14.48671415471227
 31
0.0
  0
LINE
  5
1F7
330
E6
100
AcDbEntity
  8
06-99
100
AcDbLine
 10
304.3058439537349
 20
14.48671415471227
 30
0.0
 11
304.3169636337349
 21
14.66872763471229
 31
0.0
  0
LINE
  5
1F8
330
E6
100
AcDbEntity
  8
06-99
100
AcDbLine
 10
304.3169636337349
 20
14.66872763471229
 30
0.0
 11
304.3209588777348
 21
14.8092312067123
 31
0.0
  0
LINE
  5
1F9
330
E6
100
AcDbEntity
  8
06-99
100
AcDbLine
 10
304.3209588777348
 20
14.8092312067123
 30
0.0
 11
304.3390319217348
 21
16.03490862671236
 31
0.0
  0
LINE
  5
1FA
330
E6
100
AcDbEntity
  8
06-99
100
AcDbLine
 10
304.3390319217348
 20
16.03490862671236
 30
0.0
 11
303.3345042657348
 21
16.03490862671236
 31
0.0
  0
LINE
  5
1FB
330
E6
100
AcDbEntity
  8
06-99
100
AcDbLine
 10
303.3345042657348
 20
16.03490862671236
 30
0.0
 11
303.6127350537349
 21
13.25281458671242
 31
0.0
  0
LINE
  5
1FC
330
E6
100
AcDbEntity
  8
06-99
100
AcDbLine
 10
303.6127350537349
 20
13.25281458671242
 30
0.0
 11
304.4843290737348
 21
13.25281458671242
 31
0.0
  0
LINE
  5
1FD
330
E6
100
AcDbEntity
  8
06-99
100
AcDbLine
 10
304.4843290737348
 20
13.25281458671242
 30
0.0
 11
304.8772386897349
 21
14.20222854671237
 31
0.0
  0
LINE
  5
1FE
330
E6
100
AcDbEntity
  8
06-99
100
AcDbLine
 10
304.8772386897349
 20
14.20222854671237
 30
0.0
 11
304.9325127657348
 21
14.33510159471234
 31
0.0
  0
LINE
  5
1FF
330
E6
100
AcDbEntity
  8
06-99
100
AcDbLine
 10
304.9325127657348
 20
14.33510159471234
 30
0.0
 11
304.9905774537349
 21
14.48699927471239
 31
0.0
  0
LINE
  5
200
330
E6
100
AcDbEntity
  8
06-99
100
AcDbLine
 10
304.9905774537349
 20
14.48699927471239
 30
0.0
 11
305.0434565217349
 21
14.66137866671232
 31
0.0
  0
LINE
  5
201
330
E6
100
AcDbEntity
  8
06-99
100
AcDbLine
 10
309.4520674977348
 20
14.26448449871236
 30
0.0
 11
309.5983590057348
 21
14.57965971071235
 31
0.0
  0
LINE
  5
202
330
E6
100
AcDbEntity
  8
06-99
100
AcDbLine
 10
309.5983590057348
 20
14.57965971071235
 30
0.0
 11
309.6731103417349
 21
14.74409554271244
 31
0.0
  0
LINE
  5
203
330
E6
100
AcDbEntity
  8
06-99
100
AcDbLine
 10
309.6731103417349
 20
14.74409554271244
 30
0.0
 11
309.7541521377349
 21
14.94571102271237
 31
0.0
  0
LINE
  5
204
330
E6
100
AcDbEntity
  8
06-99
100
AcDbLine
 10
309.7541521377349
 20
14.94571102271237
 30
0.0
 11
309.8288286297349
 21
15.19056495071243
 31
0.0
  0
LINE
  5
205
330
E6
100
AcDbEntity
  8
06-99
100
AcDbLine
 10
309.8288286297349
 20
15.19056495071243
 30
0.0
 11
309.8482880697349
 21
15.19056495071243
 31
0.0
  0
LINE
  5
206
330
E6
100
AcDbEntity
  8
06-99
100
AcDbLine
 10
309.8482880697349
 20
15.19056495071243
 30
0.0
 11
309.8286646857348
 21
14.94571102271237
 31
0.0
  0
LINE
  5
207
330
E6
100
AcDbEntity
  8
06-99
100
AcDbLine
 10
309.8286646857348
 20
14.94571102271237
 30
0.0
 11
309.8320718697348
 21
14.74409554271244
 31
0.0
  0
LINE
  5
208
330
E6
100
AcDbEntity
  8
06-99
100
AcDbLine
 10
309.8320718697348
 20
14.74409554271244
 30
0.0
 11
309.8435051817348
 21
14.57965971071235
 31
0.0
  0
LINE
  5
209
330
E6
100
AcDbEntity
  8
06-99
100
AcDbLine
 10
309.8435051817348
 20
14.57965971071235
 30
0.0
 11
309.868410413735
 21
14.26448449871236
 31
0.0
  0
LINE
  5
20A
330
E6
100
AcDbEntity
  8
06-99
100
AcDbLine
 10
309.868410413735
 20
14.26448449871236
 30
0.0
 11
309.4520674977348
 21
14.26448449871236
 31
0.0
  0
LINE
  5
20B
330
E6
100
AcDbEntity
  8
06-99
100
AcDbLine
 10
312.586705289735
 20
13.25281458671242
 30
0.0
 11
313.5672400977347
 21
13.25281458671242
 31
0.0
  0
LINE
  5
20C
330
E6
100
AcDbEntity
  8
06-99
100
AcDbLine
 10
313.5672400977347
 20
13.25281458671242
 30
0.0
 11
313.7440358817348
 21
14.17110413471232
 31
0.0
  0
LINE
  5
20D
330
E6
100
AcDbEntity
  8
06-99
100
AcDbLine
 10
313.7440358817348
 20
14.17110413471232
 30
0.0
 11
314.053626305735
 21
13.25281458671242
 31
0.0
  0
LINE
  5
20E
330
E6
100
AcDbEntity
  8
06-99
100
AcDbLine
 10
314.053626305735
 20
13.25281458671242
 30
0.0
 11
315.1742370057348
 21
13.25281458671242
 31
0.0
  0
LINE
  5
20F
330
E6
100
AcDbEntity
  8
06-99
100
AcDbLine
 10
315.1742370057348
 20
13.25281458671242
 30
0.0
 11
314.6490673497349
 21
14.38511520671233
 31
0.0
  0
LINE
  5
210
330
E6
100
AcDbEntity
  8
06-99
100
AcDbLine
 10
314.6490673497349
 20
14.38511520671233
 30
0.0
 11
314.8084280457349
 21
14.42380955471236
 31
0.0
  0
LINE
  5
211
330
E6
100
AcDbEntity
  8
06-99
100
AcDbLine
 10
314.8084280457349
 20
14.42380955471236
 30
0.0
 11
314.9537002497348
 21
14.49881749871235
 31
0.0
  0
LINE
  5
212
330
E6
100
AcDbEntity
  8
06-99
100
AcDbLine
 10
314.9537002497348
 20
14.49881749871235
 30
0.0
 11
315.0813484737348
 21
14.60690292671233
 31
0.0
  0
LINE
  5
213
330
E6
100
AcDbEntity
  8
06-99
100
AcDbLine
 10
315.0813484737348
 20
14.60690292671233
 30
0.0
 11
315.1878301017348
 21
14.74481903471235
 31
0.0
  0
LINE
  5
214
330
E6
100
AcDbEntity
  8
06-99
100
AcDbLine
 10
315.1878301017348
 20
14.74481903471235
 30
0.0
 11
315.2695989537348
 21
14.90932258271232
 31
0.0
  0
LINE
  5
215
330
E6
100
AcDbEntity
  8
06-99
100
AcDbLine
 10
315.2695989537348
 20
14.90932258271232
 30
0.0
 11
315.3231124137347
 21
15.09717033071234
 31
0.0
  0
LINE
  5
216
330
E6
100
AcDbEntity
  8
06-99
100
AcDbLine
 10
315.3231124137347
 20
15.09717033071234
 30
0.0
 11
315.3445997697348
 21
15.26809264271236
 31
0.0
  0
LINE
  5
217
330
E6
100
AcDbEntity
  8
06-99
100
AcDbLine
 10
315.3445997697348
 20
15.26809264271236
 30
0.0
 11
315.3403015857348
 21
15.42330127871241
 31
0.0
  0
LINE
  5
218
330
E6
100
AcDbEntity
  8
06-99
100
AcDbLine
 10
315.3403015857348
 20
15.42330127871241
 30
0.0
 11
315.3102285537349
 21
15.56226163871236
 31
0.0
  0
LINE
  5
219
330
E6
100
AcDbEntity
  8
06-99
100
AcDbLine
 10
315.3102285537349
 20
15.56226163871236
 30
0.0
 11
315.2543913657347
 21
15.68443555871226
 31
0.0
  0
LINE
  5
21A
330
E6
100
AcDbEntity
  8
06-99
100
AcDbLine
 10
315.2543913657347
 20
15.68443555871226
 30
0.0
 11
315.1728078417348
 21
15.78928843871239
 31
0.0
  0
LINE
  5
21B
330
E6
100
AcDbEntity
  8
06-99
100
AcDbLine
 10
315.1728078417348
 20
15.78928843871239
 30
0.0
 11
315.0654922377348
 21
15.87627855071235
 31
0.0
  0
LINE
  5
21C
330
E6
100
AcDbEntity
  8
06-99
100
AcDbLine
 10
315.0654922377348
 20
15.87627855071235
 30
0.0
 11
314.9324516817348
 21
15.94487485871235
 31
0.0
  0
LINE
  5
21D
330
E6
100
AcDbEntity
  8
06-99
100
AcDbLine
 10
314.9324516817348
 20
15.94487485871235
 30
0.0
 11
314.7737075577347
 21
15.9945356347124
 31
0.0
  0
LINE
  5
21E
330
E6
100
AcDbEntity
  8
06-99
100
AcDbLine
 10
314.7737075577347
 20
15.9945356347124
 30
0.0
 11
314.5892634297348
 21
16.02472627871236
 31
0.0
  0
LINE
  5
21F
330
E6
100
AcDbEntity
  8
06-99
100
AcDbLine
 10
314.5892634297348
 20
16.02472627871236
 30
0.0
 11
314.3791442457348
 21
16.03490862671236
 31
0.0
  0
LINE
  5
220
330
E6
100
AcDbEntity
  8
06-99
100
AcDbLine
 10
314.3791442457348
 20
16.03490862671236
 30
0.0
 11
313.1223424137348
 21
16.03490862671236
 31
0.0
  0
LINE
  5
221
330
E6
100
AcDbEntity
  8
06-99
100
AcDbLine
 10
313.1223424137348
 20
16.03490862671236
 30
0.0
 11
312.586705289735
 21
13.25281458671242
 31
0.0
  0
LINE
  5
222
330
E6
100
AcDbEntity
  8
06-99
100
AcDbLine
 10
313.9650323937349
 20
15.31896517871234
 30
0.0
 11
314.1206829657349
 21
15.31896517871234
 31
0.0
  0
LINE
  5
223
330
E6
100
AcDbEntity
  8
06-99
100
AcDbLine
 10
314.1206829657349
 20
15.31896517871234
 30
0.0
 11
314.2773528417349
 21
15.28538517071229
 31
0.0
  0
LINE
  5
224
330
E6
100
AcDbEntity
  8
06-99
100
AcDbLine
 10
314.2773528417349
 20
15.28538517071229
 30
0.0
 11
314.3582200017347
 21
15.19041169871241
 31
0.0
  0
LINE
  5
225
330
E6
100
AcDbEntity
  8
06-99
100
AcDbLine
 10
314.3582200017347
 20
15.19041169871241
 30
0.0
 11
314.3632167297349
 21
15.04270171871235
 31
0.0
  0
LINE
  5
226
330
E6
100
AcDbEntity
  8
06-99
100
AcDbLine
 10
314.3632167297349
 20
15.04270171871235
 30
0.0
 11
314.3008645497348
 21
14.8970018347124
 31
0.0
  0
LINE
  5
227
330
E6
100
AcDbEntity
  8
06-99
100
AcDbLine
 10
314.3008645497348
 20
14.8970018347124
 30
0.0
 11
314.1832917537348
 21
14.80578125471237
 31
0.0
  0
LINE
  5
228
330
E6
100
AcDbEntity
  8
06-99
100
AcDbLine
 10
314.1832917537348
 20
14.80578125471237
 30
0.0
 11
314.0158122657348
 21
14.77422203471229
 31
0.0
  0
LINE
  5
229
330
E6
100
AcDbEntity
  8
06-99
100
AcDbLine
 10
314.0158122657348
 20
14.77422203471229
 30
0.0
 11
313.8601616937349
 21
14.77422203471229
 31
0.0
  0
LINE
  5
22A
330
E6
100
AcDbEntity
  8
06-99
100
AcDbLine
 10
313.8601616937349
 20
14.77422203471229
 30
0.0
 11
313.9650323937349
 21
15.31896517871234
 31
0.0
  0
LINE
  5
22B
330
E6
100
AcDbEntity
  8
06-99
100
AcDbLine
 10
309.579801257735
 20
17.12736016271231
 30
0.0
 11
311.3988989337349
 21
17.12736016271231
 31
0.0
  0
LINE
  5
22C
330
E6
100
AcDbEntity
  8
06-99
100
AcDbLine
 10
311.3988989337349
 20
17.12736016271231
 30
0.0
 11
311.3988989337349
 21
17.44082465471229
 31
0.0
  0
LINE
  5
22D
330
E6
100
AcDbEntity
  8
06-99
100
AcDbLine
 10
311.3988989337349
 20
17.44082465471229
 30
0.0
 11
309.913819337735
 21
17.44082465471229
 31
0.0
  0
LINE
  5
22E
330
E6
100
AcDbEntity
  8
06-99
100
AcDbLine
 10
309.913819337735
 20
17.44082465471229
 30
0.0
 11
309.913819337735
 21
19.02353290271242
 31
0.0
  0
LINE
  5
22F
330
E6
100
AcDbEntity
  8
06-99
100
AcDbLine
 10
309.913819337735
 20
19.02353290271242
 30
0.0
 11
311.3988989337349
 21
19.02353290271242
 31
0.0
  0
LINE
  5
230
330
E6
100
AcDbEntity
  8
06-99
100
AcDbLine
 10
311.3988989337349
 20
19.02353290271242
 30
0.0
 11
311.3988989337349
 21
19.3369973947124
 31
0.0
  0
LINE
  5
231
330
E6
100
AcDbEntity
  8
06-99
100
AcDbLine
 10
311.3988989337349
 20
19.3369973947124
 30
0.0
 11
309.913819337735
 21
19.3369973947124
 31
0.0
  0
LINE
  5
232
330
E6
100
AcDbEntity
  8
06-99
100
AcDbLine
 10
309.913819337735
 20
19.3369973947124
 30
0.0
 11
309.913819337735
 21
20.48806960271236
 31
0.0
  0
LINE
  5
233
330
E6
100
AcDbEntity
  8
06-99
100
AcDbLine
 10
309.913819337735
 20
20.48806960271236
 30
0.0
 11
311.3988989337349
 21
20.48806960271236
 31
0.0
  0
LINE
  5
234
330
E6
100
AcDbEntity
  8
06-99
100
AcDbLine
 10
311.3988989337349
 20
20.48806960271236
 30
0.0
 11
311.3988989337349
 21
20.80153409471234
 31
0.0
  0
LINE
  5
235
330
E6
100
AcDbEntity
  8
06-99
100
AcDbLine
 10
311.3988989337349
 20
20.80153409471234
 30
0.0
 11
309.579801257735
 21
20.80153409471234
 31
0.0
  0
LINE
  5
236
330
E6
100
AcDbEntity
  8
06-99
100
AcDbLine
 10
309.579801257735
 20
20.80153409471234
 30
0.0
 11
309.579801257735
 21
17.12736016271231
 31
0.0
  0
LINE
  5
237
330
E6
100
AcDbEntity
  8
06-99
100
AcDbLine
 10
304.853024873735
 20
17.12736016271231
 30
0.0
 11
305.1870465177349
 21
17.12736016271231
 31
0.0
  0
LINE
  5
238
330
E6
100
AcDbEntity
  8
06-99
100
AcDbLine
 10
305.1870465177349
 20
17.12736016271231
 30
0.0
 11
305.1870465177349
 21
20.09753361071233
 31
0.0
  0
LINE
  5
239
330
E6
100
AcDbEntity
  8
06-99
100
AcDbLine
 10
305.1870465177349
 20
20.09753361071233
 30
0.0
 11
307.7666661537348
 21
17.01858688271232
 31
0.0
  0
LINE
  5
23A
330
E6
100
AcDbEntity
  8
06-99
100
AcDbLine
 10
307.7666661537348
 20
17.01858688271232
 30
0.0
 11
307.7666661537348
 21
20.80153409471234
 31
0.0
  0
LINE
  5
23B
330
E6
100
AcDbEntity
  8
06-99
100
AcDbLine
 10
307.7666661537348
 20
20.80153409471234
 30
0.0
 11
307.4326587657349
 21
20.80153409471234
 31
0.0
  0
LINE
  5
23C
330
E6
100
AcDbEntity
  8
06-99
100
AcDbLine
 10
307.4326587657349
 20
20.80153409471234
 30
0.0
 11
307.4326587657349
 21
17.88274639871235
 31
0.0
  0
LINE
  5
23D
330
E6
100
AcDbEntity
  8
06-99
100
AcDbLine
 10
307.4326587657349
 20
17.88274639871235
 30
0.0
 11
304.853024873735
 21
20.95568422271231
 31
0.0
  0
LINE
  5
23E
330
E6
100
AcDbEntity
  8
06-99
100
AcDbLine
 10
304.853024873735
 20
20.95568422271231
 30
0.0
 11
304.853024873735
 21
17.12736016271231
 31
0.0
  0
LINE
  5
23F
330
E6
100
AcDbEntity
  8
06-99
100
AcDbLine
 10
313.448423465735
 20
20.50862675471228
 30
0.0
 11
313.7824308537349
 21
20.50862675471228
 31
0.0
  0
LINE
  5
240
330
E6
100
AcDbEntity
  8
06-99
100
AcDbLine
 10
313.7824308537349
 20
20.50862675471228
 30
0.0
 11
313.9866159777348
 21
20.50030837871236
 31
0.0
  0
LINE
  5
241
330
E6
100
AcDbEntity
  8
06-99
100
AcDbLine
 10
313.9866159777348
 20
20.50030837871236
 30
0.0
 11
314.1604465137349
 21
20.47385993471232
 31
0.0
  0
LINE
  5
242
330
E6
100
AcDbEntity
  8
06-99
100
AcDbLine
 10
314.1604465137349
 20
20.47385993471232
 30
0.0
 11
314.3048954337349
 21
20.42705748671227
 31
0.0
  0
LINE
  5
243
330
E6
100
AcDbEntity
  8
06-99
100
AcDbLine
 10
314.3048954337349
 20
20.42705748671227
 30
0.0
 11
314.4209178897349
 21
20.35767353471232
 31
0.0
  0
LINE
  5
244
330
E6
100
AcDbEntity
  8
06-99
100
AcDbLine
 10
314.4209178897349
 20
20.35767353471232
 30
0.0
 11
314.509479725735
 21
20.26348057871229
 31
0.0
  0
LINE
  5
245
330
E6
100
AcDbEntity
  8
06-99
100
AcDbLine
 10
314.509479725735
 20
20.26348057871229
 30
0.0
 11
314.5715432217348
 21
20.14225111871241
 31
0.0
  0
LINE
  5
246
330
E6
100
AcDbEntity
  8
06-99
100
AcDbLine
 10
314.5715432217348
 20
20.14225111871241
 30
0.0
 11
314.6080777857349
 21
19.99175052671228
 31
0.0
  0
LINE
  5
247
330
E6
100
AcDbEntity
  8
06-99
100
AcDbLine
 10
314.6080777857349
 20
19.99175052671228
 30
0.0
 11
314.6200421337348
 21
19.80976199471234
 31
0.0
  0
LINE
  5
248
330
E6
100
AcDbEntity
  8
06-99
100
AcDbLine
 10
314.6200421337348
 20
19.80976199471234
 30
0.0
 11
314.6074469577349
 21
19.63100957471232
 31
0.0
  0
LINE
  5
249
330
E6
100
AcDbEntity
  8
06-99
100
AcDbLine
 10
314.6074469577349
 20
19.63100957471232
 30
0.0
 11
314.5693763097349
 21
19.48586211071233
 31
0.0
  0
LINE
  5
24A
330
E6
100
AcDbEntity
  8
06-99
100
AcDbLine
 10
314.5693763097349
 20
19.48586211071233
 30
0.0
 11
314.5054167657349
 21
19.37130445871241
 31
0.0
  0
LINE
  5
24B
330
E6
100
AcDbEntity
  8
06-99
100
AcDbLine
 10
314.5054167657349
 20
19.37130445871241
 30
0.0
 11
314.4151370817349
 21
19.28432860271238
 31
0.0
  0
LINE
  5
24C
330
E6
100
AcDbEntity
  8
06-99
100
AcDbLine
 10
314.4151370817349
 20
19.28432860271238
 30
0.0
 11
314.298123833735
 21
19.22192296271237
 31
0.0
  0
LINE
  5
24D
330
E6
100
AcDbEntity
  8
06-99
100
AcDbLine
 10
314.298123833735
 20
19.22192296271237
 30
0.0
 11
314.1539493417349
 21
19.18107239471232
 31
0.0
  0
LINE
  5
24E
330
E6
100
AcDbEntity
  8
06-99
100
AcDbLine
 10
314.1539493417349
 20
19.18107239471232
 30
0.0
 11
313.9821894897348
 21
19.15877244671242
 31
0.0
  0
LINE
  5
24F
330
E6
100
AcDbEntity
  8
06-99
100
AcDbLine
 10
313.9821894897348
 20
19.15877244671242
 30
0.0
 11
313.7824308537349
 21
19.15200797471237
 31
0.0
  0
LINE
  5
250
330
E6
100
AcDbEntity
  8
06-99
100
AcDbLine
 10
313.7824308537349
 20
19.15200797471237
 30
0.0
 11
313.448423465735
 21
19.15200797471237
 31
0.0
  0
LINE
  5
251
330
E6
100
AcDbEntity
  8
06-99
100
AcDbLine
 10
313.448423465735
 20
19.15200797471237
 30
0.0
 11
313.448423465735
 21
20.50862675471228
 31
0.0
  0
LINE
  5
252
330
E6
100
AcDbEntity
  8
06-99
100
AcDbLine
 10
315.3445997697348
 20
17.12736016271231
 30
0.0
 11
314.0239560057348
 21
18.87965422271236
 31
0.0
  0
LINE
  5
253
330
E6
100
AcDbEntity
  8
06-99
100
AcDbLine
 10
314.0239560057348
 20
18.87965422271236
 30
0.0
 11
314.212373993735
 21
18.8922529627124
 31
0.0
  0
LINE
  5
254
330
E6
100
AcDbEntity
  8
06-99
100
AcDbLine
 10
314.212373993735
 20
18.8922529627124
 30
0.0
 11
314.3829007017349
 21
18.92942191871231
 31
0.0
  0
LINE
  5
255
330
E6
100
AcDbEntity
  8
06-99
100
AcDbLine
 10
314.3829007017349
 20
18.92942191871231
 30
0.0
 11
314.5343992137349
 21
18.99023088671242
 31
0.0
  0
LINE
  5
256
330
E6
100
AcDbEntity
  8
06-99
100
AcDbLine
 10
314.5343992137349
 20
18.99023088671242
 30
0.0
 11
314.6657219217349
 21
19.07375679071236
 31
0.0
  0
LINE
  5
257
330
E6
100
AcDbEntity
  8
06-99
100
AcDbLine
 10
314.6657219217349
 20
19.07375679071236
 30
0.0
 11
314.7757283457349
 21
19.17905873471233
 31
0.0
  0
LINE
  5
258
330
E6
100
AcDbEntity
  8
06-99
100
AcDbLine
 10
314.7757283457349
 20
19.17905873471233
 30
0.0
 11
314.8632744417348
 21
19.30521720671237
 31
0.0
  0
LINE
  5
259
330
E6
100
AcDbEntity
  8
06-99
100
AcDbLine
 10
314.8632744417348
 20
19.30521720671237
 30
0.0
 11
314.9272232937349
 21
19.4512948747124
 31
0.0
  0
LINE
  5
25A
330
E6
100
AcDbEntity
  8
06-99
100
AcDbLine
 10
314.9272232937349
 20
19.4512948747124
 30
0.0
 11
314.9664308577349
 21
19.61636153471238
 31
0.0
  0
LINE
  5
25B
330
E6
100
AcDbEntity
  8
06-99
100
AcDbLine
 10
314.9664308577349
 20
19.61636153471238
 30
0.0
 11
314.9797530897347
 21
19.79949054671237
 31
0.0
  0
LINE
  5
25C
330
E6
100
AcDbEntity
  8
06-99
100
AcDbLine
 10
314.9797530897347
 20
19.79949054671237
 30
0.0
 11
314.969937833735
 21
19.97455422671237
 31
0.0
  0
LINE
  5
25D
330
E6
100
AcDbEntity
  8
06-99
100
AcDbLine
 10
314.969937833735
 20
19.97455422671237
 30
0.0
 11
314.940481373735
 21
20.13261762671238
 31
0.0
  0
LINE
  5
25E
330
E6
100
AcDbEntity
  8
06-99
100
AcDbLine
 10
314.940481373735
 20
20.13261762671238
 30
0.0
 11
314.8913551977349
 21
20.27374846271237
 31
0.0
  0
LINE
  5
25F
330
E6
100
AcDbEntity
  8
06-99
100
AcDbLine
 10
314.8913551977349
 20
20.27374846271237
 30
0.0
 11
314.822541485735
 21
20.39801445071225
 31
0.0
  0
LINE
  5
260
330
E6
100
AcDbEntity
  8
06-99
100
AcDbLine
 10
314.822541485735
 20
20.39801445071225
 30
0.0
 11
314.7340152897349
 21
20.50548687071239
 31
0.0
  0
LINE
  5
261
330
E6
100
AcDbEntity
  8
06-99
100
AcDbLine
 10
314.7340152897349
 20
20.50548687071239
 30
0.0
 11
314.625751661735
 21
20.59623700271237
 31
0.0
  0
LINE
  5
262
330
E6
100
AcDbEntity
  8
06-99
100
AcDbLine
 10
314.625751661735
 20
20.59623700271237
 30
0.0
 11
314.4977292177349
 21
20.67032899871231
 31
0.0
  0
LINE
  5
263
330
E6
100
AcDbEntity
  8
06-99
100
AcDbLine
 10
314.4977292177349
 20
20.67032899871231
 30
0.0
 11
314.3499230097348
 21
20.72783413871235
 31
0.0
  0
LINE
  5
264
330
E6
100
AcDbEntity
  8
06-99
100
AcDbLine
 10
314.3499230097348
 20
20.72783413871235
 30
0.0
 11
314.1823116537348
 21
20.76882726671238
 31
0.0
  0
LINE
  5
265
330
E6
100
AcDbEntity
  8
06-99
100
AcDbLine
 10
314.1823116537348
 20
20.76882726671238
 30
0.0
 11
313.9948737657348
 21
20.79336897071238
 31
0.0
  0
LINE
  5
266
330
E6
100
AcDbEntity
  8
06-99
100
AcDbLine
 10
313.9948737657348
 20
20.79336897071238
 30
0.0
 11
313.7875808337349
 21
20.80153409471234
 31
0.0
  0
LINE
  5
267
330
E6
100
AcDbEntity
  8
06-99
100
AcDbLine
 10
313.7875808337349
 20
20.80153409471234
 30
0.0
 11
313.7875808337349
 21
20.80153409471234
 31
0.0
  0
LINE
  5
268
330
E6
100
AcDbEntity
  8
06-99
100
AcDbLine
 10
313.7875808337349
 20
20.80153409471234
 30
0.0
 11
313.1144053857349
 21
20.80153409471234
 31
0.0
  0
LINE
  5
269
330
E6
100
AcDbEntity
  8
06-99
100
AcDbLine
 10
313.1144053857349
 20
20.80153409471234
 30
0.0
 11
313.1144053857349
 21
17.12736016271231
 31
0.0
  0
LINE
  5
26A
330
E6
100
AcDbEntity
  8
06-99
100
AcDbLine
 10
313.1144053857349
 20
17.12736016271231
 30
0.0
 11
313.448423465735
 21
17.12736016271231
 31
0.0
  0
LINE
  5
26B
330
E6
100
AcDbEntity
  8
06-99
100
AcDbLine
 10
313.448423465735
 20
17.12736016271231
 30
0.0
 11
313.448423465735
 21
18.87965422271236
 31
0.0
  0
LINE
  5
26C
330
E6
100
AcDbEntity
  8
06-99
100
AcDbLine
 10
313.448423465735
 20
18.87965422271236
 30
0.0
 11
313.6488378777349
 21
18.87965422271236
 31
0.0
  0
LINE
  5
26D
330
E6
100
AcDbEntity
  8
06-99
100
AcDbLine
 10
313.6488378777349
 20
18.87965422271236
 30
0.0
 11
314.9386387857348
 21
17.12736016271231
 31
0.0
  0
LINE
  5
26E
330
E6
100
AcDbEntity
  8
06-99
100
AcDbLine
 10
314.9386387857348
 20
17.12736016271231
 30
0.0
 11
315.3445997697348
 21
17.12736016271231
 31
0.0
  0
TEXT
  5
26F
330
E6
100
AcDbEntity
  8
06-99
100
AcDbText
 10
294.6083578687944
 20
10.63320974709819
 30
0.0
 40
1.4256
  1
GmbH & Co KG
 41
1.199203187251
 51
15.0
  7
ROMAND8
 72
     5
 11
315.0419578687945
 21
10.63320974709819
 31
0.0
100
AcDbText
  0
TEXT
  5
271
330
E6
100
AcDbEntity
  8
06-99
100
AcDbText
 10
294.7098146233783
 20
8.391016474674643
 30
0.0
 40
1.4256
  1
72774 Reutlingen
 50
0.5663244663116128
 41
1.087840993687879
 51
15.0
  7
ROMAND8
 72
     5
 11
314.9434146233783
 21
8.591016474674631
 31
0.0
100
AcDbText
  0
TEXT
  5
272
330
E6
100
AcDbEntity
  8
08-99
100
AcDbText
 10
282.4141179695723
 20
49.4500923918223
 30
0.0
 40
2.25
  1
Zul. Abw.
 51
15.0
  7
ROMANS8
100
AcDbText
  0
TEXT
  5
273
330
E6
100
AcDbEntity
  8
08-99
100
AcDbText
 10
332.2099260900184
 20
50.28616492075241
 30
0.0
 40
2.0
  1
Mat. Art.
 51
15.0
  7
ROMANS8
100
AcDbText
  0
TEXT
  5
274
330
E6
100
AcDbEntity
  8
08-99
100
AcDbText
 10
364.4865307401076
 20
50.40431414472369
 30
0.0
 40
2.0
  1
Oberfläche:
 51
15.0
  7
ROMANS8
100
AcDbText
  0
TEXT
  5
275
330
E6
100
AcDbEntity
  8
08-99
100
AcDbText
 10
393.7625376083154
 20
42.73764747805694
 30
0.0
 40
2.0
  1
Blech Dicke:
 51
15.0
  7
ROMANS8
100
AcDbText
  0
TEXT
  5
276
330
E6
100
AcDbEntity
  8
08-99
100
AcDbText
 10
396.4380277982925
 20
50.28616492075252
 30
0.0
 40
2.0
  1
Maßstab:
 51
15.0
  7
ROMANS8
100
AcDbText
  0
LINE
  5
277
330
E6
100
AcDbEntity
  8
01-99
100
AcDbLine
 10
323.9999997697348
 20
47.88888965037898
 30
0.0
 11
300.9999997697348
 21
47.88888965037898
 31
0.0
  0
LINE
  5
278
330
E6
100
AcDbEntity
  8
01-99
100
AcDbLine
 10
323.9999997697348
 20
45.33333409471225
 30
0.0
 11
300.9999997697348
 21
45.33333409471225
 31
0.0
  0
LINE
  5
279
330
E6
100
AcDbEntity
  8
01-99
100
AcDbLine
 10
323.9999997697349
 20
41.50000076137894
 30
0.0
 11
300.9999997697347
 21
41.50000076137897
 31
0.0
  0
ATTDEF
  5
27A
330
E6
100
AcDbEntity
  8
06-99
100
AcDbText
 10
325.495446508912
 20
27.18783945866119
 30
0.0
 40
4.5
  1

 41
0.9
  7
ROMANS8
100
AcDbAttributeDefinition
280
     0
  3
Benennung/Teil
  2
TEILE
 70
     0
280
     0
  0
ATTDEF
  5
27B
330
E6
100
AcDbEntity
  8
06-99
100
AcDbText
 10
325.495446508912
 20
19.89177436492207
 30
0.0
 40
4.5
  1

 41
0.9
  7
ROMANS8
100
AcDbAttributeDefinition
280
     0
  3
Benennung/Teil2
  2
TEILE2
 70
     0
280
     0
  0
ATTDEF
  5
27C
330
E6
100
AcDbEntity
  8
06-99
100
AcDbText
 10
400.3473859814493
 20
46.33333409471231
 30
0.0
 40
3.375
  1

  7
ROMANS8
100
AcDbAttributeDefinition
280
     0
  3
Maßstab
  2
:
 70
     0
280
     0
  0
ATTDEF
  5
27D
330
E6
100
AcDbEntity
  8
06-99
100
AcDbText
 10
301.9970675691022
 20
28.44168622941026
 30
0.0
 40
2.5
  1

 41
0.9
  7
ROMANS8
100
AcDbAttributeDefinition
280
     0
  3
Name
  2
NAME
 70
     0
280
     0
  0
ATTDEF
  5
27E
330
E6
100
AcDbEntity
  8
06-99
100
AcDbText
 10
288.4931462216289
 20
28.46123593549021
 30
0.0
 40
2.5
  1

 50
359.9144597696142
 41
0.9542572414211148
  7
ROMANS8
 72
     5
 11
299.7397368901736
 21
28.44444522804565
 31
0.0
100
AcDbAttributeDefinition
280
     0
  3
Datum
  2
DATUM
 70
     0
280
     0
  0
ATTDEF
  5
27F
330
E6
100
AcDbEntity
  8
06-99
100
AcDbText
 10
387.5063437368931
 20
8.492900561667681
 30
0.0
 40
2.99376
  1

  7
ROMANS8
100
AcDbAttributeDefinition
280
     0
  3
Ident-Nummer
  2
ID.NR
 70
     0
280
     0
  0
ATTDEF
  5
280
330
E6
100
AcDbEntity
  8
06-99
100
AcDbText
 10
325.7312660254454
 20
38.66666740582343
 30
0.0
 40
3.0
  1

 41
0.9
  7
ROMANS8
100
AcDbAttributeDefinition
280
     0
  3
Zuschnitts.Länge
  2
LÄNGE
 70
     0
280
     0
  0
ATTDEF
  5
281
330
E6
100
AcDbEntity
  8
06-99
100
AcDbText
 10
359.1808046815046
 20
38.6781046318238
 30
0.0
 40
3.0
  1

 41
0.9
  7
ROMANS8
100
AcDbAttributeDefinition
280
     0
  3
Zuschnitts Breite
  2
BREITE
 70
     0
280
     0
  0
ATTDEF
  5
282
330
E6
100
AcDbEntity
  8
06-99
100
AcDbText
 10
399.6090918964667
 20
38.66666742804574
 30
0.0
 40
3.09375
  1

  7
ROMANS8
100
AcDbAttributeDefinition
280
     0
  3
Blech.Dicke
  2
1.0
 70
     0
280
     0
  0
ATTDEF
  5
283
330
E6
100
AcDbEntity
  8
06-99
100
AcDbText
 10
373.1277853711375
 20
46.33333409471243
 30
0.0
 40
3.0
  1

  7
ROMANS8
 72
     1
 11
373.1277853711375
 21
46.33333409471243
 31
0.0
100
AcDbAttributeDefinition
280
     0
  3
Oberfläche
  2
IV
 70
     0
280
     0
  0
ATTDEF
  5
284
330
E6
100
AcDbEntity
  8
06-99
100
AcDbText
 10
332.2747403058506
 20
46.33333409471219
 30
0.0
 40
3.375
  1
1.4301
  7
ROMANS8
100
AcDbAttributeDefinition
280
     0
  3
Mat.Art
  2
1.4301
 70
     0
280
     0
  0
ATTDEF
  5
285
330
E6
100
AcDbEntity
  8
06-99
100
AcDbText
 10
355.0006336566149
 20
8.504397365733609
 30
0.0
 40
3.168
  1

 41
0.9
  7
ROMANS8
100
AcDbAttributeDefinition
280
     0
  3
Auftrags Nr.
  2
AUFTRAGS.NR.
 70
     0
280
     0
  0
ATTDEF
  5
286
330
E6
100
AcDbEntity
  8
06-99
100
AcDbText
 10
325.4999997697348
 20
8.500000761378998
 30
0.0
 40
3.168
  1

 41
0.9
  7
ROMANS8
100
AcDbAttributeDefinition
280
     0
  3
Sonder-NR,WPS
  2
SONDER-NR
 70
     0
280
     0
  0
ATTDEF
  5
287
330
E6
100
AcDbEntity
  8
06-99
100
AcDbText
 10
255.4997507647431
 20
7.601810830638839
 30
0.0
 40
1.5
  1

 41
0.9
  7
ROMANS8
100
AcDbAttributeDefinition
280
     0
  3
ERSETZT.Durch
  2
ERSETZT.DURCH
 70
     0
280
     0
  0
ATTDEF
  5
288
330
E6
100
AcDbEntity
  8
06-99
100
AcDbText
 10
230.4994675499334
 20
7.597457159251405
 30
0.0
 40
1.5
  1

 41
0.9
  7
ROMANS8
100
AcDbAttributeDefinition
280
     0
  3
ERSETZT.Für
  2
ERSETZT.FÜR
 70
     0
280
     0
  0
ATTDEF
  5
289
330
E6
100
AcDbEntity
  8
06-99
100
AcDbText
 10
308.850500987601
 20
48.66851190138698
 30
0.0
 40
1.287
  1
DIN A3
  7
ROMANS8
 72
     1
 11
312.2518581304581
 21
48.66851190138698
 31
0.0
100
AcDbAttributeDefinition
280
     0
  3
Format
  2
FORMAT
 70
     0
280
     0
  0
ATTDEF
  5
28A
330
E6
100
AcDbEntity
  8
06-99
100
AcDbText
 10
304.4899997697348
 20
38.39666742804565
 30
0.0
 40
2.34
  1
DIN 2768
  7
ROMANS8
 72
     1
 11
313.0142854840205
 21
38.39666742804565
 31
0.0
100
AcDbAttributeDefinition
280
     0
  3
Norm / Kanten
  2
NORM2
 70
     0
280
     0
  0
ATTDEF
  5
28B
330
E6
100
AcDbEntity
  8
06-99
100
AcDbText
 10
301.2585711983062
 20
42.23000076137895
 30
0.0
 40
2.34
  1
DIN 6930-M
  7
ROMANS8
 72
     1
 11
312.5128569125919
 21
42.23000076137895
 31
0.0
100
AcDbAttributeDefinition
280
     0
  3
Norm / Fräsen
  2
NORM1
 70
     0
280
     0
  0
ENDBLK
  5
28C
330
E6
100
AcDbEntity
  8
0
100
AcDbBlockEnd
  0
BLOCK
  5
2A2
330
2A1
100
AcDbEntity
  8
0
100
AcDbBlockBegin
  2
*D9
 70
     1
 10
0.0
 20
0.0
 30
0.0
  3
*D9
  1

  0
LINE
  5
2A3
330
2A1
100
AcDbEntity
  8
09-01
 62
     4
440
 16777216
370
    -2
100
AcDbLine
 10
370.7474019601248
 20
234.2734418333626
 30
0.0
 11
407.4624237969256
 21
234.2734418333626
 31
0.0
  0
LINE
  5
2A4
330
2A1
100
AcDbEntity
  8
09-01
 62
     4
440
 16777216
370
    -2
100
AcDbLine
 10
370.7474019601248
 20
33.27344183336254
 30
0.0
 11
407.4624237969255
 21
33.27344183336253
 31
0.0
  0
LINE
  5
2A5
330
2A1
100
AcDbEntity
  8
09-01
 62
     4
440
 16777216
370
    -2
100
AcDbLine
 10
404.9624237969256
 20
228.0234418333626
 30
0.0
 11
404.9624237969255
 21
39.52344183336253
 31
0.0
  0
SOLID
  5
2A6
330
2A1
100
AcDbEntity
  8
09-01
 62
     4
440
 16777216
100
AcDbTrace
 10
403.9207571302589
 20
228.0234418333626
 30
0.0
 11
406.0040904635923
 21
228.0234418333626
 31
0.0
 12
404.9624237969256
 22
234.2734418333626
 32
0.0
 13
404.9624237969256
 23
234.2734418333626
 33
0.0
  0
SOLID
  5
2A7
330
2A1
100
AcDbEntity
  8
09-01
 62
     4
440
 16777216
100
AcDbTrace
 10
403.9207571302588
 20
39.52344183336253
 30
0.0
 11
406.0040904635922
 21
39.52344183336253
 31
0.0
 12
404.9624237969255
 22
33.27344183336253
 32
0.0
 13
404.9624237969255
 23
33.27344183336253
 33
0.0
  0
MTEXT
  5
2A8
330
2A1
100
AcDbEntity
  8
09-01
 62
     1
440
 16777216
100
AcDbMText
 10
399.3374237969256
 20
133.7734418333626
 30
0.0
 40
6.25
 41
0.0
 46
0.0
 71
     5
 72
     1
  1
201
 11
0.0000000000000001
 21
1.0
 31
0.0
 73
     1
 44
1.0
  0
POINT
  5
2A9
330
2A1
100
AcDbEntity
  8
Defpoints
 62
     0
440
 16777216
100
AcDbPoint
 10
368.2474019601248
 20
234.2734418333626
 30
0.0
  0
POINT
  5
2AA
330
2A1
100
AcDbEntity
  8
Defpoints
 62
     0
440
 16777216
100
AcDbPoint
 10
368.2474019601248
 20
33.27344183336254
 30
0.0
  0
POINT
  5
2AB
330
2A1
100
AcDbEntity
  8
Defpoints
 62
     0
440
 16777216
100
AcDbPoint
 10
404.9624237969255
 20
33.27344183336253
 30
0.0
  0
ENDBLK
  5
2AC
330
2A1
100
AcDbEntity
  8
0
100
AcDbBlockEnd
  0
BLOCK
  5
D4
330
D3
100
AcDbEntity
  8
0
100
AcDbBlockBegin
  2
*D10
 70
     1
 10
0.0
 20
0.0
 30
0.0
  3
*D10
  1

  0
LINE
  5
D5
330
D3
100
AcDbEntity
  8
09-01
 62
     4
440
 16777216
370
    -2
100
AcDbLine
 10
525.3378897715365
 20
284.6484753198997
 30
0.0
 11
525.3378897715365
 21
268.8413315426285
 31
0.0
  0
LINE
  5
D6
330
D3
100
AcDbEntity
  8
09-01
 62
     4
440
 16777216
370
    -2
100
AcDbLine
 10
651.3378897718585
 20
284.6484753198997
 30
0.0
 11
651.3378897718585
 21
268.8413315426285
 31
0.0
  0
LINE
  5
D7
330
D3
100
AcDbEntity
  8
09-01
 62
     4
440
 16777216
370
    -2
100
AcDbLine
 10
531.5878897715365
 20
271.3413315426285
 30
0.0
 11
645.0878897718585
 21
271.3413315426285
 31
0.0
  0
SOLID
  5
D8
330
D3
100
AcDbEntity
  8
09-01
 62
     4
440
 16777216
100
AcDbTrace
 10
531.5878897715365
 20
272.3829982092952
 30
0.0
 11
531.5878897715365
 21
270.2996648759618
 31
0.0
 12
525.3378897715365
 22
271.3413315426285
 32
0.0
 13
525.3378897715365
 23
271.3413315426285
 33
0.0
  0
SOLID
  5
D9
330
D3
100
AcDbEntity
  8
09-01
 62
     4
440
 16777216
100
AcDbTrace
 10
645.0878897718585
 20
272.3829982092952
 30
0.0
 11
645.0878897718585
 21
270.2996648759618
 31
0.0
 12
651.3378897718585
 22
271.3413315426285
 32
0.0
 13
651.3378897718585
 23
271.3413315426285
 33
0.0
  0
MTEXT
  5
DA
330
D3
100
AcDbEntity
  8
09-01
 62
     1
440
 16777216
100
AcDbMText
 10
588.3378897716974
 20
276.9663315426285
 30
0.0
 40
6.25
 41
0.0
 46
0.0
 71
     5
 72
     1
  1
126
 73
     1
 44
1.0
  0
POINT
  5
DB
330
D3
100
AcDbEntity
  8
Defpoints
 62
     0
440
 16777216
100
AcDbPoint
 10
525.3378897715365
 20
287.1484753198997
 30
0.0
  0
POINT
  5
DC
330
D3
100
AcDbEntity
  8
Defpoints
 62
     0
440
 16777216
100
AcDbPoint
 10
651.3378897718585
 20
287.1484753198997
 30
0.0
  0
POINT
  5
DD
330
D3
100
AcDbEntity
  8
Defpoints
 62
     0
440
 16777216
100
AcDbPoint
 10
651.3378897718585
 20
271.3413315426285
 30
0.0
  0
ENDBLK
  5
DE
330
D3
100
AcDbEntity
  8
0
100
AcDbBlockEnd
  0
BLOCK
  5
C1
330
C0
100
AcDbEntity
  8
0
100
AcDbBlockBegin
  2
*D11
 70
     1
 10
0.0
 20
0.0
 30
0.0
  3
*D11
  1

  0
LINE
  5
C2
330
C0
100
AcDbEntity
  8
09-01
 62
     4
440
 16777216
370
    -2
100
AcDbLine
 10
352.4974019601259
 20
206.7734418333962
 30
0.0
 11
393.5786420104344
 21
206.7734418333962
 31
0.0
  0
LINE
  5
C3
330
C0
100
AcDbEntity
  8
09-01
 62
     4
440
 16777216
370
    -2
100
AcDbLine
 10
351.9974019601259
 20
161.0234418333625
 30
0.0
 11
393.5786420104344
 21
161.0234418333625
 31
0.0
  0
LINE
  5
C4
330
C0
100
AcDbEntity
  8
09-01
 62
     4
440
 16777216
370
    -2
100
AcDbLine
 10
391.0786420104344
 20
200.5234418333962
 30
0.0
 11
391.0786420104344
 21
167.2734418333625
 31
0.0
  0
SOLID
  5
C5
330
C0
100
AcDbEntity
  8
09-01
 62
     4
440
 16777216
100
AcDbTrace
 10
390.0369753437677
 20
200.5234418333962
 30
0.0
 11
392.1203086771011
 21
200.5234418333962
 31
0.0
 12
391.0786420104344
 22
206.7734418333962
 32
0.0
 13
391.0786420104344
 23
206.7734418333962
 33
0.0
  0
SOLID
  5
C6
330
C0
100
AcDbEntity
  8
09-01
 62
     4
440
 16777216
100
AcDbTrace
 10
390.0369753437677
 20
167.2734418333625
 30
0.0
 11
392.1203086771011
 21
167.2734418333625
 31
0.0
 12
391.0786420104344
 22
161.0234418333625
 32
0.0
 13
391.0786420104344
 23
161.0234418333625
 33
0.0
  0
MTEXT
  5
C7
330
C0
100
AcDbEntity
  8
09-01
 62
     1
440
 16777216
100
AcDbMText
 10
385.4536420104343
 20
183.8984418333794
 30
0.0
 40
6.25
 41
0.0
 46
0.0
 71
     5
 72
     1
  1
45.75
 11
0.0000000000000001
 21
1.0
 31
0.0
 73
     1
 44
1.0
  0
POINT
  5
C8
330
C0
100
AcDbEntity
  8
Defpoints
 62
     0
440
 16777216
100
AcDbPoint
 10
349.9974019601259
 20
206.7734418333962
 30
0.0
  0
POINT
  5
C9
330
C0
100
AcDbEntity
  8
Defpoints
 62
     0
440
 16777216
100
AcDbPoint
 10
349.4974019601259
 20
161.0234418333625
 30
0.0
  0
POINT
  5
CA
330
C0
100
AcDbEntity
  8
Defpoints
 62
     0
440
 16777216
100
AcDbPoint
 10
391.0786420104344
 20
161.0234418333625
 30
0.0
  0
ENDBLK
  5
CB
330
C0
100
AcDbEntity
  8
0
100
AcDbBlockEnd
  0
BLOCK
  5
B4
330
B3
100
AcDbEntity
  8
0
100
AcDbBlockBegin
  2
*D12
 70
     1
 10
0.0
 20
0.0
 30
0.0
  3
*D12
  1

  0
LINE
  5
B5
330
B3
100
AcDbEntity
  8
09-01
 62
     4
440
 16777216
370
    -2
100
AcDbLine
 10
370.7474019601248
 20
33.27344183336254
 30
0.0
 11
393.5786420104343
 21
33.27344183336254
 31
0.0
  0
LINE
  5
B6
330
B3
100
AcDbEntity
  8
09-01
 62
     4
440
 16777216
370
    -2
100
AcDbLine
 10
351.9974019601259
 20
60.77344183332892
 30
0.0
 11
393.5786420104343
 21
60.77344183332891
 31
0.0
  0
LINE
  5
B7
330
B3
100
AcDbEntity
  8
09-01
 62
     4
440
 16777216
370
    -2
100
AcDbLine
 10
391.0786420104343
 20
39.52344183336254
 30
0.0
 11
391.0786420104343
 21
54.52344183332891
 31
0.0
  0
SOLID
  5
B8
330
B3
100
AcDbEntity
  8
09-01
 62
     4
440
 16777216
100
AcDbTrace
 10
390.0369753437676
 20
39.52344183336254
 30
0.0
 11
392.120308677101
 21
39.52344183336254
 31
0.0
 12
391.0786420104343
 22
33.27344183336254
 32
0.0
 13
391.0786420104343
 23
33.27344183336254
 33
0.0
  0
SOLID
  5
B9
330
B3
100
AcDbEntity
  8
09-01
 62
     4
440
 16777216
100
AcDbTrace
 10
390.0369753437676
 20
54.52344183332891
 30
0.0
 11
392.120308677101
 21
54.52344183332891
 31
0.0
 12
391.0786420104343
 22
60.77344183332891
 32
0.0
 13
391.0786420104343
 23
60.77344183332891
 33
0.0
  0
MTEXT
  5
BA
330
B3
100
AcDbEntity
  8
09-01
 62
     1
440
 16777216
100
AcDbMText
 10
385.4536420104343
 20
47.02344183334579
 30
0.0
 40
6.25
 41
0.0
 46
0.0
 71
     5
 72
     1
  1
27.5
 11
0.0000000000000001
 21
1.0
 31
0.0
 73
     1
 44
1.0
  0
POINT
  5
BB
330
B3
100
AcDbEntity
  8
Defpoints
 62
     0
440
 16777216
100
AcDbPoint
 10
368.2474019601248
 20
33.27344183336254
 30
0.0
  0
POINT
  5
BC
330
B3
100
AcDbEntity
  8
Defpoints
 62
     0
440
 16777216
100
AcDbPoint
 10
349.4974019601259
 20
60.77344183332892
 30
0.0
  0
POINT
  5
BD
330
B3
100
AcDbEntity
  8
Defpoints
 62
     0
440
 16777216
100
AcDbPoint
 10
391.0786420104343
 20
60.77344183332891
 30
0.0
  0
ENDBLK
  5
BE
330
B3
100
AcDbEntity
  8
0
100
AcDbBlockEnd
  0
BLOCK
  5
A7
330
A6
100
AcDbEntity
  8
0
100
AcDbBlockBegin
  2
*D13
 70
     1
 10
0.0
 20
0.0
 30
0.0
  3
*D13
  1

  0
LINE
  5
A8
330
A6
100
AcDbEntity
  8
09-01
 62
     4
440
 16777216
370
    -2
100
AcDbLine
 10
351.9974019601259
 20
60.77344183332892
 30
0.0
 11
393.5786420104343
 21
60.77344183332891
 31
0.0
  0
LINE
  5
A9
330
A6
100
AcDbEntity
  8
09-01
 62
     4
440
 16777216
370
    -2
100
AcDbLine
 10
351.9974019601259
 20
106.5234418333626
 30
0.0
 11
393.5786420104343
 21
106.5234418333625
 31
0.0
  0
LINE
  5
AA
330
A6
100
AcDbEntity
  8
09-01
 62
     4
440
 16777216
370
    -2
100
AcDbLine
 10
391.0786420104343
 20
67.02344183332892
 30
0.0
 11
391.0786420104343
 21
100.2734418333625
 31
0.0
  0
SOLID
  5
AB
330
A6
100
AcDbEntity
  8
09-01
 62
     4
440
 16777216
100
AcDbTrace
 10
390.0369753437676
 20
67.02344183332892
 30
0.0
 11
392.120308677101
 21
67.02344183332892
 31
0.0
 12
391.0786420104343
 22
60.77344183332891
 32
0.0
 13
391.0786420104343
 23
60.77344183332891
 33
0.0
  0
SOLID
  5
AC
330
A6
100
AcDbEntity
  8
09-01
 62
     4
440
 16777216
100
AcDbTrace
 10
390.0369753437676
 20
100.2734418333625
 30
0.0
 11
392.120308677101
 21
100.2734418333625
 31
0.0
 12
391.0786420104343
 22
106.5234418333625
 32
0.0
 13
391.0786420104343
 23
106.5234418333625
 33
0.0
  0
MTEXT
  5
AD
330
A6
100
AcDbEntity
  8
09-01
 62
     1
440
 16777216
100
AcDbMText
 10
385.4536420104343
 20
83.64844183334581
 30
0.0
 40
6.25
 41
0.0
 46
0.0
 71
     5
 72
     1
  1
45.75
 11
0.0000000000000001
 21
1.0
 31
0.0
 73
     1
 44
1.0
  0
POINT
  5
AE
330
A6
100
AcDbEntity
  8
Defpoints
 62
     0
440
 16777216
100
AcDbPoint
 10
349.4974019601259
 20
60.77344183332892
 30
0.0
  0
POINT
  5
AF
330
A6
100
AcDbEntity
  8
Defpoints
 62
     0
440
 16777216
100
AcDbPoint
 10
349.4974019601259
 20
106.5234418333626
 30
0.0
  0
POINT
  5
B0
330
A6
100
AcDbEntity
  8
Defpoints
 62
     0
440
 16777216
100
AcDbPoint
 10
391.0786420104343
 20
106.5234418333625
 30
0.0
  0
ENDBLK
  5
B1
330
A6
100
AcDbEntity
  8
0
100
AcDbBlockEnd
  0
BLOCK
  5
9A
330
99
100
AcDbEntity
  8
0
100
AcDbBlockBegin
  2
*D14
 70
     1
 10
0.0
 20
0.0
 30
0.0
  3
*D14
  1

  0
LINE
  5
9B
330
99
100
AcDbEntity
  8
09-01
 62
     4
440
 16777216
370
    -2
100
AcDbLine
 10
70.24740196012476
 20
233.7734418333625
 30
0.0
 11
70.24740196012476
 21
243.7806661291538
 31
0.0
  0
LINE
  5
9C
330
99
100
AcDbEntity
  8
09-01
 62
     4
440
 16777216
370
    -2
100
AcDbLine
 10
91.49740196012359
 20
209.2734418333962
 30
0.0
 11
91.49740196012359
 21
243.7806661291538
 31
0.0
  0
LINE
  5
9D
330
99
100
AcDbEntity
  8
09-01
 62
     4
440
 16777216
370
    -2
100
AcDbLine
 10
76.49740196012476
 20
241.2806661291538
 30
0.0
 11
85.24740196012359
 21
241.2806661291538
 31
0.0
  0
MTEXT
  5
9E
330
99
100
AcDbEntity
  8
09-01
 62
     1
440
 16777216
100
AcDbMText
 10
55.31583677777326
 20
246.3816800433842
 30
0.0
 40
6.25
 41
0.0
 46
0.0
 71
     5
 72
     1
  1
21.25
 73
     1
 44
1.0
  0
SOLID
  5
9F
330
99
100
AcDbEntity
  8
09-01
 62
     4
440
 16777216
100
AcDbTrace
 10
76.49740196012476
 20
242.3223327958205
 30
0.0
 11
76.49740196012476
 21
240.2389994624872
 31
0.0
 12
70.24740196012476
 22
241.2806661291538
 32
0.0
 13
70.24740196012476
 23
241.2806661291538
 33
0.0
  0
SOLID
  5
A0
330
99
100
AcDbEntity
  8
09-01
 62
     4
440
 16777216
100
AcDbTrace
 10
85.24740196012359
 20
242.3223327958205
 30
0.0
 11
85.24740196012359
 21
240.2389994624872
 31
0.0
 12
91.49740196012359
 22
241.2806661291538
 32
0.0
 13
91.49740196012359
 23
241.2806661291538
 33
0.0
  0
POINT
  5
A1
330
99
100
AcDbEntity
  8
Defpoints
 62
     0
440
 16777216
100
AcDbPoint
 10
70.24740196012476
 20
231.2734418333625
 30
0.0
  0
POINT
  5
A2
330
99
100
AcDbEntity
  8
Defpoints
 62
     0
440
 16777216
100
AcDbPoint
 10
91.49740196012359
 20
206.7734418333962
 30
0.0
  0
POINT
  5
A3
330
99
100
AcDbEntity
  8
Defpoints
 62
     0
440
 16777216
100
AcDbPoint
 10
91.49740196012359
 20
241.2806661291538
 30
0.0
  0
ENDBLK
  5
A4
330
99
100
AcDbEntity
  8
0
100
AcDbBlockEnd
  0
BLOCK
  5
8D
330
8C
100
AcDbEntity
  8
0
100
AcDbBlockBegin
  2
*D15
 70
     1
 10
0.0
 20
0.0
 30
0.0
  3
*D15
  1

  0
LINE
  5
8E
330
8C
100
AcDbEntity
  8
09-01
 62
     4
440
 16777216
370
    -2
100
AcDbLine
 10
91.49740196012359
 20
209.2734418333962
 30
0.0
 11
91.49740196012359
 21
243.7806661291538
 31
0.0
  0
LINE
  5
8F
330
8C
100
AcDbEntity
  8
09-01
 62
     4
440
 16777216
370
    -2
100
AcDbLine
 10
349.9974019601259
 20
209.2734418333962
 30
0.0
 11
349.9974019601259
 21
243.7806661291538
 31
0.0
  0
LINE
  5
90
330
8C
100
AcDbEntity
  8
09-01
 62
     4
440
 16777216
370
    -2
100
AcDbLine
 10
97.74740196012359
 20
241.2806661291538
 30
0.0
 11
343.7474019601259
 21
241.2806661291538
 31
0.0
  0
SOLID
  5
91
330
8C
100
AcDbEntity
  8
09-01
 62
     4
440
 16777216
100
AcDbTrace
 10
97.74740196012359
 20
242.3223327958205
 30
0.0
 11
97.74740196012359
 21
240.2389994624872
 31
0.0
 12
91.49740196012359
 22
241.2806661291538
 32
0.0
 13
91.49740196012359
 23
241.2806661291538
 33
0.0
  0
SOLID
  5
92
330
8C
100
AcDbEntity
  8
09-01
 62
     4
440
 16777216
100
AcDbTrace
 10
343.7474019601259
 20
242.3223327958205
 30
0.0
 11
343.7474019601259
 21
240.2389994624872
 31
0.0
 12
349.9974019601259
 22
241.2806661291538
 32
0.0
 13
349.9974019601259
 23
241.2806661291538
 33
0.0
  0
MTEXT
  5
93
330
8C
100
AcDbEntity
  8
09-01
 62
     1
440
 16777216
100
AcDbMText
 10
220.7474019601248
 20
246.9056661291538
 30
0.0
 40
6.25
 41
0.0
 46
0.0
 71
     5
 72
     1
  1
258.5
 73
     1
 44
1.0
  0
POINT
  5
94
330
8C
100
AcDbEntity
  8
Defpoints
 62
     0
440
 16777216
100
AcDbPoint
 10
91.49740196012359
 20
206.7734418333962
 30
0.0
  0
POINT
  5
95
330
8C
100
AcDbEntity
  8
Defpoints
 62
     0
440
 16777216
100
AcDbPoint
 10
349.9974019601259
 20
206.7734418333962
 30
0.0
  0
POINT
  5
96
330
8C
100
AcDbEntity
  8
Defpoints
 62
     0
440
 16777216
100
AcDbPoint
 10
349.9974019601259
 20
241.2806661291538
 30
0.0
  0
ENDBLK
  5
97
330
8C
100
AcDbEntity
  8
0
100
AcDbBlockEnd
  0
BLOCK
  5
7E
330
7D
100
AcDbEntity
  8
0
100
AcDbBlockBegin
  2
*D16
 70
     1
 10
0.0
 20
0.0
 30
0.0
  3
*D16
  1

  0
LINE
  5
7F
330
7D
100
AcDbEntity
  8
09-01
 62
     4
440
 16777216
370
    -2
100
AcDbLine
 10
349.9974019601259
 20
209.2734418333962
 30
0.0
 11
349.9974019601259
 21
243.7806661291538
 31
0.0
  0
LINE
  5
80
330
7D
100
AcDbEntity
  8
09-01
 62
     4
440
 16777216
370
    -2
100
AcDbLine
 10
371.2474019601248
 20
233.7734418333625
 30
0.0
 11
371.2474019601248
 21
243.7806661291538
 31
0.0
  0
LINE
  5
81
330
7D
100
AcDbEntity
  8
09-01
 62
     4
440
 16777216
370
    -2
100
AcDbLine
 10
356.2474019601259
 20
241.2806661291538
 30
0.0
 11
364.9974019601248
 21
241.2806661291538
 31
0.0
  0
MTEXT
  5
82
330
7D
100
AcDbEntity
  8
09-01
 62
     1
440
 16777216
100
AcDbMText
 10
387.4642611613544
 20
245.9777405314558
 30
0.0
 40
6.25
 41
0.0
 46
0.0
 71
     5
 72
     1
  1
21.25
 73
     1
 44
1.0
  0
SOLID
  5
83
330
7D
100
AcDbEntity
  8
09-01
 62
     4
440
 16777216
100
AcDbTrace
 10
356.2474019601259
 20
242.3223327958205
 30
0.0
 11
356.2474019601259
 21
240.2389994624872
 31
0.0
 12
349.9974019601259
 22
241.2806661291538
 32
0.0
 13
349.9974019601259
 23
241.2806661291538
 33
0.0
  0
SOLID
  5
84
330
7D
100
AcDbEntity
  8
09-01
 62
     4
440
 16777216
100
AcDbTrace
 10
364.9974019601248
 20
242.3223327958205
 30
0.0
 11
364.9974019601248
 21
240.2389994624872
 31
0.0
 12
371.2474019601248
 22
241.2806661291538
 32
0.0
 13
371.2474019601248
 23
241.2806661291538
 33
0.0
  0
POINT
  5
85
330
7D
100
AcDbEntity
  8
Defpoints
 62
     0
440
 16777216
100
AcDbPoint
 10
349.9974019601259
 20
206.7734418333962
 30
0.0
  0
POINT
  5
87
330
7D
100
AcDbEntity
  8
Defpoints
 62
     0
440
 16777216
100
AcDbPoint
 10
371.2474019601248
 20
231.2734418333625
 30
0.0
  0
POINT
  5
88
330
7D
100
AcDbEntity
  8
Defpoints
 62
     0
440
 16777216
100
AcDbPoint
 10
371.2474019601248
 20
241.2806661291538
 30
0.0
  0
ENDBLK
  5
89
330
7D
100
AcDbEntity
  8
0
100
AcDbBlockEnd
  0
ENDSEC
  0
SECTION
  2
ENTITIES
  0
DIMENSION
  5
7C
330
2
100
AcDbEntity
  8
09-01
100
AcDbDimension
280
     0
  2
*D16
 10
371.2474019601248
 20
241.2806661291538
 30
0.0
 11
387.4642611613544
 21
245.9777405314558
 31
0.0
 70
   128
 71
     5
 42
21.24999999999886
 73
     0
 74
     0
 75
     0
  3
Wagner$0
100
AcDbAlignedDimension
 13
349.9974019601259
 23
206.7734418333962
 33
0.0
 14
371.2474019601248
 24
231.2734418333625
 34
0.0
100
AcDbRotatedDimension
1001
ACAD
1000
DSTYLE
1002
{
1070
    40
1040
2.5
1002
}
  0
DIMENSION
  5
8B
330
2
100
AcDbEntity
  8
09-01
100
AcDbDimension
280
     0
  2
*D15
 10
349.9974019601259
 20
241.2806661291538
 30
0.0
 11
220.7474019601248
 21
246.9056661291538
 31
0.0
 71
     5
 42
258.5000000000023
 73
     0
 74
     0
 75
     0
  3
Wagner$0
100
AcDbAlignedDimension
 13
91.49740196012359
 23
206.7734418333962
 33
0.0
 14
349.9974019601259
 24
206.7734418333962
 34
0.0
100
AcDbRotatedDimension
1001
ACAD
1000
DSTYLE
1002
{
1070
    40
1040
2.5
1002
}
  0
DIMENSION
  5
98
330
2
100
AcDbEntity
  8
09-01
100
AcDbDimension
280
     0
  2
*D14
 10
91.49740196012359
 20
241.2806661291538
 30
0.0
 11
55.31583677777326
 21
246.3816800433842
 31
0.0
 70
   128
 71
     5
 42
21.24999999999884
 73
     0
 74
     0
 75
     0
  3
Wagner$0
100
AcDbAlignedDimension
 13
70.24740196012476
 23
231.2734418333625
 33
0.0
 14
91.49740196012359
 24
206.7734418333962
 34
0.0
100
AcDbRotatedDimension
1001
ACAD
1000
DSTYLE
1002
{
1070
    40
1040
2.5
1002
}
  0
DIMENSION
  5
A5
330
2
100
AcDbEntity
  8
09-01
100
AcDbDimension
280
     0
  2
*D13
 10
391.0786420104343
 20
106.5234418333625
 30
0.0
 11
385.4536420104343
 21
83.64844183334581
 31
0.0
 71
     5
 42
45.75000000003367
 73
     0
 74
     0
 75
     0
  3
Wagner$0
100
AcDbAlignedDimension
 13
349.4974019601259
 23
60.77344183332892
 33
0.0
 14
349.4974019601259
 24
106.5234418333626
 34
0.0
 50
90.0
100
AcDbRotatedDimension
1001
ACAD
1000
DSTYLE
1002
{
1070
    40
1040
2.5
1002
}
  0
DIMENSION
  5
B2
330
2
100
AcDbEntity
  8
09-01
100
AcDbDimension
280
     0
  2
*D12
 10
391.0786420104343
 20
60.77344183332891
 30
0.0
 11
385.4536420104343
 21
47.02344183334579
 31
0.0
 71
     5
 42
27.49999999996637
 73
     0
 74
     0
 75
     0
  3
Wagner$0
100
AcDbAlignedDimension
 13
368.2474019601248
 23
33.27344183336254
 33
0.0
 14
349.4974019601259
 24
60.77344183332892
 34
0.0
 50
90.0
100
AcDbRotatedDimension
1001
ACAD
1000
DSTYLE
1002
{
1070
    40
1040
2.5
1002
}
  0
DIMENSION
  5
BF
330
2
100
AcDbEntity
  8
09-01
100
AcDbDimension
280
     0
  2
*D11
 10
391.0786420104344
 20
161.0234418333625
 30
0.0
 11
385.4536420104343
 21
183.8984418333794
 31
0.0
 71
     5
 42
45.75000000003368
 73
     0
 74
     0
 75
     0
  3
Wagner$0
100
AcDbAlignedDimension
 13
349.9974019601259
 23
206.7734418333962
 33
0.0
 14
349.4974019601259
 24
161.0234418333625
 34
0.0
 50
90.0
100
AcDbRotatedDimension
1001
ACAD
1000
DSTYLE
1002
{
1070
    40
1040
2.5
1002
}
  0
LINE
  5
CC
330
2
100
AcDbEntity
  8
03-01
100
AcDbLine
 10
110.0885323048681
 20
423.1401473493514
 30
0.0
 11
202.688532304868
 21
423.1401473493515
 31
0.0
  0
LINE
  5
D1
330
2
100
AcDbEntity
  8
03-01
100
AcDbLine
 10
542.037889771587
 20
423.1484753198926
 30
0.0
 11
634.637889771587
 21
423.1484753198927
 31
0.0
  0
DIMENSION
  5
D2
330
2
100
AcDbEntity
  8
09-01
100
AcDbDimension
280
     0
  2
*D10
 10
651.3378897718585
 20
271.3413315426285
 30
0.0
 11
588.3378897716974
 21
276.9663315426285
 31
0.0
 71
     5
 42
126.0000000003219
 73
     0
 74
     0
 75
     0
  3
Wagner$0
100
AcDbAlignedDimension
 13
525.3378897715365
 23
287.1484753198997
 33
0.0
 14
651.3378897718585
 24
287.1484753198997
 34
0.0
100
AcDbRotatedDimension
1001
ACAD
1000
DSTYLE
1002
{
1070
    40
1040
2.5
1002
}
  0
LINE
  5
DF
330
2
100
AcDbEntity
  8
03-01
100
AcDbLine
 10
542.1790201163284
 20
289.1568032904345
 30
0.0
 11
634.7790201163284
 21
289.1568032904343
 31
0.0
  0
LINE
  5
E0
330
2
100
AcDbEntity
  8
03-01
100
AcDbLine
 10
515.3378897715496
 20
472.1484753201033
 30
0.0
 11
515.3378897715494
 21
471.1484753198998
 31
0.0
  0
LINE
  5
E1
330
2
100
AcDbEntity
  8
09-01
100
AcDbLine
 10
487.8926708178507
 20
471.103190687223
 30
0.0
 11
688.7831087252195
 21
471.103190687223
 31
0.0
  0
LINE
  5
E2
330
2
100
AcDbEntity
  8
03-01
100
AcDbLine
 10
331.5474019601176
 20
289.1484753198928
 30
0.0
 11
238.9474019601177
 21
289.1484753198928
 31
0.0
  0
LINE
  5
E3
330
2
100
AcDbEntity
  8
03-01
100
AcDbLine
 10
109.9474019601265
 20
289.1484753198928
 30
0.0
 11
202.5474019601264
 21
289.1484753198927
 31
0.0
  0
LINE
  5
E4
330
2
100
AcDbEntity
  8
09-01
100
AcDbLine
 10
70.30218300641019
 20
471.1031906872189
 30
0.0
 11
371.1926209138393
 21
471.1031906872189
 31
0.0
  0
INSERT
  5
E5
330
2
100
AcDbEntity
  8
09-01
100
AcDbBlockReference
 66
     1
  2
DIN A3
 10
0.0000004604480637
 20
-0.0000015227592485
 30
0.0
 41
2.0
 42
2.0
 43
2.0
  0
ATTRIB
  5
28D
330
E5
100
AcDbEntity
  8
06-99
100
AcDbText
 10
650.990893478272
 20
54.37567739456312
 30
0.0
 40
9.0
  1
Handtuchspender WP 117
 41
0.9
  7
ROMANS8
100
AcDbAttribute
280
     0
  2
TEILE
 70
     0
280
     0
  0
ATTRIB
  5
28E
330
E5
100
AcDbEntity
  8
06-99
100
AcDbText
 10
650.990893478272
 20
39.7835472070849
 30
0.0
 40
9.0
  1

 41
0.9
  7
ROMANS8
100
AcDbAttribute
280
     0
  2
TEILE2
 70
     0
280
     0
  0
ATTRIB
  5
28F
330
E5
100
AcDbEntity
  8
06-99
100
AcDbText
 10
800.6947724233468
 20
92.66666666666537
 30
0.0
 40
6.75
  1
1:2
  7
ROMANS8
100
AcDbAttribute
280
     0
  2
:
 70
     0
280
     0
  0
ATTRIB
  5
290
330
E5
100
AcDbEntity
  8
06-99
100
AcDbText
 10
603.9941355986525
 20
56.88337093606128
 30
0.0
 40
5.0
  1
Pfrepper
 41
0.9
  7
ROMANS8
100
AcDbAttribute
280
     0
  2
NAME
 70
     0
280
     0
  0
ATTRIB
  5
291
330
E5
100
AcDbEntity
  8
06-99
100
AcDbText
 10
576.9862929037058
 20
56.92247034822116
 30
0.0
 40
5.0
  1
31.03.2011
 50
359.9144597696142
 41
0.5524647187174877
  7
ROMANS8
 72
     5
 11
599.4794742407953
 21
56.88888893333206
 31
0.0
100
AcDbAttribute
280
     0
  2
DATUM
 70
     0
280
     0
  0
ATTRIB
  5
292
330
E5
100
AcDbEntity
  8
06-99
100
AcDbText
 10
775.0126879342342
 20
16.98579960057611
 30
0.0
 40
5.98752
  1
727040
  7
ROMANS8
100
AcDbAttribute
280
     0
  2
ID.NR
 70
     0
280
     0
  0
ATTRIB
  5
293
330
E5
100
AcDbEntity
  8
06-99
100
AcDbText
 10
651.4625325113388
 20
77.33333328888761
 30
0.0
 40
6.0
  1

 41
0.9
  7
ROMANS8
100
AcDbAttribute
280
     0
  2
LÄNGE
 70
     0
280
     0
  0
ATTRIB
  5
294
330
E5
100
AcDbEntity
  8
06-99
100
AcDbText
 10
718.361609823457
 20
77.35620774088835
 30
0.0
 40
6.0
  1

 41
0.9
  7
ROMANS8
100
AcDbAttribute
280
     0
  2
BREITE
 70
     0
280
     0
  0
ATTRIB
  5
295
330
E5
100
AcDbEntity
  8
06-99
100
AcDbText
 10
799.2181842533814
 20
77.33333333333224
 30
0.0
 40
6.187500000000001
  1

  7
ROMANS8
100
AcDbAttribute
280
     0
  2
1.0
 70
     0
280
     0
  0
ATTRIB
  5
296
330
E5
100
AcDbEntity
  8
06-99
100
AcDbText
 10
746.2555712027233
 20
92.6666666666656
 30
0.0
 40
6.0
  1

  7
ROMANS8
 72
     1
 11
746.2555712027233
 21
92.6666666666656
 31
0.0
100
AcDbAttribute
280
     0
  2
IV
 70
     0
280
     0
  0
ATTRIB
  5
297
330
E5
100
AcDbEntity
  8
06-99
100
AcDbText
 10
664.5494810721493
 20
92.66666666666514
 30
0.0
 40
6.75
  1
1.4301
  7
ROMANS8
100
AcDbAttribute
280
     0
  2
1.4301
 70
     0
280
     0
  0
ATTRIB
  5
298
330
E5
100
AcDbEntity
  8
06-99
100
AcDbText
 10
710.0012677736777
 20
17.00879320870797
 30
0.0
 40
6.336
  1

 41
0.9000000000000001
  7
ROMANS8
100
AcDbAttribute
280
     0
  2
AUFTRAGS.NR.
 70
     0
280
     0
  0
ATTRIB
  5
299
330
E5
100
AcDbEntity
  8
06-99
100
AcDbText
 10
650.9999999999177
 20
16.99999999999875
 30
0.0
 40
6.336
  1

 41
0.9000000000000001
  7
ROMANS8
100
AcDbAttribute
280
     0
  2
SONDER-NR
 70
     0
280
     0
  0
ATTRIB
  5
29A
330
E5
100
AcDbEntity
  8
06-99
100
AcDbText
 10
510.9995019899343
 20
15.20362013851843
 30
0.0
 40
3.0
  1

 41
0.9
  7
ROMANS8
100
AcDbAttribute
280
     0
  2
ERSETZT.DURCH
 70
     0
280
     0
  0
ATTRIB
  5
29B
330
E5
100
AcDbEntity
  8
06-99
100
AcDbText
 10
460.9989355603147
 20
15.19491279574356
 30
0.0
 40
3.0
  1

 41
0.9
  7
ROMANS8
100
AcDbAttribute
280
     0
  2
ERSETZT.FÜR
 70
     0
280
     0
  0
ATTRIB
  5
29C
330
E5
100
AcDbEntity
  8
06-99
100
AcDbText
 10
617.7010024356498
 20
97.33702228001471
 30
0.0
 40
2.574
  1
DIN A3
  7
ROMANS8
 72
     1
 11
624.5037167213641
 21
97.33702228001471
 31
0.0
100
AcDbAttribute
280
     0
  2
FORMAT
 70
     0
280
     0
  0
ATTRIB
  5
29D
330
E5
100
AcDbEntity
  8
06-99
100
AcDbText
 10
608.9799999999176
 20
76.79333333333204
 30
0.0
 40
4.68
  1
DIN 2768
  7
ROMANS8
 72
     1
 11
626.0285714284891
 21
76.79333333333204
 31
0.0
100
AcDbAttribute
280
     0
  2
NORM2
 70
     0
280
     0
  0
ATTRIB
  5
29E
330
E5
100
AcDbEntity
  8
06-99
100
AcDbText
 10
625.0257142856317
 20
84.45999999999868
 30
0.0
 40
4.68
  1

  7
ROMANS8
 72
     1
 11
625.0257142856317
 21
84.45999999999868
 31
0.0
100
AcDbAttribute
280
     0
  2
NORM1
 70
     0
280
     0
  0
SEQEND
  5
29F
330
E5
100
AcDbEntity
  8
09-01
  0
DIMENSION
  5
2A0
330
2
100
AcDbEntity
  8
09-01
100
AcDbDimension
280
     0
  2
*D9
 10
404.9624237969255
 20
33.27344183336253
 30
0.0
 11
399.3374237969256
 21
133.7734418333626
 31
0.0
 71
     5
 42
201.0
 73
     0
 74
     0
 75
     0
  3
Wagner$0
100
AcDbAlignedDimension
 13
368.2474019601248
 23
234.2734418333626
 33
0.0
 14
368.2474019601248
 24
33.27344183336254
 34
0.0
 50
90.0
100
AcDbRotatedDimension
1001
ACAD
1000
DSTYLE
1002
{
1070
    40
1040
2.5
1002
}
  0
LINE
  5
2AD
330
2
100
AcDbEntity
  8
03-01
100
AcDbLine
 10
349.9974019601259
 20
64.27344183336259
 30
0.0
 11
91.49740196012359
 21
64.27344183336261
 31
0.0
  0
LINE
  5
2AE
330
2
100
AcDbEntity
  8
05-01
100
AcDbLine
 10
91.49740196012359
 20
67.27344183336256
 30
0.0
 11
349.9974019601259
 21
67.2734418333626
 31
0.0
  0
LINE
  5
2B3
330
2
100
AcDbEntity
  8
03-01
100
AcDbLine
 10
91.49740196012359
 20
70.27344183336264
 30
0.0
 11
349.9974019601259
 21
70.27344183336264
 31
0.0
  0
LINE
  5
2B4
330
2
100
AcDbEntity
  8
0
100
AcDbLine
 10
349.4974019601259
 20
60.77344183332892
 30
0.0
 11
349.4974019601259
 21
106.5234418333626
 31
0.0
  0
LINE
  5
2B5
330
2
100
AcDbEntity
  8
0
100
AcDbLine
 10
349.4974019601259
 20
106.5234418333626
 30
0.0
 11
91.9974019601236
 21
106.5234418333626
 31
0.0
  0
LINE
  5
2B6
330
2
100
AcDbEntity
  8
0
100
AcDbLine
 10
91.9974019601236
 20
60.77344183332892
 30
0.0
 11
91.9974019601236
 21
106.5234418333626
 31
0.0
  0
CIRCLE
  5
2B7
330
2
100
AcDbEntity
  8
01-01
100
AcDbCircle
 10
624.337889771587
 20
393.6484753198997
 30
0.0
 40
3.0
  0
CIRCLE
  5
2BB
330
2
100
AcDbEntity
  8
01-01
100
AcDbCircle
 10
624.337889771587
 20
423.6484753198997
 30
0.0
 40
3.0
  0
CIRCLE
  5
2BC
330
2
100
AcDbEntity
  8
01-01
100
AcDbCircle
 10
552.337889771587
 20
423.6484753198997
 30
0.0
 40
3.0
  0
CIRCLE
  5
2BD
330
2
100
AcDbEntity
  8
01-01
100
AcDbCircle
 10
552.337889771587
 20
393.6484753198997
 30
0.0
 40
3.0
  0
LINE
  5
2BE
330
2
100
AcDbEntity
  8
01-01
100
AcDbLine
 10
632.3378897715869
 20
438.6484753198997
 30
0.0
 11
631.337889771587
 21
438.6484753198997
 31
0.0
  0
ARC
  5
2BF
330
2
100
AcDbEntity
  8
01-01
100
AcDbCircle
 10
631.337889771587
 20
386.6484753198997
 30
0.0
 40
3.0
100
AcDbArc
 50
270.0
 51
0.0
  0
ARC
  5
2C0
330
2
100
AcDbEntity
  8
01-01
100
AcDbCircle
 10
632.3378897715869
 20
436.6484753198997
 30
0.0
 40
2.0
100
AcDbArc
 50
0.0
 51
90.0
  0
LINE
  5
2C1
330
2
100
AcDbEntity
  8
01-01
100
AcDbLine
 10
634.337889771587
 20
386.6484753198997
 30
0.0
 11
634.3378897715869
 21
436.6484753198997
 31
0.0
  0
ARC
  5
2C2
330
2
100
AcDbEntity
  8
01-01
100
AcDbCircle
 10
617.3378897715869
 20
386.6484753198997
 30
0.0
 40
3.0
100
AcDbArc
 50
180.0
 51
270.0
  0
LINE
  5
2C3
330
2
100
AcDbEntity
  8
01-01
100
AcDbLine
 10
617.3378897715869
 20
383.6484753198997
 30
0.0
 11
631.337889771587
 21
383.6484753198997
 31
0.0
  0
ARC
  5
2C4
330
2
100
AcDbEntity
  8
01-01
100
AcDbCircle
 10
616.3378897715869
 20
436.6484753198997
 30
0.0
 40
2.0
100
AcDbArc
 50
90.0
 51
180.0
  0
LINE
  5
2C5
330
2
100
AcDbEntity
  8
01-01
100
AcDbLine
 10
614.3378897715868
 20
436.6484753198997
 30
0.0
 11
614.3378897715868
 21
386.6484753198997
 31
0.0
  0
LINE
  5
2C6
330
2
100
AcDbEntity
  8
01-01
100
AcDbLine
 10
617.337889771587
 20
438.6484753198997
 30
0.0
 11
616.3378897715869
 21
438.6484753198997
 31
0.0
  0
LINE
  5
2C7
330
2
100
AcDbEntity
  8
01-01
100
AcDbLine
 10
560.3378897715868
 20
438.6484753198997
 30
0.0
 11
559.337889771587
 21
438.6484753198997
 31
0.0
  0
ARC
  5
2C8
330
2
100
AcDbEntity
  8
01-01
100
AcDbCircle
 10
559.337889771587
 20
386.6484753198997
 30
0.0
 40
3.0
100
AcDbArc
 50
270.0
 51
0.0
  0
ARC
  5
2C9
330
2
100
AcDbEntity
  8
01-01
100
AcDbCircle
 10
560.3378897715868
 20
436.6484753198997
 30
0.0
 40
2.0
100
AcDbArc
 50
0.0
 51
90.0
  0
LINE
  5
2CA
330
2
100
AcDbEntity
  8
01-01
100
AcDbLine
 10
562.337889771587
 20
386.6484753198997
 30
0.0
 11
562.3378897715869
 21
436.6484753198997
 31
0.0
  0
ARC
  5
2CB
330
2
100
AcDbEntity
  8
01-01
100
AcDbCircle
 10
545.3378897715869
 20
386.6484753198997
 30
0.0
 40
3.0
100
AcDbArc
 50
180.0
 51
270.0
  0
LINE
  5
2CC
330
2
100
AcDbEntity
  8
01-01
100
AcDbLine
 10
545.3378897715869
 20
383.6484753198997
 30
0.0
 11
559.337889771587
 21
383.6484753198997
 31
0.0
  0
ARC
  5
2CD
330
2
100
AcDbEntity
  8
01-01
100
AcDbCircle
 10
544.337889771587
 20
436.6484753198997
 30
0.0
 40
2.0
100
AcDbArc
 50
90.0
 51
180.0
  0
LINE
  5
2CE
330
2
100
AcDbEntity
  8
01-01
100
AcDbLine
 10
542.337889771587
 20
436.6484753198997
 30
0.0
 11
542.3378897715869
 21
386.6484753198997
 31
0.0
  0
LINE
  5
2CF
330
2
100
AcDbEntity
  8
01-01
100
AcDbLine
 10
545.337889771587
 20
438.6484753198997
 30
0.0
 11
544.337889771587
 21
438.6484753198997
 31
0.0
  0
DIMENSION
  5
2D0
330
2
100
AcDbEntity
  8
09-01
100
AcDbDimension
280
     0
  2
*D7
 10
353.7474019601228
 20
496.5651816795452
 30
0.0
 11
220.7474019601237
 21
502.1901816795453
 31
0.0
  1
Ausschnitt <>
 71
     5
 42
265.9999999999982
 73
     0
 74
     0
 75
     0
  3
Wagner$0
100
AcDbAlignedDimension
 13
87.74740196012462
 23
471.1522806218083
 33
0.0
 14
353.7474019601228
 24
471.1484753198998
 34
0.0
100
AcDbRotatedDimension
1001
ACAD
1000
DSTYLE
1002
{
1070
    40
1040
2.5
1002
}
  0
LINE
  5
2DD
330
2
100
AcDbEntity
  8
0
100
AcDbLine
 10
688.7831087252195
 20
471.103190687223
 30
0.0
 11
688.8876371884872
 21
472.0977125825913
 31
0.0
  0
LINE
  5
2DE
330
2
100
AcDbEntity
  8
0
100
AcDbLine
 10
678.9265025800432
 20
473.14467001799
 30
0.0
 11
688.8876371884872
 21
472.0977125825913
 31
0.0
  0
LINE
  5
2DF
330
2
100
AcDbEntity
  8
03-01
100
AcDbLine
 10
678.8378897715367
 20
472.1484753198994
 30
0.0
 11
688.7831087252195
 21
471.103190687223
 31
0.0
  0
LINE
  5
2E0
330
2
100
AcDbEntity
  8
0
100
AcDbLine
 10
487.8926708178507
 20
471.103190687223
 30
0.0
 11
487.788142354583
 21
472.0977125825913
 31
0.0
  0
LINE
  5
2E1
330
2
100
AcDbEntity
  8
0
100
AcDbLine
 10
497.7492769630388
 20
473.1446700179913
 30
0.0
 11
487.788142354583
 21
472.0977125825913
 31
0.0
  0
LINE
  5
2E2
330
2
100
AcDbEntity
  8
03-01
100
AcDbLine
 10
497.8378897715335
 20
472.1484753198994
 30
0.0
 11
487.8926708178507
 21
471.103190687223
 31
0.0
  0
DIMENSION
  5
2E3
330
2
100
AcDbEntity
  8
09-01
100
AcDbDimension
280
     0
  2
*D6
 10
665.8378897716369
 20
494.6764083540865
 30
0.0
 11
588.337889771587
 21
500.3014083540866
 31
0.0
  1
Ausschnitt <>
 71
     5
 42
155.0000000000998
 73
     0
 74
     0
 75
     0
  3
Wagner$0
100
AcDbAlignedDimension
 13
510.8378897715371
 23
471.1522806201787
 33
0.0
 14
665.8378897716369
 24
471.1522806201787
 34
0.0
100
AcDbRotatedDimension
1001
ACAD
1000
DSTYLE
1002
{
1070
    40
1040
2.5
1002
}
  0
LINE
  5
2F0
330
2
100
AcDbEntity
  8
05-01
100
AcDbLine
 10
701.1813737274169
 20
451.1522806201788
 30
0.0
 11
665.8378897716362
 21
451.1522806201786
 31
0.0
  0
LINE
  5
2F1
330
2
100
AcDbEntity
  8
05-01
100
AcDbLine
 10
701.1813737274169
 20
471.1522806201787
 30
0.0
 11
665.8378897716369
 21
471.1522806201787
 31
0.0
  0
LINE
  5
2F2
330
2
100
AcDbEntity
  8
05-01
100
AcDbLine
 10
665.8378897716362
 20
451.1522806201786
 30
0.0
 11
665.8378897716369
 21
471.1522806201787
 31
0.0
  0
LINE
  5
2F3
330
2
100
AcDbEntity
  8
05-01
100
AcDbLine
 10
475.4944058157571
 20
451.1522806201788
 30
0.0
 11
510.8378897715377
 21
451.1522806201786
 31
0.0
  0
LINE
  5
2F4
330
2
100
AcDbEntity
  8
05-01
100
AcDbLine
 10
475.4944058157571
 20
471.1522806201787
 30
0.0
 11
510.8378897715371
 21
471.1522806201787
 31
0.0
  0
LINE
  5
2F5
330
2
100
AcDbEntity
  8
05-01
100
AcDbLine
 10
510.8378897715377
 20
451.1522806201786
 30
0.0
 11
510.8378897715371
 21
471.1522806201787
 31
0.0
  0
TEXT
  5
2F6
330
2
100
AcDbEntity
  8
02-01
100
AcDbText
 10
554.3796119361377
 20
137.2832803923647
 30
0.0
 40
15.0
  1
Einbaumaß: 266 x 155mm
  7
Bemaßung
100
AcDbText
  0
LINE
  5
2F7
330
2
100
AcDbEntity
  8
0
100
AcDbLine
 10
371.1926209138393
 20
471.1031906872189
 30
0.0
 11
371.297149377107
 21
472.0977125825873
 31
0.0
  0
LINE
  5
2F8
330
2
100
AcDbEntity
  8
0
100
AcDbLine
 10
361.2998097393961
 20
473.1484753198997
 30
0.0
 11
371.297149377107
 21
472.0977125825873
 31
0.0
  0
LINE
  5
2F9
330
2
100
AcDbEntity
  8
03-01
100
AcDbLine
 10
361.2474019601566
 20
472.1484753198954
 30
0.0
 11
371.1926209138393
 21
471.1031906872189
 31
0.0
  0
ARC
  5
2FA
330
2
100
AcDbEntity
  8
03-01
100
AcDbCircle
 10
238.9474019601177
 20
421.9484753198927
 30
0.0
 40
1.199999999999988
100
AcDbArc
 50
270.0
 51
90.0
  0
ARC
  5
2FB
330
2
100
AcDbEntity
  8
03-01
100
AcDbCircle
 10
238.9474019601177
 20
421.9484753198927
 30
0.0
 40
1.199999999999988
100
AcDbArc
 50
90.0
 51
270.0
  0
LINE
  5
2FC
330
2
100
AcDbEntity
  8
03-01
100
AcDbLine
 10
331.5474019601176
 20
420.7484753198928
 30
0.0
 11
238.9474019601177
 21
420.7484753198929
 31
0.0
  0
LINE
  5
2FD
330
2
100
AcDbEntity
  8
03-01
100
AcDbLine
 10
331.4062716153761
 20
398.8234699571011
 30
0.0
 11
238.8062716153762
 21
409.790136623768
 31
0.0
  0
LINE
  5
2FE
330
2
100
AcDbEntity
  8
03-01
100
AcDbLine
 10
331.688532304859
 20
401.2068140160175
 30
0.0
 11
239.0885323048591
 21
412.1734806826845
 31
0.0
  0
LINE
  5
2FF
330
2
100
AcDbEntity
  8
03-01
100
AcDbLine
 10
331.4062716153761
 20
423.1401473493514
 30
0.0
 11
238.8062716153762
 21
412.1734806826845
 31
0.0
  0
ARC
  5
300
330
2
100
AcDbEntity
  8
03-01
100
AcDbCircle
 10
238.9474019601177
 20
410.9818086532262
 30
0.0
 40
1.199999999999988
100
AcDbArc
 50
270.0
 51
90.0
  0
LINE
  5
301
330
2
100
AcDbEntity
  8
03-01
100
AcDbLine
 10
331.688532304859
 20
420.756803290435
 30
0.0
 11
239.0885323048591
 21
409.790136623768
 31
0.0
  0
ARC
  5
302
330
2
100
AcDbEntity
  8
03-01
100
AcDbCircle
 10
238.9474019601177
 20
410.9818086532262
 30
0.0
 40
1.199999999999988
100
AcDbArc
 50
90.0
 51
276.7541092875015
  0
LINE
  5
303
330
2
100
AcDbEntity
  8
03-01
100
AcDbLine
 10
331.4062716153761
 20
401.206814016018
 30
0.0
 11
238.8062716153762
 21
390.2401473493511
 31
0.0
  0
ARC
  5
304
330
2
100
AcDbEntity
  8
03-01
100
AcDbCircle
 10
331.5474019601176
 20
400.0151419865598
 30
0.0
 40
1.199999999999988
100
AcDbArc
 50
90.0
 51
270.0
  0
LINE
  5
305
330
2
100
AcDbEntity
  8
03-01
100
AcDbLine
 10
331.688532304859
 20
398.8234699571016
 30
0.0
 11
239.0885323048591
 21
387.8568032904346
 31
0.0
  0
ARC
  5
306
330
2
100
AcDbEntity
  8
03-01
100
AcDbCircle
 10
331.5474019601176
 20
400.0151419865598
 30
0.0
 40
1.199999999999988
100
AcDbArc
 50
270.0
 51
90.0
  0
LINE
  5
307
330
2
100
AcDbEntity
  8
03-01
100
AcDbLine
 10
331.4062716153761
 20
376.8901366237677
 30
0.0
 11
238.8062716153762
 21
387.8568032904346
 31
0.0
  0
ARC
  5
308
330
2
100
AcDbEntity
  8
03-01
100
AcDbCircle
 10
238.9474019601177
 20
389.0484753198929
 30
0.0
 40
1.199999999999988
100
AcDbArc
 50
270.0
 51
90.0
  0
LINE
  5
309
330
2
100
AcDbEntity
  8
03-01
100
AcDbLine
 10
331.688532304859
 20
379.2734806826841
 30
0.0
 11
239.0885323048591
 21
390.2401473493511
 31
0.0
  0
ARC
  5
30A
330
2
100
AcDbEntity
  8
03-01
100
AcDbCircle
 10
238.9474019601177
 20
389.0484753198929
 30
0.0
 40
1.199999999999988
100
AcDbArc
 50
83.24589071249857
 51
270.0
  0
ARC
  5
30B
330
2
100
AcDbEntity
  8
03-01
100
AcDbCircle
 10
331.5474019601176
 20
421.9484753198925
 30
0.0
 40
1.199999999999988
100
AcDbArc
 50
90.0
 51
270.0
  0
ARC
  5
30C
330
2
100
AcDbEntity
  8
03-01
100
AcDbCircle
 10
331.5474019601176
 20
421.9484753198925
 30
0.0
 40
1.199999999999988
100
AcDbArc
 50
270.0
 51
90.0
  0
LINE
  5
30D
330
2
100
AcDbEntity
  8
03-01
100
AcDbLine
 10
331.4062716153761
 20
357.3401473493515
 30
0.0
 11
238.8062716153762
 21
346.3734806826845
 31
0.0
  0
LINE
  5
30E
330
2
100
AcDbEntity
  8
03-01
100
AcDbLine
 10
331.688532304859
 20
354.9568032904351
 30
0.0
 11
239.0885323048591
 21
343.9901366237681
 31
0.0
  0
LINE
  5
30F
330
2
100
AcDbEntity
  8
03-01
100
AcDbLine
 10
331.4062716153761
 20
333.0234699571011
 30
0.0
 11
238.8062716153762
 21
343.9901366237681
 31
0.0
  0
ARC
  5
310
330
2
100
AcDbEntity
  8
03-01
100
AcDbCircle
 10
238.9474019601177
 20
345.1818086532263
 30
0.0
 40
1.199999999999988
100
AcDbArc
 50
270.0
 51
90.0
  0
LINE
  5
311
330
2
100
AcDbEntity
  8
03-01
100
AcDbLine
 10
331.688532304859
 20
335.4068140160176
 30
0.0
 11
239.0885323048591
 21
346.3734806826845
 31
0.0
  0
ARC
  5
312
330
2
100
AcDbEntity
  8
03-01
100
AcDbCircle
 10
238.9474019601177
 20
345.1818086532263
 30
0.0
 40
1.199999999999988
100
AcDbArc
 50
83.24589071249857
 51
270.0
  0
LINE
  5
313
330
2
100
AcDbEntity
  8
03-01
100
AcDbLine
 10
331.4062716153761
 20
354.9568032904345
 30
0.0
 11
238.8062716153762
 21
365.9234699571015
 31
0.0
  0
ARC
  5
314
330
2
100
AcDbEntity
  8
03-01
100
AcDbCircle
 10
331.5474019601176
 20
356.1484753198927
 30
0.0
 40
1.199999999999988
100
AcDbArc
 50
90.0
 51
270.0
  0
LINE
  5
315
330
2
100
AcDbEntity
  8
03-01
100
AcDbLine
 10
331.688532304859
 20
357.340147349351
 30
0.0
 11
239.0885323048591
 21
368.3068140160179
 31
0.0
  0
ARC
  5
316
330
2
100
AcDbEntity
  8
03-01
100
AcDbCircle
 10
331.5474019601176
 20
356.1484753198927
 30
0.0
 40
1.199999999999988
100
AcDbArc
 50
270.0
 51
90.0
  0
LINE
  5
317
330
2
100
AcDbEntity
  8
03-01
100
AcDbLine
 10
331.4062716153761
 20
379.2734806826849
 30
0.0
 11
238.8062716153762
 21
368.3068140160179
 31
0.0
  0
ARC
  5
318
330
2
100
AcDbEntity
  8
03-01
100
AcDbCircle
 10
238.9474019601177
 20
367.1151419865597
 30
0.0
 40
1.199999999999988
100
AcDbArc
 50
270.0
 51
90.0
  0
ARC
  5
319
330
2
100
AcDbEntity
  8
03-01
100
AcDbCircle
 10
331.5474019601176
 20
378.0818086532267
 30
0.0
 40
1.199999999999988
100
AcDbArc
 50
90.0
 51
270.0
  0
LINE
  5
31A
330
2
100
AcDbEntity
  8
03-01
100
AcDbLine
 10
331.688532304859
 20
376.8901366237685
 30
0.0
 11
239.0885323048591
 21
365.9234699571015
 31
0.0
  0
ARC
  5
31B
330
2
100
AcDbEntity
  8
03-01
100
AcDbCircle
 10
238.9474019601177
 20
367.1151419865597
 30
0.0
 40
1.199999999999988
100
AcDbArc
 50
90.0
 51
276.7541092875015
  0
ARC
  5
31C
330
2
100
AcDbEntity
  8
03-01
100
AcDbCircle
 10
331.5474019601176
 20
378.0818086532267
 30
0.0
 40
1.199999999999988
100
AcDbArc
 50
270.0
 51
90.0
  0
LINE
  5
31D
330
2
100
AcDbEntity
  8
03-01
100
AcDbLine
 10
331.4062716153761
 20
311.0901366237679
 30
0.0
 11
238.8062716153762
 21
322.0568032904349
 31
0.0
  0
LINE
  5
31E
330
2
100
AcDbEntity
  8
03-01
100
AcDbLine
 10
331.688532304859
 20
313.4734806826844
 30
0.0
 11
239.0885323048591
 21
324.4401473493514
 31
0.0
  0
LINE
  5
31F
330
2
100
AcDbEntity
  8
03-01
100
AcDbLine
 10
331.4062716153761
 20
335.4068140160184
 30
0.0
 11
238.8062716153762
 21
324.4401473493514
 31
0.0
  0
ARC
  5
320
330
2
100
AcDbEntity
  8
03-01
100
AcDbCircle
 10
238.9474019601177
 20
323.2484753198932
 30
0.0
 40
1.199999999999988
100
AcDbArc
 50
270.0
 51
90.0
  0
ARC
  5
321
330
2
100
AcDbEntity
  8
03-01
100
AcDbCircle
 10
331.5474019601176
 20
334.2151419865601
 30
0.0
 40
1.199999999999988
100
AcDbArc
 50
90.0
 51
270.0
  0
LINE
  5
322
330
2
100
AcDbEntity
  8
03-01
100
AcDbLine
 10
331.688532304859
 20
333.0234699571019
 30
0.0
 11
239.0885323048591
 21
322.0568032904349
 31
0.0
  0
ARC
  5
323
330
2
100
AcDbEntity
  8
03-01
100
AcDbCircle
 10
238.9474019601177
 20
323.2484753198932
 30
0.0
 40
1.199999999999988
100
AcDbArc
 50
90.0
 51
276.7541092875015
  0
ARC
  5
324
330
2
100
AcDbEntity
  8
03-01
100
AcDbCircle
 10
331.5474019601176
 20
334.2151419865601
 30
0.0
 40
1.199999999999988
100
AcDbArc
 50
270.0
 51
90.0
  0
LINE
  5
325
330
2
100
AcDbEntity
  8
03-01
100
AcDbLine
 10
331.4062716153761
 20
313.473480682685
 30
0.0
 11
238.8062716153762
 21
302.506814016018
 31
0.0
  0
ARC
  5
326
330
2
100
AcDbEntity
  8
03-01
100
AcDbCircle
 10
331.5474019601176
 20
312.2818086532267
 30
0.0
 40
1.199999999999988
100
AcDbArc
 50
90.0
 51
270.0
  0
LINE
  5
327
330
2
100
AcDbEntity
  8
03-01
100
AcDbLine
 10
331.688532304859
 20
311.0901366237685
 30
0.0
 11
239.0885323048591
 21
300.1234699571015
 31
0.0
  0
ARC
  5
328
330
2
100
AcDbEntity
  8
03-01
100
AcDbCircle
 10
331.5474019601176
 20
312.2818086532267
 30
0.0
 40
1.199999999999988
100
AcDbArc
 50
270.0
 51
90.0
  0
LINE
  5
329
330
2
100
AcDbEntity
  8
03-01
100
AcDbLine
 10
331.4062716153761
 20
289.1568032904345
 30
0.0
 11
238.8062716153762
 21
300.1234699571015
 31
0.0
  0
ARC
  5
32A
330
2
100
AcDbEntity
  8
03-01
100
AcDbCircle
 10
238.9474019601177
 20
301.3151419865597
 30
0.0
 40
1.199999999999988
100
AcDbArc
 50
270.0
 51
90.0
  0
ARC
  5
32B
330
2
100
AcDbEntity
  8
03-01
100
AcDbCircle
 10
238.9474019601177
 20
290.3484753198928
 30
0.0
 40
1.199999999999988
100
AcDbArc
 50
270.0
 51
90.0
  0
ARC
  5
32C
330
2
100
AcDbEntity
  8
03-01
100
AcDbCircle
 10
331.5474019601176
 20
290.3484753198928
 30
0.0
 40
1.199999999999988
100
AcDbArc
 50
90.0
 51
270.0
  0
LINE
  5
32D
330
2
100
AcDbEntity
  8
03-01
100
AcDbLine
 10
331.688532304859
 20
291.540147349351
 30
0.0
 11
239.0885323048591
 21
302.506814016018
 31
0.0
  0
ARC
  5
32E
330
2
100
AcDbEntity
  8
03-01
100
AcDbCircle
 10
238.9474019601177
 20
301.3151419865597
 30
0.0
 40
1.199999999999988
100
AcDbArc
 50
83.24589071249857
 51
270.0
  0
ARC
  5
32F
330
2
100
AcDbEntity
  8
03-01
100
AcDbCircle
 10
238.9474019601177
 20
290.3484753198928
 30
0.0
 40
1.199999999999988
100
AcDbArc
 50
90.0
 51
270.0
  0
ARC
  5
330
330
2
100
AcDbEntity
  8
03-01
100
AcDbCircle
 10
331.5474019601176
 20
290.3484753198928
 30
0.0
 40
1.199999999999988
100
AcDbArc
 50
270.0
 51
90.0
  0
LINE
  5
331
330
2
100
AcDbEntity
  8
05-01
100
AcDbLine
 10
285.2474019601176
 20
289.1484753198928
 30
0.0
 11
285.2474019601176
 21
423.1484753198928
 31
0.0
  0
LINE
  5
332
330
2
100
AcDbEntity
  8
03-01
100
AcDbLine
 10
331.5474019601176
 20
291.5484753198928
 30
0.0
 11
238.9474019601177
 21
291.5484753198927
 31
0.0
  0
ARC
  5
333
330
2
100
AcDbEntity
  8
03-01
100
AcDbCircle
 10
202.5474019601264
 20
421.9484753198927
 30
0.0
 40
1.199999999999988
100
AcDbArc
 50
90.0
 51
270.0
  0
ARC
  5
334
330
2
100
AcDbEntity
  8
03-01
100
AcDbCircle
 10
202.5474019601264
 20
421.9484753198927
 30
0.0
 40
1.199999999999988
100
AcDbArc
 50
270.0
 51
90.0
  0
LINE
  5
335
330
2
100
AcDbEntity
  8
03-01
100
AcDbLine
 10
109.9474019601265
 20
420.7484753198928
 30
0.0
 11
202.5474019601264
 21
420.7484753198929
 31
0.0
  0
LINE
  5
336
330
2
100
AcDbEntity
  8
03-01
100
AcDbLine
 10
110.0885323048679
 20
398.8234699571011
 30
0.0
 11
202.6885323048678
 21
409.790136623768
 31
0.0
  0
LINE
  5
337
330
2
100
AcDbEntity
  8
03-01
100
AcDbLine
 10
109.806271615385
 20
401.2068140160175
 30
0.0
 11
202.406271615385
 21
412.1734806826845
 31
0.0
  0
LINE
  5
338
330
2
100
AcDbEntity
  8
03-01
100
AcDbLine
 10
110.0885323048679
 20
423.1401473493514
 30
0.0
 11
202.6885323048678
 21
412.1734806826845
 31
0.0
  0
ARC
  5
339
330
2
100
AcDbEntity
  8
03-01
100
AcDbCircle
 10
202.5474019601264
 20
410.9818086532262
 30
0.0
 40
1.199999999999988
100
AcDbArc
 50
90.0
 51
270.0
  0
LINE
  5
33A
330
2
100
AcDbEntity
  8
03-01
100
AcDbLine
 10
109.806271615385
 20
420.756803290435
 30
0.0
 11
202.406271615385
 21
409.790136623768
 31
0.0
  0
ARC
  5
33B
330
2
100
AcDbEntity
  8
03-01
100
AcDbCircle
 10
202.5474019601264
 20
410.9818086532262
 30
0.0
 40
1.199999999999988
100
AcDbArc
 50
263.2458907124986
 51
90.0
  0
LINE
  5
33C
330
2
100
AcDbEntity
  8
03-01
100
AcDbLine
 10
110.0885323048679
 20
401.206814016018
 30
0.0
 11
202.6885323048678
 21
390.2401473493511
 31
0.0
  0
ARC
  5
33D
330
2
100
AcDbEntity
  8
03-01
100
AcDbCircle
 10
109.9474019601265
 20
400.0151419865598
 30
0.0
 40
1.199999999999988
100
AcDbArc
 50
270.0
 51
90.0
  0
LINE
  5
33E
330
2
100
AcDbEntity
  8
03-01
100
AcDbLine
 10
109.806271615385
 20
398.8234699571016
 30
0.0
 11
202.406271615385
 21
387.8568032904346
 31
0.0
  0
ARC
  5
33F
330
2
100
AcDbEntity
  8
03-01
100
AcDbCircle
 10
109.9474019601265
 20
400.0151419865598
 30
0.0
 40
1.199999999999988
100
AcDbArc
 50
90.0
 51
270.0
  0
LINE
  5
340
330
2
100
AcDbEntity
  8
03-01
100
AcDbLine
 10
110.0885323048679
 20
376.8901366237677
 30
0.0
 11
202.6885323048678
 21
387.8568032904346
 31
0.0
  0
ARC
  5
341
330
2
100
AcDbEntity
  8
03-01
100
AcDbCircle
 10
202.5474019601264
 20
389.0484753198929
 30
0.0
 40
1.199999999999988
100
AcDbArc
 50
90.0
 51
270.0
  0
LINE
  5
342
330
2
100
AcDbEntity
  8
03-01
100
AcDbLine
 10
109.806271615385
 20
379.2734806826841
 30
0.0
 11
202.406271615385
 21
390.2401473493511
 31
0.0
  0
ARC
  5
343
330
2
100
AcDbEntity
  8
03-01
100
AcDbCircle
 10
202.5474019601264
 20
389.0484753198929
 30
0.0
 40
1.199999999999988
100
AcDbArc
 50
270.0
 51
96.75410928750139
  0
ARC
  5
344
330
2
100
AcDbEntity
  8
03-01
100
AcDbCircle
 10
109.9474019601265
 20
421.9484753198925
 30
0.0
 40
1.199999999999988
100
AcDbArc
 50
270.0
 51
90.0
  0
ARC
  5
345
330
2
100
AcDbEntity
  8
03-01
100
AcDbCircle
 10
109.9474019601265
 20
421.9484753198925
 30
0.0
 40
1.199999999999988
100
AcDbArc
 50
90.0
 51
270.0
  0
LINE
  5
346
330
2
100
AcDbEntity
  8
03-01
100
AcDbLine
 10
110.0885323048679
 20
357.3401473493515
 30
0.0
 11
202.6885323048678
 21
346.3734806826845
 31
0.0
  0
LINE
  5
347
330
2
100
AcDbEntity
  8
03-01
100
AcDbLine
 10
109.806271615385
 20
354.9568032904351
 30
0.0
 11
202.406271615385
 21
343.9901366237681
 31
0.0
  0
LINE
  5
348
330
2
100
AcDbEntity
  8
03-01
100
AcDbLine
 10
110.0885323048679
 20
333.0234699571011
 30
0.0
 11
202.6885323048678
 21
343.9901366237681
 31
0.0
  0
ARC
  5
349
330
2
100
AcDbEntity
  8
03-01
100
AcDbCircle
 10
202.5474019601264
 20
345.1818086532263
 30
0.0
 40
1.199999999999988
100
AcDbArc
 50
90.0
 51
270.0
  0
LINE
  5
34A
330
2
100
AcDbEntity
  8
03-01
100
AcDbLine
 10
109.806271615385
 20
335.4068140160176
 30
0.0
 11
202.406271615385
 21
346.3734806826845
 31
0.0
  0
ARC
  5
34B
330
2
100
AcDbEntity
  8
03-01
100
AcDbCircle
 10
202.5474019601264
 20
345.1818086532263
 30
0.0
 40
1.199999999999988
100
AcDbArc
 50
270.0
 51
96.75410928750139
  0
LINE
  5
34C
330
2
100
AcDbEntity
  8
03-01
100
AcDbLine
 10
110.0885323048679
 20
354.9568032904345
 30
0.0
 11
202.6885323048678
 21
365.9234699571015
 31
0.0
  0
ARC
  5
34D
330
2
100
AcDbEntity
  8
03-01
100
AcDbCircle
 10
109.9474019601265
 20
356.1484753198927
 30
0.0
 40
1.199999999999988
100
AcDbArc
 50
270.0
 51
90.0
  0
LINE
  5
34E
330
2
100
AcDbEntity
  8
03-01
100
AcDbLine
 10
109.806271615385
 20
357.340147349351
 30
0.0
 11
202.406271615385
 21
368.3068140160179
 31
0.0
  0
ARC
  5
34F
330
2
100
AcDbEntity
  8
03-01
100
AcDbCircle
 10
109.9474019601265
 20
356.1484753198927
 30
0.0
 40
1.199999999999988
100
AcDbArc
 50
90.0
 51
270.0
  0
LINE
  5
350
330
2
100
AcDbEntity
  8
03-01
100
AcDbLine
 10
110.0885323048679
 20
379.2734806826849
 30
0.0
 11
202.6885323048678
 21
368.3068140160179
 31
0.0
  0
ARC
  5
351
330
2
100
AcDbEntity
  8
03-01
100
AcDbCircle
 10
202.5474019601264
 20
367.1151419865597
 30
0.0
 40
1.199999999999988
100
AcDbArc
 50
90.0
 51
270.0
  0
ARC
  5
352
330
2
100
AcDbEntity
  8
03-01
100
AcDbCircle
 10
109.9474019601265
 20
378.0818086532267
 30
0.0
 40
1.199999999999988
100
AcDbArc
 50
270.0
 51
90.0
  0
LINE
  5
353
330
2
100
AcDbEntity
  8
03-01
100
AcDbLine
 10
109.806271615385
 20
376.8901366237685
 30
0.0
 11
202.406271615385
 21
365.9234699571015
 31
0.0
  0
ARC
  5
354
330
2
100
AcDbEntity
  8
03-01
100
AcDbCircle
 10
202.5474019601264
 20
367.1151419865597
 30
0.0
 40
1.199999999999988
100
AcDbArc
 50
263.2458907124986
 51
90.0
  0
ARC
  5
355
330
2
100
AcDbEntity
  8
03-01
100
AcDbCircle
 10
109.9474019601265
 20
378.0818086532267
 30
0.0
 40
1.199999999999988
100
AcDbArc
 50
90.0
 51
270.0
  0
LINE
  5
356
330
2
100
AcDbEntity
  8
03-01
100
AcDbLine
 10
110.0885323048679
 20
311.0901366237679
 30
0.0
 11
202.6885323048678
 21
322.0568032904349
 31
0.0
  0
LINE
  5
357
330
2
100
AcDbEntity
  8
03-01
100
AcDbLine
 10
109.806271615385
 20
313.4734806826844
 30
0.0
 11
202.406271615385
 21
324.4401473493514
 31
0.0
  0
LINE
  5
358
330
2
100
AcDbEntity
  8
03-01
100
AcDbLine
 10
110.0885323048679
 20
335.4068140160184
 30
0.0
 11
202.6885323048678
 21
324.4401473493514
 31
0.0
  0
ARC
  5
359
330
2
100
AcDbEntity
  8
03-01
100
AcDbCircle
 10
202.5474019601264
 20
323.2484753198932
 30
0.0
 40
1.199999999999988
100
AcDbArc
 50
90.0
 51
270.0
  0
ARC
  5
35A
330
2
100
AcDbEntity
  8
03-01
100
AcDbCircle
 10
109.9474019601265
 20
334.2151419865601
 30
0.0
 40
1.199999999999988
100
AcDbArc
 50
270.0
 51
90.0
  0
LINE
  5
35B
330
2
100
AcDbEntity
  8
03-01
100
AcDbLine
 10
109.806271615385
 20
333.0234699571019
 30
0.0
 11
202.406271615385
 21
322.0568032904349
 31
0.0
  0
ARC
  5
35C
330
2
100
AcDbEntity
  8
03-01
100
AcDbCircle
 10
202.5474019601264
 20
323.2484753198932
 30
0.0
 40
1.199999999999988
100
AcDbArc
 50
263.2458907124986
 51
90.0
  0
ARC
  5
35D
330
2
100
AcDbEntity
  8
03-01
100
AcDbCircle
 10
109.9474019601265
 20
334.2151419865601
 30
0.0
 40
1.199999999999988
100
AcDbArc
 50
90.0
 51
270.0
  0
LINE
  5
35E
330
2
100
AcDbEntity
  8
03-01
100
AcDbLine
 10
110.0885323048679
 20
313.473480682685
 30
0.0
 11
202.6885323048678
 21
302.506814016018
 31
0.0
  0
ARC
  5
35F
330
2
100
AcDbEntity
  8
03-01
100
AcDbCircle
 10
109.9474019601265
 20
312.2818086532267
 30
0.0
 40
1.199999999999988
100
AcDbArc
 50
270.0
 51
90.0
  0
LINE
  5
360
330
2
100
AcDbEntity
  8
03-01
100
AcDbLine
 10
109.806271615385
 20
311.0901366237685
 30
0.0
 11
202.406271615385
 21
300.1234699571015
 31
0.0
  0
ARC
  5
361
330
2
100
AcDbEntity
  8
03-01
100
AcDbCircle
 10
109.9474019601265
 20
312.2818086532267
 30
0.0
 40
1.199999999999988
100
AcDbArc
 50
90.0
 51
270.0
  0
LINE
  5
362
330
2
100
AcDbEntity
  8
03-01
100
AcDbLine
 10
110.0885323048679
 20
289.1568032904345
 30
0.0
 11
202.6885323048678
 21
300.1234699571015
 31
0.0
  0
ARC
  5
363
330
2
100
AcDbEntity
  8
03-01
100
AcDbCircle
 10
202.5474019601264
 20
301.3151419865597
 30
0.0
 40
1.199999999999988
100
AcDbArc
 50
90.0
 51
270.0
  0
ARC
  5
364
330
2
100
AcDbEntity
  8
03-01
100
AcDbCircle
 10
202.5474019601264
 20
290.3484753198928
 30
0.0
 40
1.199999999999988
100
AcDbArc
 50
90.0
 51
270.0
  0
ARC
  5
365
330
2
100
AcDbEntity
  8
03-01
100
AcDbCircle
 10
109.9474019601265
 20
290.3484753198928
 30
0.0
 40
1.199999999999988
100
AcDbArc
 50
270.0
 51
90.0
  0
LINE
  5
366
330
2
100
AcDbEntity
  8
03-01
100
AcDbLine
 10
109.806271615385
 20
291.540147349351
 30
0.0
 11
202.406271615385
 21
302.506814016018
 31
0.0
  0
ARC
  5
367
330
2
100
AcDbEntity
  8
03-01
100
AcDbCircle
 10
202.5474019601264
 20
301.3151419865597
 30
0.0
 40
1.199999999999988
100
AcDbArc
 50
270.0
 51
96.75410928750139
  0
ARC
  5
368
330
2
100
AcDbEntity
  8
03-01
100
AcDbCircle
 10
202.5474019601264
 20
290.3484753198928
 30
0.0
 40
1.199999999999988
100
AcDbArc
 50
270.0
 51
90.0
  0
ARC
  5
369
330
2
100
AcDbEntity
  8
03-01
100
AcDbCircle
 10
109.9474019601265
 20
290.3484753198928
 30
0.0
 40
1.199999999999988
100
AcDbArc
 50
90.0
 51
270.0
  0
LINE
  5
36A
330
2
100
AcDbEntity
  8
05-01
100
AcDbLine
 10
156.2474019601264
 20
289.1484753198928
 30
0.0
 11
156.2474019601264
 21
423.1484753198928
 31
0.0
  0
LINE
  5
36B
330
2
100
AcDbEntity
  8
03-01
100
AcDbLine
 10
109.9474019601265
 20
291.5484753198928
 30
0.0
 11
202.5474019601264
 21
291.5484753198927
 31
0.0
  0
ARC
  5
36C
330
2
100
AcDbEntity
  8
03-01
100
AcDbCircle
 10
634.637889771587
 20
421.9484753198926
 30
0.0
 40
1.199999999999988
100
AcDbArc
 50
90.00000000000003
 51
270.0
  0
ARC
  5
36D
330
2
100
AcDbEntity
  8
03-01
100
AcDbCircle
 10
634.637889771587
 20
421.9484753198926
 30
0.0
 40
1.199999999999988
100
AcDbArc
 50
270.0
 51
90.00000000000003
  0
LINE
  5
36E
330
2
100
AcDbEntity
  8
03-01
100
AcDbLine
 10
542.037889771587
 20
420.7484753198927
 30
0.0
 11
634.637889771587
 21
420.7484753198927
 31
0.0
  0
LINE
  5
36F
330
2
100
AcDbEntity
  8
03-01
100
AcDbLine
 10
542.1790201163284
 20
398.8234699571009
 30
0.0
 11
634.7790201163284
 21
409.7901366237679
 31
0.0
  0
LINE
  5
370
330
2
100
AcDbEntity
  8
03-01
100
AcDbLine
 10
541.8967594268456
 20
401.2068140160174
 30
0.0
 11
634.4967594268455
 21
412.1734806826843
 31
0.0
  0
LINE
  5
371
330
2
100
AcDbEntity
  8
03-01
100
AcDbLine
 10
542.1790201163284
 20
423.1401473493513
 30
0.0
 11
634.7790201163284
 21
412.1734806826843
 31
0.0
  0
ARC
  5
372
330
2
100
AcDbEntity
  8
03-01
100
AcDbCircle
 10
634.637889771587
 20
410.9818086532261
 30
0.0
 40
1.199999999999988
100
AcDbArc
 50
90.00000000000003
 51
270.0
  0
LINE
  5
373
330
2
100
AcDbEntity
  8
03-01
100
AcDbLine
 10
541.8967594268456
 20
420.7568032904348
 30
0.0
 11
634.4967594268455
 21
409.7901366237679
 31
0.0
  0
ARC
  5
374
330
2
100
AcDbEntity
  8
03-01
100
AcDbCircle
 10
634.637889771587
 20
410.9818086532261
 30
0.0
 40
1.199999999999988
100
AcDbArc
 50
263.2458907124988
 51
90.00000000000003
  0
LINE
  5
375
330
2
100
AcDbEntity
  8
03-01
100
AcDbLine
 10
542.1790201163284
 20
401.2068140160179
 30
0.0
 11
634.7790201163284
 21
390.240147349351
 31
0.0
  0
ARC
  5
376
330
2
100
AcDbEntity
  8
03-01
100
AcDbCircle
 10
542.037889771587
 20
400.0151419865597
 30
0.0
 40
1.199999999999988
100
AcDbArc
 50
270.0
 51
90.00000000000003
  0
LINE
  5
377
330
2
100
AcDbEntity
  8
03-01
100
AcDbLine
 10
541.8967594268456
 20
398.8234699571015
 30
0.0
 11
634.4967594268455
 21
387.8568032904345
 31
0.0
  0
ARC
  5
378
330
2
100
AcDbEntity
  8
03-01
100
AcDbCircle
 10
542.037889771587
 20
400.0151419865597
 30
0.0
 40
1.199999999999988
100
AcDbArc
 50
90.00000000000003
 51
270.0
  0
LINE
  5
379
330
2
100
AcDbEntity
  8
03-01
100
AcDbLine
 10
542.1790201163284
 20
376.8901366237675
 30
0.0
 11
634.7790201163284
 21
387.8568032904345
 31
0.0
  0
ARC
  5
37A
330
2
100
AcDbEntity
  8
03-01
100
AcDbCircle
 10
634.637889771587
 20
389.0484753198927
 30
0.0
 40
1.199999999999988
100
AcDbArc
 50
90.00000000000003
 51
270.0
  0
LINE
  5
37B
330
2
100
AcDbEntity
  8
03-01
100
AcDbLine
 10
541.8967594268456
 20
379.273480682684
 30
0.0
 11
634.4967594268455
 21
390.240147349351
 31
0.0
  0
ARC
  5
37C
330
2
100
AcDbEntity
  8
03-01
100
AcDbCircle
 10
634.637889771587
 20
389.0484753198927
 30
0.0
 40
1.199999999999988
100
AcDbArc
 50
270.0
 51
96.75410928750109
  0
ARC
  5
37D
330
2
100
AcDbEntity
  8
03-01
100
AcDbCircle
 10
542.037889771587
 20
421.9484753198923
 30
0.0
 40
1.199999999999988
100
AcDbArc
 50
270.0
 51
90.00000000000003
  0
ARC
  5
37E
330
2
100
AcDbEntity
  8
03-01
100
AcDbCircle
 10
542.037889771587
 20
421.9484753198923
 30
0.0
 40
1.199999999999988
100
AcDbArc
 50
90.00000000000003
 51
270.0
  0
LINE
  5
37F
330
2
100
AcDbEntity
  8
03-01
100
AcDbLine
 10
542.1790201163284
 20
357.3401473493514
 30
0.0
 11
634.7790201163284
 21
346.3734806826844
 31
0.0
  0
LINE
  5
380
330
2
100
AcDbEntity
  8
03-01
100
AcDbLine
 10
541.8967594268456
 20
354.956803290435
 30
0.0
 11
634.4967594268455
 21
343.990136623768
 31
0.0
  0
LINE
  5
381
330
2
100
AcDbEntity
  8
03-01
100
AcDbLine
 10
542.1790201163284
 20
333.023469957101
 30
0.0
 11
634.7790201163284
 21
343.990136623768
 31
0.0
  0
ARC
  5
382
330
2
100
AcDbEntity
  8
03-01
100
AcDbCircle
 10
634.637889771587
 20
345.1818086532262
 30
0.0
 40
1.199999999999988
100
AcDbArc
 50
90.00000000000003
 51
270.0
  0
LINE
  5
383
330
2
100
AcDbEntity
  8
03-01
100
AcDbLine
 10
541.8967594268456
 20
335.4068140160174
 30
0.0
 11
634.4967594268455
 21
346.3734806826844
 31
0.0
  0
ARC
  5
384
330
2
100
AcDbEntity
  8
03-01
100
AcDbCircle
 10
634.637889771587
 20
345.1818086532262
 30
0.0
 40
1.199999999999988
100
AcDbArc
 50
270.0
 51
96.75410928750109
  0
LINE
  5
385
330
2
100
AcDbEntity
  8
03-01
100
AcDbLine
 10
542.1790201163284
 20
354.9568032904344
 30
0.0
 11
634.7790201163284
 21
365.9234699571014
 31
0.0
  0
ARC
  5
386
330
2
100
AcDbEntity
  8
03-01
100
AcDbCircle
 10
542.037889771587
 20
356.1484753198926
 30
0.0
 40
1.199999999999988
100
AcDbArc
 50
270.0
 51
90.00000000000003
  0
LINE
  5
387
330
2
100
AcDbEntity
  8
03-01
100
AcDbLine
 10
541.8967594268456
 20
357.3401473493508
 30
0.0
 11
634.4967594268455
 21
368.3068140160178
 31
0.0
  0
ARC
  5
388
330
2
100
AcDbEntity
  8
03-01
100
AcDbCircle
 10
542.037889771587
 20
356.1484753198926
 30
0.0
 40
1.199999999999988
100
AcDbArc
 50
90.00000000000003
 51
270.0
  0
LINE
  5
389
330
2
100
AcDbEntity
  8
03-01
100
AcDbLine
 10
542.1790201163284
 20
379.2734806826848
 30
0.0
 11
634.7790201163284
 21
368.3068140160178
 31
0.0
  0
ARC
  5
38A
330
2
100
AcDbEntity
  8
03-01
100
AcDbCircle
 10
634.637889771587
 20
367.1151419865596
 30
0.0
 40
1.199999999999988
100
AcDbArc
 50
90.00000000000003
 51
270.0
  0
ARC
  5
38B
330
2
100
AcDbEntity
  8
03-01
100
AcDbCircle
 10
542.037889771587
 20
378.0818086532266
 30
0.0
 40
1.199999999999988
100
AcDbArc
 50
270.0
 51
90.00000000000003
  0
LINE
  5
38C
330
2
100
AcDbEntity
  8
03-01
100
AcDbLine
 10
541.8967594268456
 20
376.8901366237683
 30
0.0
 11
634.4967594268455
 21
365.9234699571014
 31
0.0
  0
ARC
  5
38D
330
2
100
AcDbEntity
  8
03-01
100
AcDbCircle
 10
634.637889771587
 20
367.1151419865596
 30
0.0
 40
1.199999999999988
100
AcDbArc
 50
263.245890712499
 51
90.00000000000003
  0
ARC
  5
38E
330
2
100
AcDbEntity
  8
03-01
100
AcDbCircle
 10
542.037889771587
 20
378.0818086532266
 30
0.0
 40
1.199999999999988
100
AcDbArc
 50
90.00000000000003
 51
270.0
  0
LINE
  5
38F
330
2
100
AcDbEntity
  8
03-01
100
AcDbLine
 10
542.1790201163284
 20
311.0901366237678
 30
0.0
 11
634.7790201163284
 21
322.0568032904348
 31
0.0
  0
LINE
  5
390
330
2
100
AcDbEntity
  8
03-01
100
AcDbLine
 10
541.8967594268456
 20
313.4734806826843
 30
0.0
 11
634.4967594268455
 21
324.4401473493513
 31
0.0
  0
LINE
  5
391
330
2
100
AcDbEntity
  8
03-01
100
AcDbLine
 10
542.1790201163284
 20
335.4068140160182
 30
0.0
 11
634.7790201163284
 21
324.4401473493513
 31
0.0
  0
ARC
  5
392
330
2
100
AcDbEntity
  8
03-01
100
AcDbCircle
 10
634.637889771587
 20
323.248475319893
 30
0.0
 40
1.199999999999988
100
AcDbArc
 50
90.00000000000003
 51
270.0
  0
ARC
  5
393
330
2
100
AcDbEntity
  8
03-01
100
AcDbCircle
 10
542.037889771587
 20
334.21514198656
 30
0.0
 40
1.199999999999988
100
AcDbArc
 50
270.0
 51
90.00000000000003
  0
LINE
  5
394
330
2
100
AcDbEntity
  8
03-01
100
AcDbLine
 10
541.8967594268456
 20
333.0234699571018
 30
0.0
 11
634.4967594268455
 21
322.0568032904348
 31
0.0
  0
ARC
  5
395
330
2
100
AcDbEntity
  8
03-01
100
AcDbCircle
 10
634.637889771587
 20
323.248475319893
 30
0.0
 40
1.199999999999988
100
AcDbArc
 50
263.245890712499
 51
90.00000000000003
  0
ARC
  5
396
330
2
100
AcDbEntity
  8
03-01
100
AcDbCircle
 10
542.037889771587
 20
334.21514198656
 30
0.0
 40
1.199999999999988
100
AcDbArc
 50
90.00000000000003
 51
270.0
  0
LINE
  5
397
330
2
100
AcDbEntity
  8
03-01
100
AcDbLine
 10
542.1790201163284
 20
313.4734806826849
 30
0.0
 11
634.7790201163284
 21
302.5068140160179
 31
0.0
  0
ARC
  5
398
330
2
100
AcDbEntity
  8
03-01
100
AcDbCircle
 10
542.037889771587
 20
312.2818086532266
 30
0.0
 40
1.199999999999988
100
AcDbArc
 50
270.0
 51
90.00000000000003
  0
LINE
  5
399
330
2
100
AcDbEntity
  8
03-01
100
AcDbLine
 10
541.8967594268456
 20
311.0901366237684
 30
0.0
 11
634.4967594268455
 21
300.1234699571014
 31
0.0
  0
ARC
  5
39A
330
2
100
AcDbEntity
  8
03-01
100
AcDbCircle
 10
542.037889771587
 20
312.2818086532266
 30
0.0
 40
1.199999999999988
100
AcDbArc
 50
90.00000000000003
 51
270.0
  0
LINE
  5
39B
330
2
100
AcDbEntity
  8
03-01
100
AcDbLine
 10
542.1790201163284
 20
289.1568032904345
 30
0.0
 11
634.7790201163284
 21
300.1234699571014
 31
0.0
  0
ARC
  5
39C
330
2
100
AcDbEntity
  8
03-01
100
AcDbCircle
 10
634.637889771587
 20
301.3151419865597
 30
0.0
 40
1.199999999999988
100
AcDbArc
 50
90.0
 51
270.0
  0
ARC
  5
39D
330
2
100
AcDbEntity
  8
03-01
100
AcDbCircle
 10
634.637889771587
 20
290.3484753198926
 30
0.0
 40
1.199999999999988
100
AcDbArc
 50
90.0
 51
270.0
  0
ARC
  5
39E
330
2
100
AcDbEntity
  8
03-01
100
AcDbCircle
 10
542.037889771587
 20
290.3484753198926
 30
0.0
 40
1.199999999999988
100
AcDbArc
 50
270.0
 51
90.0
  0
LINE
  5
39F
330
2
100
AcDbEntity
  8
03-01
100
AcDbLine
 10
541.8967594268456
 20
291.5401473493509
 30
0.0
 11
634.4967594268455
 21
302.5068140160179
 31
0.0
  0
ARC
  5
3A0
330
2
100
AcDbEntity
  8
03-01
100
AcDbCircle
 10
634.637889771587
 20
301.3151419865597
 30
0.0
 40
1.199999999999988
100
AcDbArc
 50
270.0
 51
96.7541092875008
  0
ARC
  5
3A1
330
2
100
AcDbEntity
  8
03-01
100
AcDbCircle
 10
634.637889771587
 20
290.3484753198926
 30
0.0
 40
1.199999999999988
100
AcDbArc
 50
270.0
 51
90.0
  0
ARC
  5
3A2
330
2
100
AcDbEntity
  8
03-01
100
AcDbCircle
 10
542.037889771587
 20
290.3484753198926
 30
0.0
 40
1.199999999999988
100
AcDbArc
 50
90.0
 51
270.0
  0
LINE
  5
3A3
330
2
100
AcDbEntity
  8
05-01
100
AcDbLine
 10
588.337889771587
 20
289.1484753198927
 30
0.0
 11
588.337889771587
 21
423.1484753198927
 31
0.0
  0
LINE
  5
3A4
330
2
100
AcDbEntity
  8
0
100
AcDbLine
 10
70.30218300641019
 20
471.1031906872189
 30
0.0
 11
70.19765454314256
 21
472.0977125825873
 31
0.0
  0
LINE
  5
3A5
330
2
100
AcDbEntity
  8
0
100
AcDbLine
 10
80.19499418089424
 20
473.1484753199041
 30
0.0
 11
70.19765454314256
 21
472.0977125825873
 31
0.0
  0
LINE
  5
3A6
330
2
100
AcDbEntity
  8
03-01
100
AcDbLine
 10
80.24740196009295
 20
472.1484753198954
 30
0.0
 11
70.30218300641019
 21
471.1031906872189
 31
0.0
  0
LINE
  5
3A7
330
2
100
AcDbEntity
  8
05-01
100
AcDbLine
 10
388.840885915903
 20
451.1522806218083
 30
0.0
 11
353.7474019601222
 21
451.1522806218082
 31
0.0
  0
LINE
  5
3A8
330
2
100
AcDbEntity
  8
05-01
100
AcDbLine
 10
388.840885915903
 20
471.1522806218083
 30
0.0
 11
353.7474019601228
 21
471.1522806218083
 31
0.0
  0
LINE
  5
3A9
330
2
100
AcDbEntity
  8
05-01
100
AcDbLine
 10
355.0814200986413
 20
463.1484753201125
 30
0.0
 11
339.8314200986413
 21
463.1484753201125
 31
0.0
  0
LINE
  5
3AA
330
2
100
AcDbEntity
  8
05-01
100
AcDbLine
 10
353.7474019601222
 20
451.1522806218082
 30
0.0
 11
353.7474019601228
 21
471.1522806218083
 31
0.0
  0
LINE
  5
3AB
330
2
100
AcDbEntity
  8
0
100
AcDbLine
 10
350.9974019601185
 20
286.1484753198998
 30
0.0
 11
350.9974019601249
 21
471.1064906367196
 31
0.0
  0
LINE
  5
3AC
330
2
100
AcDbEntity
  8
0
100
AcDbLine
 10
336.9974019601201
 20
287.1484753198997
 30
0.0
 11
336.99740196012
 21
286.1484753198997
 31
0.0
  0
LINE
  5
3AD
330
2
100
AcDbEntity
  8
03-01
100
AcDbLine
 10
350.9974019601249
 20
472.1484753198998
 30
0.0
 11
350.9974019601249
 21
473.1484753198999
 31
0.0
  0
LINE
  5
3AE
330
2
100
AcDbEntity
  8
03-01
100
AcDbLine
 10
361.2474019601267
 20
472.1484753199
 30
0.0
 11
80.24740196009295
 21
472.1484753198954
 31
0.0
  0
LINE
  5
3AF
330
2
100
AcDbEntity
  8
0
100
AcDbLine
 10
361.2998097393961
 20
473.1484753198997
 30
0.0
 11
80.19499418089424
 21
473.1484753199041
 31
0.0
  0
LINE
  5
3B0
330
2
100
AcDbEntity
  8
0
100
AcDbLine
 10
350.9974019601185
 20
286.1484753198998
 30
0.0
 11
336.99740196012
 21
286.1484753198997
 31
0.0
  0
LINE
  5
3B1
330
2
100
AcDbEntity
  8
0
100
AcDbLine
 10
104.4974019601294
 20
287.1484753198997
 30
0.0
 11
104.4974019601295
 21
286.1484753198997
 31
0.0
  0
LINE
  5
3B2
330
2
100
AcDbEntity
  8
03-01
100
AcDbLine
 10
90.49740196012459
 20
472.1484753198998
 30
0.0
 11
90.49740196012463
 21
473.1484753198999
 31
0.0
  0
LINE
  5
3B3
330
2
100
AcDbEntity
  8
0
100
AcDbLine
 10
650.3378897718585
 20
287.1484753198997
 30
0.0
 11
650.3378897718585
 21
286.1484753198997
 31
0.0
  0
LINE
  5
3B4
330
2
100
AcDbEntity
  8
0
100
AcDbLine
 10
651.3378897718585
 20
287.1484753198997
 30
0.0
 11
650.3378897718585
 21
287.1484753198997
 31
0.0
  0
LINE
  5
3B5
330
2
100
AcDbEntity
  8
0
100
AcDbLine
 10
651.3378897718585
 20
287.1484753198997
 30
0.0
 11
651.3378897718638
 21
450.1484753202449
 31
0.0
  0
LINE
  5
3B6
330
2
100
AcDbEntity
  8
0
100
AcDbLine
 10
526.3378897715365
 20
287.1484753198997
 30
0.0
 11
526.3378897715365
 21
286.1484753198997
 31
0.0
  0
LINE
  5
3B7
330
2
100
AcDbEntity
  8
0
100
AcDbLine
 10
525.3378897715365
 20
287.1484753198997
 30
0.0
 11
526.3378897715365
 21
287.1484753198997
 31
0.0
  0
LINE
  5
3B8
330
2
100
AcDbEntity
  8
03-01
100
AcDbLine
 10
515.3378897715496
 20
472.1484753201033
 30
0.0
 11
661.3378897716243
 21
472.1484753201024
 31
0.0
  0
LINE
  5
3B9
330
2
100
AcDbEntity
  8
0
100
AcDbLine
 10
664.8378897719386
 20
450.148475320245
 30
0.0
 11
664.8378897718581
 21
471.103190687223
 31
0.0
  0
LINE
  5
3BA
330
2
100
AcDbEntity
  8
03-01
100
AcDbLine
 10
661.3378897718364
 20
472.1484753198995
 30
0.0
 11
678.8378897715322
 21
472.1484753198998
 31
0.0
  0
LINE
  5
3BB
330
2
100
AcDbEntity
  8
03-01
100
AcDbLine
 10
647.301301457503
 20
471.1484753198996
 30
0.0
 11
617.2685973798636
 21
467.2453844080887
 31
0.0
  0
LINE
  5
3BC
330
2
100
AcDbEntity
  8
03-01
100
AcDbLine
 10
661.3378897718455
 20
471.1484753198998
 30
0.0
 11
647.301301457503
 21
471.1484753198996
 31
0.0
  0
LINE
  5
3BD
330
2
100
AcDbEntity
  8
03-01
100
AcDbLine
 10
661.3378897718364
 20
472.1484753201035
 30
0.0
 11
661.3378897718455
 21
471.1484753198998
 31
0.0
  0
LINE
  5
3BE
330
2
100
AcDbEntity
  8
03-01
100
AcDbLine
 10
647.6378897716913
 20
472.1484753201034
 30
0.0
 11
661.3378897718364
 21
472.1484753201034
 31
0.0
  0
LINE
  5
3BF
330
2
100
AcDbEntity
  8
03-01
100
AcDbLine
 10
647.3770857523414
 20
472.159861443561
 30
0.0
 11
647.6378897716913
 21
472.1484753201034
 31
0.0
  0
LINE
  5
3C0
330
2
100
AcDbEntity
  8
03-01
100
AcDbLine
 10
617.1754275441553
 20
468.244651056352
 30
0.0
 11
647.3770857523414
 21
472.159861443561
 31
0.0
  0
ARC
  5
3C1
330
2
100
AcDbEntity
  8
03-01
100
AcDbCircle
 10
617.3378897718131
 20
466.50220851079
 30
0.0
 40
1.750000000000045
100
AcDbArc
 50
95.3267558555996
 51
275.3267558556126
  0
LINE
  5
3C2
330
2
100
AcDbEntity
  8
03-01
100
AcDbLine
 10
623.5848538596001
 20
466.8255079843349
 30
0.0
 11
617.5003519994714
 21
464.7597659652281
 31
0.0
  0
LINE
  5
3C3
330
2
100
AcDbEntity
  8
03-01
100
AcDbLine
 10
623.2621622664521
 20
467.7759740060333
 30
0.0
 11
623.5848538596001
 21
466.8255079843349
 31
0.0
  0
LINE
  5
3C4
330
2
100
AcDbEntity
  8
03-01
100
AcDbLine
 10
617.4071682399389
 20
465.7591819495165
 30
0.0
 11
623.2621622664521
 21
467.7759740060333
 31
0.0
  0
ARC
  5
3C5
330
2
100
AcDbEntity
  8
03-01
100
AcDbCircle
 10
617.337889771813
 20
466.50220851079
 30
0.0
 40
0.7462492726322094
100
AcDbArc
 50
95.32675585561262
 51
275.3267558556257
  0
LINE
  5
3C6
330
2
100
AcDbEntity
  8
05-01
100
AcDbLine
 10
52.65391800434454
 20
451.1522806218083
 30
0.0
 11
87.74740196012528
 21
451.1522806218082
 31
0.0
  0
LINE
  5
3C7
330
2
100
AcDbEntity
  8
05-01
100
AcDbLine
 10
52.65391800434454
 20
471.1522806218083
 30
0.0
 11
87.74740196012462
 21
471.1522806218083
 31
0.0
  0
LINE
  5
3C8
330
2
100
AcDbEntity
  8
0
100
AcDbLine
 10
511.8378897714563
 20
450.148475320245
 30
0.0
 11
511.837889771537
 21
471.103190687223
 31
0.0
  0
DIMENSION
  5
3C9
330
2
100
AcDbEntity
  8
02-01
100
AcDbDimension
280
     0
  2
*D5
 10
697.8628373266124
 20
287.1484753198997
 30
0.0
 11
692.2378373266123
 21
380.1465726689451
 31
0.0
 71
     5
 42
185.9961946980904
 73
     0
 74
     0
 75
     0
  3
Wagner$0
100
AcDbAlignedDimension
 13
680.9348927137529
 23
473.1446700179901
 33
0.0
 14
650.3378897716374
 24
287.1484753198997
 34
0.0
 50
90.0
100
AcDbRotatedDimension
1001
ACAD
1000
DSTYLE
1002
{
1070
   271
1070
     1
1070
    40
1040
2.5
1002
}
  0
LINE
  5
3D6
330
2
100
AcDbEntity
  8
03-01
100
AcDbLine
 10
320.3005720788801
 20
423.1484753198926
 30
0.0
 11
238.9474019601177
 21
423.1484753198926
 31
0.0
  0
DIMENSION
  5
3D7
330
2
100
AcDbEntity
  8
09-01
100
AcDbDimension
280
     0
  2
*D4
 10
664.8378897719386
 20
259.0475234904722
 30
0.0
 11
588.3378897716974
 21
264.6725234904723
 31
0.0
 71
     5
 42
153.0000000004823
 73
     0
 74
     0
 75
     0
  3
Wagner$0
100
AcDbAlignedDimension
 13
511.8378897714563
 23
450.1484753202451
 33
0.0
 14
664.8378897719386
 24
450.148475320245
 34
0.0
100
AcDbRotatedDimension
1001
ACAD
1000
DSTYLE
1002
{
1070
    40
1040
2.5
1002
}
  0
LINE
  5
3E4
330
2
100
AcDbEntity
  8
0
100
AcDbLine
 10
511.8378897714563
 20
450.148475320245
 30
0.0
 11
525.3378897715312
 21
450.148475320245
 31
0.0
  0
DIMENSION
  5
3E5
330
2
100
AcDbEntity
  8
09-01
100
AcDbDimension
280
     0
  2
*D3
 10
371.2474019601248
 20
255.3677277617603
 30
0.0
 11
220.7474019601248
 21
260.9927277617603
 31
0.0
 71
     5
 42
301.0
 73
     0
 74
     0
 75
     0
  3
Wagner$0
100
AcDbAlignedDimension
 13
70.24740196012476
 23
231.2734418333625
 33
0.0
 14
371.2474019601248
 24
231.2734418333625
 34
0.0
100
AcDbRotatedDimension
1001
ACAD
1000
DSTYLE
1002
{
1070
    40
1040
2.5
1002
}
  0
LINE
  5
3F2
330
2
100
AcDbEntity
  8
0
100
AcDbLine
 10
349.9974019601259
 20
60.77344183332892
 30
0.0
 11
91.49740196012359
 21
60.77344183332892
 31
0.0
  0
DIMENSION
  5
3F3
330
2
100
AcDbEntity
  8
09-01
100
AcDbDimension
280
     0
  2
*D2
 10
391.0786420104344
 20
234.2734418333626
 30
0.0
 11
385.4536420104343
 21
220.5234418333795
 31
0.0
 71
     5
 42
27.49999999996632
 73
     0
 74
     0
 75
     0
  3
Wagner$0
100
AcDbAlignedDimension
 13
349.9974019601259
 23
206.7734418333962
 33
0.0
 14
368.2474019601248
 24
234.2734418333626
 34
0.0
 50
90.0
100
AcDbRotatedDimension
1001
ACAD
1000
DSTYLE
1002
{
1070
    40
1040
2.5
1002
}
  0
LINE
  5
400
330
2
100
AcDbEntity
  8
03-01
100
AcDbLine
 10
349.9974019601259
 20
203.2734418333626
 30
0.0
 11
91.49740196012359
 21
203.2734418333626
 31
0.0
  0
LINE
  5
401
330
2
100
AcDbEntity
  8
05-01
100
AcDbLine
 10
91.49740196012359
 20
200.2734418333626
 30
0.0
 11
349.9974019601259
 21
200.2734418333625
 31
0.0
  0
LINE
  5
402
330
2
100
AcDbEntity
  8
03-01
100
AcDbLine
 10
91.49740196012359
 20
197.2734418333624
 30
0.0
 11
349.9974019601259
 21
197.2734418333624
 31
0.0
  0
LINE
  5
403
330
2
100
AcDbEntity
  8
0
100
AcDbLine
 10
349.4974019601259
 20
206.7734418333962
 30
0.0
 11
349.4974019601259
 21
161.0234418333625
 31
0.0
  0
LINE
  5
404
330
2
100
AcDbEntity
  8
0
100
AcDbLine
 10
349.4974019601259
 20
161.0234418333625
 30
0.0
 11
91.9974019601236
 21
161.0234418333625
 31
0.0
  0
LINE
  5
405
330
2
100
AcDbEntity
  8
0
100
AcDbLine
 10
91.9974019601236
 20
206.7734418333962
 30
0.0
 11
91.9974019601236
 21
161.0234418333625
 31
0.0
  0
LINE
  5
406
330
2
100
AcDbEntity
  8
0
100
AcDbLine
 10
349.9974019601259
 20
206.7734418333962
 30
0.0
 11
91.49740196012359
 21
206.7734418333962
 31
0.0
  0
LINE
  5
407
330
2
100
AcDbEntity
  8
0
100
AcDbLine
 10
349.9974019601259
 20
60.77344183332892
 30
0.0
 11
349.9974019601259
 21
206.7734418333962
 31
0.0
  0
LINE
  5
408
330
2
100
AcDbEntity
  8
0
100
AcDbLine
 10
91.49740196012359
 20
206.7734418333962
 30
0.0
 11
91.49740196012359
 21
60.77344183332892
 31
0.0
  0
ARC
  5
409
330
2
100
AcDbEntity
  8
0
100
AcDbCircle
 10
73.24740196012476
 20
231.2734418333625
 30
0.0
 40
3.0
100
AcDbArc
 50
90.0
 51
180.0
  0
ARC
  5
40A
330
2
100
AcDbEntity
  8
0
100
AcDbCircle
 10
73.24740196012476
 20
36.27344183336254
 30
0.0
 40
3.0
100
AcDbArc
 50
180.0
 51
270.0
  0
ARC
  5
40B
330
2
100
AcDbEntity
  8
0
100
AcDbCircle
 10
368.2474019601248
 20
36.27344183336254
 30
0.0
 40
3.0
100
AcDbArc
 50
270.0
 51
0.0
  0
ARC
  5
40C
330
2
100
AcDbEntity
  8
0
100
AcDbCircle
 10
368.2474019601248
 20
231.2734418333625
 30
0.0
 40
3.0
100
AcDbArc
 50
0.0
 51
90.0
  0
LINE
  5
40D
330
2
100
AcDbEntity
  8
0
 62
     4
100
AcDbLine
 10
80.24740196012476
 20
224.2734418333625
 30
0.0
 11
80.24740196012478
 21
43.27344183336254
 31
0.0
  0
LINE
  5
40E
330
2
100
AcDbEntity
  8
0
100
AcDbLine
 10
70.24740196012476
 20
231.2734418333625
 30
0.0
 11
70.24740196012476
 21
36.27344183336254
 31
0.0
  0
LINE
  5
40F
330
2
100
AcDbEntity
  8
0
 62
     4
100
AcDbLine
 10
361.2474019601248
 20
224.2734418333625
 30
0.0
 11
80.24740196012476
 21
224.2734418333625
 31
0.0
  0
LINE
  5
410
330
2
100
AcDbEntity
  8
0
100
AcDbLine
 10
368.2474019601248
 20
234.2734418333626
 30
0.0
 11
73.24740196012476
 21
234.2734418333626
 31
0.0
  0
LINE
  5
411
330
2
100
AcDbEntity
  8
0
 62
     4
100
AcDbLine
 10
361.2474019601247
 20
43.27344183336253
 30
0.0
 11
361.2474019601248
 21
224.2734418333625
 31
0.0
  0
LINE
  5
412
330
2
100
AcDbEntity
  8
0
100
AcDbLine
 10
371.2474019601248
 20
36.27344183336254
 30
0.0
 11
371.2474019601248
 21
231.2734418333625
 31
0.0
  0
LINE
  5
413
330
2
100
AcDbEntity
  8
0
 62
     4
100
AcDbLine
 10
80.24740196012478
 20
43.27344183336254
 30
0.0
 11
361.2474019601247
 21
43.27344183336253
 31
0.0
  0
LINE
  5
414
330
2
100
AcDbEntity
  8
0
100
AcDbLine
 10
73.24740196012476
 20
33.27344183336254
 30
0.0
 11
368.2474019601248
 21
33.27344183336254
 31
0.0
  0
LINE
  5
415
330
2
100
AcDbEntity
  8
05-01
100
AcDbLine
 10
84.41338382160621
 20
463.1484753201125
 30
0.0
 11
101.6633838216062
 21
463.1484753201125
 31
0.0
  0
LINE
  5
416
330
2
100
AcDbEntity
  8
03-01
100
AcDbLine
 10
349.4974019601253
 20
451.1484753202449
 30
0.0
 11
91.99740196012431
 21
451.148475320245
 31
0.0
  0
CIRCLE
  5
417
330
2
100
AcDbEntity
  8
03-01
100
AcDbCircle
 10
654.837889771506
 20
463.1484753201125
 30
0.0
 40
3.0
  0
CIRCLE
  5
418
330
2
100
AcDbEntity
  8
03-01
100
AcDbCircle
 10
521.837889771668
 20
463.1484753201125
 30
0.0
 40
3.0
  0
LINE
  5
419
330
2
100
AcDbEntity
  8
0
100
AcDbLine
 10
497.7492769630388
 20
473.1446700179913
 30
0.0
 11
678.9265025800432
 21
473.14467001799
 31
0.0
  0
LINE
  5
41A
330
2
100
AcDbEntity
  8
03-01
100
AcDbLine
 10
648.8378897714206
 20
463.1484753201125
 30
0.0
 11
648.8378897714206
 21
471.1484753198996
 31
0.0
  0
ARC
  5
41B
330
2
100
AcDbEntity
  8
03-01
100
AcDbCircle
 10
654.837889771506
 20
463.1484753201125
 30
0.0
 40
6.0
100
AcDbArc
 50
180.0
 51
0.0
  0
LINE
  5
41C
330
2
100
AcDbEntity
  8
03-01
100
AcDbLine
 10
660.8378897715915
 20
463.1484753201125
 30
0.0
 11
660.8378897715915
 21
471.1484753198998
 31
0.0
  0
LINE
  5
41D
330
2
100
AcDbEntity
  8
05-01
100
AcDbLine
 10
654.837889771506
 20
455.1484753201125
 30
0.0
 11
654.837889771506
 21
471.1484753201125
 31
0.0
  0
LINE
  5
41E
330
2
100
AcDbEntity
  8
0
100
AcDbLine
 10
651.3378897718638
 20
450.1484753202449
 30
0.0
 11
664.8378897719386
 21
450.148475320245
 31
0.0
  0
LINE
  5
41F
330
2
100
AcDbEntity
  8
03-01
100
AcDbLine
 10
515.3378897715496
 20
472.1484753198995
 30
0.0
 11
497.8378897715356
 21
472.1484753198996
 31
0.0
  0
LINE
  5
420
330
2
100
AcDbEntity
  8
05-01
100
AcDbLine
 10
661.8378897715061
 20
463.1484753201125
 30
0.0
 11
646.837889771506
 21
463.1484753201125
 31
0.0
  0
LINE
  5
421
330
2
100
AcDbEntity
  8
05-01
100
AcDbLine
 10
654.837889771506
 20
455.1484753201125
 30
0.0
 11
654.837889771506
 21
471.1484753201125
 31
0.0
  0
LINE
  5
422
330
2
100
AcDbEntity
  8
05-01
100
AcDbLine
 10
514.8378897716679
 20
463.1484753201125
 30
0.0
 11
529.837889771668
 21
463.1484753201125
 31
0.0
  0
LINE
  5
423
330
2
100
AcDbEntity
  8
05-01
100
AcDbLine
 10
521.837889771668
 20
455.1484753201125
 30
0.0
 11
521.837889771668
 21
471.1484753201125
 31
0.0
  0
LINE
  5
424
330
2
100
AcDbEntity
  8
03-01
100
AcDbLine
 10
529.3744780858919
 20
471.1484753198996
 30
0.0
 11
559.4071821635314
 21
467.2453844080887
 31
0.0
  0
LINE
  5
425
330
2
100
AcDbEntity
  8
03-01
100
AcDbLine
 10
515.3378897715494
 20
471.1484753198998
 30
0.0
 11
529.3744780858919
 21
471.1484753198996
 31
0.0
  0
LINE
  5
426
330
2
100
AcDbEntity
  8
03-01
100
AcDbLine
 10
529.0378897717037
 20
472.1484753201034
 30
0.0
 11
515.3378897715586
 21
472.1484753201034
 31
0.0
  0
LINE
  5
427
330
2
100
AcDbEntity
  8
03-01
100
AcDbLine
 10
529.2986937910536
 20
472.159861443561
 30
0.0
 11
529.0378897717037
 21
472.1484753201034
 31
0.0
  0
LINE
  5
428
330
2
100
AcDbEntity
  8
03-01
100
AcDbLine
 10
559.5003519992396
 20
468.244651056352
 30
0.0
 11
529.2986937910536
 21
472.159861443561
 31
0.0
  0
ARC
  5
429
330
2
100
AcDbEntity
  8
03-01
100
AcDbCircle
 10
559.3378897715819
 20
466.50220851079
 30
0.0
 40
1.750000000000045
100
AcDbArc
 50
264.6732441443857
 51
84.67324414440041
  0
LINE
  5
42A
330
2
100
AcDbEntity
  8
03-01
100
AcDbLine
 10
553.0909256837949
 20
466.8255079843349
 30
0.0
 11
559.1754275439236
 21
464.7597659652281
 31
0.0
  0
LINE
  5
42B
330
2
100
AcDbEntity
  8
03-01
100
AcDbLine
 10
553.4136172769429
 20
467.7759740060333
 30
0.0
 11
553.0909256837949
 21
466.8255079843349
 31
0.0
  0
LINE
  5
42C
330
2
100
AcDbEntity
  8
03-01
100
AcDbLine
 10
559.268611303456
 20
465.7591819495165
 30
0.0
 11
553.4136172769429
 21
467.7759740060333
 31
0.0
  0
ARC
  5
42D
330
2
100
AcDbEntity
  8
03-01
100
AcDbCircle
 10
559.337889771582
 20
466.50220851079
 30
0.0
 40
0.7462492726322094
100
AcDbArc
 50
264.6732441443734
 51
84.6732441443914
  0
LINE
  5
42E
330
2
100
AcDbEntity
  8
03-01
100
AcDbLine
 10
527.8378897717534
 20
463.1484753201125
 30
0.0
 11
527.8378897717535
 21
471.1484753198998
 31
0.0
  0
LINE
  5
42F
330
2
100
AcDbEntity
  8
03-01
100
AcDbLine
 10
515.8378897715825
 20
463.1484753201125
 30
0.0
 11
515.8378897715823
 21
471.1484753198998
 31
0.0
  0
ARC
  5
430
330
2
100
AcDbEntity
  8
03-01
100
AcDbCircle
 10
521.837889771668
 20
463.1484753201125
 30
0.0
 40
6.0
100
AcDbArc
 50
180.0
 51
0.0
  0
LINE
  5
431
330
2
100
AcDbEntity
  8
03-01
100
AcDbLine
 10
527.8378897717534
 20
463.1484753201125
 30
0.0
 11
527.8378897717534
 21
470.1484753198998
 31
0.0
  0
LINE
  5
432
330
2
100
AcDbEntity
  8
03-01
100
AcDbLine
 10
648.3378897715351
 20
403.9484753199373
 30
0.0
 11
648.3378897715351
 21
423.9484753199191
 31
0.0
  0
LINE
  5
433
330
2
100
AcDbEntity
  8
03-01
100
AcDbLine
 10
528.3378897715351
 20
423.9484753199191
 30
0.0
 11
528.3378897715351
 21
403.9484753199373
 31
0.0
  0
LINE
  5
434
330
2
100
AcDbEntity
  8
03-01
100
AcDbLine
 10
648.3378897715351
 20
423.9484753199191
 30
0.0
 11
528.3378897715351
 21
423.9484753199191
 31
0.0
  0
DIMENSION
  5
435
330
2
100
AcDbEntity
  8
09-01
100
AcDbDimension
280
     0
  2
*D1
 10
648.3378897715351
 20
434.7458282993541
 30
0.0
 11
588.3378897715352
 21
440.3708282993541
 31
0.0
 71
     5
 42
120.0
 73
     0
 74
     0
 75
     0
  3
Wagner$0
100
AcDbAlignedDimension
 13
528.3378897715351
 23
423.9484753199191
 33
0.0
 14
648.3378897715351
 24
423.9484753199191
 34
0.0
100
AcDbRotatedDimension
1001
ACAD
1000
DSTYLE
1002
{
1070
    40
1040
2.5
1002
}
  0
LINE
  5
442
330
2
100
AcDbEntity
  8
0
100
AcDbLine
 10
526.3378897715365
 20
286.1484753198997
 30
0.0
 11
650.3378897716374
 21
286.1484753198997
 31
0.0
  0
LINE
  5
443
330
2
100
AcDbEntity
  8
03-01
100
AcDbLine
 10
542.037889771587
 20
291.5484753198926
 30
0.0
 11
634.637889771587
 21
291.5484753198926
 31
0.0
  0
LINE
  5
444
330
2
100
AcDbEntity
  8
0
100
AcDbLine
 10
525.3378897715365
 20
287.1484753198997
 30
0.0
 11
525.3378897715312
 21
450.148475320245
 31
0.0
  0
LINE
  5
445
330
2
100
AcDbEntity
  8
03-01
100
AcDbLine
 10
348.7474019601237
 20
403.9484753199373
 30
0.0
 11
348.7474019601237
 21
423.9484753199191
 31
0.0
  0
LINE
  5
446
330
2
100
AcDbEntity
  8
03-01
100
AcDbLine
 10
92.74740196012373
 20
423.9484753199191
 30
0.0
 11
92.74740196012373
 21
403.9484753199373
 31
0.0
  0
LINE
  5
447
330
2
100
AcDbEntity
  8
05-01
100
AcDbLine
 10
87.74740196012528
 20
451.1522806218082
 30
0.0
 11
87.74740196012462
 21
471.1522806218083
 31
0.0
  0
LINE
  5
448
330
2
100
AcDbEntity
  8
0
100
AcDbLine
 10
90.49740196013098
 20
286.1484753198998
 30
0.0
 11
90.49740196012459
 21
471.1031906872189
 31
0.0
  0
LINE
  5
449
330
2
100
AcDbEntity
  8
0
100
AcDbLine
 10
90.49740196013098
 20
286.1484753198998
 30
0.0
 11
104.4974019601295
 21
286.1484753198997
 31
0.0
  0
LINE
  5
44A
330
2
100
AcDbEntity
  8
0
100
AcDbLine
 10
104.4974019601294
 20
287.1484753198997
 30
0.0
 11
336.9974019601201
 21
287.1484753198997
 31
0.0
  0
DIMENSION
  5
44B
330
2
100
AcDbEntity
  8
09-01
100
AcDbDimension
280
     0
  2
*D0
 10
348.7474019601237
 20
438.0072417923257
 30
0.0
 11
220.7474019601237
 21
443.6322417923256
 31
0.0
 71
     5
 42
256.0
 73
     0
 74
     0
 75
     0
  3
Wagner$0
100
AcDbAlignedDimension
 13
92.74740196012377
 23
423.9484753199191
 33
0.0
 14
348.7474019601237
 24
423.9484753199191
 34
0.0
100
AcDbRotatedDimension
1001
ACAD
1000
DSTYLE
1002
{
1070
    40
1040
2.5
1002
}
  0
LINE
  5
458
330
2
100
AcDbEntity
  8
03-01
100
AcDbLine
 10
348.7474019601237
 20
423.9484753199191
 30
0.0
 11
92.74740196012373
 21
423.9484753199191
 31
0.0
  0
ENDSEC
  0
SECTION
  2
OBJECTS
  0
DICTIONARY
  5
B
330
0
100
AcDbDictionary
281
     1
  3
ACAD_COLOR
350
4E
  3
ACAD_GROUP
350
3B
  3
ACAD_LAYOUT
350
18
  3
ACAD_MATERIAL
350
D
  3
ACAD_MLEADERSTYLE
350
51
  3
ACAD_MLINESTYLE
350
3C
  3
ACAD_PLOTSETTINGS
350
3D
  3
ACAD_PLOTSTYLENAME
350
A
  3
ACAD_SCALELIST
350
4F
  3
ACAD_TABLESTYLE
350
50
  3
ACAD_VISUALSTYLE
350
31
  3
ACDB_RECOMPOSE_DATA
350
465
  3
AcDbVariableDictionary
350
45B
  0
DICTIONARY
  5
32
330
2E
100
AcDbDictionary
280
     1
281
     1
  0
DICTIONARY
  5
21
330
20
100
AcDbDictionary
280
     1
281
     1
  3
ACAD_LAYERFILTERS
360
22
  3
ACAD_LAYERSTATES
360
23
  3
ACLYDICTIONARY
360
24
  0
DICTIONARY
  5
7
330
6
100
AcDbDictionary
280
     1
281
     1
  3
ADSK_XREC_LAYER_RECONCILED
360
8
  0
DICTIONARY
  5
2B0
330
2AF
100
AcDbDictionary
280
     1
281
     1
  3
ADSK_XREC_LAYER_RECONCILED
360
2B1
  0
DICTIONARY
  5
2B9
330
2B8
100
AcDbDictionary
280
     1
281
     1
  3
ADSK_XREC_LAYER_RECONCILED
360
2BA
  0
DICTIONARY
  5
F1
330
F0
100
AcDbDictionary
280
     1
281
     1
  3
ADSK_XREC_LAYER_RECONCILED
360
F2
  0
DICTIONARY
  5
CE
330
CD
100
AcDbDictionary
280
     1
281
     1
  3
ADSK_XREC_LAYER_RECONCILED
360
CF
  0
DICTIONARY
  5
53
330
52
100
AcDbDictionary
280
     1
281
     1
  3
ADSK_XREC_LAYER_RECONCILED
360
54
  0
DICTIONARY
  5
EC
330
EB
100
AcDbDictionary
280
     1
281
     1
  3
ADSK_XREC_LAYER_RECONCILED
360
ED
  0
DICTIONARY
  5
12C
330
12B
100
AcDbDictionary
280
     1
281
     1
  3
ADSK_XREC_LAYER_RECONCILED
360
12D
  0
DICTIONARY
  5
116
330
115
100
AcDbDictionary
280
     1
281
     1
  3
ADSK_XREC_LAYER_RECONCILED
360
117
  0
DICTIONARY
  5
3
330
2
100
AcDbDictionary
280
     1
281
     1
  3
ACAD_SORTENTS
360
45A
  0
DICTIONARY
  5
E7
330
E6
100
AcDbDictionary
280
     1
281
     1
  3
ACAD_SORTENTS
360
459
  0
DICTIONARY
  5
4E
102
{ACAD_REACTORS
330
B
102
}
330
B
100
AcDbDictionary
281
     1
  0
DICTIONARY
  5
3B
102
{ACAD_REACTORS
330
B
102
}
330
B
100
AcDbDictionary
281
     1
  0
DICTIONARY
  5
18
102
{ACAD_REACTORS
330
B
102
}
330
B
100
AcDbDictionary
281
     1
  3
Layout1
350
1F
  3
Model
350
17
  0
DICTIONARY
  5
D
102
{ACAD_REACTORS
330
B
102
}
330
B
100
AcDbDictionary
281
     1
  3
ByBlock
350
46
  3
ByLayer
350
3E
  3
Global
350
C
  0
DICTIONARY
  5
51
102
{ACAD_REACTORS
330
B
102
}
330
B
100
AcDbDictionary
281
     1
  0
DICTIONARY
  5
3C
102
{ACAD_REACTORS
330
B
102
}
330
B
100
AcDbDictionary
281
     1
  3
STANDARD
350
56
  0
DICTIONARY
  5
3D
102
{ACAD_REACTORS
330
B
102
}
330
B
100
AcDbDictionary
281
     1
  0
ACDBDICTIONARYWDFLT
  5
A
102
{ACAD_REACTORS
330
B
102
}
330
B
100
AcDbDictionary
281
     1
  3
Normal
350
9
100
AcDbDictionaryWithDefault
340
9
  0
DICTIONARY
  5
4F
102
{ACAD_REACTORS
330
B
102
}
330
B
100
AcDbDictionary
281
     1
  3
A0
350
5B
  3
A1
350
5C
  3
A2
350
5D
  3
A3
350
5E
  3
A4
350
5F
  3
A5
350
60
  3
A6
350
61
  3
A7
350
62
  3
A8
350
63
  3
A9
350
64
  3
B0
350
65
  3
B1
350
66
  3
B2
350
67
  3
B3
350
68
  3
B4
350
69
  3
B5
350
6A
  3
B6
350
6B
  3
B7
350
6C
  3
B8
350
6D
  3
B9
350
6E
  3
C0
350
6F
  3
C1
350
70
  3
C2
350
71
  3
C3
350
72
  3
C4
350
73
  3
C5
350
74
  3
C6
350
75
  3
C7
350
76
  3
C8
350
77
  3
C9
350
78
  3
D0
350
79
  3
D1
350
7A
  3
D2
350
7B
  0
DICTIONARY
  5
50
102
{ACAD_REACTORS
330
B
102
}
330
B
100
AcDbDictionary
281
     1
  3
Standard
350
57
  0
DICTIONARY
  5
31
102
{ACAD_REACTORS
330
B
102
}
330
B
100
AcDbDictionary
281
     1
  3
2dWireframe
350
30
  3
3dWireframe
350
5A
  3
Realistic
350
59
  0
XRECORD
  5
465
102
{ACAD_REACTORS
330
B
102
}
330
B
100
AcDbXrecord
280
     1
 90
        1
330
57
  0
DICTIONARY
  5
45B
102
{ACAD_REACTORS
330
B
102
}
330
B
100
AcDbDictionary
281
     1
  3
CANNOSCALE
350
45F
  3
CMLEADERSTYLE
350
45D
  3
CTABLESTYLE
350
45C
  3
LAYEREVAL
350
461
  3
LAYERNOTIFY
350
462
  3
LIGHTINGUNITS
350
460
  3
MSLTSCALE
350
45E
  0
DICTIONARY
  5
22
102
{ACAD_REACTORS
330
21
102
}
330
21
100
AcDbDictionary
281
     1
  0
DICTIONARY
  5
23
102
{ACAD_REACTORS
330
21
102
}
330
21
100
AcDbDictionary
281
     1
  0
DICTIONARY
  5
24
102
{ACAD_REACTORS
330
21
102
}
330
21
100
AcDbDictionary
281
     1
1001
ACAD
1000
<All
  0
XRECORD
  5
8
102
{ACAD_REACTORS
330
7
102
}
330
7
100
AcDbXrecord
280
     1
290
     1
  0
XRECORD
  5
2B1
102
{ACAD_REACTORS
330
2B0
102
}
330
2B0
100
AcDbXrecord
280
     1
290
     1
  0
XRECORD
  5
2BA
102
{ACAD_REACTORS
330
2B9
102
}
330
2B9
100
AcDbXrecord
280
     1
290
     1
  0
XRECORD
  5
F2
102
{ACAD_REACTORS
330
F1
102
}
330
F1
100
AcDbXrecord
280
     1
290
     1
  0
XRECORD
  5
CF
102
{ACAD_REACTORS
330
CE
102
}
330
CE
100
AcDbXrecord
280
     1
290
     1
  0
XRECORD
  5
54
102
{ACAD_REACTORS
330
53
102
}
330
53
100
AcDbXrecord
280
     1
290
     1
  0
XRECORD
  5
ED
102
{ACAD_REACTORS
330
EC
102
}
330
EC
100
AcDbXrecord
280
     1
290
     1
  0
XRECORD
  5
12D
102
{ACAD_REACTORS
330
12C
102
}
330
12C
100
AcDbXrecord
280
     1
290
     1
  0
XRECORD
  5
117
102
{ACAD_REACTORS
330
116
102
}
330
116
100
AcDbXrecord
280
     1
290
     1
  0
SORTENTSTABLE
  5
45A
102
{ACAD_REACTORS
330
3
102
}
330
3
100
AcDbSortentsTable
330
2
331
30C
  5
3BF
331
2CD
  5
416
331
308
  5
3C3
331
347
  5
384
331
343
  5
388
331
2C9
  5
41A
331
304
  5
3C7
331
300
  5
3D7
331
386
  5
345
331
382
  5
349
331
37E
  5
34D
331
3BD
  5
30E
331
433
  5
E3
331
37A
  5
351
331
3B9
  5
312
331
33F
  5
38C
331
2C5
  5
41E
331
2C1
  5
422
331
2FC
  5
3F3
331
33B
  5
390
331
2BD
  5
426
331
2F8
  5
403
331
337
  5
394
331
333
  5
398
331
2F4
  5
407
331
E3
  5
433
331
2F0
  5
40B
331
DF
  5
443
331
98
  5
44A
331
458
  5
7C
331
42F
  5
2AD
331
376
  5
355
331
3B5
  5
316
331
3B1
  5
31A
331
42B
  5
2B5
331
372
  5
359
331
36E
  5
35D
331
3AD
  5
31E
331
427
  5
2BC
331
423
  5
2C0
331
36A
  5
361
331
3A9
  5
322
331
3E4
  5
2FF
331
32F
  5
39C
331
2B5
  5
42B
331
32B
  5
3A0
331
2AD
  5
42F
331
327
  5
3A4
331
323
  5
3A8
331
2E0
  5
40F
331
448
  5
B2
331
41F
  5
2C4
331
366
  5
365
331
3A5
  5
326
331
3A1
  5
32A
331
41B
  5
2C8
331
362
  5
369
331
35E
  5
36D
331
39D
  5
32E
331
417
  5
2CC
331
413
  5
2D0
331
35A
  5
371
331
399
  5
332
331
31F
  5
3AC
331
31B
  5
3B0
331
317
  5
3B4
331
313
  5
3B8
331
2D0
  5
413
331
BF
  5
447
331
7C
  5
458
331
444
  5
D2
331
40F
  5
2E0
331
356
  5
375
331
395
  5
336
331
391
  5
33A
331
40B
  5
2F0
331
352
  5
379
331
34E
  5
37D
331
38D
  5
33E
331
3C8
  5
303
331
407
  5
2F4
331
34A
  5
381
331
389
  5
342
331
3C4
  5
307
331
403
  5
2F8
331
3C0
  5
30B
331
30F
  5
3BC
331
30B
  5
3C0
331
2CC
  5
417
331
307
  5
3C4
331
346
  5
385
331
342
  5
389
331
2C8
  5
41B
331
303
  5
3C8
331
385
  5
346
331
381
  5
34A
331
37D
  5
34E
331
3BC
  5
30F
331
432
  5
E4
331
379
  5
352
331
3B8
  5
313
331
3F3
  5
2FC
331
2FF
  5
3E4
331
33E
  5
38D
331
2C4
  5
41F
331
2C0
  5
423
331
2FB
  5
400
331
33A
  5
391
331
2BC
  5
427
331
2F7
  5
404
331
336
  5
395
331
332
  5
399
331
2F3
  5
408
331
E2
  5
434
331
3B4
  5
317
331
42E
  5
2AE
331
375
  5
356
331
3B0
  5
31B
331
42A
  5
2B6
331
371
  5
35A
331
36D
  5
35E
331
3AC
  5
31F
331
426
  5
2BD
331
422
  5
2C1
331
369
  5
362
331
3A8
  5
323
331
32E
  5
39D
331
2B4
  5
42C
331
32A
  5
3A1
331
326
  5
3A5
331
322
  5
3A9
331
2E3
  5
40C
331
D2
  5
444
331
8B
  5
44B
331
44B
  5
8B
331
41E
  5
2C5
331
365
  5
366
331
3A4
  5
327
331
3A0
  5
32B
331
41A
  5
2C9
331
361
  5
36A
331
35D
  5
36E
331
39C
  5
32F
331
3D7
  5
300
331
416
  5
2CD
331
412
  5
2DD
331
359
  5
372
331
398
  5
333
331
31E
  5
3AD
331
2DF
  5
410
331
2A0
  5
430
331
31A
  5
3B1
331
316
  5
3B5
331
312
  5
3B9
331
447
  5
BF
331
443
  5
DF
331
40E
  5
2E1
331
355
  5
376
331
394
  5
337
331
390
  5
33B
331
40A
  5
2F1
331
351
  5
37A
331
34D
  5
37E
331
38C
  5
33F
331
3C7
  5
304
331
406
  5
2F5
331
402
  5
2F9
331
349
  5
382
331
388
  5
343
331
3C3
  5
308
331
30E
  5
3BD
331
2CF
  5
414
331
30A
  5
3C1
331
2CB
  5
418
331
306
  5
3C5
331
345
  5
386
331
341
  5
38A
331
302
  5
3C9
331
B2
  5
448
331
384
  5
347
331
380
  5
34B
331
3BF
  5
30C
331
435
  5
E1
331
37C
  5
34F
331
3BB
  5
310
331
431
  5
E5
331
378
  5
353
331
3F2
  5
2FD
331
2C7
  5
41C
331
2C3
  5
420
331
2FE
  5
3E5
331
33D
  5
38E
331
2BF
  5
424
331
2FA
  5
401
331
339
  5
392
331
2BB
  5
428
331
2F6
  5
405
331
335
  5
396
331
331
  5
39A
331
E5
  5
431
331
2F2
  5
409
331
E1
  5
435
331
3B7
  5
314
331
3B3
  5
318
331
42D
  5
2B3
331
374
  5
357
331
370
  5
35B
331
3AF
  5
31C
331
429
  5
2B7
331
36C
  5
35F
331
3AB
  5
320
331
425
  5
2BE
331
421
  5
2C2
331
368
  5
363
331
2B7
  5
429
331
32D
  5
39E
331
2B3
  5
42D
331
329
  5
3A2
331
325
  5
3A6
331
321
  5
3AA
331
2E2
  5
40D
331
D1
  5
445
331
44A
  5
98
331
3A7
  5
324
331
3A3
  5
328
331
41D
  5
2C6
331
364
  5
367
331
39F
  5
32C
331
419
  5
2CA
331
360
  5
36B
331
35C
  5
36F
331
39B
  5
330
331
3D6
  5
301
331
415
  5
2CE
331
411
  5
2DE
331
358
  5
373
331
2DE
  5
411
331
31D
  5
3AE
331
319
  5
3B2
331
315
  5
3B6
331
311
  5
3BA
331
446
  5
CC
331
442
  5
E0
331
397
  5
334
331
40D
  5
2E2
331
354
  5
377
331
393
  5
338
331
38F
  5
33C
331
409
  5
2F2
331
350
  5
37B
331
34C
  5
37F
331
38B
  5
340
331
3C6
  5
305
331
405
  5
2F6
331
401
  5
2FA
331
348
  5
383
331
3C2
  5
309
331
30D
  5
3BE
331
2CE
  5
415
331
309
  5
3C2
331
344
  5
387
331
2CA
  5
419
331
305
  5
3C6
331
340
  5
38B
331
301
  5
3D6
331
387
  5
344
331
383
  5
348
331
37F
  5
34C
331
3BE
  5
30D
331
434
  5
E2
331
37B
  5
350
331
3BA
  5
311
331
430
  5
2A0
331
2C6
  5
41D
331
2C2
  5
421
331
2FD
  5
3F2
331
33C
  5
38F
331
2BE
  5
425
331
2F9
  5
402
331
338
  5
393
331
2F5
  5
406
331
334
  5
397
331
330
  5
39B
331
E4
  5
432
331
A5
  5
449
331
2F1
  5
40A
331
E0
  5
442
331
377
  5
354
331
3B6
  5
315
331
3B2
  5
319
331
42C
  5
2B4
331
373
  5
358
331
36F
  5
35C
331
3AE
  5
31D
331
428
  5
2BB
331
424
  5
2BF
331
36B
  5
360
331
3AA
  5
321
331
3E5
  5
2FE
331
420
  5
2C3
331
2B6
  5
42A
331
32C
  5
39F
331
2AE
  5
42E
331
328
  5
3A3
331
324
  5
3A7
331
320
  5
3AB
331
2E1
  5
40E
331
CC
  5
446
331
449
  5
A5
331
367
  5
364
331
3A6
  5
325
331
3A2
  5
329
331
41C
  5
2C7
331
363
  5
368
331
35F
  5
36C
331
39E
  5
32D
331
418
  5
2CB
331
35B
  5
370
331
39A
  5
331
331
414
  5
2CF
331
410
  5
2DF
331
2DD
  5
412
331
31C
  5
3AF
331
318
  5
3B3
331
314
  5
3B7
331
310
  5
3BB
331
445
  5
D1
331
357
  5
374
331
396
  5
335
331
392
  5
339
331
40C
  5
2E3
331
353
  5
378
331
38E
  5
33D
331
3C9
  5
302
331
408
  5
2F3
331
34F
  5
37C
331
34B
  5
380
331
38A
  5
341
331
3C5
  5
306
331
404
  5
2F7
331
400
  5
2FB
331
3C1
  5
30A
  0
SORTENTSTABLE
  5
459
102
{ACAD_REACTORS
330
E7
102
}
330
E7
100
AcDbSortentsTable
330
E6
  0
LAYOUT
  5
1F
102
{ACAD_REACTORS
330
18
102
}
330
18
100
AcDbPlotSettings
  1

  2
HP LaserJet 4 Plus
  4

  6

 40
0.0
 41
0.0
 42
0.0
 43
0.0
 44
0.0
 45
0.0
 46
0.0
 47
0.0
 48
0.0
 49
0.0
140
0.0
141
0.0
142
1.0
143
1.0
 70
   688
 72
     0
 73
     0
 74
     5
  7
CNC-Soft.ctb
 75
    16
147
1.0
 76
     0
 77
     2
 78
   300
148
0.0
149
0.0
100
AcDbLayout
  1
Layout1
 70
     0
 71
     1
 10
0.0
 20
0.0
 11
420.0
 21
297.0
 12
0.0
 22
0.0
 32
0.0
 14
1.000000000000000E+20
 24
1.000000000000000E+20
 34
1.000000000000000E+20
 15
-1.000000000000000E+20
 25
-1.000000000000000E+20
 35
-1.000000000000000E+20
146
0.0
 13
0.0
 23
0.0
 33
0.0
 16
1.0
 26
0.0
 36
0.0
 17
0.0
 27
1.0
 37
0.0
 76
     0
330
1C
  0
LAYOUT
  5
17
102
{ACAD_XDICTIONARY
360
19
102
}
102
{ACAD_REACTORS
330
18
102
}
330
18
100
AcDbPlotSettings
  1

  2
DWG To PDF.pc3
  4
ISO_expand_A4_(210.00_x_297.00_MM)
  6

 40
5.793749809265136
 41
10.79374980926513
 42
5.793746948242187
 43
10.79376220703125
 44
210.0
 45
297.0
 46
0.0
 47
0.0
 48
839.9999999999163
 49
0.0
140
1680.000000452414
141
594.0000005323327
142
1.0
143
3.049970633511003
 70
  3760
 72
     1
 73
     1
 74
     4
  7
monochrome.ctb
 75
     0
147
0.3278720093277883
 76
     1
 77
     2
 78
   300
148
-839.9999999999163
149
0.0
100
AcDbLayout
  1
Model
 70
     1
 71
     0
 10
0.0
 20
0.0
 11
12.0
 21
9.0
 12
0.0
 22
0.0
 32
0.0
 14
0.0
 24
0.0
 34
0.0
 15
0.0
 25
0.0
 35
0.0
146
0.0
 13
0.0
 23
0.0
 33
0.0
 16
1.0
 26
0.0
 36
0.0
 17
0.0
 27
1.0
 37
0.0
 76
     0
330
2
331
2F
1001
ACAD_PSEXT
1000
DWG To PDF.pc3
1000
DWG To PDF
1000
Datei
1000

1070
     0
  0
MATERIAL
  5
46
102
{ACAD_XDICTIONARY
360
47
102
}
102
{ACAD_REACTORS
330
D
102
}
330
D
100
AcDbMaterial
  1
ByBlock
 72
     0
 43
0.0208333333333333
 43
0.0
 43
0.0
 43
0.0
 43
0.0
 43
0.0208333333333333
 43
0.0
 43
0.0
 43
0.0
 43
0.0
 43
1.0
 43
0.0
 43
0.0
 43
0.0
 43
0.0
 43
1.0
 77
     0
 47
0.0208333333333333
 47
0.0
 47
0.0
 47
0.0
 47
0.0
 47
0.0208333333333333
 47
0.0
 47
0.0
 47
0.0
 47
0.0
 47
1.0
 47
0.0
 47
0.0
 47
0.0
 47
0.0
 47
1.0
171
     0
 49
0.0208333333333333
 49
0.0
 49
0.0
 49
0.0
 49
0.0
 49
0.0208333333333333
 49
0.0
 49
0.0
 49
0.0
 49
0.0
 49
1.0
 49
0.0
 49
0.0
 49
0.0
 49
0.0
 49
1.0
175
     0
142
0.0208333333333333
142
0.0
142
0.0
142
0.0
142
0.0
142
0.0208333333333333
142
0.0
142
0.0
142
0.0
142
0.0
142
1.0
142
0.0
142
0.0
142
0.0
142
0.0
142
1.0
179
     0
144
0.0208333333333333
144
0.0
144
0.0
144
0.0
144
0.0
144
0.0208333333333333
144
0.0
144
0.0
144
0.0
144
0.0
144
1.0
144
0.0
144
0.0
144
0.0
144
0.0
144
1.0
147
0.0208333333333333
147
0.0
147
0.0
147
0.0
147
0.0
147
0.0208333333333333
147
0.0
147
0.0
147
0.0
147
0.0
147
1.0
147
0.0
147
0.0
147
0.0
147
0.0
147
1.0
  0
MATERIAL
  5
3E
102
{ACAD_XDICTIONARY
360
3F
102
}
102
{ACAD_REACTORS
330
D
102
}
330
D
100
AcDbMaterial
  1
ByLayer
 72
     0
 43
0.0208333333333333
 43
0.0
 43
0.0
 43
0.0
 43
0.0
 43
0.0208333333333333
 43
0.0
 43
0.0
 43
0.0
 43
0.0
 43
1.0
 43
0.0
 43
0.0
 43
0.0
 43
0.0
 43
1.0
 77
     0
 47
0.0208333333333333
 47
0.0
 47
0.0
 47
0.0
 47
0.0
 47
0.0208333333333333
 47
0.0
 47
0.0
 47
0.0
 47
0.0
 47
1.0
 47
0.0
 47
0.0
 47
0.0
 47
0.0
 47
1.0
171
     0
 49
0.0208333333333333
 49
0.0
 49
0.0
 49
0.0
 49
0.0
 49
0.0208333333333333
 49
0.0
 49
0.0
 49
0.0
 49
0.0
 49
1.0
 49
0.0
 49
0.0
 49
0.0
 49
0.0
 49
1.0
175
     0
142
0.0208333333333333
142
0.0
142
0.0
142
0.0
142
0.0
142
0.0208333333333333
142
0.0
142
0.0
142
0.0
142
0.0
142
1.0
142
0.0
142
0.0
142
0.0
142
0.0
142
1.0
179
     0
144
0.0208333333333333
144
0.0
144
0.0
144
0.0
144
0.0
144
0.0208333333333333
144
0.0
144
0.0
144
0.0
144
0.0
144
1.0
144
0.0
144
0.0
144
0.0
144
0.0
144
1.0
147
0.0208333333333333
147
0.0
147
0.0
147
0.0
147
0.0
147
0.0208333333333333
147
0.0
147
0.0
147
0.0
147
0.0
147
1.0
147
0.0
147
0.0
147
0.0
147
0.0
147
1.0
  0
MATERIAL
  5
C
102
{ACAD_XDICTIONARY
360
E
102
}
102
{ACAD_REACTORS
330
D
102
}
330
D
100
AcDbMaterial
  1
Global
 72
     0
 43
0.0208333333333333
 43
0.0
 43
0.0
 43
0.0
 43
0.0
 43
0.0208333333333333
 43
0.0
 43
0.0
 43
0.0
 43
0.0
 43
1.0
 43
0.0
 43
0.0
 43
0.0
 43
0.0
 43
1.0
 77
     0
 47
0.0208333333333333
 47
0.0
 47
0.0
 47
0.0
 47
0.0
 47
0.0208333333333333
 47
0.0
 47
0.0
 47
0.0
 47
0.0
 47
1.0
 47
0.0
 47
0.0
 47
0.0
 47
0.0
 47
1.0
171
     0
 49
0.0208333333333333
 49
0.0
 49
0.0
 49
0.0
 49
0.0
 49
0.0208333333333333
 49
0.0
 49
0.0
 49
0.0
 49
0.0
 49
1.0
 49
0.0
 49
0.0
 49
0.0
 49
0.0
 49
1.0
175
     0
142
0.0208333333333333
142
0.0
142
0.0
142
0.0
142
0.0
142
0.0208333333333333
142
0.0
142
0.0
142
0.0
142
0.0
142
1.0
142
0.0
142
0.0
142
0.0
142
0.0
142
1.0
179
     0
144
0.0208333333333333
144
0.0
144
0.0
144
0.0
144
0.0
144
0.0208333333333333
144
0.0
144
0.0
144
0.0
144
0.0
144
1.0
144
0.0
144
0.0
144
0.0
144
0.0
144
1.0
147
0.0208333333333333
147
0.0
147
0.0
147
0.0
147
0.0
147
0.0208333333333333
147
0.0
147
0.0
147
0.0
147
0.0
147
1.0
147
0.0
147
0.0
147
0.0
147
0.0
147
1.0
  0
MLINESTYLE
  5
56
102
{ACAD_REACTORS
330
3C
102
}
330
3C
100
AcDbMlineStyle
  2
STANDARD
 70
     0
  3

 62
   256
 51
90.0
 52
90.0
 71
     2
 49
0.5
 62
   256
  6
BYLAYER
 49
-0.5
 62
   256
  6
BYLAYER
  0
ACDBPLACEHOLDER
  5
9
102
{ACAD_REACTORS
330
A
102
}
330
A
  0
SCALE
  5
5B
102
{ACAD_REACTORS
330
4F
102
}
330
4F
100
AcDbScale
 70
     0
300
1:1
140
1.0
141
1.0
290
     1
  0
SCALE
  5
5C
102
{ACAD_REACTORS
330
4F
102
}
330
4F
100
AcDbScale
 70
     0
300
1:2
140
1.0
141
2.0
290
     0
  0
SCALE
  5
5D
102
{ACAD_REACTORS
330
4F
102
}
330
4F
100
AcDbScale
 70
     0
300
1:4
140
1.0
141
4.0
290
     0
  0
SCALE
  5
5E
102
{ACAD_REACTORS
330
4F
102
}
330
4F
100
AcDbScale
 70
     0
300
1:5
140
1.0
141
5.0
290
     0
  0
SCALE
  5
5F
102
{ACAD_REACTORS
330
4F
102
}
330
4F
100
AcDbScale
 70
     0
300
1:8
140
1.0
141
8.0
290
     0
  0
SCALE
  5
60
102
{ACAD_REACTORS
330
4F
102
}
330
4F
100
AcDbScale
 70
     0
300
1:10
140
1.0
141
10.0
290
     0
  0
SCALE
  5
61
102
{ACAD_REACTORS
330
4F
102
}
330
4F
100
AcDbScale
 70
     0
300
1:16
140
1.0
141
16.0
290
     0
  0
SCALE
  5
62
102
{ACAD_REACTORS
330
4F
102
}
330
4F
100
AcDbScale
 70
     0
300
1:20
140
1.0
141
20.0
290
     0
  0
SCALE
  5
63
102
{ACAD_REACTORS
330
4F
102
}
330
4F
100
AcDbScale
 70
     0
300
1:30
140
1.0
141
30.0
290
     0
  0
SCALE
  5
64
102
{ACAD_REACTORS
330
4F
102
}
330
4F
100
AcDbScale
 70
     0
300
1:40
140
1.0
141
40.0
290
     0
  0
SCALE
  5
65
102
{ACAD_REACTORS
330
4F
102
}
330
4F
100
AcDbScale
 70
     0
300
1:50
140
1.0
141
50.0
290
     0
  0
SCALE
  5
66
102
{ACAD_REACTORS
330
4F
102
}
330
4F
100
AcDbScale
 70
     0
300
1:100
140
1.0
141
100.0
290
     0
  0
SCALE
  5
67
102
{ACAD_REACTORS
330
4F
102
}
330
4F
100
AcDbScale
 70
     0
300
2:1
140
2.0
141
1.0
290
     0
  0
SCALE
  5
68
102
{ACAD_REACTORS
330
4F
102
}
330
4F
100
AcDbScale
 70
     0
300
4:1
140
4.0
141
1.0
290
     0
  0
SCALE
  5
69
102
{ACAD_REACTORS
330
4F
102
}
330
4F
100
AcDbScale
 70
     0
300
8:1
140
8.0
141
1.0
290
     0
  0
SCALE
  5
6A
102
{ACAD_REACTORS
330
4F
102
}
330
4F
100
AcDbScale
 70
     0
300
10:1
140
10.0
141
1.0
290
     0
  0
SCALE
  5
6B
102
{ACAD_REACTORS
330
4F
102
}
330
4F
100
AcDbScale
 70
     0
300
100:1
140
100.0
141
1.0
290
     0
  0
SCALE
  5
6C
102
{ACAD_REACTORS
330
4F
102
}
330
4F
100
AcDbScale
 70
     0
300
1/128" = 1'-0"
140
0.0078125
141
12.0
290
     0
  0
SCALE
  5
6D
102
{ACAD_REACTORS
330
4F
102
}
330
4F
100
AcDbScale
 70
     0
300
1/64" = 1'-0"
140
0.015625
141
12.0
290
     0
  0
SCALE
  5
6E
102
{ACAD_REACTORS
330
4F
102
}
330
4F
100
AcDbScale
 70
     0
300
1/32" = 1'-0"
140
0.03125
141
12.0
290
     0
  0
SCALE
  5
6F
102
{ACAD_REACTORS
330
4F
102
}
330
4F
100
AcDbScale
 70
     0
300
1/16" = 1'-0"
140
0.0625
141
12.0
290
     0
  0
SCALE
  5
70
102
{ACAD_REACTORS
330
4F
102
}
330
4F
100
AcDbScale
 70
     0
300
3/32" = 1'-0"
140
0.09375
141
12.0
290
     0
  0
SCALE
  5
71
102
{ACAD_REACTORS
330
4F
102
}
330
4F
100
AcDbScale
 70
     0
300
1/8" = 1'-0"
140
0.125
141
12.0
290
     0
  0
SCALE
  5
72
102
{ACAD_REACTORS
330
4F
102
}
330
4F
100
AcDbScale
 70
     0
300
3/16" = 1'-0"
140
0.1875
141
12.0
290
     0
  0
SCALE
  5
73
102
{ACAD_REACTORS
330
4F
102
}
330
4F
100
AcDbScale
 70
     0
300
1/4" = 1'-0"
140
0.25
141
12.0
290
     0
  0
SCALE
  5
74
102
{ACAD_REACTORS
330
4F
102
}
330
4F
100
AcDbScale
 70
     0
300
3/8" = 1'-0"
140
0.375
141
12.0
290
     0
  0
SCALE
  5
75
102
{ACAD_REACTORS
330
4F
102
}
330
4F
100
AcDbScale
 70
     0
300
1/2" = 1'-0"
140
0.5
141
12.0
290
     0
  0
SCALE
  5
76
102
{ACAD_REACTORS
330
4F
102
}
330
4F
100
AcDbScale
 70
     0
300
3/4" = 1'-0"
140
0.75
141
12.0
290
     0
  0
SCALE
  5
77
102
{ACAD_REACTORS
330
4F
102
}
330
4F
100
AcDbScale
 70
     0
300
1" = 1'-0"
140
1.0
141
12.0
290
     0
  0
SCALE
  5
78
102
{ACAD_REACTORS
330
4F
102
}
330
4F
100
AcDbScale
 70
     0
300
1-1/2" = 1'-0"
140
1.5
141
12.0
290
     0
  0
SCALE
  5
79
102
{ACAD_REACTORS
330
4F
102
}
330
4F
100
AcDbScale
 70
     0
300
3" = 1'-0"
140
3.0
141
12.0
290
     0
  0
SCALE
  5
7A
102
{ACAD_REACTORS
330
4F
102
}
330
4F
100
AcDbScale
 70
     0
300
6" = 1'-0"
140
6.0
141
12.0
290
     0
  0
SCALE
  5
7B
102
{ACAD_REACTORS
330
4F
102
}
330
4F
100
AcDbScale
 70
     0
300
1'-0" = 1'-0"
140
12.0
141
12.0
290
     0
  0
TABLESTYLE
  5
57
102
{ACAD_XDICTIONARY
360
58
102
}
102
{ACAD_REACTORS
330
50
102
}
330
50
100
AcDbTableStyle
280
     0
  3
Standard
 70
     0
 71
     0
 40
1.5
 41
1.5
280
     0
281
     0
  7
STANDARD
140
4.5
170
     2
 62
     0
 63
     7
283
     0
 90
      512
 91
        0
  1

274
    -2
284
     1
 64
     0
275
    -2
285
     1
 65
     0
276
    -2
286
     1
 66
     0
277
    -2
287
     1
 67
     0
278
    -2
288
     1
 68
     0
279
    -2
289
     1
 69
     0
  7
STANDARD
140
6.0
170
     5
 62
     0
 63
     7
283
     0
 90
      512
 91
        0
  1

274
    -2
284
     1
 64
     0
275
    -2
285
     1
 65
     0
276
    -2
286
     1
 66
     0
277
    -2
287
     1
 67
     0
278
    -2
288
     1
 68
     0
279
    -2
289
     1
 69
     0
  7
STANDARD
140
4.5
170
     5
 62
     0
 63
     7
283
     0
 90
      512
 91
        0
  1

274
    -2
284
     1
 64
     0
275
    -2
285
     1
 65
     0
276
    -2
286
     1
 66
     0
277
    -2
287
     1
 67
     0
278
    -2
288
     1
 68
     0
279
    -2
289
     1
 69
     0
  0
VISUALSTYLE
  5
30
102
{ACAD_REACTORS
330
31
102
}
330
31
100
AcDbVisualStyle
  2
2dWireframe
 70
     4
177
     2
291
     0
 71
     0
176
     1
 72
     2
176
     1
 73
     0
176
     1
 90
        0
176
     1
 40
0.6
176
     1
 41
30.0
176
     1
 63
     7
176
     1
 74
     1
176
     1
 91
        4
176
     1
 64
     7
176
     1
 65
   257
176
     1
 75
     1
176
     1
175
     1
176
     1
 42
1.0
176
     1
 92
        0
176
     1
 66
   257
176
     1
 43
1.0
176
     1
 76
     1
176
     1
 77
     6
176
     1
 78
     2
176
     1
 67
     7
176
     1
 79
     5
176
     1
170
     0
176
     1
171
     0
176
     1
290
     0
176
     1
 93
        1
176
     1
 44
0.0
176
     1
173
     0
176
     1
  0
VISUALSTYLE
  5
5A
102
{ACAD_REACTORS
330
31
102
}
330
31
100
AcDbVisualStyle
  2
3dWireframe
 70
     5
177
     2
291
     0
 71
     0
176
     1
 72
     2
176
     1
 73
     0
176
     1
 90
        0
176
     1
 40
0.6
176
     1
 41
30.0
176
     1
 63
     7
176
     1
 74
     1
176
     1
 91
        4
176
     1
 64
     7
176
     1
 65
   257
176
     1
 75
     1
176
     1
175
     1
176
     1
 42
1.0
176
     1
 92
        0
176
     1
 66
   257
176
     1
 43
1.0
176
     1
 76
     1
176
     1
 77
     6
176
     1
 78
     2
176
     1
 67
     7
176
     1
 79
     5
176
     1
170
     0
176
     1
171
     0
176
     1
290
     0
176
     1
 93
        1
176
     1
 44
0.0
176
     1
173
     0
176
     1
  0
VISUALSTYLE
  5
59
102
{ACAD_REACTORS
330
31
102
}
330
31
100
AcDbVisualStyle
  2
Realistic
 70
     8
177
     2
291
     0
 71
     2
176
     1
 72
     2
176
     1
 73
     0
176
     1
 90
        0
176
     1
 40
0.6
176
     1
 41
30.0
176
     1
 63
     7
176
     1
 74
     1
176
     1
 91
        0
176
     1
 64
     7
176
     1
 65
   257
176
     1
 75
     1
176
     1
175
     1
176
     1
 42
1.0
176
     1
 92
        8
176
     1
 66
     8
176
     1
 43
1.0
176
     1
 76
     1
176
     1
 77
     6
176
     1
 78
     2
176
     1
 67
     7
176
     1
 79
     5
176
     1
170
     0
176
     1
171
     0
176
     1
290
     0
176
     1
 93
       13
176
     1
 44
0.0
176
     1
173
     0
176
     1
  0
DICTIONARYVAR
  5
45F
102
{ACAD_REACTORS
330
45B
102
}
330
45B
100
DictionaryVariables
280
     0
  1
1:1
  0
DICTIONARYVAR
  5
45D
102
{ACAD_REACTORS
330
45B
102
}
330
45B
100
DictionaryVariables
280
     0
  1
STANDARD
  0
DICTIONARYVAR
  5
45C
102
{ACAD_REACTORS
330
45B
102
}
330
45B
100
DictionaryVariables
280
     0
  1
STANDARD
  0
DICTIONARYVAR
  5
461
102
{ACAD_REACTORS
330
45B
102
}
330
45B
100
DictionaryVariables
280
     0
  1
1
  0
DICTIONARYVAR
  5
462
102
{ACAD_REACTORS
330
45B
102
}
330
45B
100
DictionaryVariables
280
     0
  1
15
  0
DICTIONARYVAR
  5
460
102
{ACAD_REACTORS
330
45B
102
}
330
45B
100
DictionaryVariables
280
     0
  1
0
  0
DICTIONARYVAR
  5
45E
102
{ACAD_REACTORS
330
45B
102
}
330
45B
100
DictionaryVariables
280
     0
  1
0
  0
DICTIONARY
  5
19
330
17
100
AcDbDictionary
280
     1
281
     1
  3
ADSK_XREC_LAYOUTTHUMBNAIL
360
1A
  0
DICTIONARY
  5
47
330
46
100
AcDbDictionary
280
     1
281
     1
  3
BUMPTILE
360
48
  3
DIFFUSETILE
360
49
  3
OPACITYTILE
360
4A
  3
REFLECTIONTILE
360
4B
  3
REFRACTIONTILE
360
4C
  3
SPECULARTILE
360
4D
  0
DICTIONARY
  5
3F
330
3E
100
AcDbDictionary
280
     1
281
     1
  3
BUMPTILE
360
40
  3
DIFFUSETILE
360
41
  3
OPACITYTILE
360
42
  3
REFLECTIONTILE
360
43
  3
REFRACTIONTILE
360
44
  3
SPECULARTILE
360
45
  0
DICTIONARY
  5
E
330
C
100
AcDbDictionary
280
     1
281
     1
  3
BUMPTILE
360
F
  3
DIFFUSETILE
360
10
  3
OPACITYTILE
360
11
  3
REFLECTIONTILE
360
12
  3
REFRACTIONTILE
360
13
  3
SPECULARTILE
360
14
  0
DICTIONARY
  5
58
330
57
100
AcDbDictionary
280
     1
281
     1
  3
ACAD_ROUNDTRIP_2008_TABLESTYLE_CELLSTYLEMAP
360
463
  0
XRECORD
  5
1A
102
{ACAD_REACTORS
330
19
102
}
330
19
100
AcDbXrecord
280
     1
310
28000000000100008C0000000100080000000000008C0000000000000000000000010000000000003028210000000000FFFFFF000000000000000000000000000000000000000000000000000000000000000000330000006600000099000000CC000000FF00000000330000333300006633000099330000CC330000FF3300
310
0000660000336600006666000099660000CC660000FF66000000990000339900006699000099990000CC990000FF99000000CC000033CC000066CC000099CC0000CCCC0000FFCC000000FF000033FF000066FF000099FF0000CCFF0000FFFF000000003300330033006600330099003300CC003300FF003300003333003333
310
33006633330099333300CC333300FF33330000663300336633006666330099663300CC663300FF66330000993300339933006699330099993300CC993300FF99330000CC330033CC330066CC330099CC3300CCCC3300FFCC330000FF330033FF330066FF330099FF3300CCFF3300FFFF330000006600330066006600660099
310
006600CC006600FF00660000336600333366006633660099336600CC336600FF33660000666600336666006666660099666600CC666600FF66660000996600339966006699660099996600CC996600FF99660000CC660033CC660066CC660099CC6600CCCC6600FFCC660000FF660033FF660066FF660099FF6600CCFF6600
310
FFFF660000009900330099006600990099009900CC009900FF00990000339900333399006633990099339900CC339900FF33990000669900336699006666990099669900CC669900FF66990000999900339999006699990099999900CC999900FF99990000CC990033CC990066CC990099CC9900CCCC9900FFCC990000FF99
310
0033FF990066FF990099FF9900CCFF9900FFFF99000000CC003300CC006600CC009900CC00CC00CC00FF00CC000033CC003333CC006633CC009933CC00CC33CC00FF33CC000066CC003366CC006666CC009966CC00CC66CC00FF66CC000099CC003399CC006699CC009999CC00CC99CC00FF99CC0000CCCC0033CCCC0066CC
310
CC0099CCCC00CCCCCC00FFCCCC0000FFCC0033FFCC0066FFCC0099FFCC00CCFFCC00FFFFCC000000FF003300FF006600FF009900FF00CC00FF00FF00FF000033FF003333FF006633FF009933FF00CC33FF00FF33FF000066FF003366FF006666FF009966FF00CC66FF00FF66FF000099FF003399FF006699FF009999FF00CC
310
99FF00FF99FF0000CCFF0033CCFF0066CCFF0099CCFF00CCCCFF00FFCCFF0000FFFF0033FFFF0066FFFF0099FFFF00CCFFFF00FFFFFF00000000000D0D0D001A1A1A00282828003535350043434300505050005D5D5D006B6B6B00787878008686860093939300A1A1A100AEAEAE00BBBBBB00C9C9C900D6D6D600E4E4E400
310
F1F1F100FFFFFF000000000000000000000000000000000000000000000000000000000000000000000000000000000000000000000000000000000000000000000000000000000000000000000000000000000000000000000000000000000000000000000000000000000000000000000000000000000000000000000000
310
00000000000000000000000000000000000000000000000000000000000000000000000000000000000000000000000000000000000000000000000000000000000000000000000000000000000000000000000000000000000000000000000000000000000000000000000000000000000000000000000000000000000000
310
00000000000000000000000000000000000000000000000000000000000000000000000000000000000000000000000000000000000000000000000000000000000000000000000000000000000000000000000000000000000000000000000000000000000000000000000000000000000000000000000000000000000000
310
00000000000000000000000000000000000000000000000000000000000000000000000000000000000000000000000000000000000000000000000000000000000000000000000000000000000000000000000000000000000000000000000000000000000000000000000000000000000000000000000000000000000000
310
00000000000000000000000000000000000000000000000000000000000000000000000000000000000000000000000000000000000000000000000000000000000000000000000000000000000000000000000000000000000000000000000000000000000000000000000000000000000000000000000000000000000000
310
00000000000000000000000000000000000000000000000000000000000000000000000000000000000000000000000000000000000000000000000000000000000000000000000000000000000000000000000000000000000000000000000000000000000000000000000000000000000000000000000000000000000000
310
00000000000000000000000000000000000000000000000000000000000000000000000000000000000000000000000000000000000000000000000000000000000000000000000000000000000000000000000000000000000000000000000000000000000000000000000000000000000000000000000000000000000000
310
00000000000000000000000000000000000000000000000000000000000000000000000000000000000000000000000000000000000000000000000000000000000000000000000000000000000000000000000000000000000000000000000000000000000000000000000000000000000000000000000000000000000000
310
00000000000000000000000000000000000000000000000000000000000000000000000000000000000000000000000000000000000000000000000000000000000000000000000000000000000000000000000000000000000000000000000000000000000000000000000000000000000000000000000000000000000000
310
00000000000000000000000000000000000000000000000000000000000000000000000000000000000000000000000000000000000000000000000000000000000000000000000000000000000000000000000000000000000000000000000000000000000000000000000000000000000000000000000000000000000000
310
00000000000000000000000000000000000000000000000000000000000000000000000000000000000000000000000000000000000000000000000000000000000000000000000000000000000000000000000000000000000000000000000000000000000000000000000000000000000000000000000000000000000000
310
00000000000000000000000000000000000000000000000000000000000000000000000000000000000000000000000000000000000000000000000000000000000000000000000000000000000000000000000000000000000000000000000000000000000000000000000000000000000000000000000000000000000000
310
00000000000000000000000000000000000000000000000000000000000000000000000000000000000000000000000000000000000000000000000000000000000000000000000000000000000000000000000000000000000000000000000000000000000000000000000000000000000000000000000000000000000000
310
00000000000000000000000000000000000000000000000000000000000000000000000000000000000000000000000000000000000000000000000000000000000000000000000000000000000000000000000000000000000000000000000000000000000000000000000000000000000000000000000000000000000000
310
00000000000000000000000000000000000000000000000000000000000000000000000000000000000000000000000000000000000000000000000000000000000000000000000000000000000000000000000000000000000000000000000000000000000000000000000000000000000000000000000000000000000000
310
00000000000000000000000000000000000000000000000000000000000000000000000000000000000000000000000000000000000000000000000000000000000000000000000000000000000000000000000000000000000000000000000000000000000000000000000000000000000000000000000000000000000000
310
00000000000000000000000000000000000000000000000000000000000000000000000000000000000000000000000000000000000000000000000000000000000000000000000000000000000000000000000000000000000000000000000000000000000000000000000000000000000000000000000000000000000000
310
00000000000000000000000000000000000000000000000000000000000000000000000000000000000000000000000000000000000000000000000000000000000000000000000000000000000000000000000000000000000000000000000000000000000000000000000000000000000000000000000000000000000000
310
00000000000000000000000000000000000000000000000000000000000000000000000000000000000000000000000000000000000000000000000000000000000000000000000000000000000000000000000000000000000000000000000000000000000000000000000000000000000000000000000000000000000000
310
00000000000000000000000000000000000000000000000000000000000000000000000000000000000000000000000000000000000000000000000000000000000000000000000000000000000000000000000000000000000000000000000000000000000000000000000000000000000000000000000000000000000000
310
00000000000000000000000000000000000000000000000000000000000000000000000000000000000000000000000000000000000000000000000000000000000000000000000000000000000000000000000000000000000000000000000000000000000000000000000000000000000000000000000000000000000000
310
00000000000000000000000000000000000000000000000000000000000000000000000000000000000000000000000000000000000000000000000000000000000000000000000000000000000000000000000000000000000000000000000000000000000000000000000000000000000000000000000000000000000000
310
00000000000000000000000000000000000000000000000000000000000000000000000000000000000000000000000000000000000000000000000000000000000000000000000000000000000000000000000000000000000000000000000000000000000000000000000000000000000000000000000000000000000000
310
00000000000000000000000000000000000000000000000000000000000000000000000000000000000000000000000000000000000000000000000000000000000000000000000000000000000000000000000000000000000000000000000000000000000000000000000000000000000000000000000000000000000000
310
00000000000000000000000000000000000000000000000000000000000000000000000000000000000000000000000000000000000000000000000000000000000000000000000000000000000000000000000000000000000000000000000000000000000000000000000000000000000000000000000000000000000000
310
00000000000000000000000000000000000000000000000000000000000000000000000000000000000000000000000000000000000000000000000000000000000000000000000000000000000000000000000000000000000000000000000000000000000000000000000000000000000000000000000000000000000000
310
00000000000000000000000000000000000000000000000000000000000000000000000000000000000000000000000000000000000000000000000000000000000000000000000000000000000000000000000000000000000000000000000000000000000000000000000000000000000000000000000000000000000000
310
00000000000000000000000000000000000000000000000000000000000000000000000000000000000000000000000000000000000000000000000000000000000000000000000000000000000000000000000000000000000000000000000000000000000000000000000000000000000000000000000000000000000000
310
00000000000000000000000000000000000000000000000000000000000000000000000000000000000000000000000000000000000000000000000000000000000000000000000000000000000000000000000000000000000000000000000000000000000000000000000000000000000000000000000000000000000000
310
00000000000000000000000000000000000000000000000000000000000000000000000000000000000000000000000000000000000000000000000000000000000000000000000000000000000000000000000000000000000000000000000000000000000000000000000000000000000000000000000000000000000000
310
00000000000000000000000000000000000000000000000000000000000000000000000000000000000000000000000000000000000000000000000000000000000000000000000000000000000000000000000000000000000000000000000000000000000000000000000000000000000000000000000000000000000000
310
00000000000000000000000000000000000000000000000000000000000000000000000000000000000000000000000000000000000000000000000000000000000000000000000000000000000000000000000000000000000000000000000000000000000000000000000000000000000000000000000000000000000000
310
000000000000000000000000000000000000000000000000000000000000000000000000000000000000000000000000000000000000000000000000000000000000000000000000000000000000000000000000000000000000000000000000000000000000000000000000BEBEBEBEBEBEBEBEBEBEBEBEBEBEBEBEBEBEBE
310
BEBEBEBEBEBEBEBEBEBEBEBEBEBEBEBEBEBEBEBEBEBEBEBEBEBEBEBEBEBEBEBEBEBEBEBEBEBEBEBEBEBEBEBEBEBEBEBEBEBEBEBEBEBEBEBEBEBEBEBEBEBEBEBEBEBEBEBEBEBEBEBEBEBEBEBEBEBEBEBEBEBEBEBEBEBEBEBEBEBEBEBEBEBEBEBEBEBEBEBEBEBEBEBEBEBEBEBEBEBEBEBEBEBEBEBEBEBEBEBEBEBEBEBEBEBEBE
310
BEBEBEBEBEBEBEBEBEBEBEBEBEBEBEBEBEBEBEBEBEBEBEBEBEBEBEBEBEBEBEBEBEBEBEBEBEBEBEBEBEBEBEBEBEBEBEBEBEBEBEBEBEBEBEBEBEBEBEBEBEBEBEBEBEBEBEBEBEBEBEBEBEBEBEBEBEBEBEBEBEBE00000000000000000000000000000000000000000000000000000000BE00000000000000000000000000000000
310
0000000000000000000000000000000000000000000000000000000000000000000000000000000000000000000000000000000000000000000000000000000000000000000000000000000000000000000000000000000000000000000000000000000000000000000000000000BE00000000000000000000000000000000
310
00000000000000000000000000000000000000000000000000000000000000000000000000000000000000000000000000000000000000000000000000000000000000000000000000000000000000000000000000000000000000000000000000000000000000000000000000000000BE00DCDCDCDCDCDCDCDCDCDCDCDCDC
310
DCDCDCDCDCDCDCDCDCDCDCDCDCDCDCDCDCDCDCDCDCDCDCDCDCDCDCDCDCDCDCDCDCDCDCDCDCDCDCDCDCDCDCDCDCDCDCDCDCDCDCDCDCDCDCDCDCDCDCDCDCDCDCDCDCDCDCDCDCDCDCDCDCDCBEBEBEBEBEBEBEDCDCDCDCDCDCDCDCDCDCDCDCDCDCDCDCDCDCDCDCDCBEBEBEBEBEBEDCDCDC00BE00DCDCDCDCDCDCDCDCDCDCDCDCDC
310
DCDCDCDCDCDCDCDCDCDCDCDCDCDCDCDCDCDCDCDCDCDCDCDCDCDCDCDCDCDCDCDCDCDCDCDCDCDCDCDCDCDCDCDCDCDCDCDCDCDCDCDCDCDCDCDCDCDCDCDCDCDCDCDCDCDCDCDCDCDCDCDCDCDCBEBEBEBEBEBEBEDCDCDCDCDC00000000000000000000000000000000000000000000000000000000BE00DC00000000000000000000
310
0000000000000000000000000000000000000000000000000000000000000000000000000000000000000000000000000000000000000000DCF5F5F5F5DCDCDCF5F5F5F5F5DCDCDC00000000BEBEBEBEBEBEBE0000DC0000000000000000DC000000000000000000BEBEBEBEBEBE0000DC00BE00DC00000000000000000000
310
0000000000000000000000000000000000000000000000000000000000000000000000000000000000000000000000000000000000000000F5F5F5F5DCDCDCDCF5F5F5F5F5DCDCDC00000000BEBEBEBEBEBEBE0000DC000000000000000000000000000000000000000000000000000000000000BE00DC0000000000000000
310
00000000000000000000000000000000000000000000000000000000000000000000000000000000000000000000000000000000000000000000DC0000DC0000000000DC0000DC0000DC00BEBEBEBEBEBEBEBEBEBE0000F5F5F5F5F5F5F50000F5F5F5F5F5F5F5F50000F5F5F5F5F5F5F500DC00BE00DC0000000000000000
310
00000000000000000000000000000000000000000000000000000000000000000000000000000000000000000000000000000000000000000000DC00DC0000000000DC000000DC0000DC00BEBEBEBEBEBEBEBEBEBE0000F5F5F500000000000000000000000000000000000000000000000000000000BE00DC000000000000
310
0000F5F5F5F5F5F5F5F5F5F5F5F5F5F5F5F5F5F5F5F5F5F5F5F5F5F5F5F5F5F5F5F5F5F5F5F5F5F5F5F5F5F5F5F5F5F52DBEBE2DF52D000000000000DCDCDCDCDCDCDCDCDCDCDCDCDCDCDCDC000000BEBEBEBEBEBEBEBE0000DCDCDCDCDCDCDCDCDCDCDCDCDCDCDCDCDCDCDCDCDCDCDCDCDCDCDCDC00BE00DC000000000000
310
00F5F5F5F5F5F5F5F5F5F5F5F5F5F5F5F5F5F5F5F5F5F5F5F5F5F5F5F5F5F5F5F5F5F5F5F5F5F5F5F5F5F5F5F5F5F52D2D2D2D2DF500000000000000DCDCDCDCDCDCDCDCDCDCDCDCDCDCDCDC000000BEBEBEBEBEBEBEBE0000DCDCDC00000000000000000000000000000000000000000000000000000000BE00DC00000000
310
00000000F52D2D2D2D2D2D2D2D2D2D2D2D2D2D2D2D2D2D2D2D2D2D2D2D2D2D2D2D2D2D2D2D2D2D2D2D2D2D2D2D2D2D2D2DF500BEBE002D00000000000000DCDCDCDCDCDCDCDCDCDCDCDCDCDCDCDCDCDCDCBEBEBEBEBEBEBEBEDCDCDC0000000000000000000000000000000000000000000000000000DC00BE00DC00000000
310
000000F5002D2D2D2D2D2D2D2D2D2D2D2D2D2D2D2D2D2D2D2D2D2D2D2D2D2D2D2D2D2D2D2D2D2D2D2D2D2D2D2D2D2D2D00F5000000002D00000000000000DCDCDCDCDCDCDCDCDCDCDCDCDCDCDCDCDCDCBEBEBEBEBEBEBEBEBEDCDCDC000000000000000000000000000000000000000000000000000000000000BE00DC0000
310
000000000000F52D0000000000000000000000000000000000000000000000000000000000000000000000000000000000002DF500BEBE002D00000000000000DC0000DC0000000000DC0000DC0000DCF5F5F5000000DC000000000000DC000000000000000000BE00000000000000000000000000000000DC00BE00DC0000
310
0000000000F5002D00000000000000000000000000000000000000000000000000000000000000000000000000000000002D00F5000000002D00000000000000DC00DC0000000000DC000000DC0000F5F5F500000000DC000000000000DC000000000000000000000000000000000000000000000000000000000000BE00DC
310
0000000000000000F52D0000000000000000000000000000000000000000000000000000000000000000000000000000000000002DF500BEBE002D00000000000000DCDCDCDCDCDCDCDCDCDCDCDCDCDCDCDCF5F5BEBEBEBEBEBEBEBEBEDCDCDCBEBEBEBEBEBEBEBEBEBEBEBEBEBEBEBE00BEBE0000BEBEBE0000DC00BE00DC
310
00000000000000F5002D00000000000000000000000000000000000000000000000000000000000000000000000000000000002D00F5000000002D00000000000000DCDCDCDCDCDCDCDCDCDCDCDCDCDCDCF5F5F5BEBEBEBEBEBEBEBEBEDCDCBEBEBE00000000000000000000000000000000000000000000000000000000BE
310
00DC0000000000000000F52D00282828282828282828282828282828282828282828282828282828282828282828282828282828F52D2D2D2D2D2D002D00000000000000DCDCDCDCDCDCDCDCDCDCDCDCDCDCDCDCF5F5BEBEBEBEBEBEBEBEBEDCDCDCBEBEBEBEBEBEBEBEBEBEBEBEBEBEBEBEBEBEBEBEBEBEBEBE0000DC00BE
310
00DC00000000000000F5002D00282828282828282828282828282828282828282828282828282828282828282828282828282828282D00F5000000002D00000000000000DCDCDCDCDCDCDCDCDCDCDCDCDCDCDCDCF5F5BEBEBEBEBEBEBEBEBEDCDCBEBEBE000000000000000000000000000000000000000000000000000000
310
00BE00DC0000000000000000F52D00BEBEBEBEBEBEBEBEBEBEBEBEBEBEBEBEBEBEBEBEBEBEBEBEBEBEBEBEBEBEBEBEBEBEBEBEBEBEBEBE002DF500BE2D002D00000000000000DCF5F5F5F5F5F5F500F5F5F5F5F5F5F5DCDCF5F5F5F5F5F5F5F5F50000F5F5F5F5F5F5F500F5F50000000000000000000000000000000000DC
310
00BE00DC00000000000000F5002D00BEBEBEBEBEBEBEBEBEBEBEBEBEBEBEBEBEBEBEBEBEBEBEBEBEBEBEBEBEBEBEBEBEBEBEBEBEBEBEBE2D00F5000000002D00000000000000F5F5F5F5F5F5F500DCF5F5F5DCF5F5F5DCDCF5F5F5F5F5F5F5F5F50000F5F5F500000000000000000000000000000000000000000000000000
310
000000BE00DC0000000000000000F52D00F50000000000000000000000000000000000000000000000000000000000000000000000000000F5002DF500BEBE002D00000000000000DCDCDCDCDCDCDCDCDCDCDCDCDCDCDCDCDCDCF5F5F5DCDCBEBEBEBEBEBEDCF5DCDCDCDCDCF5F5F5DCDCDCDCDCDCDCDCDCDCDCDCDCDCDCDC
310
DCDC00BE00DC00000000000000F5002D00F50000000000000000000000000000000000000000000000000000000000000000000000000000F52D00F5000000002D00000000000000DCDCDCDCDCDCDCDCDCDCDCDCDCDCDCDCDCDCF5F5F5DCF5BEBEBEBEBEBEF5F5DC0000000000000000000000000000000000000000000000
310
0000000000BE00DC0000000000000000F52D00F50000000000000000000000000000000000000000000000000000000000000000000000000000F5002DF500BEBE002D00000000000000DC0000000000000000000000000000DC000000000000DCBEBEBEBEBEBEDC0000000000F5F50000F5F5F5F5F5F5F5F5F500DC000000
310
000000DC00BE00DC00000000000000F5002D00F50000000000000000000000000000000000000000000000000000000000000000000000000000F52D00F5000000002D00000000000000DC0000000000000000000000000000DC000000000000DCBEBEBEBEBEBEDC0000000000000000000000000000000000000000000000
310
00000000000000BE00DC0000000000000000F52D00F50000000000000000000000000000000000000000000000000000000000000000000000000000F5002DF500BEBE002D00000000000000DC0000000000000000000000000000DCDCDCDCDCDCDCDCDCDCDCDCDCDCDCF5F5F5F5F5F5F5DCDCDCF5F5F5F5F5F5F5F5DCDCF5
310
F5F5F5F5F5F500BE00DC00000000000000F5002D00F50000000000000000000000000000000000000000000000000000000000000000000000000000F52D00F5000000002D00000000000000DC0000000000000000000000000000DCDCDCDCDCDCDCDCDCDCDCDCDCDCDCF5F500000000000000000000000000000000000000
310
000000000000000000BE00DC0000000000000000F52D00F50000000000000000000000000000000000000000000000000000000000000000000000000000F5002DF500BEBE002D00000000000000DC0000000000000000000000000000DCDCDCDCDCDCDCDCDCBEBEBEDCDCDC0000BEBEBEBEBE0000DC000000000000000000
310
DC0000BEBEBE00DC00BE00DC00000000000000F5002D00F50000000000000000000000000000000000000000000000000000000000000000000000000000F52D00F5000000002D00000000000000DC0000000000000000000000000000DCDCDCDCDCDCDCDCDCBEBEBEDCDCDC00BE0000000000000000000000000000000000
310
0000000000000000000000BE00DC0000000000000000F52D00F50000000000000000000000000000000000000000000000000000000000000000000000000000F5002DF500002D002D00000000000000DC0000000000000000000000000000DCF5F5F5F5F5F5DC00BEBEBE0000DC00F5BEBEBEBEBE0000DC00F5F5F5F5F5F5
310
0000DC00F5BEF5BEF5DC00BE00DC00000000000000F5002D00F50000000000000000000000000000000000000000000000000000000000000000000000000000F52D00F5000000002D00000000000000DC0000000000000000000000000000DCF5F5F5F5F5F5DC00BEBEBE0000DC00F5000000000000000000000000000000
310
00000000000000000000000000BE00DC0000000000000000F52D00F5F5F5F5F5F5F5F5F5F5F5F5F5F5F5F5F5F5F5F5F5F5F5F5F5F5F5F5F5F5F5F5F5F5F5F5F5F5F5F52D2D2D2D2DF5002D00000000000000DCDCDCDCDCDCDCDCDCDCDCDCDCDCDCDCDCDCDCDCDCDCDCDCDCDCDCDCDCDCDCDCDCDCDCDCDCDCDCDCDCDCDCDCDC
310
DCDCDCDCDCDCDCDCDCDCDCDC00BE00DC00000000000000F5002D00F5F5F5F5F5F5F5F5F5F5F5F5F5F5F5F5F5F5F5F5F5F5F5F5F5F5F5F5F5F5F5F5F5F5F5F5F5F5F5F52D00F5000000002D00000000000000DCDCDCDCDCDCDCDCDCDCDCDCDCDCDCDCDCDCDCDCDCDCDCDCDCDCDCDCDCDCDCDC00000000000000000000000000
310
000000000000000000000000000000BE00DC0000000000000000F52D00F50000000000000000000000000000000000000000000000000000000000000000000000000000F5002DF5000000002D0000000000000000000000000000000000000000000000000000000000000000000000000000000000000000000000000000
310
00000000000000000000000000DC00BE00DC00000000000000F5002D00F50000000000000000000000000000000000000000000000000000000000000000000000000000F52D00F5000000002D0000000000000000000000000000000000000000000000000000000000000000000000000000000000000000000000000000
310
0000000000000000000000000000000000BE00DC0000000000000000F52D00F50000000000000000000000000000000000000000000000000000000000000000000000000000F5002DF5000000002D000000000000000000000000000000000000000000000000000000000000000000000000000000000000000000000000
310
000000000000000000000000000000DC00BE00DC00000000000000F5002D00F50000000000000000000000000000000000000000000000000000000000000000000000000000F52D00F5000000002D000000000000000000000000000000000000000000000000000000000000000000000000000000000000000000000000
310
00000000000000000000000000000000000000BE00DC0000000000000000F52D00F50000000000000000000000000000000000000000000000000000000000000000000000000000F5002DF5000000BEBE00000000000000000000000000000000000000000000000000000000000000000000000000000000000000000000
310
0000000000000000000000000000000000DC00BE00DC00000000000000F5002D00F50000000000000000000000000000000000000000000000000000000000000000000000000000F52D00F5000000BEBE00000000000000000000000000000000000000000000000000000000000000000000000000000000000000000000
310
000000000000000000000000000000000000000000BE00DC0000000000000000F52D00F50000000000000000000000000000000000000000000000000000000000000000000000000000F5002DF5000000BEBE00000000000000000000000000000000000000000000BEBEBEBEBEBEBEBEBEBEBEBEBEBEBEBEBEBEBEBEBEBE
310
BEBEBEBEBEBEBEBEBEBEBEBEBEBEBE00000000DC00BE00DC00000000000000F5002D00F50000000000000000000000000000000000000000000000000000000000000000000000000000F52D00F5000000BEBE000000000000000000000000000000000000000000BEBEBEBEBEBEBEBEBEBEBEBEBEBEBEBEBEBE0000000000
310
0000000000000000000000000000000000000000000000BE00DC0000000000000000F52D00F50000000000000000000000000000000000000000000000000000000000000000000000000000F5002DF5000000BEBE00000000000000000000000000000000000000000000BEBEBEBEBEBEBEBEBEBEBEBEBEBEBEBEBEBEBEBE
310
BEBEBEBEBEBEBEBEBEBEBEBEBEBEBEBEBE00000000DC00BE00DC00000000000000F5002D00F50000000000000000000000000000000000000000000000000000000000000000000000000000F52D00F5000000BEBE000000000000000000000000000000000000000000BEBEBEBEBEBEBEBEBEBEBEBEBEBEBEBEBEBE000000
310
00000000000000000000000000000000000000000000000000BE00DC0000000000000000F52D00F50000000000000000000000000000000000000000000000000000000000000000000000000000F5002DF5000000002D00000000000000000000000000000000000000000000BEBEBEBEBEBEBEBEBEBEBEBEBEBEBEBEBEBE
310
BEBEBEBEBEBEBEBEBEBEBEBEBEBEBEBEBEBEBE00000000DC00BE00DC00000000000000F5002D00F50000000000000000000000000000000000000000000000000000000000000000000000000000F52D00F5000000002D000000000000000000000000000000000000000000BEBEBEBEBEBEBEBEBEBEBEBEBEBEBEBEBEBE00
310
000000000000000000000000000000000000000000000000000000BE00DC0000000000000000F52D00F50000000000000000000000000000000000000000000000000000000000000000000000000000F5002DF5000000002D0000000000000000000000000000000000000000000000000000000000000000000000000000
310
00000000000000000000000000000000000000000000000000DC00BE00DC00000000000000F5002D00F50000000000000000000000000000000000000000000000000000000000000000000000000000F52D00F5000000002D0000000000000000000000000000000000000000000000000000000000000000000000000000
310
0000000000000000000000000000000000000000000000000000000000BE00DC0000000000000000F52D00F5F5F5F5F5F5F5F5F5F5F5F5F5F5F5F5F5F5F5F5F5F5F5F5F5F5F5F5F5F5F5F5F5F5F5F5F5F5F5F52D2D2D2D2DF5002D000000000000000000000000000000000000000000000000000000000000000000000000
310
000000000000000000000000000000000000000000000000000000DC00BE00DC00000000000000F5002D00F5F5F5F5F5F5F5F5F5F5F5F5F5F5F5F5F5F5F5F5F5F5F5F5F5F5F5F5F5F5F5F5F5F5F5F5F5F5F5F52D00F5000000002D000000000000000000000000000000000000000000000000000000000000000000000000
310
00000000000000000000000000000000000000000000000000000000000000BE00DC0000000000000000F52D00F50000000000000000000000000000000000000000000000000000000000000000000000000000F5002DF500BE2D002D00000000000000000000000000000000000000000000000000000000000000000000
310
0000000000000000000000000000000000000000000000000000000000DC00BE00DC00000000000000F5002D00F50000000000000000000000000000000000000000000000000000000000000000000000000000F52D00F5000000002D00000000000000000000000000000000000000000000000000000000000000000000
310
000000000000000000000000000000000000000000000000000000000000000000BE00DC0000000000000000F52D00F50000000000000000000000000000000000000000000000000000000000000000000000000000F5002DF500BEBE002D0000000000000000000000000000000000000000000000000000000000000000
310
00000000000000000000000000000000000000000000000000000000000000DC00BE00DC00000000000000F5002D00F50000000000000000000000000000000000000000000000000000000000000000000000000000F52D00F5000000002D0000000000000000000000000000000000000000000000000000000000000000
310
0000000000000000000000000000000000000000000000000000000000000000000000BE00DC0000000000000000F52D00F50000000000000000000000000000000000000000000000000000000000000000000000000000F5002DF500BEBE002D000000000000000000000000000000000000000000000000000000000000
310
000000000000000000000000000000000000000000000000000000000000000000DC00BE00DC00000000000000F5002D00F50000000000000000000000000000000000000000000000000000000000000000000000000000F52D00F5000000002D000000000000000000000000000000000000000000000000000000000000
310
00000000000000000000000000000000000000000000000000000000000000000000000000BE00DC0000000000000000F52D00F50000000000000000000000000000000000000000000000000000000000000000000000000000F5002DF500BEBE002D00000000000000000000000000000000000000000000000000000000
310
0000000000000000000000000000000000000000000000000000000000000000000000DC00BE00DC00000000000000F5002D00F50000000000000000000000000000000000000000000000000000000000000000000000000000F52D00F5000000002D00000000000000000000000000000000000000000000000000000000
310
000000000000000000000000000000000000000000000000000000000000000000000000000000BE00DC0000000000000000F52D0028282828282828282828282828282828282828282828282828282828282828282828282828282828002DF500BEBE002D0000000000000000000000000000000000000000000000000000
310
00000000000000000000000000000000000000000000000000000000000000000000000000DC00BE00DC00000000000000F5002D00282828282828282828282828282828282828282828282828282828282828282828282828282828282D00F5000000002D0000000000000000000000000000000000000000000000000000
310
0000000000000000000000000000000000000000000000000000000000000000000000000000000000BE00DC0000000000000000F52D0028282828282828282828282828282828282828282828282828282828282828282828282828282828002DF500002D002D000000000000000000000000000000000000000000000000
310
000000000000000000000000000000000000000000000000000000000000000000000000000000DC00BE00DC00000000000000F5002D00282828282828282828282828282828282828282828282828282828282828282828282828282828282D00F5000000002D000000000000000000000000000000000000000000000000
310
00000000000000000000000000000000000000000000000000000000000000000000000000000000000000BE00DC0000000000000000F52D00F5F5F5F5F5F5F5F5F5F5F5F5F5F5F5F5F5F5F5F5F5F5F5F5F5F5F5F5F5F5F5F5F5F5F5F5F5F5F5F52D2D2D2DBEBE002D00000000000000000000000000000000000000000000
310
0000000000000000000000000000000000000000000000000000000000000000000000000000000000DC00BE00DC00000000000000F5002D00F5F5F5F5F5F5F5F5F5F5F5F5F5F5F5F5F5F5F5F5F5F5F5F5F5F5F5F5F5F5F5F5F5F5F5F5F5F5F5F52D00F5000000002D00000000000000000000000000000000000000000000
310
000000000000000000000000000000000000000000000000000000000000000000000000000000000000000000BE00DC0000000000000000F52D002D00000000000000000000000000000000000000000000000000000000000000000000000000002D002DF500BEBE002D0000000000000000000000000000000000000000
310
00000000000000000000000000000000000000000000000000000000000000000000000000000000000000DC00BE00DC00000000000000F5002D00000000000000000000000000000000000000000000000000000000000000000000000000000000002D00F5000000002D0000000000000000000000000000000000000000
310
0000000000000000000000000000000000000000000000000000000000000000000000000000000000000000000000BE00DC0000000000000000F52D2D2D2D2D2D2D2D2D2D2D2D2D2D2D2D2D2D2D2D2D2D2D2D2D2D2D2D2D2D2D2D2D2D2D2D2D2D2D2D2D2D2D2DF500BEBE002D000000000000000000000000000000000000
310
000000000000000000000000000000000000000000000000000000000000000000000000000000000000000000DC00BE00DC00000000000000F5002D2D2D2D2D2D2D2D2D2D2D2D2D2D2D2D2D2D2D2D2D2D2D2D2D2D2D2D2D2D2D2D2D2D2D2D2D2D2D2D2D2D2D00F5000000002D000000000000000000000000000000000000
310
00000000000000000000000000000000000000000000000000000000000000000000000000000000000000000000000000BE00DC0000000000000000F500002D00000000000000000000000000000000000000000000000000000000000000000000000000002D0000F500BEBE002D00000000000000000000000000000000
310
0000000000000000000000000000000000000000000000000000000000000000000000000000000000000000000000DC00BE00DC00000000000000F5000000000000000000000000000000000000000000000000000000000000000000000000000000000000000000F5000000002D00000000000000000000000000000000
310
000000000000000000000000000000000000000000000000000000000000000000000000000000000000000000000000000000BE00DC00000000000000002DF5F52DF5F5F5F5F5F5F5F5F5F5F5F5F5F5F5F5F5F5F5F5F5F5F5F5F5F5F5F5F5F5F5F5F5F5F5F5F5F52DF5F5F52D2DF52D2D2D00000000000000000000000000
310
00000000000000000000000000000000000000000000000000000000000000000000000000000000000000000000000000DC00BE00DC000000000000002DF5F5F5F5F5F5F5F5F5F5F5F5F5F5F5F5F5F5F5F5F5F5F5F5F5F5F5F5F5F5F5F5F5F5F5F5F5F5F5F5F5F5F5F5F52D2D2D2D2D2D0000000000000000000000000000
310
0000000000000000000000000000000000000000000000000000000000000000000000000000000000000000000000000000000000BE00DC00000000BEBEBEBE2D2D2D2D2D2D2D2D2D2D2D2D2D2D2D2D2D2D2D2D2DBEBEBEBE2D2D2D2D2D2D2D2D2D2D2D2D2D2D2D2D2D2D2D2DF5BEBEBEBE00000000000000000000000000
310
000000000000000000000000000000000000000000000000000000000000000000000000000000000000000000000000000000DC00BE00DC000000000000002D0000000000000000000000000000000000000000000000000000000000000000000000000000000000000000002D0000000000000000000000000000000000
310
00000000000000000000000000000000000000000000000000000000000000000000000000000000000000000000000000000000000000BE00DC00000000BEBEBEBE2D0000000000000000000000000000000000000000BEBEBEBE00000000000000000000000000000000000000002DBEBEBEBE0000000000000000000000
310
0000000000000000000000000000000000000000000000000000000000000000000000000000000000000000000000000000000000DC00BE00DC000000000000002D2D2D2D2D2D2D2D2D2D2D2D2D2D2D2D2D2D2D2D2D2DBEBEBE2D2D2D2D2D2D2D2D2D2D2D2D2D2D2D2D2D2D2D2D2DF5000000000000000000000000000000
310
000000000000000000000000000000000000000000000000000000000000000000000000000000000000000000000000000000000000000000BE00DC00000000000000002D2D2D2D2D2D2D2D2D2D2D2D2D2D2D2D2D2D2D2D2DBEBEBE2D2D2D2D2D2D2D2D2D2D2D2D2D2D2D2D2D2D2D2D2DF500000000000000000000000000
310
000000000000002D2D00000000000000000000000000000000000000002D2D000000000000000000000000000000000000000000000000DC00BE00DC0000000000000000000000000000000000000000000000000000000000BEBEBE0000000000000000000000000000000000000000000000000000000000000000000000
310
000000000000002D2D00000000000000000000000000000000000000002D2D00000000000000000000000000000000000000000000000000000000BE00DC0000000000000000000000000000000000000000000000000000000000BEBEBE000000000000000000000000000000000000000000000000000000000000000000
310
0000000000000000002D2D2D2D2D2D2D2D2D2D2DBEBEBE2D2D2D2D2D2D2D2D2DF5000000000000000000000000000000000000000000000000DC00BE00DC0000000000000000000000000000000000000000000000000000000000000000000000000000000000000000000000000000000000000000000000000000000000
310
0000000000000000002D2D2D2D2D2D2D2D2D2D2DBEBEBE2D2D2D2D2D2D2D2D2DF500000000000000000000000000000000000000000000000000000000BE00DC000000000000000000000000000000000000000000000000000000000000000000000000000000000000000000000000000000000000000000000000000000
310
00000000000000000000002D002D2D2D2D2D2D2D2D2D2D2D2D2D2D2D2D2D2D2DF5002D000000000000000000000000000000000000000000000000DC00BE00DC000000000000000000000000000000000000000000000000000000000000000000000000000000000000000000000000000000000000000000000000000000
310
00000000000000000000002D002D2D2D2D2D2D2D2D2D2D2D2D2D2D2D2D2D2D2DF5002D00000000000000000000000000000000000000000000000000000000BE00DC00000000000000000000000000000000000000000000000000000000000000000000000000000000000000000000000000000000000000000000000000
310
000000000000000000000000002D002D2D00000000000000BEBEBE0000000000002D2D002D000000000000000000000000000000000000000000000000DC00BE00DC00000000000000000000000000000000000000000000000000000000000000000000000000000000000000000000000000000000000000000000000000
310
000000000000000000000000002D002D2D00000000000000BEBEBE0000000000002D2D002D00000000000000000000000000000000000000000000000000000000BE00DC0000000000000000000000000000000000000000000000000000000000000000000000000000000000000000000000000000000000000000000000
310
0000000000000000000000000000002D002D0000000000000000BEBEBE000000000000002D002D000000000000000000000000000000000000000000000000DC00BE00DC0000000000000000000000000000000000000000000000000000000000000000000000000000000000000000000000000000000000000000000000
310
0000000000000000000000000000002D002D00000000000000BEBEBEBE000000000000002D002D00000000000000000000000000000000000000000000000000000000BE00DC0000000000000000000000F5F528282828282828282828282828282828F5F5F5F5282828282828282828282828282828F5F5F5000000000000
310
00000000000000000000000000000000002D00F5F5F5282828282828282828282828282828F5F52D2D2D2D2D2DBE2D000000000000000000000000000000000000DC00BE00DC00000000000000000000F5F5F5F5F5F5F5F5F5F5F5F5F5F5F5F5F5F5F5F5F5F5F5F5F5F5F5F5F5F5F5F5F5F5F5F5F5F5F5F5F5000000000000
310
00000000000000000000000000000000002D00F5F5F5F5F5F5F5F5F5F5F5F5F5F5F5F5F5F5F5F52D2D00000000000000000000000000000000000000000000000000000000BE00DC0000000000000000000000F50000282828282828282828282828000000000000000000282828282828282828282828280000F500000000
310
000000000000000000000000000000000000002D00F5000028282828282828282828282828000000F5002D000000002D2D000000000000000000000000000000000000DC00BE00DC00000000000000000000F5000000000000000000000000000000000000000000000000000000000000000000000000000000F500000000
310
000000000000000000000000000000000000002D00F5000000000000000000000000000000000000F5002D00000000000000000000000000000000000000000000000000000000BE00DC0000000000000000000000F50000000000000000002828282828282828000000002828282828282828000000000000000000F50000
310
0000000000000000000000000000000000000000002D00F5000000000000000000282828282828282800F5002D000000002D00000000000000000000000000000000000000DC00BE00DC00000000000000000000F5000000000000000000000000000000000000000000000000000000000000000000000000000000F50000
310
0000000000000000000000000000000000000000002D00F5000000000000000000000000000000000000F5002D00000000000000000000000000000000000000000000000000000000BE00DC0000000000000000000000F50000282828282828282828282800000000000000000000000028282828282828282828280000F5
310
00000000000000000000000000000000000000000000002D00F5000028282828282828282828280000000000F5002D000000002D00000000000000000000000000000000000000DC00BE00DC00000000000000000000F5000000000000000000000000000000000000000000000000000000000000000000000000000000F5
310
00000000000000000000000000000000000000000000002D00F5000000000000000000000000000000000000F5002D00000000000000000000000000000000000000000000000000000000BE00DC0000000000000000000000F500282828282828282828282800000000000000000000000000002828282828282828282800
310
00F500000000000000000000000000000000000000000000002D00F5000028282828282828282828000000000000F5002D000000002D00000000000000000000000000000000000000DC00BE00DC00000000000000000000F50000000000000000000000000000000000000000000000000000000000000000000000000000
310
00F500000000000000000000000000000000000000000000002D00F5000000000000000000000000000000000000F5002D00000000000000000000000000000000000000000000000000000000BE00DC0000000000000000000000F50000000000000000282828282828282828000000002828282828282828000000000000
310
000000F500000000000000000000000000000000000000000000002D00F5000000000000000000282828282828282800F5002D000000002D00000000000000000000000000000000000000DC00BE00DC00000000000000000000F5000000000000000000000000000000000000000000000000000000000000000000000000
310
000000F500000000000000000000000000000000000000000000002D00F5000000000000000000000000000000000000F5002D00000000000000000000000000000000000000000000000000000000BE00DC0000000000000000000000F5000000282828282828282828282828000000000000002828282828282828282828
310
2800000000F500000000000000000000000000000000000000000000002D00F5000000002828282828282828282828280000F5002D000000002D00000000000000000000000000000000000000DC00BE00DC00000000000000000000F500000000000000000000000000000000000000000000000000000000000000000000
310
0000000000F500000000000000000000000000000000000000000000002D00F5000000000000000000000000000000000000F5002D00000000000000000000000000000000000000000000000000000000BE00DC0000000000000000000000F5002828282828282828BE000000000000000000000000000000000000282828
310
28282828280000F500000000000000000000000000000000000000000000002D00F5000028282828282828280000000000000000F5002D000000002D00000000000000000000000000000000000000DC00BE00DC00000000000000000000F50000000000000000000000000000000000000000000000000000000000000000
310
00000000000000F500000000000000000000000000000000000000000000002D00F5000000000000000000000000000000000000F5002D00000000000000000000000000000000000000000000000000000000BE00DC0000000000000000000000F50000000000002828282828282828282828000000002828282828282828
310
282828000000000000F500000000000000000000000000000000000000000000002D00F5000000000000282828282828282828282800F5002D000000002D00000000000000000000000000000000000000DC00BE00DC00000000000000000000F5000000000000000000000000000000000000000000000000000000000000
310
000000000000000000F500000000000000000000000000000000000000000000002D00F5000000000000000000000000000000000000F5002D00000000000000000000000000000000000000000000000000000000BE00DC0000000000000000000000F5000000000000282828282828282828282800000000282828282828
310
2828282828000000000000F500000000000000000000000000000000000000000000002D00F5000000000000282828282828282828282800F5002D000000002D00000000000000000000000000000000000000DC00BE00DC00000000000000000000F500000000000000000000000000000000000000000000000000000000
310
0000000000000000000000F500000000000000000000000000000000000000000000002D00F5000000000000000000000000000000000000F5002D00000000000000000000000000000000000000000000000000000000BE00DC0000000000000000000000F5002828282828282828BE000000000000000000000000000000
310
00000028282828282828280000F500000000000000000000000000000000000000000000002D00F5000028282828282828280000000000000000F5002D000000002D00000000000000000000000000000000000000DC00BE00DC00000000000000000000F50000000000000000000000000000000000000000000000000000
310
00000000000000000000000000F500000000000000000000000000000000000000000000002D00F5000000000000000000000000000000000000F5002D00000000000000000000000000000000000000000000000000000000BE00DC0000000000000000000000F50000002828282828282828282828280000000000000028
310
282828282828282828282800000000F500000000000000000000000000000000000000000000002D00F5000000002828282828282828282828280000F5002D000000002D00000000000000000000000000000000000000DC00BE00DC00000000000000000000F5000000000000000000000000000000000000000000000000
310
000000000000000000000000000000F500000000000000000000000000000000000000000000002D00F5000000000000000000000000000000000000F5002D00000000000000000000000000000000000000000000000000000000BE00DC0000000000000000000000F5000000000000000028282828282828282800000000
310
2828282828282828000000000000000000F500000000000000000000000000000000000000000000002D00F5000000000000000000282828282828282800F5002D000000002D00000000000000000000000000000000000000DC00BE00DC00000000000000000000F500000000000000000000000000000000000000000000
310
0000000000000000000000000000000000F500000000000000000000000000000000000000000000002D00F5000000000000000000000000000000000000F5002D00000000000000000000000000000000000000000000000000000000BE00DC0000000000000000000000F500282828282828282828282800000000000000
310
00000000000000282828282828282828280000F500000000000000000000000000000000000000000000002D00F5000028282828282828282828000000000000F5002D000000BEBE00000000000000000000000000000000000000DC00BE00DC00000000000000000000F50000000000000000000000000000000000000000
310
00000000000000000000000000000000000000F500000000000000000000000000000000000000000000002D00F5000000000000000000000000000000000000F5002D00000000000000000000000000000000000000000000000000000000BE00DC0000000000000000000000F50000282828282828282828282800000000
310
000000000000000028282828282828282828280000F500000000000000000000000000000000000000000000002D00F50000DCDCDCDC28282828282828DCDCDCDC00F5002D000000BEBE00000000000000000000000000000000000000DC00BE00DC00000000000000000000F5000000000000000000000000000000000000
310
000000000000000000000000000000000000000000F500000000000000000000000000002D2D2D2D2D2D2D2D2D2D2D2D2DF5DCDCDCDC00000000000000DCDCDC0000F5002D00000000000000000000000000000000000000000000000000000000BE00DC0000000000000000000000F5000000000000000000282828282828
310
2828000000002828282828282828000000000000000000F500000000000000000000000000000000000000000000002D00F50000DCDCDCDC00000028282828DCDCDCDC00F5002D000000BEBE00000000000000000000000000000000000000DC00BE00DC00000000000000000000F500000000000000000000000000000000
310
0000000000000000000000000000000000000000000000F500000000000000000000000000002D00000000000000002D00F50000DCDC00DC00000000000000DCDC00DC00F5002D00000000000000000000000000000000000000000000000000000000BE00DC0000000000000000000000F500002828282828282828282828
310
28000000000000000000282828282828282828282828280000F500000000000000000000000000000000000000000000002D00F50000DCDCDCDC28282828282828DCDCDCDC00F5002D000000002D00000000000000000000000000000000000000DC00BE00DC00000000000000000000F50000000000000000000000000000
310
00000000000000000000000000000000000000000000000000F500000000000000000000000000002D00000000000000002D00F50000DCDCDCDC00000000000000DCDCDCDC00F5002D00000000000000000000000000000000000000000000000000000000BE00DC0000000000000000000000280028282828282828282800
310
000000000000000000000000000000000028282828282828280000F500000000000000000000000000000000000000000000002D00F52800DC2828DC28282828000000DC0000DC00F5002D000000002D00000000000000000000000000000000000000DC00BE00DC00000000000000000000F5000000000000000000000000
310
000000000000000000000000000000000000000000000000000000F500000000000000000000000000002D00000000000000002D00F50000DC0000DC00000000000000DC0000DC00F5002D00000000000000000000000000000000000000000000000000000000BE00DC000000000000000000000028000000000000002828
310
2828282828282828000000002828282828282828282800000000000000F500000000000000000000000000000000000000000000002D00F52800DC0000DC00282828282828DC2828DC00F5002D000000002D00000000000000000000000000000000000000DC00BE00DC00000000000000000000F500000000000000000000
310
0000000000000000000000000000000000000000000000000000000000F500000000000000000000000000BEBE00000000000000002D00F50000DC0000DC00000000000000DC0000DC00F5002D00000000000000000000000000000000000000000000000000000000BE00DC00000000000000000000002800000000002828
310
28282828282828282828000000002828282828282828282828280000000000F500000000000000000000000000000000000000000000002D00F52800DC0000DC28282828282828DC2828DC00F5002D000000002D00000000000000000000000000000000000000DC00BE00DC00000000000000000000F50000000000000000
310
00000000000000000000000000000000000000000000000000000000000000F500000000000000000000000000BEBE00000000000000002D00F50000DC0000DC00000000000000DC0000DC00F5002D00000000000000000000000000000000000000000000000000000000BE00DC0000000000000000000000282828282828
310
282828282828282828282828282828282828282828282828282828282828282828F500000000000000000000000000000000000000000000002D00F5282828282828282828282828282828282828F5002D000000002D00000000000000000000000000000000000000DC00BE00DC00000000000000000000F5000000000000
310
000000000000000000000000000000000000000000000000000000000000000000F500000000000000000000000000002D00000000000000002D00F50000DCDCDCDC00000000000000DCDCDCDC00F5002D00000000000000000000000000000000000000000000000000000000BE00DC0000000000000000000000F5000000
310
0000000000000000000000000000000000000000000000000000000000000000000000F500000000000000000000000000000000000000000000002D00F52D00DCDCDCDC00000000000000DCDCDCDC00F5002D000000002D00000000000000000000000000000000000000DC00BE00DC00000000000000000000F500000000
310
0000000000000000000000000000000000000000000000000000000000000000000000F500000000000000000000000000002D00000000000000002D00F50000DCDCDCDC00000000000000DCDC00DC00F5002D00000000000000000000000000000000000000000000000000000000BE00DC0000000000000000000000F52D
310
2D2D2D2D2D2D2D2D2D2D2D2D2D2D2D2D2D2D2D2D2D2D2D2D2D2D2D2D2D2D2D2D2D2D2D2D2DF500000000000000000000000000000000000000000000002D00F52D2DDC2D2DDC2D2DBEBEBE2D2DDC2D2DDC2DF5002D000000002D00000000000000000000000000000000000000DC00BE00DC00000000000000000000F50000
310
00000000000000000000000000000000000000000000000000000000000000000000000000F500000000000000000000000000002D00000000000000002D00F50000DC0000DC00000000000000DC00DCDC00F5002D00000000000000000000000000000000000000000000000000000000BE00DC0000000000000000000000
310
F52D00000000000000000000000000000000BEBEBEBE000000000000000000000000000000002DF500000000000000000000000000000000000000000000002D00F50000DC00DCDC0000BEBEBE0000DC00DCDC00F5002D000000002D00000000000000000000000000000000000000DC00BE00DC00000000000000000000F5
310
000000000000000000000000000000000000000000000000000000000000000000000000000000F50000000000000000000000000000F52D2D2DF52D2D2D2D2D2D2D2DF5DC00DCDC00000000000000DC00DC0000F5002D00000000000000000000000000000000000000000000000000000000BE00DC0000000000BEBEBEBE
310
BEBE282828282828282828282828282828282828282828282828282828282828282828282828282828BEBEBEBEBEBEBE000000000000000000000000BEBEBEBEBEBEF5F5000000000000000000000000000000000000F5F5F5BEBEBEBEBEBE000000000000000000000000000000000000DC00BE00DC0000000000BEBEBEBE
310
BEBE282828282828282828282828282828282828282828282828282828282828282828282828282828BEBEBEBEBEBEBE00000000000000BEBE000000BEBEBEBEBEBEF5F5000000000000000000000000000000000000F5F5BE00000000000000000000000000000000000000000000000000000000BE00DC00000000000000
310
000000BEF50000000000000000000000000000000000000000000000000000000000000000000000000000BE0000000000000000000000000000000000000000000000BE28BE0000000000000000000000000000000000000028F5BE0000002D00000000000000000000000000000000000000DC00BE00DC00000000000000
310
000000BE000000000000000000000000000000000000000000000000000000000000000000000000000000BE00000000000000000000000000BEBE0000000000000000BE28BE0000000000000000000000000000000000002828BE00000000000000000000000000000000000000000000000000000000BE00DC0000000000
310
0000000000BEBEBE0000000000000000000000000000000000000000000000000000000000000000000000BEBEBEBE00000000000000000000000000000000000000000000BE2828BE00000028280000000000000028000000002828F5BE0000002D00000000000000000000000000000000000000DC00BE00DC0000000000
310
0000000000BEBEBE0000000000000000000000000000000000000000000000000000000000000000000000BEBEBE00000000000000000000000000002D0000000000000000BE2828BE00000028000000000000000028000000BE2828BE00000000000000000000000000000000000000000000000000000000BE00DC000000
310
0000BEBEBEF5F5F5F5F5F5F5F5F5F5F5F5F5F5F5F5F5F5F5F5F5F5F5F5F5F5F5F5F5F5F5F5F5F5F5F5F5F5F5F5F5F5F5F5F5F5BEBEBE000000000000000000000000BEBEF5F5F5F528F5F5F5F5F5F5F5F5F5F5F5F5F5F5F5F5F5F5F5F5F5F5F5F5F5F5BEBE000000000000000000000000000000000000DC00BE00DC000000
310
0000BEBEF5F5F5F5F5F5F5F5F5F5F5F5F5F5F5F5F5F5F5F5F5F5F5F5F5F5F5F5F5F5F5F5F5F5F5F5F5F5F5F5F5F5F5F5F5F5F5BEBEBE0000000000000000F52D2D2DBEF5F5F5F5F528F5F5F5F5F5F5F5F5F5F5F5F5F5F5F5F5F5F5F5F5F5F500000000000000000000000000000000000000000000000000000000BE00DC00
310
00000000000000F5F52D2828282828282828282828282828282828282828282828282828282828282828282828282828282D28F5F50000000000000000000000000000000000F5F5F52D28282828282828282828282828282828282828282828282D28F5F52D2D000000000000000000000000000000000000DC00BE00DC00
310
000000000000F5F5F52D2828282828282828282828282828282828282828282828282828282828282828282828282828282DF5F5F500000000000000000000000000000000F5F5F5F52D282828282828282828282828282828282828282828282D00000000000000000000000000000000000000000000000000000000BE00
310
DC000000000000000000002D0000000000000000000000000000000000000000000000000000000000000000000000000000002D00000000000000000000000000000000000000000000002D00000000000000000000000000000000000000000000002D0000000000000000000000000000000000000000000000DC00BE00
310
DC000000000000000000002D0000000000000000000000000000000000000000000000000000000000000000000000000000002D00000000000000000000000000000000000000000000002D2D2DBEBEBEBE2DBE00000000000000000000000000002D00000000000000000000000000000000000000000000000000000000
310
BE00DC000000000000000000002D0000000000000000000000000000000000000000000000000000000000000000000000000000002D00000000000000000000000000000000000000000000002D00000000000000000000000000000000000000000000002D0000000000000000000000000000000000000000000000DC00
310
BE00DC000000000000000000002D0000000000000000000000000000000000000000000000000000000000000000000000000000002D00000000000000000000000000000000000000000000002D00BEBEBEBEBE000000000000000000000000000000002D0000000000000000000000000000000000000000000000000000
310
0000BE00DC000000000000000000002D2D2D2D2D2D2D2D2D2D2D2D2D2D2D2D2D2D2D2D2D2D2D2D2D2D2D2D2D2D2D2D2D2D2D2D2D2D2D2DF500000000000000000000000000000000000000000000002D2D2D2D2D2D2DBEBEBEBEBEBEBEBEBEBEBE2D2D2D2D2D2DF50000000000000000000000000000000000000000000000
310
DC00BE00DC000000000000000000002D2D2D2D2D2D2D2D2D2D2D2D2D2D2D2D2D2D2D2D2D2D2D2D2D2D2D2D2D2D2D2D2D2D2D2D2D2D2D2DF500000000000000000000000000000000000000000000002D2D2D2D2D2DBEBEBEBEBEBEBEBE2DBEBEBE2D2D2D2D2DF5000000000000000000000000000000000000000000000000
310
00000000BE00DC000000000000000000002D0000000000000000000000000000BEBEBEBEBEBEBEBEBEBEBEBE000000000000000000000000002D000000000000000000000000000000000000000000000000000000000000BEBEBEBEBEBEBEBEBEBEBE00000000000000000000000000000000000000000000000000000000
310
0000DC00BE00DC000000000000000000002D0000000000000000000000000000BEBEBEBEBEBEBEBEBEBEBE00000000000000000000000000002D0000000000000000000000000000000000000000000000000000000000BEBEBEBEBEBEBEBE00BEBEBE00000000000000000000000000000000000000000000000000000000
310
000000000000BE00DC00000000000000000000000000000000000000000000000000BE000000BE00BEBEBEBEBE00000000000000000000000000000000000000000000000000000000000000000000000000000000000000000000000000000000000000000000000000000000000000000000000000000000000000000000
310
00000000DC00BE00DC00000000000000000000000000000000000000000000000000BE000000BE00BEBEBEBEBE00000000000000000000000000000000000000000000000000000000000000000000000000000000000000000000000000000000000000000000000000000000000000000000000000000000000000000000
310
0000000000000000BE00DC0000000000000000000000000000000000000000000000000000000000000000000000000000000000000000000000000000000000000000000000000000000000000000000000000000000000000000000000000000000000000000000000000000000000000000000000000000000000000000
310
000000000000DC00BE00DC0000000000000000000000000000000000000000000000000000000000000000000000000000000000000000000000000000000000000000000000000000000000000000000000000000000000000000000000000000000000000000000000000000000000000000000000000000000000000000
310
00000000000000000000BE00DC000000000000000000000000000000000000000000000000000000000000000000000000000000000000000000000000000000000000000000000000000000000000000000000000000000000000000000000000000000000000000000000000000000000000000000000000000000000000
310
0000000000000000DC00BE00DC000000000000000000000000000000000000000000000000000000000000000000000000000000000000000000000000000000000000000000000000000000000000000000000000000000000000000000000000000000000000000000000000000000000000000000000000000000000000
310
000000000000000000000000BE00DC00000000000000000000000000000000000000000000000000000000000000000000000000000000000000000000000000000000000000000000000000000000000000000000000000000000000000000000000000000000000000000000000000000000000000000000000000000000
310
00000000000000000000DC00BE00DC00000000000000000000000000000000000000000000000000000000000000000000000000000000000000000000000000000000000000000000000000000000000000000000000000000000000000000000000000000000000000000000000000000000000000000000000000000000
310
0000000000000000000000000000BE00DC0000000000000000000000000000000000000000000000000000000000000000000000000000000000000000000000000000000000000000000000000000000000000000000000000000000000000000000000000000000000000000000000000000000000000000000000000000
310
000000000000000000000000DC00BE00DC0000000000000000000000000000000000000000000000000000000000000000000000000000000000000000000000000000000000000000000000000000000000000000000000000000000000000000000000000000000000000000000000000000000000000000000000000000
310
00000000000000000000000000000000BE00DC000000000000000000000000000000000000000000000000000000000000000000000000000000000000000000000000000000000000000000000000000000000000000000000000000000000000000000000000000000000000000000000000000000000000000000000000
310
0000000000000000000000000000DC00BE00DC000000000000000000000000000000000000000000000000000000000000000000000000000000000000000000000000000000000000000000000000000000000000000000000000000000000000000000000000000000000000000000000000000000000000000000000000
310
000000000000000000000000000000000000BE00DC00000000000000000000000000000000000000000000000000000000000000000000000000000000000000000000000000000000000000000000000000000000000000000000000000000000000000000000000000000000000000000000000000000000000000000000
310
00000000000000000000000000000000DC00BE00DC00000000000000000000000000000000000000000000000000000000000000000000000000000000000000000000000000000000000000000000000000000000000000000000000000000000000000000000000000000000000000000000000000000000000000000000
310
0000000000000000000000000000000000000000BE00DC0000000000000000000000000000000000000000000000000000000000000000000000000000000000000000000000000000000000000000000000000000000000000000000000000000000000000000000000000000000000000000000000000000000000000000
310
000000000000000000000000000000000000DC00BE00DC0000000000000000000000000000000000000000000000000000000000000000000000000000000000000000000000000000000000000000000000000000000000000000000000000000000000000000000000000000000000000000000000000000000000000000
310
00000000000000000000000000000000000000000000BE00DC000000000000000000000000000000000000000000000000000000000000000000000000000000000000000000000000000000000000000000000000000000000000000000000000000000000000000000000000000000000000000000000000000000000000
310
0000000000000000000000000000000000000000DC00BE00DC000000000000000000000000000000000000000000000000000000000000000000000000000000000000000000000000000000000000000000000000000000000000000000000000000000000000000000000000000000000000000000000000000000000000
310
000000000000000000000000000000000000000000000000BE00DC00000000000000000000000000000000000000000000000000000000000000000000000000000000000000000000000000000000000000000000000000000000000000000000000000000000000000000000000000000000000000000000000000000000
310
00000000000000000000000000000000000000000000DC00BE00DC00000000000000000000000000000000000000000000000000000000000000000000000000000000000000000000000000000000000000000000000000000000000000000000000000000000000000000000000000000000000000000000000000000000
310
0000000000000000000000000000000000000000000000000000BE00DC0000000000000000000000000000000000000000000000000000000000000000000000000000000000000000000000000000000000000000000000000000000000000000000000000000000000000000000000000000000000000000000000000000
310
000000000000000000000000000000000000000000000000DC00BE00DC0000000000000000000000000000000000000000000000000000000000000000000000000000000000000000000000000000000000000000000000000000000000000000000000000000000000000000000000000000000000000000000000000000
310
00000000000000000000000000000000000000000000000000000000BE00DCDCDCDCDCDCDCDCDCDCDCDCDCDCDCDCDCDCDCDCDCDCDCDCDCDCDCDCDCDCDCDCDCDCDCDCDCDCDCDCDCDCDCDCDCDCDCDCDCDCDCDCDCDCDCDCDCDCDCDCDCDCDCDCDCDCDCDCDCDCDCDCDCDCDCDCDCDCDCDCDCDCDCDCDCDCDCDCDCDCDCDCDCDCDCDCDC
310
DCDCDCDCDCDCDCDCDCDCDCDCDCDCDCDCDCDCDCDCDCDCDCDCDCDCDC00BE00DCDCDCDCDCDCDCDCDCDCDCDCDCDCDCDCDCDCDCDCDCDCDCDCDCDCDCDCDCDCDCDCDCDCDCDCDCDCDCDCDCDCDCDCDCDCDCDCDCDCDCDCDCDCDCDCDCDCDCDCDCDCDCDCDCDCDCDCDCDCDCDCDCDCDCDCDCDCDCDCDCDCDCDCDCDCDCDCDCDCDCDCDCDCDCDCDC
310
DCDC00000000000000000000000000000000000000000000000000000000BE000000000000000000000000000000000000000000000000000000000000000000000000000000000000000000000000000000000000000000000000000000000000000000000000000000000000000000000000000000000000000000000000
310
000000000000000000000000000000000000000000000000000000000000BE000000000000000000000000000000000000000000000000000000000000000000000000000000000000000000000000000000000000000000000000000000000000000000000000000000000000000000000000000000000000000000000000
310
0000000000000000000000000000000000000000000000000000000000000000BEBEBEBEBEBEBEBEBEBEBEBEBEBEBEBEBEBEBEBEBEBEBEBEBEBEBEBEBEBEBEBEBEBEBEBEBEBEBEBEBEBEBEBEBEBEBEBEBEBEBEBEBEBEBEBEBEBEBEBEBEBEBEBEBEBEBEBEBEBEBEBEBEBEBEBEBEBEBEBEBEBEBEBEBEBEBEBEBEBEBEBEBEBEBE
310
BEBEBEBEBEBEBEBEBEBEBEBEBEBEBEBEBEBEBEBEBEBEBEBEBEBEBEBEBEBEBEBEBEBEBEBEBEBEBEBEBEBEBEBEBEBEBEBEBEBEBEBEBEBEBEBEBEBEBEBEBEBEBEBEBEBEBEBEBEBEBEBEBEBEBEBEBEBEBEBEBEBEBEBEBEBEBEBEBEBEBEBEBEBEBEBEBEBEBEBEBEBEBEBEBEBEBEBEBEBEBEBEBEBEBEBEBEBEBEBEBEBEBEBEBEBEBE
310
BEBEBEBEBEBE00000000000000000000000000000000000000000000000000000000000000000000000000000000000000000000000000000000000000000000000000000000000000000000000000000000000000000000000000000000000000000000000000000000000000000000000000000000000000000000000000
310
00000000000000000000000000000000000000000000000000000000000000000000000000000000000000000000000000000000000000000000000000000000000000000000000000000000000000000000000000000000000000000000000000000000000000000000000000000000000000000000000000000000000000
310
00000000000000000000000000000000000000000000000000000000000000000000000000000000000000000000000000000000000000000000000000000000000000000000000000000000000000000000000000000000000000000000000000000000000000000000000000000000000000000000000000000000000000
310
00000000000000000000000000000000000000000000000000000000000000000000000000000000000000000000000000000000000000000000000000000000000000000000000000000000000000000000000000000000000000000000000000000000000000000000000000000000000000000000000000000000000000
310
00000000000000000000000000000000000000000000000000000000000000000000000000000000000000000000000000000000000000000000000000000000000000000000000000000000000000000000000000000000000000000000000000000000000000000000000000000000000000000000000000000000000000
310
00000000000000000000000000000000000000000000000000000000000000000000000000000000000000000000000000000000000000000000000000000000000000000000000000000000000000000000000000000000000000000000000000000000000000000000000000000000000000000000000000000000000000
310
00000000000000000000000000000000000000000000000000000000000000000000000000000000000000000000000000000000000000000000000000000000000000000000000000000000000000000000000000000000000000000000000000000000000000000000000000000000000000000000000000000000000000
310
00000000000000000000000000000000000000000000000000000000000000000000000000000000000000000000000000000000000000000000000000000000000000000000000000000000000000000000000000000000000000000000000000000000000000000000000000000000000000000000000000000000000000
310
00000000000000000000000000000000000000000000000000000000000000000000000000000000000000000000000000000000000000000000000000000000000000000000000000000000000000000000000000000000000000000000000000000000000000000000000000000000000000000000000000000000000000
310
00000000000000000000000000000000000000000000000000000000000000000000000000000000000000000000000000000000000000000000000000000000000000000000000000000000000000000000000000000000000000000000000000000000000000000000000000000000000000000000000000000000000000
310
00000000000000000000000000000000000000000000000000000000000000000000000000000000000000000000000000000000000000000000000000000000000000000000000000000000000000000000000000000000000000000000000000000000000000000000000000000000000000000000000000000000000000
310
00000000000000000000000000000000000000000000000000000000000000000000000000000000000000000000000000000000000000000000000000000000000000000000000000000000000000000000000000000000000000000000000000000000000000000000000000000000000000000000000000000000000000
310
00000000000000000000000000000000000000000000000000000000000000000000000000000000000000000000000000000000000000000000000000000000000000000000000000000000000000000000000000000000000000000000000000000000000000000000000000000000000000000000000000000000000000
310
00000000000000000000000000000000000000000000000000000000000000000000000000000000000000000000000000000000000000000000000000000000000000000000000000000000000000000000000000000000000000000000000000000000000000000000000000000000000000000000000000000000000000
310
00000000000000000000000000000000000000000000000000000000000000000000000000000000000000000000000000000000000000000000000000000000000000000000000000000000000000000000000000000000000000000000000000000000000000000000000000000000000000000000000000000000000000
310
00000000000000000000000000000000000000000000000000000000000000000000000000000000000000000000000000000000000000000000000000000000000000000000000000000000000000000000000000000000000000000000000000000000000000000000000000000000000000000000000000000000000000
310
00000000000000000000000000000000000000000000000000000000000000000000000000000000000000000000000000000000000000000000000000000000000000000000000000000000000000000000000000000000000000000000000000000000000000000000000000000000000000000000000000000000000000
310
00000000000000000000000000000000000000000000000000000000000000000000000000000000000000000000000000000000000000000000000000000000000000000000000000000000000000000000000000000000000000000000000000000000000000000000000000000000000000000000000000000000000000
310
00000000000000000000000000000000000000000000000000000000000000000000000000000000000000000000000000000000000000000000000000000000000000000000000000000000000000000000000000000000000000000000000000000000000000000000000000000000000000000000000000000000000000
310
00000000000000000000000000000000000000000000000000000000000000000000000000000000000000000000000000000000000000000000000000000000000000000000000000000000000000000000000000000000000000000000000000000000000000000000000000000000000000000000000000000000000000
310
00000000000000000000000000000000000000000000000000000000000000000000000000000000000000000000000000000000000000000000000000000000000000000000000000000000000000000000000000000000000000000000000000000000000000000000000000000000000000000000000000000000000000
310
00000000000000000000000000000000000000000000000000000000000000000000000000000000000000000000000000000000000000000000000000000000000000000000000000000000000000000000000000000000000000000000000000000000000000000000000000000000000000000000000000000000000000
310
00000000000000000000000000000000000000000000000000000000000000000000000000000000000000000000000000000000000000000000000000000000000000000000000000000000000000000000000000000000000000000000000000000000000000000000000000000000000000000000000000000000000000
310
00000000000000000000000000000000000000000000000000000000000000000000000000000000000000000000000000000000000000000000000000000000000000000000000000000000000000000000000000000000000000000000000000000000000000000000000000000000000000000000000000000000000000
310
00000000000000000000000000000000000000000000000000000000000000000000000000000000000000000000000000000000000000000000000000000000000000000000000000000000000000000000000000000000000000000000000000000000000000000000000000000000000000000000000000000000000000
310
00000000000000000000000000000000000000000000000000000000000000000000000000000000000000000000000000000000000000000000000000000000000000000000000000000000000000000000000000000000000000000000000000000000000000000000000000000000000000000000000000000000000000
310
00000000000000000000000000000000000000000000000000000000000000000000000000000000000000000000000000000000000000000000000000000000000000000000000000000000000000000000000000000000000000000000000000000000000000000000000000000000000000000000000000000000000000
310
00000000000000000000000000000000000000000000000000000000000000000000000000000000000000000000000000000000000000000000000000000000000000000000000000000000000000000000000000000000000000000000000000000000000000000000000000000000000000000000000000000000000000
310
00000000000000000000000000000000000000000000000000000000000000000000000000000000000000000000000000000000000000000000000000000000000000000000000000000000000000000000000000000000000000000000000000000000000000000000000000000000000000000000000000000000000000
310
00000000000000000000000000000000000000000000000000000000000000000000000000000000000000000000000000000000000000000000000000000000000000000000000000000000000000000000000000000000000000000000000000000000000000000000000000000000000000000000000000000000000000
310
00000000000000000000000000000000000000000000000000000000000000000000000000000000000000000000000000000000000000000000000000000000000000000000000000000000000000000000000000000000000000000000000000000000000000000000000000000000000000000000000000000000000000
310
00000000000000000000000000000000000000000000000000000000000000000000000000000000000000000000000000000000000000000000000000000000000000000000000000000000000000000000000000000000000000000000000000000000000000000000000000000000000000000000000000000000000000
310
00000000000000000000000000000000000000000000000000000000000000000000000000000000000000000000000000000000000000000000000000000000000000000000000000000000000000000000000000000000000000000000000000000000000000000000000000000000000000000000000000000000000000
310
00000000000000000000000000000000000000000000000000000000000000000000000000000000000000000000000000000000000000000000000000000000000000000000000000000000000000000000000000000000000000000000000000000000000000000000000000000000000000000000000000000000000000
310
00000000000000000000000000000000000000000000000000000000000000000000000000000000000000000000000000000000000000000000000000000000000000000000000000000000000000000000000000000000000000000000000000000000000000000000000000000000000000000000000000000000000000
310
00000000000000000000000000000000000000000000000000000000000000000000000000000000000000000000000000000000000000000000000000000000000000000000000000000000000000000000000000000000000000000000000000000000000000000000000000000000000000000000000000000000000000
310
00000000000000000000000000000000000000000000000000000000000000000000000000000000000000000000000000000000000000000000000000000000000000000000000000000000000000000000000000000000000000000000000000000000000000000000000000000000000000000000000000000000000000
310
00000000000000000000000000000000000000000000000000000000000000000000000000000000000000000000000000000000000000000000000000000000000000000000000000000000000000000000000000000000000000000000000000000000000000000000000000000000000000000000000000000000000000
310
00000000000000000000000000000000000000000000000000000000000000000000000000000000000000000000000000000000000000000000000000000000000000000000000000000000000000000000000000000000000000000000000000000000000000000000000000000000000000000000000000000000000000
310
00000000000000000000000000000000000000000000000000000000000000000000000000000000000000000000000000000000000000000000000000000000000000000000000000000000000000000000000000000000000000000000000000000000000000000000000000000000000000000000000000000000000000
310
00000000000000000000000000000000000000000000000000000000000000000000000000000000000000000000000000000000000000000000000000000000000000000000000000000000000000000000000000000000000000000000000000000000000000000000000000000000000000000000000000000000000000
310
00000000000000000000000000000000000000000000000000000000000000000000000000000000000000000000000000000000000000000000000000000000000000000000000000000000000000000000000000000000000000000000000000000000000000000000000000000000000000000000000000000000000000
310
00000000000000000000000000000000000000000000000000000000000000000000000000000000000000000000000000000000000000000000000000000000000000000000000000000000000000000000000000000000000000000000000000000000000000000000000000000000000000000000000000000000000000
310
00000000000000000000000000000000000000000000000000000000000000000000000000000000000000000000000000000000000000000000000000000000000000000000000000000000000000000000000000000000000000000000000000000000000000000000000000000000000000000000000000000000000000
310
00000000000000000000000000000000000000000000000000000000000000000000000000000000000000000000000000000000000000000000000000000000000000000000000000000000000000000000000000000000000000000000000000000000000000000000000000000000000000000000000000000000000000
310
00000000000000000000000000000000000000000000000000000000000000000000000000000000000000000000000000000000000000000000000000000000000000000000000000000000000000000000000000000000000000000000000000000000000000000000000000000000000000000000000000000000000000
310
00000000000000000000000000000000000000000000000000000000000000000000000000000000000000000000000000000000000000000000000000000000000000000000000000000000000000000000000000000000000000000000000000000000000000000000000000000000000000000000000000000000000000
310
00000000000000000000000000000000000000000000000000000000000000000000000000000000000000000000000000000000000000000000000000000000000000000000000000000000000000000000000000000000000000000000000000000000000000000000000000000000000000000000000000000000000000
310
00000000000000000000000000000000000000000000000000000000000000000000000000000000000000000000000000000000000000000000000000000000000000000000000000000000000000000000000000000000000000000000000000000000000000000000000000000000000000000000000000000000000000
310
00000000000000000000000000000000000000000000000000000000000000000000000000000000000000000000000000000000000000000000000000000000000000000000000000000000000000000000000000000000000000000000000000000000000000000000000000000000000000000000000000000000000000
310
00000000000000000000000000000000000000000000000000000000000000000000000000000000000000000000000000000000000000000000000000000000000000000000000000000000000000000000000000000000000000000000000000000000000000000000000000000000000000000000000000000000000000
310
00000000000000000000000000000000000000000000000000000000000000000000000000000000000000000000000000000000000000000000000000000000000000000000000000000000000000000000000000000000000000000000000000000000000000000000000000000000000000000000000000000000000000
310
00000000000000000000000000000000000000000000000000000000000000000000000000000000000000000000000000000000000000000000000000000000000000000000000000000000000000000000000000000000000000000000000000000000000000000000000000000000000000000000000000000000000000
310
00000000000000000000000000000000000000000000000000000000000000000000000000000000000000000000000000000000000000000000000000000000000000000000000000000000000000000000000000000000000000000000000000000000000000000000000000000000000000000000000000000000000000
310
00000000000000000000000000000000000000000000000000000000000000000000000000000000000000000000000000000000000000000000000000000000000000000000000000000000000000000000000000000000000000000000000000000000000000000000000000000000000000000000000000000000000000
310
00000000000000000000000000000000000000000000000000000000000000000000000000000000000000000000000000000000000000000000000000000000000000000000000000000000000000000000000000000000000000000000000000000000000000000000000000000000000000000000000000000000000000
310
00000000000000000000000000000000000000000000000000000000000000000000000000000000000000000000000000000000000000000000000000000000000000000000000000000000000000000000000000000000000000000000000000000000000000000000000000000000000000000000000000000000000000
310
00000000000000000000000000000000000000000000000000000000000000000000000000000000000000000000000000000000000000000000000000000000000000000000000000000000000000000000000000000000000000000000000000000000000000000000000000000000000000000000000000000000000000
310
00000000000000000000000000000000000000000000000000000000000000000000000000000000000000000000000000000000000000000000000000000000000000000000000000000000000000000000000000000000000000000000000000000000000000000000000000000000000000000000000000000000000000
310
00000000000000000000000000000000000000000000000000000000000000000000000000000000000000000000000000000000000000000000000000000000000000000000000000000000000000000000000000000000000000000000000000000000000000000000000000000000000000000000000000000000000000
310
00000000000000000000000000000000000000000000000000000000000000000000000000000000000000000000000000000000000000000000000000000000000000000000000000000000000000000000000000000000000000000000000000000000000000000000000000000000000000000000000000000000000000
310
00000000000000000000000000000000000000000000000000000000000000000000000000000000000000000000000000000000000000000000000000000000000000000000000000000000000000000000000000000000000000000000000000000000000000000000000000000000000000000000000000000000000000
310
00000000000000000000000000000000000000000000000000000000000000000000000000000000000000000000000000000000000000000000000000000000000000000000000000000000000000000000000000000000000000000000000000000000000000000000000000000000000000000000000000000000000000
310
00000000000000000000000000000000000000000000000000000000000000000000000000000000000000000000000000000000000000000000000000000000000000000000000000000000000000000000000000000000000000000000000000000000000000000000000000000000000000000000000000000000000000
310
00000000000000000000000000000000000000000000000000000000000000000000000000000000000000000000000000000000000000000000000000000000000000000000000000000000000000000000000000000000000000000000000000000000000000000000000000000000000000000000000000000000000000
310
00000000000000000000000000000000000000000000000000000000000000000000000000000000000000000000000000000000000000000000000000000000000000000000000000000000000000000000000000000000000000000000000000000000000000000000000000000000000000000000000000000000000000
310
00000000000000000000000000000000000000000000000000000000000000000000000000000000000000000000000000000000000000000000000000000000000000000000000000000000000000000000000000000000000000000000000000000000000000000000000000000000000000000000000000000000000000
310
00000000000000000000000000000000000000000000000000000000000000000000000000000000000000000000000000000000000000000000000000000000000000000000000000000000000000000000000000000000000000000000000000000000000000000000000000000000000000000000000000000000000000
310
0000000000000000000000000000000000000000000000000000000000000000000000000000000000000000000000000000000000000000000000000000000000000000000000000000
  0
XRECORD
  5
48
102
{ACAD_REACTORS
330
47
102
}
330
47
100
AcDbXrecord
280
     1
270
     1
271
     1
  0
XRECORD
  5
49
102
{ACAD_REACTORS
330
47
102
}
330
47
100
AcDbXrecord
280
     1
270
     1
271
     1
  0
XRECORD
  5
4A
102
{ACAD_REACTORS
330
47
102
}
330
47
100
AcDbXrecord
280
     1
270
     1
271
     1
  0
XRECORD
  5
4B
102
{ACAD_REACTORS
330
47
102
}
330
47
100
AcDbXrecord
280
     1
270
     1
271
     1
  0
XRECORD
  5
4C
102
{ACAD_REACTORS
330
47
102
}
330
47
100
AcDbXrecord
280
     1
270
     1
271
     1
  0
XRECORD
  5
4D
102
{ACAD_REACTORS
330
47
102
}
330
47
100
AcDbXrecord
280
     1
270
     1
271
     1
  0
XRECORD
  5
40
102
{ACAD_REACTORS
330
3F
102
}
330
3F
100
AcDbXrecord
280
     1
270
     1
271
     1
  0
XRECORD
  5
41
102
{ACAD_REACTORS
330
3F
102
}
330
3F
100
AcDbXrecord
280
     1
270
     1
271
     1
  0
XRECORD
  5
42
102
{ACAD_REACTORS
330
3F
102
}
330
3F
100
AcDbXrecord
280
     1
270
     1
271
     1
  0
XRECORD
  5
43
102
{ACAD_REACTORS
330
3F
102
}
330
3F
100
AcDbXrecord
280
     1
270
     1
271
     1
  0
XRECORD
  5
44
102
{ACAD_REACTORS
330
3F
102
}
330
3F
100
AcDbXrecord
280
     1
270
     1
271
     1
  0
XRECORD
  5
45
102
{ACAD_REACTORS
330
3F
102
}
330
3F
100
AcDbXrecord
280
     1
270
     1
271
     1
  0
XRECORD
  5
F
102
{ACAD_REACTORS
330
E
102
}
330
E
100
AcDbXrecord
280
     1
270
     1
271
     1
  0
XRECORD
  5
10
102
{ACAD_REACTORS
330
E
102
}
330
E
100
AcDbXrecord
280
     1
270
     1
271
     1
  0
XRECORD
  5
11
102
{ACAD_REACTORS
330
E
102
}
330
E
100
AcDbXrecord
280
     1
270
     1
271
     1
  0
XRECORD
  5
12
102
{ACAD_REACTORS
330
E
102
}
330
E
100
AcDbXrecord
280
     1
270
     1
271
     1
  0
XRECORD
  5
13
102
{ACAD_REACTORS
330
E
102
}
330
E
100
AcDbXrecord
280
     1
270
     1
271
     1
  0
XRECORD
  5
14
102
{ACAD_REACTORS
330
E
102
}
330
E
100
AcDbXrecord
280
     1
270
     1
271
     1
  0
CELLSTYLEMAP
  5
463
102
{ACAD_REACTORS
330
58
102
}
330
58
100
AcDbCellStyleMap
 90
        3
300
CELLSTYLE
  1
TABLEFORMAT_BEGIN
 90
        5
170
     1
 91
        0
 92
    32768
 62
   257
 93
        1
300
CONTENTFORMAT
  1
CONTENTFORMAT_BEGIN
 90
        0
 91
        0
 92
      512
 93
        0
300

 40
0.0
140
1.0
 94
        5
 62
     0
340
27
144
6.0
309
CONTENTFORMAT_END
171
     1
301
MARGIN
  1
CELLMARGIN_BEGIN
 40
1.5
 40
1.5
 40
1.5
 40
1.5
 40
4.5
 40
4.5
309
CELLMARGIN_END
 94
        6
 95
        1
302
GRIDFORMAT
  1
GRIDFORMAT_BEGIN
 90
        0
 91
        1
 62
     0
 92
       -2
340
0
 93
        0
 40
1.125
309
GRIDFORMAT_END
 95
        2
302
GRIDFORMAT
  1
GRIDFORMAT_BEGIN
 90
        0
 91
        1
 62
     0
 92
       -2
340
0
 93
        0
 40
1.125
309
GRIDFORMAT_END
 95
        4
302
GRIDFORMAT
  1
GRIDFORMAT_BEGIN
 90
        0
 91
        1
 62
     0
 92
       -2
340
0
 93
        0
 40
1.125
309
GRIDFORMAT_END
 95
        8
302
GRIDFORMAT
  1
GRIDFORMAT_BEGIN
 90
        0
 91
        1
 62
     0
 92
       -2
340
0
 93
        0
 40
1.125
309
GRIDFORMAT_END
 95
       16
302
GRIDFORMAT
  1
GRIDFORMAT_BEGIN
 90
        0
 91
        1
 62
     0
 92
       -2
340
0
 93
        0
 40
1.125
309
GRIDFORMAT_END
 95
       32
302
GRIDFORMAT
  1
GRIDFORMAT_BEGIN
 90
        0
 91
        1
 62
     0
 92
       -2
340
0
 93
        0
 40
1.125
309
GRIDFORMAT_END
309
TABLEFORMAT_END
  1
CELLSTYLE_BEGIN
 90
        1
 91
        1
300
_TITLE
309
CELLSTYLE_END
300
CELLSTYLE
  1
TABLEFORMAT_BEGIN
 90
        5
170
     1
 91
        0
 92
        0
 62
   257
 93
        1
300
CONTENTFORMAT
  1
CONTENTFORMAT_BEGIN
 90
        0
 91
        0
 92
      512
 93
        0
300

 40
0.0
140
1.0
 94
        5
 62
     0
340
27
144
4.5
309
CONTENTFORMAT_END
171
     1
301
MARGIN
  1
CELLMARGIN_BEGIN
 40
1.5
 40
1.5
 40
1.5
 40
1.5
 40
4.5
 40
4.5
309
CELLMARGIN_END
 94
        6
 95
        1
302
GRIDFORMAT
  1
GRIDFORMAT_BEGIN
 90
        0
 91
        1
 62
     0
 92
       -2
340
0
 93
        0
 40
1.125
309
GRIDFORMAT_END
 95
        2
302
GRIDFORMAT
  1
GRIDFORMAT_BEGIN
 90
        0
 91
        1
 62
     0
 92
       -2
340
0
 93
        0
 40
1.125
309
GRIDFORMAT_END
 95
        4
302
GRIDFORMAT
  1
GRIDFORMAT_BEGIN
 90
        0
 91
        1
 62
     0
 92
       -2
340
0
 93
        0
 40
1.125
309
GRIDFORMAT_END
 95
        8
302
GRIDFORMAT
  1
GRIDFORMAT_BEGIN
 90
        0
 91
        1
 62
     0
 92
       -2
340
0
 93
        0
 40
1.125
309
GRIDFORMAT_END
 95
       16
302
GRIDFORMAT
  1
GRIDFORMAT_BEGIN
 90
        0
 91
        1
 62
     0
 92
       -2
340
0
 93
        0
 40
1.125
309
GRIDFORMAT_END
 95
       32
302
GRIDFORMAT
  1
GRIDFORMAT_BEGIN
 90
        0
 91
        1
 62
     0
 92
       -2
340
0
 93
        0
 40
1.125
309
GRIDFORMAT_END
309
TABLEFORMAT_END
  1
CELLSTYLE_BEGIN
 90
        2
 91
        1
300
_HEADER
309
CELLSTYLE_END
300
CELLSTYLE
  1
TABLEFORMAT_BEGIN
 90
        5
170
     1
 91
        0
 92
        0
 62
   257
 93
        1
300
CONTENTFORMAT
  1
CONTENTFORMAT_BEGIN
 90
        0
 91
        0
 92
      512
 93
        0
300

 40
0.0
140
1.0
 94
        2
 62
     0
340
27
144
4.5
309
CONTENTFORMAT_END
171
     1
301
MARGIN
  1
CELLMARGIN_BEGIN
 40
1.5
 40
1.5
 40
1.5
 40
1.5
 40
4.5
 40
4.5
309
CELLMARGIN_END
 94
        6
 95
        1
302
GRIDFORMAT
  1
GRIDFORMAT_BEGIN
 90
        0
 91
        1
 62
     0
 92
       -2
340
0
 93
        0
 40
1.125
309
GRIDFORMAT_END
 95
        2
302
GRIDFORMAT
  1
GRIDFORMAT_BEGIN
 90
        0
 91
        1
 62
     0
 92
       -2
340
0
 93
        0
 40
1.125
309
GRIDFORMAT_END
 95
        4
302
GRIDFORMAT
  1
GRIDFORMAT_BEGIN
 90
        0
 91
        1
 62
     0
 92
       -2
340
0
 93
        0
 40
1.125
309
GRIDFORMAT_END
 95
        8
302
GRIDFORMAT
  1
GRIDFORMAT_BEGIN
 90
        0
 91
        1
 62
     0
 92
       -2
340
0
 93
        0
 40
1.125
309
GRIDFORMAT_END
 95
       16
302
GRIDFORMAT
  1
GRIDFORMAT_BEGIN
 90
        0
 91
        1
 62
     0
 92
       -2
340
0
 93
        0
 40
1.125
309
GRIDFORMAT_END
 95
       32
302
GRIDFORMAT
  1
GRIDFORMAT_BEGIN
 90
        0
 91
        1
 62
     0
 92
       -2
340
0
 93
        0
 40
1.125
309
GRIDFORMAT_END
309
TABLEFORMAT_END
  1
CELLSTYLE_BEGIN
 90
        3
 91
        2
300
_DATA
309
CELLSTYLE_END
  0
ENDSEC
  0
EOF
