  0
SECTION
  2
HEADER
  9
$ACADVER
  1
AC1024
  9
$ACADMAINTVER
 70
     6
  9
$DWGCODEPAGE
  3
ANSI_1252
  9
$INSBASE
 10
0.0
 20
0.0
 30
0.0
  9
$EXTMIN
 10
0.0000375611774928
 20
-0.0000100644871281
 30
0.0
  9
$EXTMAX
 10
2100.000037561178
 20
1484.999989935513
 30
0.0
  9
$LIMMIN
 10
0.0
 20
0.0
  9
$LIMMAX
 10
1050.0
 20
1485.0
  9
$ORTHOMODE
 70
     1
  9
$REGENMODE
 70
     1
  9
$FILLMODE
 70
     1
  9
$QTEXTMODE
 70
     0
  9
$MIRRTEXT
 70
     1
  9
$LTSCALE
 40
30.0
  9
$ATTMODE
 70
     1
  9
$TEXTSIZE
 40
12.5
  9
$TRACEWID
 40
1.0
  9
$TEXTSTYLE
  7
Standard
  9
$CLAYER
  8
09-01
  9
$CELTYPE
  6
ByLayer
  9
$CECOLOR
 62
   256
  9
$CELTSCALE
 40
1.0
  9
$DISPSILH
 70
     0
  9
$DIMSCALE
 40
5.0
  9
$DIMASZ
 40
2.5
  9
$DIMEXO
 40
1.0
  9
$DIMDLI
 40
10.0
  9
$DIMRND
 40
0.0
  9
$DIMDLE
 40
0.0
  9
$DIMEXE
 40
1.0
  9
$DIMTP
 40
0.0
  9
$DIMTM
 40
0.0
  9
$DIMTXT
 40
2.5
  9
$DIMCEN
 40
0.0
  9
$DIMTSZ
 40
0.0
  9
$DIMTOL
 70
     0
  9
$DIMLIM
 70
     0
  9
$DIMTIH
 70
     0
  9
$DIMTOH
 70
     0
  9
$DIMSE1
 70
     0
  9
$DIMSE2
 70
     0
  9
$DIMTAD
 70
     1
  9
$DIMZIN
 70
     8
  9
$DIMBLK
  1

  9
$DIMASO
 70
     1
  9
$DIMSHO
 70
     1
  9
$DIMPOST
  1

  9
$DIMAPOST
  1

  9
$DIMALT
 70
     0
  9
$DIMALTD
 70
     3
  9
$DIMALTF
 40
0.03937007874016
  9
$DIMLFAC
 40
1.0
  9
$DIMTOFL
 70
     1
  9
$DIMTVP
 40
0.0
  9
$DIMTIX
 70
     0
  9
$DIMSOXD
 70
     0
  9
$DIMSAH
 70
     0
  9
$DIMBLK1
  1

  9
$DIMBLK2
  1

  9
$DIMSTYLE
  2
Wagner
  9
$DIMCLRD
 70
     4
  9
$DIMCLRE
 70
     4
  9
$DIMCLRT
 70
     1
  9
$DIMTFAC
 40
1.0
  9
$DIMGAP
 40
1.0
  9
$DIMJUST
 70
     0
  9
$DIMSD1
 70
     0
  9
$DIMSD2
 70
     0
  9
$DIMTOLJ
 70
     0
  9
$DIMTZIN
 70
     8
  9
$DIMALTZ
 70
     0
  9
$DIMALTTZ
 70
     0
  9
$DIMUPT
 70
     0
  9
$DIMDEC
 70
     8
  9
$DIMTDEC
 70
     8
  9
$DIMALTU
 70
     2
  9
$DIMALTTD
 70
     3
  9
$DIMTXSTY
  7
Standard
  9
$DIMAUNIT
 70
     0
  9
$DIMADEC
 70
     8
  9
$DIMALTRND
 40
0.0
  9
$DIMAZIN
 70
     2
  9
$DIMDSEP
 70
    46
  9
$DIMATFIT
 70
     3
  9
$DIMFRAC
 70
     0
  9
$DIMLDRBLK
  1

  9
$DIMLUNIT
 70
     2
  9
$DIMLWD
 70
    -2
  9
$DIMLWE
 70
    -2
  9
$DIMTMOVE
 70
     0
  9
$DIMFXL
 40
0.18
  9
$DIMFXLON
 70
     0
  9
$DIMJOGANG
 40
0.7853981633974483
  9
$DIMTFILL
 70
     0
  9
$DIMTFILLCLR
 70
     0
  9
$DIMARCSYM
 70
     0
  9
$DIMLTYPE
  6

  9
$DIMLTEX1
  6

  9
$DIMLTEX2
  6

  9
$DIMTXTDIRECTION
 70
     0
  9
$LUNITS
 70
     2
  9
$LUPREC
 70
     2
  9
$SKETCHINC
 40
1.0
  9
$FILLETRAD
 40
0.0
  9
$AUNITS
 70
     0
  9
$AUPREC
 70
     0
  9
$MENU
  1
.
  9
$ELEVATION
 40
0.0
  9
$PELEVATION
 40
0.0
  9
$THICKNESS
 40
0.0
  9
$LIMCHECK
 70
     0
  9
$CHAMFERA
 40
0.0
  9
$CHAMFERB
 40
0.0
  9
$CHAMFERC
 40
20.0
  9
$CHAMFERD
 40
0.0
  9
$SKPOLY
 70
     0
  9
$TDCREATE
 40
2454481.584885197
  9
$TDUCREATE
 40
2454481.501551863
  9
$TDUPDATE
 40
2456006.483812836
  9
$TDUUPDATE
 40
2456006.400479503
  9
$TDINDWG
 40
9.9909408333
  9
$TDUSRTIMER
 40
9.9909408333
  9
$USRTIMER
 70
     1
  9
$ANGBASE
 50
0.0
  9
$ANGDIR
 70
     0
  9
$PDMODE
 70
     0
  9
$PDSIZE
 40
-1.0
  9
$PLINEWID
 40
0.0
  9
$SPLFRAME
 70
     0
  9
$SPLINETYPE
 70
     6
  9
$SPLINESEGS
 70
     8
  9
$HANDSEED
  5
580
  9
$SURFTAB1
 70
     6
  9
$SURFTAB2
 70
     6
  9
$SURFTYPE
 70
     6
  9
$SURFU
 70
     6
  9
$SURFV
 70
     6
  9
$UCSBASE
  2

  9
$UCSNAME
  2

  9
$UCSORG
 10
0.0
 20
0.0
 30
0.0
  9
$UCSXDIR
 10
1.0
 20
0.0
 30
0.0
  9
$UCSYDIR
 10
0.0
 20
1.0
 30
0.0
  9
$UCSORTHOREF
  2

  9
$UCSORTHOVIEW
 70
     0
  9
$UCSORGTOP
 10
0.0
 20
0.0
 30
0.0
  9
$UCSORGBOTTOM
 10
0.0
 20
0.0
 30
0.0
  9
$UCSORGLEFT
 10
0.0
 20
0.0
 30
0.0
  9
$UCSORGRIGHT
 10
0.0
 20
0.0
 30
0.0
  9
$UCSORGFRONT
 10
0.0
 20
0.0
 30
0.0
  9
$UCSORGBACK
 10
0.0
 20
0.0
 30
0.0
  9
$PUCSBASE
  2

  9
$PUCSNAME
  2

  9
$PUCSORG
 10
0.0
 20
0.0
 30
0.0
  9
$PUCSXDIR
 10
1.0
 20
0.0
 30
0.0
  9
$PUCSYDIR
 10
0.0
 20
1.0
 30
0.0
  9
$PUCSORTHOREF
  2

  9
$PUCSORTHOVIEW
 70
     0
  9
$PUCSORGTOP
 10
0.0
 20
0.0
 30
0.0
  9
$PUCSORGBOTTOM
 10
0.0
 20
0.0
 30
0.0
  9
$PUCSORGLEFT
 10
0.0
 20
0.0
 30
0.0
  9
$PUCSORGRIGHT
 10
0.0
 20
0.0
 30
0.0
  9
$PUCSORGFRONT
 10
0.0
 20
0.0
 30
0.0
  9
$PUCSORGBACK
 10
0.0
 20
0.0
 30
0.0
  9
$USERI1
 70
     0
  9
$USERI2
 70
     0
  9
$USERI3
 70
     0
  9
$USERI4
 70
     0
  9
$USERI5
 70
     0
  9
$USERR1
 40
0.0
  9
$USERR2
 40
0.0
  9
$USERR3
 40
0.0
  9
$USERR4
 40
0.0
  9
$USERR5
 40
0.0
  9
$WORLDVIEW
 70
     1
  9
$SHADEDGE
 70
     3
  9
$SHADEDIF
 70
    70
  9
$TILEMODE
 70
     1
  9
$MAXACTVP
 70
    64
  9
$PINSBASE
 10
0.0
 20
0.0
 30
0.0
  9
$PLIMCHECK
 70
     0
  9
$PEXTMIN
 10
1.000000000000000E+20
 20
1.000000000000000E+20
 30
1.000000000000000E+20
  9
$PEXTMAX
 10
-1.000000000000000E+20
 20
-1.000000000000000E+20
 30
-1.000000000000000E+20
  9
$PLIMMIN
 10
0.0
 20
0.0
  9
$PLIMMAX
 10
420.0
 20
297.0
  9
$UNITMODE
 70
     0
  9
$VISRETAIN
 70
     1
  9
$PLINEGEN
 70
     0
  9
$PSLTSCALE
 70
     1
  9
$TREEDEPTH
 70
  3020
  9
$CMLSTYLE
  2
Standard
  9
$CMLJUST
 70
     0
  9
$CMLSCALE
 40
20.0
  9
$PROXYGRAPHICS
 70
     1
  9
$MEASUREMENT
 70
     1
  9
$CELWEIGHT
370
    -1
  9
$ENDCAPS
280
     0
  9
$JOINSTYLE
280
     0
  9
$LWDISPLAY
290
     0
  9
$INSUNITS
 70
     4
  9
$HYPERLINKBASE
  1

  9
$STYLESHEET
  1

  9
$XEDIT
290
     1
  9
$CEPSNTYPE
380
     0
  9
$PSTYLEMODE
290
     1
  9
$FINGERPRINTGUID
  2
{F2A43B6E-E209-4085-9588-B0EA2FF8D5DA}
  9
$VERSIONGUID
  2
{2136B772-A179-429B-8E7E-FD2805B1B97C}
  9
$EXTNAMES
290
     1
  9
$PSVPSCALE
 40
0.0
  9
$OLESTARTUP
290
     0
  9
$SORTENTS
280
   127
  9
$INDEXCTL
280
     0
  9
$HIDETEXT
280
     1
  9
$XCLIPFRAME
280
     0
  9
$HALOGAP
280
     0
  9
$OBSCOLOR
 70
   257
  9
$OBSLTYPE
280
     0
  9
$INTERSECTIONDISPLAY
280
     0
  9
$INTERSECTIONCOLOR
 70
   257
  9
$DIMASSOC
280
     1
  9
$PROJECTNAME
  1

  9
$CAMERADISPLAY
290
     0
  9
$LENSLENGTH
 40
50.0
  9
$CAMERAHEIGHT
 40
0.0
  9
$STEPSPERSEC
 40
2.0
  9
$STEPSIZE
 40
6.0
  9
$3DDWFPREC
 40
2.0
  9
$PSOLWIDTH
 40
0.25
  9
$PSOLHEIGHT
 40
4.0
  9
$LOFTANG1
 40
1.570796326794896
  9
$LOFTANG2
 40
1.570796326794896
  9
$LOFTMAG1
 40
0.0
  9
$LOFTMAG2
 40
0.0
  9
$LOFTPARAM
 70
     7
  9
$LOFTNORMALS
280
     1
  9
$LATITUDE
 40
37.795
  9
$LONGITUDE
 40
-122.394
  9
$NORTHDIRECTION
 40
0.0
  9
$TIMEZONE
 70
 -8000
  9
$LIGHTGLYPHDISPLAY
280
     1
  9
$TILEMODELIGHTSYNCH
280
     1
  9
$CMATERIAL
347
3B
  9
$SOLIDHIST
280
     1
  9
$SHOWHIST
280
     1
  9
$DWFFRAME
280
     2
  9
$DGNFRAME
280
     0
  9
$REALWORLDSCALE
290
     1
  9
$INTERFERECOLOR
 62
     1
  9
$INTERFEREOBJVS
345
54
  9
$INTERFEREVPVS
346
55
  9
$CSHADOW
280
     0
  9
$SHADOWPLANELOCATION
 40
0.0
  0
ENDSEC
  0
SECTION
  2
CLASSES
  0
CLASS
  1
ACDBDICTIONARYWDFLT
  2
AcDbDictionaryWithDefault
  3
ObjectDBX Classes
 90
        0
 91
        1
280
     0
281
     0
  0
CLASS
  1
MATERIAL
  2
AcDbMaterial
  3
ObjectDBX Classes
 90
     1153
 91
        3
280
     0
281
     0
  0
CLASS
  1
VISUALSTYLE
  2
AcDbVisualStyle
  3
ObjectDBX Classes
 90
     4095
 91
        3
280
     0
281
     0
  0
CLASS
  1
TABLESTYLE
  2
AcDbTableStyle
  3
ObjectDBX Classes
 90
     4095
 91
        1
280
     0
281
     0
  0
CLASS
  1
SCALE
  2
AcDbScale
  3
ObjectDBX Classes
 90
     1153
 91
       33
280
     0
281
     0
  0
CLASS
  1
MLEADERSTYLE
  2
AcDbMLeaderStyle
  3
ACDB_MLEADERSTYLE_CLASS
 90
     4095
 91
        0
280
     0
281
     0
  0
CLASS
  1
SORTENTSTABLE
  2
AcDbSortentsTable
  3
ObjectDBX Classes
 90
        0
 91
        4
280
     0
281
     0
  0
CLASS
  1
CELLSTYLEMAP
  2
AcDbCellStyleMap
  3
ObjectDBX Classes
 90
     1152
 91
        1
280
     0
281
     0
  0
CLASS
  1
DICTIONARYVAR
  2
AcDbDictionaryVar
  3
ObjectDBX Classes
 90
        0
 91
        6
280
     0
281
     0
  0
CLASS
  1
SOLID_BACKGROUND
  2
AcDbSolidBackground
  3
SCENEOE
 90
     4095
 91
        0
280
     0
281
     0
  0
CLASS
  1
NPOCOLLECTION
  2
AcDbImpNonPersistentObjectsCollection
  3
ObjectDBX Classes
 90
     1153
 91
        0
280
     0
281
     0
  0
CLASS
  1
FIELD
  2
AcDbField
  3
ObjectDBX Classes
 90
     1152
 91
        0
280
     0
281
     0
  0
CLASS
  1
FIELDLIST
  2
AcDbFieldList
  3
ObjectDBX Classes
 90
     1152
 91
        1
280
     0
281
     0
  0
ENDSEC
  0
SECTION
  2
TABLES
  0
TABLE
  2
VPORT
  5
2C
102
{ACAD_XDICTIONARY
360
30
102
}
330
0
100
AcDbSymbolTable
 70
     1
  0
VPORT
  5
2D
330
2C
100
AcDbSymbolTableRecord
100
AcDbViewportTableRecord
  2
*Active
 70
     0
 10
0.0
 20
0.0
 11
1.0
 21
1.0
 12
1098.504578572448
 22
712.5796606009084
 13
0.0
 23
0.0
 14
10.0
 24
10.0
 15
10.0
 25
10.0
 16
0.0
 26
0.0
 36
1.0
 17
0.0
 27
0.0
 37
0.0
 40
1665.272558679666
 41
1.937738246505718
 42
50.0
 43
0.0
 44
0.0
 50
0.0
 51
0.0
 71
     0
 72
  2000
 73
     1
 74
     3
 75
     0
 76
     0
 77
     0
 78
     1
281
     0
 65
     1
110
0.0
120
0.0
130
0.0
111
1.0
121
0.0
131
0.0
112
0.0
122
1.0
132
0.0
 79
     0
146
0.0
348
2E
 60
     3
 61
     5
292
     1
282
     1
141
0.0
142
0.0
 63
   250
421
  3355443
  0
ENDTAB
  0
TABLE
  2
LTYPE
  5
27
330
0
100
AcDbSymbolTable
 70
     3
  0
LTYPE
  5
28
330
27
100
AcDbSymbolTableRecord
100
AcDbLinetypeTableRecord
  2
ByBlock
 70
     0
  3

 72
    65
 73
     0
 40
0.0
  0
LTYPE
  5
29
330
27
100
AcDbSymbolTableRecord
100
AcDbLinetypeTableRecord
  2
ByLayer
 70
     0
  3

 72
    65
 73
     0
 40
0.0
  0
LTYPE
  5
15
330
27
100
AcDbSymbolTableRecord
100
AcDbLinetypeTableRecord
  2
Continuous
 70
     0
  3
Solid line
 72
    65
 73
     0
 40
0.0
  0
LTYPE
  5
135
330
27
100
AcDbSymbolTableRecord
100
AcDbLinetypeTableRecord
  2
VERDECKT
 70
     0
  3
__ __ __ __ __ __ __ __ __ __ __ __ __ __ __ __
 72
    65
 73
     2
 40
0.375
 49
0.25
 74
     0
 49
-0.125
 74
     0
  0
LTYPE
  5
114
330
27
100
AcDbSymbolTableRecord
100
AcDbLinetypeTableRecord
  2
STRICHPUNKT
 70
     0
  3
__ . __ . __ . __ . __ . __ . __ . __ . __ . __
 72
    65
 73
     4
 40
1.0
 49
0.5
 74
     0
 49
-0.25
 74
     0
 49
0.0
 74
     0
 49
-0.25
 74
     0
  0
ENDTAB
  0
TABLE
  2
LAYER
  5
1E
102
{ACAD_XDICTIONARY
360
1F
102
}
330
0
100
AcDbSymbolTable
 70
    12
  0
LAYER
  5
6
102
{ACAD_XDICTIONARY
360
7
102
}
330
1E
100
AcDbSymbolTableRecord
100
AcDbLayerTableRecord
  2
0
 70
     0
 62
     7
  6
Continuous
370
    -3
390
9
347
C
  0
LAYER
  5
10D
330
1E
100
AcDbSymbolTableRecord
100
AcDbLayerTableRecord
  2
Defpoints
 70
     0
 62
     7
  6
Continuous
290
     0
370
    -3
390
9
347
C
  0
LAYER
  5
7D
102
{ACAD_XDICTIONARY
360
7E
102
}
330
1E
100
AcDbSymbolTableRecord
100
AcDbLayerTableRecord
  2
01-99
 70
     0
 62
     2
  6
Continuous
370
    -3
390
9
347
C
  0
LAYER
  5
83
102
{ACAD_XDICTIONARY
360
84
102
}
330
1E
100
AcDbSymbolTableRecord
100
AcDbLayerTableRecord
  2
02-99
 70
     0
 62
     1
  6
Continuous
370
    -3
390
9
347
C
  0
LAYER
  5
BA
102
{ACAD_XDICTIONARY
360
BB
102
}
330
1E
100
AcDbSymbolTableRecord
100
AcDbLayerTableRecord
  2
06-99
 70
     0
 62
     1
  6
Continuous
370
    -3
390
9
347
C
  0
LAYER
  5
A4
102
{ACAD_XDICTIONARY
360
A5
102
}
330
1E
100
AcDbSymbolTableRecord
100
AcDbLayerTableRecord
  2
08-99
 70
     0
 62
     7
  6
Continuous
370
    -3
390
9
347
C
  0
LAYER
  5
117
102
{ACAD_XDICTIONARY
360
118
102
}
330
1E
100
AcDbSymbolTableRecord
100
AcDbLayerTableRecord
  2
10-98
 70
     0
 62
     4
  6
Continuous
370
    -3
390
9
347
C
  0
LAYER
  5
132
102
{ACAD_XDICTIONARY
360
133
102
}
330
1E
100
AcDbSymbolTableRecord
100
AcDbLayerTableRecord
  2
03-01
 70
     0
 62
     3
  6
VERDECKT
370
    -3
390
9
347
C
  0
LAYER
  5
FE
102
{ACAD_XDICTIONARY
360
FF
102
}
330
1E
100
AcDbSymbolTableRecord
100
AcDbLayerTableRecord
  2
02-01
 70
     0
 62
     1
  6
Continuous
370
    -3
390
9
347
C
  0
LAYER
  5
4F
102
{ACAD_XDICTIONARY
360
50
102
}
330
1E
100
AcDbSymbolTableRecord
100
AcDbLayerTableRecord
  2
09-01
 70
     0
 62
     7
  6
Continuous
370
    -3
390
9
347
C
  0
LAYER
  5
113
330
1E
100
AcDbSymbolTableRecord
100
AcDbLayerTableRecord
  2
05-01
 70
     0
 62
     1
  6
STRICHPUNKT
370
    -3
390
9
347
C
  0
LAYER
  5
4D1
102
{ACAD_XDICTIONARY
360
4D2
102
}
330
1E
100
AcDbSymbolTableRecord
100
AcDbLayerTableRecord
  2
02TNR-01
 70
     0
 62
     1
  6
Continuous
370
    -3
390
9
347
C
  0
ENDTAB
  0
TABLE
  2
STYLE
  5
24
330
0
100
AcDbSymbolTable
 70
     5
  0
STYLE
  5
25
330
24
100
AcDbSymbolTableRecord
100
AcDbTextStyleTableRecord
  2
Standard
 70
     0
 40
0.0
 41
1.0
 50
0.0
 71
     0
 42
12.5
  3
txt
  4

  0
STYLE
  5
164
330
24
100
AcDbSymbolTableRecord
100
AcDbTextStyleTableRecord
  2
ISO
 70
     0
 40
0.0
 41
0.9
 50
0.0
 71
     0
 42
7.0
  3
isocp.shx
  4

  0
STYLE
  5
A7
330
24
100
AcDbSymbolTableRecord
100
AcDbTextStyleTableRecord
  2
ROMANS8
 70
     0
 40
0.0
 41
1.0
 50
0.0
 71
     0
 42
2.5
  3
ROMANS8
  4

  0
STYLE
  5
100
330
24
100
AcDbSymbolTableRecord
100
AcDbTextStyleTableRecord
  2
ROMANS
 70
     0
 40
0.0
 41
1.0
 50
0.0
 71
     0
 42
7.0
  3
romans
  4

  0
STYLE
  5
CD
330
24
100
AcDbSymbolTableRecord
100
AcDbTextStyleTableRecord
  2
ROMAND8
 70
     0
 40
0.0
 41
1.0
 50
0.0
 71
     0
 42
3.5
  3
ROMAND8
  4

  0
ENDTAB
  0
TABLE
  2
VIEW
  5
2A
330
0
100
AcDbSymbolTable
 70
     0
  0
ENDTAB
  0
TABLE
  2
UCS
  5
2B
330
0
100
AcDbSymbolTable
 70
     0
  0
ENDTAB
  0
TABLE
  2
APPID
  5
31
330
0
100
AcDbSymbolTable
 70
     5
  0
APPID
  5
23
330
31
100
AcDbSymbolTableRecord
100
AcDbRegAppTableRecord
  2
ACAD
 70
     0
  0
APPID
  5
34
330
31
100
AcDbSymbolTableRecord
100
AcDbRegAppTableRecord
  2
ACAD_DSTYLE_DIMJOGGED_JOGANGLE_SYMBOL
 70
     0
  0
APPID
  5
19
330
31
100
AcDbSymbolTableRecord
100
AcDbRegAppTableRecord
  2
ACAD_PSEXT
 70
     0
  0
APPID
  5
35
330
31
100
AcDbSymbolTableRecord
100
AcDbRegAppTableRecord
  2
ACAD_DSTYLE_DIMJAG
 70
     0
  0
APPID
  5
36
330
31
100
AcDbSymbolTableRecord
100
AcDbRegAppTableRecord
  2
ACAD_DSTYLE_DIMTALN
 70
     0
  0
ENDTAB
  0
TABLE
  2
DIMSTYLE
  5
32
330
0
100
AcDbSymbolTable
 70
     2
100
AcDbDimStyleTable
 71
     1
340
33
  0
DIMSTYLE
105
33
330
32
100
AcDbSymbolTableRecord
100
AcDbDimStyleTableRecord
  2
Wagner
 70
     0
 41
2.5
 42
1.0
 43
10.0
 44
1.0
 73
     0
 74
     0
 77
     1
 78
     8
 79
     2
140
2.5
141
0.0
143
0.03937007874016
147
1.0
171
     3
172
     1
176
     4
177
     4
178
     1
179
     2
271
     8
272
     8
274
     3
283
     0
284
     8
340
25
1001
ACAD_DSTYLE_DIMJOGGED_JOGANGLE_SYMBOL
1070
   384
1040
0.7853981633974483
1001
ACAD_DSTYLE_DIMJAG
1070
   388
1040
1.5
1001
ACAD_DSTYLE_DIMTALN
1070
   392
1070
     0
  0
DIMSTYLE
105
111
102
{ACAD_REACTORS
330
4FC
330
4EF
330
4E2
330
3EC
330
3DF
330
3D2
330
3B1
330
3A4
330
37B
330
36E
330
35F
330
350
330
341
330
332
330
325
330
30D
330
103
102
}
330
32
100
AcDbSymbolTableRecord
100
AcDbDimStyleTableRecord
  2
Wagner$0
 70
     0
 41
2.5
 42
1.0
 43
10.0
 44
1.0
 73
     0
 74
     0
 77
     1
 78
     8
 79
     2
140
2.5
141
0.0
143
0.03937007874016
147
1.0
171
     3
172
     1
174
     1
176
     4
177
     4
178
     1
179
     2
271
     8
272
     8
274
     3
279
     2
283
     0
284
     8
340
25
1001
ACAD_DSTYLE_DIMJOGGED_JOGANGLE_SYMBOL
1070
   384
1040
0.7853981633974483
1001
ACAD_DSTYLE_DIMJAG
1070
   388
1040
1.5
1001
ACAD_DSTYLE_DIMTALN
1070
   392
1070
     0
  0
ENDTAB
  0
TABLE
  2
BLOCK_RECORD
  5
1
330
0
100
AcDbSymbolTable
 70
    19
  0
BLOCK_RECORD
  5
2
102
{ACAD_XDICTIONARY
360
3
102
}
330
1
100
AcDbSymbolTableRecord
100
AcDbBlockTableRecord
  2
*Model_Space
340
17
 70
     0
280
     1
281
     0
  0
BLOCK_RECORD
  5
1A
330
1
100
AcDbSymbolTableRecord
100
AcDbBlockTableRecord
  2
*Paper_Space
340
1D
 70
     0
280
     1
281
     0
  0
BLOCK_RECORD
  5
29B
330
1
100
AcDbSymbolTableRecord
100
AcDbBlockTableRecord
  2
WAGO-Klemme01-s
340
0
310
2800000020000000200000000100080000000000000400000000000000000000000000000000000000000000000080000080000000808000800000008000800080800000C0C0C000C0DCC000F0CAA6000020400000206000002080000020A0000020C0000020E00000400000004020000040400000406000004080000040A0
310
000040C0000040E00000600000006020000060400000606000006080000060A0000060C0000060E00000800000008020000080400000806000008080000080A0000080C0000080E00000A0000000A0200000A0400000A0600000A0800000A0A00000A0C00000A0E00000C0000000C0200000C0400000C0600000C0800000C0
310
A00000C0C00000C0E00000E0000000E0200000E0400000E0600000E0800000E0A00000E0C00000E0E00040000000400020004000400040006000400080004000A0004000C0004000E00040200000402020004020400040206000402080004020A0004020C0004020E000404000004040200040404000404060004040800040
310
40A0004040C0004040E00040600000406020004060400040606000406080004060A0004060C0004060E00040800000408020004080400040806000408080004080A0004080C0004080E00040A0000040A0200040A0400040A0600040A0800040A0A00040A0C00040A0E00040C0000040C0200040C0400040C0600040C08000
310
40C0A00040C0C00040C0E00040E0000040E0200040E0400040E0600040E0800040E0A00040E0C00040E0E00080000000800020008000400080006000800080008000A0008000C0008000E00080200000802020008020400080206000802080008020A0008020C0008020E00080400000804020008040400080406000804080
310
008040A0008040C0008040E00080600000806020008060400080606000806080008060A0008060C0008060E00080800000808020008080400080806000808080008080A0008080C0008080E00080A0000080A0200080A0400080A0600080A0800080A0A00080A0C00080A0E00080C0000080C0200080C0400080C0600080C0
310
800080C0A00080C0C00080C0E00080E0000080E0200080E0400080E0600080E0800080E0A00080E0C00080E0E000C0000000C0002000C0004000C0006000C0008000C000A000C000C000C000E000C0200000C0202000C0204000C0206000C0208000C020A000C020C000C020E000C0400000C0402000C0404000C0406000C0
310
408000C040A000C040C000C040E000C0600000C0602000C0604000C0606000C0608000C060A000C060C000C060E000C0800000C0802000C0804000C0806000C0808000C080A000C080C000C080E000C0A00000C0A02000C0A04000C0A06000C0A08000C0A0A000C0A0C000C0A0E000C0C00000C0C02000C0C04000C0C06000
310
C0C08000C0C0A000F0FBFF00A4A0A000808080000000FF0000FF000000FFFF00FF000000FF00FF00FFFF0000FFFFFF00000000000000000000000000000000000000000000000000000000000000000000000000000000000000FAFFFFFFFFFAFFFAFA00000000000000000000000000000000000000000000FFFA00000000
310
FA00FAFAFAFF0000000000000000000000000000000000000000FFFAFAFAFAFAFA00FA00FAFAFF00000000000000000000000000000000000000FF00000000000000FA0000FA00FF000000000000000000000000000000000000FF00000000000000FA0000FA0000FA0000000000000000000000000000000000FF00000000
310
000000FA0000FA0000FAFFFFFFFF00000000000000000000000000FF00000000000000FA0000FA0000FAFAFFFFFF00000000000000000000000000FF00000000000000FA0000FA0000FA00FF00FF00000000000000000000000000FF00000000000000FA0000FA0000FA00FF00FF00000000000000000000000000FF000000
310
00000000FAFAFAFA0000FA00FF00FF00000000000000000000000000FF00000000000000000000000000FA0000FFFF00000000000000000000000000FF00000000000000000000000000FAFAFAFAFF00000000000000000000000000FF00000000000000000000000000FAFAFAFF000000000000000000FFFFFFFFFFFAFAFA
310
FAFAFAFAFAFAFAFAFAFAFAFA00FF00000000000000000000FFFFFF00FFFF000000000000000000000000FAFA00FF00000000000000000000FFFFFF00FFFF000000000000000000000000FAFA00FF00000000000000000000FFFFFFFFFFFAFAFAFAFAFAFAFAFAFAFAFAFAFAFA00FF000000000000000000000000000000FF00
310
000000000000000000000000FAFAFAFF0000000000000000000000000000FF00000000000000000000000000FAFAFAFAFF00000000000000000000000000FF00000000000000000000000000FA0000FFFF00000000000000000000000000FF00000000000000FAFAFAFA0000FA00FF00FF00000000000000000000000000FF
310
00000000000000FA0000FA0000FA00FF00FF00000000000000000000000000FF00000000000000FA0000FA0000FA00FF00FF00000000000000000000000000FF00000000000000FA0000FA0000FAFAFFFFFF00000000000000000000000000FF00000000000000FA0000FA0000FAFFFFFFFF00000000000000000000000000
310
FF00000000000000FA0000FA0000FA0000000000000000000000000000000000FF00000000000000FA0000FA00FF000000000000000000000000000000000000FFFAFAFAFAFAFA00FA00FAFAFF00000000000000000000000000000000000000FFFA00000000FA00FAFAFAFF00000000000000000000000000000000000000
310
0000FAFFFFFFFFFAFFFAFA000000000000000000000000000000000000000000000000000000000000000000000000000000000000000000
102
{BLKREFS
331
29A
102
}
 70
     4
280
     1
281
     0
  0
BLOCK_RECORD
  5
4FD
330
1
100
AcDbSymbolTableRecord
100
AcDbBlockTableRecord
  2
*D1
340
0
 70
     0
280
     1
281
     0
  0
BLOCK_RECORD
  5
4F0
330
1
100
AcDbSymbolTableRecord
100
AcDbBlockTableRecord
  2
*D2
340
0
 70
     0
280
     1
281
     0
  0
BLOCK_RECORD
  5
4E3
330
1
100
AcDbSymbolTableRecord
100
AcDbBlockTableRecord
  2
*D3
340
0
 70
     0
280
     1
281
     0
  0
BLOCK_RECORD
  5
3ED
330
1
100
AcDbSymbolTableRecord
100
AcDbBlockTableRecord
  2
*D4
340
0
 70
     0
280
     1
281
     0
  0
BLOCK_RECORD
  5
3E0
330
1
100
AcDbSymbolTableRecord
100
AcDbBlockTableRecord
  2
*D5
340
0
 70
     0
280
     1
281
     0
  0
BLOCK_RECORD
  5
3D3
330
1
100
AcDbSymbolTableRecord
100
AcDbBlockTableRecord
  2
*D6
340
0
 70
     0
280
     1
281
     0
  0
BLOCK_RECORD
  5
3B2
330
1
100
AcDbSymbolTableRecord
100
AcDbBlockTableRecord
  2
*D7
340
0
 70
     0
280
     1
281
     0
  0
BLOCK_RECORD
  5
3A5
330
1
100
AcDbSymbolTableRecord
100
AcDbBlockTableRecord
  2
*D8
340
0
 70
     0
280
     1
281
     0
  0
BLOCK_RECORD
  5
37C
330
1
100
AcDbSymbolTableRecord
100
AcDbBlockTableRecord
  2
*D9
340
0
 70
     0
280
     1
281
     0
  0
BLOCK_RECORD
  5
36F
330
1
100
AcDbSymbolTableRecord
100
AcDbBlockTableRecord
  2
*D10
340
0
 70
     0
280
     1
281
     0
  0
BLOCK_RECORD
  5
360
330
1
100
AcDbSymbolTableRecord
100
AcDbBlockTableRecord
  2
*D11
340
0
 70
     0
280
     1
281
     0
  0
BLOCK_RECORD
  5
351
330
1
100
AcDbSymbolTableRecord
100
AcDbBlockTableRecord
  2
*D12
340
0
 70
     0
280
     1
281
     0
  0
BLOCK_RECORD
  5
342
330
1
100
AcDbSymbolTableRecord
100
AcDbBlockTableRecord
  2
*D13
340
0
 70
     0
280
     1
281
     0
  0
BLOCK_RECORD
  5
333
330
1
100
AcDbSymbolTableRecord
100
AcDbBlockTableRecord
  2
*D14
340
0
 70
     0
280
     1
281
     0
  0
BLOCK_RECORD
  5
326
330
1
100
AcDbSymbolTableRecord
100
AcDbBlockTableRecord
  2
*D15
340
0
 70
     0
280
     1
281
     0
  0
BLOCK_RECORD
  5
30E
330
1
100
AcDbSymbolTableRecord
100
AcDbBlockTableRecord
  2
*D16
340
0
 70
     0
280
     1
281
     0
  0
BLOCK_RECORD
  5
104
330
1
100
AcDbSymbolTableRecord
100
AcDbBlockTableRecord
  2
*D17
340
0
 70
     0
280
     1
281
     0
  0
BLOCK_RECORD
  5
78
102
{ACAD_XDICTIONARY
360
79
102
}
330
1
100
AcDbSymbolTableRecord
100
AcDbBlockTableRecord
  2
DIN A4
340
0
102
{BLKREFS
331
77
102
}
 70
     4
280
     1
281
     0
  0
ENDTAB
  0
ENDSEC
  0
SECTION
  2
BLOCKS
  0
BLOCK
  5
5
330
2
100
AcDbEntity
  8
0
100
AcDbBlockBegin
  2
*Model_Space
 70
     0
 10
0.0
 20
0.0
 30
0.0
  3
*Model_Space
  1

  0
ENDBLK
  5
16
330
2
100
AcDbEntity
  8
0
100
AcDbBlockEnd
  0
BLOCK
  5
1B
330
1A
100
AcDbEntity
 67
     1
  8
0
100
AcDbBlockBegin
  2
*Paper_Space
 70
     0
 10
0.0
 20
0.0
 30
0.0
  3
*Paper_Space
  1

  0
ENDBLK
  5
1C
330
1A
100
AcDbEntity
 67
     1
  8
0
100
AcDbBlockEnd
  0
BLOCK
  5
29C
330
29B
100
AcDbEntity
  8
0
100
AcDbBlockBegin
  2
WAGO-Klemme01-s
 70
     0
 10
0.0
 20
0.0
 30
0.0
  3
WAGO-Klemme01-s
  1

  0
LINE
  5
29D
330
29B
100
AcDbEntity
  8
0
100
AcDbLine
 10
-4.99394116923213
 20
2.057339763268828
 30
0.0
 11
-5.5
 21
1.949773753319959
 31
0.0
  0
LINE
  5
29E
330
29B
100
AcDbEntity
  8
0
100
AcDbLine
 10
-5.5
 20
-1.949773753319959
 30
0.0
 11
-4.99394116923213
 21
-2.057339763268828
 31
0.0
  0
LINE
  5
29F
330
29B
100
AcDbEntity
  8
0
100
AcDbLine
 10
1.000000047497451
 20
17.5000000745058
 30
0.0
 11
10.99999994039535
 21
17.5000000745058
 31
0.0
  0
LINE
  5
2A0
330
29B
100
AcDbEntity
  8
0
100
AcDbLine
 10
10.99999994039535
 20
17.5000000745058
 30
0.0
 11
14.99999966472387
 21
14.99999966472387
 31
0.0
  0
LINE
  5
2A1
330
29B
100
AcDbEntity
  8
0
100
AcDbLine
 10
14.99999966472387
 20
14.99999966472387
 30
0.0
 11
19.50000040233135
 21
9.999999776482582
 31
0.0
  0
LINE
  5
2A2
330
29B
100
AcDbEntity
  8
0
100
AcDbLine
 10
19.50000040233135
 20
9.999999776482582
 30
0.0
 11
19.50000040233135
 21
7.000000216066837
 31
0.0
  0
LINE
  5
2A3
330
29B
100
AcDbEntity
  8
0
100
AcDbLine
 10
19.50000040233135
 20
7.000000216066837
 30
0.0
 11
20.99999971687794
 21
5.499999970197677
 31
0.0
  0
LINE
  5
2A4
330
29B
100
AcDbEntity
  8
0
100
AcDbLine
 10
20.99999971687794
 20
5.499999970197677
 30
0.0
 11
20.99999971687794
 21
3.599999938160181
 31
0.0
  0
LINE
  5
2A5
330
29B
100
AcDbEntity
  8
0
100
AcDbLine
 10
20.99999971687794
 20
3.599999938160181
 30
0.0
 11
20.25
 21
4.033012701892175
 31
0.0
  0
ARC
  5
2A6
330
29B
100
AcDbEntity
  8
0
100
AcDbCircle
 10
20.0
 20
3.600000000000136
 30
0.0
 40
0.5
100
AcDbArc
 50
60.00000000000272
 51
180.0
  0
LINE
  5
2A7
330
29B
100
AcDbEntity
  8
0
100
AcDbLine
 10
19.5
 20
3.600000000000136
 30
0.0
 11
19.5
 21
-3.599999999999909
 31
0.0
  0
ARC
  5
2A8
330
29B
100
AcDbEntity
  8
0
100
AcDbCircle
 10
20.0
 20
-3.599999999999909
 30
0.0
 40
0.5
100
AcDbArc
 50
180.0
 51
299.9999999999973
  0
LINE
  5
2A9
330
29B
100
AcDbEntity
  8
0
100
AcDbLine
 10
20.25
 20
-4.033012701892175
 30
0.0
 11
20.99999971687794
 21
-3.599999938160181
 31
0.0
  0
LINE
  5
2AA
330
29B
100
AcDbEntity
  8
0
100
AcDbLine
 10
20.99999971687794
 20
-3.599999938160181
 30
0.0
 11
20.99999971687794
 21
-5.499999970197677
 31
0.0
  0
LINE
  5
2AB
330
29B
100
AcDbEntity
  8
0
100
AcDbLine
 10
20.99999971687794
 20
-5.499999970197677
 30
0.0
 11
19.50000040233135
 21
-7.000000216066837
 31
0.0
  0
LINE
  5
2AC
330
29B
100
AcDbEntity
  8
0
100
AcDbLine
 10
19.50000040233135
 20
-7.000000216066837
 30
0.0
 11
19.50000040233135
 21
-9.999999776482582
 31
0.0
  0
LINE
  5
2AD
330
29B
100
AcDbEntity
  8
0
100
AcDbLine
 10
19.50000040233135
 20
-9.999999776482582
 30
0.0
 11
14.99999966472387
 21
-14.99999966472387
 31
0.0
  0
LINE
  5
2AE
330
29B
100
AcDbEntity
  8
0
100
AcDbLine
 10
14.99999966472387
 20
-14.99999966472387
 30
0.0
 11
10.99999994039535
 21
-17.5000000745058
 31
0.0
  0
LINE
  5
2AF
330
29B
100
AcDbEntity
  8
0
100
AcDbLine
 10
10.99999994039535
 20
-17.5000000745058
 30
0.0
 11
1.000000047497451
 21
-17.5000000745058
 31
0.0
  0
LINE
  5
2B0
330
29B
100
AcDbEntity
  8
0
100
AcDbLine
 10
1.000000047497451
 20
-16.49999991059303
 30
0.0
 11
1.000000047497451
 21
-17.5000000745058
 31
0.0
  0
LINE
  5
2B1
330
29B
100
AcDbEntity
  8
0
100
AcDbLine
 10
1.000000047497451
 20
16.49999991059303
 30
0.0
 11
1.000000047497451
 21
17.5000000745058
 31
0.0
  0
LINE
  5
2B2
330
29B
100
AcDbEntity
  8
0
100
AcDbLine
 10
0.0
 20
-16.49999991059303
 30
0.0
 11
0.0
 21
16.49999991059303
 31
0.0
  0
LINE
  5
2B3
330
29B
100
AcDbEntity
  8
0
100
AcDbLine
 10
1.000000047497451
 20
-16.49999991059303
 30
0.0
 11
0.0
 21
-16.49999991059303
 31
0.0
  0
LINE
  5
2B4
330
29B
100
AcDbEntity
  8
0
100
AcDbLine
 10
1.000000047497451
 20
16.49999991059303
 30
0.0
 11
0.0
 21
16.49999991059303
 31
0.0
  0
LINE
  5
2B5
330
29B
100
AcDbEntity
  8
0
100
AcDbLine
 10
19.50000040233135
 20
10.49999985843897
 30
0.0
 11
19.05000023543834
 21
10.49999985843897
 31
0.0
  0
LINE
  5
2B6
330
29B
100
AcDbEntity
  8
0
100
AcDbLine
 10
19.50000040233135
 20
10.99999994039535
 30
0.0
 11
19.50000040233135
 21
10.49999985843897
 31
0.0
  0
LINE
  5
2B7
330
29B
100
AcDbEntity
  8
0
100
AcDbLine
 10
20.50000056624412
 20
11.90000027418136
 30
0.0
 11
19.50000040233135
 21
10.99999994039535
 31
0.0
  0
LINE
  5
2B8
330
29B
100
AcDbEntity
  8
0
100
AcDbLine
 10
21.99999988079071
 20
11.90000027418136
 30
0.0
 11
20.50000056624412
 21
11.90000027418136
 31
0.0
  0
LINE
  5
2B9
330
29B
100
AcDbEntity
  8
0
100
AcDbLine
 10
21.99999988079071
 20
4.300000146031379
 30
0.0
 11
21.99999988079071
 21
11.90000027418136
 31
0.0
  0
LINE
  5
2BA
330
29B
100
AcDbEntity
  8
0
100
AcDbLine
 10
20.99999971687794
 20
4.300000146031379
 30
0.0
 11
21.99999988079071
 21
4.300000146031379
 31
0.0
  0
LINE
  5
2BB
330
29B
100
AcDbEntity
  8
0
100
AcDbLine
 10
20.99999971687794
 20
-4.300000146031379
 30
0.0
 11
21.99999988079071
 21
-4.300000146031379
 31
0.0
  0
LINE
  5
2BC
330
29B
100
AcDbEntity
  8
0
100
AcDbLine
 10
21.99999988079071
 20
-4.300000146031379
 30
0.0
 11
21.99999988079071
 21
-11.90000027418136
 31
0.0
  0
LINE
  5
2BD
330
29B
100
AcDbEntity
  8
0
100
AcDbLine
 10
21.99999988079071
 20
-11.90000027418136
 30
0.0
 11
20.50000056624412
 21
-11.90000027418136
 31
0.0
  0
LINE
  5
2BE
330
29B
100
AcDbEntity
  8
0
100
AcDbLine
 10
20.50000056624412
 20
-11.90000027418136
 30
0.0
 11
19.50000040233135
 21
-10.99999994039535
 31
0.0
  0
LINE
  5
2BF
330
29B
100
AcDbEntity
  8
0
100
AcDbLine
 10
19.50000040233135
 20
-10.99999994039535
 30
0.0
 11
19.50000040233135
 21
-10.49999985843897
 31
0.0
  0
LINE
  5
2C0
330
29B
100
AcDbEntity
  8
0
100
AcDbLine
 10
19.50000040233135
 20
-10.49999985843897
 30
0.0
 11
19.05000023543834
 21
-10.49999985843897
 31
0.0
  0
LWPOLYLINE
  5
2C1
330
29B
100
AcDbEntity
  8
0
100
AcDbPolyline
 90
        8
 70
   128
 43
0.0
 10
-3.700000001117587
 20
1.93648540880531
 10
-4.064212553203105
 20
1.878162496723234
 10
-4.40326752141118
 20
1.889338600449264
 10
-4.685357678681612
 20
1.946218661032617
 10
-4.906457848846912
 20
2.018674509599804
 10
-4.970586858689785
 20
2.043890533968806
 10
-4.999062046408653
 20
2.055658493191003
 10
-4.993062932044267
 20
2.053207252174615
  0
LWPOLYLINE
  5
2C2
330
29B
100
AcDbEntity
  8
0
100
AcDbPolyline
 90
        3
 70
   128
 43
0.0
 10
-1.500000013038516
 20
2.479919465258717
 10
-3.144309157505631
 20
2.077235607430338
 10
-3.700000001117587
 20
1.93648540880531
  0
LINE
  5
2C3
330
29B
100
AcDbEntity
  8
0
100
AcDbLine
 10
-1.500000000000454
 20
-2.479919353527748
 30
0.0
 11
-1.500000000000454
 21
2.479919353527748
 31
0.0
  0
LWPOLYLINE
  5
2C4
330
29B
100
AcDbEntity
  8
0
100
AcDbPolyline
 90
        3
 70
   128
 43
0.0
 10
-3.700000001117587
 20
-1.93648540880531
 10
-3.144309157505631
 20
-2.077235607430338
 10
-1.500000013038516
 20
-2.479919465258717
  0
ARC
  5
2C5
330
29B
100
AcDbEntity
  8
0
100
AcDbCircle
 10
-4.175532255910638
 20
-3.889202469432348
 30
0.0
 40
2.00978477559492
100
AcDbArc
 50
76.31353992255982
 51
114.0024204869099
  0
LINE
  5
2C6
330
29B
100
AcDbEntity
  8
0
100
AcDbLine
 10
-5.5
 20
-1.949773753319959
 30
0.0
 11
-5.5
 21
1.949773753319959
 31
0.0
  0
LINE
  5
2C7
330
29B
100
AcDbEntity
  8
0
100
AcDbLine
 10
0.0
 20
2.135415561497211
 30
0.0
 11
-1.500000013038516
 21
2.135415561497211
 31
0.0
  0
LINE
  5
2C8
330
29B
100
AcDbEntity
  8
0
100
AcDbLine
 10
-1.500000013038516
 20
-2.135415561497211
 30
0.0
 11
0.0
 21
-2.135415561497211
 31
0.0
  0
LINE
  5
2C9
330
29B
100
AcDbEntity
  8
03-01
100
AcDbLine
 10
8.100000210106372
 20
-15.49999974668026
 30
0.0
 11
2.000000094994902
 21
-15.49999974668026
 31
0.0
  0
LINE
  5
2CA
330
29B
100
AcDbEntity
  8
03-01
100
AcDbLine
 10
2.000000094994902
 20
-15.49999974668026
 30
0.0
 11
2.000000094994902
 21
-17.5000000745058
 31
0.0
  0
LINE
  5
2CB
330
29B
100
AcDbEntity
  8
03-01
100
AcDbLine
 10
2.000000094994902
 20
15.49999974668026
 30
0.0
 11
2.000000094994902
 21
17.5000000745058
 31
0.0
  0
LINE
  5
2CC
330
29B
100
AcDbEntity
  8
03-01
100
AcDbLine
 10
8.100000210106372
 20
15.49999974668026
 30
0.0
 11
2.000000094994902
 21
15.49999974668026
 31
0.0
  0
LINE
  5
2CD
330
29B
100
AcDbEntity
  8
03-01
100
AcDbLine
 10
8.100000210106372
 20
-15.49999974668026
 30
0.0
 11
8.100000210106372
 21
-17.5000000745058
 31
0.0
  0
LINE
  5
2CE
330
29B
100
AcDbEntity
  8
03-01
100
AcDbLine
 10
8.100000210106372
 20
15.49999974668026
 30
0.0
 11
8.100000210106372
 21
17.5000000745058
 31
0.0
  0
LINE
  5
2CF
330
29B
100
AcDbEntity
  8
03-01
100
AcDbLine
 10
19.50000040233135
 20
3.250000067055225
 30
0.0
 11
17.00000092387199
 21
3.250000067055225
 31
0.0
  0
LINE
  5
2D0
330
29B
100
AcDbEntity
  8
03-01
100
AcDbLine
 10
17.00000092387199
 20
3.250000067055225
 30
0.0
 11
17.00000092387199
 21
12.7777773886919
 31
0.0
  0
LINE
  5
2D1
330
29B
100
AcDbEntity
  8
03-01
100
AcDbLine
 10
19.50000040233135
 20
-3.250000067055225
 30
0.0
 11
17.00000092387199
 21
-3.250000067055225
 31
0.0
  0
LINE
  5
2D2
330
29B
100
AcDbEntity
  8
03-01
100
AcDbLine
 10
17.00000092387199
 20
-3.250000067055225
 30
0.0
 11
17.00000092387199
 21
-12.7777773886919
 31
0.0
  0
LINE
  5
2D3
330
29B
100
AcDbEntity
  8
03-01
100
AcDbLine
 10
19.05000023543834
 20
10.49999985843897
 30
0.0
 11
17.00000092387199
 21
10.49999985843897
 31
0.0
  0
LINE
  5
2D4
330
29B
100
AcDbEntity
  8
03-01
100
AcDbLine
 10
17.00000092387199
 20
4.300000146031379
 30
0.0
 11
20.99999971687794
 21
4.300000146031379
 31
0.0
  0
LINE
  5
2D5
330
29B
100
AcDbEntity
  8
03-01
100
AcDbLine
 10
17.00000092387199
 20
-4.300000146031379
 30
0.0
 11
20.99999971687794
 21
-4.300000146031379
 31
0.0
  0
LINE
  5
2D6
330
29B
100
AcDbEntity
  8
03-01
100
AcDbLine
 10
19.05000023543834
 20
-10.49999985843897
 30
0.0
 11
17.00000092387199
 21
-10.49999985843897
 31
0.0
  0
ARC
  5
2D7
330
29B
100
AcDbEntity
  8
03-01
100
AcDbCircle
 10
10.83696059354224
 20
-17.37315285110185
 30
0.0
 40
0.2107285661862074
100
AcDbArc
 50
325.0058320958061
 51
20.31251966197277
  0
ARC
  5
2D8
330
29B
100
AcDbEntity
  8
03-01
100
AcDbCircle
 10
10.82072708047189
 20
17.37106153260174
 30
0.0
 40
0.2253546604750382
100
AcDbArc
 50
341.6192543522559
 51
33.06239388997472
  0
LWPOLYLINE
  5
2D9
330
29B
100
AcDbEntity
  8
03-01
100
AcDbPolyline
 90
       34
 70
   128
 43
0.0
 10
11.0345846042037
 20
17.30000041425228
 10
11.27295289188623
 20
17.1368308365345
 10
11.52251288294792
 20
16.96600206196308
 10
11.77942287176847
 20
16.79014042019844
 10
12.0397275313735
 20
16.61195605993271
 10
12.29942217469215
 20
16.4341889321804
 10
12.55450677126646
 20
16.25957712531089
 10
12.80105579644441
 20
16.09080843627453
 10
13.03527317941189
 20
15.93048125505447
 10
13.25355470180511
 20
15.78106172382831
 10
13.45253922045231
 20
15.6448520720005
 10
13.62916454672813
 20
15.52394870668649
 10
13.78071121871471
 20
15.4202114790678
 10
13.90484627336263
 20
15.33523760735988
 10
13.99965956807136
 20
15.27033559978008
 10
14.06369172036647
 20
15.22650476545095
 10
14.09595552831888
 20
15.20441938191652
 10
14.09595552831888
 20
15.20441938191652
 10
14.06369172036647
 20
15.22650476545095
 10
13.99965956807136
 20
15.27033559978008
 10
13.90484627336263
 20
15.33523760735988
 10
13.78071121871471
 20
15.4202114790678
 10
13.62916454672813
 20
15.52394870668649
 10
13.45253922045231
 20
15.6448520720005
 10
13.25355470180511
 20
15.78106172382831
 10
13.03527317941189
 20
15.93048125505447
 10
12.80105579644441
 20
16.09080843627453
 10
12.55450677126646
 20
16.25957712531089
 10
12.29942217469215
 20
16.4341889321804
 10
12.0397275313735
 20
16.61195605993271
 10
11.77942287176847
 20
16.79014042019844
 10
11.52251288294792
 20
16.96600206196308
 10
11.27295289188623
 20
17.1368308365345
 10
11.0345846042037
 20
17.30000041425228
  0
LINE
  5
2DA
330
29B
100
AcDbEntity
  8
03-01
100
AcDbLine
 10
11.03458503691627
 20
-17.29999999999995
 30
0.0
 11
9.90000000000009
 21
-17.29999999999995
 31
0.0
  0
LINE
  5
2DB
330
29B
100
AcDbEntity
  8
03-01
100
AcDbLine
 10
14.09999999999991
 20
-6.5
 30
0.0
 11
9.90000000000009
 21
-6.5
 31
0.0
  0
LINE
  5
2DC
330
29B
100
AcDbEntity
  8
03-01
100
AcDbLine
 10
11.03458503691627
 20
17.30000000000018
 30
0.0
 11
9.90000000000009
 21
17.30000000000018
 31
0.0
  0
LINE
  5
2DD
330
29B
100
AcDbEntity
  8
03-01
100
AcDbLine
 10
14.09999999999991
 20
6.5
 30
0.0
 11
9.90000000000009
 21
6.5
 31
0.0
  0
LINE
  5
2DE
330
29B
100
AcDbEntity
  8
03-01
100
AcDbLine
 10
17.99999922513961
 20
-4.300000146031379
 30
0.0
 11
17.99999922513961
 21
-10.49999985843897
 31
0.0
  0
LINE
  5
2DF
330
29B
100
AcDbEntity
  8
03-01
100
AcDbLine
 10
17.99999922513961
 20
4.300000146031379
 30
0.0
 11
17.99999922513961
 21
10.49999985843897
 31
0.0
  0
LINE
  5
2E0
330
29B
100
AcDbEntity
  8
0
100
AcDbLine
 10
-3.700000001117587
 20
-1.93648540880531
 30
0.0
 11
-3.700000001117587
 21
1.93648540880531
 31
0.0
  0
LINE
  5
2E1
330
29B
100
AcDbEntity
  8
0
100
AcDbLine
 10
-3.700000001117587
 20
-1.93648540880531
 30
0.0
 11
-3.700000001117587
 21
1.93648540880531
 31
0.0
  0
LINE
  5
2E2
330
29B
100
AcDbEntity
  8
0
100
AcDbLine
 10
21.99999988079071
 20
10.49999985843897
 30
0.0
 11
19.50000040233135
 21
10.49999985843897
 31
0.0
  0
LINE
  5
2E3
330
29B
100
AcDbEntity
  8
0
100
AcDbLine
 10
21.99999988079071
 20
-10.49999985843897
 30
0.0
 11
19.50000040233135
 21
-10.49999985843897
 31
0.0
  0
LWPOLYLINE
  5
2E4
330
29B
100
AcDbEntity
  8
03-01
100
AcDbPolyline
 90
       34
 70
   128
 43
0.0
 10
11.0345846042037
 20
17.30000041425228
 10
11.27295289188623
 20
17.1368308365345
 10
11.52251288294792
 20
16.96600206196308
 10
11.77942287176847
 20
16.79014042019844
 10
12.0397275313735
 20
16.61195605993271
 10
12.29942217469215
 20
16.4341889321804
 10
12.55450677126646
 20
16.25957712531089
 10
12.80105579644441
 20
16.09080843627453
 10
13.03527317941189
 20
15.93048125505447
 10
13.25355470180511
 20
15.78106172382831
 10
13.45253922045231
 20
15.6448520720005
 10
13.62916454672813
 20
15.52394870668649
 10
13.78071121871471
 20
15.4202114790678
 10
13.90484627336263
 20
15.33523760735988
 10
13.99965956807136
 20
15.27033559978008
 10
14.06369172036647
 20
15.22650476545095
 10
14.09595552831888
 20
15.20441938191652
 10
14.09595552831888
 20
15.20441938191652
 10
14.06369172036647
 20
15.22650476545095
 10
13.99965956807136
 20
15.27033559978008
 10
13.90484627336263
 20
15.33523760735988
 10
13.78071121871471
 20
15.4202114790678
 10
13.62916454672813
 20
15.52394870668649
 10
13.45253922045231
 20
15.6448520720005
 10
13.25355470180511
 20
15.78106172382831
 10
13.03527317941189
 20
15.93048125505447
 10
12.80105579644441
 20
16.09080843627453
 10
12.55450677126646
 20
16.25957712531089
 10
12.29942217469215
 20
16.4341889321804
 10
12.0397275313735
 20
16.61195605993271
 10
11.77942287176847
 20
16.79014042019844
 10
11.52251288294792
 20
16.96600206196308
 10
11.27295289188623
 20
17.1368308365345
 10
11.0345846042037
 20
17.30000041425228
  0
LINE
  5
2E5
330
29B
100
AcDbEntity
  8
03-01
100
AcDbLine
 10
11.03458503691627
 20
-17.29999999999995
 30
0.0
 11
9.90000000000009
 21
-17.29999999999995
 31
0.0
  0
LINE
  5
2E6
330
29B
100
AcDbEntity
  8
03-01
100
AcDbLine
 10
11.03458503691627
 20
17.30000000000018
 30
0.0
 11
9.90000000000009
 21
17.30000000000018
 31
0.0
  0
LINE
  5
2E7
330
29B
100
AcDbEntity
  8
03-01
100
AcDbLine
 10
17.30000000000018
 20
0.0
 30
0.0
 11
17.30000000000018
 21
2.850000000000136
 31
0.0
  0
LINE
  5
2E8
330
29B
100
AcDbEntity
  8
03-01
100
AcDbLine
 10
17.30000000000018
 20
-2.849999999999909
 30
0.0
 11
17.30000000000018
 21
0.0
 31
0.0
  0
LINE
  5
2E9
330
29B
100
AcDbEntity
  8
03-01
100
AcDbLine
 10
16.80000000000018
 20
1.549999999999954
 30
0.0
 11
16.80000000000018
 21
-1.549999999999954
 31
0.0
  0
LWPOLYLINE
  5
2EA
330
29B
100
AcDbEntity
  8
03-01
100
AcDbPolyline
 90
       34
 70
   128
 43
0.0
 10
11.0345846042037
 20
17.30000041425228
 10
11.27295289188623
 20
17.1368308365345
 10
11.52251288294792
 20
16.96600206196308
 10
11.77942287176847
 20
16.79014042019844
 10
12.0397275313735
 20
16.61195605993271
 10
12.29942217469215
 20
16.4341889321804
 10
12.55450677126646
 20
16.25957712531089
 10
12.80105579644441
 20
16.09080843627453
 10
13.03527317941189
 20
15.93048125505447
 10
13.25355470180511
 20
15.78106172382831
 10
13.45253922045231
 20
15.6448520720005
 10
13.62916454672813
 20
15.52394870668649
 10
13.78071121871471
 20
15.4202114790678
 10
13.90484627336263
 20
15.33523760735988
 10
13.99965956807136
 20
15.27033559978008
 10
14.06369172036647
 20
15.22650476545095
 10
14.09595552831888
 20
15.20441938191652
 10
14.09595552831888
 20
15.20441938191652
 10
14.06369172036647
 20
15.22650476545095
 10
13.99965956807136
 20
15.27033559978008
 10
13.90484627336263
 20
15.33523760735988
 10
13.78071121871471
 20
15.4202114790678
 10
13.62916454672813
 20
15.52394870668649
 10
13.45253922045231
 20
15.6448520720005
 10
13.25355470180511
 20
15.78106172382831
 10
13.03527317941189
 20
15.93048125505447
 10
12.80105579644441
 20
16.09080843627453
 10
12.55450677126646
 20
16.25957712531089
 10
12.29942217469215
 20
16.4341889321804
 10
12.0397275313735
 20
16.61195605993271
 10
11.77942287176847
 20
16.79014042019844
 10
11.52251288294792
 20
16.96600206196308
 10
11.27295289188623
 20
17.1368308365345
 10
11.0345846042037
 20
17.30000041425228
  0
LINE
  5
2EB
330
29B
100
AcDbEntity
  8
03-01
100
AcDbLine
 10
11.03458503691627
 20
-17.29999999999995
 30
0.0
 11
9.90000000000009
 21
-17.29999999999995
 31
0.0
  0
LINE
  5
2EC
330
29B
100
AcDbEntity
  8
03-01
100
AcDbLine
 10
11.03458503691627
 20
17.30000000000018
 30
0.0
 11
9.90000000000009
 21
17.30000000000018
 31
0.0
  0
LWPOLYLINE
  5
2ED
330
29B
100
AcDbEntity
  8
03-01
100
AcDbPolyline
 90
       34
 70
   128
 43
0.0
 10
11.0345846042037
 20
17.30000041425228
 10
11.27295289188623
 20
17.1368308365345
 10
11.52251288294792
 20
16.96600206196308
 10
11.77942287176847
 20
16.79014042019844
 10
12.0397275313735
 20
16.61195605993271
 10
12.29942217469215
 20
16.4341889321804
 10
12.55450677126646
 20
16.25957712531089
 10
12.80105579644441
 20
16.09080843627453
 10
13.03527317941189
 20
15.93048125505447
 10
13.25355470180511
 20
15.78106172382831
 10
13.45253922045231
 20
15.6448520720005
 10
13.62916454672813
 20
15.52394870668649
 10
13.78071121871471
 20
15.4202114790678
 10
13.90484627336263
 20
15.33523760735988
 10
13.99965956807136
 20
15.27033559978008
 10
14.06369172036647
 20
15.22650476545095
 10
14.09595552831888
 20
15.20441938191652
 10
14.09595552831888
 20
15.20441938191652
 10
14.06369172036647
 20
15.22650476545095
 10
13.99965956807136
 20
15.27033559978008
 10
13.90484627336263
 20
15.33523760735988
 10
13.78071121871471
 20
15.4202114790678
 10
13.62916454672813
 20
15.52394870668649
 10
13.45253922045231
 20
15.6448520720005
 10
13.25355470180511
 20
15.78106172382831
 10
13.03527317941189
 20
15.93048125505447
 10
12.80105579644441
 20
16.09080843627453
 10
12.55450677126646
 20
16.25957712531089
 10
12.29942217469215
 20
16.4341889321804
 10
12.0397275313735
 20
16.61195605993271
 10
11.77942287176847
 20
16.79014042019844
 10
11.52251288294792
 20
16.96600206196308
 10
11.27295289188623
 20
17.1368308365345
 10
11.0345846042037
 20
17.30000041425228
  0
LINE
  5
2EE
330
29B
100
AcDbEntity
  8
03-01
100
AcDbLine
 10
11.03458503691627
 20
17.30000000000018
 30
0.0
 11
9.90000000000009
 21
17.30000000000018
 31
0.0
  0
LINE
  5
2EF
330
29B
100
AcDbEntity
  8
03-01
100
AcDbLine
 10
11.03458503691627
 20
-17.29999999999995
 30
0.0
 11
9.90000000000009
 21
-17.29999999999995
 31
0.0
  0
LWPOLYLINE
  5
2F0
330
29B
100
AcDbEntity
  8
03-01
100
AcDbPolyline
 90
       34
 70
   128
 43
0.0
 10
11.0345846042037
 20
17.30000041425228
 10
11.27295289188623
 20
17.1368308365345
 10
11.52251288294792
 20
16.96600206196308
 10
11.77942287176847
 20
16.79014042019844
 10
12.0397275313735
 20
16.61195605993271
 10
12.29942217469215
 20
16.4341889321804
 10
12.55450677126646
 20
16.25957712531089
 10
12.80105579644441
 20
16.09080843627453
 10
13.03527317941189
 20
15.93048125505447
 10
13.25355470180511
 20
15.78106172382831
 10
13.45253922045231
 20
15.6448520720005
 10
13.62916454672813
 20
15.52394870668649
 10
13.78071121871471
 20
15.4202114790678
 10
13.90484627336263
 20
15.33523760735988
 10
13.99965956807136
 20
15.27033559978008
 10
14.06369172036647
 20
15.22650476545095
 10
14.09595552831888
 20
15.20441938191652
 10
14.09595552831888
 20
15.20441938191652
 10
14.06369172036647
 20
15.22650476545095
 10
13.99965956807136
 20
15.27033559978008
 10
13.90484627336263
 20
15.33523760735988
 10
13.78071121871471
 20
15.4202114790678
 10
13.62916454672813
 20
15.52394870668649
 10
13.45253922045231
 20
15.6448520720005
 10
13.25355470180511
 20
15.78106172382831
 10
13.03527317941189
 20
15.93048125505447
 10
12.80105579644441
 20
16.09080843627453
 10
12.55450677126646
 20
16.25957712531089
 10
12.29942217469215
 20
16.4341889321804
 10
12.0397275313735
 20
16.61195605993271
 10
11.77942287176847
 20
16.79014042019844
 10
11.52251288294792
 20
16.96600206196308
 10
11.27295289188623
 20
17.1368308365345
 10
11.0345846042037
 20
17.30000041425228
  0
LINE
  5
2F1
330
29B
100
AcDbEntity
  8
03-01
100
AcDbLine
 10
11.03458503691627
 20
17.30000000000018
 30
0.0
 11
9.90000000000009
 21
17.30000000000018
 31
0.0
  0
LINE
  5
2F2
330
29B
100
AcDbEntity
  8
03-01
100
AcDbLine
 10
11.03458503691627
 20
-17.29999999999995
 30
0.0
 11
9.90000000000009
 21
-17.29999999999995
 31
0.0
  0
LINE
  5
2F3
330
29B
100
AcDbEntity
  8
0
100
AcDbLine
 10
-3.700000001117587
 20
-1.93648540880531
 30
0.0
 11
-3.700000001117587
 21
1.93648540880531
 31
0.0
  0
LINE
  5
2F4
330
29B
100
AcDbEntity
  8
0
100
AcDbLine
 10
-3.700000001117587
 20
-1.93648540880531
 30
0.0
 11
-3.700000001117587
 21
1.93648540880531
 31
0.0
  0
LWPOLYLINE
  5
2F5
330
29B
100
AcDbEntity
  8
03-01
100
AcDbPolyline
 90
       34
 70
   128
 43
0.0
 10
11.0345846042037
 20
-17.30000041425228
 10
11.27295289188623
 20
-17.1368308365345
 10
11.52251288294792
 20
-16.96600206196308
 10
11.77942287176847
 20
-16.79014042019844
 10
12.0397275313735
 20
-16.61195605993271
 10
12.29942217469215
 20
-16.4341889321804
 10
12.55450677126646
 20
-16.25957712531089
 10
12.80105579644441
 20
-16.09080843627453
 10
13.03527317941189
 20
-15.93048125505447
 10
13.25355470180511
 20
-15.78106172382831
 10
13.45253922045231
 20
-15.6448520720005
 10
13.62916454672813
 20
-15.52394870668649
 10
13.78071121871471
 20
-15.4202114790678
 10
13.90484627336263
 20
-15.33523760735988
 10
13.99965956807136
 20
-15.27033559978008
 10
14.06369172036647
 20
-15.22650476545095
 10
14.09595552831888
 20
-15.20441938191652
 10
14.09595552831888
 20
-15.20441938191652
 10
14.06369172036647
 20
-15.22650476545095
 10
13.99965956807136
 20
-15.27033559978008
 10
13.90484627336263
 20
-15.33523760735988
 10
13.78071121871471
 20
-15.4202114790678
 10
13.62916454672813
 20
-15.52394870668649
 10
13.45253922045231
 20
-15.6448520720005
 10
13.25355470180511
 20
-15.78106172382831
 10
13.03527317941189
 20
-15.93048125505447
 10
12.80105579644441
 20
-16.09080843627453
 10
12.55450677126646
 20
-16.25957712531089
 10
12.29942217469215
 20
-16.4341889321804
 10
12.0397275313735
 20
-16.61195605993271
 10
11.77942287176847
 20
-16.79014042019844
 10
11.52251288294792
 20
-16.96600206196308
 10
11.27295289188623
 20
-17.1368308365345
 10
11.0345846042037
 20
-17.30000041425228
  0
LWPOLYLINE
  5
2F6
330
29B
100
AcDbEntity
  8
03-01
100
AcDbPolyline
 90
       34
 70
   128
 43
0.0
 10
11.0345846042037
 20
17.30000041425228
 10
11.27295289188623
 20
17.1368308365345
 10
11.52251288294792
 20
16.96600206196308
 10
11.77942287176847
 20
16.79014042019844
 10
12.0397275313735
 20
16.61195605993271
 10
12.29942217469215
 20
16.4341889321804
 10
12.55450677126646
 20
16.25957712531089
 10
12.80105579644441
 20
16.09080843627453
 10
13.03527317941189
 20
15.93048125505447
 10
13.25355470180511
 20
15.78106172382831
 10
13.45253922045231
 20
15.6448520720005
 10
13.62916454672813
 20
15.52394870668649
 10
13.78071121871471
 20
15.4202114790678
 10
13.90484627336263
 20
15.33523760735988
 10
13.99965956807136
 20
15.27033559978008
 10
14.06369172036647
 20
15.22650476545095
 10
14.09595552831888
 20
15.20441938191652
 10
14.09595552831888
 20
15.20441938191652
 10
14.06369172036647
 20
15.22650476545095
 10
13.99965956807136
 20
15.27033559978008
 10
13.90484627336263
 20
15.33523760735988
 10
13.78071121871471
 20
15.4202114790678
 10
13.62916454672813
 20
15.52394870668649
 10
13.45253922045231
 20
15.6448520720005
 10
13.25355470180511
 20
15.78106172382831
 10
13.03527317941189
 20
15.93048125505447
 10
12.80105579644441
 20
16.09080843627453
 10
12.55450677126646
 20
16.25957712531089
 10
12.29942217469215
 20
16.4341889321804
 10
12.0397275313735
 20
16.61195605993271
 10
11.77942287176847
 20
16.79014042019844
 10
11.52251288294792
 20
16.96600206196308
 10
11.27295289188623
 20
17.1368308365345
 10
11.0345846042037
 20
17.30000041425228
  0
LINE
  5
2F7
330
29B
100
AcDbEntity
  8
03-01
100
AcDbLine
 10
11.03458503691627
 20
17.30000000000018
 30
0.0
 11
9.90000000000009
 21
17.30000000000018
 31
0.0
  0
LINE
  5
2F8
330
29B
100
AcDbEntity
  8
03-01
100
AcDbLine
 10
11.03458503691627
 20
-17.29999999999995
 30
0.0
 11
9.90000000000009
 21
-17.29999999999995
 31
0.0
  0
ARC
  5
2F9
330
29B
100
AcDbEntity
  8
03-01
100
AcDbCircle
 10
14.30000000000018
 20
-15.20165047169848
 30
0.0
 40
0.1999999999999879
100
AcDbArc
 50
182.4854140519444
 51
302.0053832080904
  0
ARC
  5
2FA
330
29B
100
AcDbEntity
  8
03-01
100
AcDbCircle
 10
14.30000000000018
 20
15.20165047169871
 30
0.0
 40
0.200000000000012
100
AcDbArc
 50
57.9946167919165
 51
177.2717593374021
  0
LINE
  5
2FB
330
29B
100
AcDbEntity
  8
03-01
100
AcDbLine
 10
14.10000026226043
 20
-15.20165055990219
 30
0.0
 11
14.09999999999991
 21
-6.5
 31
0.0
  0
LINE
  5
2FC
330
29B
100
AcDbEntity
  8
03-01
100
AcDbLine
 10
9.90000000000009
 20
-6.5
 30
0.0
 11
9.90000000000009
 21
-17.29999999999995
 31
0.0
  0
LINE
  5
2FD
330
29B
100
AcDbEntity
  8
03-01
100
AcDbLine
 10
9.90000000000009
 20
17.30000000000018
 30
0.0
 11
9.90000000000009
 21
6.5
 31
0.0
  0
LINE
  5
2FE
330
29B
100
AcDbEntity
  8
03-01
100
AcDbLine
 10
14.09999999999991
 20
6.5
 30
0.0
 11
14.10000026226043
 21
15.20165055990219
 31
0.0
  0
ARC
  5
2FF
330
29B
100
AcDbEntity
  8
03-01
100
AcDbCircle
 10
9.700000000000272
 20
17.30000000000018
 30
0.0
 40
0.1999999999999886
100
AcDbArc
 50
0.0
 51
90.0
  0
ARC
  5
300
330
29B
100
AcDbEntity
  8
03-01
100
AcDbCircle
 10
9.700000000000272
 20
-17.29999999999995
 30
0.0
 40
0.200000000000017
100
AcDbArc
 50
270.0
 51
0.0
  0
LINE
  5
301
330
29B
100
AcDbEntity
  8
0
100
AcDbLine
 10
-4.999999888241291
 20
2.053233562037348
 30
0.0
 11
-4.999999888241291
 21
-2.053233562037348
 31
0.0
  0
LINE
  5
302
330
29B
100
AcDbEntity
  8
03-01
100
AcDbLine
 10
19.50000040233135
 20
2.850000048056244
 30
0.0
 11
17.30000000000018
 21
2.850000000000136
 31
0.0
  0
LINE
  5
303
330
29B
100
AcDbEntity
  8
03-01
100
AcDbLine
 10
17.30000000000018
 20
-2.849999999999909
 30
0.0
 11
19.50000040233135
 21
-2.850000048056244
 31
0.0
  0
LINE
  5
304
330
29B
100
AcDbEntity
  8
03-01
100
AcDbLine
 10
17.30000041425228
 20
2.050000010058283
 30
0.0
 11
16.80000000000018
 21
1.549999999999954
 31
0.0
  0
LINE
  5
305
330
29B
100
AcDbEntity
  8
03-01
100
AcDbLine
 10
16.80000000000018
 20
-1.549999999999954
 30
0.0
 11
17.30000041425228
 21
-2.050000010058283
 31
0.0
  0
LINE
  5
306
330
29B
100
AcDbEntity
  8
03-01
100
AcDbLine
 10
0.0
 20
-1.550000044517219
 30
0.0
 11
16.80000000000018
 21
-1.549999999999954
 31
0.0
  0
LINE
  5
307
330
29B
100
AcDbEntity
  8
03-01
100
AcDbLine
 10
16.80000000000018
 20
1.549999999999954
 30
0.0
 11
0.0
 21
1.550000044517219
 31
0.0
  0
ENDBLK
  5
308
330
29B
100
AcDbEntity
  8
0
100
AcDbBlockEnd
  0
BLOCK
  5
4FE
330
4FD
100
AcDbEntity
  8
0
100
AcDbBlockBegin
  2
*D1
 70
     1
 10
0.0
 20
0.0
 30
0.0
  3
*D1
  1

  0
LINE
  5
4FF
330
4FD
100
AcDbEntity
  8
09-01
 62
     4
370
    -2
100
AcDbLine
 10
384.361412379516
 20
1291.818964076871
 30
0.0
 11
384.361412379516
 21
1335.461615598842
 31
0.0
  0
LINE
  5
500
330
4FD
100
AcDbEntity
  8
09-01
 62
     4
370
    -2
100
AcDbLine
 10
534.3614123795159
 20
1292.818964076871
 30
0.0
 11
534.3614123795159
 21
1335.461615598842
 31
0.0
  0
LINE
  5
501
330
4FD
100
AcDbEntity
  8
09-01
 62
     4
370
    -2
100
AcDbLine
 10
396.861412379516
 20
1330.461615598842
 30
0.0
 11
521.8614123795159
 21
1330.461615598842
 31
0.0
  0
SOLID
  5
502
330
4FD
100
AcDbEntity
  8
09-01
 62
     4
100
AcDbTrace
 10
396.861412379516
 20
1332.544948932176
 30
0.0
 11
396.861412379516
 21
1328.378282265509
 31
0.0
 12
384.361412379516
 22
1330.461615598842
 32
0.0
 13
384.361412379516
 23
1330.461615598842
 33
0.0
  0
SOLID
  5
503
330
4FD
100
AcDbEntity
  8
09-01
 62
     4
100
AcDbTrace
 10
521.8614123795159
 20
1332.544948932176
 30
0.0
 11
521.8614123795159
 21
1328.378282265509
 31
0.0
 12
534.3614123795159
 22
1330.461615598842
 32
0.0
 13
534.3614123795159
 23
1330.461615598842
 33
0.0
  0
MTEXT
  5
504
330
4FD
100
AcDbEntity
  8
09-01
 62
     1
100
AcDbMText
 10
459.3614123795159
 20
1341.711615598842
 30
0.0
 40
12.5
 41
0.0
 46
0.0
 71
     5
 72
     1
  1
150
 73
     1
 44
1.0
  0
POINT
  5
505
330
4FD
100
AcDbEntity
  8
Defpoints
 62
     0
100
AcDbPoint
 10
384.361412379516
 20
1286.818964076871
 30
0.0
  0
POINT
  5
506
330
4FD
100
AcDbEntity
  8
Defpoints
 62
     0
100
AcDbPoint
 10
534.3614123795159
 20
1287.818964076871
 30
0.0
  0
POINT
  5
507
330
4FD
100
AcDbEntity
  8
Defpoints
 62
     0
100
AcDbPoint
 10
534.3614123795159
 20
1330.461615598842
 30
0.0
  0
ENDBLK
  5
508
330
4FD
100
AcDbEntity
  8
0
100
AcDbBlockEnd
  0
BLOCK
  5
4F1
330
4F0
100
AcDbEntity
  8
0
100
AcDbBlockBegin
  2
*D2
 70
     1
 10
0.0
 20
0.0
 30
0.0
  3
*D2
  1

  0
LINE
  5
4F2
330
4F0
100
AcDbEntity
  8
09-01
 62
     4
370
    -2
100
AcDbLine
 10
379.361412379516
 20
1286.818964076871
 30
0.0
 11
347.955414193817
 21
1286.818964076871
 31
0.0
  0
LINE
  5
4F3
330
4F0
100
AcDbEntity
  8
09-01
 62
     4
370
    -2
100
AcDbLine
 10
379.361412379516
 20
941.3189640768719
 30
0.0
 11
347.955414193817
 21
941.3189640768719
 31
0.0
  0
LINE
  5
4F4
330
4F0
100
AcDbEntity
  8
09-01
 62
     4
370
    -2
100
AcDbLine
 10
352.9554141938171
 20
1274.318964076871
 30
0.0
 11
352.955414193817
 21
953.8189640768719
 31
0.0
  0
SOLID
  5
4F5
330
4F0
100
AcDbEntity
  8
09-01
 62
     4
100
AcDbTrace
 10
350.8720808604837
 20
1274.318964076871
 30
0.0
 11
355.0387475271504
 21
1274.318964076871
 31
0.0
 12
352.9554141938171
 22
1286.818964076871
 32
0.0
 13
352.9554141938171
 23
1286.818964076871
 33
0.0
  0
SOLID
  5
4F6
330
4F0
100
AcDbEntity
  8
09-01
 62
     4
100
AcDbTrace
 10
350.8720808604837
 20
953.8189640768719
 30
0.0
 11
355.0387475271503
 21
953.8189640768719
 31
0.0
 12
352.955414193817
 22
941.3189640768719
 32
0.0
 13
352.955414193817
 23
941.3189640768719
 33
0.0
  0
MTEXT
  5
4F7
330
4F0
100
AcDbEntity
  8
09-01
 62
     1
100
AcDbMText
 10
341.7054141938168
 20
1114.068964076871
 30
0.0
 40
12.5
 41
0.0
 46
0.0
 71
     5
 72
     1
  1
345.5
 11
0.0000000000000001
 21
1.0
 31
0.0
 73
     1
 44
1.0
  0
POINT
  5
4F8
330
4F0
100
AcDbEntity
  8
Defpoints
 62
     0
100
AcDbPoint
 10
384.361412379516
 20
1286.818964076871
 30
0.0
  0
POINT
  5
4F9
330
4F0
100
AcDbEntity
  8
Defpoints
 62
     0
100
AcDbPoint
 10
384.361412379516
 20
941.3189640768719
 30
0.0
  0
POINT
  5
4FA
330
4F0
100
AcDbEntity
  8
Defpoints
 62
     0
100
AcDbPoint
 10
352.955414193817
 20
941.3189640768719
 30
0.0
  0
ENDBLK
  5
4FB
330
4F0
100
AcDbEntity
  8
0
100
AcDbBlockEnd
  0
BLOCK
  5
4E4
330
4E3
100
AcDbEntity
  8
0
100
AcDbBlockBegin
  2
*D3
 70
     1
 10
0.0
 20
0.0
 30
0.0
  3
*D3
  1

  0
LINE
  5
4E5
330
4E3
100
AcDbEntity
  8
09-01
 62
     4
370
    -2
100
AcDbLine
 10
539.3614123795159
 20
1287.818964076871
 30
0.0
 11
609.6241996122373
 21
1287.818964076871
 31
0.0
  0
LINE
  5
4E6
330
4E3
100
AcDbEntity
  8
09-01
 62
     4
370
    -2
100
AcDbLine
 10
539.3614123795154
 20
892.8189640768714
 30
0.0
 11
609.6241996122371
 21
892.8189640768714
 31
0.0
  0
LINE
  5
4E7
330
4E3
100
AcDbEntity
  8
09-01
 62
     4
370
    -2
100
AcDbLine
 10
604.6241996122371
 20
1275.318964076871
 30
0.0
 11
604.6241996122371
 21
905.3189640768714
 31
0.0
  0
SOLID
  5
4E8
330
4E3
100
AcDbEntity
  8
09-01
 62
     4
100
AcDbTrace
 10
602.5408662789037
 20
1275.318964076871
 30
0.0
 11
606.7075329455705
 21
1275.318964076871
 31
0.0
 12
604.6241996122372
 22
1287.818964076871
 32
0.0
 13
604.6241996122372
 23
1287.818964076871
 33
0.0
  0
SOLID
  5
4E9
330
4E3
100
AcDbEntity
  8
09-01
 62
     4
100
AcDbTrace
 10
602.5408662789037
 20
905.3189640768714
 30
0.0
 11
606.7075329455705
 21
905.3189640768714
 31
0.0
 12
604.6241996122371
 22
892.8189640768714
 32
0.0
 13
604.6241996122371
 23
892.8189640768714
 33
0.0
  0
MTEXT
  5
4EA
330
4E3
100
AcDbEntity
  8
09-01
 62
     1
100
AcDbMText
 10
593.374199612237
 20
1090.318964076872
 30
0.0
 40
12.5
 41
0.0
 46
0.0
 71
     5
 72
     1
  1
395
 11
0.0000000000000001
 21
1.0
 31
0.0
 73
     1
 44
1.0
  0
POINT
  5
4EB
330
4E3
100
AcDbEntity
  8
Defpoints
 62
     0
100
AcDbPoint
 10
534.3614123795159
 20
1287.818964076871
 30
0.0
  0
POINT
  5
4EC
330
4E3
100
AcDbEntity
  8
Defpoints
 62
     0
100
AcDbPoint
 10
534.3614123795155
 20
892.8189640768714
 30
0.0
  0
POINT
  5
4ED
330
4E3
100
AcDbEntity
  8
Defpoints
 62
     0
100
AcDbPoint
 10
604.6241996122371
 20
892.8189640768714
 30
0.0
  0
ENDBLK
  5
4EE
330
4E3
100
AcDbEntity
  8
0
100
AcDbBlockEnd
  0
BLOCK
  5
3EE
330
3ED
100
AcDbEntity
  8
0
100
AcDbBlockBegin
  2
*D4
 70
     1
 10
0.0
 20
0.0
 30
0.0
  3
*D4
  1

  0
LINE
  5
3EF
330
3ED
100
AcDbEntity
  8
09-01
 62
     4
370
    -2
100
AcDbLine
 10
693.5764826606641
 20
1292.818964076871
 30
0.0
 11
693.5764826606641
 21
1360.710429201548
 31
0.0
  0
LINE
  5
3F0
330
3ED
100
AcDbEntity
  8
09-01
 62
     4
370
    -2
100
AcDbLine
 10
991.5764826606636
 20
1292.818964076871
 30
0.0
 11
991.5764826606636
 21
1360.710429201548
 31
0.0
  0
LINE
  5
3F1
330
3ED
100
AcDbEntity
  8
09-01
 62
     4
370
    -2
100
AcDbLine
 10
706.0764826606641
 20
1355.710429201548
 30
0.0
 11
979.0764826606636
 21
1355.710429201548
 31
0.0
  0
SOLID
  5
3F2
330
3ED
100
AcDbEntity
  8
09-01
 62
     4
100
AcDbTrace
 10
706.0764826606641
 20
1357.793762534881
 30
0.0
 11
706.0764826606641
 21
1353.627095868215
 31
0.0
 12
693.5764826606641
 22
1355.710429201548
 32
0.0
 13
693.5764826606641
 23
1355.710429201548
 33
0.0
  0
SOLID
  5
3F3
330
3ED
100
AcDbEntity
  8
09-01
 62
     4
100
AcDbTrace
 10
979.0764826606636
 20
1357.793762534881
 30
0.0
 11
979.0764826606636
 21
1353.627095868215
 31
0.0
 12
991.5764826606636
 22
1355.710429201548
 32
0.0
 13
991.5764826606636
 23
1355.710429201548
 33
0.0
  0
MTEXT
  5
3F4
330
3ED
100
AcDbEntity
  8
09-01
 62
     1
100
AcDbMText
 10
842.576482660664
 20
1366.960429201548
 30
0.0
 40
12.5
 41
0.0
 46
0.0
 71
     5
 72
     1
  1
298
 73
     1
 44
1.0
  0
POINT
  5
3F5
330
3ED
100
AcDbEntity
  8
Defpoints
 62
     0
100
AcDbPoint
 10
693.5764826606641
 20
1287.818964076871
 30
0.0
  0
POINT
  5
3F6
330
3ED
100
AcDbEntity
  8
Defpoints
 62
     0
100
AcDbPoint
 10
991.5764826606636
 20
1287.818964076871
 30
0.0
  0
POINT
  5
3F7
330
3ED
100
AcDbEntity
  8
Defpoints
 62
     0
100
AcDbPoint
 10
991.5764826606636
 20
1355.710429201548
 30
0.0
  0
ENDBLK
  5
3F8
330
3ED
100
AcDbEntity
  8
0
100
AcDbBlockEnd
  0
BLOCK
  5
3E1
330
3E0
100
AcDbEntity
  8
0
100
AcDbBlockBegin
  2
*D5
 70
     1
 10
0.0
 20
0.0
 30
0.0
  3
*D5
  1

  0
LINE
  5
3E2
330
3E0
100
AcDbEntity
  8
09-01
 62
     4
370
    -2
100
AcDbLine
 10
688.5764826606641
 20
808.4112480298127
 30
0.0
 11
663.0346915867086
 21
808.4112480298127
 31
0.0
  0
LINE
  5
3E3
330
3E0
100
AcDbEntity
  8
09-01
 62
     4
370
    -2
100
AcDbLine
 10
688.576482660665
 20
658.4112480298126
 30
0.0
 11
663.0346915867085
 21
658.4112480298126
 31
0.0
  0
LINE
  5
3E4
330
3E0
100
AcDbEntity
  8
09-01
 62
     4
370
    -2
100
AcDbLine
 10
668.0346915867086
 20
795.9112480298126
 30
0.0
 11
668.0346915867085
 21
670.9112480298126
 31
0.0
  0
SOLID
  5
3E5
330
3E0
100
AcDbEntity
  8
09-01
 62
     4
100
AcDbTrace
 10
665.9513582533752
 20
795.9112480298126
 30
0.0
 11
670.118024920042
 21
795.9112480298126
 31
0.0
 12
668.0346915867086
 22
808.4112480298127
 32
0.0
 13
668.0346915867086
 23
808.4112480298127
 33
0.0
  0
SOLID
  5
3E6
330
3E0
100
AcDbEntity
  8
09-01
 62
     4
100
AcDbTrace
 10
665.9513582533751
 20
670.9112480298126
 30
0.0
 11
670.1180249200419
 21
670.9112480298126
 31
0.0
 12
668.0346915867085
 22
658.4112480298126
 32
0.0
 13
668.0346915867085
 23
658.4112480298126
 33
0.0
  0
MTEXT
  5
3E7
330
3E0
100
AcDbEntity
  8
09-01
 62
     1
100
AcDbMText
 10
656.7846915867083
 20
733.4112480298127
 30
0.0
 40
12.5
 41
0.0
 46
0.0
 71
     5
 72
     1
  1
150
 11
0.0000000000000001
 21
1.0
 31
0.0
 73
     1
 44
1.0
  0
POINT
  5
3E8
330
3E0
100
AcDbEntity
  8
Defpoints
 62
     0
100
AcDbPoint
 10
693.5764826606641
 20
808.4112480298127
 30
0.0
  0
POINT
  5
3E9
330
3E0
100
AcDbEntity
  8
Defpoints
 62
     0
100
AcDbPoint
 10
693.576482660665
 20
658.4112480298126
 30
0.0
  0
POINT
  5
3EA
330
3E0
100
AcDbEntity
  8
Defpoints
 62
     0
100
AcDbPoint
 10
668.0346915867085
 20
658.4112480298126
 30
0.0
  0
ENDBLK
  5
3EB
330
3E0
100
AcDbEntity
  8
0
100
AcDbBlockEnd
  0
BLOCK
  5
3D4
330
3D3
100
AcDbEntity
  8
0
100
AcDbBlockBegin
  2
*D6
 70
     1
 10
0.0
 20
0.0
 30
0.0
  3
*D6
  1

  0
LINE
  5
3D5
330
3D3
100
AcDbEntity
  8
09-01
 62
     4
370
    -2
100
AcDbLine
 10
693.5764826606641
 20
813.4112480298126
 30
0.0
 11
693.5764826606641
 21
836.8138512321293
 31
0.0
  0
LINE
  5
3D6
330
3D3
100
AcDbEntity
  8
09-01
 62
     4
370
    -2
100
AcDbLine
 10
991.576482660665
 20
813.4112480298123
 30
0.0
 11
991.576482660665
 21
836.8138512321293
 31
0.0
  0
LINE
  5
3D7
330
3D3
100
AcDbEntity
  8
09-01
 62
     4
370
    -2
100
AcDbLine
 10
706.0764826606641
 20
831.8138512321294
 30
0.0
 11
979.076482660665
 21
831.8138512321294
 31
0.0
  0
SOLID
  5
3D8
330
3D3
100
AcDbEntity
  8
09-01
 62
     4
100
AcDbTrace
 10
706.0764826606641
 20
833.8971845654626
 30
0.0
 11
706.0764826606641
 21
829.730517898796
 31
0.0
 12
693.5764826606641
 22
831.8138512321294
 32
0.0
 13
693.5764826606641
 23
831.8138512321294
 33
0.0
  0
SOLID
  5
3D9
330
3D3
100
AcDbEntity
  8
09-01
 62
     4
100
AcDbTrace
 10
979.076482660665
 20
833.8971845654626
 30
0.0
 11
979.076482660665
 21
829.730517898796
 31
0.0
 12
991.576482660665
 22
831.8138512321294
 32
0.0
 13
991.576482660665
 23
831.8138512321294
 33
0.0
  0
MTEXT
  5
3DA
330
3D3
100
AcDbEntity
  8
09-01
 62
     1
100
AcDbMText
 10
842.5764826606647
 20
843.0638512321293
 30
0.0
 40
12.5
 41
0.0
 46
0.0
 71
     5
 72
     1
  1
298
 73
     1
 44
1.0
  0
POINT
  5
3DB
330
3D3
100
AcDbEntity
  8
Defpoints
 62
     0
100
AcDbPoint
 10
693.5764826606641
 20
808.4112480298127
 30
0.0
  0
POINT
  5
3DC
330
3D3
100
AcDbEntity
  8
Defpoints
 62
     0
100
AcDbPoint
 10
991.576482660665
 20
808.4112480298122
 30
0.0
  0
POINT
  5
3DD
330
3D3
100
AcDbEntity
  8
Defpoints
 62
     0
100
AcDbPoint
 10
991.576482660665
 20
831.8138512321294
 30
0.0
  0
ENDBLK
  5
3DE
330
3D3
100
AcDbEntity
  8
0
100
AcDbBlockEnd
  0
BLOCK
  5
3B3
330
3B2
100
AcDbEntity
  8
0
100
AcDbBlockBegin
  2
*D7
 70
     1
 10
0.0
 20
0.0
 30
0.0
  3
*D7
  1

  0
LINE
  5
3B4
330
3B2
100
AcDbEntity
  8
09-01
 62
     4
370
    -2
100
AcDbLine
 10
384.361412379516
 20
1291.818964076871
 30
0.0
 11
384.361412379516
 21
1313.313073166425
 31
0.0
  0
LINE
  5
3B5
330
3B2
100
AcDbEntity
  8
09-01
 62
     4
370
    -2
100
AcDbLine
 10
466.3614123795159
 20
1291.818964076871
 30
0.0
 11
466.3614123795159
 21
1313.313073166425
 31
0.0
  0
LINE
  5
3B6
330
3B2
100
AcDbEntity
  8
09-01
 62
     4
370
    -2
100
AcDbLine
 10
396.861412379516
 20
1308.313073166425
 30
0.0
 11
453.8614123795159
 21
1308.313073166425
 31
0.0
  0
SOLID
  5
3B7
330
3B2
100
AcDbEntity
  8
09-01
 62
     4
100
AcDbTrace
 10
396.861412379516
 20
1310.396406499759
 30
0.0
 11
396.861412379516
 21
1306.229739833092
 31
0.0
 12
384.361412379516
 22
1308.313073166425
 32
0.0
 13
384.361412379516
 23
1308.313073166425
 33
0.0
  0
SOLID
  5
3B8
330
3B2
100
AcDbEntity
  8
09-01
 62
     4
100
AcDbTrace
 10
453.8614123795159
 20
1310.396406499759
 30
0.0
 11
453.8614123795159
 21
1306.229739833092
 31
0.0
 12
466.3614123795159
 22
1308.313073166425
 32
0.0
 13
466.3614123795159
 23
1308.313073166425
 33
0.0
  0
MTEXT
  5
3B9
330
3B2
100
AcDbEntity
  8
09-01
 62
     1
100
AcDbMText
 10
425.3614123795159
 20
1319.563073166425
 30
0.0
 40
12.5
 41
0.0
 46
0.0
 71
     5
 72
     1
  1
82
 73
     1
 44
1.0
  0
POINT
  5
3BA
330
3B2
100
AcDbEntity
  8
Defpoints
 62
     0
100
AcDbPoint
 10
384.361412379516
 20
1286.818964076871
 30
0.0
  0
POINT
  5
3BB
330
3B2
100
AcDbEntity
  8
Defpoints
 62
     0
100
AcDbPoint
 10
466.3614123795159
 20
1286.818964076871
 30
0.0
  0
POINT
  5
3BC
330
3B2
100
AcDbEntity
  8
Defpoints
 62
     0
100
AcDbPoint
 10
466.3614123795159
 20
1308.313073166425
 30
0.0
  0
ENDBLK
  5
3BD
330
3B2
100
AcDbEntity
  8
0
100
AcDbBlockEnd
  0
BLOCK
  5
3A6
330
3A5
100
AcDbEntity
  8
0
100
AcDbBlockBegin
  2
*D8
 70
     1
 10
0.0
 20
0.0
 30
0.0
  3
*D8
  1

  0
LINE
  5
3A7
330
3A5
100
AcDbEntity
  8
09-01
 62
     4
370
    -2
100
AcDbLine
 10
466.3614123795159
 20
1292.818964076871
 30
0.0
 11
466.3614123795159
 21
1313.313073166425
 31
0.0
  0
LINE
  5
3A8
330
3A5
100
AcDbEntity
  8
09-01
 62
     4
370
    -2
100
AcDbLine
 10
534.3614123795159
 20
1292.818964076871
 30
0.0
 11
534.3614123795159
 21
1313.313073166425
 31
0.0
  0
LINE
  5
3A9
330
3A5
100
AcDbEntity
  8
09-01
 62
     4
370
    -2
100
AcDbLine
 10
478.8614123795159
 20
1308.313073166425
 30
0.0
 11
521.8614123795159
 21
1308.313073166425
 31
0.0
  0
SOLID
  5
3AA
330
3A5
100
AcDbEntity
  8
09-01
 62
     4
100
AcDbTrace
 10
478.8614123795159
 20
1310.396406499759
 30
0.0
 11
478.8614123795159
 21
1306.229739833092
 31
0.0
 12
466.3614123795159
 22
1308.313073166425
 32
0.0
 13
466.3614123795159
 23
1308.313073166425
 33
0.0
  0
SOLID
  5
3AB
330
3A5
100
AcDbEntity
  8
09-01
 62
     4
100
AcDbTrace
 10
521.8614123795159
 20
1310.396406499759
 30
0.0
 11
521.8614123795159
 21
1306.229739833092
 31
0.0
 12
534.3614123795159
 22
1308.313073166425
 32
0.0
 13
534.3614123795159
 23
1308.313073166425
 33
0.0
  0
MTEXT
  5
3AC
330
3A5
100
AcDbEntity
  8
09-01
 62
     1
100
AcDbMText
 10
500.3614123795159
 20
1319.563073166425
 30
0.0
 40
12.5
 41
0.0
 46
0.0
 71
     5
 72
     1
  1
68
 73
     1
 44
1.0
  0
POINT
  5
3AD
330
3A5
100
AcDbEntity
  8
Defpoints
 62
     0
100
AcDbPoint
 10
466.3614123795159
 20
1287.818964076871
 30
0.0
  0
POINT
  5
3AE
330
3A5
100
AcDbEntity
  8
Defpoints
 62
     0
100
AcDbPoint
 10
534.3614123795159
 20
1287.818964076871
 30
0.0
  0
POINT
  5
3AF
330
3A5
100
AcDbEntity
  8
Defpoints
 62
     0
100
AcDbPoint
 10
534.3614123795159
 20
1308.313073166425
 30
0.0
  0
ENDBLK
  5
3B0
330
3A5
100
AcDbEntity
  8
0
100
AcDbBlockEnd
  0
BLOCK
  5
37D
330
37C
100
AcDbEntity
  8
0
100
AcDbBlockBegin
  2
*D9
 70
     1
 10
0.0
 20
0.0
 30
0.0
  3
*D9
  1

  0
LINE
  5
37E
330
37C
100
AcDbEntity
  8
09-01
 62
     4
370
    -2
100
AcDbLine
 10
539.3614123795159
 20
1287.818964076871
 30
0.0
 11
573.266346135275
 21
1287.818964076871
 31
0.0
  0
LINE
  5
37F
330
37C
100
AcDbEntity
  8
09-01
 62
     4
370
    -2
100
AcDbLine
 10
516.8614123795159
 20
1237.818964076871
 30
0.0
 11
573.2663461352749
 21
1237.818964076871
 31
0.0
  0
LINE
  5
380
330
37C
100
AcDbEntity
  8
09-01
 62
     4
370
    -2
100
AcDbLine
 10
568.2663461352749
 20
1275.318964076871
 30
0.0
 11
568.2663461352749
 21
1250.318964076871
 31
0.0
  0
SOLID
  5
381
330
37C
100
AcDbEntity
  8
09-01
 62
     4
100
AcDbTrace
 10
566.1830128019415
 20
1275.318964076871
 30
0.0
 11
570.3496794686083
 21
1275.318964076871
 31
0.0
 12
568.266346135275
 22
1287.818964076871
 32
0.0
 13
568.266346135275
 23
1287.818964076871
 33
0.0
  0
SOLID
  5
382
330
37C
100
AcDbEntity
  8
09-01
 62
     4
100
AcDbTrace
 10
566.1830128019415
 20
1250.318964076871
 30
0.0
 11
570.3496794686083
 21
1250.318964076871
 31
0.0
 12
568.2663461352749
 22
1237.818964076871
 32
0.0
 13
568.2663461352749
 23
1237.818964076871
 33
0.0
  0
MTEXT
  5
383
330
37C
100
AcDbEntity
  8
09-01
 62
     1
100
AcDbMText
 10
557.0163461352747
 20
1262.818964076871
 30
0.0
 40
12.5
 41
0.0
 46
0.0
 71
     5
 72
     1
  1
50
 11
0.0000000000000001
 21
1.0
 31
0.0
 73
     1
 44
1.0
  0
POINT
  5
384
330
37C
100
AcDbEntity
  8
Defpoints
 62
     0
100
AcDbPoint
 10
534.3614123795159
 20
1287.818964076871
 30
0.0
  0
POINT
  5
385
330
37C
100
AcDbEntity
  8
Defpoints
 62
     0
100
AcDbPoint
 10
511.8614123795159
 20
1237.818964076871
 30
0.0
  0
POINT
  5
386
330
37C
100
AcDbEntity
  8
Defpoints
 62
     0
100
AcDbPoint
 10
568.2663461352749
 20
1237.818964076871
 30
0.0
  0
ENDBLK
  5
387
330
37C
100
AcDbEntity
  8
0
100
AcDbBlockEnd
  0
BLOCK
  5
370
330
36F
100
AcDbEntity
  8
0
100
AcDbBlockBegin
  2
*D10
 70
     1
 10
0.0
 20
0.0
 30
0.0
  3
*D10
  1

  0
LINE
  5
371
330
36F
100
AcDbEntity
  8
09-01
 62
     4
370
    -2
100
AcDbLine
 10
516.8614123795159
 20
1237.818964076871
 30
0.0
 11
573.2663461352749
 21
1237.818964076871
 31
0.0
  0
LINE
  5
372
330
36F
100
AcDbEntity
  8
09-01
 62
     4
370
    -2
100
AcDbLine
 10
516.8614123795159
 20
917.8189640768714
 30
0.0
 11
573.2663461352749
 21
917.8189640768714
 31
0.0
  0
LINE
  5
373
330
36F
100
AcDbEntity
  8
09-01
 62
     4
370
    -2
100
AcDbLine
 10
568.2663461352749
 20
1225.318964076871
 30
0.0
 11
568.2663461352749
 21
930.3189640768714
 31
0.0
  0
SOLID
  5
374
330
36F
100
AcDbEntity
  8
09-01
 62
     4
100
AcDbTrace
 10
566.1830128019415
 20
1225.318964076871
 30
0.0
 11
570.3496794686083
 21
1225.318964076871
 31
0.0
 12
568.2663461352749
 22
1237.818964076871
 32
0.0
 13
568.2663461352749
 23
1237.818964076871
 33
0.0
  0
SOLID
  5
375
330
36F
100
AcDbEntity
  8
09-01
 62
     4
100
AcDbTrace
 10
566.1830128019415
 20
930.3189640768714
 30
0.0
 11
570.3496794686083
 21
930.3189640768714
 31
0.0
 12
568.2663461352749
 22
917.8189640768714
 32
0.0
 13
568.2663461352749
 23
917.8189640768714
 33
0.0
  0
MTEXT
  5
376
330
36F
100
AcDbEntity
  8
09-01
 62
     1
100
AcDbMText
 10
557.0163461352747
 20
1077.818964076871
 30
0.0
 40
12.5
 41
0.0
 46
0.0
 71
     5
 72
     1
  1
320
 11
0.0000000000000001
 21
1.0
 31
0.0
 73
     1
 44
1.0
  0
POINT
  5
377
330
36F
100
AcDbEntity
  8
Defpoints
 62
     0
100
AcDbPoint
 10
511.8614123795159
 20
1237.818964076871
 30
0.0
  0
POINT
  5
378
330
36F
100
AcDbEntity
  8
Defpoints
 62
     0
100
AcDbPoint
 10
511.8614123795159
 20
917.8189640768714
 30
0.0
  0
POINT
  5
379
330
36F
100
AcDbEntity
  8
Defpoints
 62
     0
100
AcDbPoint
 10
568.2663461352749
 20
917.8189640768714
 30
0.0
  0
ENDBLK
  5
37A
330
36F
100
AcDbEntity
  8
0
100
AcDbBlockEnd
  0
BLOCK
  5
361
330
360
100
AcDbEntity
  8
0
100
AcDbBlockBegin
  2
*D11
 70
     1
 10
0.0
 20
0.0
 30
0.0
  3
*D11
  1

  0
LINE
  5
362
330
360
100
AcDbEntity
  8
09-01
 62
     4
370
    -2
100
AcDbLine
 10
506.361412379516
 20
1227.318964076871
 30
0.0
 11
506.361412379516
 21
1188.971623378924
 31
0.0
  0
LINE
  5
363
330
360
100
AcDbEntity
  8
09-01
 62
     4
370
    -2
100
AcDbLine
 10
534.3614123795163
 20
1232.818964076871
 30
0.0
 11
534.3614123795163
 21
1188.971623378924
 31
0.0
  0
LINE
  5
364
330
360
100
AcDbEntity
  8
09-01
 62
     4
370
    -2
100
AcDbLine
 10
493.861412379516
 20
1193.971623378923
 30
0.0
 11
481.361412379516
 21
1193.971623378923
 31
0.0
  0
LINE
  5
365
330
360
100
AcDbEntity
  8
09-01
 62
     4
370
    -2
100
AcDbLine
 10
546.8614123795163
 20
1193.971623378923
 30
0.0
 11
559.3614123795163
 21
1193.971623378923
 31
0.0
  0
LINE
  5
366
330
360
100
AcDbEntity
  8
09-01
 62
     4
370
    -2
100
AcDbLine
 10
506.361412379516
 20
1193.971623378923
 30
0.0
 11
534.3614123795163
 21
1193.971623378923
 31
0.0
  0
SOLID
  5
367
330
360
100
AcDbEntity
  8
09-01
 62
     4
100
AcDbTrace
 10
493.861412379516
 20
1196.054956712257
 30
0.0
 11
493.861412379516
 21
1191.88829004559
 31
0.0
 12
506.361412379516
 22
1193.971623378923
 32
0.0
 13
506.361412379516
 23
1193.971623378923
 33
0.0
  0
SOLID
  5
368
330
360
100
AcDbEntity
  8
09-01
 62
     4
100
AcDbTrace
 10
546.8614123795163
 20
1196.054956712257
 30
0.0
 11
546.8614123795163
 21
1191.88829004559
 31
0.0
 12
534.3614123795163
 22
1193.971623378923
 32
0.0
 13
534.3614123795163
 23
1193.971623378923
 33
0.0
  0
MTEXT
  5
369
330
360
100
AcDbEntity
  8
09-01
 62
     1
100
AcDbMText
 10
520.3614123795161
 20
1205.221623378923
 30
0.0
 40
12.5
 41
0.0
 46
0.0
 71
     5
 72
     1
  1
28
 73
     1
 44
1.0
  0
POINT
  5
36A
330
360
100
AcDbEntity
  8
Defpoints
 62
     0
100
AcDbPoint
 10
506.361412379516
 20
1232.318964076871
 30
0.0
  0
POINT
  5
36B
330
360
100
AcDbEntity
  8
Defpoints
 62
     0
100
AcDbPoint
 10
534.3614123795163
 20
1237.818964076871
 30
0.0
  0
POINT
  5
36C
330
360
100
AcDbEntity
  8
Defpoints
 62
     0
100
AcDbPoint
 10
534.3614123795163
 20
1193.971623378923
 30
0.0
  0
ENDBLK
  5
36D
330
360
100
AcDbEntity
  8
0
100
AcDbBlockEnd
  0
BLOCK
  5
352
330
351
100
AcDbEntity
  8
0
100
AcDbBlockBegin
  2
*D12
 70
     1
 10
0.0
 20
0.0
 30
0.0
  3
*D12
  1

  0
LINE
  5
353
330
351
100
AcDbEntity
  8
09-01
 62
     4
370
    -2
100
AcDbLine
 10
503.8614123795159
 20
1242.818964076871
 30
0.0
 11
503.8614123795159
 21
1256.944167185147
 31
0.0
  0
LINE
  5
354
330
351
100
AcDbEntity
  8
09-01
 62
     4
370
    -2
100
AcDbLine
 10
508.8614123795159
 20
1242.818964076871
 30
0.0
 11
508.8614123795159
 21
1256.944167185147
 31
0.0
  0
LINE
  5
355
330
351
100
AcDbEntity
  8
09-01
 62
     4
370
    -2
100
AcDbLine
 10
491.3614123795159
 20
1251.944167185147
 30
0.0
 11
478.8614123795159
 21
1251.944167185147
 31
0.0
  0
LINE
  5
356
330
351
100
AcDbEntity
  8
09-01
 62
     4
370
    -2
100
AcDbLine
 10
521.3614123795159
 20
1251.944167185147
 30
0.0
 11
533.8614123795159
 21
1251.944167185147
 31
0.0
  0
MTEXT
  5
357
330
351
100
AcDbEntity
  8
09-01
 62
     1
100
AcDbMText
 10
484.5270798772653
 20
1261.562547501487
 30
0.0
 40
12.5
 41
0.0
 46
0.0
 71
     5
 72
     1
  1
5
 73
     1
 44
1.0
  0
LINE
  5
358
330
351
100
AcDbEntity
  8
09-01
 62
     4
370
    -2
100
AcDbLine
 10
503.8614123795159
 20
1251.944167185147
 30
0.0
 11
508.8614123795159
 21
1251.944167185147
 31
0.0
  0
SOLID
  5
359
330
351
100
AcDbEntity
  8
09-01
 62
     4
100
AcDbTrace
 10
491.3614123795159
 20
1254.02750051848
 30
0.0
 11
491.3614123795159
 21
1249.860833851814
 31
0.0
 12
503.8614123795159
 22
1251.944167185147
 32
0.0
 13
503.8614123795159
 23
1251.944167185147
 33
0.0
  0
SOLID
  5
35A
330
351
100
AcDbEntity
  8
09-01
 62
     4
100
AcDbTrace
 10
521.3614123795159
 20
1254.02750051848
 30
0.0
 11
521.3614123795159
 21
1249.860833851814
 31
0.0
 12
508.8614123795159
 22
1251.944167185147
 32
0.0
 13
508.8614123795159
 23
1251.944167185147
 33
0.0
  0
POINT
  5
35B
330
351
100
AcDbEntity
  8
Defpoints
 62
     0
100
AcDbPoint
 10
503.8614123795159
 20
1237.818964076871
 30
0.0
  0
POINT
  5
35C
330
351
100
AcDbEntity
  8
Defpoints
 62
     0
100
AcDbPoint
 10
508.8614123795159
 20
1237.818964076871
 30
0.0
  0
POINT
  5
35D
330
351
100
AcDbEntity
  8
Defpoints
 62
     0
100
AcDbPoint
 10
508.8614123795159
 20
1251.944167185147
 30
0.0
  0
ENDBLK
  5
35E
330
351
100
AcDbEntity
  8
0
100
AcDbBlockEnd
  0
BLOCK
  5
343
330
342
100
AcDbEntity
  8
0
100
AcDbBlockBegin
  2
*D13
 70
     1
 10
0.0
 20
0.0
 30
0.0
  3
*D13
  1

  0
LINE
  5
344
330
342
100
AcDbEntity
  8
09-01
 62
     4
370
    -2
100
AcDbLine
 10
693.5764826606641
 20
1169.900545588405
 30
0.0
 11
693.5764826606641
 21
1130.893431705504
 31
0.0
  0
LINE
  5
345
330
342
100
AcDbEntity
  8
09-01
 62
     4
370
    -2
100
AcDbLine
 10
707.5764826606636
 20
1177.81896407687
 30
0.0
 11
707.5764826606636
 21
1130.893431705504
 31
0.0
  0
LINE
  5
346
330
342
100
AcDbEntity
  8
09-01
 62
     4
370
    -2
100
AcDbLine
 10
681.0764826606641
 20
1135.893431705504
 30
0.0
 11
668.5764826606641
 21
1135.893431705504
 31
0.0
  0
LINE
  5
347
330
342
100
AcDbEntity
  8
09-01
 62
     4
370
    -2
100
AcDbLine
 10
720.0764826606636
 20
1135.893431705504
 30
0.0
 11
732.5764826606636
 21
1135.893431705504
 31
0.0
  0
MTEXT
  5
348
330
342
100
AcDbEntity
  8
09-01
 62
     1
100
AcDbMText
 10
671.8215232523689
 20
1145.871997427469
 30
0.0
 40
12.5
 41
0.0
 46
0.0
 71
     5
 72
     1
  1
14
 73
     1
 44
1.0
  0
LINE
  5
349
330
342
100
AcDbEntity
  8
09-01
 62
     4
370
    -2
100
AcDbLine
 10
693.5764826606641
 20
1135.893431705504
 30
0.0
 11
707.5764826606636
 21
1135.893431705504
 31
0.0
  0
SOLID
  5
34A
330
342
100
AcDbEntity
  8
09-01
 62
     4
100
AcDbTrace
 10
681.0764826606641
 20
1137.976765038837
 30
0.0
 11
681.0764826606641
 21
1133.810098372171
 31
0.0
 12
693.5764826606641
 22
1135.893431705504
 32
0.0
 13
693.5764826606641
 23
1135.893431705504
 33
0.0
  0
SOLID
  5
34B
330
342
100
AcDbEntity
  8
09-01
 62
     4
100
AcDbTrace
 10
720.0764826606636
 20
1137.976765038837
 30
0.0
 11
720.0764826606636
 21
1133.810098372171
 31
0.0
 12
707.5764826606636
 22
1135.893431705504
 32
0.0
 13
707.5764826606636
 23
1135.893431705504
 33
0.0
  0
POINT
  5
34C
330
342
100
AcDbEntity
  8
Defpoints
 62
     0
100
AcDbPoint
 10
693.5764826606641
 20
1174.900545588405
 30
0.0
  0
POINT
  5
34D
330
342
100
AcDbEntity
  8
Defpoints
 62
     0
100
AcDbPoint
 10
707.5764826606636
 20
1182.81896407687
 30
0.0
  0
POINT
  5
34E
330
342
100
AcDbEntity
  8
Defpoints
 62
     0
100
AcDbPoint
 10
707.5764826606636
 20
1135.893431705504
 30
0.0
  0
ENDBLK
  5
34F
330
342
100
AcDbEntity
  8
0
100
AcDbBlockEnd
  0
BLOCK
  5
334
330
333
100
AcDbEntity
  8
0
100
AcDbBlockBegin
  2
*D14
 70
     1
 10
0.0
 20
0.0
 30
0.0
  3
*D14
  1

  0
LINE
  5
335
330
333
100
AcDbEntity
  8
09-01
 62
     4
370
    -2
100
AcDbLine
 10
688.5764826606641
 20
1287.818964076871
 30
0.0
 11
663.6446317829723
 21
1287.818964076871
 31
0.0
  0
LINE
  5
336
330
333
100
AcDbEntity
  8
09-01
 62
     4
370
    -2
100
AcDbLine
 10
712.5764826606646
 20
1269.81896407687
 30
0.0
 11
663.6446317829722
 21
1269.81896407687
 31
0.0
  0
LINE
  5
337
330
333
100
AcDbEntity
  8
09-01
 62
     4
370
    -2
100
AcDbLine
 10
668.6446317829724
 20
1300.318964076871
 30
0.0
 11
668.6446317829724
 21
1312.818964076871
 31
0.0
  0
LINE
  5
338
330
333
100
AcDbEntity
  8
09-01
 62
     4
370
    -2
100
AcDbLine
 10
668.6446317829722
 20
1257.31896407687
 30
0.0
 11
668.6446317829722
 21
1244.81896407687
 31
0.0
  0
LINE
  5
339
330
333
100
AcDbEntity
  8
09-01
 62
     4
370
    -2
100
AcDbLine
 10
668.6446317829724
 20
1287.818964076871
 30
0.0
 11
668.6446317829722
 21
1269.81896407687
 31
0.0
  0
SOLID
  5
33A
330
333
100
AcDbEntity
  8
09-01
 62
     4
100
AcDbTrace
 10
666.561298449639
 20
1300.318964076871
 30
0.0
 11
670.7279651163057
 21
1300.318964076871
 31
0.0
 12
668.6446317829724
 22
1287.818964076871
 32
0.0
 13
668.6446317829724
 23
1287.818964076871
 33
0.0
  0
SOLID
  5
33B
330
333
100
AcDbEntity
  8
09-01
 62
     4
100
AcDbTrace
 10
666.5612984496389
 20
1257.31896407687
 30
0.0
 11
670.7279651163056
 21
1257.31896407687
 31
0.0
 12
668.6446317829722
 22
1269.81896407687
 32
0.0
 13
668.6446317829722
 23
1269.81896407687
 33
0.0
  0
MTEXT
  5
33C
330
333
100
AcDbEntity
  8
09-01
 62
     1
100
AcDbMText
 10
657.3946317829721
 20
1278.818964076871
 30
0.0
 40
12.5
 41
0.0
 46
0.0
 71
     5
 72
     1
  1
18
 11
0.0000000000000001
 21
1.0
 31
0.0
 73
     1
 44
1.0
  0
POINT
  5
33D
330
333
100
AcDbEntity
  8
Defpoints
 62
     0
100
AcDbPoint
 10
693.5764826606641
 20
1287.818964076871
 30
0.0
  0
POINT
  5
33E
330
333
100
AcDbEntity
  8
Defpoints
 62
     0
100
AcDbPoint
 10
717.5764826606646
 20
1269.81896407687
 30
0.0
  0
POINT
  5
33F
330
333
100
AcDbEntity
  8
Defpoints
 62
     0
100
AcDbPoint
 10
668.6446317829722
 20
1269.81896407687
 30
0.0
  0
ENDBLK
  5
340
330
333
100
AcDbEntity
  8
0
100
AcDbBlockEnd
  0
BLOCK
  5
327
330
326
100
AcDbEntity
  8
0
100
AcDbBlockBegin
  2
*D15
 70
     1
 10
0.0
 20
0.0
 30
0.0
  3
*D15
  1

  0
LINE
  5
328
330
326
100
AcDbEntity
  8
09-01
 62
     4
370
    -2
100
AcDbLine
 10
712.5764826606646
 20
1269.81896407687
 30
0.0
 11
663.6446317829722
 21
1269.81896407687
 31
0.0
  0
LINE
  5
329
330
326
100
AcDbEntity
  8
09-01
 62
     4
370
    -2
100
AcDbLine
 10
712.5764826606637
 20
1172.81896407687
 30
0.0
 11
663.6446317829722
 21
1172.81896407687
 31
0.0
  0
LINE
  5
32A
330
326
100
AcDbEntity
  8
09-01
 62
     4
370
    -2
100
AcDbLine
 10
668.6446317829722
 20
1257.31896407687
 30
0.0
 11
668.6446317829722
 21
1185.31896407687
 31
0.0
  0
SOLID
  5
32B
330
326
100
AcDbEntity
  8
09-01
 62
     4
100
AcDbTrace
 10
666.5612984496389
 20
1257.31896407687
 30
0.0
 11
670.7279651163056
 21
1257.31896407687
 31
0.0
 12
668.6446317829722
 22
1269.81896407687
 32
0.0
 13
668.6446317829722
 23
1269.81896407687
 33
0.0
  0
SOLID
  5
32C
330
326
100
AcDbEntity
  8
09-01
 62
     4
100
AcDbTrace
 10
666.5612984496389
 20
1185.31896407687
 30
0.0
 11
670.7279651163056
 21
1185.31896407687
 31
0.0
 12
668.6446317829722
 22
1172.81896407687
 32
0.0
 13
668.6446317829722
 23
1172.81896407687
 33
0.0
  0
MTEXT
  5
32D
330
326
100
AcDbEntity
  8
09-01
 62
     1
100
AcDbMText
 10
657.3946317829721
 20
1221.318964076871
 30
0.0
 40
12.5
 41
0.0
 46
0.0
 71
     5
 72
     1
  1
97
 11
0.0000000000000001
 21
1.0
 31
0.0
 73
     1
 44
1.0
  0
POINT
  5
32E
330
326
100
AcDbEntity
  8
Defpoints
 62
     0
100
AcDbPoint
 10
717.5764826606646
 20
1269.81896407687
 30
0.0
  0
POINT
  5
32F
330
326
100
AcDbEntity
  8
Defpoints
 62
     0
100
AcDbPoint
 10
717.5764826606637
 20
1172.81896407687
 30
0.0
  0
POINT
  5
330
330
326
100
AcDbEntity
  8
Defpoints
 62
     0
100
AcDbPoint
 10
668.6446317829722
 20
1172.81896407687
 30
0.0
  0
ENDBLK
  5
331
330
326
100
AcDbEntity
  8
0
100
AcDbBlockEnd
  0
BLOCK
  5
30F
330
30E
100
AcDbEntity
  8
0
100
AcDbBlockBegin
  2
*D16
 70
     1
 10
0.0
 20
0.0
 30
0.0
  3
*D16
  1

  0
LINE
  5
310
330
30E
100
AcDbEntity
  8
09-01
 62
     4
370
    -2
100
AcDbLine
 10
707.5764826606636
 20
1172.81896407687
 30
0.0
 11
707.5764826606636
 21
1130.893431705504
 31
0.0
  0
LINE
  5
311
330
30E
100
AcDbEntity
  8
09-01
 62
     4
370
    -2
100
AcDbLine
 10
789.0358876026785
 20
1254.81896407687
 30
0.0
 11
789.0358876026785
 21
1130.893431705504
 31
0.0
  0
LINE
  5
312
330
30E
100
AcDbEntity
  8
09-01
 62
     4
370
    -2
100
AcDbLine
 10
720.0764826606636
 20
1135.893431705504
 30
0.0
 11
776.5358876026785
 21
1135.893431705504
 31
0.0
  0
SOLID
  5
313
330
30E
100
AcDbEntity
  8
09-01
 62
     4
100
AcDbTrace
 10
720.0764826606636
 20
1137.976765038837
 30
0.0
 11
720.0764826606636
 21
1133.810098372171
 31
0.0
 12
707.5764826606636
 22
1135.893431705504
 32
0.0
 13
707.5764826606636
 23
1135.893431705504
 33
0.0
  0
SOLID
  5
314
330
30E
100
AcDbEntity
  8
09-01
 62
     4
100
AcDbTrace
 10
776.5358876026785
 20
1137.976765038837
 30
0.0
 11
776.5358876026785
 21
1133.810098372171
 31
0.0
 12
789.0358876026785
 22
1135.893431705504
 32
0.0
 13
789.0358876026785
 23
1135.893431705504
 33
0.0
  0
MTEXT
  5
315
330
30E
100
AcDbEntity
  8
09-01
 62
     1
100
AcDbMText
 10
748.3061851316711
 20
1147.143431705504
 30
0.0
 40
12.5
 41
0.0
 46
0.0
 71
     5
 72
     1
  1
81.5
 73
     1
 44
1.0
  0
POINT
  5
316
330
30E
100
AcDbEntity
  8
Defpoints
 62
     0
100
AcDbPoint
 10
707.5764826606636
 20
1177.81896407687
 30
0.0
  0
POINT
  5
317
330
30E
100
AcDbEntity
  8
Defpoints
 62
     0
100
AcDbPoint
 10
789.0358876026785
 20
1259.81896407687
 30
0.0
  0
POINT
  5
318
330
30E
100
AcDbEntity
  8
Defpoints
 62
     0
100
AcDbPoint
 10
789.0358876026785
 20
1135.893431705504
 30
0.0
  0
ENDBLK
  5
319
330
30E
100
AcDbEntity
  8
0
100
AcDbBlockEnd
  0
BLOCK
  5
105
330
104
100
AcDbEntity
  8
0
100
AcDbBlockBegin
  2
*D17
 70
     1
 10
0.0
 20
0.0
 30
0.0
  3
*D17
  1

  0
LINE
  5
106
330
104
100
AcDbEntity
  8
09-01
 62
     4
370
    -2
100
AcDbLine
 10
275.3875416357582
 20
1282.818964076871
 30
0.0
 11
275.3875416357582
 21
1190.173940047889
 31
0.0
  0
LINE
  5
107
330
104
100
AcDbEntity
  8
09-01
 62
     4
370
    -2
100
AcDbLine
 10
207.3875416357578
 20
1282.818964076871
 30
0.0
 11
207.3875416357578
 21
1190.173940047889
 31
0.0
  0
LINE
  5
108
330
104
100
AcDbEntity
  8
09-01
 62
     4
370
    -2
100
AcDbLine
 10
262.8875416357582
 20
1195.173940047889
 30
0.0
 11
219.8875416357578
 21
1195.173940047889
 31
0.0
  0
SOLID
  5
109
330
104
100
AcDbEntity
  8
09-01
 62
     4
100
AcDbTrace
 10
262.8875416357582
 20
1197.257273381222
 30
0.0
 11
262.8875416357582
 21
1193.090606714556
 31
0.0
 12
275.3875416357582
 22
1195.173940047889
 32
0.0
 13
275.3875416357582
 23
1195.173940047889
 33
0.0
  0
SOLID
  5
10A
330
104
100
AcDbEntity
  8
09-01
 62
     4
100
AcDbTrace
 10
219.8875416357578
 20
1197.257273381222
 30
0.0
 11
219.8875416357578
 21
1193.090606714556
 31
0.0
 12
207.3875416357578
 22
1195.173940047889
 32
0.0
 13
207.3875416357578
 23
1195.173940047889
 33
0.0
  0
MTEXT
  5
10B
330
104
100
AcDbEntity
  8
09-01
 62
     1
100
AcDbMText
 10
241.387541635758
 20
1206.423940047889
 30
0.0
 40
12.5
 41
0.0
 46
0.0
 71
     5
 72
     1
  1
68
 73
     1
 44
1.0
  0
POINT
  5
10C
330
104
100
AcDbEntity
  8
Defpoints
 62
     0
100
AcDbPoint
 10
275.3875416357582
 20
1287.818964076871
 30
0.0
  0
POINT
  5
10E
330
104
100
AcDbEntity
  8
Defpoints
 62
     0
100
AcDbPoint
 10
207.3875416357578
 20
1287.818964076871
 30
0.0
  0
POINT
  5
10F
330
104
100
AcDbEntity
  8
Defpoints
 62
     0
100
AcDbPoint
 10
207.3875416357578
 20
1195.173940047889
 30
0.0
  0
ENDBLK
  5
110
330
104
100
AcDbEntity
  8
0
100
AcDbBlockEnd
  0
BLOCK
  5
7B
330
78
100
AcDbEntity
  8
0
100
AcDbBlockBegin
  2
DIN A4
 70
     2
 10
0.0
 20
0.0
 30
0.0
  3
DIN A4
  1

  0
LINE
  5
7C
330
78
100
AcDbEntity
  8
01-99
100
AcDbLine
 10
204.0000075739527
 20
290.9999979434973
 30
0.0
 11
20.0000075739529
 21
290.9999979434973
 31
0.0
  0
LINE
  5
80
330
78
100
AcDbEntity
  8
01-99
100
AcDbLine
 10
204.0000075122353
 20
290.9999979871026
 30
0.0
 11
204.0000075122355
 21
5.999997987102574
 31
0.0
  0
LINE
  5
81
330
78
100
AcDbEntity
  8
01-99
100
AcDbLine
 10
20.0000075122355
 20
5.99999798710246
 30
0.0
 11
20.0000075122355
 21
290.9999979871026
 31
0.0
  0
LWPOLYLINE
  5
82
330
78
100
AcDbEntity
  8
02-99
100
AcDbPolyline
 90
        4
 70
     1
 43
0.0
 10
0.0000075122354986
 20
-0.0000020128974256
 10
210.0000075122355
 20
-0.0000020128974256
 10
210.0000075122355
 20
296.9999979871026
 10
0.0000075122354986
 20
296.9999979871026
  0
LINE
  5
86
330
78
100
AcDbEntity
  8
01-99
100
AcDbLine
 10
20.0000075122355
 20
5.99999798710246
 30
0.0
 11
204.0000075122355
 21
5.999997987102631
 31
0.0
  0
LINE
  5
87
330
78
100
AcDbEntity
  8
01-99
100
AcDbLine
 10
70.0000075122355
 20
11.11110909810247
 30
0.0
 11
20.0000075122355
 21
11.11110909810247
 31
0.0
  0
LINE
  5
88
330
78
100
AcDbEntity
  8
01-99
100
AcDbLine
 10
70.0000075122355
 20
16.22222020910249
 30
0.0
 11
20.0000075122355
 21
16.22222020910249
 31
0.0
  0
LINE
  5
89
330
78
100
AcDbEntity
  8
01-99
100
AcDbLine
 10
70.0000075122355
 20
21.3333313201025
 30
0.0
 11
20.0000075122355
 21
21.33333132010244
 31
0.0
  0
LINE
  5
8A
330
78
100
AcDbEntity
  8
01-99
100
AcDbLine
 10
115.0000075122355
 20
26.44444243110252
 30
0.0
 11
20.0000075122355
 21
26.44444243110246
 31
0.0
  0
LINE
  5
8B
330
78
100
AcDbEntity
  8
01-99
100
AcDbLine
 10
115.0000075122355
 20
31.55555354210253
 30
0.0
 11
20.0000075122355
 21
31.55555354210247
 31
0.0
  0
LINE
  5
8C
330
78
100
AcDbEntity
  8
01-99
100
AcDbLine
 10
45.0000075122355
 20
5.99999798710246
 30
0.0
 11
45.0000075122355
 21
11.11110909810247
 31
0.0
  0
LINE
  5
8D
330
78
100
AcDbEntity
  8
01-99
100
AcDbLine
 10
28.0000075122355
 20
11.11110909810247
 30
0.0
 11
28.0000075122355
 21
36.66666465376915
 31
0.0
  0
LINE
  5
8E
330
78
100
AcDbEntity
  8
01-99
100
AcDbLine
 10
70.0000075122355
 20
5.99999798710246
 30
0.0
 11
70.0000075122355
 21
51.99999798710246
 31
0.0
  0
LINE
  5
8F
330
78
100
AcDbEntity
  8
01-99
100
AcDbLine
 10
115.0000075122355
 20
5.99999798710246
 30
0.0
 11
115.0000075122355
 21
51.99999798710246
 31
0.0
  0
LINE
  5
90
330
78
100
AcDbEntity
  8
01-99
100
AcDbLine
 10
144.5000075122355
 20
5.99999798710246
 30
0.0
 11
144.5000075122355
 21
16.22222020910254
 31
0.0
  0
LINE
  5
91
330
78
100
AcDbEntity
  8
01-99
100
AcDbLine
 10
177.0000075122355
 20
5.99999798710246
 30
0.0
 11
177.0000075122355
 21
16.2222202091026
 31
0.0
  0
LINE
  5
92
330
78
100
AcDbEntity
  8
01-99
100
AcDbLine
 10
148.5000075122355
 20
36.6666646537692
 30
0.0
 11
148.5000075122355
 21
51.99999798710257
 31
0.0
  0
LINE
  5
93
330
78
100
AcDbEntity
  8
01-99
100
AcDbLine
 10
182.0000075122355
 20
36.6666646537692
 30
0.0
 11
182.0000075122355
 21
51.99999798710257
 31
0.0
  0
LINE
  5
94
330
78
100
AcDbEntity
  8
01-99
100
AcDbLine
 10
78.00000751223549
 20
21.33333132043583
 30
0.0
 11
78.00000751223549
 21
36.6666646537692
 31
0.0
  0
LINE
  5
95
330
78
100
AcDbEntity
  8
01-99
100
AcDbLine
 10
60.00319585166497
 20
11.11110909810247
 30
0.0
 11
60.00319585166497
 21
36.66666465376915
 31
0.0
  0
LINE
  5
96
330
78
100
AcDbEntity
  8
01-99
100
AcDbLine
 10
48.00319585166497
 20
11.11110909810247
 30
0.0
 11
48.00319585166497
 21
36.66666465376915
 31
0.0
  0
LINE
  5
97
330
78
100
AcDbEntity
  8
01-99
100
AcDbLine
 10
204.0000075122355
 20
51.99999798710257
 30
0.0
 11
20.00000751223368
 21
51.99999798710246
 31
0.0
  0
LINE
  5
98
330
78
100
AcDbEntity
  8
01-99
100
AcDbLine
 10
115.0000075122355
 20
21.33333132043583
 30
0.0
 11
70.0000075122355
 21
21.33333132043583
 31
0.0
  0
LINE
  5
99
330
78
100
AcDbEntity
  8
01-99
100
AcDbLine
 10
115.0000075122355
 20
36.6666646537692
 30
0.0
 11
20.0000075122355
 21
36.66666465376909
 31
0.0
  0
LINE
  5
9A
330
78
100
AcDbEntity
  8
01-99
100
AcDbLine
 10
92.0000075122355
 20
21.33333132043583
 30
0.0
 11
92.0000075122355
 21
51.99999798710251
 31
0.0
  0
LINE
  5
9B
330
78
100
AcDbEntity
  8
01-99
100
AcDbLine
 10
70.0000075122355
 20
36.66666465376915
 30
0.0
 11
78.00000751223549
 21
31.55555355376919
 31
0.0
  0
LINE
  5
9C
330
78
100
AcDbEntity
  8
01-99
100
AcDbLine
 10
70.0000075122355
 20
31.55555355376919
 30
0.0
 11
78.00000751223549
 21
36.6666646537692
 31
0.0
  0
LINE
  5
9D
330
78
100
AcDbEntity
  8
01-99
100
AcDbLine
 10
204.0000075122355
 20
44.33333132043583
 30
0.0
 11
115.0000075122355
 21
44.33333132043578
 31
0.0
  0
LINE
  5
9E
330
78
100
AcDbEntity
  8
01-99
100
AcDbLine
 10
115.0000075122355
 20
16.22222020910249
 30
0.0
 11
204.0000075122355
 21
16.2222202091026
 31
0.0
  0
LINE
  5
9F
330
78
100
AcDbEntity
  8
01-99
100
AcDbLine
 10
115.0000075122355
 20
36.6666646537692
 30
0.0
 11
204.0000075122355
 21
36.66666465376926
 31
0.0
  0
LINE
  5
A0
330
78
100
AcDbEntity
  8
01-99
100
AcDbLine
 10
92.0000075122355
 20
41.77777576510249
 30
0.0
 11
70.0000075122355
 21
41.77777576510249
 31
0.0
  0
LINE
  5
A1
330
78
100
AcDbEntity
  8
01-99
100
AcDbLine
 10
92.0000075122355
 20
46.8888868761025
 30
0.0
 11
70.0000075122355
 21
46.88888687610244
 31
0.0
  0
LINE
  5
A2
330
78
100
AcDbEntity
  8
01-99
100
AcDbLine
 10
20.00000751223368
 20
51.99999798710246
 30
0.0
 11
20.00000751223368
 21
5.99999798710246
 31
0.0
  0
TEXT
  5
A3
330
78
100
AcDbEntity
  8
08-99
100
AcDbText
 10
116.4997086805418
 20
32.66987169496042
 30
0.0
 40
2.5
  1
Benennung/Teil:
 51
15.0
  7
ROMANS8
100
AcDbText
  0
TEXT
  5
A8
330
78
100
AcDbEntity
  8
08-99
100
AcDbText
 10
178.5028349598029
 20
12.01760068133313
 30
0.0
 40
2.7
  1
Ident-Nr.
 51
15.0
  7
ROMANS8
100
AcDbText
  0
TEXT
  5
A9
330
78
100
AcDbEntity
  8
08-99
100
AcDbText
 10
93.50002924540357
 20
33.0555749488849
 30
0.0
 40
2.5
  1
Name:
 51
15.0
  7
ROMANS8
100
AcDbText
  0
TEXT
  5
AA
330
78
100
AcDbEntity
  8
08-99
100
AcDbText
 10
79.50777665478042
 20
33.04841594810694
 30
0.0
 40
2.5
  1
Datum:
 50
0.102528160689452
 41
0.8933771909280748
 51
15.0
  7
ROMANS8
 72
     5
 11
90.67497366186243
 21
33.06839915456692
 31
0.0
100
AcDbText
  0
TEXT
  5
AB
330
78
100
AcDbEntity
  8
08-99
100
AcDbText
 10
29.50001559397086
 20
33.05597508608236
 30
0.0
 40
1.6
  1
Änderung:
 51
15.0
  7
ROMANS8
100
AcDbText
  0
TEXT
  5
AC
330
78
100
AcDbEntity
  8
08-99
100
AcDbText
 10
46.49994558798837
 20
9.111117286264914
 30
0.0
 40
1.0
  1
ERSETZT.DURCH:
 51
15.0
  7
ROMANS8
100
AcDbText
  0
TEXT
  5
AD
330
78
100
AcDbEntity
  8
08-99
100
AcDbText
 10
21.49936832790721
 20
9.110852190038713
 30
0.0
 40
1.0
  1
ERSETZT.FÜR:
 51
15.0
  7
ROMANS8
100
AcDbText
  0
TEXT
  5
AE
330
78
100
AcDbEntity
  8
08-99
100
AcDbText
 10
145.9909143543897
 20
12.61295485116625
 30
0.0
 40
2.112
  1
AUFTRAGS.NR.:
 51
15.0
  7
ROMANS8
100
AcDbText
  0
TEXT
  5
AF
330
78
100
AcDbEntity
  8
08-99
100
AcDbText
 10
116.5034717172479
 20
12.61092664313281
 30
0.0
 40
2.112
  1
Sonder-Nr:
 51
15.0
  7
ROMANS8
100
AcDbText
  0
TEXT
  5
B0
330
78
100
AcDbEntity
  8
08-99
100
AcDbText
 10
99.69631500731376
 20
49.92370649414477
 30
0.0
 40
1.349999999999999
  1
Format
 51
15.0
  7
ROMANS8
100
AcDbText
  0
TEXT
  5
B1
330
78
100
AcDbEntity
  8
08-99
100
AcDbText
 10
98.30438725900334
 20
44.6416167802032
 30
0.0
 40
1.822499999999999
  1
Normen
 51
15.0
  7
ROMANS8
100
AcDbText
  0
TEXT
  5
B2
330
78
100
AcDbEntity
  8
08-99
100
AcDbText
 10
21.50003711613706
 20
33.05556582266059
 30
0.0
 40
1.6
  1
Zust.
 51
15.0
  7
ROMANS8
100
AcDbText
  0
TEXT
  5
B3
330
78
100
AcDbEntity
  8
08-99
100
AcDbText
 10
49.50318821340468
 20
33.05555723859902
 30
0.0
 40
1.6
  1
Datum:
 51
15.0
  7
ROMANS8
100
AcDbText
  0
TEXT
  5
B4
330
78
100
AcDbEntity
  8
08-99
100
AcDbText
 10
61.50322112916754
 20
33.05556204504791
 30
0.0
 40
1.6
  1
Name:
 51
15.0
  7
ROMANS8
100
AcDbText
  0
TEXT
  5
B5
330
78
100
AcDbEntity
  8
08-99
100
AcDbText
 10
71.1545619578267
 20
28.03813755505132
 30
0.0
 40
1.6
  1
Erst.
 51
15.0
  7
ROMANS8
100
AcDbText
  0
TEXT
  5
B6
330
78
100
AcDbEntity
  8
08-99
100
AcDbText
 10
70.51718787454618
 20
23.1974490465235
 30
0.0
 40
1.6
  1
Bearb.
 51
15.0
  7
ROMANS8
100
AcDbText
  0
TEXT
  5
B7
330
78
100
AcDbEntity
  8
08-99
100
AcDbText
 10
149.4308124240035
 20
41.61949547980938
 30
0.0
 40
2.0
  1
Zuschnittsbreite:
 51
15.0
  7
ROMANS8
100
AcDbText
  0
TEXT
  5
B8
330
78
100
AcDbEntity
  8
08-99
100
AcDbText
 10
115.9850022862677
 20
41.73762161521608
 30
0.0
 40
2.0
  1
Zuschnittslänge:
 51
15.0
  7
ROMANS8
100
AcDbText
  0
LWPOLYLINE
  5
B9
330
78
100
AcDbEntity
  8
06-99
100
AcDbPolyline
 90
      133
 70
     1
 43
0.010692
 10
93.76754732423549
 20
18.87656283643588
 10
94.00905465623557
 20
19.08724513243589
 10
93.92285931623556
 20
19.22625538843579
 10
93.82427194823552
 20
19.35180441643592
 10
93.71363469623569
 20
19.46393854843592
 10
93.59130396023548
 20
19.56271124443577
 10
93.45762188423558
 20
19.64816170843585
 10
93.31293417623559
 20
19.72033627243581
 10
93.15759367223554
 20
19.77928839643584
 10
92.99194251623569
 20
19.82505728443584
 10
92.81632998023557
 20
19.85768926843593
 10
92.63110533623573
 20
19.87723780843589
 10
92.43661429223564
 20
19.88374210843585
 10
92.27568900023554
 20
19.87767974443585
 10
92.11994932823543
 20
19.85975638843581
 10
91.96972672823566
 20
19.83036051643597
 10
91.82535621623562
 20
19.78988773243583
 10
91.68716924423554
 20
19.73873364043595
 10
91.55549013623559
 20
19.67729028043584
 10
91.43066103623565
 20
19.60594969243584
 10
91.31300626823557
 20
19.52510391643579
 10
91.20285728423553
 20
19.43514499243588
 10
91.10055266423561
 20
19.33647208843587
 10
91.00641316823569
 20
19.22947011643589
 10
90.92077737623563
 20
19.11454180843589
 10
90.84397674023561
 20
18.99207207643587
 10
90.77633914823563
 20
18.86245652443591
 10
90.71819961623559
 20
18.72608719243584
 10
90.66988603223562
 20
18.58336324843583
 10
90.63172984823566
 20
18.43466960443584
 10
90.60406964423547
 20
18.28040542843581
 10
90.5872261802356
 20
18.12095919643588
 10
90.58154160023562
 20
17.95672651243586
 10
90.58715490023557
 20
17.78762184043592
 10
90.60380590823573
 20
17.62428728443586
 10
90.63119524823539
 20
17.46704004043585
 10
90.66902354423545
 20
17.31619374043578
 10
90.71699498423553
 20
17.17206201643586
 10
90.77481375623566
 20
17.03495850043589
 10
90.84218404823563
 20
16.90519326043585
 10
90.91880648423559
 20
16.78308349243582
 10
91.00438525223561
 20
16.66893926443583
 10
91.09862810423559
 20
16.56307777243586
 10
91.2012285362355
 20
16.46580908443587
 10
91.31190142823554
 20
16.37745039643579
 10
91.43034027623562
 20
16.29831177643592
 10
91.55625283223551
 20
16.2287068564359
 10
91.6893397202355
 20
16.16895283243582
 10
91.82930869223552
 20
16.11935977243587
 10
91.9758568082357
 20
16.08024130843591
 10
92.1286953842355
 20
16.05191107243593
 10
92.28751791623555
 20
16.03468269643588
 10
92.45203572023561
 20
16.02886981243591
 10
92.61603318023563
 20
16.03412314843587
 10
92.77336596023557
 20
16.0497619804359
 10
92.92384516823554
 20
16.07559385243587
 10
93.06728191223546
 20
16.11142630843591
 10
93.20349086423565
 20
16.15707045643586
 10
93.33227956823547
 20
16.21233740443585
 10
93.45346269623556
 20
16.27703469643586
 10
93.56684422823562
 20
16.35097700443589
 10
93.67224596423559
 20
16.43397187243585
 10
93.76946832023557
 20
16.52582328043587
 10
93.85832953223555
 20
16.62635302843586
 10
93.93864070823568
 20
16.73535796843583
 10
94.01020939223556
 20
16.85265990043587
 10
94.07284669223557
 20
16.97805924043587
 10
94.12636728023565
 20
17.11137066043579
 10
94.17058226423549
 20
17.25240170443584
 10
94.20529562423556
 20
17.40096348043585
 10
94.23032916023558
 20
17.55686709643589
 10
94.2454868522357
 20
17.71992366043582
 10
94.25057980823547
 20
17.88993715243583
 10
94.25057980823547
 20
17.88993715243583
 10
94.25057980823547
 20
17.94131934043588
 10
92.6164715522356
 20
17.94131934043588
 10
92.6164715522356
 20
17.65354772443584
 10
93.88573312823544
 20
17.65354772443584
 10
93.87499479623548
 20
17.49100437643585
 10
93.84766248023552
 20
17.33635885243586
 10
93.80444185223566
 20
17.19027405643589
 10
93.74603858423554
 20
17.05341645643585
 10
93.67316547623572
 20
16.92644182843588
 10
93.58653176423562
 20
16.81002376843588
 10
93.4868359922356
 20
16.70481448843588
 10
93.37479452423556
 20
16.61148758443585
 10
93.2511130322355
 20
16.53069526843586
 10
93.11649718823563
 20
16.46310757243589
 10
92.9716562282355
 20
16.40938383643583
 10
92.81729938823563
 20
16.37019052843595
 10
92.65413234023563
 20
16.34618698843581
 10
92.48286432023567
 20
16.3380396844359
 10
92.31820395623563
 20
16.34599096843584
 10
92.15990889623553
 20
16.3693743724358
 10
92.00857076423554
 20
16.40748066043585
 10
91.86477762023541
 20
16.45960416043584
 10
91.7291103962356
 20
16.52503563643586
 10
91.60216071623555
 20
16.60306585243592
 10
91.48451307623558
 20
16.69299270043586
 10
91.37675910023554
 20
16.79410338043595
 10
91.27948328423569
 20
16.90569222043587
 10
91.19327012423552
 20
17.02705354843584
 10
91.11871124423558
 20
17.15747456443586
 10
91.05639114023555
 20
17.29625316043587
 10
91.00689787223556
 20
17.44268010043583
 10
90.97081950023541
 20
17.5960425844359
 10
90.94874052023547
 20
17.75564206843597
 10
90.94125255623557
 20
17.92076575243578
 10
90.94763924423572
 20
18.08913980443589
 10
90.96654270023558
 20
18.25115211643583
 10
90.99756375623568
 20
18.40630372843583
 10
91.04030680823555
 20
18.55409924443586
 10
91.09437981623548
 20
18.69404326843585
 10
91.15938361223554
 20
18.82564396843588
 10
91.23492259223556
 20
18.9483988204359
 10
91.32060471623564
 20
19.06181955643586
 10
91.41603081623546
 20
19.16540365243594
 10
91.52081241623548
 20
19.25865927643582
 10
91.63454322023566
 20
19.34108746843589
 10
91.75683831623567
 20
19.41219639643589
 10
91.88729497223542
 20
19.47148710043586
 10
92.02552114823564
 20
19.51846418443586
 10
92.17112480423569
 20
19.55263225243584
 10
92.32370320823568
 20
19.57349947243585
 10
92.48286432023567
 20
19.58056332043588
 10
92.66056892423561
 20
19.57164619243588
 10
92.83032224423564
 20
19.54500885643586
 10
92.99178570023562
 20
19.50081882043588
 10
93.14462071223559
 20
19.43924359243584
 10
93.28848870023561
 20
19.36045780843585
 10
93.42305464823565
 20
19.26462541243592
 10
93.54797997623554
 20
19.15192104043586
 10
93.66292254023566
 20
19.02250863643593
  0
LWPOLYLINE
  5
BD
330
78
100
AcDbEntity
  8
06-99
100
AcDbPolyline
 90
       12
 70
     1
 43
0.010692
 10
90.43900298423549
 20
12.25281181243593
 10
92.32227048023563
 20
12.25281181243593
 10
92.46760683623554
 20
13.00767770443588
 10
91.56487771223558
 20
13.00767770443588
 10
91.62106060823546
 20
13.29950515243581
 10
92.41872301223557
 20
13.29950515243581
 10
92.55580870823544
 20
14.01156027643583
 10
91.75814630423545
 20
14.01156027643583
 10
91.80985281623547
 20
14.28005421643581
 10
92.68923417623549
 20
14.28005421643581
 10
92.83455984023559
 20
15.03490585243588
 10
90.97464010823561
 20
15.03490585243588
  0
LWPOLYLINE
  5
BE
330
78
100
AcDbEntity
  8
06-99
100
AcDbPolyline
 90
        4
 70
     1
 43
0.010692
 10
76.60861942823558
 20
12.88042508443584
 10
89.06586862823544
 20
12.88042508443584
 10
88.94229049223557
 20
12.25209544843585
 10
76.48504485623553
 20
12.25209544843585
  0
SOLID
  5
BF
330
78
100
AcDbEntity
  8
06-99
100
AcDbTrace
 10
76.60861942823558
 20
12.88042508443584
 30
0.0
 11
89.06586862823544
 21
12.88042508443584
 31
0.0
 12
76.48504485623553
 22
12.25209544843585
 32
0.0
 13
88.94229049223557
 23
12.25209544843585
 33
0.0
  0
LWPOLYLINE
  5
C0
330
78
100
AcDbEntity
  8
06-99
100
AcDbPolyline
 90
       10
 70
     1
 43
0.010692
 10
82.3458504002356
 20
16.02886981243591
 10
83.32219038023552
 20
19.10266656043586
 10
84.33965535623546
 20
16.02886981243591
 10
85.56780619223562
 20
19.80153132043585
 10
85.22351666423551
 20
19.80153132043585
 10
84.33965535623546
 20
16.89302932843583
 10
83.32219038023552
 20
19.9454100004358
 10
82.3458504002356
 20
16.86733645243589
 10
81.42601764023565
 20
19.80153132043585
 10
81.07658882423564
 20
19.80153132043585
  0
LWPOLYLINE
  5
C1
330
78
100
AcDbEntity
  8
06-99
100
AcDbPolyline
 90
        3
 70
     1
 43
0.010692
 10
87.32442338423565
 20
17.65868344843591
 10
87.97704168023555
 20
19.25683094443582
 10
88.6039706642355
 20
17.65868344843591
  0
LWPOLYLINE
  5
C2
330
78
100
AcDbEntity
  8
06-99
100
AcDbPolyline
 90
        7
 70
     1
 43
0.010692
 10
86.38318880423563
 20
16.12735738843582
 10
86.72320153223555
 20
16.12735738843582
 10
87.21136974023549
 20
17.37092608843585
 10
88.71187076423566
 20
17.37092608843585
 10
89.17949964023549
 20
16.12735738843582
 10
89.54434632023552
 20
16.12735738843582
 10
87.99759883223558
 20
19.9454100004358
  0
LWPOLYLINE
  5
C3
330
78
100
AcDbEntity
  8
06-99
100
AcDbPolyline
 90
        8
 70
     1
 43
0.010692
 10
98.92981243223543
 20
12.25281181243593
 10
100.0043869442354
 20
12.25281181243593
 10
100.1574144122356
 20
12.60301045243585
 10
100.9122803042355
 20
12.60301045243585
 10
100.9343521562355
 20
12.25281181243593
 10
102.0082815842354
 20
12.25281181243593
 10
101.5711569842355
 20
15.03490585243588
 10
100.4583193682355
 20
15.03490585243588
  0
LWPOLYLINE
  5
C4
330
78
100
AcDbEntity
  8
06-99
100
AcDbPolyline
 90
       34
 70
     1
 43
0.010692
 10
96.0434642642356
 20
13.66137589243584
 10
96.07848769223544
 20
13.66137589243584
 10
96.0642316922356
 20
13.48699650043591
 10
96.06380757623552
 20
13.33509882043586
 10
96.06790617623554
 20
13.20222577243589
 10
96.09523849223561
 20
12.25281181243593
 10
96.9668360762354
 20
12.25281181243593
 10
98.31569602823542
 20
15.03490585243588
 10
97.31181345623557
 20
15.03490585243588
 10
96.85792023623552
 20
13.80922843243581
 10
96.80781752423563
 20
13.66872486043581
 10
96.74884758023544
 20
13.48671138043579
 10
96.69003445223545
 20
13.26059696443593
 10
96.66670094423549
 20
13.26059696443593
 10
96.6884270882355
 20
13.45803187243587
 10
96.69298544423558
 20
13.61569254043581
 10
96.69194475623548
 20
13.73531107243588
 10
96.67756045223544
 20
15.03490585243588
 10
95.97329266823548
 20
15.03490585243588
 10
95.45849068823557
 20
13.73531107243588
 10
95.41138886423542
 20
13.61569254043581
 10
95.35523448023562
 20
13.45803187243587
 10
95.30092981223551
 20
13.26059696443593
 10
95.27759630423545
 20
13.26059696443593
 10
95.30585169623558
 20
13.48671138043579
 10
95.31697137623556
 20
13.66872486043581
 10
95.32096662023551
 20
13.80922843243581
 10
95.33903966423546
 20
15.03490585243588
 10
94.33451200823553
 20
15.03490585243588
 10
94.61274279623561
 20
12.25281181243593
 10
95.48433681623547
 20
12.25281181243593
 10
95.87724643223557
 20
13.20222577243589
 10
95.93252050823551
 20
13.33509882043586
 10
95.99058519623557
 20
13.48699650043591
  0
LWPOLYLINE
  5
C5
330
78
100
AcDbEntity
  8
06-99
100
AcDbPolyline
 90
       10
 70
     1
 43
0.010692
 10
100.4520752402354
 20
13.26448172443588
 10
100.5983667482354
 20
13.57965693643587
 10
100.6731180842355
 20
13.74409276843596
 10
100.7541598802355
 20
13.94570824843589
 10
100.8288363722355
 20
14.19056217643595
 10
100.8482958122355
 20
14.19056217643595
 10
100.8286724282354
 20
13.94570824843589
 10
100.8320796122355
 20
13.74409276843596
 10
100.8435129242355
 20
13.57965693643587
 10
100.8684181562356
 20
13.26448172443588
  0
LWPOLYLINE
  5
C6
330
78
100
AcDbEntity
  8
06-99
100
AcDbPolyline
 90
       23
 70
     1
 43
0.010692
 10
103.5867130322356
 20
12.25281181243593
 10
104.5672478402354
 20
12.25281181243593
 10
104.7440436242355
 20
13.17110136043584
 10
105.0536340482356
 20
12.25281181243593
 10
106.1742447482354
 20
12.25281181243593
 10
105.6490750922355
 20
13.38511243243585
 10
105.8084357882355
 20
13.42380678043588
 10
105.9537079922354
 20
13.49881472443587
 10
106.0813562162355
 20
13.60690015243585
 10
106.1878378442354
 20
13.74481626043587
 10
106.2696066962354
 20
13.90931980843584
 10
106.3231201562354
 20
14.09716755643586
 10
106.3446075122355
 20
14.26808986843588
 10
106.3403093282354
 20
14.42329850443593
 10
106.3102362962355
 20
14.56225886443587
 10
106.2543991082354
 20
14.68443278443578
 10
106.1728155842354
 20
14.78928566443591
 10
106.0654999802355
 20
14.87627577643587
 10
105.9324594242355
 20
14.94487208443587
 10
105.7737153002354
 20
14.99453286043592
 10
105.5892711722355
 20
15.02472350443588
 10
105.3791519882354
 20
15.03490585243588
 10
104.1223501562355
 20
15.03490585243588
  0
LWPOLYLINE
  5
C7
330
78
100
AcDbEntity
  8
06-99
100
AcDbPolyline
 90
        9
 70
     1
 43
0.010692
 10
104.9650401362355
 20
14.31896240443586
 10
105.1206907082355
 20
14.31896240443586
 10
105.2773605842356
 20
14.28538239643581
 10
105.3582277442354
 20
14.19040892443593
 10
105.3632244722355
 20
14.04269894443587
 10
105.3008722922355
 20
13.89699906043591
 10
105.1832994962355
 20
13.80577848043589
 10
105.0158200082354
 20
13.77421926043581
 10
104.8601694362355
 20
13.77421926043581
  0
LWPOLYLINE
  5
C8
330
78
100
AcDbEntity
  8
06-99
100
AcDbPolyline
 90
       12
 70
     1
 43
0.010692
 10
100.5798090002356
 20
16.12735738843582
 10
102.3989066762356
 20
16.12735738843582
 10
102.3989066762356
 20
16.4408218804358
 10
100.9138270802356
 20
16.4408218804358
 10
100.9138270802356
 20
18.02353012843594
 10
102.3989066762356
 20
18.02353012843594
 10
102.3989066762356
 20
18.33699462043592
 10
100.9138270802356
 20
18.33699462043592
 10
100.9138270802356
 20
19.48806682843587
 10
102.3989066762356
 20
19.48806682843587
 10
102.3989066762356
 20
19.80153132043585
 10
100.5798090002356
 20
19.80153132043585
  0
LWPOLYLINE
  5
C9
330
78
100
AcDbEntity
  8
06-99
100
AcDbPolyline
 90
        8
 70
     1
 43
0.010692
 10
95.85303261623565
 20
16.12735738843582
 10
96.18705426023556
 20
16.12735738843582
 10
96.18705426023556
 20
19.09753083643585
 10
98.76667389623552
 20
16.01858410843584
 10
98.76667389623552
 20
19.80153132043585
 10
98.4326665082356
 20
19.80153132043585
 10
98.4326665082356
 20
16.88274362443587
 10
95.85303261623565
 20
19.95568144843582
  0
LWPOLYLINE
  5
CA
330
78
100
AcDbEntity
  8
06-99
100
AcDbPolyline
 90
       19
 70
     1
 43
0.010692
 10
104.4484312082357
 20
19.5086239804358
 10
104.7824385962356
 20
19.5086239804358
 10
104.9866237202355
 20
19.50030560443588
 10
105.1604542562355
 20
19.47385716043584
 10
105.3049031762356
 20
19.42705471243579
 10
105.4209256322356
 20
19.35767076043584
 10
105.5094874682356
 20
19.26347780443581
 10
105.5715509642355
 20
19.14224834443593
 10
105.6080855282355
 20
18.9917477524358
 10
105.6200498762355
 20
18.80975922043586
 10
105.6074547002355
 20
18.63100680043584
 10
105.5693840522356
 20
18.48585933643585
 10
105.5054245082356
 20
18.37130168443593
 10
105.4151448242355
 20
18.28432582843589
 10
105.2981315762356
 20
18.22192018843589
 10
105.1539570842356
 20
18.18106962043583
 10
104.9821972322354
 20
18.15876967243594
 10
104.7824385962356
 20
18.15200520043589
 10
104.4484312082357
 20
18.15200520043589
  0
LWPOLYLINE
  5
CB
330
78
100
AcDbEntity
  8
06-99
100
AcDbPolyline
 90
       29
 70
     1
 43
0.010692
 10
106.3446075122355
 20
16.12735738843582
 10
105.0239637482355
 20
17.87965144843588
 10
105.2123817362357
 20
17.89225018843592
 10
105.3829084442356
 20
17.92941914443582
 10
105.5344069562356
 20
17.99022811243594
 10
105.6657296642355
 20
18.07375401643588
 10
105.7757360882356
 20
18.17905596043584
 10
105.8632821842355
 20
18.30521443243589
 10
105.9272310362355
 20
18.45129210043592
 10
105.9664386002355
 20
18.6163587604359
 10
105.9797608322353
 20
18.79948777243589
 10
105.9699455762357
 20
18.97455145243589
 10
105.9404891162357
 20
19.13261485243589
 10
105.8913629402356
 20
19.27374568843589
 10
105.8225492282356
 20
19.39801167643577
 10
105.7340230322356
 20
19.50548409643591
 10
105.6257594042356
 20
19.59623422843589
 10
105.4977369602356
 20
19.67032622443582
 10
105.3499307522354
 20
19.72783136443587
 10
105.1823193962355
 20
19.76882449243589
 10
104.9948815082355
 20
19.79336619643589
 10
104.7875885762355
 20
19.80153132043585
 10
104.7875885762355
 20
19.80153132043585
 10
104.1144131282356
 20
19.80153132043585
 10
104.1144131282356
 20
16.12735738843582
 10
104.4484312082357
 20
16.12735738843582
 10
104.4484312082357
 20
17.87965144843588
 10
104.6488456202355
 20
17.87965144843588
 10
105.9386465282355
 20
16.12735738843582
  0
TEXT
  5
CC
330
78
100
AcDbEntity
  8
06-99
100
AcDbText
 10
85.6083656112951
 20
9.63320697282171
 30
0.0
 40
1.4256
  1
GmbH & Co KG
 41
1.199203187251
 51
15.0
  7
ROMAND8
 72
     5
 11
106.0419656112951
 21
9.63320697282171
 31
0.0
100
AcDbText
  0
TEXT
  5
CE
330
78
100
AcDbEntity
  8
06-99
100
AcDbText
 10
85.70982236587898
 20
7.391013700398161
 30
0.0
 40
1.4256
  1
72774 Reutlingen
 50
0.5663244663116128
 41
1.087840993687879
 51
15.0
  7
ROMAND8
 72
     5
 11
105.943422365879
 21
7.59101370039815
 31
0.0
100
AcDbText
  0
TEXT
  5
CF
330
78
100
AcDbEntity
  8
08-99
100
AcDbText
 10
73.414125712073
 20
48.45008961754581
 30
0.0
 40
2.25
  1
Zul. Abw.
 51
15.0
  7
ROMANS8
100
AcDbText
  0
TEXT
  5
D0
330
78
100
AcDbEntity
  8
08-99
100
AcDbText
 10
123.2099338325191
 20
49.28616214647601
 30
0.0
 40
2.0
  1
Mat. Art.
 51
15.0
  7
ROMANS8
100
AcDbText
  0
TEXT
  5
D1
330
78
100
AcDbEntity
  8
08-99
100
AcDbText
 10
155.4865384826082
 20
49.4043113704472
 30
0.0
 40
2.0
  1
Oberfläche:
 51
15.0
  7
ROMANS8
100
AcDbText
  0
TEXT
  5
D2
330
78
100
AcDbEntity
  8
08-99
100
AcDbText
 10
184.762545350816
 20
41.73764470378046
 30
0.0
 40
2.0
  1
Blech Dicke:
 51
15.0
  7
ROMANS8
100
AcDbText
  0
TEXT
  5
D3
330
78
100
AcDbEntity
  8
08-99
100
AcDbText
 10
187.4380355407932
 20
49.28616214647604
 30
0.0
 40
2.0
  1
Maßstab:
 51
15.0
  7
ROMANS8
100
AcDbText
  0
LINE
  5
D4
330
78
100
AcDbEntity
  8
01-99
100
AcDbLine
 10
115.0000075122355
 20
46.8888868761025
 30
0.0
 11
92.0000075122355
 21
46.8888868761025
 31
0.0
  0
LINE
  5
D5
330
78
100
AcDbEntity
  8
01-99
100
AcDbLine
 10
115.0000075122355
 20
44.33333132043578
 30
0.0
 11
92.0000075122355
 21
44.33333132043578
 31
0.0
  0
LINE
  5
D6
330
78
100
AcDbEntity
  8
01-99
100
AcDbLine
 10
115.0000075122355
 20
40.49999798710246
 30
0.0
 11
92.00000751223544
 21
40.49999798710246
 31
0.0
  0
ATTDEF
  5
D7
330
78
100
AcDbEntity
  8
06-99
100
AcDbText
 10
116.4954542514127
 20
26.18783668438471
 30
0.0
 40
4.0
  1

 41
0.9
  7
ROMANS8
100
AcDbAttributeDefinition
280
     0
  3
Benennung/Teil
  2
TEILE
 70
     0
280
     0
  0
ATTDEF
  5
D8
330
78
100
AcDbEntity
  8
06-99
100
AcDbText
 10
116.4954542514127
 20
19.29547648609889
 30
0.0
 40
4.0
  1

 41
0.9
  7
ROMANS8
100
AcDbAttributeDefinition
280
     0
  3
Benennung/Teil2
  2
TEILE2
 70
     0
280
     0
  0
ATTDEF
  5
D9
330
78
100
AcDbEntity
  8
06-99
100
AcDbText
 10
191.3473937239501
 20
45.33333132043583
 30
0.0
 40
3.375
  1

  7
ROMANS8
100
AcDbAttributeDefinition
280
     0
  3
Maßstab
  2
:
 70
     0
280
     0
  0
ATTDEF
  5
DA
330
78
100
AcDbEntity
  8
06-99
100
AcDbText
 10
92.99707531160292
 20
27.44168345513378
 30
0.0
 40
2.5
  1

 41
0.9
  7
ROMANS8
100
AcDbAttributeDefinition
280
     0
  3
Name
  2
NAME
 70
     0
280
     0
  0
ATTDEF
  5
DB
330
78
100
AcDbEntity
  8
06-99
100
AcDbText
 10
79.49315396412956
 20
27.46123316121373
 30
0.0
 40
2.5
  1

 50
359.9144597696142
 41
0.9542572414211148
  7
ROMANS8
 72
     5
 11
90.73974463267431
 21
27.44444245376917
 31
0.0
100
AcDbAttributeDefinition
280
     0
  3
Datum
  2
DATUM
 70
     0
280
     0
  0
ATTDEF
  5
DC
330
78
100
AcDbEntity
  8
06-99
100
AcDbText
 10
178.5063514793938
 20
7.4928977873912
 30
0.0
 40
2.99376
  1

  7
ROMANS8
100
AcDbAttributeDefinition
280
     0
  3
Ident-Nummer
  2
ID.NR
 70
     0
280
     0
  0
ATTDEF
  5
DD
330
78
100
AcDbEntity
  8
06-99
100
AcDbText
 10
116.731273767946
 20
37.66666463154695
 30
0.0
 40
3.0
  1

 41
0.9
  7
ROMANS8
100
AcDbAttributeDefinition
280
     0
  3
Zuschnitts.Länge
  2
LÄNGE
 70
     0
280
     0
  0
ATTDEF
  5
DE
330
78
100
AcDbEntity
  8
06-99
100
AcDbText
 10
150.1808124240052
 20
37.67810185754732
 30
0.0
 40
3.0
  1

 41
0.9
  7
ROMANS8
100
AcDbAttributeDefinition
280
     0
  3
Zuschnitts Breite
  2
BREITE
 70
     0
280
     0
  0
ATTDEF
  5
DF
330
78
100
AcDbEntity
  8
06-99
100
AcDbText
 10
190.6090996389673
 20
37.66666465376926
 30
0.0
 40
3.09375
  1

  7
ROMANS8
100
AcDbAttributeDefinition
280
     0
  3
Blech.Dicke
  2
1.0
 70
     0
280
     0
  0
ATTDEF
  5
E0
330
78
100
AcDbEntity
  8
06-99
100
AcDbText
 10
164.1277931136382
 20
45.33333132043594
 30
0.0
 40
3.0
  1

  7
ROMANS8
 72
     1
 11
164.1277931136382
 21
45.33333132043594
 31
0.0
100
AcDbAttributeDefinition
280
     0
  3
Oberfläche
  2
IV
 70
     0
280
     0
  0
ATTDEF
  5
E1
330
78
100
AcDbEntity
  8
06-99
100
AcDbText
 10
123.2747480483513
 20
45.3333313204358
 30
0.0
 40
3.375
  1
1.4301
  7
ROMANS8
100
AcDbAttributeDefinition
280
     0
  3
Mat.Art
  2
1.4301
 70
     0
280
     0
  0
ATTDEF
  5
E2
330
78
100
AcDbEntity
  8
06-99
100
AcDbText
 10
146.0006413991156
 20
7.504394591457128
 30
0.0
 40
3.168
  1

 41
0.9
  7
ROMANS8
100
AcDbAttributeDefinition
280
     0
  3
Auftrags Nr.
  2
AUFTRAGS.NR.
 70
     0
280
     0
  0
ATTDEF
  5
E3
330
78
100
AcDbEntity
  8
06-99
100
AcDbText
 10
116.5000075122355
 20
7.499997987102517
 30
0.0
 40
3.168
  1

 41
0.9
  7
ROMANS8
100
AcDbAttributeDefinition
280
     0
  3
Sonder-NR,WPS
  2
SONDER-NR
 70
     0
280
     0
  0
ATTDEF
  5
E4
330
78
100
AcDbEntity
  8
06-99
100
AcDbText
 10
46.4997585072438
 20
6.601808056362358
 30
0.0
 40
1.5
  1

 41
0.9
  7
ROMANS8
100
AcDbAttributeDefinition
280
     0
  3
ERSETZT.Durch
  2
ERSETZT.DURCH
 70
     0
280
     0
  0
ATTDEF
  5
E5
330
78
100
AcDbEntity
  8
06-99
100
AcDbText
 10
21.49947529243403
 20
6.597454384974923
 30
0.0
 40
1.5
  1

 41
0.9
  7
ROMANS8
100
AcDbAttributeDefinition
280
     0
  3
ERSETZT.Für
  2
ERSETZT.FÜR
 70
     0
280
     0
  0
ATTDEF
  5
E6
330
78
100
AcDbEntity
  8
06-99
100
AcDbText
 10
99.97308015867309
 20
47.66850912711049
 30
0.0
 40
1.287
  1
DIN A4
  7
ROMANS8
 72
     1
 11
103.2518658729588
 21
47.66850912711049
 31
0.0
100
AcDbAttributeDefinition
280
     0
  3
Format
  2
FORMAT
 70
     0
280
     0
  0
ATTDEF
  5
E7
330
78
100
AcDbEntity
  8
06-99
100
AcDbText
 10
95.9874465096418
 20
37.19696532096725
 30
0.0
 40
2.34
  1
DIN 2768
  7
ROMANS8
 72
     1
 11
104.0103036524989
 21
37.19696532096725
 31
0.0
100
AcDbAttributeDefinition
280
     0
  3
Norm / Kanten
  2
NORM2
 70
     0
280
     0
  0
ATTDEF
  5
E8
330
78
100
AcDbEntity
  8
06-99
100
AcDbText
 10
92.81173222392748
 20
41.03029865430056
 30
0.0
 40
2.34
  1
DIN 6930-M
  7
ROMANS8
 72
     1
 11
103.5088750810703
 21
41.03029865430056
 31
0.0
100
AcDbAttributeDefinition
280
     0
  3
Norm / Fräsen
  2
NORM1
 70
     0
280
     0
  0
ENDBLK
  5
E9
330
78
100
AcDbEntity
  8
0
100
AcDbBlockEnd
  0
ENDSEC
  0
SECTION
  2
ENTITIES
  0
INSERT
  5
77
330
2
100
AcDbEntity
  8
09-01
100
AcDbBlockReference
 66
     1
  2
DIN A4
 10
0.0
 20
0.0
 30
0.0
 41
5.0
 42
5.0
 43
5.0
  0
ATTRIB
  5
EA
330
77
100
AcDbEntity
  8
06-99
100
AcDbText
 10
582.4772712570633
 20
130.9391834219235
 30
0.0
 40
20.0
  1
Elektrischer Händetrockner
 41
0.9
  7
ROMANS8
100
AcDbAttribute
280
     0
  2
TEILE
 70
     0
280
     0
  0
ATTRIB
  5
EB
330
77
100
AcDbEntity
  8
06-99
100
AcDbText
 10
582.4772712570633
 20
96.47738243049445
 30
0.0
 40
20.0
  1
WP 1200 UP
 41
0.9
  7
ROMANS8
100
AcDbAttribute
280
     0
  2
TEILE2
 70
     0
280
     0
  0
ATTRIB
  5
EC
330
77
100
AcDbEntity
  8
06-99
100
AcDbText
 10
956.7369686197505
 20
226.6666566021791
 30
0.0
 40
16.875
  1
1:5
  7
ROMANS8
100
AcDbAttribute
280
     0
  2
:
 70
     0
280
     0
  0
ATTRIB
  5
ED
330
77
100
AcDbEntity
  8
06-99
100
AcDbText
 10
464.9853765580145
 20
137.2084172756689
 30
0.0
 40
12.5
  1
Pfrepper
 41
0.9
  7
ROMANS8
100
AcDbAttribute
280
     0
  2
NAME
 70
     0
280
     0
  0
ATTRIB
  5
EE
330
77
100
AcDbEntity
  8
06-99
100
AcDbText
 10
397.4657698206478
 20
137.3061658060686
 30
0.0
 40
12.5
  1
24.07.2008
 50
359.9144597696142
 41
0.5429394649464965
  7
ROMANS8
 72
     5
 11
453.6987231633714
 21
137.2222122688458
 31
0.0
100
AcDbAttribute
280
     0
  2
DATUM
 70
     0
280
     0
  0
ATTRIB
  5
EF
330
77
100
AcDbEntity
  8
06-99
100
AcDbText
 10
892.5317573969689
 20
37.464488936956
 30
0.0
 40
14.9688
  1
733020
  7
ROMANS8
100
AcDbAttribute
280
     0
  2
ID.NR
 70
     0
280
     0
  0
ATTRIB
  5
F0
330
77
100
AcDbEntity
  8
06-99
100
AcDbText
 10
583.6563688397303
 20
188.3333231577347
 30
0.0
 40
15.0
  1

 41
0.9
  7
ROMANS8
100
AcDbAttribute
280
     0
  2
LÄNGE
 70
     0
280
     0
  0
ATTRIB
  5
F1
330
77
100
AcDbEntity
  8
06-99
100
AcDbText
 10
750.9040621200263
 20
188.3905092877366
 30
0.0
 40
15.0
  1

 41
0.9
  7
ROMANS8
100
AcDbAttribute
280
     0
  2
BREITE
 70
     0
280
     0
  0
ATTRIB
  5
F2
330
77
100
AcDbEntity
  8
06-99
100
AcDbText
 10
953.0454981948368
 20
188.3333232688463
 30
0.0
 40
15.46875
  1

  7
ROMANS8
100
AcDbAttribute
280
     0
  2
1.0
 70
     0
280
     0
  0
ATTRIB
  5
F3
330
77
100
AcDbEntity
  8
06-99
100
AcDbText
 10
820.638965568191
 20
226.6666566021797
 30
0.0
 40
15.0
  1

  7
ROMANS8
 72
     1
 11
820.638965568191
 21
226.6666566021797
 31
0.0
100
AcDbAttribute
280
     0
  2
IV
 70
     0
280
     0
  0
ATTRIB
  5
F4
330
77
100
AcDbEntity
  8
06-99
100
AcDbText
 10
616.3737402417568
 20
226.666656602179
 30
0.0
 40
16.875
  1
1.4301
  7
ROMANS8
100
AcDbAttribute
280
     0
  2
1.4301
 70
     0
280
     0
  0
ATTRIB
  5
F5
330
77
100
AcDbEntity
  8
06-99
100
AcDbText
 10
730.003206995578
 20
37.52197295728564
 30
0.0
 40
15.84
  1

 41
0.9000000000000001
  7
ROMANS8
100
AcDbAttribute
280
     0
  2
AUFTRAGS.NR.
 70
     0
280
     0
  0
ATTRIB
  5
F6
330
77
100
AcDbEntity
  8
06-99
100
AcDbText
 10
582.5000375611774
 20
37.49998993551259
 30
0.0
 40
15.84
  1

 41
0.9000000000000001
  7
ROMANS8
100
AcDbAttribute
280
     0
  2
SONDER-NR
 70
     0
280
     0
  0
ATTRIB
  5
F7
330
77
100
AcDbEntity
  8
06-99
100
AcDbText
 10
232.498792536219
 20
33.00904028181179
 30
0.0
 40
7.5
  1

 41
0.9
  7
ROMANS8
100
AcDbAttribute
280
     0
  2
ERSETZT.DURCH
 70
     0
280
     0
  0
ATTRIB
  5
F8
330
77
100
AcDbEntity
  8
06-99
100
AcDbText
 10
107.4973764621701
 20
32.98727192487462
 30
0.0
 40
7.5
  1

 41
0.9
  7
ROMANS8
100
AcDbAttribute
280
     0
  2
ERSETZT.FÜR
 70
     0
280
     0
  0
ATTRIB
  5
F9
330
77
100
AcDbEntity
  8
06-99
100
AcDbText
 10
499.8654007933654
 20
238.3425456355525
 30
0.0
 40
6.435
  1
DIN A4
  7
ROMANS8
 72
     1
 11
516.2593293647939
 21
238.3425456355525
 31
0.0
100
AcDbAttribute
280
     0
  2
FORMAT
 70
     0
280
     0
  0
ATTRIB
  5
FA
330
77
100
AcDbEntity
  8
06-99
100
AcDbText
 10
479.937232548209
 20
185.9848266048362
 30
0.0
 40
11.7
  1
DIN 2768
  7
ROMANS8
 72
     1
 11
520.0515182624947
 21
185.9848266048362
 31
0.0
100
AcDbAttribute
280
     0
  2
NORM2
 70
     0
280
     0
  0
ATTRIB
  5
FB
330
77
100
AcDbEntity
  8
06-99
100
AcDbText
 10
464.0586611196373
 20
205.1514932715028
 30
0.0
 40
11.7
  1
DIN 6930-M
  7
ROMANS8
 72
     1
 11
517.5443754053516
 21
205.1514932715028
 31
0.0
100
AcDbAttribute
280
     0
  2
NORM1
 70
     0
280
     0
  0
SEQEND
  5
FC
330
77
100
AcDbEntity
  8
09-01
  0
TEXT
  5
FD
330
2
100
AcDbEntity
  8
02-01
100
AcDbText
 10
147.1870136632501
 20
1048.273937336339
 30
0.0
 40
15.0
  1
montage
  7
ROMANS
100
AcDbText
  0
TEXT
  5
101
330
2
100
AcDbEntity
  8
02-01
100
AcDbText
 10
147.1870136632501
 20
1142.013043931073
 30
0.0
 40
15.0
  1
Einbau-
  7
ROMANS
100
AcDbText
  0
TEXT
  5
102
330
2
100
AcDbEntity
  8
02-01
100
AcDbText
 10
225.8613120931004
 20
1174.820646954475
 30
0.0
 40
12.5
  1
max.
100
AcDbText
  0
DIMENSION
  5
103
330
2
100
AcDbEntity
  8
09-01
100
AcDbDimension
280
     0
  2
*D17
 10
207.3875416357578
 20
1195.173940047889
 30
0.0
 11
241.387541635758
 21
1206.423940047889
 31
0.0
 71
     5
 42
68.00000000000046
 73
     0
 74
     0
 75
     0
  3
Wagner$0
100
AcDbAlignedDimension
 13
275.3875416357582
 23
1287.818964076871
 33
0.0
 14
207.3875416357578
 24
1287.818964076871
 34
0.0
100
AcDbRotatedDimension
1001
ACAD
1000
DSTYLE
1002
{
1070
    40
1040
5.0
1070
    49
1040
0.18
1070
   179
1070
     8
1002
}
  0
LINE
  5
112
330
2
100
AcDbEntity
  8
05-01
100
AcDbLine
 10
196.0460083671451
 20
826.7119029514438
 30
0.0
 11
323.4240395960624
 21
826.7119029514438
 31
0.0
  0
LINE
  5
115
330
2
100
AcDbEntity
  8
05-01
100
AcDbLine
 10
197.0651117102925
 20
1381.930959615099
 30
0.0
 11
321.9044252390231
 21
1381.930959615099
 31
0.0
  0
LINE
  5
116
330
2
100
AcDbEntity
  8
10-98
100
AcDbLine
 10
314.0536409005317
 20
826.7119029514438
 30
0.0
 11
314.0536409005335
 21
1381.930959615099
 31
0.0
  0
LINE
  5
11A
330
2
100
AcDbEntity
  8
10-98
100
AcDbLine
 10
207.3875416357587
 20
1288.818964076871
 30
0.0
 11
207.3875416357587
 21
1381.930959615099
 31
0.0
  0
LINE
  5
11B
330
2
100
AcDbEntity
  8
10-98
100
AcDbLine
 10
207.3875416357587
 20
826.7119029514438
 30
0.0
 11
207.3875416357587
 21
891.8189640768714
 31
0.0
  0
LINE
  5
11C
330
2
100
AcDbEntity
  8
0
100
AcDbLine
 10
207.0056598778244
 20
892.7751211410255
 30
0.0
 11
207.0892826484385
 21
893.5707386573199
 31
0.0
  0
LINE
  5
11D
330
2
100
AcDbEntity
  8
10-98
100
AcDbLine
 10
276.3875416357573
 20
891.8189640768716
 30
0.0
 11
207.3875416357587
 21
891.8189640768714
 31
0.0
  0
LINE
  5
11E
330
2
100
AcDbEntity
  8
0
100
AcDbLine
 10
275.3875416357573
 20
892.8189640768714
 30
0.0
 11
207.3875416357578
 21
892.8189640768714
 31
0.0
  0
POINT
  5
11F
330
2
100
AcDbEntity
  8
Defpoints
  6
ByBlock
 62
     0
100
AcDbPoint
 10
249.8875416357578
 20
918.0189640768704
 30
0.0
 50
360.0
  0
POINT
  5
120
330
2
100
AcDbEntity
  8
Defpoints
  6
ByBlock
 62
     0
100
AcDbPoint
 10
244.8875416357578
 20
918.0189640768704
 30
0.0
 50
360.0
  0
LINE
  5
121
330
2
100
AcDbEntity
  8
05-01
100
AcDbLine
 10
241.8875416357578
 20
917.8189640768714
 30
0.0
 11
252.8875416357578
 21
917.8189640768714
 31
0.0
  0
LINE
  5
122
330
2
100
AcDbEntity
  8
05-01
100
AcDbLine
 10
247.3875416357578
 20
912.3189640768714
 30
0.0
 11
247.3875416357578
 21
923.3189640768713
 31
0.0
  0
CIRCLE
  5
123
330
2
100
AcDbEntity
  8
0
100
AcDbCircle
 10
247.3875416357578
 20
917.8189640768714
 30
0.0
 40
2.5
  0
POINT
  5
124
330
2
100
AcDbEntity
  8
Defpoints
  6
ByBlock
 62
     0
100
AcDbPoint
 10
249.8875416357578
 20
1238.01896407687
 30
0.0
 50
360.0
  0
POINT
  5
125
330
2
100
AcDbEntity
  8
Defpoints
  6
ByBlock
 62
     0
100
AcDbPoint
 10
244.8875416357578
 20
1238.01896407687
 30
0.0
 50
360.0
  0
LINE
  5
126
330
2
100
AcDbEntity
  8
05-01
100
AcDbLine
 10
241.8875416357578
 20
1237.818964076871
 30
0.0
 11
252.8875416357578
 21
1237.818964076871
 31
0.0
  0
LINE
  5
127
330
2
100
AcDbEntity
  8
05-01
100
AcDbLine
 10
247.3875416357578
 20
1232.318964076871
 30
0.0
 11
247.3875416357578
 21
1243.318964076871
 31
0.0
  0
CIRCLE
  5
128
330
2
100
AcDbEntity
  8
0
100
AcDbCircle
 10
247.3875416357578
 20
1237.818964076871
 30
0.0
 40
2.5
  0
LINE
  5
129
330
2
100
AcDbEntity
  8
0
100
AcDbLine
 10
207.3875416357578
 20
892.8189640768714
 30
0.0
 11
207.3875416357578
 21
1287.818964076871
 31
0.0
  0
LINE
  5
12A
330
2
100
AcDbEntity
  8
0
100
AcDbLine
 10
154.3875416357577
 20
941.3189640768715
 30
0.0
 11
129.3875416357577
 21
941.3189640768715
 31
0.0
  0
LINE
  5
12B
330
2
100
AcDbEntity
  8
0
100
AcDbLine
 10
207.3875416357578
 20
1286.818964076871
 30
0.0
 11
125.3875416357578
 21
1286.818964076871
 31
0.0
  0
LINE
  5
12C
330
2
100
AcDbEntity
  8
0
100
AcDbLine
 10
131.1236392612256
 20
900.7506428883489
 30
0.0
 11
135.387541635758
 21
941.3189640768715
 31
0.0
  0
LINE
  5
12D
330
2
100
AcDbEntity
  8
0
100
AcDbLine
 10
207.0056598778244
 20
892.7751211410255
 30
0.0
 11
131.1236392612256
 21
900.7506428883489
 31
0.0
  0
LINE
  5
12E
330
2
100
AcDbEntity
  8
05-01
100
AcDbLine
 10
202.2816808748252
 20
893.2716313415467
 30
0.0
 11
201.8151619890439
 21
888.8330006374513
 31
0.0
  0
LINE
  5
12F
330
2
100
AcDbEntity
  8
0
100
AcDbLine
 10
203.4130466982381
 20
891.141703442744
 30
0.0
 11
200.7322011983413
 21
891.4234716588776
 31
0.0
  0
ARC
  5
130
330
2
100
AcDbEntity
  8
0
100
AcDbCircle
 10
201.1936073276031
 20
894.315372541504
 30
0.0
 40
2.928478501041863
100
AcDbArc
 50
203.1014804168341
 51
260.9347997740368
  0
LINE
  5
131
330
2
100
AcDbEntity
  8
03-01
100
AcDbLine
 10
201.0176228129605
 20
893.2033875415582
 30
0.0
 11
200.8294715790769
 21
891.4132481298965
 31
0.0
  0
LINE
  5
136
330
2
100
AcDbEntity
  8
03-01
100
AcDbLine
 10
201.0176228129605
 20
893.2033875415582
 30
0.0
 11
202.3246645258234
 21
893.6805934626887
 31
0.0
  0
LINE
  5
137
330
2
100
AcDbEntity
  8
03-01
100
AcDbLine
 10
203.5039275513848
 20
892.9420663833884
 30
0.0
 11
201.0176228129605
 21
893.2033875415582
 31
0.0
  0
LINE
  5
138
330
2
100
AcDbEntity
  8
03-01
100
AcDbLine
 10
203.5039275513848
 20
892.9420663833884
 30
0.0
 11
203.3157763175009
 21
891.1519269717254
 31
0.0
  0
LINE
  5
139
330
2
100
AcDbEntity
  8
03-01
100
AcDbLine
 10
202.3246645258234
 20
893.6805934626887
 30
0.0
 11
203.5039275513848
 21
892.9420663833884
 31
0.0
  0
LINE
  5
13A
330
2
100
AcDbEntity
  8
0
100
AcDbLine
 10
197.5577018718259
 20
893.7681415420684
 30
0.0
 11
197.505437640192
 21
893.2708805943839
 31
0.0
  0
LINE
  5
13B
330
2
100
AcDbEntity
  8
0
100
AcDbLine
 10
207.0056598778244
 20
892.7751211410255
 30
0.0
 11
206.9533956461905
 21
892.2778601933414
 31
0.0
  0
ARC
  5
13C
330
2
100
AcDbEntity
  8
0
100
AcDbCircle
 10
203.5629834021236
 20
894.0663410811275
 30
0.0
 40
2.928478501035574
100
AcDbArc
 50
267.0652002259276
 51
324.8985195832084
  0
LINE
  5
13D
330
2
100
AcDbEntity
  8
0
100
AcDbLine
 10
207.0056598778244
 20
892.7751211410255
 30
0.0
 11
197.5577018718259
 21
893.7681415420684
 31
0.0
  0
LINE
  5
13E
330
2
100
AcDbEntity
  8
0
100
AcDbLine
 10
206.9533956461905
 20
892.2778601933414
 30
0.0
 11
197.505437640192
 21
893.2708805943839
 31
0.0
  0
LINE
  5
13F
330
2
100
AcDbEntity
  8
10-98
100
AcDbLine
 10
276.3875416357573
 20
891.8189640768716
 30
0.0
 11
276.3875416357582
 21
1288.818964076871
 31
0.0
  0
LINE
  5
140
330
2
100
AcDbEntity
  8
0
100
AcDbLine
 10
275.3875416357573
 20
892.8189640768714
 30
0.0
 11
275.3875416357582
 21
1287.818964076871
 31
0.0
  0
LINE
  5
141
330
2
100
AcDbEntity
  8
0
100
AcDbLine
 10
207.3875416357578
 20
941.3189640768724
 30
0.0
 11
125.3875416357578
 21
941.3189640768719
 31
0.0
  0
LINE
  5
142
330
2
100
AcDbEntity
  8
0
100
AcDbLine
 10
125.3875416357578
 20
941.3189640768719
 30
0.0
 11
125.3875416357578
 21
1286.818964076871
 31
0.0
  0
LINE
  5
143
330
2
100
AcDbEntity
  8
10-98
100
AcDbLine
 10
276.3875416357582
 20
1288.818964076871
 30
0.0
 11
207.3875416357578
 21
1288.818964076871
 31
0.0
  0
HATCH
  5
144
330
2
100
AcDbEntity
  8
10-98
100
AcDbHatch
 10
0.0
 20
0.0
 30
0.0
210
0.0
220
0.0
230
1.0
  2
AR-B816C
 70
     0
 71
     0
 91
        1
 92
        7
 72
     0
 73
     1
 93
        8
 10
314.0536409005335
 20
1381.930959615099
 10
207.3875416357587
 20
1381.930959615099
 10
207.3875416357587
 20
1288.818964076871
 10
276.3875416357582
 20
1288.818964076871
 10
276.3875416357573
 20
891.8189640768716
 10
207.3875416357587
 20
891.8189640768714
 10
207.3875416357587
 20
826.7119029514439
 10
314.0536409005317
 20
826.7119029514439
 97
        0
 75
     0
 76
     1
 52
0.0
 41
0.1
 77
     0
 78
     4
 53
0.0
 43
0.0
 44
0.0
 45
20.32
 46
20.32
 79
     2
 49
39.6875
 49
-0.9525000000000002
 53
0.0
 43
-20.32
 44
0.9525000000000002
 45
20.32
 46
20.32
 79
     2
 49
39.6875
 49
-0.9525000000000002
 53
90.0
 43
0.0
 44
0.0
 45
-20.32
 46
20.32
 79
     2
 49
-21.2725
 49
19.3675
 53
90.0
 43
-0.9525000000000002
 44
0.0
 45
-20.32
 46
20.32
 79
     2
 49
-21.2725
 49
19.3675
 47
1.518724803585307
 98
        1
 10
254.4261070531629
 20
1339.03843167014
1001
ACAD
1010
0.0
1020
0.0
1030
0.0
  0
LINE
  5
145
330
2
100
AcDbEntity
  8
0
100
AcDbLine
 10
275.3875416357582
 20
1287.818964076871
 30
0.0
 11
207.3875416357578
 21
1287.818964076871
 31
0.0
  0
TEXT
  5
146
330
2
100
AcDbEntity
  8
02-01
100
AcDbText
 10
147.1870136632501
 20
1116.252991939449
 30
0.0
 40
15.0
  1
hinweis
  7
ROMANS
100
AcDbText
  0
TEXT
  5
147
330
2
100
AcDbEntity
  8
02-01
100
AcDbText
 10
147.1870136632501
 20
1069.912382991814
 30
0.0
 40
15.0
  1
Unterputz-
  7
ROMANS
100
AcDbText
  0
TEXT
  5
148
330
2
100
AcDbEntity
  8
02-01
100
AcDbText
 10
147.1870136632501
 20
1092.466913112629
 30
0.0
 40
15.0
  1
bei
  7
ROMANS
100
AcDbText
  0
ARC
  5
149
330
2
100
AcDbEntity
  8
0
100
AcDbCircle
 10
936.2764826606683
 20
914.7689640768707
 30
0.0
 40
0.75
100
AcDbArc
 50
180.000000000013
 51
0.0000000000130276
  0
ARC
  5
14A
330
2
100
AcDbEntity
  8
0
100
AcDbCircle
 10
936.276482660669
 20
925.7955984740977
 30
0.0
 40
0.75
100
AcDbArc
 50
359.999999999987
 51
179.999999999987
  0
LINE
  5
14B
330
2
100
AcDbEntity
  8
0
100
AcDbLine
 10
937.0264826606653
 20
914.7689640768707
 30
0.0
 11
937.0264826606687
 21
925.7955984740981
 31
0.0
  0
LINE
  5
14C
330
2
100
AcDbEntity
  8
0
100
AcDbLine
 10
935.5264826606658
 20
914.76896407687
 30
0.0
 11
935.526482660669
 21
925.7955984740975
 31
0.0
  0
ARC
  5
14D
330
2
100
AcDbEntity
  8
0
100
AcDbCircle
 10
940.776482660668
 20
920.7689640768704
 30
0.0
 40
0.75
100
AcDbArc
 50
180.000000000013
 51
0.0000000000130276
  0
ARC
  5
14E
330
2
100
AcDbEntity
  8
0
100
AcDbCircle
 10
940.7764826606687
 20
925.7955984740975
 30
0.0
 40
0.75
100
AcDbArc
 50
359.999999999987
 51
179.999999999987
  0
LINE
  5
14F
330
2
100
AcDbEntity
  8
0
100
AcDbLine
 10
941.5264826606652
 20
920.7689640768704
 30
0.0
 11
941.5264826606685
 21
925.7955984740977
 31
0.0
  0
LINE
  5
150
330
2
100
AcDbEntity
  8
0
100
AcDbLine
 10
940.0264826606656
 20
920.7689640768698
 30
0.0
 11
940.0264826606687
 21
925.7955984740974
 31
0.0
  0
ARC
  5
151
330
2
100
AcDbEntity
  8
0
100
AcDbCircle
 10
931.7764826606696
 20
909.7689640768711
 30
0.0
 40
0.75
100
AcDbArc
 50
179.999999999987
 51
359.999999999987
  0
ARC
  5
152
330
2
100
AcDbEntity
  8
0
100
AcDbCircle
 10
931.7764826606689
 20
925.7955984740984
 30
0.0
 40
0.75
100
AcDbArc
 50
0.0000000000130276
 51
180.000000000013
  0
LINE
  5
153
330
2
100
AcDbEntity
  8
0
100
AcDbLine
 10
931.0264826606726
 20
909.7689640768711
 30
0.0
 11
931.0264826606692
 21
925.7955984740986
 31
0.0
  0
LINE
  5
154
330
2
100
AcDbEntity
  8
0
100
AcDbLine
 10
932.5264826606721
 20
909.7689640768706
 30
0.0
 11
932.5264826606689
 21
925.7955984740982
 31
0.0
  0
ARC
  5
155
330
2
100
AcDbEntity
  8
0
100
AcDbCircle
 10
927.2764826606696
 20
914.7689640768707
 30
0.0
 40
0.75
100
AcDbArc
 50
179.999999999987
 51
359.999999999987
  0
ARC
  5
156
330
2
100
AcDbEntity
  8
0
100
AcDbCircle
 10
927.2764826606689
 20
925.7955984740977
 30
0.0
 40
0.75
100
AcDbArc
 50
0.0000000000130276
 51
180.000000000013
  0
LINE
  5
157
330
2
100
AcDbEntity
  8
0
100
AcDbLine
 10
926.5264826606726
 20
914.7689640768707
 30
0.0
 11
926.5264826606692
 21
925.7955984740981
 31
0.0
  0
LINE
  5
158
330
2
100
AcDbEntity
  8
0
100
AcDbLine
 10
928.0264826606721
 20
914.76896407687
 30
0.0
 11
928.0264826606689
 21
925.7955984740975
 31
0.0
  0
ARC
  5
159
330
2
100
AcDbEntity
  8
0
100
AcDbCircle
 10
922.77648266067
 20
920.7689640768704
 30
0.0
 40
0.75
100
AcDbArc
 50
179.999999999987
 51
359.999999999987
  0
ARC
  5
15A
330
2
100
AcDbEntity
  8
0
100
AcDbCircle
 10
922.7764826606692
 20
925.7955984740975
 30
0.0
 40
0.75
100
AcDbArc
 50
0.0000000000130276
 51
180.000000000013
  0
LINE
  5
15B
330
2
100
AcDbEntity
  8
0
100
AcDbLine
 10
922.0264826606728
 20
920.7689640768704
 30
0.0
 11
922.0264826606694
 21
925.7955984740977
 31
0.0
  0
LINE
  5
15C
330
2
100
AcDbEntity
  8
0
100
AcDbLine
 10
923.5264826606723
 20
920.7689640768698
 30
0.0
 11
923.5264826606693
 21
925.7955984740974
 31
0.0
  0
TEXT
  5
15D
330
2
100
AcDbEntity
  8
05-01
100
AcDbText
 10
402.7921686629561
 20
700.7118442526843
 30
0.0
 40
20.0
  1
%%UDetail X
100
AcDbText
  0
LINE
  5
15E
330
2
100
AcDbEntity
  8
02-01
 62
     7
100
AcDbLine
 10
459.4321478286365
 20
613.6295168520718
 30
0.0
 11
468.432147828651
 21
613.6295168520718
 31
0.0
  0
LINE
  5
15F
330
2
100
AcDbEntity
  8
02-01
 62
     7
100
AcDbLine
 10
456.4321478286365
 20
616.6295168520719
 30
0.0
 11
471.4321478286365
 21
616.6295168520719
 31
0.0
  0
LINE
  5
160
330
2
100
AcDbEntity
  8
02-01
 62
     7
100
AcDbLine
 10
453.4321478286511
 20
619.6295168520682
 30
0.0
 11
474.4321478286365
 21
619.6295168520682
 31
0.0
  0
LINE
  5
161
330
2
100
AcDbEntity
  8
02-01
 62
     7
100
AcDbLine
 10
463.9321478286364
 20
631.1295168520719
 30
0.0
 11
463.9321478286364
 21
619.6295168520682
 31
0.0
  0
CIRCLE
  5
162
330
2
100
AcDbEntity
  8
02-01
 62
     7
100
AcDbCircle
 10
463.9321478286364
 20
621.6295168520718
 30
0.0
 40
13.5
  0
TEXT
  5
163
330
2
100
AcDbEntity
  8
02-01
 62
     7
100
AcDbText
 10
513.1317378917811
 20
611.0847242831842
 30
0.0
 40
25.0
  1
N
 41
0.9
  7
ISO
100
AcDbText
  0
TEXT
  5
165
330
2
100
AcDbEntity
  8
02-01
 62
     7
100
AcDbText
 10
387.8706158413952
 20
609.7162539207747
 30
0.0
 40
25.0
  1
L1
 41
0.9
  7
ISO
100
AcDbText
  0
ELLIPSE
  5
166
330
2
100
AcDbEntity
  8
0
 62
     7
100
AcDbEllipse
 10
391.1855921506067
 20
589.5128900828986
 30
0.0
 11
-10.50000000000184
 21
0.0000000000136843
 31
0.0
210
0.0
220
0.0
230
1.0
 40
0.6845238095236747
 41
0.1690106563511349
 42
3.146248744616721
  0
ELLIPSE
  5
167
330
2
100
AcDbEntity
  8
0
 62
     7
100
AcDbEllipse
 10
536.1855921506067
 20
423.1213853659118
 30
0.0
 11
-10.50000000000184
 21
0.0000000000136843
 31
0.0
210
0.0
220
0.0
230
1.0
 40
0.6845238095236747
 41
3.310603309940928
 42
6.287841398206514
  0
ELLIPSE
  5
168
330
2
100
AcDbEntity
  8
0
 62
     7
100
AcDbEllipse
 10
391.1855921506067
 20
423.1213853659118
 30
0.0
 11
-10.50000000000184
 21
0.0000000000136843
 31
0.0
210
0.0
220
0.0
230
1.0
 40
0.6845238095236747
 41
3.310603309940928
 42
6.287841398206514
  0
ELLIPSE
  5
169
330
2
100
AcDbEntity
  8
0
 62
     7
100
AcDbEllipse
 10
476.1855921506066
 20
423.1213853659118
 30
0.0
 11
-10.50000000000184
 21
0.0000000000136843
 31
0.0
210
0.0
220
0.0
230
1.0
 40
0.6845238095236747
 41
3.310603309940928
 42
6.287841398206514
  0
ELLIPSE
  5
16A
330
2
100
AcDbEntity
  8
0
 62
     7
100
AcDbEllipse
 10
451.1855921506066
 20
423.1213853659118
 30
0.0
 11
-10.50000000000184
 21
0.0000000000136843
 31
0.0
210
0.0
220
0.0
230
1.0
 40
0.6845238095236747
 41
3.310603309940928
 42
6.287841398206514
  0
ELLIPSE
  5
16B
330
2
100
AcDbEntity
  8
0
 62
     7
100
AcDbEllipse
 10
476.1855921506066
 20
589.5128900828986
 30
0.0
 11
-10.50000000000184
 21
0.0000000000136843
 31
0.0
210
0.0
220
0.0
230
1.0
 40
0.6845238095236747
 41
0.1690106563511349
 42
3.146248744616721
  0
ELLIPSE
  5
16C
330
2
100
AcDbEntity
  8
0
 62
     7
100
AcDbEllipse
 10
451.1855921506066
 20
589.5128900828986
 30
0.0
 11
-10.50000000000184
 21
0.0000000000136843
 31
0.0
210
0.0
220
0.0
230
1.0
 40
0.6845238095236747
 41
0.1690106563511349
 42
3.146248744616721
  0
ELLIPSE
  5
16D
330
2
100
AcDbEntity
  8
0
 62
     7
100
AcDbEllipse
 10
416.1855921506067
 20
423.1213853659118
 30
0.0
 11
-10.50000000000184
 21
0.0000000000136843
 31
0.0
210
0.0
220
0.0
230
1.0
 40
0.6845238095236747
 41
3.310603309940928
 42
6.287841398206514
  0
ELLIPSE
  5
16E
330
2
100
AcDbEntity
  8
0
 62
     7
100
AcDbEllipse
 10
511.1855921506067
 20
589.5128900828986
 30
0.0
 11
-10.50000000000184
 21
0.0000000000136843
 31
0.0
210
0.0
220
0.0
230
1.0
 40
0.6845238095236747
 41
0.1690106563511349
 42
3.146248744616721
  0
ELLIPSE
  5
16F
330
2
100
AcDbEntity
  8
0
 62
     7
100
AcDbEllipse
 10
416.1855921506067
 20
589.5128900828986
 30
0.0
 11
-10.50000000000184
 21
0.0000000000136843
 31
0.0
210
0.0
220
0.0
230
1.0
 40
0.6845238095236747
 41
0.1690106563511349
 42
3.146248744616721
  0
ELLIPSE
  5
170
330
2
100
AcDbEntity
  8
0
 62
     7
100
AcDbEllipse
 10
511.1855921506067
 20
423.1213853659118
 30
0.0
 11
-10.50000000000185
 21
0.0000000000180931
 31
0.0
210
0.0
220
0.0
230
1.0
 40
0.6845238095236539
 41
3.310603309941225
 42
6.287841398207127
  0
ELLIPSE
  5
171
330
2
100
AcDbEntity
  8
0
 62
     7
100
AcDbEllipse
 10
536.1855921506067
 20
589.5128900828986
 30
0.0
 11
-10.50000000000184
 21
0.0000000000136843
 31
0.0
210
0.0
220
0.0
230
1.0
 40
0.6845238095236747
 41
0.1690106563511349
 42
3.146248744616721
  0
ELLIPSE
  5
172
330
2
100
AcDbEntity
  8
0
 62
     7
100
AcDbEllipse
 10
391.1855921506067
 20
589.5128900828986
 30
0.0
 11
-10.50000000000184
 21
0.0000000000144933
 31
0.0
210
0.0
220
0.0
230
1.0
 40
0.6845238095243324
 41
3.14624874461683
 42
3.619274122591059
  0
ELLIPSE
  5
173
330
2
100
AcDbEntity
  8
0
 62
     7
100
AcDbEllipse
 10
391.1855921506067
 20
589.5128900828986
 30
0.0
 11
10.50000000000164
 21
0.0000000000223195
 31
0.0
210
0.0
220
0.0
230
1.0
 40
0.6845238095251593
 41
2.663911184588052
 42
3.142411905795463
  0
ELLIPSE
  5
174
330
2
100
AcDbEntity
  8
0
 62
     7
100
AcDbEllipse
 10
536.1855921506067
 20
423.1213853659118
 30
0.0
 11
-10.50000000000184
 21
0.0000000000144933
 31
0.0
210
0.0
220
0.0
230
1.0
 40
0.6845238095243324
 41
0.0046560910270363
 42
0.4776814690012672
  0
ELLIPSE
  5
175
330
2
100
AcDbEntity
  8
0
 62
     7
100
AcDbEllipse
 10
536.1855921506067
 20
423.1213853659118
 30
0.0
 11
10.50000000000164
 21
0.0000000000223195
 31
0.0
210
0.0
220
0.0
230
1.0
 40
0.6845238095251593
 41
-0.4776814690017411
 42
0.0008192522056705
  0
ELLIPSE
  5
176
330
2
100
AcDbEntity
  8
0
 62
     7
100
AcDbEllipse
 10
391.1855921506067
 20
423.1213853659118
 30
0.0
 11
-10.50000000000184
 21
0.0000000000144933
 31
0.0
210
0.0
220
0.0
230
1.0
 40
0.6845238095243324
 41
0.0046560910270363
 42
0.4776814690012672
  0
ELLIPSE
  5
177
330
2
100
AcDbEntity
  8
0
 62
     7
100
AcDbEllipse
 10
391.1855921506067
 20
423.1213853659118
 30
0.0
 11
10.50000000000164
 21
0.0000000000223195
 31
0.0
210
0.0
220
0.0
230
1.0
 40
0.6845238095251593
 41
-0.4776814690017411
 42
0.0008192522056705
  0
ELLIPSE
  5
178
330
2
100
AcDbEntity
  8
0
 62
     7
100
AcDbEllipse
 10
476.1855921506066
 20
423.1213853659118
 30
0.0
 11
-10.50000000000184
 21
0.0000000000144933
 31
0.0
210
0.0
220
0.0
230
1.0
 40
0.6845238095243324
 41
0.0046560910270363
 42
0.4776814690012672
  0
ELLIPSE
  5
179
330
2
100
AcDbEntity
  8
0
 62
     7
100
AcDbEllipse
 10
476.1855921506066
 20
423.1213853659118
 30
0.0
 11
10.50000000000164
 21
0.0000000000223195
 31
0.0
210
0.0
220
0.0
230
1.0
 40
0.6845238095251593
 41
-0.4776814690017411
 42
0.0008192522056705
  0
ELLIPSE
  5
17A
330
2
100
AcDbEntity
  8
0
 62
     7
100
AcDbEllipse
 10
451.1855921506066
 20
423.1213853659118
 30
0.0
 11
-10.50000000000184
 21
0.0000000000144933
 31
0.0
210
0.0
220
0.0
230
1.0
 40
0.6845238095243324
 41
0.0046560910270363
 42
0.4776814690012672
  0
ELLIPSE
  5
17B
330
2
100
AcDbEntity
  8
0
 62
     7
100
AcDbEllipse
 10
451.1855921506066
 20
423.1213853659118
 30
0.0
 11
10.50000000000164
 21
0.0000000000223195
 31
0.0
210
0.0
220
0.0
230
1.0
 40
0.6845238095251593
 41
-0.4776814690017411
 42
0.0008192522056705
  0
ELLIPSE
  5
17C
330
2
100
AcDbEntity
  8
0
 62
     7
100
AcDbEllipse
 10
476.1855921506066
 20
589.5128900828986
 30
0.0
 11
-10.50000000000184
 21
0.0000000000144933
 31
0.0
210
0.0
220
0.0
230
1.0
 40
0.6845238095243324
 41
3.14624874461683
 42
3.619274122591059
  0
ELLIPSE
  5
17D
330
2
100
AcDbEntity
  8
0
 62
     7
100
AcDbEllipse
 10
476.1855921506066
 20
589.5128900828986
 30
0.0
 11
10.50000000000164
 21
0.0000000000223195
 31
0.0
210
0.0
220
0.0
230
1.0
 40
0.6845238095251593
 41
2.663911184588052
 42
3.142411905795463
  0
ELLIPSE
  5
17E
330
2
100
AcDbEntity
  8
0
 62
     7
100
AcDbEllipse
 10
451.1855921506066
 20
589.5128900828986
 30
0.0
 11
-10.50000000000184
 21
0.0000000000144933
 31
0.0
210
0.0
220
0.0
230
1.0
 40
0.6845238095243324
 41
3.14624874461683
 42
3.619274122591059
  0
ELLIPSE
  5
17F
330
2
100
AcDbEntity
  8
0
 62
     7
100
AcDbEllipse
 10
451.1855921506066
 20
589.5128900828986
 30
0.0
 11
10.50000000000164
 21
0.0000000000223195
 31
0.0
210
0.0
220
0.0
230
1.0
 40
0.6845238095251593
 41
2.663911184588052
 42
3.142411905795463
  0
ELLIPSE
  5
180
330
2
100
AcDbEntity
  8
0
 62
     7
100
AcDbEllipse
 10
416.1855921506067
 20
423.1213853659118
 30
0.0
 11
-10.50000000000184
 21
0.0000000000144933
 31
0.0
210
0.0
220
0.0
230
1.0
 40
0.6845238095243324
 41
0.0046560910270363
 42
0.4776814690012672
  0
ELLIPSE
  5
181
330
2
100
AcDbEntity
  8
0
 62
     7
100
AcDbEllipse
 10
416.1855921506067
 20
423.1213853659118
 30
0.0
 11
10.50000000000164
 21
0.0000000000223195
 31
0.0
210
0.0
220
0.0
230
1.0
 40
0.6845238095251593
 41
-0.4776814690017411
 42
0.0008192522056705
  0
ELLIPSE
  5
182
330
2
100
AcDbEntity
  8
0
 62
     7
100
AcDbEllipse
 10
511.1855921506067
 20
589.5128900828986
 30
0.0
 11
-10.50000000000184
 21
0.0000000000144933
 31
0.0
210
0.0
220
0.0
230
1.0
 40
0.6845238095243324
 41
3.14624874461683
 42
3.619274122591059
  0
ELLIPSE
  5
183
330
2
100
AcDbEntity
  8
0
 62
     7
100
AcDbEllipse
 10
511.1855921506067
 20
589.5128900828986
 30
0.0
 11
10.50000000000164
 21
0.0000000000223195
 31
0.0
210
0.0
220
0.0
230
1.0
 40
0.6845238095251593
 41
2.663911184588052
 42
3.142411905795463
  0
ELLIPSE
  5
184
330
2
100
AcDbEntity
  8
0
 62
     7
100
AcDbEllipse
 10
416.1855921506067
 20
589.5128900828986
 30
0.0
 11
-10.50000000000184
 21
0.0000000000144933
 31
0.0
210
0.0
220
0.0
230
1.0
 40
0.6845238095243324
 41
3.14624874461683
 42
3.619274122591059
  0
ELLIPSE
  5
185
330
2
100
AcDbEntity
  8
0
 62
     7
100
AcDbEllipse
 10
416.1855921506067
 20
589.5128900828986
 30
0.0
 11
10.50000000000164
 21
0.0000000000223195
 31
0.0
210
0.0
220
0.0
230
1.0
 40
0.6845238095251593
 41
2.663911184588052
 42
3.142411905795463
  0
ELLIPSE
  5
186
330
2
100
AcDbEntity
  8
0
 62
     7
100
AcDbEllipse
 10
511.1855921506067
 20
423.1213853659118
 30
0.0
 11
-10.50000000000184
 21
0.0000000000144933
 31
0.0
210
0.0
220
0.0
230
1.0
 40
0.6845238095243324
 41
0.0046560910270363
 42
0.4776814690012672
  0
ELLIPSE
  5
187
330
2
100
AcDbEntity
  8
0
 62
     7
100
AcDbEllipse
 10
511.1855921506067
 20
423.1213853659118
 30
0.0
 11
10.50000000000164
 21
0.0000000000223195
 31
0.0
210
0.0
220
0.0
230
1.0
 40
0.6845238095251593
 41
-0.4776814690017411
 42
0.0008192522056705
  0
ELLIPSE
  5
188
330
2
100
AcDbEntity
  8
0
 62
     7
100
AcDbEllipse
 10
536.1855921506067
 20
589.5128900828986
 30
0.0
 11
-10.50000000000184
 21
0.0000000000144933
 31
0.0
210
0.0
220
0.0
230
1.0
 40
0.6845238095243324
 41
3.14624874461683
 42
3.619274122591059
  0
ELLIPSE
  5
189
330
2
100
AcDbEntity
  8
0
 62
     7
100
AcDbEllipse
 10
536.1855921506067
 20
589.5128900828986
 30
0.0
 11
10.50000000000164
 21
0.0000000000223195
 31
0.0
210
0.0
220
0.0
230
1.0
 40
0.6845238095251593
 41
2.663911184588052
 42
3.142411905795463
  0
LINE
  5
18A
330
2
100
AcDbEntity
  8
0
 62
     7
100
AcDbLine
 10
380.8294345620088
 20
593.8171377244052
 30
0.0
 11
401.541749739219
 21
593.8171377244052
 31
0.0
  0
LINE
  5
18B
330
2
100
AcDbEntity
  8
0
 62
     7
100
AcDbLine
 10
401.541749739219
 20
418.8171377244052
 30
0.0
 11
380.8294345620088
 21
418.8171377244052
 31
0.0
  0
LINE
  5
18C
330
2
100
AcDbEntity
  8
0
 62
     7
100
AcDbLine
 10
465.8294345620088
 20
593.8171377244052
 30
0.0
 11
486.5417497392191
 21
593.8171377244052
 31
0.0
  0
LINE
  5
18D
330
2
100
AcDbEntity
  8
0
 62
     7
100
AcDbLine
 10
486.5417497392191
 20
418.8171377244052
 30
0.0
 11
465.8294345620088
 21
418.8171377244052
 31
0.0
  0
LINE
  5
18E
330
2
100
AcDbEntity
  8
0
 62
     7
100
AcDbLine
 10
440.8294345620088
 20
593.8171377244052
 30
0.0
 11
461.5417497392191
 21
593.8171377244052
 31
0.0
  0
LINE
  5
18F
330
2
100
AcDbEntity
  8
0
 62
     7
100
AcDbLine
 10
405.8294345620088
 20
593.8171377244052
 30
0.0
 11
426.541749739219
 21
593.8171377244052
 31
0.0
  0
LINE
  5
190
330
2
100
AcDbEntity
  8
0
 62
     7
100
AcDbLine
 10
426.541749739219
 20
418.8171377244052
 30
0.0
 11
405.8294345620088
 21
418.8171377244052
 31
0.0
  0
LINE
  5
191
330
2
100
AcDbEntity
  8
0
 62
     7
100
AcDbLine
 10
461.5417497392191
 20
418.8171377244052
 30
0.0
 11
440.8294345620088
 21
418.8171377244052
 31
0.0
  0
LINE
  5
192
330
2
100
AcDbEntity
  8
0
 62
     7
100
AcDbLine
 10
521.541749739219
 20
418.8171377244052
 30
0.0
 11
500.8294345620088
 21
418.8171377244052
 31
0.0
  0
LINE
  5
193
330
2
100
AcDbEntity
  8
0
 62
     7
100
AcDbLine
 10
500.8294345620088
 20
593.8171377244052
 30
0.0
 11
521.541749739219
 21
593.8171377244052
 31
0.0
  0
LINE
  5
194
330
2
100
AcDbEntity
  8
0
 62
     7
100
AcDbLine
 10
525.8294345620088
 20
593.8171377244052
 30
0.0
 11
546.541749739219
 21
593.8171377244052
 31
0.0
  0
LINE
  5
195
330
2
100
AcDbEntity
  8
0
 62
     7
100
AcDbLine
 10
546.541749739219
 20
418.8171377244052
 30
0.0
 11
525.8294345620088
 21
418.8171377244052
 31
0.0
  0
LINE
  5
196
330
2
100
AcDbEntity
  8
0
 62
     7
100
AcDbLine
 10
520.510255615125
 20
592.8171377244052
 30
0.0
 11
501.8609286861028
 21
592.8171377244052
 31
0.0
  0
LINE
  5
197
330
2
100
AcDbEntity
  8
0
 62
     7
100
AcDbLine
 10
485.510255615125
 20
592.8171377244052
 30
0.0
 11
466.8609286861028
 21
592.8171377244052
 31
0.0
  0
LINE
  5
198
330
2
100
AcDbEntity
  8
0
 62
     7
100
AcDbLine
 10
545.510255615125
 20
592.8171377244052
 30
0.0
 11
526.8609286861028
 21
592.8171377244052
 31
0.0
  0
LINE
  5
199
330
2
100
AcDbEntity
  8
0
 62
     7
100
AcDbLine
 10
406.8609286861028
 20
419.8171377244052
 30
0.0
 11
425.510255615125
 21
419.8171377244052
 31
0.0
  0
LINE
  5
19A
330
2
100
AcDbEntity
  8
0
 62
     7
100
AcDbLine
 10
400.510255615125
 20
592.8171377244052
 30
0.0
 11
381.8609286861029
 21
592.8171377244052
 31
0.0
  0
LINE
  5
19B
330
2
100
AcDbEntity
  8
0
 62
     7
100
AcDbLine
 10
381.8609286861029
 20
419.8171377244052
 30
0.0
 11
400.510255615125
 21
419.8171377244052
 31
0.0
  0
LINE
  5
19C
330
2
100
AcDbEntity
  8
0
 62
     7
100
AcDbLine
 10
441.8609286861028
 20
419.8171377244052
 30
0.0
 11
460.510255615125
 21
419.8171377244052
 31
0.0
  0
LINE
  5
19D
330
2
100
AcDbEntity
  8
0
 62
     7
100
AcDbLine
 10
460.510255615125
 20
592.8171377244052
 30
0.0
 11
441.8609286861028
 21
592.8171377244052
 31
0.0
  0
LINE
  5
19E
330
2
100
AcDbEntity
  8
0
 62
     7
100
AcDbLine
 10
526.8609286861028
 20
419.8171377244052
 30
0.0
 11
545.510255615125
 21
419.8171377244052
 31
0.0
  0
LINE
  5
19F
330
2
100
AcDbEntity
  8
0
 62
     7
100
AcDbLine
 10
501.8609286861028
 20
419.8171377244052
 30
0.0
 11
520.510255615125
 21
419.8171377244052
 31
0.0
  0
LINE
  5
1A0
330
2
100
AcDbEntity
  8
0
 62
     7
100
AcDbLine
 10
466.8609286861028
 20
419.8171377244052
 30
0.0
 11
485.510255615125
 21
419.8171377244052
 31
0.0
  0
LINE
  5
1A1
330
2
100
AcDbEntity
  8
0
 62
     7
100
AcDbLine
 10
425.510255615125
 20
592.8171377244052
 30
0.0
 11
406.8609286861028
 21
592.8171377244052
 31
0.0
  0
ARC
  5
1A2
330
2
100
AcDbEntity
  8
0
 62
     7
100
AcDbCircle
 10
401.6451721555641
 20
592.7014839248786
 30
0.0
 40
1.14079338352638
100
AcDbArc
 50
107.8832760380816
 51
174.1812444888305
  0
ARC
  5
1A3
330
2
100
AcDbEntity
  8
0
 62
     7
100
AcDbCircle
 10
380.719454733684
 20
592.6961765730356
 30
0.0
 40
1.14786850595079
100
AcDbArc
 50
6.049102557402291
 51
71.88637691544035
  0
ARC
  5
1A4
330
2
100
AcDbEntity
  8
0
 62
     7
100
AcDbCircle
 10
546.6517295675439
 20
419.9380988757784
 30
0.0
 40
1.147868505950805
100
AcDbArc
 50
186.0491025574022
 51
251.8863769154404
  0
ARC
  5
1A5
330
2
100
AcDbEntity
  8
0
 62
     7
100
AcDbCircle
 10
525.7260121456638
 20
419.9327915239319
 30
0.0
 40
1.140793383526353
100
AcDbArc
 50
287.8832760380816
 51
354.1812444888305
  0
ARC
  5
1A6
330
2
100
AcDbEntity
  8
0
 62
     7
100
AcDbCircle
 10
401.6517231383186
 20
419.9380903006804
 30
0.0
 40
1.147857059797239
100
AcDbArc
 50
186.0487326767563
 51
251.8867467963675
  0
ARC
  5
1A7
330
2
100
AcDbEntity
  8
0
 62
     7
100
AcDbCircle
 10
380.7259942914388
 20
419.9328093401472
 30
0.0
 40
1.140817102929409
100
AcDbArc
 50
287.8840540662425
 51
354.1804664607995
  0
ARC
  5
1A8
330
2
100
AcDbEntity
  8
0
 62
     7
100
AcDbCircle
 10
486.6517231010657
 20
419.9380903006804
 30
0.0
 40
1.147857059797239
100
AcDbArc
 50
186.0487326767563
 51
251.8867467963675
  0
ARC
  5
1A9
330
2
100
AcDbEntity
  8
0
 62
     7
100
AcDbCircle
 10
465.7260008536686
 20
419.9328013601171
 30
0.0
 40
1.140806543424573
100
AcDbArc
 50
287.8837156458768
 51
354.1808152728843
  0
ARC
  5
1AA
330
2
100
AcDbEntity
  8
0
 62
     7
100
AcDbCircle
 10
461.6517349749046
 20
419.9381005763771
 30
0.0
 40
1.147870841770022
100
AcDbArc
 50
186.0491755628042
 51
251.8862935184145
  0
ARC
  5
1AB
330
2
100
AcDbEntity
  8
0
 62
     7
100
AcDbCircle
 10
440.7260121829167
 20
419.9327915239319
 30
0.0
 40
1.140793383526353
100
AcDbArc
 50
287.8832760380816
 51
354.1812444888305
  0
ARC
  5
1AC
330
2
100
AcDbEntity
  8
0
 62
     7
100
AcDbCircle
 10
486.6451721183111
 20
592.7014839248786
 30
0.0
 40
1.14079338352638
100
AcDbArc
 50
107.8832760380816
 51
174.1812444888305
  0
ARC
  5
1AD
330
2
100
AcDbEntity
  8
0
 62
     7
100
AcDbCircle
 10
465.7194493263232
 20
592.6961748724334
 30
0.0
 40
1.147870841770086
100
AcDbArc
 50
6.049175562804244
 51
71.88629351841453
  0
ARC
  5
1AE
330
2
100
AcDbEntity
  8
0
 62
     7
100
AcDbCircle
 10
461.6451834475592
 20
592.7014740886934
 30
0.0
 40
1.140806543424595
100
AcDbArc
 50
107.8837156458768
 51
174.1808152728842
  0
ARC
  5
1AF
330
2
100
AcDbEntity
  8
0
 62
     7
100
AcDbCircle
 10
440.7194612001622
 20
592.69618514813
 30
0.0
 40
1.147857059797239
100
AcDbArc
 50
6.048732676756376
 51
71.88674679636751
  0
ARC
  5
1B0
330
2
100
AcDbEntity
  8
0
 62
     7
100
AcDbCircle
 10
426.6517252298217
 20
419.9380924443812
 30
0.0
 40
1.147859921234884
100
AcDbArc
 50
186.0488251445099
 51
251.8866543284568
  0
ARC
  5
1B1
330
2
100
AcDbEntity
  8
0
 62
     7
100
AcDbCircle
 10
405.7260111025825
 20
419.9327915239319
 30
0.0
 40
1.140793383526353
100
AcDbArc
 50
287.8832760380816
 51
354.1812444888305
  0
ARC
  5
1B2
330
2
100
AcDbEntity
  8
0
 62
     7
100
AcDbCircle
 10
521.6451731986453
 20
592.7014839248786
 30
0.0
 40
1.14079338352638
100
AcDbArc
 50
107.8832760380816
 51
174.1812444888305
  0
ARC
  5
1B3
330
2
100
AcDbEntity
  8
0
 62
     7
100
AcDbCircle
 10
500.7194590714061
 20
592.6961830044292
 30
0.0
 40
1.147859921234884
100
AcDbArc
 50
6.048825144509983
 51
71.88665432845687
  0
ARC
  5
1B4
330
2
100
AcDbEntity
  8
0
 62
     7
100
AcDbCircle
 10
426.6451771032443
 20
592.7014794709593
 30
0.0
 40
1.140799313183328
100
AcDbArc
 50
107.8834705423553
 51
174.1810499845421
  0
ARC
  5
1B5
330
2
100
AcDbEntity
  8
0
 62
     7
100
AcDbCircle
 10
405.719460119828
 20
592.69618514813
 30
0.0
 40
1.147857059797239
100
AcDbArc
 50
6.048732676756376
 51
71.88674679636751
  0
ARC
  5
1B6
330
2
100
AcDbEntity
  8
0
 62
     7
100
AcDbCircle
 10
521.6517241813999
 20
419.9380903006804
 30
0.0
 40
1.147857059797239
100
AcDbArc
 50
186.0487326767563
 51
251.8867467963675
  0
ARC
  5
1B7
330
2
100
AcDbEntity
  8
0
 62
     7
100
AcDbCircle
 10
500.7260071979835
 20
419.9327959778511
 30
0.0
 40
1.140799313183463
100
AcDbArc
 50
287.8834705423553
 51
354.181049984542
  0
ARC
  5
1B8
330
2
100
AcDbEntity
  8
0
 62
     7
100
AcDbCircle
 10
546.645190009789
 20
592.7014661086632
 30
0.0
 40
1.140817102929273
100
AcDbArc
 50
107.8840540662425
 51
174.1804664607995
  0
ARC
  5
1B9
330
2
100
AcDbEntity
  8
0
 62
     7
100
AcDbCircle
 10
525.7194611629093
 20
592.69618514813
 30
0.0
 40
1.147857059797239
100
AcDbArc
 50
6.048732676756376
 51
71.88674679636751
  0
LINE
  5
1BA
330
2
100
AcDbEntity
  8
0
 62
     7
100
AcDbLine
 10
373.6855960249086
 20
593.8171380969342
 30
0.0
 11
373.6855960249086
 21
581.3171360480246
 31
0.0
  0
LINE
  5
1BB
330
2
100
AcDbEntity
  8
0
 62
     7
100
AcDbLine
 10
553.6855882763047
 20
593.8171380969342
 30
0.0
 11
553.6855882763047
 21
581.3171360480246
 31
0.0
  0
LINE
  5
1BC
330
2
100
AcDbEntity
  8
0
 62
     7
100
AcDbLine
 10
525.8294345620088
 20
593.8171377244052
 30
0.0
 11
521.541749739219
 21
593.8171377244052
 31
0.0
  0
LWPOLYLINE
  5
1BD
330
2
100
AcDbEntity
  8
0
 62
     7
100
AcDbPolyline
 90
        3
 70
   128
 43
0.0
 10
521.5417486413498
 20
593.8171380969342
 10
521.3633538021822
 20
593.8024604531583
 10
521.2948596834321
 20
593.7871588232574
  0
ELLIPSE
  5
1BE
330
2
100
AcDbEntity
  8
0
 62
     7
100
AcDbEllipse
 10
511.1855921506067
 20
590.3608883869037
 30
0.0
 11
-11.50000000000064
 21
0.0000000000000061
 31
0.0
210
0.0
220
0.0
230
1.0
 40
0.624999999999965
 41
-0.4968958241987853
 42
3.638488477788579
  0
LWPOLYLINE
  5
1BF
330
2
100
AcDbEntity
  8
0
 62
     7
100
AcDbPolyline
 90
        3
 70
   128
 43
0.0
 10
501.076326219656
 20
593.7871588232574
 10
500.9037311918218
 20
593.8147911640462
 10
500.8294349334319
 20
593.8171380969342
  0
LINE
  5
1C0
330
2
100
AcDbEntity
  8
0
 62
     7
100
AcDbLine
 10
500.8294345620088
 20
593.8171377244052
 30
0.0
 11
486.5417497392191
 21
593.8171377244052
 31
0.0
  0
LWPOLYLINE
  5
1C1
330
2
100
AcDbEntity
  8
0
 62
     7
100
AcDbPolyline
 90
        3
 70
   128
 43
0.0
 10
486.541749889322
 20
593.8171380969342
 10
486.363352721848
 20
593.8024604531583
 10
486.2948586030979
 20
593.7871588232574
  0
ELLIPSE
  5
1C2
330
2
100
AcDbEntity
  8
0
 62
     7
100
AcDbEllipse
 10
476.1855921506066
 20
590.3608883869037
 30
0.0
 11
-11.50000000000064
 21
0.0000000000000061
 31
0.0
210
0.0
220
0.0
230
1.0
 40
0.624999999999965
 41
-0.4968958241987853
 42
3.638488477788579
  0
LWPOLYLINE
  5
1C3
330
2
100
AcDbEntity
  8
0
 62
     7
100
AcDbPolyline
 90
        3
 70
   128
 43
0.0
 10
466.0763267400325
 20
593.7871588232574
 10
465.9037304025259
 20
593.8147911640462
 10
465.8294345806934
 20
593.8171380969342
  0
LINE
  5
1C4
330
2
100
AcDbEntity
  8
0
 62
     7
100
AcDbLine
 10
465.8294345620088
 20
593.8171377244052
 30
0.0
 11
461.5417497392191
 21
593.8171377244052
 31
0.0
  0
LWPOLYLINE
  5
1C5
330
2
100
AcDbEntity
  8
0
 62
     7
100
AcDbPolyline
 90
        3
 70
   128
 43
0.0
 10
461.5417497205198
 20
593.8171380969342
 10
461.3633516799309
 20
593.8024604531583
 10
461.2948575611808
 20
593.7871588232574
  0
ELLIPSE
  5
1C6
330
2
100
AcDbEntity
  8
0
 62
     7
100
AcDbEllipse
 10
451.1855921506066
 20
590.3608883869037
 30
0.0
 11
-11.50000000000064
 21
0.0000000000000061
 31
0.0
210
0.0
220
0.0
230
1.0
 40
0.624999999999965
 41
-0.4968958241987853
 42
3.638488477788579
  0
LWPOLYLINE
  5
1C7
330
2
100
AcDbEntity
  8
0
 62
     7
100
AcDbPolyline
 90
        3
 70
   128
 43
0.0
 10
441.0763256981153
 20
593.7871588232574
 10
440.9037306702812
 20
593.8147911640462
 10
440.8294344118912
 20
593.8171380969342
  0
LINE
  5
1C8
330
2
100
AcDbEntity
  8
0
 62
     7
100
AcDbLine
 10
440.8294345620088
 20
593.8171377244052
 30
0.0
 11
426.541749739219
 21
593.8171377244052
 31
0.0
  0
LWPOLYLINE
  5
1C9
330
2
100
AcDbEntity
  8
0
 62
     7
100
AcDbPolyline
 90
        3
 70
   128
 43
0.0
 10
426.5417493677814
 20
593.8171380969342
 10
426.3633522003074
 20
593.8024604531583
 10
426.2948580815573
 20
593.7871588232574
  0
ELLIPSE
  5
1CA
330
2
100
AcDbEntity
  8
0
 62
     7
100
AcDbEllipse
 10
416.1855921506067
 20
590.3608883869037
 30
0.0
 11
-11.50000000000064
 21
0.0000000000000061
 31
0.0
210
0.0
220
0.0
230
1.0
 40
0.624999999999965
 41
-0.4968958241987853
 42
3.638488477788579
  0
LWPOLYLINE
  5
1CB
330
2
100
AcDbEntity
  8
0
 62
     7
100
AcDbPolyline
 90
        3
 70
   128
 43
0.0
 10
406.0763246177812
 20
593.7871588232574
 10
405.9037319182534
 20
593.8147911640462
 10
405.8294356598635
 20
593.8171380969342
  0
LINE
  5
1CC
330
2
100
AcDbEntity
  8
0
 62
     7
100
AcDbLine
 10
405.8294345620088
 20
593.8171377244052
 30
0.0
 11
401.541749739219
 21
593.8171377244052
 31
0.0
  0
LWPOLYLINE
  5
1CD
330
2
100
AcDbEntity
  8
0
 62
     7
100
AcDbPolyline
 90
        3
 70
   128
 43
0.0
 10
401.5417475982685
 20
593.8171380969342
 10
401.3633527591009
 20
593.8024604531583
 10
401.2948586403508
 20
593.7871588232574
  0
ELLIPSE
  5
1CE
330
2
100
AcDbEntity
  8
0
 62
     7
100
AcDbEllipse
 10
391.1855921506067
 20
590.3608883869037
 30
0.0
 11
-11.50000000000064
 21
0.0000000000000061
 31
0.0
210
0.0
220
0.0
230
1.0
 40
0.624999999999965
 41
-0.4968958241987853
 42
3.638488477788579
  0
LWPOLYLINE
  5
1CF
330
2
100
AcDbEntity
  8
0
 62
     7
100
AcDbPolyline
 90
        3
 70
   128
 43
0.0
 10
381.0763298331876
 20
593.7871588232574
 10
380.9037278204341
 20
593.8147911640462
 10
380.829436218657
 20
593.8171380969342
  0
LINE
  5
1D0
330
2
100
AcDbEntity
  8
0
 62
     7
100
AcDbLine
 10
380.8294345620088
 20
593.8171377244052
 30
0.0
 11
373.6855960249086
 21
593.8171380969342
 31
0.0
  0
LINE
  5
1D1
330
2
100
AcDbEntity
  8
0
 62
     7
100
AcDbLine
 10
553.6855882763047
 20
593.8171380969342
 30
0.0
 11
546.541749739219
 21
593.8171377244052
 31
0.0
  0
LWPOLYLINE
  5
1D2
330
2
100
AcDbEntity
  8
0
 62
     7
100
AcDbPolyline
 90
        3
 70
   128
 43
0.0
 10
546.5417480825562
 20
593.8171380969342
 10
546.3633532433886
 20
593.8024604531583
 10
546.2948544680257
 20
593.7871588232574
  0
ELLIPSE
  5
1D3
330
2
100
AcDbEntity
  8
0
 62
     7
100
AcDbEllipse
 10
536.1855921506067
 20
590.3608883869037
 30
0.0
 11
-11.50000000000064
 21
0.0000000000000061
 31
0.0
210
0.0
220
0.0
230
1.0
 40
0.624999999999965
 41
-0.4968958241987853
 42
3.638488477788579
  0
LWPOLYLINE
  5
1D4
330
2
100
AcDbEntity
  8
0
 62
     7
100
AcDbPolyline
 90
        3
 70
   128
 43
0.0
 10
526.0763256608624
 20
593.7871588232574
 10
525.9037283047218
 20
593.8147911640462
 10
525.8294367029447
 20
593.8171380969342
  0
LINE
  5
1D5
330
2
100
AcDbEntity
  8
0
 62
     7
100
AcDbLine
 10
373.6855960249086
 20
431.3171394007858
 30
0.0
 11
373.6855960249086
 21
418.8171373518762
 31
0.0
  0
LINE
  5
1D6
330
2
100
AcDbEntity
  8
0
 62
     7
100
AcDbLine
 10
553.6855882763047
 20
431.3171394007858
 30
0.0
 11
553.6855882763047
 21
418.8171373518762
 31
0.0
  0
ELLIPSE
  5
1D7
330
2
100
AcDbEntity
  8
0
 62
     7
100
AcDbEllipse
 10
536.1855921506067
 20
422.2733870619067
 30
0.0
 11
-11.50000000000064
 21
0.0000000000000061
 31
0.0
210
0.0
220
0.0
230
1.0
 40
0.624999999999965
 41
2.644696829391007
 42
6.780081131378372
  0
LWPOLYLINE
  5
1D8
330
2
100
AcDbEntity
  8
0
 62
     7
100
AcDbPolyline
 90
        3
 70
   128
 43
0.0
 10
546.2948544680257
 20
418.847116625553
 10
546.4674564807792
 20
418.8194842847642
 10
546.5417480825562
 20
418.8171373518762
  0
LINE
  5
1D9
330
2
100
AcDbEntity
  8
0
 62
     7
100
AcDbLine
 10
553.6855882763047
 20
418.8171373518762
 30
0.0
 11
546.541749739219
 21
418.8171377244052
 31
0.0
  0
LINE
  5
1DA
330
2
100
AcDbEntity
  8
0
 62
     7
100
AcDbLine
 10
380.8294345620088
 20
418.8171377244052
 30
0.0
 11
373.6855960249086
 21
418.8171373518762
 31
0.0
  0
LWPOLYLINE
  5
1DB
330
2
100
AcDbEntity
  8
0
 62
     7
100
AcDbPolyline
 90
        3
 70
   128
 43
0.0
 10
380.829436218657
 20
418.8171373518762
 10
381.0078310578246
 20
418.8318149956521
 10
381.0763298331876
 20
418.847116625553
  0
ELLIPSE
  5
1DC
330
2
100
AcDbEntity
  8
0
 62
     7
100
AcDbEllipse
 10
391.1855921506067
 20
422.2733870619067
 30
0.0
 11
-11.50000000000064
 21
0.0000000000000061
 31
0.0
210
0.0
220
0.0
230
1.0
 40
0.624999999999965
 41
2.644696829391007
 42
6.780081131378372
  0
LWPOLYLINE
  5
1DD
330
2
100
AcDbEntity
  8
0
 62
     7
100
AcDbPolyline
 90
        3
 70
   128
 43
0.0
 10
401.2948586403508
 20
418.847116625553
 10
401.4674559964914
 20
418.8194842847642
 10
401.5417475982685
 20
418.8171373518762
  0
LINE
  5
1DE
330
2
100
AcDbEntity
  8
0
 62
     7
100
AcDbLine
 10
405.8294345620088
 20
418.8171377244052
 30
0.0
 11
401.541749739219
 21
418.8171377244052
 31
0.0
  0
LWPOLYLINE
  5
1DF
330
2
100
AcDbEntity
  8
0
 62
     7
100
AcDbPolyline
 90
        3
 70
   128
 43
0.0
 10
405.8294356598635
 20
418.8171373518762
 10
406.0078304990311
 20
418.8318149956521
 10
406.0763246177812
 20
418.847116625553
  0
ELLIPSE
  5
1E0
330
2
100
AcDbEntity
  8
0
 62
     7
100
AcDbEllipse
 10
416.1855921506067
 20
422.2733870619067
 30
0.0
 11
-11.50000000000064
 21
0.0000000000000061
 31
0.0
210
0.0
220
0.0
230
1.0
 40
0.624999999999965
 41
2.644696829391007
 42
6.780081131378372
  0
LWPOLYLINE
  5
1E1
330
2
100
AcDbEntity
  8
0
 62
     7
100
AcDbPolyline
 90
        3
 70
   128
 43
0.0
 10
426.2948580815573
 20
418.847116625553
 10
426.4674531093914
 20
418.8194842847642
 10
426.5417493677814
 20
418.8171373518762
  0
LINE
  5
1E2
330
2
100
AcDbEntity
  8
0
 62
     7
100
AcDbLine
 10
440.8294345620088
 20
418.8171377244052
 30
0.0
 11
426.541749739219
 21
418.8171377244052
 31
0.0
  0
LWPOLYLINE
  5
1E3
330
2
100
AcDbEntity
  8
0
 62
     7
100
AcDbPolyline
 90
        3
 70
   128
 43
0.0
 10
440.8294344118912
 20
418.8171373518762
 10
441.0078315793652
 20
418.8318149956521
 10
441.0763256981153
 20
418.847116625553
  0
ELLIPSE
  5
1E4
330
2
100
AcDbEntity
  8
0
 62
     7
100
AcDbEllipse
 10
451.1855921506066
 20
422.2733870619067
 30
0.0
 11
-11.50000000000064
 21
0.0000000000000061
 31
0.0
210
0.0
220
0.0
230
1.0
 40
0.624999999999965
 41
2.644696829391007
 42
6.780081131378372
  0
LWPOLYLINE
  5
1E5
330
2
100
AcDbEntity
  8
0
 62
     7
100
AcDbPolyline
 90
        3
 70
   128
 43
0.0
 10
461.2948575611808
 20
418.847116625553
 10
461.4674538986873
 20
418.8194842847642
 10
461.5417497205198
 20
418.8171373518762
  0
LINE
  5
1E6
330
2
100
AcDbEntity
  8
0
 62
     7
100
AcDbLine
 10
465.8294345620088
 20
418.8171377244052
 30
0.0
 11
461.5417497392191
 21
418.8171377244052
 31
0.0
  0
LWPOLYLINE
  5
1E7
330
2
100
AcDbEntity
  8
0
 62
     7
100
AcDbPolyline
 90
        3
 70
   128
 43
0.0
 10
465.8294345806934
 20
418.8171373518762
 10
466.0078326212824
 20
418.8318149956521
 10
466.0763267400325
 20
418.847116625553
  0
ELLIPSE
  5
1E8
330
2
100
AcDbEntity
  8
0
 62
     7
100
AcDbEllipse
 10
476.1855921506066
 20
422.2733870619067
 30
0.0
 11
-11.50000000000064
 21
0.0000000000000061
 31
0.0
210
0.0
220
0.0
230
1.0
 40
0.624999999999965
 41
2.644696829391007
 42
6.780081131378372
  0
LWPOLYLINE
  5
1E9
330
2
100
AcDbEntity
  8
0
 62
     7
100
AcDbPolyline
 90
        3
 70
   128
 43
0.0
 10
486.2948586030979
 20
418.847116625553
 10
486.4674536309321
 20
418.8194842847642
 10
486.541749889322
 20
418.8171373518762
  0
LINE
  5
1EA
330
2
100
AcDbEntity
  8
0
 62
     7
100
AcDbLine
 10
500.8294345620088
 20
418.8171377244052
 30
0.0
 11
486.5417497392191
 21
418.8171377244052
 31
0.0
  0
LWPOLYLINE
  5
1EB
330
2
100
AcDbEntity
  8
0
 62
     7
100
AcDbPolyline
 90
        3
 70
   128
 43
0.0
 10
500.8294349334319
 20
418.8171373518762
 10
501.0078321009059
 20
418.8318149956521
 10
501.076326219656
 20
418.847116625553
  0
ELLIPSE
  5
1EC
330
2
100
AcDbEntity
  8
0
 62
     7
100
AcDbEllipse
 10
511.1855921506067
 20
422.2733870619067
 30
0.0
 11
-11.50000000000064
 21
0.0000000000000061
 31
0.0
210
0.0
220
0.0
230
1.0
 40
0.624999999999965
 41
2.644696829391007
 42
6.780081131378372
  0
LWPOLYLINE
  5
1ED
330
2
100
AcDbEntity
  8
0
 62
     7
100
AcDbPolyline
 90
        3
 70
   128
 43
0.0
 10
521.2948596834321
 20
418.847116625553
 10
521.4674523829598
 20
418.8194842847642
 10
521.5417486413498
 20
418.8171373518762
  0
LINE
  5
1EE
330
2
100
AcDbEntity
  8
0
 62
     7
100
AcDbLine
 10
525.8294345620088
 20
418.8171377244052
 30
0.0
 11
521.541749739219
 21
418.8171377244052
 31
0.0
  0
LWPOLYLINE
  5
1EF
330
2
100
AcDbEntity
  8
0
 62
     7
100
AcDbPolyline
 90
        3
 70
   128
 43
0.0
 10
525.8294367029447
 20
418.8171373518762
 10
526.0078315421123
 20
418.8318149956521
 10
526.0763256608624
 20
418.847116625553
  0
CIRCLE
  5
1F0
330
2
100
AcDbEntity
  8
0
 62
     7
100
AcDbCircle
 10
433.6855921506066
 20
506.3171377244052
 30
0.0
 40
7.750000000000056
  0
CIRCLE
  5
1F1
330
2
100
AcDbEntity
  8
0
 62
     7
100
AcDbCircle
 10
433.6855921506066
 20
506.3171377244052
 30
0.0
 40
10.25000000000005
  0
CIRCLE
  5
1F2
330
2
100
AcDbEntity
  8
0
 62
     7
100
AcDbCircle
 10
493.6855921506066
 20
506.3171377244052
 30
0.0
 40
7.750000000000056
  0
CIRCLE
  5
1F3
330
2
100
AcDbEntity
  8
0
 62
     7
100
AcDbCircle
 10
493.6855921506066
 20
506.3171377244052
 30
0.0
 40
10.24999999999998
  0
LINE
  5
1F4
330
2
100
AcDbEntity
  8
0
 62
     7
100
AcDbLine
 10
496.1855928211589
 20
456.3171388419923
 30
0.0
 11
496.1855928211589
 21
471.317136644071
 31
0.0
  0
LINE
  5
1F5
330
2
100
AcDbEntity
  8
0
 62
     7
100
AcDbLine
 10
491.185592001595
 20
471.317136644071
 30
0.0
 11
491.185592001595
 21
456.3171388419923
 31
0.0
  0
LINE
  5
1F6
330
2
100
AcDbEntity
  8
0
 62
     7
100
AcDbLine
 10
436.1855922996182
 20
456.3171388419923
 30
0.0
 11
436.1855922996182
 21
471.317136644071
 31
0.0
  0
LINE
  5
1F7
330
2
100
AcDbEntity
  8
0
 62
     7
100
AcDbLine
 10
431.1855914800544
 20
471.317136644071
 30
0.0
 11
431.1855914800544
 21
456.3171388419923
 31
0.0
  0
LINE
  5
1F8
330
2
100
AcDbEntity
  8
0
 62
     7
100
AcDbLine
 10
551.1855925231357
 20
471.317136644071
 30
0.0
 11
551.1855925231357
 21
456.3171388419923
 31
0.0
  0
LINE
  5
1F9
330
2
100
AcDbEntity
  8
0
 62
     7
100
AcDbLine
 10
553.6855882763047
 20
471.317136644071
 30
0.0
 11
553.6855882763047
 21
456.3171388419923
 31
0.0
  0
LINE
  5
1FA
330
2
100
AcDbEntity
  8
0
 62
     7
100
AcDbLine
 10
496.1855928211589
 20
570.2060246678647
 30
0.0
 11
496.1855928211589
 21
556.3171366068181
 31
0.0
  0
LINE
  5
1FB
330
2
100
AcDbEntity
  8
0
 62
     7
100
AcDbLine
 10
431.1855914800544
 20
556.3171366068181
 30
0.0
 11
431.1855914800544
 21
570.2060246678647
 31
0.0
  0
LINE
  5
1FC
330
2
100
AcDbEntity
  8
0
 62
     7
100
AcDbLine
 10
551.1855925231357
 20
556.3171366068181
 30
0.0
 11
551.1855925231357
 21
570.2060246678647
 31
0.0
  0
LINE
  5
1FD
330
2
100
AcDbEntity
  8
0
 62
     7
100
AcDbLine
 10
553.6855882763047
 20
581.3171360480246
 30
0.0
 11
553.6855882763047
 21
556.3171366068181
 31
0.0
  0
LINE
  5
1FE
330
2
100
AcDbEntity
  8
0
 62
     7
100
AcDbLine
 10
491.185592001595
 20
556.3171366068181
 30
0.0
 11
491.185592001595
 21
570.2060246678647
 31
0.0
  0
LINE
  5
1FF
330
2
100
AcDbEntity
  8
0
 62
     7
100
AcDbLine
 10
436.1855922996182
 20
570.2060246678647
 30
0.0
 11
436.1855922996182
 21
556.3171366068181
 31
0.0
  0
LINE
  5
200
330
2
100
AcDbEntity
  8
0
 62
     7
100
AcDbLine
 10
551.1855925231357
 20
570.2060246678647
 30
0.0
 11
496.1855928211589
 21
570.2060246678647
 31
0.0
  0
LINE
  5
201
330
2
100
AcDbEntity
  8
0
 62
     7
100
AcDbLine
 10
553.6855882763047
 20
581.3171360480246
 30
0.0
 11
373.6855960249086
 21
581.3171360480246
 31
0.0
  0
LINE
  5
202
330
2
100
AcDbEntity
  8
0
 62
     7
100
AcDbLine
 10
431.1855914800544
 20
570.2060246678647
 30
0.0
 11
376.1855917780776
 21
570.2060246678647
 31
0.0
  0
LINE
  5
203
330
2
100
AcDbEntity
  8
0
 62
     7
100
AcDbLine
 10
491.185592001595
 20
570.2060246678647
 30
0.0
 11
436.1855922996182
 21
570.2060246678647
 31
0.0
  0
LINE
  5
204
330
2
100
AcDbEntity
  8
0
 62
     7
100
AcDbLine
 10
376.1855917780776
 20
556.3171366068181
 30
0.0
 11
373.6855960249086
 21
556.3171366068181
 31
0.0
  0
LINE
  5
205
330
2
100
AcDbEntity
  8
0
 62
     7
100
AcDbLine
 10
551.1855925231357
 20
541.3171388047394
 30
0.0
 11
551.1855925231357
 21
556.3171366068181
 31
0.0
  0
LINE
  5
206
330
2
100
AcDbEntity
  8
0
 62
     7
100
AcDbLine
 10
553.6855882763047
 20
556.3171366068181
 30
0.0
 11
553.6855882763047
 21
541.3171388047394
 31
0.0
  0
LINE
  5
207
330
2
100
AcDbEntity
  8
0
 62
     7
100
AcDbLine
 10
553.6855882763047
 20
556.3171366068181
 30
0.0
 11
551.1855925231357
 21
556.3171366068181
 31
0.0
  0
LINE
  5
208
330
2
100
AcDbEntity
  8
0
 62
     7
100
AcDbLine
 10
496.1855928211589
 20
556.3171366068181
 30
0.0
 11
496.1855928211589
 21
541.3171388047394
 31
0.0
  0
LINE
  5
209
330
2
100
AcDbEntity
  8
0
 62
     7
100
AcDbLine
 10
491.185592001595
 20
541.3171388047394
 30
0.0
 11
491.185592001595
 21
556.3171366068181
 31
0.0
  0
LINE
  5
20A
330
2
100
AcDbEntity
  8
0
 62
     7
100
AcDbLine
 10
496.1855928211589
 20
556.3171366068181
 30
0.0
 11
491.185592001595
 21
556.3171366068181
 31
0.0
  0
LINE
  5
20B
330
2
100
AcDbEntity
  8
0
 62
     7
100
AcDbLine
 10
496.1855928211589
 20
442.4282507809457
 30
0.0
 11
496.1855928211589
 21
456.3171388419923
 31
0.0
  0
LINE
  5
20C
330
2
100
AcDbEntity
  8
0
 62
     7
100
AcDbLine
 10
436.1855922996182
 20
442.4282507809457
 30
0.0
 11
436.1855922996182
 21
456.3171388419923
 31
0.0
  0
LINE
  5
20D
330
2
100
AcDbEntity
  8
0
 62
     7
100
AcDbLine
 10
431.1855914800544
 20
456.3171388419923
 30
0.0
 11
431.1855914800544
 21
442.4282507809457
 31
0.0
  0
LINE
  5
20E
330
2
100
AcDbEntity
  8
0
 62
     7
100
AcDbLine
 10
491.185592001595
 20
456.3171388419923
 30
0.0
 11
491.185592001595
 21
442.4282507809457
 31
0.0
  0
LINE
  5
20F
330
2
100
AcDbEntity
  8
0
 62
     7
100
AcDbLine
 10
551.1855925231357
 20
456.3171388419923
 30
0.0
 11
551.1855925231357
 21
442.4282507809457
 31
0.0
  0
LINE
  5
210
330
2
100
AcDbEntity
  8
0
 62
     7
100
AcDbLine
 10
553.6855882763047
 20
456.3171388419923
 30
0.0
 11
553.6855882763047
 21
431.3171394007858
 31
0.0
  0
LINE
  5
211
330
2
100
AcDbEntity
  8
0
 62
     7
100
AcDbLine
 10
551.1855925231357
 20
442.4282507809457
 30
0.0
 11
496.1855928211589
 21
442.4282507809457
 31
0.0
  0
LINE
  5
212
330
2
100
AcDbEntity
  8
0
 62
     7
100
AcDbLine
 10
496.1855928211589
 20
456.3171388419923
 30
0.0
 11
491.185592001595
 21
456.3171388419923
 31
0.0
  0
LINE
  5
213
330
2
100
AcDbEntity
  8
0
 62
     7
100
AcDbLine
 10
491.185592001595
 20
442.4282507809457
 30
0.0
 11
436.1855922996182
 21
442.4282507809457
 31
0.0
  0
LINE
  5
214
330
2
100
AcDbEntity
  8
0
 62
     7
100
AcDbLine
 10
436.1855922996182
 20
456.3171388419923
 30
0.0
 11
431.1855914800544
 21
456.3171388419923
 31
0.0
  0
LINE
  5
215
330
2
100
AcDbEntity
  8
0
 62
     7
100
AcDbLine
 10
431.1855914800544
 20
442.4282507809457
 30
0.0
 11
376.1855917780776
 21
442.4282507809457
 31
0.0
  0
LINE
  5
216
330
2
100
AcDbEntity
  8
0
 62
     7
100
AcDbLine
 10
553.6855882763047
 20
431.3171394007858
 30
0.0
 11
373.6855960249086
 21
431.3171394007858
 31
0.0
  0
LINE
  5
217
330
2
100
AcDbEntity
  8
0
 62
     7
100
AcDbLine
 10
553.6855882763047
 20
456.3171388419923
 30
0.0
 11
551.1855925231357
 21
456.3171388419923
 31
0.0
  0
LINE
  5
218
330
2
100
AcDbEntity
  8
0
 62
     7
100
AcDbLine
 10
376.1855917780776
 20
456.3171388419923
 30
0.0
 11
373.6855960249086
 21
456.3171388419923
 31
0.0
  0
LINE
  5
219
330
2
100
AcDbEntity
  8
0
 62
     7
100
AcDbLine
 10
431.1855914800544
 20
541.3171388047394
 30
0.0
 11
431.1855914800544
 21
556.3171366068181
 31
0.0
  0
LINE
  5
21A
330
2
100
AcDbEntity
  8
0
 62
     7
100
AcDbLine
 10
436.1855922996182
 20
556.3171366068181
 30
0.0
 11
436.1855922996182
 21
541.3171388047394
 31
0.0
  0
LINE
  5
21B
330
2
100
AcDbEntity
  8
0
 62
     7
100
AcDbLine
 10
436.1855922996182
 20
556.3171366068181
 30
0.0
 11
431.1855914800544
 21
556.3171366068181
 31
0.0
  0
LINE
  5
21C
330
2
100
AcDbEntity
  8
0
 62
     7
100
AcDbLine
 10
496.1855928211589
 20
488.3171380336043
 30
0.0
 11
496.1855928211589
 21
490.0671373891291
 31
0.0
  0
LINE
  5
21D
330
2
100
AcDbEntity
  8
0
 62
     7
100
AcDbLine
 10
436.1855922996182
 20
488.3171380336043
 30
0.0
 11
436.1855922996182
 21
490.0671373891291
 31
0.0
  0
LINE
  5
21E
330
2
100
AcDbEntity
  8
0
 62
     7
100
AcDbLine
 10
431.1855914800544
 20
490.0671373891291
 30
0.0
 11
431.1855914800544
 21
488.3171380336043
 31
0.0
  0
LINE
  5
21F
330
2
100
AcDbEntity
  8
0
 62
     7
100
AcDbLine
 10
491.185592001595
 20
490.0671373891291
 30
0.0
 11
491.185592001595
 21
488.3171380336043
 31
0.0
  0
LINE
  5
220
330
2
100
AcDbEntity
  8
0
 62
     7
100
AcDbLine
 10
373.6855960249086
 20
524.3171374152061
 30
0.0
 11
373.6855960249086
 21
488.3171380336043
 31
0.0
  0
LINE
  5
221
330
2
100
AcDbEntity
  8
0
 62
     7
100
AcDbLine
 10
551.1855925231357
 20
490.0671373891291
 30
0.0
 11
551.1855925231357
 21
488.3171380336043
 31
0.0
  0
LINE
  5
222
330
2
100
AcDbEntity
  8
0
 62
     7
100
AcDbLine
 10
496.1855928211589
 20
524.3171374152061
 30
0.0
 11
496.1855928211589
 21
522.5671380596813
 31
0.0
  0
LINE
  5
223
330
2
100
AcDbEntity
  8
0
 62
     7
100
AcDbLine
 10
431.1855914800544
 20
522.5671380596813
 30
0.0
 11
431.1855914800544
 21
524.3171374152061
 31
0.0
  0
LINE
  5
224
330
2
100
AcDbEntity
  8
0
 62
     7
100
AcDbLine
 10
376.1855917780776
 20
488.3171380336043
 30
0.0
 11
376.1855917780776
 21
490.0671373891291
 31
0.0
  0
LINE
  5
225
330
2
100
AcDbEntity
  8
0
 62
     7
100
AcDbLine
 10
551.1855925231357
 20
522.5671380596813
 30
0.0
 11
551.1855925231357
 21
524.3171374152061
 31
0.0
  0
LINE
  5
226
330
2
100
AcDbEntity
  8
0
 62
     7
100
AcDbLine
 10
376.1855917780776
 20
524.3171374152061
 30
0.0
 11
376.1855917780776
 21
522.5671380596813
 31
0.0
  0
LINE
  5
227
330
2
100
AcDbEntity
  8
0
 62
     7
100
AcDbLine
 10
553.6855882763047
 20
524.3171374152061
 30
0.0
 11
553.6855882763047
 21
488.3171380336043
 31
0.0
  0
LINE
  5
228
330
2
100
AcDbEntity
  8
0
 62
     7
100
AcDbLine
 10
491.185592001595
 20
522.5671380596813
 30
0.0
 11
491.185592001595
 21
524.3171374152061
 31
0.0
  0
LINE
  5
229
330
2
100
AcDbEntity
  8
0
 62
     7
100
AcDbLine
 10
436.1855922996182
 20
524.3171374152061
 30
0.0
 11
436.1855922996182
 21
522.5671380596813
 31
0.0
  0
LINE
  5
22A
330
2
100
AcDbEntity
  8
0
 62
     7
100
AcDbLine
 10
436.1855922996182
 20
490.0671373891291
 30
0.0
 11
491.185592001595
 21
490.0671373891291
 31
0.0
  0
CIRCLE
  5
22B
330
2
100
AcDbEntity
  8
0
 62
     7
100
AcDbCircle
 10
433.6855921506066
 20
506.3171377244052
 30
0.0
 40
14.24999999999997
  0
LINE
  5
22C
330
2
100
AcDbEntity
  8
0
 62
     7
100
AcDbLine
 10
431.1855914800544
 20
522.5671380596813
 30
0.0
 11
376.1855917780776
 21
522.5671380596813
 31
0.0
  0
LINE
  5
22D
330
2
100
AcDbEntity
  8
0
 62
     7
100
AcDbLine
 10
376.1855917780776
 20
490.0671373891291
 30
0.0
 11
431.1855914800544
 21
490.0671373891291
 31
0.0
  0
LINE
  5
22E
330
2
100
AcDbEntity
  8
0
 62
     7
100
AcDbLine
 10
491.185592001595
 20
522.5671380596813
 30
0.0
 11
436.1855922996182
 21
522.5671380596813
 31
0.0
  0
LINE
  5
22F
330
2
100
AcDbEntity
  8
0
 62
     7
100
AcDbLine
 10
496.1855928211589
 20
490.0671373891291
 30
0.0
 11
551.1855925231357
 21
490.0671373891291
 31
0.0
  0
LINE
  5
230
330
2
100
AcDbEntity
  8
0
 62
     7
100
AcDbLine
 10
551.1855925231357
 20
522.5671380596813
 30
0.0
 11
496.1855928211589
 21
522.5671380596813
 31
0.0
  0
CIRCLE
  5
231
330
2
100
AcDbEntity
  8
0
 62
     7
100
AcDbCircle
 10
493.6855921506066
 20
506.3171377244052
 30
0.0
 40
14.24999999999997
  0
LINE
  5
232
330
2
100
AcDbEntity
  8
0
 62
     7
100
AcDbLine
 10
436.1855922996182
 20
471.317136644071
 30
0.0
 11
436.1855922996182
 21
478.8171378734168
 31
0.0
  0
LINE
  5
233
330
2
100
AcDbEntity
  8
0
 62
     7
100
AcDbLine
 10
431.1855914800544
 20
478.8171378734168
 30
0.0
 11
431.1855914800544
 21
471.317136644071
 31
0.0
  0
LINE
  5
234
330
2
100
AcDbEntity
  8
0
 62
     7
100
AcDbLine
 10
551.1855925231357
 20
478.8171378734168
 30
0.0
 11
551.1855925231357
 21
471.317136644071
 31
0.0
  0
LINE
  5
235
330
2
100
AcDbEntity
  8
0
 62
     7
100
AcDbLine
 10
553.6855882763047
 20
478.8171378734168
 30
0.0
 11
553.6855882763047
 21
471.317136644071
 31
0.0
  0
LINE
  5
236
330
2
100
AcDbEntity
  8
0
 62
     7
100
AcDbLine
 10
496.1855928211589
 20
471.317136644071
 30
0.0
 11
496.1855928211589
 21
478.8171378734168
 31
0.0
  0
LINE
  5
237
330
2
100
AcDbEntity
  8
0
 62
     7
100
AcDbLine
 10
491.185592001595
 20
478.8171378734168
 30
0.0
 11
491.185592001595
 21
471.317136644071
 31
0.0
  0
LINE
  5
238
330
2
100
AcDbEntity
  8
0
 62
     7
100
AcDbLine
 10
496.1855928211589
 20
478.8171378734168
 30
0.0
 11
496.1855928211589
 21
488.3171380336043
 31
0.0
  0
LINE
  5
239
330
2
100
AcDbEntity
  8
0
 62
     7
100
AcDbLine
 10
491.185592001595
 20
488.3171380336043
 30
0.0
 11
491.185592001595
 21
478.8171378734168
 31
0.0
  0
LINE
  5
23A
330
2
100
AcDbEntity
  8
0
 62
     7
100
AcDbLine
 10
496.1855928211589
 20
488.3171380336043
 30
0.0
 11
491.185592001595
 21
488.3171380336043
 31
0.0
  0
LINE
  5
23B
330
2
100
AcDbEntity
  8
0
 62
     7
100
AcDbLine
 10
436.1855922996182
 20
478.8171378734168
 30
0.0
 11
436.1855922996182
 21
488.3171380336043
 31
0.0
  0
LINE
  5
23C
330
2
100
AcDbEntity
  8
0
 62
     7
100
AcDbLine
 10
431.1855914800544
 20
488.3171380336043
 30
0.0
 11
431.1855914800544
 21
478.8171378734168
 31
0.0
  0
LINE
  5
23D
330
2
100
AcDbEntity
  8
0
 62
     7
100
AcDbLine
 10
436.1855922996182
 20
488.3171380336043
 30
0.0
 11
431.1855914800544
 21
488.3171380336043
 31
0.0
  0
LINE
  5
23E
330
2
100
AcDbEntity
  8
0
 62
     7
100
AcDbLine
 10
373.6855960249086
 20
488.3171380336043
 30
0.0
 11
373.6855960249086
 21
431.3171394007858
 31
0.0
  0
LINE
  5
23F
330
2
100
AcDbEntity
  8
0
 62
     7
100
AcDbLine
 10
376.1855917780776
 20
442.4282507809457
 30
0.0
 11
376.1855917780776
 21
488.3171380336043
 31
0.0
  0
LINE
  5
240
330
2
100
AcDbEntity
  8
0
 62
     7
100
AcDbLine
 10
376.1855917780776
 20
488.3171380336043
 30
0.0
 11
373.6855960249086
 21
488.3171380336043
 31
0.0
  0
LINE
  5
241
330
2
100
AcDbEntity
  8
0
 62
     7
100
AcDbLine
 10
553.6855882763047
 20
488.3171380336043
 30
0.0
 11
551.1855925231357
 21
488.3171380336043
 31
0.0
  0
LINE
  5
242
330
2
100
AcDbEntity
  8
0
 62
     7
100
AcDbLine
 10
551.1855925231357
 20
488.3171380336043
 30
0.0
 11
551.1855925231357
 21
478.8171378734168
 31
0.0
  0
LINE
  5
243
330
2
100
AcDbEntity
  8
0
 62
     7
100
AcDbLine
 10
553.6855882763047
 20
488.3171380336043
 30
0.0
 11
553.6855882763047
 21
478.8171378734168
 31
0.0
  0
LINE
  5
244
330
2
100
AcDbEntity
  8
0
 62
     7
100
AcDbLine
 10
551.1855925231357
 20
524.3171374152061
 30
0.0
 11
551.1855925231357
 21
533.8171375753936
 31
0.0
  0
LINE
  5
245
330
2
100
AcDbEntity
  8
0
 62
     7
100
AcDbLine
 10
553.6855882763047
 20
524.3171374152061
 30
0.0
 11
551.1855925231357
 21
524.3171374152061
 31
0.0
  0
LINE
  5
246
330
2
100
AcDbEntity
  8
0
 62
     7
100
AcDbLine
 10
553.6855882763047
 20
533.8171375753936
 30
0.0
 11
553.6855882763047
 21
524.3171374152061
 31
0.0
  0
LINE
  5
247
330
2
100
AcDbEntity
  8
0
 62
     7
100
AcDbLine
 10
496.1855928211589
 20
541.3171388047394
 30
0.0
 11
496.1855928211589
 21
533.8171375753936
 31
0.0
  0
LINE
  5
248
330
2
100
AcDbEntity
  8
0
 62
     7
100
AcDbLine
 10
491.185592001595
 20
533.8171375753936
 30
0.0
 11
491.185592001595
 21
541.3171388047394
 31
0.0
  0
LINE
  5
249
330
2
100
AcDbEntity
  8
0
 62
     7
100
AcDbLine
 10
436.1855922996182
 20
541.3171388047394
 30
0.0
 11
436.1855922996182
 21
533.8171375753936
 31
0.0
  0
LINE
  5
24A
330
2
100
AcDbEntity
  8
0
 62
     7
100
AcDbLine
 10
431.1855914800544
 20
533.8171375753936
 30
0.0
 11
431.1855914800544
 21
541.3171388047394
 31
0.0
  0
LINE
  5
24B
330
2
100
AcDbEntity
  8
0
 62
     7
100
AcDbLine
 10
436.1855922996182
 20
533.8171375753936
 30
0.0
 11
436.1855922996182
 21
524.3171374152061
 31
0.0
  0
LINE
  5
24C
330
2
100
AcDbEntity
  8
0
 62
     7
100
AcDbLine
 10
431.1855914800544
 20
524.3171374152061
 30
0.0
 11
431.1855914800544
 21
533.8171375753936
 31
0.0
  0
LINE
  5
24D
330
2
100
AcDbEntity
  8
0
 62
     7
100
AcDbLine
 10
436.1855922996182
 20
524.3171374152061
 30
0.0
 11
431.1855914800544
 21
524.3171374152061
 31
0.0
  0
LINE
  5
24E
330
2
100
AcDbEntity
  8
0
 62
     7
100
AcDbLine
 10
376.1855917780776
 20
581.3171360480246
 30
0.0
 11
376.1855917780776
 21
524.3171374152061
 31
0.0
  0
LINE
  5
24F
330
2
100
AcDbEntity
  8
0
 62
     7
100
AcDbLine
 10
373.6855960249086
 20
581.3171360480246
 30
0.0
 11
373.6855960249086
 21
524.3171374152061
 31
0.0
  0
LINE
  5
250
330
2
100
AcDbEntity
  8
0
 62
     7
100
AcDbLine
 10
376.1855917780776
 20
524.3171374152061
 30
0.0
 11
373.6855960249086
 21
524.3171374152061
 31
0.0
  0
LINE
  5
251
330
2
100
AcDbEntity
  8
0
 62
     7
100
AcDbLine
 10
551.1855925231357
 20
533.8171375753936
 30
0.0
 11
551.1855925231357
 21
541.3171388047394
 31
0.0
  0
LINE
  5
252
330
2
100
AcDbEntity
  8
0
 62
     7
100
AcDbLine
 10
553.6855882763047
 20
541.3171388047394
 30
0.0
 11
553.6855882763047
 21
533.8171375753936
 31
0.0
  0
LINE
  5
253
330
2
100
AcDbEntity
  8
0
 62
     7
100
AcDbLine
 10
496.1855928211589
 20
533.8171375753936
 30
0.0
 11
496.1855928211589
 21
524.3171374152061
 31
0.0
  0
LINE
  5
254
330
2
100
AcDbEntity
  8
0
 62
     7
100
AcDbLine
 10
491.185592001595
 20
524.3171374152061
 30
0.0
 11
491.185592001595
 21
533.8171375753936
 31
0.0
  0
LINE
  5
255
330
2
100
AcDbEntity
  8
0
 62
     7
100
AcDbLine
 10
496.1855928211589
 20
524.3171374152061
 30
0.0
 11
491.185592001595
 21
524.3171374152061
 31
0.0
  0
LINE
  5
256
330
2
100
AcDbEntity
  8
0
 62
     7
100
AcDbLine
 10
430.6855923294206
 20
484.8171369942483
 30
0.0
 11
376.6855909287115
 21
484.8171369942483
 31
0.0
  0
LINE
  5
257
330
2
100
AcDbEntity
  8
0
 62
     7
100
AcDbLine
 10
406.1855920388479
 20
453.8171384322104
 30
0.0
 11
401.185591219284
 21
453.8171384322104
 31
0.0
  0
LINE
  5
258
330
2
100
AcDbEntity
  8
0
 62
     7
100
AcDbLine
 10
376.6855909287115
 20
484.8171369942483
 30
0.0
 11
376.6855909287115
 21
446.8171363534984
 31
0.0
  0
LINE
  5
259
330
2
100
AcDbEntity
  8
0
 62
     7
100
AcDbLine
 10
406.1855920388479
 20
453.8171384322104
 30
0.0
 11
406.1855920388479
 21
446.8171363534984
 31
0.0
  0
LINE
  5
25A
330
2
100
AcDbEntity
  8
0
 62
     7
100
AcDbLine
 10
401.185591219284
 20
446.8171363534984
 30
0.0
 11
401.185591219284
 21
453.8171384322104
 31
0.0
  0
LINE
  5
25B
330
2
100
AcDbEntity
  8
0
 62
     7
100
AcDbLine
 10
430.6855923294206
 20
484.8171369942483
 30
0.0
 11
430.6855923294206
 21
446.8171363534984
 31
0.0
  0
LINE
  5
25C
330
2
100
AcDbEntity
  8
0
 62
     7
100
AcDbLine
 10
401.185591219284
 20
446.8171363534984
 30
0.0
 11
376.6855909287115
 21
446.8171363534984
 31
0.0
  0
LINE
  5
25D
330
2
100
AcDbEntity
  8
0
 62
     7
100
AcDbLine
 10
430.6855923294206
 20
446.8171363534984
 30
0.0
 11
406.1855920388479
 21
446.8171363534984
 31
0.0
  0
LINE
  5
25E
330
2
100
AcDbEntity
  8
0
 62
     7
100
AcDbLine
 10
406.1855920388479
 20
558.8171370166
 30
0.0
 11
401.185591219284
 21
558.8171370166
 31
0.0
  0
LINE
  5
25F
330
2
100
AcDbEntity
  8
0
 62
     7
100
AcDbLine
 10
430.6855923294206
 20
527.8171384545621
 30
0.0
 11
376.6855909287115
 21
527.8171384545621
 31
0.0
  0
LINE
  5
260
330
2
100
AcDbEntity
  8
0
 62
     7
100
AcDbLine
 10
376.6855909287115
 20
527.8171384545621
 30
0.0
 11
376.6855909287115
 21
565.817139095312
 31
0.0
  0
LINE
  5
261
330
2
100
AcDbEntity
  8
0
 62
     7
100
AcDbLine
 10
401.185591219284
 20
565.817139095312
 30
0.0
 11
376.6855909287115
 21
565.817139095312
 31
0.0
  0
LINE
  5
262
330
2
100
AcDbEntity
  8
0
 62
     7
100
AcDbLine
 10
430.6855923294206
 20
527.8171384545621
 30
0.0
 11
430.6855923294206
 21
565.817139095312
 31
0.0
  0
LINE
  5
263
330
2
100
AcDbEntity
  8
0
 62
     7
100
AcDbLine
 10
401.185591219284
 20
558.8171370166
 30
0.0
 11
401.185591219284
 21
565.817139095312
 31
0.0
  0
LINE
  5
264
330
2
100
AcDbEntity
  8
0
 62
     7
100
AcDbLine
 10
430.6855923294206
 20
565.817139095312
 30
0.0
 11
406.1855920388479
 21
565.817139095312
 31
0.0
  0
LINE
  5
265
330
2
100
AcDbEntity
  8
0
 62
     7
100
AcDbLine
 10
406.1855920388479
 20
565.817139095312
 30
0.0
 11
406.1855920388479
 21
558.8171370166
 31
0.0
  0
LINE
  5
266
330
2
100
AcDbEntity
  8
0
 62
     7
100
AcDbLine
 10
490.6855928509612
 20
484.8171369942483
 30
0.0
 11
436.685591450252
 21
484.8171369942483
 31
0.0
  0
LINE
  5
267
330
2
100
AcDbEntity
  8
0
 62
     7
100
AcDbLine
 10
490.6855928509612
 20
484.8171369942483
 30
0.0
 11
490.6855928509612
 21
446.8171363534984
 31
0.0
  0
LINE
  5
268
330
2
100
AcDbEntity
  8
0
 62
     7
100
AcDbLine
 10
436.685591450252
 20
484.8171369942483
 30
0.0
 11
436.685591450252
 21
446.8171363534984
 31
0.0
  0
LINE
  5
269
330
2
100
AcDbEntity
  8
0
 62
     7
100
AcDbLine
 10
490.6855928509612
 20
446.8171363534984
 30
0.0
 11
466.1855922693503
 21
446.8171363534984
 31
0.0
  0
LINE
  5
26A
330
2
100
AcDbEntity
  8
0
 62
     7
100
AcDbLine
 10
461.185592031863
 20
446.8171363534984
 30
0.0
 11
461.185592031863
 21
453.8171384322104
 31
0.0
  0
LINE
  5
26B
330
2
100
AcDbEntity
  8
0
 62
     7
100
AcDbLine
 10
466.1855922693503
 20
453.8171384322104
 30
0.0
 11
461.185592031863
 21
453.8171384322104
 31
0.0
  0
LINE
  5
26C
330
2
100
AcDbEntity
  8
0
 62
     7
100
AcDbLine
 10
466.1855922693503
 20
453.8171384322104
 30
0.0
 11
466.1855922693503
 21
446.8171363534984
 31
0.0
  0
LINE
  5
26D
330
2
100
AcDbEntity
  8
0
 62
     7
100
AcDbLine
 10
461.185592031863
 20
446.8171363534984
 30
0.0
 11
436.685591450252
 21
446.8171363534984
 31
0.0
  0
LINE
  5
26E
330
2
100
AcDbEntity
  8
0
 62
     7
100
AcDbLine
 10
550.6855933725018
 20
527.8171384545621
 30
0.0
 11
496.6855919717927
 21
527.8171384545621
 31
0.0
  0
LINE
  5
26F
330
2
100
AcDbEntity
  8
0
 62
     7
100
AcDbLine
 10
521.1855922623653
 20
565.817139095312
 30
0.0
 11
496.6855919717927
 21
565.817139095312
 31
0.0
  0
LINE
  5
270
330
2
100
AcDbEntity
  8
0
 62
     7
100
AcDbLine
 10
526.1855930819292
 20
558.8171370166
 30
0.0
 11
521.1855922623653
 21
558.8171370166
 31
0.0
  0
LINE
  5
271
330
2
100
AcDbEntity
  8
0
 62
     7
100
AcDbLine
 10
550.6855933725018
 20
565.817139095312
 30
0.0
 11
526.1855930819292
 21
565.817139095312
 31
0.0
  0
LINE
  5
272
330
2
100
AcDbEntity
  8
0
 62
     7
100
AcDbLine
 10
521.1855922623653
 20
558.8171370166
 30
0.0
 11
521.1855922623653
 21
565.817139095312
 31
0.0
  0
LINE
  5
273
330
2
100
AcDbEntity
  8
0
 62
     7
100
AcDbLine
 10
496.6855919717927
 20
527.8171384545621
 30
0.0
 11
496.6855919717927
 21
565.817139095312
 31
0.0
  0
LINE
  5
274
330
2
100
AcDbEntity
  8
0
 62
     7
100
AcDbLine
 10
550.6855933725018
 20
527.8171384545621
 30
0.0
 11
550.6855933725018
 21
565.817139095312
 31
0.0
  0
LINE
  5
275
330
2
100
AcDbEntity
  8
0
 62
     7
100
AcDbLine
 10
526.1855930819292
 20
565.817139095312
 30
0.0
 11
526.1855930819292
 21
558.8171370166
 31
0.0
  0
LINE
  5
276
330
2
100
AcDbEntity
  8
0
 62
     7
100
AcDbLine
 10
550.6855933725018
 20
484.8171369942483
 30
0.0
 11
496.6855919717927
 21
484.8171369942483
 31
0.0
  0
LINE
  5
277
330
2
100
AcDbEntity
  8
0
 62
     7
100
AcDbLine
 10
526.1855930819292
 20
453.8171384322104
 30
0.0
 11
521.1855922623653
 21
453.8171384322104
 31
0.0
  0
LINE
  5
278
330
2
100
AcDbEntity
  8
0
 62
     7
100
AcDbLine
 10
550.6855933725018
 20
484.8171369942483
 30
0.0
 11
550.6855933725018
 21
446.8171363534984
 31
0.0
  0
LINE
  5
279
330
2
100
AcDbEntity
  8
0
 62
     7
100
AcDbLine
 10
521.1855922623653
 20
446.8171363534984
 30
0.0
 11
521.1855922623653
 21
453.8171384322104
 31
0.0
  0
LINE
  5
27A
330
2
100
AcDbEntity
  8
0
 62
     7
100
AcDbLine
 10
526.1855930819292
 20
453.8171384322104
 30
0.0
 11
526.1855930819292
 21
446.8171363534984
 31
0.0
  0
LINE
  5
27B
330
2
100
AcDbEntity
  8
0
 62
     7
100
AcDbLine
 10
550.6855933725018
 20
446.8171363534984
 30
0.0
 11
526.1855930819292
 21
446.8171363534984
 31
0.0
  0
LINE
  5
27C
330
2
100
AcDbEntity
  8
0
 62
     7
100
AcDbLine
 10
496.6855919717927
 20
484.8171369942483
 30
0.0
 11
496.6855919717927
 21
446.8171363534984
 31
0.0
  0
LINE
  5
27D
330
2
100
AcDbEntity
  8
0
 62
     7
100
AcDbLine
 10
521.1855922623653
 20
446.8171363534984
 30
0.0
 11
496.6855919717927
 21
446.8171363534984
 31
0.0
  0
LINE
  5
27E
330
2
100
AcDbEntity
  8
0
 62
     7
100
AcDbLine
 10
461.185592031863
 20
558.8171370166
 30
0.0
 11
461.185592031863
 21
565.817139095312
 31
0.0
  0
LINE
  5
27F
330
2
100
AcDbEntity
  8
0
 62
     7
100
AcDbLine
 10
461.185592031863
 20
565.817139095312
 30
0.0
 11
436.685591450252
 21
565.817139095312
 31
0.0
  0
LINE
  5
280
330
2
100
AcDbEntity
  8
0
 62
     7
100
AcDbLine
 10
436.685591450252
 20
527.8171384545621
 30
0.0
 11
436.685591450252
 21
565.817139095312
 31
0.0
  0
LINE
  5
281
330
2
100
AcDbEntity
  8
0
 62
     7
100
AcDbLine
 10
490.6855928509612
 20
527.8171384545621
 30
0.0
 11
436.685591450252
 21
527.8171384545621
 31
0.0
  0
LINE
  5
282
330
2
100
AcDbEntity
  8
0
 62
     7
100
AcDbLine
 10
490.6855928509612
 20
527.8171384545621
 30
0.0
 11
490.6855928509612
 21
565.817139095312
 31
0.0
  0
LINE
  5
283
330
2
100
AcDbEntity
  8
0
 62
     7
100
AcDbLine
 10
490.6855928509612
 20
565.817139095312
 30
0.0
 11
466.1855922693503
 21
565.817139095312
 31
0.0
  0
LINE
  5
284
330
2
100
AcDbEntity
  8
0
 62
     7
100
AcDbLine
 10
466.1855922693503
 20
565.817139095312
 30
0.0
 11
466.1855922693503
 21
558.8171370166
 31
0.0
  0
LINE
  5
285
330
2
100
AcDbEntity
  8
0
 62
     7
100
AcDbLine
 10
466.1855922693503
 20
558.8171370166
 30
0.0
 11
461.185592031863
 21
558.8171370166
 31
0.0
  0
LWPOLYLINE
  5
286
330
2
100
AcDbEntity
  8
0
 62
     7
100
AcDbPolyline
 90
       28
 70
   128
 43
0.0
 10
401.6645843892474
 20
589.5392382355985
 10
401.6681141018052
 20
589.1635799619016
 10
401.5001547320862
 20
588.3782049479541
 10
401.1580892636557
 20
587.6104505571183
 10
400.658010950603
 20
586.8828361692485
 10
400.0148209541221
 20
586.2041255297717
 10
399.2409617438097
 20
585.5807820173558
 10
398.3497279494186
 20
585.0203772845325
 10
397.3564072310109
 20
584.5307065012511
 10
396.277870497026
 20
584.1185776355323
 10
395.1316871478339
 20
583.7892619731483
 10
393.9353241383214
 20
583.5463823589143
 10
392.7056244372506
 20
583.3921227442679
 10
391.4586673288722
 20
583.3275355237183
 10
390.2098894848604
 20
583.3528023051676
 10
388.9753282799502
 20
583.4673037591037
 10
387.7722644045134
 20
583.669191210216
 10
386.6156735255499
 20
583.955838328844
 10
385.5208433031221
 20
584.3236362400111
 10
384.5034665226121
 20
584.767681530362
 10
383.5793151318212
 20
585.2813990625199
 10
382.7636628209729
 20
585.8563231142816
 10
382.0701907186885
 20
586.4822184505519
 10
381.5098418652196
 20
587.1479557665643
 10
381.0900109618087
 20
587.8434581520614
 10
380.8153546213289
 20
588.5628489615974
 10
380.6916656701942
 20
589.3068918796834
 10
380.7020312904496
 20
589.5078806045112
  0
LWPOLYLINE
  5
287
330
2
100
AcDbEntity
  8
0
 62
     7
100
AcDbPolyline
 90
       28
 70
   128
 43
0.0
 10
525.7065999119658
 20
423.0950372132119
 10
525.703070199408
 20
423.4706954869088
 10
525.8710295691271
 20
424.2560705008563
 10
526.2130950375576
 20
425.0238248916921
 10
526.7131733506102
 20
425.7514392795619
 10
527.3563633470912
 20
426.4301499190387
 10
528.1302225574036
 20
427.0534934314546
 10
529.0214563517947
 20
427.6138981642779
 10
530.0147770702023
 20
428.1035689475593
 10
531.0933138041873
 20
428.5156978132781
 10
532.2394971533794
 20
428.8450134756621
 10
533.4358601628919
 20
429.0878930898961
 10
534.6655598639626
 20
429.2421527045426
 10
535.9125169723411
 20
429.3067399250921
 10
537.1612948163528
 20
429.2814731436428
 10
538.3958560212631
 20
429.1669716897067
 10
539.5989198966999
 20
428.9650842385944
 10
540.7555107756634
 20
428.6784371199664
 10
541.8503409980912
 20
428.3106392087993
 10
542.8677177786012
 20
427.8665939184484
 10
543.7918691693921
 20
427.3528763862905
 10
544.6075214802403
 20
426.7779523345288
 10
545.3009935825248
 20
426.1520569982585
 10
545.8613424359937
 20
425.4863196822461
 10
546.2811733394046
 20
424.790817296749
 10
546.5558296798844
 20
424.071426487213
 10
546.6795186310191
 20
423.327383569127
 10
546.6691530107636
 20
423.1263948442992
  0
LWPOLYLINE
  5
288
330
2
100
AcDbEntity
  8
0
 62
     7
100
AcDbPolyline
 90
       28
 70
   128
 43
0.0
 10
380.7065947710653
 20
423.0950372132119
 10
380.7030743717332
 20
423.4706954869088
 10
380.8710290848394
 20
424.2560705008563
 10
381.2130945532699
 20
425.0238248916921
 10
381.7131682097097
 20
425.7514392795619
 10
382.3563675194164
 20
426.4301499190387
 10
383.1302220731159
 20
427.0534934314546
 10
384.0214605241199
 20
427.6138981642779
 10
385.0147719293018
 20
428.1035689475593
 10
386.0933133198996
 20
428.5156978132781
 10
387.2394966690917
 20
428.8450134756621
 10
388.435864335217
 20
429.0878930898961
 10
389.6655593796749
 20
429.2421527045426
 10
390.9125164880533
 20
429.3067399250921
 10
392.1612943320651
 20
429.2814731436428
 10
393.3958555369754
 20
429.1669716897067
 10
394.5989194124122
 20
428.9650842385944
 10
395.7555102913757
 20
428.6784371199664
 10
396.8503358571906
 20
428.3106392087993
 10
397.8677219509263
 20
427.8665939184484
 10
398.7918686851044
 20
427.3528763862905
 10
399.6075209959526
 20
426.7779523345288
 10
400.300993098237
 20
426.1520569982585
 10
400.8613372950931
 20
425.4863196822461
 10
401.2811728551168
 20
424.790817296749
 10
401.5558338522096
 20
424.071426487213
 10
401.6795134901185
 20
423.327383569127
 10
401.6691525264759
 20
423.1263948442992
  0
LWPOLYLINE
  5
289
330
2
100
AcDbEntity
  8
0
 62
     7
100
AcDbPolyline
 90
       28
 70
   128
 43
0.0
 10
465.7065983717911
 20
423.0950372132119
 10
465.7030714240972
 20
423.4706954869088
 10
465.8710300662205
 20
424.2560705008563
 10
466.2130933518637
 20
425.0238248916921
 10
466.7131710828398
 20
425.7514392795619
 10
467.3563645717804
 20
426.4301499190387
 10
468.1302243641694
 20
427.0534934314546
 10
469.0214569944073
 20
427.6138981642779
 10
470.0147759665851
 20
428.1035689475593
 10
471.0933121184934
 20
428.5156978132781
 10
472.2394954676856
 20
428.8450134756621
 10
473.4358619696577
 20
429.0878930898961
 10
474.6655616707284
 20
429.2421527045426
 10
475.9125176149536
 20
429.3067399250921
 10
477.161293130659
 20
429.2814731436428
 10
478.3958566638757
 20
429.1669716897067
 10
479.598918211006
 20
428.9650842385944
 10
480.7555090899695
 20
428.6784371199664
 10
481.8503369840909
 20
428.3106392087993
 10
482.8677207495202
 20
427.8665939184484
 10
483.791866319545
 20
427.3528763862905
 10
484.6075209586997
 20
426.7779523345288
 10
485.3009907326777
 20
426.1520569982585
 10
485.8613395861466
 20
425.4863196822461
 10
486.2811704895575
 20
424.790817296749
 10
486.5558314866502
 20
424.071426487213
 10
486.679515781172
 20
423.327383569127
 10
486.669152489223
 20
423.1263948442992
  0
LWPOLYLINE
  5
28A
330
2
100
AcDbEntity
  8
0
 62
     7
100
AcDbPolyline
 90
       28
 70
   128
 43
0.0
 10
440.7065976209123
 20
423.0950372132119
 10
440.7030725649674
 20
423.4706954869088
 10
440.87102960638
 20
424.2560705008563
 10
441.2130927465041
 20
425.0238248916921
 10
441.7131710595567
 20
425.7514392795619
 10
442.3563633843441
 20
426.4301499190387
 10
443.1302249229629
 20
427.0534934314546
 10
444.0214563890476
 20
427.6138981642779
 10
445.014775943302
 20
428.1035689475593
 10
446.0933115131338
 20
428.5156978132781
 10
447.2394948623259
 20
428.8450134756621
 10
448.4358625284512
 20
429.0878930898961
 10
449.6655610653688
 20
429.2421527045426
 10
450.9125181737472
 20
429.3067399250921
 10
452.1612936894525
 20
429.2814731436428
 10
453.395856058516
 20
429.1669716897067
 10
454.598918187723
 20
428.9650842385944
 10
455.7555096487631
 20
428.6784371199664
 10
456.8503369608079
 20
428.3106392087993
 10
457.8677207262371
 20
427.8665939184484
 10
458.7918668783386
 20
427.3528763862905
 10
459.6075206443783
 20
426.7779523345288
 10
460.3009910004329
 20
426.1520569982585
 10
460.8613386897486
 20
425.4863196822461
 10
461.2811706117936
 20
424.790817296749
 10
461.5558321909629
 20
424.071426487213
 10
461.6795153213315
 20
423.327383569127
 10
461.6691520293825
 20
423.1263948442992
  0
LWPOLYLINE
  5
28B
330
2
100
AcDbEntity
  8
0
 62
     7
100
AcDbPolyline
 90
       28
 70
   128
 43
0.0
 10
486.6645866803009
 20
589.5392382355985
 10
486.6681117362459
 20
589.1635799619016
 10
486.5001546948333
 20
588.3782049479541
 10
486.1580915547092
 20
587.6104505571183
 10
485.6580132416565
 20
586.8828361692485
 10
485.0148209168692
 20
586.2041255297717
 10
484.2409593782504
 20
585.5807820173558
 10
483.3497279121656
 20
585.0203772845325
 10
482.3564083579112
 20
584.5307065012511
 10
481.2778727880795
 20
584.1185776355323
 10
480.1316894388873
 20
583.7892619731483
 10
478.9353217727621
 20
583.5463823589143
 10
477.7056232358445
 20
583.3921227442679
 10
476.4586661274661
 20
583.3275355237183
 10
475.2098906117607
 20
583.3528023051676
 10
473.9753282426972
 20
583.4673037591037
 10
472.7722661134903
 20
583.669191210216
 10
471.6156746524502
 20
583.955838328844
 10
470.5208473404054
 20
584.3236362400111
 10
469.5034635749761
 20
584.767681530362
 10
468.5793174228747
 20
585.2813990625199
 10
467.7636636568349
 20
585.8563231142816
 10
467.0701933007803
 20
586.4822184505519
 10
466.5098456114646
 20
587.1479557665643
 10
466.0900136894197
 20
587.8434581520614
 10
465.8153521102503
 20
588.5628489615974
 10
465.6916689798817
 20
589.3068918796834
 10
465.7020322718308
 20
589.5078806045112
  0
LWPOLYLINE
  5
28C
330
2
100
AcDbEntity
  8
0
 62
     7
100
AcDbPolyline
 90
       28
 70
   128
 43
0.0
 10
461.6645859294221
 20
589.5392382355985
 10
461.668112877116
 20
589.1635799619016
 10
461.5001542349927
 20
588.3782049479541
 10
461.1580909493495
 20
587.6104505571183
 10
460.6580132183735
 20
586.8828361692485
 10
460.0148197294329
 20
586.2041255297717
 10
459.2409599370439
 20
585.5807820173558
 10
458.349727306806
 20
585.0203772845325
 10
457.3564083346282
 20
584.5307065012511
 10
456.2778721827198
 20
584.1185776355323
 10
455.1316888335277
 20
583.7892619731483
 10
453.9353223315556
 20
583.5463823589143
 10
452.7056226304848
 20
583.3921227442679
 10
451.4586666862596
 20
583.3275355237183
 10
450.2098911705543
 20
583.3528023051676
 10
448.9753276373376
 20
583.4673037591037
 10
447.7722660902072
 20
583.669191210216
 10
446.6156752112437
 20
583.955838328844
 10
445.5208473171223
 20
584.3236362400111
 10
444.5034635516931
 20
584.767681530362
 10
443.5793179816682
 20
585.2813990625199
 10
442.7636633425136
 20
585.8563231142816
 10
442.0701935685356
 20
586.4822184505519
 10
441.5098447150667
 20
587.1479557665643
 10
441.0900138116558
 20
587.8434581520614
 10
440.815352814563
 20
588.5628489615974
 10
440.6916685200412
 20
589.3068918796834
 10
440.7020318119903
 20
589.5078806045112
  0
LWPOLYLINE
  5
28D
330
2
100
AcDbEntity
  8
0
 62
     7
100
AcDbPolyline
 90
       28
 70
   128
 43
0.0
 10
405.7065988688846
 20
423.0950372132119
 10
405.7030738129396
 20
423.4706954869088
 10
405.8710285260458
 20
424.2560705008563
 10
406.2130939944763
 20
425.0238248916921
 10
406.713172307529
 20
425.7514392795619
 10
407.3563623040099
 20
426.4301499190387
 10
408.1302261709351
 20
427.0534934314546
 10
409.0214553087134
 20
427.6138981642779
 10
410.0147760271211
 20
428.1035689475593
 10
411.093312761106
 20
428.5156978132781
 10
412.2394961102981
 20
428.8450134756621
 10
413.4358637764234
 20
429.0878930898961
 10
414.6655634774942
 20
429.2421527045426
 10
415.9125159292598
 20
429.3067399250921
 10
417.1612937732716
 20
429.2814731436428
 10
418.3958549781818
 20
429.1669716897067
 10
419.5989188536186
 20
428.9650842385944
 10
420.7555097325821
 20
428.6784371199664
 10
421.8503352983971
 20
428.3106392087993
 10
422.8677213921328
 20
427.8665939184484
 10
423.7918681263108
 20
427.3528763862905
 10
424.6075204371591
 20
426.7779523345288
 10
425.300990211137
 20
426.1520569982585
 10
425.8613390646059
 20
425.4863196822461
 10
426.2811699680169
 20
424.790817296749
 10
426.555833293416
 20
424.071426487213
 10
426.6795152596314
 20
423.327383569127
 10
426.6691519676824
 20
423.1263948442992
  0
LWPOLYLINE
  5
28E
330
2
100
AcDbEntity
  8
0
 62
     7
100
AcDbPolyline
 90
       28
 70
   128
 43
0.0
 10
521.6645854323287
 20
589.5392382355985
 10
521.6681104882736
 20
589.1635799619016
 10
521.5001557751675
 20
588.3782049479541
 10
521.1580903067369
 20
587.6104505571183
 10
520.6580119936843
 20
586.8828361692485
 10
520.0148219972033
 20
586.2041255297717
 10
519.2409581302781
 20
585.5807820173558
 10
518.3497289924998
 20
585.0203772845325
 10
517.3564082740922
 20
584.5307065012511
 10
516.2778715401072
 20
584.1185776355323
 10
515.1316881909151
 20
583.7892619731483
 10
513.9353205247898
 20
583.5463823589143
 10
512.705620823719
 20
583.3921227442679
 10
511.4586683719535
 20
583.3275355237183
 10
510.2098905279417
 20
583.3528023051676
 10
508.9753293230314
 20
583.4673037591037
 10
507.7722654475946
 20
583.669191210216
 10
506.6156745686312
 20
583.955838328844
 10
505.5208490028162
 20
584.3236362400111
 10
504.5034629090805
 20
584.767681530362
 10
503.5793161749024
 20
585.2813990625199
 10
502.7636638640542
 20
585.8563231142816
 10
502.0701940900762
 20
586.4822184505519
 10
501.5098452366073
 20
587.1479557665643
 10
501.0900143331964
 20
587.8434581520614
 10
500.8153510077972
 20
588.5628489615974
 10
500.6916690415819
 20
589.3068918796834
 10
500.7020323335309
 20
589.5078806045112
  0
LWPOLYLINE
  5
28F
330
2
100
AcDbEntity
  8
0
 62
     7
100
AcDbPolyline
 90
       28
 70
   128
 43
0.0
 10
426.6645861587603
 20
589.5392382355985
 10
426.6681135430117
 20
589.1635799619016
 10
426.5001541732926
 20
588.3782049479541
 10
426.1580910331685
 20
587.6104505571183
 10
425.6580127201159
 20
586.8828361692485
 10
425.0148203953285
 20
586.2041255297717
 10
424.2409611850161
 20
585.5807820173558
 10
423.349727390625
 20
585.0203772845325
 10
422.3564066722174
 20
584.5307065012511
 10
421.2778745948453
 20
584.1185776355323
 10
420.1316912456531
 20
583.7892619731483
 10
418.9353235795278
 20
583.5463823589143
 10
417.7056238784571
 20
583.3921227442679
 10
416.4586667700787
 20
583.3275355237183
 10
415.2098889260669
 20
583.3528023051676
 10
413.9753277211566
 20
583.4673037591037
 10
412.7722685023327
 20
583.669191210216
 10
411.6156729667563
 20
583.955838328844
 10
410.5208474009414
 20
584.3236362400111
 10
409.5034613072057
 20
584.767681530362
 10
408.5793192296405
 20
585.2813990625199
 10
407.7636622621794
 20
585.8563231142816
 10
407.0701948165078
 20
586.4822184505519
 10
406.5098459630389
 20
587.1479557665643
 10
406.090015059628
 20
587.8434581520614
 10
405.8153540625353
 20
588.5628489615974
 10
405.6916697680135
 20
589.3068918796834
 10
405.7020307316561
 20
589.5078806045112
  0
LWPOLYLINE
  5
290
330
2
100
AcDbEntity
  8
0
 62
     7
100
AcDbPolyline
 90
       28
 70
   128
 43
0.0
 10
500.7065981424529
 20
423.0950372132119
 10
500.7030707582016
 20
423.4706954869088
 10
500.8710301279206
 20
424.2560705008563
 10
501.2130932680447
 20
425.0238248916921
 10
501.7131715810974
 20
425.7514392795619
 10
502.3563639058847
 20
426.4301499190387
 10
503.1302231161971
 20
427.0534934314546
 10
504.0214569105883
 20
427.6138981642779
 10
505.0147776289959
 20
428.1035689475593
 10
506.093309706368
 20
428.5156978132781
 10
507.2394930555601
 20
428.8450134756621
 10
508.4358607216854
 20
429.0878930898961
 10
509.6655604227562
 20
429.2421527045426
 10
510.9125175311346
 20
429.3067399250921
 10
512.1612953751464
 20
429.2814731436428
 10
513.3958565800567
 20
429.1669716897067
 10
514.5989157988806
 20
428.9650842385944
 10
515.7555113344569
 20
428.6784371199664
 10
516.8503369002719
 20
428.3106392087993
 10
517.8677229940076
 20
427.8665939184484
 10
518.7918650715728
 20
427.3528763862905
 10
519.6075220390339
 20
426.7779523345288
 10
520.3009894847054
 20
426.1520569982585
 10
520.8613383381743
 20
425.4863196822461
 10
521.2811692415852
 20
424.790817296749
 10
521.555830238678
 20
424.071426487213
 10
521.6795145331998
 20
423.327383569127
 10
521.6691535695572
 20
423.1263948442992
  0
LWPOLYLINE
  5
291
330
2
100
AcDbEntity
  8
0
 62
     7
100
AcDbPolyline
 90
       28
 70
   128
 43
0.0
 10
546.664589530148
 20
589.5392382355985
 10
546.6681099294801
 20
589.1635799619016
 10
546.5001552163739
 20
588.3782049479541
 10
546.1580897479434
 20
587.6104505571183
 10
545.6580160915036
 20
586.8828361692485
 10
545.0148167817969
 20
586.2041255297717
 10
544.2409622280974
 20
585.5807820173558
 10
543.3497237770934
 20
585.0203772845325
 10
542.3564123719115
 20
584.5307065012511
 10
541.2778709813137
 20
584.1185776355323
 10
540.1316876321216
 20
583.7892619731483
 10
538.9353199659963
 20
583.5463823589143
 10
537.7056249215383
 20
583.3921227442679
 10
536.4586678131599
 20
583.3275355237183
 10
535.2098899691482
 20
583.3528023051676
 10
533.9753287642379
 20
583.4673037591037
 10
532.7722648888011
 20
583.669191210216
 10
531.6156740098376
 20
583.955838328844
 10
530.5208484440226
 20
584.3236362400111
 10
529.503462350287
 20
584.767681530362
 10
528.5793156161089
 20
585.2813990625199
 10
527.7636633052606
 20
585.8563231142816
 10
527.0701912029762
 20
586.4822184505519
 10
526.5098470061202
 20
587.1479557665643
 10
526.0900114460964
 20
587.8434581520614
 10
525.8153504490037
 20
588.5628489615974
 10
525.6916708110948
 20
589.3068918796834
 10
525.7020317747373
 20
589.5078806045112
  0
TEXT
  5
292
330
2
100
AcDbEntity
  8
02-01
100
AcDbText
 10
636.3632224913827
 20
424.5814779901652
 30
0.0
 40
12.5
  1
Luftleistung: 258qm/h
100
AcDbText
  0
TEXT
  5
293
330
2
100
AcDbEntity
  8
02-01
100
AcDbText
 10
636.3632224913827
 20
445.4148113234984
 30
0.0
 40
12.5
  1
Motorleistung: 85W
100
AcDbText
  0
TEXT
  5
294
330
2
100
AcDbEntity
  8
02-01
100
AcDbText
 10
636.3632224913827
 20
466.2481446568317
 30
0.0
 40
12.5
  1
Heizleistung: 1915W
100
AcDbText
  0
TEXT
  5
295
330
2
100
AcDbEntity
  8
02-01
100
AcDbText
 10
636.3632224913827
 20
487.081477990165
 30
0.0
 40
12.5
  1
Nennleistung: 2000W
100
AcDbText
  0
TEXT
  5
296
330
2
100
AcDbEntity
  8
02-01
100
AcDbText
 10
636.3632224913827
 20
507.9148113234983
 30
0.0
 40
12.5
  1
Anschlussspannung: 230V / 50Hz
100
AcDbText
  0
CIRCLE
  5
297
330
2
100
AcDbEntity
  8
02-01
100
AcDbCircle
 10
752.02151032506
 20
1192.540052588894
 30
0.0
 40
8.099999999999999
  0
TEXT
  5
298
330
2
100
AcDbEntity
  8
02-01
100
AcDbText
 10
748.1422410656457
 20
1187.794840702598
 30
0.0
 40
10.0
  1
X
 41
0.9
  7
ISO
100
AcDbText
  0
CIRCLE
  5
299
330
2
100
AcDbEntity
  8
05-01
100
AcDbCircle
 10
777.1001500874806
 20
1225.892376558456
 30
0.0
 40
28.30404179381003
  0
INSERT
  5
29A
330
2
100
AcDbEntity
  8
0
100
AcDbBlockReference
  2
WAGO-Klemme01-s
 10
784.2777692198612
 20
1222.876148493109
 30
0.0
 41
-1.0
 50
338.9999999999966
  0
TEXT
  5
309
330
2
100
AcDbEntity
  8
02-01
100
AcDbText
 10
784.0335342732251
 20
1295.932022000194
 30
0.0
 40
12.5
  1
rechts oder links
 41
0.9
  7
ISO
100
AcDbText
  0
TEXT
  5
30A
330
2
100
AcDbEntity
  8
02-01
100
AcDbText
 10
802.7727949982763
 20
1309.977957276519
 30
0.0
 40
12.5
  1
Anschluss 
 41
0.9
  7
ISO
100
AcDbText
  0
LEADER
  5
30B
330
2
100
AcDbEntity
  8
09-01
100
AcDbLeader
  3
Wagner
 76
     3
 10
746.59072589091
 20
1261.265134822138
 30
0.0
 10
789.9801288417474
 20
1326.331045585708
 30
0.0
 10
889.5204810525502
 20
1326.331045585708
 30
0.0
1001
ACAD
1000
DSTYLE
1002
{
1070
   147
1040
1.0
1070
    77
1070
     0
1070
    40
1040
5.0
1070
    49
1040
0.18
1070
   179
1070
     8
1002
}
  0
LEADER
  5
30C
330
2
100
AcDbEntity
  8
09-01
100
AcDbLeader
  3
Wagner
 76
     2
 10
945.1563124660497
 20
1260.632812048288
 30
0.0
 10
889.5204810525502
 20
1326.331045585708
 30
0.0
1001
ACAD
1000
DSTYLE
1002
{
1070
   147
1040
1.0
1070
    77
1070
     0
1070
    40
1040
5.0
1070
    49
1040
0.18
1070
   179
1070
     8
1002
}
  0
DIMENSION
  5
30D
330
2
100
AcDbEntity
  8
09-01
100
AcDbDimension
280
     0
  2
*D16
 10
789.0358876026785
 20
1135.893431705504
 30
0.0
 11
748.3061851316711
 21
1147.143431705504
 31
0.0
 71
     5
 42
81.45940494201477
 73
     0
 74
     0
 75
     0
  3
Wagner$0
100
AcDbAlignedDimension
 13
707.5764826606636
 23
1177.81896407687
 33
0.0
 14
789.0358876026785
 24
1259.81896407687
 34
0.0
100
AcDbRotatedDimension
1001
ACAD
1000
DSTYLE
1002
{
1070
   271
1070
     1
1070
    40
1040
5.0
1070
    49
1040
0.18
1070
   179
1070
     8
1002
}
  0
LINE
  5
31A
330
2
100
AcDbEntity
  8
0
100
AcDbLine
 10
945.1276864291235
 20
1198.671753124486
 30
0.0
 11
951.624912710843
 21
1209.350519469157
 31
0.0
  0
LINE
  5
31B
330
2
100
AcDbEntity
  8
0
100
AcDbLine
 10
942.63105325804
 20
1210.919888607454
 30
0.0
 11
945.1276864291235
 21
1198.671753124486
 31
0.0
  0
LINE
  5
31C
330
2
100
AcDbEntity
  8
0
100
AcDbLine
 10
945.5699795195009
 20
1206.874803635578
 30
0.0
 11
942.63105325804
 21
1210.919888607454
 31
0.0
  0
LINE
  5
31D
330
2
100
AcDbEntity
  8
0
100
AcDbLine
 10
947.3846722300645
 20
1206.700923147995
 30
0.0
 11
951.624912710843
 21
1209.350519469157
 31
0.0
  0
LINE
  5
31E
330
2
100
AcDbEntity
  8
0
100
AcDbLine
 10
948.3120397461179
 20
1229.207092047507
 30
0.0
 11
945.5699795195009
 21
1206.874803635578
 31
0.0
  0
LINE
  5
31F
330
2
100
AcDbEntity
  8
0
100
AcDbLine
 10
955.4727673895154
 20
1236.886105219526
 30
0.0
 11
947.3846722300645
 21
1206.700923147995
 31
0.0
  0
LINE
  5
320
330
2
100
AcDbEntity
  8
0
100
AcDbLine
 10
935.32165868935
 20
1221.707092047507
 30
0.0
 11
948.3120397461179
 21
1229.207092047507
 31
0.0
  0
LINE
  5
321
330
2
100
AcDbEntity
  8
0
100
AcDbLine
 10
941.3998545780172
 20
1228.761105219524
 30
0.0
 11
955.4727673895154
 21
1236.886105219526
 31
0.0
  0
LINE
  5
322
330
2
100
AcDbEntity
  8
0
100
AcDbLine
 10
943.733277655181
 20
1253.099681401901
 30
0.0
 11
935.32165868935
 21
1221.707092047507
 31
0.0
  0
LINE
  5
323
330
2
100
AcDbEntity
  8
0
100
AcDbLine
 10
951.2332776551856
 20
1253.099681401901
 30
0.0
 11
941.3998545780172
 21
1228.761105219524
 31
0.0
  0
HATCH
  5
324
330
2
100
AcDbEntity
  8
0
100
AcDbHatch
 10
0.0
 20
0.0
 30
0.0
210
0.0
220
0.0
230
1.0
  2
SOLID
 70
     1
 71
     0
 91
        1
 92
        7
 72
     0
 73
     1
 93
       11
 10
951.2332776551856
 20
1253.099681401901
 10
943.733277655181
 20
1253.0996814019
 10
935.3216586893521
 20
1221.707092047507
 10
948.3120397461156
 20
1229.207092047507
 10
945.5699795195009
 20
1206.874803635582
 10
942.6310532580378
 20
1210.919888607453
 10
945.1276864291235
 20
1198.671753124489
 10
951.624912710843
 20
1209.350519469158
 10
947.3846722300645
 20
1206.700923147995
 10
955.4727673895154
 20
1236.886105219525
 10
941.3998545780195
 20
1228.761105219527
 97
        0
 75
     0
 76
     1
 47
0.199935980760911
 98
        1
 10
946.3537213219302
 20
1248.317901587131
450
        0
451
        0
460
0.0
461
0.0
452
        0
462
0.0
453
        0
470

1001
ACAD
1010
0.0
1020
0.0
1030
0.0
  0
DIMENSION
  5
325
330
2
100
AcDbEntity
  8
09-01
100
AcDbDimension
280
     0
  2
*D15
 10
668.6446317829722
 20
1172.81896407687
 30
0.0
 11
657.3946317829721
 21
1221.318964076871
 31
0.0
 71
     5
 42
97.0
 73
     0
 74
     0
 75
     0
  3
Wagner$0
100
AcDbAlignedDimension
 13
717.5764826606646
 23
1269.81896407687
 33
0.0
 14
717.5764826606637
 24
1172.81896407687
 34
0.0
 50
90.0
100
AcDbRotatedDimension
1001
ACAD
1000
DSTYLE
1002
{
1070
    40
1040
5.0
1070
    49
1040
0.18
1070
   179
1070
     8
1002
}
  0
DIMENSION
  5
332
330
2
100
AcDbEntity
  8
09-01
100
AcDbDimension
280
     0
  2
*D14
 10
668.6446317829722
 20
1269.81896407687
 30
0.0
 11
657.3946317829721
 21
1278.818964076871
 31
0.0
 71
     5
 42
18.00000000000091
 73
     0
 74
     0
 75
     0
  3
Wagner$0
100
AcDbAlignedDimension
 13
693.5764826606641
 23
1287.818964076871
 33
0.0
 14
717.5764826606646
 24
1269.81896407687
 34
0.0
 50
90.0
100
AcDbRotatedDimension
1001
ACAD
1000
DSTYLE
1002
{
1070
    40
1040
5.0
1070
    49
1040
0.18
1070
   179
1070
     8
1002
}
  0
DIMENSION
  5
341
330
2
100
AcDbEntity
  8
09-01
100
AcDbDimension
280
     0
  2
*D13
 10
707.5764826606636
 20
1135.893431705504
 30
0.0
 11
671.8215232523689
 21
1145.871997427469
 31
0.0
 70
   128
 71
     5
 42
13.99999999999954
 73
     0
 74
     0
 75
     0
  3
Wagner$0
100
AcDbAlignedDimension
 13
693.5764826606641
 23
1174.900545588405
 33
0.0
 14
707.5764826606636
 24
1182.81896407687
 34
0.0
100
AcDbRotatedDimension
1001
ACAD
1000
DSTYLE
1002
{
1070
    40
1040
5.0
1070
    49
1040
0.18
1070
   179
1070
     8
1002
}
  0
DIMENSION
  5
350
330
2
100
AcDbEntity
  8
09-01
100
AcDbDimension
280
     0
  2
*D12
 10
508.8614123795159
 20
1251.944167185147
 30
0.0
 11
484.5270798772653
 21
1261.562547501487
 31
0.0
 70
   128
 71
     5
 42
5.0
 73
     0
 74
     0
 75
     0
  3
Wagner$0
100
AcDbAlignedDimension
 13
503.8614123795159
 23
1237.818964076871
 33
0.0
 14
508.8614123795159
 24
1237.818964076871
 34
0.0
100
AcDbRotatedDimension
1001
ACAD
1000
DSTYLE
1002
{
1070
    40
1040
5.0
1070
    49
1040
0.18
1070
   179
1070
     8
1002
}
  0
DIMENSION
  5
35F
330
2
100
AcDbEntity
  8
09-01
100
AcDbDimension
280
     0
  2
*D11
 10
534.3614123795163
 20
1193.971623378923
 30
0.0
 11
520.3614123795161
 21
1205.221623378923
 31
0.0
 71
     5
 42
28.00000000000046
 73
     0
 74
     0
 75
     0
  3
Wagner$0
100
AcDbAlignedDimension
 13
506.361412379516
 23
1232.318964076871
 33
0.0
 14
534.3614123795163
 24
1237.818964076871
 34
0.0
100
AcDbRotatedDimension
1001
ACAD
1000
DSTYLE
1002
{
1070
    40
1040
5.0
1070
    49
1040
0.18
1070
   179
1070
     8
1002
}
  0
DIMENSION
  5
36E
330
2
100
AcDbEntity
  8
09-01
100
AcDbDimension
280
     0
  2
*D10
 10
568.2663461352749
 20
917.8189640768714
 30
0.0
 11
557.0163461352747
 21
1077.818964076871
 31
0.0
 71
     5
 42
319.9999999999999
 73
     0
 74
     0
 75
     0
  3
Wagner$0
100
AcDbAlignedDimension
 13
511.8614123795159
 23
1237.818964076871
 33
0.0
 14
511.8614123795159
 24
917.8189640768714
 34
0.0
 50
90.0
100
AcDbRotatedDimension
1001
ACAD
1000
DSTYLE
1002
{
1070
    40
1040
5.0
1070
    49
1040
0.18
1070
   179
1070
     8
1002
}
  0
DIMENSION
  5
37B
330
2
100
AcDbEntity
  8
09-01
100
AcDbDimension
280
     0
  2
*D9
 10
568.2663461352749
 20
1237.818964076871
 30
0.0
 11
557.0163461352747
 21
1262.818964076871
 31
0.0
 71
     5
 42
50.00000000000023
 73
     0
 74
     0
 75
     0
  3
Wagner$0
100
AcDbAlignedDimension
 13
534.3614123795159
 23
1287.818964076871
 33
0.0
 14
511.8614123795159
 24
1237.818964076871
 34
0.0
 50
90.0
100
AcDbRotatedDimension
1001
ACAD
1000
DSTYLE
1002
{
1070
    40
1040
5.0
1070
    49
1040
0.18
1070
   179
1070
     8
1002
}
  0
ARC
  5
388
330
2
100
AcDbEntity
  8
03-01
100
AcDbCircle
 10
906.1170777186489
 20
1259.81896407687
 30
0.0
 40
10.0
100
AcDbArc
 50
90.0
 51
200.9999999999874
  0
LINE
  5
389
330
2
100
AcDbEntity
  8
03-01
100
AcDbLine
 10
967.5764826606627
 20
1269.81896407687
 30
0.0
 11
906.1170777186489
 21
1269.81896407687
 31
0.0
  0
ARC
  5
38A
330
2
100
AcDbEntity
  8
03-01
100
AcDbCircle
 10
967.5764826606627
 20
1259.81896407687
 30
0.0
 40
10.0
100
AcDbArc
 50
0.0
 51
90.0
  0
LINE
  5
38B
330
2
100
AcDbEntity
  8
03-01
100
AcDbLine
 10
977.5764826606637
 20
1182.81896407687
 30
0.0
 11
977.5764826606629
 21
1259.81896407687
 31
0.0
  0
ARC
  5
38C
330
2
100
AcDbEntity
  8
03-01
100
AcDbCircle
 10
967.5764826606636
 20
1182.81896407687
 30
0.0
 40
10.0
100
AcDbArc
 50
270.0
 51
0.0
  0
ARC
  5
38D
330
2
100
AcDbEntity
  8
03-01
100
AcDbCircle
 10
935.6746084163759
 20
1182.81896407687
 30
0.0
 40
10.0
100
AcDbArc
 50
200.9999999999874
 51
270.0
  0
LINE
  5
38E
330
2
100
AcDbEntity
  8
03-01
100
AcDbLine
 10
935.6746084163759
 20
1172.81896407687
 30
0.0
 11
967.5764826606636
 21
1172.81896407687
 31
0.0
  0
LINE
  5
38F
330
2
100
AcDbEntity
  8
03-01
100
AcDbLine
 10
896.7812734536764
 20
1256.235284581417
 30
0.0
 11
926.3388041514044
 21
1179.235284581417
 31
0.0
  0
ARC
  5
390
330
2
100
AcDbEntity
  8
03-01
100
AcDbCircle
 10
779.0358876026784
 20
1259.81896407687
 30
0.0
 40
10.0
100
AcDbArc
 50
339.0000000000126
 51
90.0
  0
LINE
  5
391
330
2
100
AcDbEntity
  8
03-01
100
AcDbLine
 10
717.5764826606646
 20
1269.81896407687
 30
0.0
 11
779.0358876026784
 21
1269.81896407687
 31
0.0
  0
ARC
  5
392
330
2
100
AcDbEntity
  8
03-01
100
AcDbCircle
 10
717.5764826606646
 20
1259.81896407687
 30
0.0
 40
10.0
100
AcDbArc
 50
90.0
 51
180.0
  0
LINE
  5
393
330
2
100
AcDbEntity
  8
03-01
100
AcDbLine
 10
707.5764826606636
 20
1182.81896407687
 30
0.0
 11
707.5764826606646
 21
1259.81896407687
 31
0.0
  0
ARC
  5
394
330
2
100
AcDbEntity
  8
03-01
100
AcDbCircle
 10
717.5764826606637
 20
1182.81896407687
 30
0.0
 40
10.0
100
AcDbArc
 50
180.0
 51
270.0
  0
ARC
  5
395
330
2
100
AcDbEntity
  8
03-01
100
AcDbCircle
 10
749.4783569049514
 20
1182.81896407687
 30
0.0
 40
10.0
100
AcDbArc
 50
270.0
 51
339.0000000000126
  0
LINE
  5
396
330
2
100
AcDbEntity
  8
03-01
100
AcDbLine
 10
749.4783569049514
 20
1172.81896407687
 30
0.0
 11
717.5764826606637
 21
1172.81896407687
 31
0.0
  0
LINE
  5
397
330
2
100
AcDbEntity
  8
03-01
100
AcDbLine
 10
788.3716918676509
 20
1256.235284581417
 30
0.0
 11
758.8141611699229
 21
1179.235284581417
 31
0.0
  0
TEXT
  5
398
330
2
100
AcDbEntity
  8
02-01
100
AcDbText
 10
789.9960197084692
 20
1335.516043637297
 30
0.0
 40
12.5
  1
AC 230V/50Hz
 41
0.9
  7
ISO
100
AcDbText
  0
LINE
  5
399
330
2
100
AcDbEntity
  8
0
100
AcDbLine
 10
741.8047408897641
 20
1198.671753124486
 30
0.0
 11
748.3019671714837
 21
1209.350519469157
 31
0.0
  0
LINE
  5
39A
330
2
100
AcDbEntity
  8
0
100
AcDbLine
 10
739.3081077186807
 20
1210.919888607454
 30
0.0
 11
741.8047408897641
 21
1198.671753124486
 31
0.0
  0
LINE
  5
39B
330
2
100
AcDbEntity
  8
0
100
AcDbLine
 10
742.2470339801416
 20
1206.874803635578
 30
0.0
 11
739.3081077186807
 21
1210.919888607454
 31
0.0
  0
LINE
  5
39C
330
2
100
AcDbEntity
  8
0
100
AcDbLine
 10
744.0617266907052
 20
1206.700923147995
 30
0.0
 11
748.3019671714837
 21
1209.350519469157
 31
0.0
  0
LINE
  5
39D
330
2
100
AcDbEntity
  8
0
100
AcDbLine
 10
744.9890942067586
 20
1229.207092047507
 30
0.0
 11
742.2470339801416
 21
1206.874803635578
 31
0.0
  0
LINE
  5
39E
330
2
100
AcDbEntity
  8
0
100
AcDbLine
 10
752.1498218501561
 20
1236.886105219526
 30
0.0
 11
744.0617266907052
 21
1206.700923147995
 31
0.0
  0
LINE
  5
39F
330
2
100
AcDbEntity
  8
0
100
AcDbLine
 10
731.9987131499906
 20
1221.707092047507
 30
0.0
 11
744.9890942067586
 21
1229.207092047507
 31
0.0
  0
LINE
  5
3A0
330
2
100
AcDbEntity
  8
0
100
AcDbLine
 10
738.0769090386579
 20
1228.761105219524
 30
0.0
 11
752.1498218501561
 21
1236.886105219526
 31
0.0
  0
LINE
  5
3A1
330
2
100
AcDbEntity
  8
0
100
AcDbLine
 10
740.4103321158218
 20
1253.099681401901
 30
0.0
 11
731.9987131499906
 21
1221.707092047507
 31
0.0
  0
LINE
  5
3A2
330
2
100
AcDbEntity
  8
0
100
AcDbLine
 10
747.9103321158263
 20
1253.099681401901
 30
0.0
 11
738.0769090386579
 21
1228.761105219524
 31
0.0
  0
HATCH
  5
3A3
330
2
100
AcDbEntity
  8
0
100
AcDbHatch
 10
0.0
 20
0.0
 30
0.0
210
0.0
220
0.0
230
1.0
  2
SOLID
 70
     1
 71
     0
 91
        1
 92
        7
 72
     0
 73
     1
 93
       11
 10
747.9103321158263
 20
1253.099681401901
 10
740.4103321158218
 20
1253.0996814019
 10
731.9987131499929
 20
1221.707092047507
 10
744.9890942067563
 20
1229.207092047507
 10
742.2470339801416
 20
1206.874803635582
 10
739.3081077186784
 20
1210.919888607453
 10
741.8047408897641
 20
1198.671753124489
 10
748.3019671714837
 20
1209.350519469158
 10
744.0617266907052
 20
1206.700923147995
 10
752.1498218501561
 20
1236.886105219525
 10
738.0769090386602
 20
1228.761105219527
 97
        0
 75
     0
 76
     1
 47
0.199935980760911
 98
        1
 10
743.0307757825707
 20
1248.317901587131
450
        0
451
        0
460
0.0
461
0.0
452
        0
462
0.0
453
        0
470

1001
ACAD
1010
0.0
1020
0.0
1030
0.0
  0
DIMENSION
  5
3A4
330
2
100
AcDbEntity
  8
09-01
100
AcDbDimension
280
     0
  2
*D8
 10
534.3614123795159
 20
1308.313073166425
 30
0.0
 11
500.3614123795159
 21
1319.563073166425
 31
0.0
 71
     5
 42
68.0
 73
     0
 74
     0
 75
     0
  3
Wagner$0
100
AcDbAlignedDimension
 13
466.3614123795159
 23
1287.818964076871
 33
0.0
 14
534.3614123795159
 24
1287.818964076871
 34
0.0
100
AcDbRotatedDimension
1001
ACAD
1000
DSTYLE
1002
{
1070
    40
1040
5.0
1070
    49
1040
0.18
1070
   179
1070
     8
1002
}
  0
DIMENSION
  5
3B1
330
2
100
AcDbEntity
  8
09-01
100
AcDbDimension
280
     0
  2
*D7
 10
466.3614123795159
 20
1308.313073166425
 30
0.0
 11
425.3614123795159
 21
1319.563073166425
 31
0.0
 71
     5
 42
82.0
 73
     0
 74
     0
 75
     0
  3
Wagner$0
100
AcDbAlignedDimension
 13
384.361412379516
 23
1286.818964076871
 33
0.0
 14
466.3614123795159
 24
1286.818964076871
 34
0.0
100
AcDbRotatedDimension
1001
ACAD
1000
DSTYLE
1002
{
1070
    40
1040
5.0
1070
    49
1040
0.18
1070
   179
1070
     8
1002
}
  0
LINE
  5
3BE
330
2
100
AcDbEntity
  8
03-01
100
AcDbLine
 10
415.3678437889302
 20
941.1012822291795
 30
0.0
 11
507.8614123795161
 21
941.101282229189
 31
0.0
  0
LINE
  5
3BF
330
2
100
AcDbEntity
  8
0
100
AcDbLine
 10
465.9795306215825
 20
892.7751211410255
 30
0.0
 11
466.0631533921966
 21
893.5707386573199
 31
0.0
  0
LINE
  5
3C0
330
2
100
AcDbEntity
  8
03-01
100
AcDbLine
 10
533.3614123795155
 20
893.8189640768714
 30
0.0
 11
467.3614123795159
 21
893.8189640768705
 31
0.0
  0
LINE
  5
3C1
330
2
100
AcDbEntity
  8
0
100
AcDbLine
 10
534.3614123795155
 20
892.8189640768714
 30
0.0
 11
466.3614123795159
 21
892.8189640768714
 31
0.0
  0
POINT
  5
3C2
330
2
100
AcDbEntity
  8
Defpoints
  6
ByBlock
 62
     0
100
AcDbPoint
 10
508.8614123795159
 20
918.0189640768704
 30
0.0
 50
360.0
  0
POINT
  5
3C3
330
2
100
AcDbEntity
  8
Defpoints
  6
ByBlock
 62
     0
100
AcDbPoint
 10
503.8614123795159
 20
918.0189640768704
 30
0.0
 50
360.0
  0
LINE
  5
3C4
330
2
100
AcDbEntity
  8
05-01
100
AcDbLine
 10
500.8614123795159
 20
917.8189640768714
 30
0.0
 11
511.8614123795159
 21
917.8189640768714
 31
0.0
  0
LINE
  5
3C5
330
2
100
AcDbEntity
  8
05-01
100
AcDbLine
 10
506.361412379516
 20
912.3189640768714
 30
0.0
 11
506.361412379516
 21
923.3189640768713
 31
0.0
  0
CIRCLE
  5
3C6
330
2
100
AcDbEntity
  8
0
100
AcDbCircle
 10
506.361412379516
 20
917.8189640768714
 30
0.0
 40
2.5
  0
POINT
  5
3C7
330
2
100
AcDbEntity
  8
Defpoints
  6
ByBlock
 62
     0
100
AcDbPoint
 10
508.8614123795159
 20
1238.01896407687
 30
0.0
 50
360.0
  0
POINT
  5
3C8
330
2
100
AcDbEntity
  8
Defpoints
  6
ByBlock
 62
     0
100
AcDbPoint
 10
503.8614123795159
 20
1238.01896407687
 30
0.0
 50
360.0
  0
LINE
  5
3C9
330
2
100
AcDbEntity
  8
05-01
100
AcDbLine
 10
500.8614123795159
 20
1237.818964076871
 30
0.0
 11
511.8614123795159
 21
1237.818964076871
 31
0.0
  0
LINE
  5
3CA
330
2
100
AcDbEntity
  8
05-01
100
AcDbLine
 10
506.361412379516
 20
1232.318964076871
 30
0.0
 11
506.361412379516
 21
1243.318964076871
 31
0.0
  0
CIRCLE
  5
3CB
330
2
100
AcDbEntity
  8
0
100
AcDbCircle
 10
506.361412379516
 20
1237.818964076871
 30
0.0
 40
2.5
  0
LINE
  5
3CC
330
2
100
AcDbEntity
  8
03-01
100
AcDbLine
 10
465.361412379516
 20
942.3189640768715
 30
0.0
 11
465.361412379516
 21
1285.818964076872
 31
0.0
  0
LINE
  5
3CD
330
2
100
AcDbEntity
  8
03-01
100
AcDbLine
 10
467.3614123795159
 20
893.8189640768705
 30
0.0
 11
467.3614123795159
 21
1286.818964076871
 31
0.0
  0
LINE
  5
3CE
330
2
100
AcDbEntity
  8
0
100
AcDbLine
 10
466.3614123795159
 20
892.8189640768714
 30
0.0
 11
466.3614123795159
 21
1287.818964076871
 31
0.0
  0
LINE
  5
3CF
330
2
100
AcDbEntity
  8
0
100
AcDbLine
 10
413.3614123795159
 20
941.3189640768715
 30
0.0
 11
388.361412379516
 21
941.3189640768715
 31
0.0
  0
LINE
  5
3D0
330
2
100
AcDbEntity
  8
03-01
100
AcDbLine
 10
465.361412379516
 20
1285.818964076872
 30
0.0
 11
385.361412379516
 21
1285.818964076871
 31
0.0
  0
LINE
  5
3D1
330
2
100
AcDbEntity
  8
0
100
AcDbLine
 10
466.3614123795159
 20
1286.818964076871
 30
0.0
 11
384.361412379516
 21
1286.818964076871
 31
0.0
  0
DIMENSION
  5
3D2
330
2
100
AcDbEntity
  8
09-01
100
AcDbDimension
280
     0
  2
*D6
 10
991.576482660665
 20
831.8138512321294
 30
0.0
 11
842.5764826606647
 21
843.0638512321293
 31
0.0
 71
     5
 42
298.0000000000009
 73
     0
 74
     0
 75
     0
  3
Wagner$0
100
AcDbAlignedDimension
 13
693.5764826606641
 23
808.4112480298127
 33
0.0
 14
991.576482660665
 24
808.4112480298122
 34
0.0
100
AcDbRotatedDimension
1001
ACAD
1000
DSTYLE
1002
{
1070
    40
1040
5.0
1070
    49
1040
0.18
1070
   179
1070
     8
1002
}
  0
DIMENSION
  5
3DF
330
2
100
AcDbEntity
  8
09-01
100
AcDbDimension
280
     0
  2
*D5
 10
668.0346915867085
 20
658.4112480298126
 30
0.0
 11
656.7846915867083
 21
733.4112480298127
 31
0.0
 71
     5
 42
150.0
 73
     0
 74
     0
 75
     0
  3
Wagner$0
100
AcDbAlignedDimension
 13
693.5764826606641
 23
808.4112480298127
 33
0.0
 14
693.576482660665
 24
658.4112480298126
 34
0.0
 50
90.0
100
AcDbRotatedDimension
1001
ACAD
1000
DSTYLE
1002
{
1070
    40
1040
5.0
1070
    49
1040
0.18
1070
   179
1070
     8
1002
}
  0
DIMENSION
  5
3EC
330
2
100
AcDbEntity
  8
09-01
100
AcDbDimension
280
     0
  2
*D4
 10
991.5764826606636
 20
1355.710429201548
 30
0.0
 11
842.576482660664
 21
1366.960429201548
 31
0.0
 71
     5
 42
297.9999999999995
 73
     0
 74
     0
 75
     0
  3
Wagner$0
100
AcDbAlignedDimension
 13
693.5764826606641
 23
1287.818964076871
 33
0.0
 14
991.5764826606636
 24
1287.818964076871
 34
0.0
100
AcDbRotatedDimension
1001
ACAD
1000
DSTYLE
1002
{
1070
    40
1040
5.0
1070
    49
1040
0.18
1070
   179
1070
     8
1002
}
  0
LINE
  5
3F9
330
2
100
AcDbEntity
  8
03-01
100
AcDbLine
 10
974.2764826606672
 20
689.6032480298131
 30
0.0
 11
974.2764826606672
 21
682.6032480298131
 31
0.0
  0
LINE
  5
3FA
330
2
100
AcDbEntity
  8
03-01
100
AcDbLine
 10
974.2764826606672
 20
724.1032480298131
 30
0.0
 11
974.2764826606672
 21
717.1032480298131
 31
0.0
  0
LINE
  5
3FB
330
2
100
AcDbEntity
  8
03-01
100
AcDbLine
 10
710.8764826606566
 20
707.8532480298126
 30
0.0
 11
710.8764826606566
 21
713.3532480298127
 31
0.0
  0
LINE
  5
3FC
330
2
100
AcDbEntity
  8
03-01
100
AcDbLine
 10
932.7764826606671
 20
678.1032480298131
 30
0.0
 11
932.7764826606671
 21
671.1032480298131
 31
0.0
  0
LINE
  5
3FD
330
2
100
AcDbEntity
  8
03-01
100
AcDbLine
 10
972.7764826606671
 20
669.6032480298131
 30
0.0
 11
934.2764826606671
 21
669.6032480298131
 31
0.0
  0
ARC
  5
3FE
330
2
100
AcDbEntity
  8
03-01
100
AcDbCircle
 10
972.7764826606671
 20
671.1032480298131
 30
0.0
 40
1.5
100
AcDbArc
 50
270.0
 51
0.0
  0
LINE
  5
3FF
330
2
100
AcDbEntity
  8
03-01
100
AcDbLine
 10
974.2764826606672
 20
678.1032480298131
 30
0.0
 11
974.2764826606672
 21
671.1032480298131
 31
0.0
  0
ARC
  5
400
330
2
100
AcDbEntity
  8
03-01
100
AcDbCircle
 10
972.7764826606671
 20
678.1032480298131
 30
0.0
 40
1.5
100
AcDbArc
 50
0.0
 51
90.0
  0
LINE
  5
401
330
2
100
AcDbEntity
  8
03-01
100
AcDbLine
 10
934.2764826606671
 20
679.6032480298131
 30
0.0
 11
972.7764826606671
 21
679.6032480298131
 31
0.0
  0
ARC
  5
402
330
2
100
AcDbEntity
  8
03-01
100
AcDbCircle
 10
934.2764826606671
 20
678.1032480298131
 30
0.0
 40
1.5
100
AcDbArc
 50
90.0
 51
180.0
  0
ARC
  5
403
330
2
100
AcDbEntity
  8
03-01
100
AcDbCircle
 10
934.2764826606671
 20
671.1032480298131
 30
0.0
 40
1.5
100
AcDbArc
 50
180.0
 51
270.0
  0
LINE
  5
404
330
2
100
AcDbEntity
  8
03-01
100
AcDbLine
 10
889.2764826606653
 20
678.1032480298131
 30
0.0
 11
889.2764826606653
 21
671.1032480298131
 31
0.0
  0
LINE
  5
405
330
2
100
AcDbEntity
  8
03-01
100
AcDbLine
 10
929.2764826606653
 20
669.6032480298131
 30
0.0
 11
890.7764826606653
 21
669.6032480298131
 31
0.0
  0
ARC
  5
406
330
2
100
AcDbEntity
  8
03-01
100
AcDbCircle
 10
929.2764826606653
 20
671.1032480298131
 30
0.0
 40
1.5
100
AcDbArc
 50
270.0
 51
0.0
  0
LINE
  5
407
330
2
100
AcDbEntity
  8
03-01
100
AcDbLine
 10
930.7764826606653
 20
678.1032480298131
 30
0.0
 11
930.7764826606653
 21
671.1032480298131
 31
0.0
  0
ARC
  5
408
330
2
100
AcDbEntity
  8
03-01
100
AcDbCircle
 10
929.2764826606653
 20
678.1032480298131
 30
0.0
 40
1.5
100
AcDbArc
 50
0.0
 51
90.0
  0
LINE
  5
409
330
2
100
AcDbEntity
  8
03-01
100
AcDbLine
 10
890.7764826606653
 20
679.6032480298131
 30
0.0
 11
929.2764826606653
 21
679.6032480298131
 31
0.0
  0
ARC
  5
40A
330
2
100
AcDbEntity
  8
03-01
100
AcDbCircle
 10
890.7764826606653
 20
678.1032480298131
 30
0.0
 40
1.5
100
AcDbArc
 50
90.0
 51
180.0
  0
ARC
  5
40B
330
2
100
AcDbEntity
  8
03-01
100
AcDbCircle
 10
890.7764826606653
 20
671.1032480298131
 30
0.0
 40
1.5
100
AcDbArc
 50
180.0
 51
270.0
  0
ARC
  5
40C
330
2
100
AcDbEntity
  8
03-01
100
AcDbCircle
 10
972.7764826606671
 20
682.6032480298131
 30
0.0
 40
1.5
100
AcDbArc
 50
270.0
 51
0.0
  0
ARC
  5
40D
330
2
100
AcDbEntity
  8
03-01
100
AcDbCircle
 10
972.7764826606671
 20
689.6032480298131
 30
0.0
 40
1.5
100
AcDbArc
 50
0.0
 51
90.0
  0
LINE
  5
40E
330
2
100
AcDbEntity
  8
03-01
100
AcDbLine
 10
932.7764826606671
 20
724.1032480298131
 30
0.0
 11
932.7764826606671
 21
717.1032480298131
 31
0.0
  0
LINE
  5
40F
330
2
100
AcDbEntity
  8
03-01
100
AcDbLine
 10
972.7764826606671
 20
715.6032480298131
 30
0.0
 11
934.2764826606671
 21
715.6032480298131
 31
0.0
  0
ARC
  5
410
330
2
100
AcDbEntity
  8
03-01
100
AcDbCircle
 10
972.7764826606671
 20
717.1032480298131
 30
0.0
 40
1.5
100
AcDbArc
 50
270.0
 51
0.0
  0
ARC
  5
411
330
2
100
AcDbEntity
  8
03-01
100
AcDbCircle
 10
972.7764826606671
 20
724.1032480298131
 30
0.0
 40
1.5
100
AcDbArc
 50
0.0
 51
90.0
  0
LINE
  5
412
330
2
100
AcDbEntity
  8
03-01
100
AcDbLine
 10
934.2764826606671
 20
725.6032480298131
 30
0.0
 11
972.7764826606671
 21
725.6032480298131
 31
0.0
  0
ARC
  5
413
330
2
100
AcDbEntity
  8
03-01
100
AcDbCircle
 10
934.2764826606671
 20
724.1032480298131
 30
0.0
 40
1.5
100
AcDbArc
 50
90.0
 51
180.0
  0
ARC
  5
414
330
2
100
AcDbEntity
  8
03-01
100
AcDbCircle
 10
934.2764826606671
 20
717.1032480298131
 30
0.0
 40
1.5
100
AcDbArc
 50
180.0
 51
270.0
  0
LINE
  5
415
330
2
100
AcDbEntity
  8
03-01
100
AcDbLine
 10
932.7764826606671
 20
689.6032480298131
 30
0.0
 11
932.7764826606671
 21
682.6032480298131
 31
0.0
  0
LINE
  5
416
330
2
100
AcDbEntity
  8
03-01
100
AcDbLine
 10
932.7764826606671
 20
701.1032480298131
 30
0.0
 11
932.7764826606671
 21
694.1032480298131
 31
0.0
  0
LINE
  5
417
330
2
100
AcDbEntity
  8
03-01
100
AcDbLine
 10
932.7764826606671
 20
712.6032480298131
 30
0.0
 11
932.7764826606671
 21
705.6032480298131
 31
0.0
  0
LINE
  5
418
330
2
100
AcDbEntity
  8
03-01
100
AcDbLine
 10
972.7764826606671
 20
681.1032480298131
 30
0.0
 11
934.2764826606671
 21
681.1032480298131
 31
0.0
  0
LINE
  5
419
330
2
100
AcDbEntity
  8
03-01
100
AcDbLine
 10
934.2764826606671
 20
691.1032480298131
 30
0.0
 11
972.7764826606671
 21
691.1032480298131
 31
0.0
  0
ARC
  5
41A
330
2
100
AcDbEntity
  8
03-01
100
AcDbCircle
 10
934.2764826606671
 20
689.6032480298131
 30
0.0
 40
1.5
100
AcDbArc
 50
90.0
 51
180.0
  0
ARC
  5
41B
330
2
100
AcDbEntity
  8
03-01
100
AcDbCircle
 10
934.2764826606671
 20
682.6032480298131
 30
0.0
 40
1.5
100
AcDbArc
 50
180.0
 51
270.0
  0
LINE
  5
41C
330
2
100
AcDbEntity
  8
03-01
100
AcDbLine
 10
972.7764826606671
 20
692.6032480298131
 30
0.0
 11
934.2764826606671
 21
692.6032480298131
 31
0.0
  0
ARC
  5
41D
330
2
100
AcDbEntity
  8
03-01
100
AcDbCircle
 10
972.7764826606671
 20
694.1032480298131
 30
0.0
 40
1.5
100
AcDbArc
 50
270.0
 51
0.0
  0
LINE
  5
41E
330
2
100
AcDbEntity
  8
03-01
100
AcDbLine
 10
974.2764826606672
 20
701.1032480298131
 30
0.0
 11
974.2764826606672
 21
694.1032480298131
 31
0.0
  0
ARC
  5
41F
330
2
100
AcDbEntity
  8
03-01
100
AcDbCircle
 10
972.7764826606671
 20
701.1032480298131
 30
0.0
 40
1.5
100
AcDbArc
 50
0.0
 51
90.0
  0
LINE
  5
420
330
2
100
AcDbEntity
  8
03-01
100
AcDbLine
 10
934.2764826606671
 20
702.6032480298131
 30
0.0
 11
972.7764826606671
 21
702.6032480298131
 31
0.0
  0
ARC
  5
421
330
2
100
AcDbEntity
  8
03-01
100
AcDbCircle
 10
934.2764826606671
 20
701.1032480298131
 30
0.0
 40
1.5
100
AcDbArc
 50
90.0
 51
180.0
  0
ARC
  5
422
330
2
100
AcDbEntity
  8
03-01
100
AcDbCircle
 10
934.2764826606671
 20
694.1032480298131
 30
0.0
 40
1.5
100
AcDbArc
 50
180.0
 51
270.0
  0
LINE
  5
423
330
2
100
AcDbEntity
  8
03-01
100
AcDbLine
 10
972.7764826606671
 20
704.1032480298131
 30
0.0
 11
934.2764826606671
 21
704.1032480298131
 31
0.0
  0
ARC
  5
424
330
2
100
AcDbEntity
  8
03-01
100
AcDbCircle
 10
972.7764826606671
 20
705.6032480298131
 30
0.0
 40
1.5
100
AcDbArc
 50
270.0
 51
0.0
  0
LINE
  5
425
330
2
100
AcDbEntity
  8
03-01
100
AcDbLine
 10
974.2764826606672
 20
712.6032480298131
 30
0.0
 11
974.2764826606672
 21
705.6032480298131
 31
0.0
  0
ARC
  5
426
330
2
100
AcDbEntity
  8
03-01
100
AcDbCircle
 10
972.7764826606671
 20
712.6032480298131
 30
0.0
 40
1.5
100
AcDbArc
 50
0.0
 51
90.0
  0
LINE
  5
427
330
2
100
AcDbEntity
  8
03-01
100
AcDbLine
 10
934.2764826606671
 20
714.1032480298131
 30
0.0
 11
972.7764826606671
 21
714.1032480298131
 31
0.0
  0
ARC
  5
428
330
2
100
AcDbEntity
  8
03-01
100
AcDbCircle
 10
934.2764826606671
 20
712.6032480298131
 30
0.0
 40
1.5
100
AcDbArc
 50
90.0
 51
180.0
  0
ARC
  5
429
330
2
100
AcDbEntity
  8
03-01
100
AcDbCircle
 10
934.2764826606671
 20
705.6032480298131
 30
0.0
 40
1.5
100
AcDbArc
 50
180.0
 51
270.0
  0
LINE
  5
42A
330
2
100
AcDbEntity
  8
03-01
100
AcDbLine
 10
889.2764826606653
 20
724.1032480298131
 30
0.0
 11
889.2764826606653
 21
717.1032480298131
 31
0.0
  0
LINE
  5
42B
330
2
100
AcDbEntity
  8
03-01
100
AcDbLine
 10
929.2764826606653
 20
715.6032480298131
 30
0.0
 11
890.7764826606653
 21
715.6032480298131
 31
0.0
  0
ARC
  5
42C
330
2
100
AcDbEntity
  8
03-01
100
AcDbCircle
 10
929.2764826606653
 20
717.1032480298131
 30
0.0
 40
1.5
100
AcDbArc
 50
270.0
 51
0.0
  0
LINE
  5
42D
330
2
100
AcDbEntity
  8
03-01
100
AcDbLine
 10
930.7764826606653
 20
724.1032480298131
 30
0.0
 11
930.7764826606653
 21
717.1032480298131
 31
0.0
  0
ARC
  5
42E
330
2
100
AcDbEntity
  8
03-01
100
AcDbCircle
 10
929.2764826606653
 20
724.1032480298131
 30
0.0
 40
1.5
100
AcDbArc
 50
0.0
 51
90.0
  0
LINE
  5
42F
330
2
100
AcDbEntity
  8
03-01
100
AcDbLine
 10
890.7764826606653
 20
725.6032480298131
 30
0.0
 11
929.2764826606653
 21
725.6032480298131
 31
0.0
  0
ARC
  5
430
330
2
100
AcDbEntity
  8
03-01
100
AcDbCircle
 10
890.7764826606653
 20
724.1032480298131
 30
0.0
 40
1.5
100
AcDbArc
 50
90.0
 51
180.0
  0
ARC
  5
431
330
2
100
AcDbEntity
  8
03-01
100
AcDbCircle
 10
890.7764826606653
 20
717.1032480298131
 30
0.0
 40
1.5
100
AcDbArc
 50
180.0
 51
270.0
  0
LINE
  5
432
330
2
100
AcDbEntity
  8
03-01
100
AcDbLine
 10
889.2764826606653
 20
689.6032480298131
 30
0.0
 11
889.2764826606653
 21
682.6032480298131
 31
0.0
  0
LINE
  5
433
330
2
100
AcDbEntity
  8
03-01
100
AcDbLine
 10
889.2764826606653
 20
701.1032480298131
 30
0.0
 11
889.2764826606653
 21
694.1032480298131
 31
0.0
  0
LINE
  5
434
330
2
100
AcDbEntity
  8
03-01
100
AcDbLine
 10
889.2764826606653
 20
712.6032480298131
 30
0.0
 11
889.2764826606653
 21
705.6032480298131
 31
0.0
  0
LINE
  5
435
330
2
100
AcDbEntity
  8
03-01
100
AcDbLine
 10
929.2764826606653
 20
681.1032480298131
 30
0.0
 11
890.7764826606653
 21
681.1032480298131
 31
0.0
  0
ARC
  5
436
330
2
100
AcDbEntity
  8
03-01
100
AcDbCircle
 10
929.2764826606653
 20
682.6032480298131
 30
0.0
 40
1.5
100
AcDbArc
 50
270.0
 51
0.0
  0
LINE
  5
437
330
2
100
AcDbEntity
  8
03-01
100
AcDbLine
 10
930.7764826606653
 20
689.6032480298131
 30
0.0
 11
930.7764826606653
 21
682.6032480298131
 31
0.0
  0
ARC
  5
438
330
2
100
AcDbEntity
  8
03-01
100
AcDbCircle
 10
929.2764826606653
 20
689.6032480298131
 30
0.0
 40
1.5
100
AcDbArc
 50
0.0
 51
90.0
  0
LINE
  5
439
330
2
100
AcDbEntity
  8
03-01
100
AcDbLine
 10
890.7764826606653
 20
691.1032480298131
 30
0.0
 11
929.2764826606653
 21
691.1032480298131
 31
0.0
  0
ARC
  5
43A
330
2
100
AcDbEntity
  8
03-01
100
AcDbCircle
 10
890.7764826606653
 20
689.6032480298131
 30
0.0
 40
1.5
100
AcDbArc
 50
90.0
 51
180.0
  0
ARC
  5
43B
330
2
100
AcDbEntity
  8
03-01
100
AcDbCircle
 10
890.7764826606653
 20
682.6032480298131
 30
0.0
 40
1.5
100
AcDbArc
 50
180.0
 51
270.0
  0
LINE
  5
43C
330
2
100
AcDbEntity
  8
03-01
100
AcDbLine
 10
929.2764826606653
 20
692.6032480298131
 30
0.0
 11
890.7764826606653
 21
692.6032480298131
 31
0.0
  0
ARC
  5
43D
330
2
100
AcDbEntity
  8
03-01
100
AcDbCircle
 10
929.2764826606653
 20
694.1032480298131
 30
0.0
 40
1.5
100
AcDbArc
 50
270.0
 51
0.0
  0
LINE
  5
43E
330
2
100
AcDbEntity
  8
03-01
100
AcDbLine
 10
930.7764826606653
 20
701.1032480298131
 30
0.0
 11
930.7764826606653
 21
694.1032480298131
 31
0.0
  0
ARC
  5
43F
330
2
100
AcDbEntity
  8
03-01
100
AcDbCircle
 10
929.2764826606653
 20
701.1032480298131
 30
0.0
 40
1.5
100
AcDbArc
 50
0.0
 51
90.0
  0
LINE
  5
440
330
2
100
AcDbEntity
  8
03-01
100
AcDbLine
 10
890.7764826606653
 20
702.6032480298131
 30
0.0
 11
929.2764826606653
 21
702.6032480298131
 31
0.0
  0
ARC
  5
441
330
2
100
AcDbEntity
  8
03-01
100
AcDbCircle
 10
890.7764826606653
 20
701.1032480298131
 30
0.0
 40
1.5
100
AcDbArc
 50
90.0
 51
180.0
  0
ARC
  5
442
330
2
100
AcDbEntity
  8
03-01
100
AcDbCircle
 10
890.7764826606653
 20
694.1032480298131
 30
0.0
 40
1.5
100
AcDbArc
 50
180.0
 51
270.0
  0
LINE
  5
443
330
2
100
AcDbEntity
  8
03-01
100
AcDbLine
 10
929.2764826606653
 20
704.1032480298131
 30
0.0
 11
890.7764826606653
 21
704.1032480298131
 31
0.0
  0
ARC
  5
444
330
2
100
AcDbEntity
  8
03-01
100
AcDbCircle
 10
929.2764826606653
 20
705.6032480298131
 30
0.0
 40
1.5
100
AcDbArc
 50
270.0
 51
0.0
  0
LINE
  5
445
330
2
100
AcDbEntity
  8
03-01
100
AcDbLine
 10
930.7764826606653
 20
712.6032480298131
 30
0.0
 11
930.7764826606653
 21
705.6032480298131
 31
0.0
  0
ARC
  5
446
330
2
100
AcDbEntity
  8
03-01
100
AcDbCircle
 10
929.2764826606653
 20
712.6032480298131
 30
0.0
 40
1.5
100
AcDbArc
 50
0.0
 51
90.0
  0
LINE
  5
447
330
2
100
AcDbEntity
  8
03-01
100
AcDbLine
 10
890.7764826606653
 20
714.1032480298131
 30
0.0
 11
929.2764826606653
 21
714.1032480298131
 31
0.0
  0
ARC
  5
448
330
2
100
AcDbEntity
  8
03-01
100
AcDbCircle
 10
890.7764826606653
 20
712.6032480298131
 30
0.0
 40
1.5
100
AcDbArc
 50
90.0
 51
180.0
  0
ARC
  5
449
330
2
100
AcDbEntity
  8
03-01
100
AcDbCircle
 10
890.7764826606653
 20
705.6032480298131
 30
0.0
 40
1.5
100
AcDbArc
 50
180.0
 51
270.0
  0
LINE
  5
44A
330
2
100
AcDbEntity
  8
03-01
100
AcDbLine
 10
879.2764826606571
 20
696.1032480298122
 30
0.0
 11
829.8764826606566
 21
696.1032480298122
 31
0.0
  0
ARC
  5
44B
330
2
100
AcDbEntity
  8
03-01
100
AcDbCircle
 10
879.2764826606571
 20
697.6032480298122
 30
0.0
 40
1.5
100
AcDbArc
 50
270.0
 51
0.0
  0
LINE
  5
44C
330
2
100
AcDbEntity
  8
03-01
100
AcDbLine
 10
880.7764826606572
 20
703.1032480298122
 30
0.0
 11
880.7764826606572
 21
697.6032480298122
 31
0.0
  0
ARC
  5
44D
330
2
100
AcDbEntity
  8
03-01
100
AcDbCircle
 10
879.2764826606571
 20
703.1032480298122
 30
0.0
 40
1.5
100
AcDbArc
 50
0.0
 51
90.0
  0
LINE
  5
44E
330
2
100
AcDbEntity
  8
03-01
100
AcDbLine
 10
829.8764826606566
 20
704.6032480298122
 30
0.0
 11
879.2764826606571
 21
704.6032480298122
 31
0.0
  0
ARC
  5
44F
330
2
100
AcDbEntity
  8
03-01
100
AcDbCircle
 10
829.8764826606566
 20
703.1032480298122
 30
0.0
 40
1.5
100
AcDbArc
 50
90.0
 51
180.0
  0
LINE
  5
450
330
2
100
AcDbEntity
  8
03-01
100
AcDbLine
 10
828.3764826606565
 20
697.6032480298122
 30
0.0
 11
828.3764826606565
 21
703.1032480298122
 31
0.0
  0
ARC
  5
451
330
2
100
AcDbEntity
  8
03-01
100
AcDbCircle
 10
829.8764826606566
 20
697.6032480298122
 30
0.0
 40
1.5
100
AcDbArc
 50
180.0
 51
270.0
  0
LINE
  5
452
330
2
100
AcDbEntity
  8
03-01
100
AcDbLine
 10
815.3764826606566
 20
673.3532480298126
 30
0.0
 11
767.8764826606566
 21
673.3532480298126
 31
0.0
  0
ARC
  5
453
330
2
100
AcDbEntity
  8
03-01
100
AcDbCircle
 10
815.3764826606566
 20
674.8532480298126
 30
0.0
 40
1.5
100
AcDbArc
 50
270.0
 51
0.0
  0
LINE
  5
454
330
2
100
AcDbEntity
  8
03-01
100
AcDbLine
 10
816.8764826606565
 20
680.3532480298127
 30
0.0
 11
816.8764826606565
 21
674.8532480298126
 31
0.0
  0
ARC
  5
455
330
2
100
AcDbEntity
  8
03-01
100
AcDbCircle
 10
815.3764826606566
 20
680.3532480298127
 30
0.0
 40
1.5
100
AcDbArc
 50
0.0
 51
90.0
  0
LINE
  5
456
330
2
100
AcDbEntity
  8
03-01
100
AcDbLine
 10
767.8764826606566
 20
681.8532480298126
 30
0.0
 11
815.3764826606566
 21
681.8532480298126
 31
0.0
  0
ARC
  5
457
330
2
100
AcDbEntity
  8
03-01
100
AcDbCircle
 10
767.8764826606566
 20
680.3532480298127
 30
0.0
 40
1.5
100
AcDbArc
 50
90.0
 51
180.0
  0
LINE
  5
458
330
2
100
AcDbEntity
  8
03-01
100
AcDbLine
 10
766.3764826606566
 20
674.8532480298126
 30
0.0
 11
766.3764826606566
 21
680.3532480298127
 31
0.0
  0
ARC
  5
459
330
2
100
AcDbEntity
  8
03-01
100
AcDbCircle
 10
767.8764826606566
 20
674.8532480298126
 30
0.0
 40
1.5
100
AcDbArc
 50
180.0
 51
270.0
  0
LINE
  5
45A
330
2
100
AcDbEntity
  8
03-01
100
AcDbLine
 10
759.8764826606566
 20
673.3532480298126
 30
0.0
 11
712.3764826606566
 21
673.3532480298126
 31
0.0
  0
ARC
  5
45B
330
2
100
AcDbEntity
  8
03-01
100
AcDbCircle
 10
759.8764826606566
 20
674.8532480298126
 30
0.0
 40
1.5
100
AcDbArc
 50
270.0
 51
0.0
  0
LINE
  5
45C
330
2
100
AcDbEntity
  8
03-01
100
AcDbLine
 10
761.3764826606566
 20
680.3532480298127
 30
0.0
 11
761.3764826606566
 21
674.8532480298126
 31
0.0
  0
ARC
  5
45D
330
2
100
AcDbEntity
  8
03-01
100
AcDbCircle
 10
759.8764826606566
 20
680.3532480298127
 30
0.0
 40
1.5
100
AcDbArc
 50
0.0
 51
90.0
  0
LINE
  5
45E
330
2
100
AcDbEntity
  8
03-01
100
AcDbLine
 10
712.3764826606566
 20
681.8532480298126
 30
0.0
 11
759.8764826606566
 21
681.8532480298126
 31
0.0
  0
ARC
  5
45F
330
2
100
AcDbEntity
  8
03-01
100
AcDbCircle
 10
712.3764826606566
 20
680.3532480298127
 30
0.0
 40
1.5
100
AcDbArc
 50
90.0
 51
180.0
  0
LINE
  5
460
330
2
100
AcDbEntity
  8
03-01
100
AcDbLine
 10
710.8764826606566
 20
674.8532480298126
 30
0.0
 11
710.8764826606566
 21
680.3532480298127
 31
0.0
  0
ARC
  5
461
330
2
100
AcDbEntity
  8
03-01
100
AcDbCircle
 10
712.3764826606566
 20
674.8532480298126
 30
0.0
 40
1.5
100
AcDbArc
 50
180.0
 51
270.0
  0
LINE
  5
462
330
2
100
AcDbEntity
  8
03-01
100
AcDbLine
 10
815.3764826606566
 20
684.3532480298127
 30
0.0
 11
767.8764826606566
 21
684.3532480298127
 31
0.0
  0
ARC
  5
463
330
2
100
AcDbEntity
  8
03-01
100
AcDbCircle
 10
815.3764826606566
 20
685.8532480298126
 30
0.0
 40
1.5
100
AcDbArc
 50
270.0
 51
0.0
  0
LINE
  5
464
330
2
100
AcDbEntity
  8
03-01
100
AcDbLine
 10
816.8764826606565
 20
691.3532480298126
 30
0.0
 11
816.8764826606565
 21
685.8532480298126
 31
0.0
  0
ARC
  5
465
330
2
100
AcDbEntity
  8
03-01
100
AcDbCircle
 10
815.3764826606566
 20
691.3532480298126
 30
0.0
 40
1.5
100
AcDbArc
 50
0.0
 51
90.0
  0
LINE
  5
466
330
2
100
AcDbEntity
  8
03-01
100
AcDbLine
 10
767.8764826606566
 20
692.8532480298127
 30
0.0
 11
815.3764826606566
 21
692.8532480298127
 31
0.0
  0
ARC
  5
467
330
2
100
AcDbEntity
  8
03-01
100
AcDbCircle
 10
767.8764826606566
 20
691.3532480298126
 30
0.0
 40
1.5
100
AcDbArc
 50
90.0
 51
180.0
  0
LINE
  5
468
330
2
100
AcDbEntity
  8
03-01
100
AcDbLine
 10
766.3764826606566
 20
685.8532480298126
 30
0.0
 11
766.3764826606566
 21
691.3532480298126
 31
0.0
  0
ARC
  5
469
330
2
100
AcDbEntity
  8
03-01
100
AcDbCircle
 10
767.8764826606566
 20
685.8532480298126
 30
0.0
 40
1.5
100
AcDbArc
 50
180.0
 51
270.0
  0
LINE
  5
46A
330
2
100
AcDbEntity
  8
03-01
100
AcDbLine
 10
759.8764826606566
 20
684.3532480298127
 30
0.0
 11
712.3764826606566
 21
684.3532480298127
 31
0.0
  0
ARC
  5
46B
330
2
100
AcDbEntity
  8
03-01
100
AcDbCircle
 10
759.8764826606566
 20
685.8532480298126
 30
0.0
 40
1.5
100
AcDbArc
 50
270.0
 51
0.0
  0
LINE
  5
46C
330
2
100
AcDbEntity
  8
03-01
100
AcDbLine
 10
761.3764826606566
 20
691.3532480298126
 30
0.0
 11
761.3764826606566
 21
685.8532480298126
 31
0.0
  0
ARC
  5
46D
330
2
100
AcDbEntity
  8
03-01
100
AcDbCircle
 10
759.8764826606566
 20
691.3532480298126
 30
0.0
 40
1.5
100
AcDbArc
 50
0.0
 51
90.0
  0
LINE
  5
46E
330
2
100
AcDbEntity
  8
03-01
100
AcDbLine
 10
712.3764826606566
 20
692.8532480298127
 30
0.0
 11
759.8764826606566
 21
692.8532480298127
 31
0.0
  0
ARC
  5
46F
330
2
100
AcDbEntity
  8
03-01
100
AcDbCircle
 10
712.3764826606566
 20
691.3532480298126
 30
0.0
 40
1.5
100
AcDbArc
 50
90.0
 51
180.0
  0
LINE
  5
470
330
2
100
AcDbEntity
  8
03-01
100
AcDbLine
 10
710.8764826606566
 20
685.8532480298126
 30
0.0
 11
710.8764826606566
 21
691.3532480298126
 31
0.0
  0
ARC
  5
471
330
2
100
AcDbEntity
  8
03-01
100
AcDbCircle
 10
712.3764826606566
 20
685.8532480298126
 30
0.0
 40
1.5
100
AcDbArc
 50
180.0
 51
270.0
  0
LINE
  5
472
330
2
100
AcDbEntity
  8
03-01
100
AcDbLine
 10
815.3764826606566
 20
695.3532480298126
 30
0.0
 11
767.8764826606566
 21
695.3532480298126
 31
0.0
  0
ARC
  5
473
330
2
100
AcDbEntity
  8
03-01
100
AcDbCircle
 10
815.3764826606566
 20
696.8532480298127
 30
0.0
 40
1.5
100
AcDbArc
 50
270.0
 51
0.0
  0
LINE
  5
474
330
2
100
AcDbEntity
  8
03-01
100
AcDbLine
 10
816.8764826606565
 20
702.3532480298126
 30
0.0
 11
816.8764826606565
 21
696.8532480298127
 31
0.0
  0
ARC
  5
475
330
2
100
AcDbEntity
  8
03-01
100
AcDbCircle
 10
815.3764826606566
 20
702.3532480298126
 30
0.0
 40
1.5
100
AcDbArc
 50
0.0
 51
90.0
  0
LINE
  5
476
330
2
100
AcDbEntity
  8
03-01
100
AcDbLine
 10
767.8764826606566
 20
703.8532480298126
 30
0.0
 11
815.3764826606566
 21
703.8532480298126
 31
0.0
  0
ARC
  5
477
330
2
100
AcDbEntity
  8
03-01
100
AcDbCircle
 10
767.8764826606566
 20
702.3532480298126
 30
0.0
 40
1.5
100
AcDbArc
 50
90.0
 51
180.0
  0
LINE
  5
478
330
2
100
AcDbEntity
  8
03-01
100
AcDbLine
 10
766.3764826606566
 20
696.8532480298127
 30
0.0
 11
766.3764826606566
 21
702.3532480298126
 31
0.0
  0
ARC
  5
479
330
2
100
AcDbEntity
  8
03-01
100
AcDbCircle
 10
767.8764826606566
 20
696.8532480298127
 30
0.0
 40
1.5
100
AcDbArc
 50
180.0
 51
270.0
  0
LINE
  5
47A
330
2
100
AcDbEntity
  8
03-01
100
AcDbLine
 10
759.8764826606566
 20
695.3532480298126
 30
0.0
 11
712.3764826606566
 21
695.3532480298126
 31
0.0
  0
ARC
  5
47B
330
2
100
AcDbEntity
  8
03-01
100
AcDbCircle
 10
759.8764826606566
 20
696.8532480298127
 30
0.0
 40
1.5
100
AcDbArc
 50
270.0
 51
0.0
  0
LINE
  5
47C
330
2
100
AcDbEntity
  8
03-01
100
AcDbLine
 10
761.3764826606566
 20
702.3532480298126
 30
0.0
 11
761.3764826606566
 21
696.8532480298127
 31
0.0
  0
ARC
  5
47D
330
2
100
AcDbEntity
  8
03-01
100
AcDbCircle
 10
759.8764826606566
 20
702.3532480298126
 30
0.0
 40
1.5
100
AcDbArc
 50
0.0
 51
90.0
  0
LINE
  5
47E
330
2
100
AcDbEntity
  8
03-01
100
AcDbLine
 10
712.3764826606566
 20
703.8532480298126
 30
0.0
 11
759.8764826606566
 21
703.8532480298126
 31
0.0
  0
ARC
  5
47F
330
2
100
AcDbEntity
  8
03-01
100
AcDbCircle
 10
712.3764826606566
 20
702.3532480298126
 30
0.0
 40
1.5
100
AcDbArc
 50
90.0
 51
180.0
  0
LINE
  5
480
330
2
100
AcDbEntity
  8
03-01
100
AcDbLine
 10
710.8764826606566
 20
696.8532480298127
 30
0.0
 11
710.8764826606566
 21
702.3532480298126
 31
0.0
  0
ARC
  5
481
330
2
100
AcDbEntity
  8
03-01
100
AcDbCircle
 10
712.3764826606566
 20
696.8532480298127
 30
0.0
 40
1.5
100
AcDbArc
 50
180.0
 51
270.0
  0
LINE
  5
482
330
2
100
AcDbEntity
  8
03-01
100
AcDbLine
 10
879.2764826606571
 20
706.1032480298122
 30
0.0
 11
829.8764826606566
 21
706.1032480298122
 31
0.0
  0
ARC
  5
483
330
2
100
AcDbEntity
  8
03-01
100
AcDbCircle
 10
879.2764826606571
 20
707.6032480298122
 30
0.0
 40
1.5
100
AcDbArc
 50
270.0
 51
0.0
  0
LINE
  5
484
330
2
100
AcDbEntity
  8
03-01
100
AcDbLine
 10
880.7764826606572
 20
713.1032480298122
 30
0.0
 11
880.7764826606572
 21
707.6032480298122
 31
0.0
  0
ARC
  5
485
330
2
100
AcDbEntity
  8
03-01
100
AcDbCircle
 10
879.2764826606571
 20
713.1032480298122
 30
0.0
 40
1.5
100
AcDbArc
 50
0.0
 51
90.0
  0
LINE
  5
486
330
2
100
AcDbEntity
  8
03-01
100
AcDbLine
 10
829.8764826606566
 20
714.6032480298122
 30
0.0
 11
879.2764826606571
 21
714.6032480298122
 31
0.0
  0
ARC
  5
487
330
2
100
AcDbEntity
  8
03-01
100
AcDbCircle
 10
829.8764826606566
 20
713.1032480298122
 30
0.0
 40
1.5
100
AcDbArc
 50
90.0
 51
180.0
  0
LINE
  5
488
330
2
100
AcDbEntity
  8
03-01
100
AcDbLine
 10
828.3764826606565
 20
707.6032480298122
 30
0.0
 11
828.3764826606565
 21
713.1032480298122
 31
0.0
  0
ARC
  5
489
330
2
100
AcDbEntity
  8
03-01
100
AcDbCircle
 10
829.8764826606566
 20
707.6032480298122
 30
0.0
 40
1.5
100
AcDbArc
 50
180.0
 51
270.0
  0
LINE
  5
48A
330
2
100
AcDbEntity
  8
03-01
100
AcDbLine
 10
815.3764826606566
 20
706.3532480298126
 30
0.0
 11
767.8764826606566
 21
706.3532480298126
 31
0.0
  0
ARC
  5
48B
330
2
100
AcDbEntity
  8
03-01
100
AcDbCircle
 10
815.3764826606566
 20
707.8532480298126
 30
0.0
 40
1.5
100
AcDbArc
 50
270.0
 51
0.0
  0
LINE
  5
48C
330
2
100
AcDbEntity
  8
03-01
100
AcDbLine
 10
816.8764826606565
 20
713.3532480298127
 30
0.0
 11
816.8764826606565
 21
707.8532480298126
 31
0.0
  0
ARC
  5
48D
330
2
100
AcDbEntity
  8
03-01
100
AcDbCircle
 10
815.3764826606566
 20
713.3532480298127
 30
0.0
 40
1.5
100
AcDbArc
 50
0.0
 51
90.0
  0
LINE
  5
48E
330
2
100
AcDbEntity
  8
03-01
100
AcDbLine
 10
767.8764826606566
 20
714.8532480298126
 30
0.0
 11
815.3764826606566
 21
714.8532480298126
 31
0.0
  0
ARC
  5
48F
330
2
100
AcDbEntity
  8
03-01
100
AcDbCircle
 10
767.8764826606566
 20
713.3532480298127
 30
0.0
 40
1.5
100
AcDbArc
 50
90.0
 51
180.0
  0
LINE
  5
490
330
2
100
AcDbEntity
  8
03-01
100
AcDbLine
 10
766.3764826606566
 20
707.8532480298126
 30
0.0
 11
766.3764826606566
 21
713.3532480298127
 31
0.0
  0
ARC
  5
491
330
2
100
AcDbEntity
  8
03-01
100
AcDbCircle
 10
767.8764826606566
 20
707.8532480298126
 30
0.0
 40
1.5
100
AcDbArc
 50
180.0
 51
270.0
  0
LINE
  5
492
330
2
100
AcDbEntity
  8
03-01
100
AcDbLine
 10
759.8764826606566
 20
706.3532480298126
 30
0.0
 11
712.3764826606566
 21
706.3532480298126
 31
0.0
  0
ARC
  5
493
330
2
100
AcDbEntity
  8
03-01
100
AcDbCircle
 10
759.8764826606566
 20
707.8532480298126
 30
0.0
 40
1.5
100
AcDbArc
 50
270.0
 51
0.0
  0
LINE
  5
494
330
2
100
AcDbEntity
  8
03-01
100
AcDbLine
 10
761.3764826606566
 20
713.3532480298127
 30
0.0
 11
761.3764826606566
 21
707.8532480298126
 31
0.0
  0
ARC
  5
495
330
2
100
AcDbEntity
  8
03-01
100
AcDbCircle
 10
759.8764826606566
 20
713.3532480298127
 30
0.0
 40
1.5
100
AcDbArc
 50
0.0
 51
90.0
  0
LINE
  5
496
330
2
100
AcDbEntity
  8
03-01
100
AcDbLine
 10
712.3764826606566
 20
714.8532480298126
 30
0.0
 11
759.8764826606566
 21
714.8532480298126
 31
0.0
  0
ARC
  5
497
330
2
100
AcDbEntity
  8
03-01
100
AcDbCircle
 10
712.3764826606566
 20
713.3532480298127
 30
0.0
 40
1.5
100
AcDbArc
 50
90.0
 51
180.0
  0
ARC
  5
498
330
2
100
AcDbEntity
  8
03-01
100
AcDbCircle
 10
712.3764826606566
 20
707.8532480298126
 30
0.0
 40
1.5
100
AcDbArc
 50
180.0
 51
270.0
  0
LINE
  5
499
330
2
100
AcDbEntity
  8
03-01
100
AcDbLine
 10
879.2764826606571
 20
716.1032480298122
 30
0.0
 11
829.8764826606566
 21
716.1032480298122
 31
0.0
  0
ARC
  5
49A
330
2
100
AcDbEntity
  8
03-01
100
AcDbCircle
 10
879.2764826606571
 20
717.6032480298122
 30
0.0
 40
1.5
100
AcDbArc
 50
270.0
 51
0.0
  0
LINE
  5
49B
330
2
100
AcDbEntity
  8
03-01
100
AcDbLine
 10
880.7764826606572
 20
723.1032480298122
 30
0.0
 11
880.7764826606572
 21
717.6032480298122
 31
0.0
  0
ARC
  5
49C
330
2
100
AcDbEntity
  8
03-01
100
AcDbCircle
 10
879.2764826606571
 20
723.1032480298122
 30
0.0
 40
1.5
100
AcDbArc
 50
0.0
 51
90.0
  0
LINE
  5
49D
330
2
100
AcDbEntity
  8
03-01
100
AcDbLine
 10
829.8764826606566
 20
724.6032480298122
 30
0.0
 11
879.2764826606571
 21
724.6032480298122
 31
0.0
  0
ARC
  5
49E
330
2
100
AcDbEntity
  8
03-01
100
AcDbCircle
 10
829.8764826606566
 20
723.1032480298122
 30
0.0
 40
1.5
100
AcDbArc
 50
90.0
 51
180.0
  0
LINE
  5
49F
330
2
100
AcDbEntity
  8
03-01
100
AcDbLine
 10
828.3764826606565
 20
717.6032480298122
 30
0.0
 11
828.3764826606565
 21
723.1032480298122
 31
0.0
  0
ARC
  5
4A0
330
2
100
AcDbEntity
  8
03-01
100
AcDbCircle
 10
829.8764826606566
 20
717.6032480298122
 30
0.0
 40
1.5
100
AcDbArc
 50
180.0
 51
270.0
  0
LINE
  5
4A1
330
2
100
AcDbEntity
  8
03-01
100
AcDbLine
 10
815.3764826606566
 20
717.3532480298127
 30
0.0
 11
767.8764826606566
 21
717.3532480298127
 31
0.0
  0
ARC
  5
4A2
330
2
100
AcDbEntity
  8
03-01
100
AcDbCircle
 10
815.3764826606566
 20
718.8532480298126
 30
0.0
 40
1.5
100
AcDbArc
 50
270.0
 51
0.0
  0
LINE
  5
4A3
330
2
100
AcDbEntity
  8
03-01
100
AcDbLine
 10
816.8764826606565
 20
724.3532480298126
 30
0.0
 11
816.8764826606565
 21
718.8532480298126
 31
0.0
  0
ARC
  5
4A4
330
2
100
AcDbEntity
  8
03-01
100
AcDbCircle
 10
815.3764826606566
 20
724.3532480298126
 30
0.0
 40
1.5
100
AcDbArc
 50
0.0
 51
90.0
  0
LINE
  5
4A5
330
2
100
AcDbEntity
  8
03-01
100
AcDbLine
 10
767.8764826606566
 20
725.8532480298127
 30
0.0
 11
815.3764826606566
 21
725.8532480298127
 31
0.0
  0
ARC
  5
4A6
330
2
100
AcDbEntity
  8
03-01
100
AcDbCircle
 10
767.8764826606566
 20
724.3532480298126
 30
0.0
 40
1.5
100
AcDbArc
 50
90.0
 51
180.0
  0
LINE
  5
4A7
330
2
100
AcDbEntity
  8
03-01
100
AcDbLine
 10
766.3764826606566
 20
718.8532480298126
 30
0.0
 11
766.3764826606566
 21
724.3532480298126
 31
0.0
  0
ARC
  5
4A8
330
2
100
AcDbEntity
  8
03-01
100
AcDbCircle
 10
767.8764826606566
 20
718.8532480298126
 30
0.0
 40
1.5
100
AcDbArc
 50
180.0
 51
270.0
  0
LINE
  5
4A9
330
2
100
AcDbEntity
  8
03-01
100
AcDbLine
 10
759.8764826606566
 20
717.3532480298127
 30
0.0
 11
712.3764826606566
 21
717.3532480298127
 31
0.0
  0
ARC
  5
4AA
330
2
100
AcDbEntity
  8
03-01
100
AcDbCircle
 10
759.8764826606566
 20
718.8532480298126
 30
0.0
 40
1.5
100
AcDbArc
 50
270.0
 51
0.0
  0
LINE
  5
4AB
330
2
100
AcDbEntity
  8
03-01
100
AcDbLine
 10
761.3764826606566
 20
724.3532480298126
 30
0.0
 11
761.3764826606566
 21
718.8532480298126
 31
0.0
  0
ARC
  5
4AC
330
2
100
AcDbEntity
  8
03-01
100
AcDbCircle
 10
759.8764826606566
 20
724.3532480298126
 30
0.0
 40
1.5
100
AcDbArc
 50
0.0
 51
90.0
  0
LINE
  5
4AD
330
2
100
AcDbEntity
  8
03-01
100
AcDbLine
 10
712.3764826606566
 20
725.8532480298127
 30
0.0
 11
759.8764826606566
 21
725.8532480298127
 31
0.0
  0
ARC
  5
4AE
330
2
100
AcDbEntity
  8
03-01
100
AcDbCircle
 10
712.3764826606566
 20
724.3532480298126
 30
0.0
 40
1.5
100
AcDbArc
 50
90.0
 51
180.0
  0
LINE
  5
4AF
330
2
100
AcDbEntity
  8
03-01
100
AcDbLine
 10
710.8764826606566
 20
718.8532480298126
 30
0.0
 11
710.8764826606566
 21
724.3532480298126
 31
0.0
  0
ARC
  5
4B0
330
2
100
AcDbEntity
  8
03-01
100
AcDbCircle
 10
712.3764826606566
 20
718.8532480298126
 30
0.0
 40
1.5
100
AcDbArc
 50
180.0
 51
270.0
  0
LINE
  5
4B1
330
2
100
AcDbEntity
  8
03-01
100
AcDbLine
 10
879.2764826606571
 20
726.1032480298122
 30
0.0
 11
829.8764826606566
 21
726.1032480298122
 31
0.0
  0
ARC
  5
4B2
330
2
100
AcDbEntity
  8
03-01
100
AcDbCircle
 10
879.2764826606571
 20
727.6032480298121
 30
0.0
 40
1.5
100
AcDbArc
 50
270.0
 51
0.0
  0
LINE
  5
4B3
330
2
100
AcDbEntity
  8
03-01
100
AcDbLine
 10
880.7764826606572
 20
733.1032480298122
 30
0.0
 11
880.7764826606572
 21
727.6032480298121
 31
0.0
  0
ARC
  5
4B4
330
2
100
AcDbEntity
  8
03-01
100
AcDbCircle
 10
879.2764826606571
 20
733.1032480298122
 30
0.0
 40
1.5
100
AcDbArc
 50
0.0
 51
90.0
  0
LINE
  5
4B5
330
2
100
AcDbEntity
  8
03-01
100
AcDbLine
 10
829.8764826606566
 20
734.6032480298122
 30
0.0
 11
879.2764826606571
 21
734.6032480298122
 31
0.0
  0
ARC
  5
4B6
330
2
100
AcDbEntity
  8
03-01
100
AcDbCircle
 10
829.8764826606566
 20
733.1032480298122
 30
0.0
 40
1.5
100
AcDbArc
 50
90.0
 51
180.0
  0
LINE
  5
4B7
330
2
100
AcDbEntity
  8
03-01
100
AcDbLine
 10
828.3764826606565
 20
727.6032480298121
 30
0.0
 11
828.3764826606565
 21
733.1032480298122
 31
0.0
  0
ARC
  5
4B8
330
2
100
AcDbEntity
  8
03-01
100
AcDbCircle
 10
829.8764826606566
 20
727.6032480298121
 30
0.0
 40
1.5
100
AcDbArc
 50
180.0
 51
270.0
  0
LINE
  5
4B9
330
2
100
AcDbEntity
  8
03-01
100
AcDbLine
 10
815.3764826606566
 20
728.3532480298126
 30
0.0
 11
767.8764826606566
 21
728.3532480298126
 31
0.0
  0
ARC
  5
4BA
330
2
100
AcDbEntity
  8
03-01
100
AcDbCircle
 10
815.3764826606566
 20
729.8532480298127
 30
0.0
 40
1.5
100
AcDbArc
 50
270.0
 51
0.0
  0
LINE
  5
4BB
330
2
100
AcDbEntity
  8
03-01
100
AcDbLine
 10
816.8764826606565
 20
735.3532480298127
 30
0.0
 11
816.8764826606565
 21
729.8532480298127
 31
0.0
  0
ARC
  5
4BC
330
2
100
AcDbEntity
  8
03-01
100
AcDbCircle
 10
815.3764826606566
 20
735.3532480298127
 30
0.0
 40
1.5
100
AcDbArc
 50
0.0
 51
90.0
  0
LINE
  5
4BD
330
2
100
AcDbEntity
  8
03-01
100
AcDbLine
 10
767.8764826606566
 20
736.8532480298126
 30
0.0
 11
815.3764826606566
 21
736.8532480298126
 31
0.0
  0
ARC
  5
4BE
330
2
100
AcDbEntity
  8
03-01
100
AcDbCircle
 10
767.8764826606566
 20
735.3532480298127
 30
0.0
 40
1.5
100
AcDbArc
 50
90.0
 51
180.0
  0
LINE
  5
4BF
330
2
100
AcDbEntity
  8
03-01
100
AcDbLine
 10
766.3764826606566
 20
729.8532480298127
 30
0.0
 11
766.3764826606566
 21
735.3532480298127
 31
0.0
  0
ARC
  5
4C0
330
2
100
AcDbEntity
  8
03-01
100
AcDbCircle
 10
767.8764826606566
 20
729.8532480298127
 30
0.0
 40
1.5
100
AcDbArc
 50
180.0
 51
270.0
  0
LINE
  5
4C1
330
2
100
AcDbEntity
  8
03-01
100
AcDbLine
 10
759.8764826606566
 20
728.3532480298126
 30
0.0
 11
712.3764826606566
 21
728.3532480298126
 31
0.0
  0
ARC
  5
4C2
330
2
100
AcDbEntity
  8
03-01
100
AcDbCircle
 10
759.8764826606566
 20
729.8532480298127
 30
0.0
 40
1.5
100
AcDbArc
 50
270.0
 51
0.0
  0
LINE
  5
4C3
330
2
100
AcDbEntity
  8
03-01
100
AcDbLine
 10
761.3764826606566
 20
735.3532480298127
 30
0.0
 11
761.3764826606566
 21
729.8532480298127
 31
0.0
  0
ARC
  5
4C4
330
2
100
AcDbEntity
  8
03-01
100
AcDbCircle
 10
759.8764826606566
 20
735.3532480298127
 30
0.0
 40
1.5
100
AcDbArc
 50
0.0
 51
90.0
  0
LINE
  5
4C5
330
2
100
AcDbEntity
  8
03-01
100
AcDbLine
 10
712.3764826606566
 20
736.8532480298126
 30
0.0
 11
759.8764826606566
 21
736.8532480298126
 31
0.0
  0
ARC
  5
4C6
330
2
100
AcDbEntity
  8
03-01
100
AcDbCircle
 10
712.3764826606566
 20
735.3532480298127
 30
0.0
 40
1.5
100
AcDbArc
 50
90.0
 51
180.0
  0
LINE
  5
4C7
330
2
100
AcDbEntity
  8
03-01
100
AcDbLine
 10
710.8764826606566
 20
729.8532480298127
 30
0.0
 11
710.8764826606566
 21
735.3532480298127
 31
0.0
  0
ARC
  5
4C8
330
2
100
AcDbEntity
  8
03-01
100
AcDbCircle
 10
712.3764826606566
 20
729.8532480298127
 30
0.0
 40
1.5
100
AcDbArc
 50
180.0
 51
270.0
  0
LINE
  5
4C9
330
2
100
AcDbEntity
  8
03-01
100
AcDbLine
 10
879.2764826606571
 20
736.1032480298121
 30
0.0
 11
829.8764826606566
 21
736.1032480298121
 31
0.0
  0
ARC
  5
4CA
330
2
100
AcDbEntity
  8
03-01
100
AcDbCircle
 10
879.2764826606571
 20
737.6032480298122
 30
0.0
 40
1.5
100
AcDbArc
 50
270.0
 51
0.0
  0
LINE
  5
4CB
330
2
100
AcDbEntity
  8
03-01
100
AcDbLine
 10
880.7764826606572
 20
740.4112480298122
 30
0.0
 11
880.7764826606572
 21
737.6032480298122
 31
0.0
  0
LINE
  5
4CC
330
2
100
AcDbEntity
  8
03-01
100
AcDbLine
 10
828.3764826606565
 20
737.6032480298122
 30
0.0
 11
828.3764826606565
 21
740.4112480298122
 31
0.0
  0
ARC
  5
4CD
330
2
100
AcDbEntity
  8
03-01
100
AcDbCircle
 10
829.8764826606566
 20
737.6032480298122
 30
0.0
 40
1.5
100
AcDbArc
 50
180.0
 51
270.0
  0
LINE
  5
4CE
330
2
100
AcDbEntity
  8
03-01
100
AcDbLine
 10
698.3764826606638
 20
663.1032480298131
 30
0.0
 11
698.3764826606638
 21
740.4112480298127
 31
0.0
  0
LINE
  5
4CF
330
2
100
AcDbEntity
  8
03-01
100
AcDbLine
 10
697.5764826606641
 20
662.3032480298129
 30
0.0
 11
697.5764826606644
 21
740.4112480298127
 31
0.0
  0
LWPOLYLINE
  5
4D0
330
2
100
AcDbEntity
  8
02TNR-01
100
AcDbPolyline
 90
       29
 70
     1
 43
0.0135
 10
860.0142954106646
 20
1222.961067076872
 10
858.3468159106645
 20
1225.173559576872
 10
858.5847174106648
 20
1225.189467076872
 10
858.8000289106647
 20
1225.236397576871
 10
858.9913149106646
 20
1225.313176576872
 10
859.1571264106645
 20
1225.418638576872
 10
859.2960234106644
 20
1225.551595576872
 10
859.4065614106646
 20
1225.710886576872
 10
859.4873049106645
 20
1225.895328076872
 10
859.5368094106648
 20
1226.103745576872
 10
859.5536304106644
 20
1226.334969076872
 10
859.5412374106647
 20
1226.556009076872
 10
859.5040449106646
 20
1226.755584076872
 10
859.4420169106648
 20
1226.933779576872
 10
859.3551309106647
 20
1227.090681076872
 10
859.2433554106646
 20
1227.226378576872
 10
859.1066589106647
 20
1227.340962076872
 10
858.9450144106645
 20
1227.434512576872
 10
858.7583904106645
 20
1227.507120076872
 10
858.5467599106646
 20
1227.558879076872
 10
858.3100959106646
 20
1227.589866076872
 10
858.0483624106646
 20
1227.600175576871
 10
858.0483624106646
 20
1227.600175576871
 10
857.1983934106647
 20
1227.600175576871
 10
857.1983934106647
 20
1222.961067076872
 10
857.6201334106645
 20
1222.961067076872
 10
857.6201334106645
 20
1225.173559576872
 10
857.8731819106646
 20
1225.173559576872
 10
859.5017184106646
 20
1222.961067076872
  0
LWPOLYLINE
  5
4D3
330
2
100
AcDbEntity
  8
02TNR-01
100
AcDbPolyline
 90
       19
 70
     1
 43
0.0135
 10
857.6201334106645
 20
1227.230343076872
 10
858.0418599106646
 20
1227.230343076872
 10
858.2996694106645
 20
1227.219840076871
 10
858.5191524106644
 20
1227.186445576872
 10
858.7015374106647
 20
1227.127351576872
 10
858.8480304106647
 20
1227.039745576872
 10
858.9598509106645
 20
1226.920815076872
 10
859.0382139106646
 20
1226.767747576872
 10
859.0843434106645
 20
1226.577721576872
 10
859.0994499106646
 20
1226.347938076872
 10
859.0835469106647
 20
1226.122240576872
 10
859.0354779106647
 20
1225.938973576872
 10
858.9547209106648
 20
1225.794330076872
 10
858.8407314106646
 20
1225.684512076872
 10
858.6929874106644
 20
1225.605717076872
 10
858.5109489106645
 20
1225.554138076872
 10
858.2940804106646
 20
1225.525981576872
 10
858.0418599106646
 20
1225.517440576872
 10
857.6201334106645
 20
1225.517440576872
  0
LWPOLYLINE
  5
4D4
330
2
100
AcDbEntity
  8
02TNR-01
100
AcDbPolyline
 90
        8
 70
     1
 43
0.0135
 10
846.7673574106648
 20
1222.961067076872
 10
847.1891019106646
 20
1222.961067076872
 10
847.1891019106646
 20
1226.711286076871
 10
850.4461974106648
 20
1222.823727076872
 10
850.4461974106648
 20
1227.600175576871
 10
850.0244709106645
 20
1227.600175576871
 10
850.0244709106645
 20
1223.914837576872
 10
846.7673574106648
 20
1227.794809576872
  0
LWPOLYLINE
  5
4D5
330
2
100
AcDbEntity
  8
02TNR-01
100
AcDbPolyline
 90
       12
 70
     1
 43
0.0135
 10
852.7355094106647
 20
1222.961067076872
 10
855.0323499106646
 20
1222.961067076872
 10
855.0323499106646
 20
1223.356855576872
 10
853.1572494106647
 20
1223.356855576872
 10
853.1572494106647
 20
1225.355224576872
 10
855.0323499106646
 20
1225.355224576872
 10
855.0323499106646
 20
1225.751013076872
 10
853.1572494106647
 20
1225.751013076872
 10
853.1572494106647
 20
1227.204387076871
 10
855.0323499106646
 20
1227.204387076871
 10
855.0323499106646
 20
1227.600175576871
 10
852.7355094106647
 20
1227.600175576871
  0
LWPOLYLINE
  5
4D6
330
2
100
AcDbEntity
  8
02TNR-01
100
AcDbPolyline
 90
        9
 70
     1
 43
0.0135
 10
858.7146279106645
 20
1220.677740076872
 10
858.9111564106646
 20
1220.677740076872
 10
859.1089719106646
 20
1220.635341076872
 10
859.2110769106646
 20
1220.515425076872
 10
859.2173859106647
 20
1220.328922576872
 10
859.1386584106647
 20
1220.144958076871
 10
858.9902079106646
 20
1220.029780576872
 10
858.7787439106646
 20
1219.989933076871
 10
858.5822154106645
 20
1219.989933076871
  0
LWPOLYLINE
  5
4D7
330
2
100
AcDbEntity
  8
02TNR-01
100
AcDbPolyline
 90
       23
 70
     1
 43
0.0135
 10
856.9743159106646
 20
1218.068964076872
 10
858.2123649106646
 20
1218.068964076872
 10
858.4355919106647
 20
1219.228420576872
 10
858.8264889106644
 20
1218.068964076872
 10
860.2414014106646
 20
1218.068964076872
 10
859.5783084106647
 20
1219.498636576872
 10
859.7795214106648
 20
1219.547493076872
 10
859.9629459106646
 20
1219.642200076872
 10
860.1241179106645
 20
1219.778671576872
 10
860.2585644106648
 20
1219.952808076872
 10
860.3618079106645
 20
1220.160514576871
 10
860.4293754106647
 20
1220.397696076872
 10
860.4565059106649
 20
1220.613507076872
 10
860.4510789106646
 20
1220.809477576872
 10
860.4131079106647
 20
1220.984932576872
 10
860.3426064106647
 20
1221.139192576871
 10
860.2395969106646
 20
1221.271582576872
 10
860.1040974106645
 20
1221.381418576872
 10
859.9361169106646
 20
1221.468030076872
 10
859.7356824106645
 20
1221.530733076872
 10
859.5027984106646
 20
1221.568852576872
 10
859.2374964106648
 20
1221.581709076872
 10
857.6506254106645
 20
1221.581709076872
  0
LWPOLYLINE
  5
4D8
330
2
100
AcDbEntity
  8
02TNR-01
100
AcDbPolyline
 90
       10
 70
     1
 43
0.0135
 10
853.0164399106647
 20
1219.346325076872
 10
853.2011514106647
 20
1219.744273576871
 10
853.2955344106646
 20
1219.951894576872
 10
853.3978599106646
 20
1220.206459576872
 10
853.4921484106646
 20
1220.515618576872
 10
853.5167184106647
 20
1220.515618576872
 10
853.4919414106646
 20
1220.206459576872
 10
853.4962434106645
 20
1219.951894576872
 10
853.5106794106646
 20
1219.744273576871
 10
853.5421254106646
 20
1219.346325076872
  0
LWPOLYLINE
  5
4D9
330
2
100
AcDbEntity
  8
02TNR-01
100
AcDbPolyline
 90
       34
 70
     1
 43
0.0135
 10
847.4500119106647
 20
1219.847454076872
 10
847.4942334106644
 20
1219.847454076872
 10
847.4762334106644
 20
1219.627278076871
 10
847.4756979106645
 20
1219.435488076872
 10
847.4808729106646
 20
1219.267719076872
 10
847.5153834106645
 20
1218.068964076872
 10
848.6158854106644
 20
1218.068964076872
 10
850.3189914106647
 20
1221.581709076872
 10
849.0514629106646
 20
1221.581709076872
 10
848.4783654106646
 20
1220.034136576872
 10
848.4151044106647
 20
1219.856733076872
 10
848.3406474106645
 20
1219.626918076872
 10
848.2663884106646
 20
1219.341420076872
 10
848.2369269106648
 20
1219.341420076872
 10
848.2643589106647
 20
1219.590706576872
 10
848.2701144106645
 20
1219.789773076872
 10
848.2688004106647
 20
1219.940806576871
 10
848.2506384106645
 20
1221.581709076872
 10
847.3614114106647
 20
1221.581709076872
 10
846.7114089106646
 20
1219.940806576871
 10
846.6519369106645
 20
1219.789773076872
 10
846.5810349106645
 20
1219.590706576872
 10
846.5124684106644
 20
1219.341420076872
 10
846.4830069106646
 20
1219.341420076872
 10
846.5186829106647
 20
1219.626918076872
 10
846.5327229106646
 20
1219.856733076872
 10
846.5377674106646
 20
1220.034136576872
 10
846.5605869106646
 20
1221.581709076872
 10
845.2922439106647
 20
1221.581709076872
 10
845.6435454106644
 20
1218.068964076872
 10
846.7440429106645
 20
1218.068964076872
 10
847.2401409106646
 20
1219.267719076872
 10
847.3099314106645
 20
1219.435488076872
 10
847.3832454106645
 20
1219.627278076871
  0
LWPOLYLINE
  5
4DA
330
2
100
AcDbEntity
  8
02TNR-01
100
AcDbPolyline
 90
        8
 70
     1
 43
0.0135
 10
851.0943909106645
 20
1218.068964076872
 10
852.4511769106648
 20
1218.068964076872
 10
852.6443934106646
 20
1218.511134076871
 10
853.5975069106646
 20
1218.511134076871
 10
853.6253754106647
 20
1218.068964076872
 10
854.9813469106645
 20
1218.068964076872
 10
854.4294219106646
 20
1221.581709076872
 10
853.0243239106646
 20
1221.581709076872
  0
LWPOLYLINE
  5
4DB
330
2
100
AcDbEntity
  8
02TNR-01
100
AcDbPolyline
 90
        7
 70
     1
 43
0.0135
 10
834.8104839106648
 20
1222.961067076872
 10
835.2397929106645
 20
1222.961067076872
 10
835.8561669106647
 20
1224.531229576872
 10
837.7507389106646
 20
1224.531229576872
 10
838.3411794106645
 20
1222.961067076872
 10
838.8018444106647
 20
1222.961067076872
 10
836.8488804106645
 20
1227.781840576871
  0
LWPOLYLINE
  5
4DC
330
2
100
AcDbEntity
  8
02TNR-01
100
AcDbPolyline
 90
        3
 70
     1
 43
0.0135
 10
835.9989114106648
 20
1224.894559576872
 10
836.8229244106647
 20
1226.912422576872
 10
837.6145014106645
 20
1224.894559576872
  0
LWPOLYLINE
  5
4DD
330
2
100
AcDbEntity
  8
02TNR-01
100
AcDbPolyline
 90
       10
 70
     1
 43
0.0135
 10
829.7128344106646
 20
1222.836714076872
 10
830.9455869106646
 20
1226.717770576872
 10
832.2302649106646
 20
1222.836714076872
 10
833.7809604106647
 20
1227.600175576871
 10
833.3462514106646
 20
1227.600175576871
 10
832.2302649106646
 20
1223.927824576872
 10
830.9455869106646
 20
1227.781840576871
 10
829.7128344106646
 20
1223.895384076872
 10
828.5514294106647
 20
1227.600175576871
 10
828.1102314106647
 20
1227.600175576871
  0
SOLID
  5
4DE
330
2
100
AcDbEntity
  8
02TNR-01
100
AcDbTrace
 10
822.9110664106647
 20
1218.861405076872
 30
0.0
 11
838.6399164106647
 21
1218.861405076872
 31
0.0
 12
822.7550379106647
 22
1218.068059576872
 32
0.0
 13
838.4838834106645
 23
1218.068059576872
 33
0.0
  0
LWPOLYLINE
  5
4DF
330
2
100
AcDbEntity
  8
02TNR-01
100
AcDbPolyline
 90
        4
 70
     1
 43
0.0135
 10
822.9110664106647
 20
1218.861405076872
 10
838.6399164106647
 20
1218.861405076872
 10
838.4838834106645
 20
1218.068059576872
 10
822.7550379106647
 20
1218.068059576872
  0
LWPOLYLINE
  5
4E0
330
2
100
AcDbEntity
  8
02TNR-01
100
AcDbPolyline
 90
       12
 70
     1
 43
0.0135
 10
840.3736719106646
 20
1218.068964076872
 10
842.7515349106647
 20
1218.068964076872
 10
842.9350404106646
 20
1219.022077576872
 10
841.7952309106647
 20
1219.022077576872
 10
841.8661689106647
 20
1219.390546576871
 10
842.8733184106647
 20
1219.390546576871
 10
843.0464064106645
 20
1220.289606076871
 10
842.0392569106647
 20
1220.289606076871
 10
842.1045429106648
 20
1220.628613576872
 10
843.2148729106648
 20
1220.628613576872
 10
843.3983649106647
 20
1221.581709076872
 10
841.0499814106646
 20
1221.581709076872
  0
LWPOLYLINE
  5
4E1
330
2
100
AcDbEntity
  8
02TNR-01
100
AcDbPolyline
 90
      133
 70
     1
 43
0.0135
 10
844.1341689106646
 20
1226.432286076872
 10
844.4391024106646
 20
1226.698299076872
 10
844.3302699106645
 20
1226.873817076871
 10
844.2057909106647
 20
1227.032338576872
 10
844.0660974106647
 20
1227.173922076872
 10
843.9116394106644
 20
1227.298635076872
 10
843.7428489106647
 20
1227.406527076872
 10
843.5601624106645
 20
1227.497656576871
 10
843.3640254106645
 20
1227.572091076872
 10
843.1548699106647
 20
1227.629880076872
 10
842.9331369106646
 20
1227.671082076871
 10
842.6992674106646
 20
1227.695764576872
 10
842.4536979106646
 20
1227.703977076872
 10
842.2505094106645
 20
1227.696322576872
 10
842.0538684106645
 20
1227.673692076872
 10
841.8641934106645
 20
1227.636576076872
 10
841.6819074106648
 20
1227.585474076872
 10
841.5074289106646
 20
1227.520885576872
 10
841.3411674106646
 20
1227.443305576872
 10
841.1835549106644
 20
1227.353229076872
 10
841.0350009106647
 20
1227.251151076871
 10
840.8959239106648
 20
1227.137566576872
 10
840.7667514106647
 20
1227.012979576872
 10
840.6478884106645
 20
1226.877876076872
 10
840.5397624106644
 20
1226.732764576872
 10
840.4427919106646
 20
1226.578131076872
 10
840.3573909106647
 20
1226.414475076872
 10
840.2839824106646
 20
1226.242291576872
 10
840.2229804106646
 20
1226.062084576871
 10
840.1748034106647
 20
1225.874340076871
 10
840.1398789106647
 20
1225.679562076871
 10
840.1186119106647
 20
1225.478241076872
 10
840.1114344106645
 20
1225.270876576871
 10
840.1185219106647
 20
1225.057360576872
 10
840.1395459106648
 20
1224.851130076872
 10
840.1741284106647
 20
1224.652585576872
 10
840.2218914106647
 20
1224.462123076871
 10
840.2824614106645
 20
1224.280138576872
 10
840.3554649106645
 20
1224.107028076871
 10
840.4405284106646
 20
1223.943183076872
 10
840.5372739106647
 20
1223.789004076872
 10
840.6453279106644
 20
1223.644882576871
 10
840.7643214106647
 20
1223.511219076872
 10
840.8938674106646
 20
1223.388405076872
 10
841.0336059106645
 20
1223.276841076871
 10
841.1831499106646
 20
1223.176918576872
 10
841.3421304106645
 20
1223.089033576872
 10
841.5101694106647
 20
1223.013586576872
 10
841.6868979106645
 20
1222.950969076872
 10
841.8719334106647
 20
1222.901577076872
 10
842.0649114106645
 20
1222.865806576872
 10
842.2654449106646
 20
1222.844053576872
 10
842.4731694106645
 20
1222.836714076872
 10
842.6802369106647
 20
1222.843347076872
 10
842.8788894106647
 20
1222.863093076872
 10
843.0688884106645
 20
1222.895709076872
 10
843.2499954106647
 20
1222.940952076872
 10
843.4219764106646
 20
1222.998583576871
 10
843.5845884106646
 20
1223.068365076872
 10
843.7375974106647
 20
1223.150053576872
 10
843.8807559106646
 20
1223.243415076872
 10
844.0138389106646
 20
1223.348206576871
 10
844.1365944106646
 20
1223.464180576872
 10
844.2487929106645
 20
1223.591112076872
 10
844.3501959106647
 20
1223.728744576872
 10
844.4405604106645
 20
1223.876853076871
 10
844.5196479106646
 20
1224.035185576872
 10
844.5872244106647
 20
1224.203508076872
 10
844.6430514106646
 20
1224.381577576872
 10
844.6868814106647
 20
1224.569155576872
 10
844.7184894106646
 20
1224.766003576872
 10
844.7376279106647
 20
1224.971883076872
 10
844.7440584106647
 20
1225.186546576872
 10
844.7440584106647
 20
1225.186546576872
 10
844.7440584106647
 20
1225.251423076872
 10
842.6807904106645
 20
1225.251423076872
 10
842.6807904106645
 20
1224.888075076872
 10
844.2833934106648
 20
1224.888075076872
 10
844.2698349106645
 20
1224.682843576871
 10
844.2353244106646
 20
1224.487584076872
 10
844.1807529106645
 20
1224.303133576872
 10
844.1070114106647
 20
1224.130333576872
 10
844.0149999106647
 20
1223.970012076871
 10
843.9056139106646
 20
1223.823019576872
 10
843.7797354106645
 20
1223.690179576872
 10
843.6382689106647
 20
1223.572342576872
 10
843.4821054106645
 20
1223.470332076872
 10
843.3121359106646
 20
1223.384994076872
 10
843.1292559106646
 20
1223.317161076872
 10
842.9343609106647
 20
1223.267674576872
 10
842.7283419106647
 20
1223.237367076871
 10
842.5120944106648
 20
1223.227080076872
 10
842.3041899106646
 20
1223.237119576872
 10
842.1043224106647
 20
1223.266644076872
 10
841.9132389106646
 20
1223.314758076872
 10
841.7316819106645
 20
1223.380570576872
 10
841.5603849106647
 20
1223.463186076872
 10
841.4000949106648
 20
1223.561709076872
 10
841.2515499106646
 20
1223.675253076871
 10
841.1154969106647
 20
1223.802918076872
 10
840.9926739106644
 20
1223.943813076872
 10
840.8838189106646
 20
1224.097047076872
 10
840.7896789106645
 20
1224.261720076872
 10
840.7109919106646
 20
1224.436945576872
 10
840.6485004106649
 20
1224.621828076872
 10
840.6029469106647
 20
1224.815467576872
 10
840.5750694106645
 20
1225.016982076872
 10
840.5656149106645
 20
1225.225471576872
 10
840.5736789106647
 20
1225.438065076872
 10
840.5975469106646
 20
1225.642626076872
 10
840.6367149106644
 20
1225.838524576872
 10
840.6906834106646
 20
1226.025135076872
 10
840.7589574106646
 20
1226.201832076871
 10
840.8410329106645
 20
1226.367994576872
 10
840.9364104106646
 20
1226.522988076872
 10
841.0445949106646
 20
1226.666196076872
 10
841.1650824106645
 20
1226.796984076872
 10
841.2973824106648
 20
1226.914731076871
 10
841.4409819106648
 20
1227.018807076872
 10
841.5953949106647
 20
1227.108591076872
 10
841.7601129106646
 20
1227.183453076872
 10
841.9346409106648
 20
1227.242767576872
 10
842.1184839106645
 20
1227.285909076872
 10
842.3111334106646
 20
1227.312256576872
 10
842.5120944106648
 20
1227.321175576872
 10
842.7364689106646
 20
1227.309916576872
 10
842.9508039106645
 20
1227.276283576872
 10
843.1546719106645
 20
1227.220488076872
 10
843.3476454106646
 20
1227.142741576871
 10
843.5292969106647
 20
1227.043264576872
 10
843.6992034106648
 20
1226.922264076871
 10
843.8569374106645
 20
1226.779960576872
 10
844.0020669106647
 20
1226.616561076872
  0
DIMENSION
  5
4E2
330
2
100
AcDbEntity
  8
09-01
100
AcDbDimension
280
     0
  2
*D3
 10
604.6241996122371
 20
892.8189640768714
 30
0.0
 11
593.374199612237
 21
1090.318964076872
 31
0.0
 71
     5
 42
395.0000000000001
 73
     0
 74
     0
 75
     0
  3
Wagner$0
100
AcDbAlignedDimension
 13
534.3614123795159
 23
1287.818964076871
 33
0.0
 14
534.3614123795155
 24
892.8189640768714
 34
0.0
 50
90.0
100
AcDbRotatedDimension
1001
ACAD
1000
DSTYLE
1002
{
1070
    40
1040
5.0
1070
    49
1040
0.18
1070
   179
1070
     8
1002
}
  0
DIMENSION
  5
4EF
330
2
100
AcDbEntity
  8
09-01
100
AcDbDimension
280
     0
  2
*D2
 10
352.955414193817
 20
941.3189640768719
 30
0.0
 11
341.7054141938168
 21
1114.068964076871
 31
0.0
 71
     5
 42
345.4999999999994
 73
     0
 74
     0
 75
     0
  3
Wagner$0
100
AcDbAlignedDimension
 13
384.361412379516
 23
1286.818964076871
 33
0.0
 14
384.361412379516
 24
941.3189640768719
 34
0.0
 50
90.0
100
AcDbRotatedDimension
1001
ACAD
1000
DSTYLE
1002
{
1070
    40
1040
5.0
1070
    49
1040
0.18
1070
   179
1070
     8
1002
}
  0
DIMENSION
  5
4FC
330
2
100
AcDbEntity
  8
09-01
100
AcDbDimension
280
     0
  2
*D1
 10
534.3614123795159
 20
1330.461615598842
 30
0.0
 11
459.3614123795159
 21
1341.711615598842
 31
0.0
 71
     5
 42
150.0
 73
     0
 74
     0
 75
     0
  3
Wagner$0
100
AcDbAlignedDimension
 13
384.361412379516
 23
1286.818964076871
 33
0.0
 14
534.3614123795159
 24
1287.818964076871
 34
0.0
100
AcDbRotatedDimension
1001
ACAD
1000
DSTYLE
1002
{
1070
    40
1040
5.0
1070
    49
1040
0.18
1070
   179
1070
     8
1002
}
  0
LINE
  5
509
330
2
100
AcDbEntity
  8
03-01
100
AcDbLine
 10
507.8614123795173
 20
930.3189640768705
 30
0.0
 11
461.3505072394548
 21
907.6340799163654
 31
0.0
  0
LINE
  5
50A
330
2
100
AcDbEntity
  8
03-01
100
AcDbLine
 10
454.6824294090283
 20
893.9624943246899
 30
0.0
 11
461.3505072394548
 21
907.6340799163654
 31
0.0
  0
LINE
  5
50B
330
2
100
AcDbEntity
  8
03-01
100
AcDbLine
 10
395.4149360727042
 20
900.1917588879191
 30
0.0
 11
415.3678437889302
 21
941.1012822291795
 31
0.0
  0
LINE
  5
50C
330
2
100
AcDbEntity
  8
03-01
100
AcDbLine
 10
507.8614123795173
 20
930.3189640768705
 30
0.0
 11
507.8614123795161
 21
941.101282229189
 31
0.0
  0
LINE
  5
50D
330
2
100
AcDbEntity
  8
03-01
100
AcDbLine
 10
390.9767502918928
 20
901.4626376340293
 30
0.0
 11
395.1570298958109
 21
941.2353413062573
 31
0.0
  0
LINE
  5
50E
330
2
100
AcDbEntity
  8
0
100
AcDbLine
 10
390.0975100049839
 20
900.7506428883489
 30
0.0
 11
394.3614123795162
 21
941.3189640768715
 31
0.0
  0
LINE
  5
50F
330
2
100
AcDbEntity
  8
03-01
100
AcDbLine
 10
466.0631533921966
 20
893.5707386573199
 30
0.0
 11
390.9767502918928
 21
901.4626376340293
 31
0.0
  0
LINE
  5
510
330
2
100
AcDbEntity
  8
0
100
AcDbLine
 10
465.9795306215825
 20
892.7751211410255
 30
0.0
 11
390.0975100049839
 21
900.7506428883489
 31
0.0
  0
LINE
  5
511
330
2
100
AcDbEntity
  8
05-01
100
AcDbLine
 10
461.2555516185834
 20
893.2716313415467
 30
0.0
 11
460.789032732802
 21
888.8330006374513
 31
0.0
  0
LINE
  5
512
330
2
100
AcDbEntity
  8
0
100
AcDbLine
 10
462.3869174419962
 20
891.141703442744
 30
0.0
 11
459.7060719420994
 21
891.4234716588776
 31
0.0
  0
ARC
  5
513
330
2
100
AcDbEntity
  8
0
100
AcDbCircle
 10
460.1674780713612
 20
894.315372541504
 30
0.0
 40
2.928478501041863
100
AcDbArc
 50
203.1014804168347
 51
260.9347997740368
  0
LINE
  5
514
330
2
100
AcDbEntity
  8
03-01
100
AcDbLine
 10
459.9914935567187
 20
893.2033875415582
 30
0.0
 11
459.8033423228351
 21
891.4132481298965
 31
0.0
  0
LINE
  5
515
330
2
100
AcDbEntity
  8
03-01
100
AcDbLine
 10
459.9914935567187
 20
893.2033875415582
 30
0.0
 11
461.2985352695816
 21
893.6805934626887
 31
0.0
  0
LINE
  5
516
330
2
100
AcDbEntity
  8
03-01
100
AcDbLine
 10
462.4777982951429
 20
892.9420663833884
 30
0.0
 11
459.9914935567187
 21
893.2033875415582
 31
0.0
  0
LINE
  5
517
330
2
100
AcDbEntity
  8
03-01
100
AcDbLine
 10
462.4777982951429
 20
892.9420663833884
 30
0.0
 11
462.289647061259
 21
891.1519269717254
 31
0.0
  0
LINE
  5
518
330
2
100
AcDbEntity
  8
03-01
100
AcDbLine
 10
461.2985352695816
 20
893.6805934626887
 30
0.0
 11
462.4777982951429
 21
892.9420663833884
 31
0.0
  0
LINE
  5
519
330
2
100
AcDbEntity
  8
0
100
AcDbLine
 10
456.5315726155841
 20
893.7681415420684
 30
0.0
 11
456.4793083839502
 21
893.2708805943839
 31
0.0
  0
LINE
  5
51A
330
2
100
AcDbEntity
  8
0
100
AcDbLine
 10
465.9795306215825
 20
892.7751211410255
 30
0.0
 11
465.9272663899487
 21
892.2778601933414
 31
0.0
  0
ARC
  5
51B
330
2
100
AcDbEntity
  8
0
100
AcDbCircle
 10
462.5368541458818
 20
894.0663410811275
 30
0.0
 40
2.928478501035574
100
AcDbArc
 50
267.0652002259276
 51
324.8985195832091
  0
LINE
  5
51C
330
2
100
AcDbEntity
  8
0
100
AcDbLine
 10
465.9795306215825
 20
892.7751211410255
 30
0.0
 11
456.5315726155841
 21
893.7681415420684
 31
0.0
  0
LINE
  5
51D
330
2
100
AcDbEntity
  8
0
100
AcDbLine
 10
465.9272663899487
 20
892.2778601933414
 30
0.0
 11
456.4793083839502
 21
893.2708805943839
 31
0.0
  0
LINE
  5
51E
330
2
100
AcDbEntity
  8
03-01
100
AcDbLine
 10
533.3614123795155
 20
893.8189640768714
 30
0.0
 11
533.3614123795164
 21
1286.818964076871
 31
0.0
  0
LINE
  5
51F
330
2
100
AcDbEntity
  8
0
100
AcDbLine
 10
534.3614123795155
 20
892.8189640768714
 30
0.0
 11
534.3614123795163
 21
1286.818964076871
 31
0.0
  0
LINE
  5
520
330
2
100
AcDbEntity
  8
03-01
100
AcDbLine
 10
465.361412379516
 20
942.3189640768718
 30
0.0
 11
385.361412379516
 21
942.3189640768709
 31
0.0
  0
LINE
  5
521
330
2
100
AcDbEntity
  8
0
100
AcDbLine
 10
466.3614123795159
 20
941.3189640768724
 30
0.0
 11
384.361412379516
 21
941.3189640768719
 31
0.0
  0
LINE
  5
522
330
2
100
AcDbEntity
  8
03-01
100
AcDbLine
 10
385.361412379516
 20
942.3189640768709
 30
0.0
 11
385.361412379516
 21
1285.818964076871
 31
0.0
  0
LINE
  5
523
330
2
100
AcDbEntity
  8
0
100
AcDbLine
 10
384.361412379516
 20
941.3189640768719
 30
0.0
 11
384.361412379516
 21
1286.818964076871
 31
0.0
  0
LINE
  5
524
330
2
100
AcDbEntity
  8
0
100
AcDbLine
 10
534.3614123795159
 20
1286.818964076871
 30
0.0
 11
534.3614123795159
 21
1287.818964076871
 31
0.0
  0
LINE
  5
525
330
2
100
AcDbEntity
  8
03-01
100
AcDbLine
 10
533.3614123795164
 20
1286.818964076871
 30
0.0
 11
467.3614123795159
 21
1286.818964076871
 31
0.0
  0
LINE
  5
526
330
2
100
AcDbEntity
  8
0
100
AcDbLine
 10
534.3614123795159
 20
1287.818964076871
 30
0.0
 11
466.3614123795159
 21
1287.818964076871
 31
0.0
  0
LINE
  5
527
330
2
100
AcDbEntity
  8
0
100
AcDbLine
 10
534.3614123795159
 20
1270.990748074171
 30
0.0
 11
534.3614123795159
 21
1287.818964076871
 31
0.0
  0
LINE
  5
528
330
2
100
AcDbEntity
  8
0
100
AcDbLine
 10
977.9286764874765
 20
891.008312693893
 30
0.0
 11
980.6242888338534
 21
891.0083126938939
 31
0.0
  0
ARC
  5
529
330
2
100
AcDbEntity
  8
0
100
AcDbCircle
 10
980.4676962908292
 20
893.9326015145347
 30
0.0
 40
2.928478501041863
100
AcDbArc
 50
273.0652002259427
 51
330.8985195831628
  0
LINE
  5
52A
330
2
100
AcDbEntity
  8
03-01
100
AcDbLine
 10
980.5264826606657
 20
892.8083126938931
 30
0.0
 11
980.5264826606675
 21
891.0083126938939
 31
0.0
  0
LINE
  5
52B
330
2
100
AcDbEntity
  8
03-01
100
AcDbLine
 10
980.5264826606657
 20
892.8083126938931
 30
0.0
 11
979.2764826606621
 21
893.4195274927292
 31
0.0
  0
LINE
  5
52C
330
2
100
AcDbEntity
  8
03-01
100
AcDbLine
 10
978.0264826606622
 20
892.8083126938931
 30
0.0
 11
980.5264826606657
 21
892.8083126938931
 31
0.0
  0
LINE
  5
52D
330
2
100
AcDbEntity
  8
03-01
100
AcDbLine
 10
978.0264826606622
 20
892.8083126938931
 30
0.0
 11
978.0264826606639
 21
891.008312693893
 31
0.0
  0
LINE
  5
52E
330
2
100
AcDbEntity
  8
03-01
100
AcDbLine
 10
979.2764826606621
 20
893.4195274927292
 30
0.0
 11
978.0264826606622
 21
892.8083126938931
 31
0.0
  0
LINE
  5
52F
330
2
100
AcDbEntity
  8
0
100
AcDbLine
 10
984.0264826606651
 20
893.0083126938924
 30
0.0
 11
984.0264826606651
 21
892.508312693892
 31
0.0
  0
LINE
  5
530
330
2
100
AcDbEntity
  8
0
100
AcDbLine
 10
974.5264826606652
 20
893.0083126938935
 30
0.0
 11
974.5264826606652
 21
892.508312693894
 31
0.0
  0
ARC
  5
531
330
2
100
AcDbEntity
  8
0
100
AcDbCircle
 10
978.0852690304982
 20
893.932601514528
 30
0.0
 40
2.928478501035574
100
AcDbArc
 50
209.1014804167818
 51
266.9347997740573
  0
LINE
  5
532
330
2
100
AcDbEntity
  8
0
100
AcDbLine
 10
974.5264826606652
 20
893.0083126938935
 30
0.0
 11
984.0264826606651
 21
893.0083126938924
 31
0.0
  0
LINE
  5
533
330
2
100
AcDbEntity
  8
0
100
AcDbLine
 10
974.5264826606652
 20
892.508312693894
 30
0.0
 11
984.0264826606651
 21
892.508312693892
 31
0.0
  0
LINE
  5
534
330
2
100
AcDbEntity
  8
0
100
AcDbLine
 10
707.2242888338528
 20
891.008312693893
 30
0.0
 11
704.5286764874759
 21
891.0083126938939
 31
0.0
  0
ARC
  5
535
330
2
100
AcDbEntity
  8
0
100
AcDbCircle
 10
704.6852690305
 20
893.9326015145347
 30
0.0
 40
2.928478501041863
100
AcDbArc
 50
209.1014804168372
 51
266.9347997740442
  0
LINE
  5
536
330
2
100
AcDbEntity
  8
03-01
100
AcDbLine
 10
704.6264826606634
 20
892.8083126938931
 30
0.0
 11
704.6264826606616
 21
891.0083126938939
 31
0.0
  0
LINE
  5
537
330
2
100
AcDbEntity
  8
03-01
100
AcDbLine
 10
704.6264826606634
 20
892.8083126938931
 30
0.0
 11
705.8764826606671
 21
893.4195274927292
 31
0.0
  0
LINE
  5
538
330
2
100
AcDbEntity
  8
03-01
100
AcDbLine
 10
707.1264826606671
 20
892.8083126938931
 30
0.0
 11
704.6264826606634
 21
892.8083126938931
 31
0.0
  0
LINE
  5
539
330
2
100
AcDbEntity
  8
03-01
100
AcDbLine
 10
707.1264826606671
 20
892.8083126938931
 30
0.0
 11
707.1264826606652
 21
891.008312693893
 31
0.0
  0
LINE
  5
53A
330
2
100
AcDbEntity
  8
03-01
100
AcDbLine
 10
705.8764826606671
 20
893.4195274927292
 30
0.0
 11
707.1264826606671
 21
892.8083126938931
 31
0.0
  0
LINE
  5
53B
330
2
100
AcDbEntity
  8
0
100
AcDbLine
 10
701.1264826606641
 20
893.0083126938924
 30
0.0
 11
701.1264826606641
 21
892.508312693892
 31
0.0
  0
LINE
  5
53C
330
2
100
AcDbEntity
  8
0
100
AcDbLine
 10
710.6264826606641
 20
893.0083126938935
 30
0.0
 11
710.6264826606641
 21
892.508312693894
 31
0.0
  0
ARC
  5
53D
330
2
100
AcDbEntity
  8
0
100
AcDbCircle
 10
707.067696290831
 20
893.932601514528
 30
0.0
 40
2.928478501035574
100
AcDbArc
 50
273.0652002259427
 51
330.8985195832182
  0
LINE
  5
53E
330
2
100
AcDbEntity
  8
0
100
AcDbLine
 10
710.6264826606641
 20
893.0083126938935
 30
0.0
 11
701.1264826606641
 21
893.0083126938924
 31
0.0
  0
LINE
  5
53F
330
2
100
AcDbEntity
  8
0
100
AcDbLine
 10
710.6264826606641
 20
892.508312693894
 30
0.0
 11
701.1264826606641
 21
892.508312693892
 31
0.0
  0
LINE
  5
540
330
2
100
AcDbEntity
  8
05-01
100
AcDbLine
 10
979.2764826606649
 20
897.2845889514459
 30
0.0
 11
979.2764826606649
 21
889.8173218403531
 31
0.0
  0
LINE
  5
541
330
2
100
AcDbEntity
  8
09-01
100
AcDbLine
 10
887.0764826606528
 20
895.0740849499293
 30
0.0
 11
976.0764826606532
 21
895.0740849499293
 31
0.0
  0
LINE
  5
542
330
2
100
AcDbEntity
  8
09-01
100
AcDbLine
 10
887.0764826606528
 20
899.8823942602417
 30
0.0
 11
976.0764826606532
 21
899.882394260242
 31
0.0
  0
LINE
  5
543
330
2
100
AcDbEntity
  8
03-01
100
AcDbLine
 10
989.0764826606641
 20
794.4112480298127
 30
0.0
 11
989.0764826606638
 21
807.4112480298122
 31
0.0
  0
LINE
  5
544
330
2
100
AcDbEntity
  8
03-01
100
AcDbLine
 10
990.0764826606641
 20
794.4112480298127
 30
0.0
 11
990.0764826606641
 21
808.4112480298122
 31
0.0
  0
LINE
  5
545
330
2
100
AcDbEntity
  8
03-01
100
AcDbLine
 10
989.0764826606641
 20
794.4112480298127
 30
0.0
 11
990.0764826606641
 21
794.4112480298127
 31
0.0
  0
LINE
  5
546
330
2
100
AcDbEntity
  8
09-01
100
AcDbLine
 10
887.0764826606528
 20
899.8823942602417
 30
0.0
 11
887.0764826606528
 21
895.0740849499293
 31
0.0
  0
LINE
  5
547
330
2
100
AcDbEntity
  8
03-01
100
AcDbLine
 10
887.0764826606528
 20
941.3189640768719
 30
0.0
 11
887.0764826606528
 21
899.8823942602417
 31
0.0
  0
LINE
  5
548
330
2
100
AcDbEntity
  8
09-01
100
AcDbLine
 10
976.0764826606532
 20
899.882394260242
 30
0.0
 11
976.0764826606532
 21
895.0740849499293
 31
0.0
  0
LINE
  5
549
330
2
100
AcDbEntity
  8
03-01
100
AcDbLine
 10
976.0764826606532
 20
941.3189640768719
 30
0.0
 11
976.0764826606532
 21
899.882394260242
 31
0.0
  0
LINE
  5
54A
330
2
100
AcDbEntity
  8
03-01
100
AcDbLine
 10
698.3764826606643
 20
901.4626376340288
 30
0.0
 11
986.7764826606654
 21
901.4626376340288
 31
0.0
  0
LINE
  5
54B
330
2
100
AcDbEntity
  8
03-01
100
AcDbLine
 10
986.7764826606649
 20
941.3189640768719
 30
0.0
 11
986.7764826606649
 21
893.8083126938927
 31
0.0
  0
LINE
  5
54C
330
2
100
AcDbEntity
  8
09-01
100
AcDbLine
 10
987.5764826606651
 20
941.3189640768719
 30
0.0
 11
987.5764826606655
 21
893.008312693893
 31
0.0
  0
LINE
  5
54D
330
2
100
AcDbEntity
  8
05-01
100
AcDbLine
 10
705.8764826606643
 20
897.7905326572136
 30
0.0
 11
705.8764826606643
 21
890.3232655461206
 31
0.0
  0
LINE
  5
54E
330
2
100
AcDbEntity
  8
03-01
100
AcDbLine
 10
698.3764826606643
 20
941.3189640768719
 30
0.0
 11
698.3764826606643
 21
893.8083126938932
 31
0.0
  0
LINE
  5
54F
330
2
100
AcDbEntity
  8
09-01
100
AcDbLine
 10
697.5764826606641
 20
941.3189640768719
 30
0.0
 11
697.5764826606641
 21
893.008312693893
 31
0.0
  0
LINE
  5
550
330
2
100
AcDbEntity
  8
09-01
100
AcDbLine
 10
697.5764826606641
 20
900.7506428883484
 30
0.0
 11
987.5764826606655
 21
900.7506428883489
 31
0.0
  0
LINE
  5
551
330
2
100
AcDbEntity
  8
03-01
100
AcDbLine
 10
698.3764826606643
 20
893.8083126938932
 30
0.0
 11
986.7764826606649
 21
893.8083126938927
 31
0.0
  0
LINE
  5
552
330
2
100
AcDbEntity
  8
09-01
100
AcDbLine
 10
697.5764826606641
 20
893.008312693893
 30
0.0
 11
987.5764826606655
 21
893.008312693893
 31
0.0
  0
LINE
  5
553
330
2
100
AcDbEntity
  8
03-01
100
AcDbLine
 10
694.5764826606646
 20
942.3189640768718
 30
0.0
 11
990.5764826606636
 21
942.3189640768718
 31
0.0
  0
LINE
  5
554
330
2
100
AcDbEntity
  8
09-01
100
AcDbLine
 10
693.5764826606641
 20
941.3189640768719
 30
0.0
 11
991.5764826606645
 21
941.3189640768719
 31
0.0
  0
LINE
  5
555
330
2
100
AcDbEntity
  8
03-01
100
AcDbLine
 10
986.7764826606654
 20
667.4112480298126
 30
0.0
 11
986.7764826606654
 21
663.1032480298122
 31
0.0
  0
LINE
  5
556
330
2
100
AcDbEntity
  8
03-01
100
AcDbLine
 10
986.7764826606659
 20
740.4112480298122
 30
0.0
 11
986.7764826606654
 21
668.2112480298123
 31
0.0
  0
LINE
  5
557
330
2
100
AcDbEntity
  8
03-01
100
AcDbLine
 10
987.5764826606662
 20
740.4112480298117
 30
0.0
 11
987.5764826606655
 21
662.3032480298129
 31
0.0
  0
LINE
  5
558
330
2
100
AcDbEntity
  8
03-01
100
AcDbLine
 10
696.0764826606641
 20
794.4112480298127
 30
0.0
 11
696.0764826606641
 21
807.4112480298126
 31
0.0
  0
LINE
  5
559
330
2
100
AcDbEntity
  8
03-01
100
AcDbLine
 10
695.0764826606642
 20
794.4112480298127
 30
0.0
 11
695.0764826606642
 21
808.4112480298127
 31
0.0
  0
LINE
  5
55A
330
2
100
AcDbEntity
  8
03-01
100
AcDbLine
 10
990.5764826606645
 20
741.4112480298122
 30
0.0
 11
694.5764826606644
 21
741.4112480298126
 31
0.0
  0
LINE
  5
55B
330
2
100
AcDbEntity
  8
03-01
100
AcDbLine
 10
990.5764826606645
 20
739.4112480298121
 30
0.0
 11
694.5764826606646
 21
739.4112480298131
 31
0.0
  0
LINE
  5
55C
330
2
100
AcDbEntity
  8
0
100
AcDbLine
 10
991.576482660665
 20
740.4112480298122
 30
0.0
 11
693.5764826606639
 21
740.4112480298127
 31
0.0
  0
LINE
  5
55D
330
2
100
AcDbEntity
  8
0
100
AcDbLine
 10
991.576482660665
 20
808.4112480298122
 30
0.0
 11
693.5764826606641
 21
808.4112480298127
 31
0.0
  0
LINE
  5
55E
330
2
100
AcDbEntity
  8
03-01
100
AcDbLine
 10
696.0764826606641
 20
794.4112480298127
 30
0.0
 11
695.0764826606642
 21
794.4112480298127
 31
0.0
  0
LINE
  5
55F
330
2
100
AcDbEntity
  8
03-01
100
AcDbLine
 10
989.0764826606638
 20
807.4112480298122
 30
0.0
 11
696.0764826606641
 21
807.4112480298126
 31
0.0
  0
LINE
  5
560
330
2
100
AcDbEntity
  8
03-01
100
AcDbLine
 10
990.5764826606645
 20
739.4112480298121
 30
0.0
 11
990.5764826606642
 21
659.4112480298126
 31
0.0
  0
LINE
  5
561
330
2
100
AcDbEntity
  8
03-01
100
AcDbLine
 10
990.5764826606651
 20
808.4112480298127
 30
0.0
 11
990.5764826606645
 21
741.4112480298122
 31
0.0
  0
LINE
  5
562
330
2
100
AcDbEntity
  8
0
100
AcDbLine
 10
991.576482660665
 20
808.4112480298122
 30
0.0
 11
991.5764826606642
 21
658.4112480298126
 31
0.0
  0
LINE
  5
563
330
2
100
AcDbEntity
  8
03-01
100
AcDbLine
 10
698.3764826606638
 20
663.1032480298131
 30
0.0
 11
986.7764826606654
 21
663.1032480298122
 31
0.0
  0
LINE
  5
564
330
2
100
AcDbEntity
  8
03-01
100
AcDbLine
 10
697.5764826606641
 20
662.3032480298129
 30
0.0
 11
987.5764826606655
 21
662.3032480298129
 31
0.0
  0
LINE
  5
565
330
2
100
AcDbEntity
  8
03-01
100
AcDbLine
 10
698.3764826606638
 20
668.2112480298123
 30
0.0
 11
986.7764826606654
 21
668.2112480298123
 31
0.0
  0
LINE
  5
566
330
2
100
AcDbEntity
  8
03-01
100
AcDbLine
 10
697.5764826606641
 20
667.4112480298126
 30
0.0
 11
987.5764826606655
 21
667.4112480298126
 31
0.0
  0
LINE
  5
567
330
2
100
AcDbEntity
  8
03-01
100
AcDbLine
 10
694.5764826606651
 20
659.4112480298126
 30
0.0
 11
990.5764826606642
 21
659.4112480298126
 31
0.0
  0
LINE
  5
568
330
2
100
AcDbEntity
  8
0
100
AcDbLine
 10
693.576482660665
 20
658.4112480298126
 30
0.0
 11
991.5764826606642
 21
658.4112480298126
 31
0.0
  0
LINE
  5
569
330
2
100
AcDbEntity
  8
03-01
100
AcDbLine
 10
694.5764826606646
 20
739.4112480298131
 30
0.0
 11
694.5764826606651
 21
659.4112480298126
 31
0.0
  0
LINE
  5
56A
330
2
100
AcDbEntity
  8
03-01
100
AcDbLine
 10
694.5764826606641
 20
808.4112480298127
 30
0.0
 11
694.5764826606644
 21
741.4112480298126
 31
0.0
  0
LINE
  5
56B
330
2
100
AcDbEntity
  8
0
100
AcDbLine
 10
693.5764826606641
 20
808.4112480298127
 30
0.0
 11
693.576482660665
 21
658.4112480298126
 31
0.0
  0
LINE
  5
56C
330
2
100
AcDbEntity
  8
03-01
100
AcDbLine
 10
694.5764826606646
 20
942.3189640768718
 30
0.0
 11
694.5764826606641
 21
1286.818964076871
 31
0.0
  0
LINE
  5
56D
330
2
100
AcDbEntity
  8
0
100
AcDbLine
 10
693.5764826606641
 20
941.3189640768719
 30
0.0
 11
693.5764826606641
 21
1287.818964076871
 31
0.0
  0
LINE
  5
56E
330
2
100
AcDbEntity
  8
0
100
AcDbLine
 10
991.5764826606645
 20
941.3189640768719
 30
0.0
 11
991.5764826606636
 21
1287.818964076871
 31
0.0
  0
LINE
  5
56F
330
2
100
AcDbEntity
  8
03-01
100
AcDbLine
 10
990.5764826606636
 20
942.3189640768718
 30
0.0
 11
990.5764826606645
 21
1286.818964076871
 31
0.0
  0
LINE
  5
570
330
2
100
AcDbEntity
  8
03-01
100
AcDbLine
 10
990.5764826606645
 20
1286.818964076871
 30
0.0
 11
694.5764826606641
 21
1286.818964076871
 31
0.0
  0
LINE
  5
571
330
2
100
AcDbEntity
  8
0
100
AcDbLine
 10
991.5764826606636
 20
1287.818964076871
 30
0.0
 11
693.5764826606641
 21
1287.818964076871
 31
0.0
  0
TEXT
  5
572
330
2
100
AcDbEntity
  8
02-01
100
AcDbText
 10
638.422749702996
 20
391.1529740645988
 30
0.0
 40
12.5
  1
Einbaumaß: 300 x 398 x 65
100
AcDbText
  0
ENDSEC
  0
SECTION
  2
OBJECTS
  0
DICTIONARY
  5
B
330
0
100
AcDbDictionary
281
     1
  3
ACAD_COLOR
350
4B
  3
ACAD_FIELDLIST
350
575
  3
ACAD_GROUP
350
38
  3
ACAD_LAYOUT
350
18
  3
ACAD_MATERIAL
350
D
  3
ACAD_MLEADERSTYLE
350
4E
  3
ACAD_MLINESTYLE
350
39
  3
ACAD_PLOTSETTINGS
350
3A
  3
ACAD_PLOTSTYLENAME
350
A
  3
ACAD_SCALELIST
350
4C
  3
ACAD_TABLESTYLE
350
4D
  3
ACAD_VISUALSTYLE
350
2F
  3
ACDB_RECOMPOSE_DATA
350
57F
  3
AcDbVariableDictionary
350
576
  0
DICTIONARY
  5
30
330
2C
100
AcDbDictionary
280
     1
281
     1
  0
DICTIONARY
  5
1F
330
1E
100
AcDbDictionary
280
     1
281
     1
  3
ACAD_LAYERFILTERS
360
20
  3
ACAD_LAYERSTATES
360
21
  3
ACLYDICTIONARY
360
22
  0
DICTIONARY
  5
7
330
6
100
AcDbDictionary
280
     1
281
     1
  3
ADSK_XREC_LAYER_RECONCILED
360
8
  0
DICTIONARY
  5
7E
330
7D
100
AcDbDictionary
280
     1
281
     1
  3
ADSK_XREC_LAYER_RECONCILED
360
7F
  0
DICTIONARY
  5
84
330
83
100
AcDbDictionary
280
     1
281
     1
  3
ADSK_XREC_LAYER_RECONCILED
360
85
  0
DICTIONARY
  5
BB
330
BA
100
AcDbDictionary
280
     1
281
     1
  3
ADSK_XREC_LAYER_RECONCILED
360
BC
  0
DICTIONARY
  5
A5
330
A4
100
AcDbDictionary
280
     1
281
     1
  3
ADSK_XREC_LAYER_RECONCILED
360
A6
  0
DICTIONARY
  5
118
330
117
100
AcDbDictionary
280
     1
281
     1
  3
ADSK_XREC_LAYER_RECONCILED
360
119
  0
DICTIONARY
  5
133
330
132
100
AcDbDictionary
280
     1
281
     1
  3
ADSK_XREC_LAYER_RECONCILED
360
134
  0
DICTIONARY
  5
FF
330
FE
100
AcDbDictionary
280
     1
281
     1
  0
DICTIONARY
  5
50
330
4F
100
AcDbDictionary
280
     1
281
     1
  0
DICTIONARY
  5
4D2
330
4D1
100
AcDbDictionary
280
     1
281
     1
  0
DICTIONARY
  5
3
330
2
100
AcDbDictionary
280
     1
281
     1
  3
ACAD_SORTENTS
360
574
  0
DICTIONARY
  5
79
330
78
100
AcDbDictionary
280
     1
281
     1
  3
ACAD_SORTENTS
360
573
  0
DICTIONARY
  5
4B
102
{ACAD_REACTORS
330
B
102
}
330
B
100
AcDbDictionary
281
     1
  0
FIELDLIST
  5
575
102
{ACAD_REACTORS
330
B
102
}
330
B
100
AcDbIdSet
 90
        0
100
AcDbFieldList
  0
DICTIONARY
  5
38
102
{ACAD_REACTORS
330
B
102
}
330
B
100
AcDbDictionary
281
     1
  0
DICTIONARY
  5
18
102
{ACAD_REACTORS
330
B
102
}
330
B
100
AcDbDictionary
281
     1
  3
Layout1
350
1D
  3
Model
350
17
  0
DICTIONARY
  5
D
102
{ACAD_REACTORS
330
B
102
}
330
B
100
AcDbDictionary
281
     1
  3
ByBlock
350
43
  3
ByLayer
350
3B
  3
Global
350
C
  0
DICTIONARY
  5
4E
102
{ACAD_REACTORS
330
B
102
}
330
B
100
AcDbDictionary
281
     1
  0
DICTIONARY
  5
39
102
{ACAD_REACTORS
330
B
102
}
330
B
100
AcDbDictionary
281
     1
  3
Standard
350
51
  0
DICTIONARY
  5
3A
102
{ACAD_REACTORS
330
B
102
}
330
B
100
AcDbDictionary
281
     1
  0
ACDBDICTIONARYWDFLT
  5
A
102
{ACAD_REACTORS
330
B
102
}
330
B
100
AcDbDictionary
281
     1
  3
Normal
350
9
100
AcDbDictionaryWithDefault
340
9
  0
DICTIONARY
  5
4C
102
{ACAD_REACTORS
330
B
102
}
330
B
100
AcDbDictionary
281
     1
  3
A0
350
56
  3
A1
350
57
  3
A2
350
58
  3
A3
350
59
  3
A4
350
5A
  3
A5
350
5B
  3
A6
350
5C
  3
A7
350
5D
  3
A8
350
5E
  3
A9
350
5F
  3
B0
350
60
  3
B1
350
61
  3
B2
350
62
  3
B3
350
63
  3
B4
350
64
  3
B5
350
65
  3
B6
350
66
  3
B7
350
67
  3
B8
350
68
  3
B9
350
69
  3
C0
350
6A
  3
C1
350
6B
  3
C2
350
6C
  3
C3
350
6D
  3
C4
350
6E
  3
C5
350
6F
  3
C6
350
70
  3
C7
350
71
  3
C8
350
72
  3
C9
350
73
  3
D0
350
74
  3
D1
350
75
  3
D2
350
76
  0
DICTIONARY
  5
4D
102
{ACAD_REACTORS
330
B
102
}
330
B
100
AcDbDictionary
281
     1
  3
Standard
350
52
  0
DICTIONARY
  5
2F
102
{ACAD_REACTORS
330
B
102
}
330
B
100
AcDbDictionary
281
     1
  3
2dWireframe
350
2E
  3
3dWireframe
350
55
  3
Realistic
350
54
  0
XRECORD
  5
57F
102
{ACAD_REACTORS
330
B
102
}
330
B
100
AcDbXrecord
280
     1
 90
        1
330
52
  0
DICTIONARY
  5
576
102
{ACAD_REACTORS
330
B
102
}
330
B
100
AcDbDictionary
281
     1
  3
CANNOSCALE
350
579
  3
CMLEADERSTYLE
350
578
  3
CTABLESTYLE
350
577
  3
LAYEREVAL
350
57B
  3
LAYERNOTIFY
350
57C
  3
LIGHTINGUNITS
350
57A
  0
DICTIONARY
  5
20
102
{ACAD_REACTORS
330
1F
102
}
330
1F
100
AcDbDictionary
281
     1
  0
DICTIONARY
  5
21
102
{ACAD_REACTORS
330
1F
102
}
330
1F
100
AcDbDictionary
281
     1
  0
DICTIONARY
  5
22
102
{ACAD_REACTORS
330
1F
102
}
330
1F
100
AcDbDictionary
281
     1
1001
ACAD
1000
<All
  0
XRECORD
  5
8
102
{ACAD_REACTORS
330
7
102
}
330
7
100
AcDbXrecord
280
     1
290
     1
  0
XRECORD
  5
7F
102
{ACAD_REACTORS
330
7E
102
}
330
7E
100
AcDbXrecord
280
     1
290
     1
  0
XRECORD
  5
85
102
{ACAD_REACTORS
330
84
102
}
330
84
100
AcDbXrecord
280
     1
290
     1
  0
XRECORD
  5
BC
102
{ACAD_REACTORS
330
BB
102
}
330
BB
100
AcDbXrecord
280
     1
290
     1
  0
XRECORD
  5
A6
102
{ACAD_REACTORS
330
A5
102
}
330
A5
100
AcDbXrecord
280
     1
290
     1
  0
XRECORD
  5
119
102
{ACAD_REACTORS
330
118
102
}
330
118
100
AcDbXrecord
280
     1
290
     1
  0
XRECORD
  5
134
102
{ACAD_REACTORS
330
133
102
}
330
133
100
AcDbXrecord
280
     1
290
     1
  0
SORTENTSTABLE
  5
574
102
{ACAD_REACTORS
330
3
102
}
330
3
100
AcDbSortentsTable
330
2
331
12F
  5
555
331
476
  5
1ED
331
3FD
  5
266
331
564
  5
120
331
12B
  5
559
331
560
  5
124
331
127
  5
55D
331
166
  5
523
331
3BE
  5
281
331
472
  5
1F1
331
3F9
  5
26A
331
162
  5
526
331
123
  5
561
331
55C
  5
128
331
434
  5
22F
331
37B
  5
31A
331
527
  5
161
331
46E
  5
1F5
331
4AD
  5
1B6
331
4A9
  5
1BA
331
558
  5
12C
331
430
  5
233
331
523
  5
166
331
46A
  5
1F9
331
1A7
  5
4BC
331
1A3
  5
4C0
331
4E0
  5
185
331
21D
  5
446
331
295
  5
392
331
19F
  5
4C4
331
1DE
  5
485
331
30B
  5
38A
331
219
  5
44A
331
291
  5
396
331
215
  5
44E
331
28D
  5
39A
331
77
  5
572
331
254
  5
40F
331
19B
  5
4C8
331
1DA
  5
489
331
211
  5
452
331
289
  5
39E
331
250
  5
413
331
11F
  5
565
331
15E
  5
52A
331
15A
  5
52E
331
11B
  5
569
331
466
  5
1FD
331
4A5
  5
1BE
331
554
  5
130
331
51F
  5
16A
331
42C
  5
237
331
428
  5
23B
331
156
  5
532
331
51B
  5
16E
331
462
  5
201
331
4A1
  5
1C2
331
4DC
  5
189
331
550
  5
138
331
54C
  5
13C
331
424
  5
23F
331
152
  5
536
331
517
  5
172
331
45E
  5
205
331
49D
  5
1C6
331
4D8
  5
18D
331
499
  5
1CA
331
548
  5
140
331
420
  5
243
331
1D6
  5
48D
331
4D4
  5
191
331
513
  5
176
331
45A
  5
209
331
197
  5
4CC
331
193
  5
4D0
331
1D2
  5
491
331
4D0
  5
193
331
20D
  5
456
331
285
  5
3A2
331
24C
  5
417
331
248
  5
41B
331
18F
  5
4D6
331
1CE
  5
495
331
209
  5
45A
331
281
  5
3BE
331
27D
  5
3C2
331
244
  5
41F
331
18B
  5
4DA
331
1CA
  5
499
331
205
  5
45E
331
201
  5
462
331
279
  5
3C6
331
240
  5
423
331
332
  5
31F
331
14E
  5
53A
331
14A
  5
53E
331
3A2
  5
285
331
456
  5
20D
331
495
  5
1CE
331
544
  5
144
331
50F
  5
17A
331
41C
  5
247
331
146
  5
542
331
418
  5
24B
331
35F
  5
31C
331
39E
  5
289
331
452
  5
211
331
491
  5
1D2
331
540
  5
148
331
4CC
  5
197
331
50B
  5
17E
331
103
  5
56E
331
53C
  5
14C
331
414
  5
24F
331
142
  5
546
331
44E
  5
215
331
48D
  5
1D6
331
4C8
  5
19B
331
39A
  5
28D
331
489
  5
1DA
331
3D1
  5
26E
331
538
  5
150
331
410
  5
253
331
1C6
  5
49D
331
4C4
  5
19F
331
44A
  5
219
331
187
  5
4DE
331
183
  5
4E2
331
1C2
  5
4A1
331
4C0
  5
1A3
331
1FD
  5
466
331
275
  5
3CA
331
23C
  5
427
331
17F
  5
50A
331
1BE
  5
4A5
331
1F9
  5
46A
331
271
  5
3CE
331
238
  5
42B
331
234
  5
42F
331
17B
  5
50E
331
1BA
  5
4A9
331
1F5
  5
46E
331
26D
  5
3D2
331
1F1
  5
472
331
269
  5
3FA
331
230
  5
433
331
322
  5
323
331
396
  5
291
331
13E
  5
54A
331
13A
  5
54E
331
392
  5
295
331
485
  5
1DE
331
3CD
  5
272
331
534
  5
154
331
40C
  5
257
331
446
  5
21D
331
408
  5
25B
331
56F
  5
102
331
136
  5
552
331
38E
  5
299
331
442
  5
221
331
481
  5
1E2
331
4BC
  5
1A7
331
3C9
  5
276
331
530
  5
158
331
3C5
  5
27A
331
52C
  5
15C
331
404
  5
25F
331
56B
  5
116
331
43E
  5
225
331
47D
  5
1E6
331
4B8
  5
1AB
331
38A
  5
30B
331
3C1
  5
27E
331
528
  5
160
331
400
  5
263
331
1B6
  5
4AD
331
4B4
  5
1AF
331
43A
  5
229
331
177
  5
512
331
479
  5
1EA
331
1B2
  5
4B1
331
4B0
  5
1B3
331
31E
  5
341
331
1ED
  5
476
331
265
  5
3FE
331
22C
  5
437
331
173
  5
516
331
16F
  5
51A
331
1AE
  5
4B5
331
31A
  5
37B
331
1E9
  5
47A
331
261
  5
402
331
228
  5
43B
331
224
  5
43F
331
16B
  5
51E
331
1AA
  5
4B9
331
1E5
  5
47E
331
25D
  5
406
331
1E1
  5
482
331
259
  5
40A
331
220
  5
443
331
298
  5
38F
331
567
  5
11D
331
12E
  5
556
331
12A
  5
55A
331
475
  5
1EE
331
4EF
  5
182
331
3FC
  5
267
331
563
  5
121
331
126
  5
55E
331
55F
  5
125
331
437
  5
22C
331
471
  5
1F2
331
165
  5
524
331
122
  5
562
331
55B
  5
129
331
433
  5
230
331
161
  5
527
331
526
  5
162
331
46D
  5
1F6
331
4AC
  5
1B7
331
4A8
  5
1BB
331
522
  5
167
331
469
  5
1FA
331
1A6
  5
4BD
331
1A2
  5
4C1
331
21C
  5
447
331
294
  5
393
331
257
  5
40C
331
19E
  5
4C5
331
1DD
  5
486
331
30A
  5
38B
331
218
  5
44B
331
290
  5
397
331
214
  5
44F
331
28C
  5
39B
331
253
  5
410
331
19A
  5
4C9
331
1D9
  5
48A
331
341
  5
31E
331
210
  5
453
331
288
  5
39F
331
15D
  5
52B
331
11E
  5
566
331
557
  5
12D
331
42F
  5
234
331
159
  5
52F
331
3B1
  5
282
331
42B
  5
238
331
465
  5
1FE
331
4A4
  5
1BF
331
3EC
  5
26B
331
553
  5
131
331
4DF
  5
186
331
51E
  5
16B
331
11A
  5
56A
331
155
  5
533
331
116
  5
56B
331
54F
  5
139
331
427
  5
23C
331
36E
  5
31B
331
51A
  5
16F
331
461
  5
202
331
4A0
  5
1C3
331
4DB
  5
18A
331
112
  5
56D
331
54B
  5
13D
331
423
  5
240
331
151
  5
537
331
4D7
  5
18E
331
516
  5
173
331
45D
  5
206
331
49C
  5
1C7
331
498
  5
1CB
331
1D5
  5
48E
331
4D3
  5
192
331
512
  5
177
331
459
  5
20A
331
24F
  5
414
331
196
  5
4CD
331
192
  5
4D3
331
1D1
  5
492
331
20C
  5
457
331
284
  5
3A3
331
24B
  5
418
331
247
  5
41C
331
18E
  5
4D7
331
1CD
  5
496
331
208
  5
45B
331
280
  5
3BF
331
204
  5
45F
331
27C
  5
3C3
331
243
  5
420
331
18A
  5
4DB
331
1C9
  5
49A
331
200
  5
463
331
278
  5
3C7
331
547
  5
141
331
41F
  5
244
331
14D
  5
53B
331
149
  5
53F
331
3A1
  5
286
331
455
  5
20E
331
494
  5
1CF
331
543
  5
145
331
4CF
  5
194
331
50E
  5
17B
331
41B
  5
248
331
417
  5
24C
331
145
  5
543
331
39D
  5
28A
331
50A
  5
17F
331
451
  5
212
331
490
  5
1D3
331
4CB
  5
198
331
53F
  5
149
331
399
  5
28E
331
102
  5
56F
331
53B
  5
14D
331
413
  5
250
331
141
  5
547
331
44D
  5
216
331
48C
  5
1D7
331
4C7
  5
19C
331
488
  5
1DB
331
3D0
  5
26F
331
1C5
  5
49E
331
4C3
  5
1A0
331
449
  5
21A
331
23F
  5
424
331
186
  5
4DF
331
182
  5
4EF
331
1C1
  5
4A2
331
1FC
  5
467
331
274
  5
3CB
331
23B
  5
428
331
237
  5
42C
331
17E
  5
50B
331
1BD
  5
4A6
331
1F8
  5
46B
331
270
  5
3CF
331
26C
  5
3DF
331
233
  5
430
331
17A
  5
50F
331
1B9
  5
4AA
331
325
  5
320
331
1F4
  5
46F
331
1F0
  5
473
331
268
  5
3FB
331
321
  5
324
331
395
  5
292
331
537
  5
151
331
40F
  5
254
331
13D
  5
54B
331
139
  5
54F
331
391
  5
296
331
445
  5
21E
331
484
  5
1DF
331
4BF
  5
1A4
331
3CC
  5
273
331
533
  5
155
331
40B
  5
258
331
572
  5
77
331
407
  5
25C
331
56E
  5
103
331
38D
  5
29A
331
441
  5
222
331
480
  5
1E3
331
4BB
  5
1A8
331
3C8
  5
277
331
52F
  5
159
331
3C4
  5
27B
331
52B
  5
15D
331
403
  5
260
331
56A
  5
11A
331
131
  5
553
331
43D
  5
226
331
47C
  5
1E7
331
4B7
  5
1AC
331
389
  5
30C
331
478
  5
1EB
331
3C0
  5
27F
331
1B5
  5
4AE
331
4B3
  5
1B0
331
439
  5
22A
331
22F
  5
434
331
176
  5
513
331
172
  5
517
331
1B1
  5
4B2
331
31D
  5
350
331
1EC
  5
477
331
264
  5
3FF
331
22B
  5
438
331
16E
  5
51B
331
1AD
  5
4B6
331
1E8
  5
47B
331
260
  5
403
331
227
  5
43C
331
223
  5
440
331
16A
  5
51F
331
1A9
  5
4BA
331
1E4
  5
47F
331
25C
  5
407
331
1E0
  5
483
331
258
  5
40B
331
3FF
  5
264
331
566
  5
11E
331
12D
  5
557
331
129
  5
55B
331
474
  5
1EF
331
3FB
  5
268
331
562
  5
122
331
125
  5
55F
331
55E
  5
126
331
436
  5
22D
331
470
  5
1F3
331
4AF
  5
1B4
331
121
  5
563
331
4AB
  5
1B8
331
55A
  5
12A
331
432
  5
231
331
525
  5
163
331
46C
  5
1F7
331
160
  5
528
331
1A5
  5
4BE
331
4E2
  5
183
331
21F
  5
444
331
297
  5
390
331
521
  5
168
331
468
  5
1FB
331
1A1
  5
4C2
331
30D
  5
388
331
21B
  5
448
331
293
  5
394
331
256
  5
40D
331
19D
  5
4C6
331
1DC
  5
487
331
309
  5
38C
331
217
  5
44C
331
28F
  5
398
331
1D8
  5
48B
331
213
  5
450
331
28B
  5
39C
331
252
  5
411
331
199
  5
4CA
331
15C
  5
52C
331
11D
  5
567
331
4A7
  5
1BC
331
556
  5
12E
331
42E
  5
235
331
42A
  5
239
331
158
  5
530
331
464
  5
1FF
331
4A3
  5
1C0
331
552
  5
136
331
4DE
  5
187
331
51D
  5
16C
331
115
  5
56C
331
54E
  5
13A
331
426
  5
23D
331
154
  5
534
331
519
  5
170
331
460
  5
203
331
49F
  5
1C4
331
4DA
  5
18B
331
54A
  5
13E
331
422
  5
241
331
150
  5
538
331
4D6
  5
18F
331
515
  5
174
331
45C
  5
207
331
49B
  5
1C8
331
1D4
  5
48F
331
511
  5
178
331
458
  5
20B
331
20F
  5
454
331
287
  5
3A0
331
24E
  5
415
331
195
  5
4CE
331
191
  5
4D4
331
1D0
  5
493
331
20B
  5
458
331
283
  5
3A4
331
24A
  5
419
331
246
  5
41D
331
18D
  5
4D8
331
1CC
  5
497
331
207
  5
45C
331
27F
  5
3C0
331
203
  5
460
331
27B
  5
3C4
331
242
  5
421
331
189
  5
4DC
331
1C8
  5
49B
331
14C
  5
53C
331
3A4
  5
283
331
497
  5
1CC
331
3DF
  5
26C
331
546
  5
142
331
41E
  5
245
331
41A
  5
249
331
148
  5
540
331
3A0
  5
287
331
454
  5
20F
331
493
  5
1D0
331
542
  5
146
331
4CE
  5
195
331
50D
  5
17C
331
53E
  5
14A
331
416
  5
24D
331
144
  5
544
331
509
  5
180
331
450
  5
213
331
48F
  5
1D4
331
4CA
  5
199
331
39C
  5
28B
331
398
  5
28F
331
101
  5
570
331
53A
  5
14E
331
412
  5
251
331
140
  5
548
331
4C6
  5
19D
331
44C
  5
217
331
48B
  5
1D8
331
1C4
  5
49F
331
4C2
  5
1A1
331
448
  5
21B
331
1FF
  5
464
331
277
  5
3C8
331
23E
  5
425
331
185
  5
4E0
331
181
  5
4FC
331
1C0
  5
4A3
331
1FB
  5
468
331
273
  5
3CC
331
23A
  5
429
331
236
  5
42D
331
17D
  5
50C
331
1BC
  5
4A7
331
1F7
  5
46C
331
26F
  5
3D0
331
1F3
  5
470
331
26B
  5
3EC
331
232
  5
431
331
179
  5
510
331
324
  5
321
331
1B8
  5
4AB
331
320
  5
325
331
394
  5
293
331
FD
  5
571
331
487
  5
1DC
331
3CF
  5
270
331
536
  5
152
331
40E
  5
255
331
13C
  5
54C
331
571
  5
FD
331
138
  5
550
331
390
  5
297
331
444
  5
21F
331
483
  5
1E0
331
4BE
  5
1A5
331
3CB
  5
274
331
532
  5
156
331
40A
  5
259
331
406
  5
25D
331
56D
  5
112
331
38C
  5
309
331
440
  5
223
331
47F
  5
1E4
331
4BA
  5
1A9
331
3C7
  5
278
331
52E
  5
15A
331
388
  5
30D
331
3C3
  5
27C
331
52A
  5
15E
331
402
  5
261
331
569
  5
11B
331
130
  5
554
331
43C
  5
227
331
47B
  5
1E8
331
4B6
  5
1AD
331
1B4
  5
4AF
331
4B2
  5
1B1
331
438
  5
22B
331
1EF
  5
474
331
267
  5
3FC
331
22E
  5
435
331
175
  5
514
331
171
  5
518
331
1B0
  5
4B3
331
31C
  5
35F
331
1EB
  5
478
331
263
  5
400
331
22A
  5
439
331
226
  5
43D
331
16D
  5
51C
331
1AC
  5
4B7
331
1E7
  5
47C
331
25F
  5
404
331
25B
  5
408
331
222
  5
441
331
29A
  5
38D
331
169
  5
520
331
1A8
  5
4BB
331
1E3
  5
480
331
477
  5
1EC
331
3FE
  5
265
331
565
  5
11F
331
12C
  5
558
331
128
  5
55C
331
167
  5
522
331
3BF
  5
280
331
473
  5
1F0
331
3FA
  5
269
331
561
  5
123
331
124
  5
560
331
55D
  5
127
331
435
  5
22E
331
163
  5
525
331
46F
  5
1F4
331
4AE
  5
1B5
331
120
  5
564
331
4AA
  5
1B9
331
559
  5
12B
331
431
  5
232
331
524
  5
165
331
46B
  5
1F8
331
1A4
  5
4BF
331
4E1
  5
184
331
21E
  5
445
331
296
  5
391
331
520
  5
169
331
1A0
  5
4C3
331
1DF
  5
484
331
30C
  5
389
331
21A
  5
449
331
292
  5
395
331
28E
  5
399
331
255
  5
40E
331
19C
  5
4C7
331
1DB
  5
488
331
216
  5
44D
331
212
  5
451
331
28A
  5
39D
331
251
  5
412
331
198
  5
4CB
331
15F
  5
529
331
15B
  5
52D
331
11C
  5
568
331
467
  5
1FC
331
4A6
  5
1BD
331
555
  5
12F
331
42D
  5
236
331
429
  5
23A
331
157
  5
531
331
463
  5
200
331
4A2
  5
1C1
331
551
  5
137
331
4DD
  5
188
331
51C
  5
16D
331
54D
  5
13B
331
425
  5
23E
331
153
  5
535
331
518
  5
171
331
45F
  5
204
331
49E
  5
1C5
331
4D9
  5
18C
331
49A
  5
1C9
331
549
  5
13F
331
421
  5
242
331
1D7
  5
48C
331
4D5
  5
190
331
514
  5
175
331
45B
  5
208
331
194
  5
4CF
331
1D3
  5
490
331
510
  5
179
331
20E
  5
455
331
286
  5
3A1
331
24D
  5
416
331
190
  5
4D5
331
1CF
  5
494
331
20A
  5
459
331
282
  5
3B1
331
249
  5
41A
331
245
  5
41E
331
18C
  5
4D9
331
1CB
  5
498
331
206
  5
45D
331
27E
  5
3C1
331
202
  5
461
331
27A
  5
3C5
331
241
  5
422
331
188
  5
4DD
331
14F
  5
539
331
14B
  5
53D
331
3A3
  5
284
331
496
  5
1CD
331
545
  5
143
331
41D
  5
246
331
457
  5
20C
331
419
  5
24A
331
147
  5
541
331
39F
  5
288
331
453
  5
210
331
492
  5
1D1
331
541
  5
147
331
4CD
  5
196
331
50C
  5
17D
331
53D
  5
14B
331
415
  5
24E
331
143
  5
545
331
44F
  5
214
331
48E
  5
1D5
331
4C9
  5
19A
331
39B
  5
28C
331
3D2
  5
26D
331
539
  5
14F
331
411
  5
252
331
1C7
  5
49C
331
4C5
  5
19E
331
44B
  5
218
331
48A
  5
1D9
331
1C3
  5
4A0
331
4C1
  5
1A2
331
1FE
  5
465
331
276
  5
3C9
331
23D
  5
426
331
184
  5
4E1
331
180
  5
509
331
1BF
  5
4A4
331
1FA
  5
469
331
272
  5
3CD
331
239
  5
42A
331
235
  5
42E
331
17C
  5
50D
331
1BB
  5
4A8
331
1F6
  5
46D
331
26E
  5
3D1
331
1F2
  5
471
331
26A
  5
3F9
331
231
  5
432
331
178
  5
511
331
323
  5
322
331
397
  5
290
331
13F
  5
549
331
13B
  5
54D
331
393
  5
294
331
486
  5
1DD
331
3CE
  5
271
331
535
  5
153
331
40D
  5
256
331
447
  5
21C
331
137
  5
551
331
409
  5
25A
331
570
  5
101
331
350
  5
31D
331
38F
  5
298
331
443
  5
220
331
482
  5
1E1
331
3CA
  5
275
331
531
  5
157
331
4BD
  5
1A6
331
4FC
  5
181
331
52D
  5
15B
331
405
  5
25E
331
56C
  5
115
331
38B
  5
30A
331
43F
  5
224
331
47E
  5
1E5
331
4B9
  5
1AA
331
3C6
  5
279
331
3C2
  5
27D
331
529
  5
15F
331
401
  5
262
331
568
  5
11C
331
4B5
  5
1AE
331
43B
  5
228
331
47A
  5
1E9
331
1B7
  5
4AC
331
1B3
  5
4B0
331
4B1
  5
1B2
331
31F
  5
332
331
1EE
  5
475
331
266
  5
3FD
331
22D
  5
436
331
174
  5
515
331
170
  5
519
331
1AF
  5
4B4
331
31B
  5
36E
331
1EA
  5
479
331
262
  5
401
331
229
  5
43A
331
225
  5
43E
331
16C
  5
51D
331
1AB
  5
4B8
331
1E6
  5
47D
331
25E
  5
405
331
1E2
  5
481
331
25A
  5
409
331
221
  5
442
331
299
  5
38E
331
168
  5
521
  0
SORTENTSTABLE
  5
573
102
{ACAD_REACTORS
330
79
102
}
330
79
100
AcDbSortentsTable
330
78
  0
LAYOUT
  5
1D
102
{ACAD_REACTORS
330
18
102
}
330
18
100
AcDbPlotSettings
  1

  2

  4

  6

 40
0.0
 41
0.0
 42
0.0
 43
0.0
 44
0.0
 45
0.0
 46
0.0
 47
0.0
 48
0.0
 49
0.0
140
0.0
141
0.0
142
1.0
143
1.0
 70
   688
 72
     0
 73
     0
 74
     5
  7
monochrome.ctb
 75
    16
147
1.0
 76
     0
 77
     2
 78
   300
148
0.0
149
0.0
100
AcDbLayout
  1
Layout1
 70
     1
 71
     1
 10
0.0
 20
0.0
 11
420.0
 21
297.0
 12
0.0
 22
0.0
 32
0.0
 14
1.000000000000000E+20
 24
1.000000000000000E+20
 34
1.000000000000000E+20
 15
-1.000000000000000E+20
 25
-1.000000000000000E+20
 35
-1.000000000000000E+20
146
0.0
 13
0.0
 23
0.0
 33
0.0
 16
1.0
 26
0.0
 36
0.0
 17
0.0
 27
1.0
 37
0.0
 76
     0
330
1A
  0
LAYOUT
  5
17
102
{ACAD_REACTORS
330
18
102
}
330
18
100
AcDbPlotSettings
  1

  2
Microsoft XPS Document Writer
  4
A4
  6

 40
3.174999952316284
 41
3.174999952316284
 42
3.175003051757812
 43
3.17498779296875
 44
210.0156707763672
 45
297.0106506347656
 46
0.0
 47
0.0
 48
0.0
 49
0.0
140
0.0
141
0.0
142
1.0
143
10.36617523691078
 70
 11952
 72
     1
 73
     1
 74
     0
  7
monochrome.ctb
 75
     0
147
0.0964675955350731
 76
     0
 77
     2
 78
   300
148
36.54896740527443
149
5.578139542627013
100
AcDbLayout
  1
Model
 70
     1
 71
     0
 10
0.0
 20
0.0
 11
0.0
 21
0.0
 12
0.0
 22
0.0
 32
0.0
 14
0.0
 24
0.0
 34
0.0
 15
279.4
 25
215.9
 35
0.0
146
0.0
 13
0.0
 23
0.0
 33
0.0
 16
1.0
 26
0.0
 36
0.0
 17
0.0
 27
1.0
 37
0.0
 76
     0
330
2
331
2D
1001
ACAD_PSEXT
1000
Microsoft XPS Document Writer
1000
Microsoft XPS Document Writer
1000
XPSPort:
1000

1070
     0
  0
MATERIAL
  5
43
102
{ACAD_XDICTIONARY
360
44
102
}
102
{ACAD_REACTORS
330
D
102
}
330
D
100
AcDbMaterial
  1
ByBlock
 72
     0
 43
0.0008202099737533
 43
0.0
 43
0.0
 43
0.0
 43
0.0
 43
0.0008202099737533
 43
0.0
 43
0.0
 43
0.0
 43
0.0
 43
1.0
 43
0.0
 43
0.0
 43
0.0
 43
0.0
 43
1.0
 77
     0
 47
0.0008202099737533
 47
0.0
 47
0.0
 47
0.0
 47
0.0
 47
0.0008202099737533
 47
0.0
 47
0.0
 47
0.0
 47
0.0
 47
1.0
 47
0.0
 47
0.0
 47
0.0
 47
0.0
 47
1.0
171
     0
 49
0.0008202099737533
 49
0.0
 49
0.0
 49
0.0
 49
0.0
 49
0.0008202099737533
 49
0.0
 49
0.0
 49
0.0
 49
0.0
 49
1.0
 49
0.0
 49
0.0
 49
0.0
 49
0.0
 49
1.0
175
     0
142
0.0008202099737533
142
0.0
142
0.0
142
0.0
142
0.0
142
0.0008202099737533
142
0.0
142
0.0
142
0.0
142
0.0
142
1.0
142
0.0
142
0.0
142
0.0
142
0.0
142
1.0
179
     0
144
0.0008202099737533
144
0.0
144
0.0
144
0.0
144
0.0
144
0.0008202099737533
144
0.0
144
0.0
144
0.0
144
0.0
144
1.0
144
0.0
144
0.0
144
0.0
144
0.0
144
1.0
147
0.0008202099737533
147
0.0
147
0.0
147
0.0
147
0.0
147
0.0008202099737533
147
0.0
147
0.0
147
0.0
147
0.0
147
1.0
147
0.0
147
0.0
147
0.0
147
0.0
147
1.0
  0
MATERIAL
  5
3B
102
{ACAD_XDICTIONARY
360
3C
102
}
102
{ACAD_REACTORS
330
D
102
}
330
D
100
AcDbMaterial
  1
ByLayer
 72
     0
 43
0.0008202099737533
 43
0.0
 43
0.0
 43
0.0
 43
0.0
 43
0.0008202099737533
 43
0.0
 43
0.0
 43
0.0
 43
0.0
 43
1.0
 43
0.0
 43
0.0
 43
0.0
 43
0.0
 43
1.0
 77
     0
 47
0.0008202099737533
 47
0.0
 47
0.0
 47
0.0
 47
0.0
 47
0.0008202099737533
 47
0.0
 47
0.0
 47
0.0
 47
0.0
 47
1.0
 47
0.0
 47
0.0
 47
0.0
 47
0.0
 47
1.0
171
     0
 49
0.0008202099737533
 49
0.0
 49
0.0
 49
0.0
 49
0.0
 49
0.0008202099737533
 49
0.0
 49
0.0
 49
0.0
 49
0.0
 49
1.0
 49
0.0
 49
0.0
 49
0.0
 49
0.0
 49
1.0
175
     0
142
0.0008202099737533
142
0.0
142
0.0
142
0.0
142
0.0
142
0.0008202099737533
142
0.0
142
0.0
142
0.0
142
0.0
142
1.0
142
0.0
142
0.0
142
0.0
142
0.0
142
1.0
179
     0
144
0.0008202099737533
144
0.0
144
0.0
144
0.0
144
0.0
144
0.0008202099737533
144
0.0
144
0.0
144
0.0
144
0.0
144
1.0
144
0.0
144
0.0
144
0.0
144
0.0
144
1.0
147
0.0008202099737533
147
0.0
147
0.0
147
0.0
147
0.0
147
0.0008202099737533
147
0.0
147
0.0
147
0.0
147
0.0
147
1.0
147
0.0
147
0.0
147
0.0
147
0.0
147
1.0
  0
MATERIAL
  5
C
102
{ACAD_XDICTIONARY
360
E
102
}
102
{ACAD_REACTORS
330
D
102
}
330
D
100
AcDbMaterial
  1
Global
 72
     0
 43
0.0008202099737533
 43
0.0
 43
0.0
 43
0.0
 43
0.0
 43
0.0008202099737533
 43
0.0
 43
0.0
 43
0.0
 43
0.0
 43
1.0
 43
0.0
 43
0.0
 43
0.0
 43
0.0
 43
1.0
 77
     0
 47
0.0008202099737533
 47
0.0
 47
0.0
 47
0.0
 47
0.0
 47
0.0008202099737533
 47
0.0
 47
0.0
 47
0.0
 47
0.0
 47
1.0
 47
0.0
 47
0.0
 47
0.0
 47
0.0
 47
1.0
171
     0
 49
0.0008202099737533
 49
0.0
 49
0.0
 49
0.0
 49
0.0
 49
0.0008202099737533
 49
0.0
 49
0.0
 49
0.0
 49
0.0
 49
1.0
 49
0.0
 49
0.0
 49
0.0
 49
0.0
 49
1.0
175
     0
142
0.0008202099737533
142
0.0
142
0.0
142
0.0
142
0.0
142
0.0008202099737533
142
0.0
142
0.0
142
0.0
142
0.0
142
1.0
142
0.0
142
0.0
142
0.0
142
0.0
142
1.0
179
     0
144
0.0008202099737533
144
0.0
144
0.0
144
0.0
144
0.0
144
0.0008202099737533
144
0.0
144
0.0
144
0.0
144
0.0
144
1.0
144
0.0
144
0.0
144
0.0
144
0.0
144
1.0
147
0.0008202099737533
147
0.0
147
0.0
147
0.0
147
0.0
147
0.0008202099737533
147
0.0
147
0.0
147
0.0
147
0.0
147
1.0
147
0.0
147
0.0
147
0.0
147
0.0
147
1.0
  0
MLINESTYLE
  5
51
102
{ACAD_REACTORS
330
39
102
}
330
39
100
AcDbMlineStyle
  2
STANDARD
 70
     0
  3

 62
   256
 51
90.0
 52
90.0
 71
     2
 49
0.5
 62
   256
  6
BYLAYER
 49
-0.5
 62
   256
  6
BYLAYER
  0
ACDBPLACEHOLDER
  5
9
102
{ACAD_REACTORS
330
A
102
}
330
A
  0
SCALE
  5
56
102
{ACAD_REACTORS
330
4C
102
}
330
4C
100
AcDbScale
 70
     0
300
1:1
140
1.0
141
1.0
290
     1
  0
SCALE
  5
57
102
{ACAD_REACTORS
330
4C
102
}
330
4C
100
AcDbScale
 70
     0
300
1:2
140
1.0
141
2.0
290
     0
  0
SCALE
  5
58
102
{ACAD_REACTORS
330
4C
102
}
330
4C
100
AcDbScale
 70
     0
300
1:4
140
1.0
141
4.0
290
     0
  0
SCALE
  5
59
102
{ACAD_REACTORS
330
4C
102
}
330
4C
100
AcDbScale
 70
     0
300
1:5
140
1.0
141
5.0
290
     0
  0
SCALE
  5
5A
102
{ACAD_REACTORS
330
4C
102
}
330
4C
100
AcDbScale
 70
     0
300
1:8
140
1.0
141
8.0
290
     0
  0
SCALE
  5
5B
102
{ACAD_REACTORS
330
4C
102
}
330
4C
100
AcDbScale
 70
     0
300
1:10
140
1.0
141
10.0
290
     0
  0
SCALE
  5
5C
102
{ACAD_REACTORS
330
4C
102
}
330
4C
100
AcDbScale
 70
     0
300
1:16
140
1.0
141
16.0
290
     0
  0
SCALE
  5
5D
102
{ACAD_REACTORS
330
4C
102
}
330
4C
100
AcDbScale
 70
     0
300
1:20
140
1.0
141
20.0
290
     0
  0
SCALE
  5
5E
102
{ACAD_REACTORS
330
4C
102
}
330
4C
100
AcDbScale
 70
     0
300
1:30
140
1.0
141
30.0
290
     0
  0
SCALE
  5
5F
102
{ACAD_REACTORS
330
4C
102
}
330
4C
100
AcDbScale
 70
     0
300
1:40
140
1.0
141
40.0
290
     0
  0
SCALE
  5
60
102
{ACAD_REACTORS
330
4C
102
}
330
4C
100
AcDbScale
 70
     0
300
1:50
140
1.0
141
50.0
290
     0
  0
SCALE
  5
61
102
{ACAD_REACTORS
330
4C
102
}
330
4C
100
AcDbScale
 70
     0
300
1:100
140
1.0
141
100.0
290
     0
  0
SCALE
  5
62
102
{ACAD_REACTORS
330
4C
102
}
330
4C
100
AcDbScale
 70
     0
300
2:1
140
2.0
141
1.0
290
     0
  0
SCALE
  5
63
102
{ACAD_REACTORS
330
4C
102
}
330
4C
100
AcDbScale
 70
     0
300
4:1
140
4.0
141
1.0
290
     0
  0
SCALE
  5
64
102
{ACAD_REACTORS
330
4C
102
}
330
4C
100
AcDbScale
 70
     0
300
8:1
140
8.0
141
1.0
290
     0
  0
SCALE
  5
65
102
{ACAD_REACTORS
330
4C
102
}
330
4C
100
AcDbScale
 70
     0
300
10:1
140
10.0
141
1.0
290
     0
  0
SCALE
  5
66
102
{ACAD_REACTORS
330
4C
102
}
330
4C
100
AcDbScale
 70
     0
300
100:1
140
100.0
141
1.0
290
     0
  0
SCALE
  5
67
102
{ACAD_REACTORS
330
4C
102
}
330
4C
100
AcDbScale
 70
     0
300
1/128" = 1'-0"
140
0.0078125
141
12.0
290
     0
  0
SCALE
  5
68
102
{ACAD_REACTORS
330
4C
102
}
330
4C
100
AcDbScale
 70
     0
300
1/64" = 1'-0"
140
0.015625
141
12.0
290
     0
  0
SCALE
  5
69
102
{ACAD_REACTORS
330
4C
102
}
330
4C
100
AcDbScale
 70
     0
300
1/32" = 1'-0"
140
0.03125
141
12.0
290
     0
  0
SCALE
  5
6A
102
{ACAD_REACTORS
330
4C
102
}
330
4C
100
AcDbScale
 70
     0
300
1/16" = 1'-0"
140
0.0625
141
12.0
290
     0
  0
SCALE
  5
6B
102
{ACAD_REACTORS
330
4C
102
}
330
4C
100
AcDbScale
 70
     0
300
3/32" = 1'-0"
140
0.09375
141
12.0
290
     0
  0
SCALE
  5
6C
102
{ACAD_REACTORS
330
4C
102
}
330
4C
100
AcDbScale
 70
     0
300
1/8" = 1'-0"
140
0.125
141
12.0
290
     0
  0
SCALE
  5
6D
102
{ACAD_REACTORS
330
4C
102
}
330
4C
100
AcDbScale
 70
     0
300
3/16" = 1'-0"
140
0.1875
141
12.0
290
     0
  0
SCALE
  5
6E
102
{ACAD_REACTORS
330
4C
102
}
330
4C
100
AcDbScale
 70
     0
300
1/4" = 1'-0"
140
0.25
141
12.0
290
     0
  0
SCALE
  5
6F
102
{ACAD_REACTORS
330
4C
102
}
330
4C
100
AcDbScale
 70
     0
300
3/8" = 1'-0"
140
0.375
141
12.0
290
     0
  0
SCALE
  5
70
102
{ACAD_REACTORS
330
4C
102
}
330
4C
100
AcDbScale
 70
     0
300
1/2" = 1'-0"
140
0.5
141
12.0
290
     0
  0
SCALE
  5
71
102
{ACAD_REACTORS
330
4C
102
}
330
4C
100
AcDbScale
 70
     0
300
3/4" = 1'-0"
140
0.75
141
12.0
290
     0
  0
SCALE
  5
72
102
{ACAD_REACTORS
330
4C
102
}
330
4C
100
AcDbScale
 70
     0
300
1" = 1'-0"
140
1.0
141
12.0
290
     0
  0
SCALE
  5
73
102
{ACAD_REACTORS
330
4C
102
}
330
4C
100
AcDbScale
 70
     0
300
1-1/2" = 1'-0"
140
1.5
141
12.0
290
     0
  0
SCALE
  5
74
102
{ACAD_REACTORS
330
4C
102
}
330
4C
100
AcDbScale
 70
     0
300
3" = 1'-0"
140
3.0
141
12.0
290
     0
  0
SCALE
  5
75
102
{ACAD_REACTORS
330
4C
102
}
330
4C
100
AcDbScale
 70
     0
300
6" = 1'-0"
140
6.0
141
12.0
290
     0
  0
SCALE
  5
76
102
{ACAD_REACTORS
330
4C
102
}
330
4C
100
AcDbScale
 70
     0
300
1'-0" = 1'-0"
140
12.0
141
12.0
290
     0
  0
TABLESTYLE
  5
52
102
{ACAD_XDICTIONARY
360
53
102
}
102
{ACAD_REACTORS
330
4D
102
}
330
4D
100
AcDbTableStyle
280
     0
  3
Standard
 70
     0
 71
     0
 40
1.5
 41
1.5
280
     0
281
     0
  7
Standard
140
4.5
170
     2
 62
     0
 63
     7
283
     0
 90
      512
 91
        0
  1

274
    -2
284
     1
 64
     0
275
    -2
285
     1
 65
     0
276
    -2
286
     1
 66
     0
277
    -2
287
     1
 67
     0
278
    -2
288
     1
 68
     0
279
    -2
289
     1
 69
     0
  7
Standard
140
6.0
170
     5
 62
     0
 63
     7
283
     0
 90
      512
 91
        0
  1

274
    -2
284
     1
 64
     0
275
    -2
285
     1
 65
     0
276
    -2
286
     1
 66
     0
277
    -2
287
     1
 67
     0
278
    -2
288
     1
 68
     0
279
    -2
289
     1
 69
     0
  7
Standard
140
4.5
170
     5
 62
     0
 63
     7
283
     0
 90
      512
 91
        0
  1

274
    -2
284
     1
 64
     0
275
    -2
285
     1
 65
     0
276
    -2
286
     1
 66
     0
277
    -2
287
     1
 67
     0
278
    -2
288
     1
 68
     0
279
    -2
289
     1
 69
     0
  0
VISUALSTYLE
  5
2E
102
{ACAD_REACTORS
330
2F
102
}
330
2F
100
AcDbVisualStyle
  2
2dWireframe
 70
     4
177
     2
291
     0
 71
     0
176
     1
 72
     2
176
     1
 73
     0
176
     1
 90
        0
176
     1
 40
0.6
176
     1
 41
30.0
176
     1
 63
     7
176
     1
 74
     1
176
     1
 91
        4
176
     1
 64
     7
176
     1
 65
   257
176
     1
 75
     1
176
     1
175
     1
176
     1
 42
1.0
176
     1
 92
        0
176
     1
 66
   257
176
     1
 43
1.0
176
     1
 76
     1
176
     1
 77
     6
176
     1
 78
     2
176
     1
 67
     7
176
     1
 79
     5
176
     1
170
     0
176
     1
171
     0
176
     1
290
     0
176
     1
 93
        1
176
     1
 44
0.0
176
     1
173
     0
176
     1
  0
VISUALSTYLE
  5
55
102
{ACAD_REACTORS
330
2F
102
}
330
2F
100
AcDbVisualStyle
  2
3dWireframe
 70
     5
177
     2
291
     0
 71
     0
176
     1
 72
     2
176
     1
 73
     0
176
     1
 90
        0
176
     1
 40
0.6
176
     1
 41
30.0
176
     1
 63
     7
176
     1
 74
     1
176
     1
 91
        4
176
     1
 64
     7
176
     1
 65
   257
176
     1
 75
     1
176
     1
175
     1
176
     1
 42
1.0
176
     1
 92
        0
176
     1
 66
   257
176
     1
 43
1.0
176
     1
 76
     1
176
     1
 77
     6
176
     1
 78
     2
176
     1
 67
     7
176
     1
 79
     5
176
     1
170
     0
176
     1
171
     0
176
     1
290
     0
176
     1
 93
        1
176
     1
 44
0.0
176
     1
173
     0
176
     1
  0
VISUALSTYLE
  5
54
102
{ACAD_REACTORS
330
2F
102
}
330
2F
100
AcDbVisualStyle
  2
Realistic
 70
     8
177
     2
291
     0
 71
     2
176
     1
 72
     2
176
     1
 73
     0
176
     1
 90
        0
176
     1
 40
0.6
176
     1
 41
30.0
176
     1
 63
     7
176
     1
 74
     1
176
     1
 91
        0
176
     1
 64
     7
176
     1
 65
   257
176
     1
 75
     1
176
     1
175
     1
176
     1
 42
1.0
176
     1
 92
        8
176
     1
 66
     8
176
     1
 43
1.0
176
     1
 76
     1
176
     1
 77
     6
176
     1
 78
     2
176
     1
 67
     7
176
     1
 79
     5
176
     1
170
     0
176
     1
171
     0
176
     1
290
     0
176
     1
 93
       13
176
     1
 44
0.0
176
     1
173
     0
176
     1
  0
DICTIONARYVAR
  5
579
102
{ACAD_REACTORS
330
576
102
}
330
576
100
DictionaryVariables
280
     0
  1
1:1
  0
DICTIONARYVAR
  5
578
102
{ACAD_REACTORS
330
576
102
}
330
576
100
DictionaryVariables
280
     0
  1
STANDARD
  0
DICTIONARYVAR
  5
577
102
{ACAD_REACTORS
330
576
102
}
330
576
100
DictionaryVariables
280
     0
  1
STANDARD
  0
DICTIONARYVAR
  5
57B
102
{ACAD_REACTORS
330
576
102
}
330
576
100
DictionaryVariables
280
     0
  1
1
  0
DICTIONARYVAR
  5
57C
102
{ACAD_REACTORS
330
576
102
}
330
576
100
DictionaryVariables
280
     0
  1
15
  0
DICTIONARYVAR
  5
57A
102
{ACAD_REACTORS
330
576
102
}
330
576
100
DictionaryVariables
280
     0
  1
0
  0
DICTIONARY
  5
44
330
43
100
AcDbDictionary
280
     1
281
     1
  3
BUMPTILE
360
45
  3
DIFFUSETILE
360
46
  3
OPACITYTILE
360
47
  3
REFLECTIONTILE
360
48
  3
REFRACTIONTILE
360
49
  3
SPECULARTILE
360
4A
  0
DICTIONARY
  5
3C
330
3B
100
AcDbDictionary
280
     1
281
     1
  3
BUMPTILE
360
3D
  3
DIFFUSETILE
360
3E
  3
OPACITYTILE
360
3F
  3
REFLECTIONTILE
360
40
  3
REFRACTIONTILE
360
41
  3
SPECULARTILE
360
42
  0
DICTIONARY
  5
E
330
C
100
AcDbDictionary
280
     1
281
     1
  3
BUMPTILE
360
F
  3
DIFFUSETILE
360
10
  3
OPACITYTILE
360
11
  3
REFLECTIONTILE
360
12
  3
REFRACTIONTILE
360
13
  3
SPECULARTILE
360
14
  0
DICTIONARY
  5
53
330
52
100
AcDbDictionary
280
     1
281
     1
  3
ACAD_ROUNDTRIP_2008_TABLESTYLE_CELLSTYLEMAP
360
57D
  0
XRECORD
  5
45
102
{ACAD_REACTORS
330
44
102
}
330
44
100
AcDbXrecord
280
     1
270
     1
271
     1
  0
XRECORD
  5
46
102
{ACAD_REACTORS
330
44
102
}
330
44
100
AcDbXrecord
280
     1
270
     1
271
     1
  0
XRECORD
  5
47
102
{ACAD_REACTORS
330
44
102
}
330
44
100
AcDbXrecord
280
     1
270
     1
271
     1
  0
XRECORD
  5
48
102
{ACAD_REACTORS
330
44
102
}
330
44
100
AcDbXrecord
280
     1
270
     1
271
     1
  0
XRECORD
  5
49
102
{ACAD_REACTORS
330
44
102
}
330
44
100
AcDbXrecord
280
     1
270
     1
271
     1
  0
XRECORD
  5
4A
102
{ACAD_REACTORS
330
44
102
}
330
44
100
AcDbXrecord
280
     1
270
     1
271
     1
  0
XRECORD
  5
3D
102
{ACAD_REACTORS
330
3C
102
}
330
3C
100
AcDbXrecord
280
     1
270
     1
271
     1
  0
XRECORD
  5
3E
102
{ACAD_REACTORS
330
3C
102
}
330
3C
100
AcDbXrecord
280
     1
270
     1
271
     1
  0
XRECORD
  5
3F
102
{ACAD_REACTORS
330
3C
102
}
330
3C
100
AcDbXrecord
280
     1
270
     1
271
     1
  0
XRECORD
  5
40
102
{ACAD_REACTORS
330
3C
102
}
330
3C
100
AcDbXrecord
280
     1
270
     1
271
     1
  0
XRECORD
  5
41
102
{ACAD_REACTORS
330
3C
102
}
330
3C
100
AcDbXrecord
280
     1
270
     1
271
     1
  0
XRECORD
  5
42
102
{ACAD_REACTORS
330
3C
102
}
330
3C
100
AcDbXrecord
280
     1
270
     1
271
     1
  0
XRECORD
  5
F
102
{ACAD_REACTORS
330
E
102
}
330
E
100
AcDbXrecord
280
     1
270
     1
271
     1
  0
XRECORD
  5
10
102
{ACAD_REACTORS
330
E
102
}
330
E
100
AcDbXrecord
280
     1
270
     1
271
     1
  0
XRECORD
  5
11
102
{ACAD_REACTORS
330
E
102
}
330
E
100
AcDbXrecord
280
     1
270
     1
271
     1
  0
XRECORD
  5
12
102
{ACAD_REACTORS
330
E
102
}
330
E
100
AcDbXrecord
280
     1
270
     1
271
     1
  0
XRECORD
  5
13
102
{ACAD_REACTORS
330
E
102
}
330
E
100
AcDbXrecord
280
     1
270
     1
271
     1
  0
XRECORD
  5
14
102
{ACAD_REACTORS
330
E
102
}
330
E
100
AcDbXrecord
280
     1
270
     1
271
     1
  0
CELLSTYLEMAP
  5
57D
102
{ACAD_REACTORS
330
53
102
}
330
53
100
AcDbCellStyleMap
 90
        3
300
CELLSTYLE
  1
TABLEFORMAT_BEGIN
 90
        5
170
     1
 91
        0
 92
    32768
 62
   257
 93
        1
300
CONTENTFORMAT
  1
CONTENTFORMAT_BEGIN
 90
        0
 91
        0
 92
      512
 93
        0
300

 40
0.0
140
1.0
 94
        5
 62
     0
340
25
144
6.0
309
CONTENTFORMAT_END
171
     1
301
MARGIN
  1
CELLMARGIN_BEGIN
 40
1.5
 40
1.5
 40
1.5
 40
1.5
 40
4.5
 40
4.5
309
CELLMARGIN_END
 94
        6
 95
        1
302
GRIDFORMAT
  1
GRIDFORMAT_BEGIN
 90
        0
 91
        1
 62
     0
 92
       -2
340
0
 93
        0
 40
1.125
309
GRIDFORMAT_END
 95
        2
302
GRIDFORMAT
  1
GRIDFORMAT_BEGIN
 90
        0
 91
        1
 62
     0
 92
       -2
340
0
 93
        0
 40
1.125
309
GRIDFORMAT_END
 95
        4
302
GRIDFORMAT
  1
GRIDFORMAT_BEGIN
 90
        0
 91
        1
 62
     0
 92
       -2
340
0
 93
        0
 40
1.125
309
GRIDFORMAT_END
 95
        8
302
GRIDFORMAT
  1
GRIDFORMAT_BEGIN
 90
        0
 91
        1
 62
     0
 92
       -2
340
0
 93
        0
 40
1.125
309
GRIDFORMAT_END
 95
       16
302
GRIDFORMAT
  1
GRIDFORMAT_BEGIN
 90
        0
 91
        1
 62
     0
 92
       -2
340
0
 93
        0
 40
1.125
309
GRIDFORMAT_END
 95
       32
302
GRIDFORMAT
  1
GRIDFORMAT_BEGIN
 90
        0
 91
        1
 62
     0
 92
       -2
340
0
 93
        0
 40
1.125
309
GRIDFORMAT_END
309
TABLEFORMAT_END
  1
CELLSTYLE_BEGIN
 90
        1
 91
        1
300
_TITLE
309
CELLSTYLE_END
300
CELLSTYLE
  1
TABLEFORMAT_BEGIN
 90
        5
170
     1
 91
        0
 92
        0
 62
   257
 93
        1
300
CONTENTFORMAT
  1
CONTENTFORMAT_BEGIN
 90
        0
 91
        0
 92
      512
 93
        0
300

 40
0.0
140
1.0
 94
        5
 62
     0
340
25
144
4.5
309
CONTENTFORMAT_END
171
     1
301
MARGIN
  1
CELLMARGIN_BEGIN
 40
1.5
 40
1.5
 40
1.5
 40
1.5
 40
4.5
 40
4.5
309
CELLMARGIN_END
 94
        6
 95
        1
302
GRIDFORMAT
  1
GRIDFORMAT_BEGIN
 90
        0
 91
        1
 62
     0
 92
       -2
340
0
 93
        0
 40
1.125
309
GRIDFORMAT_END
 95
        2
302
GRIDFORMAT
  1
GRIDFORMAT_BEGIN
 90
        0
 91
        1
 62
     0
 92
       -2
340
0
 93
        0
 40
1.125
309
GRIDFORMAT_END
 95
        4
302
GRIDFORMAT
  1
GRIDFORMAT_BEGIN
 90
        0
 91
        1
 62
     0
 92
       -2
340
0
 93
        0
 40
1.125
309
GRIDFORMAT_END
 95
        8
302
GRIDFORMAT
  1
GRIDFORMAT_BEGIN
 90
        0
 91
        1
 62
     0
 92
       -2
340
0
 93
        0
 40
1.125
309
GRIDFORMAT_END
 95
       16
302
GRIDFORMAT
  1
GRIDFORMAT_BEGIN
 90
        0
 91
        1
 62
     0
 92
       -2
340
0
 93
        0
 40
1.125
309
GRIDFORMAT_END
 95
       32
302
GRIDFORMAT
  1
GRIDFORMAT_BEGIN
 90
        0
 91
        1
 62
     0
 92
       -2
340
0
 93
        0
 40
1.125
309
GRIDFORMAT_END
309
TABLEFORMAT_END
  1
CELLSTYLE_BEGIN
 90
        2
 91
        1
300
_HEADER
309
CELLSTYLE_END
300
CELLSTYLE
  1
TABLEFORMAT_BEGIN
 90
        5
170
     1
 91
        0
 92
        0
 62
   257
 93
        1
300
CONTENTFORMAT
  1
CONTENTFORMAT_BEGIN
 90
        0
 91
        0
 92
      512
 93
        0
300

 40
0.0
140
1.0
 94
        2
 62
     0
340
25
144
4.5
309
CONTENTFORMAT_END
171
     1
301
MARGIN
  1
CELLMARGIN_BEGIN
 40
1.5
 40
1.5
 40
1.5
 40
1.5
 40
4.5
 40
4.5
309
CELLMARGIN_END
 94
        6
 95
        1
302
GRIDFORMAT
  1
GRIDFORMAT_BEGIN
 90
        0
 91
        1
 62
     0
 92
       -2
340
0
 93
        0
 40
1.125
309
GRIDFORMAT_END
 95
        2
302
GRIDFORMAT
  1
GRIDFORMAT_BEGIN
 90
        0
 91
        1
 62
     0
 92
       -2
340
0
 93
        0
 40
1.125
309
GRIDFORMAT_END
 95
        4
302
GRIDFORMAT
  1
GRIDFORMAT_BEGIN
 90
        0
 91
        1
 62
     0
 92
       -2
340
0
 93
        0
 40
1.125
309
GRIDFORMAT_END
 95
        8
302
GRIDFORMAT
  1
GRIDFORMAT_BEGIN
 90
        0
 91
        1
 62
     0
 92
       -2
340
0
 93
        0
 40
1.125
309
GRIDFORMAT_END
 95
       16
302
GRIDFORMAT
  1
GRIDFORMAT_BEGIN
 90
        0
 91
        1
 62
     0
 92
       -2
340
0
 93
        0
 40
1.125
309
GRIDFORMAT_END
 95
       32
302
GRIDFORMAT
  1
GRIDFORMAT_BEGIN
 90
        0
 91
        1
 62
     0
 92
       -2
340
0
 93
        0
 40
1.125
309
GRIDFORMAT_END
309
TABLEFORMAT_END
  1
CELLSTYLE_BEGIN
 90
        3
 91
        2
300
_DATA
309
CELLSTYLE_END
  0
ENDSEC
  0
EOF
