  0
SECTION
  2
HEADER
  9
$ACADVER
  1
AC1024
  9
$ACADMAINTVER
 70
     6
  9
$DWGCODEPAGE
  3
ANSI_1252
  9
$INSBASE
 10
0.0
 20
0.0
 30
0.0
  9
$EXTMIN
 10
0.0000375611774928
 20
-0.0000100644871281
 30
0.0
  9
$EXTMAX
 10
2100.000037561178
 20
1484.999989935513
 30
0.0
  9
$LIMMIN
 10
0.0
 20
0.0
  9
$LIMMAX
 10
1050.0
 20
1485.0
  9
$ORTHOMODE
 70
     1
  9
$REGENMODE
 70
     1
  9
$FILLMODE
 70
     1
  9
$QTEXTMODE
 70
     0
  9
$MIRRTEXT
 70
     0
  9
$LTSCALE
 40
30.0
  9
$ATTMODE
 70
     1
  9
$TEXTSIZE
 40
3.5
  9
$TRACEWID
 40
2.0
  9
$TEXTSTYLE
  7
STANDARD
  9
$CLAYER
  8
01-01
  9
$CELTYPE
  6
ByLayer
  9
$CECOLOR
 62
   256
  9
$CELTSCALE
 40
1.0
  9
$DISPSILH
 70
     0
  9
$DIMSCALE
 40
5.0
  9
$DIMASZ
 40
2.5
  9
$DIMEXO
 40
1.0
  9
$DIMDLI
 40
10.0
  9
$DIMRND
 40
0.0
  9
$DIMDLE
 40
0.0
  9
$DIMEXE
 40
1.0
  9
$DIMTP
 40
0.0
  9
$DIMTM
 40
0.0
  9
$DIMTXT
 40
2.5
  9
$DIMCEN
 40
0.0
  9
$DIMTSZ
 40
0.0
  9
$DIMTOL
 70
     0
  9
$DIMLIM
 70
     0
  9
$DIMTIH
 70
     0
  9
$DIMTOH
 70
     0
  9
$DIMSE1
 70
     0
  9
$DIMSE2
 70
     0
  9
$DIMTAD
 70
     1
  9
$DIMZIN
 70
     8
  9
$DIMBLK
  1

  9
$DIMASO
 70
     1
  9
$DIMSHO
 70
     0
  9
$DIMPOST
  1

  9
$DIMAPOST
  1

  9
$DIMALT
 70
     0
  9
$DIMALTD
 70
     3
  9
$DIMALTF
 40
0.03937007874016
  9
$DIMLFAC
 40
1.0
  9
$DIMTOFL
 70
     1
  9
$DIMTVP
 40
0.0
  9
$DIMTIX
 70
     0
  9
$DIMSOXD
 70
     0
  9
$DIMSAH
 70
     0
  9
$DIMBLK1
  1

  9
$DIMBLK2
  1

  9
$DIMSTYLE
  2
Wagner
  9
$DIMCLRD
 70
     4
  9
$DIMCLRE
 70
     4
  9
$DIMCLRT
 70
     1
  9
$DIMTFAC
 40
1.0
  9
$DIMGAP
 40
1.0
  9
$DIMJUST
 70
     0
  9
$DIMSD1
 70
     0
  9
$DIMSD2
 70
     0
  9
$DIMTOLJ
 70
     0
  9
$DIMTZIN
 70
     8
  9
$DIMALTZ
 70
     0
  9
$DIMALTTZ
 70
     0
  9
$DIMUPT
 70
     0
  9
$DIMDEC
 70
     8
  9
$DIMTDEC
 70
     8
  9
$DIMALTU
 70
     2
  9
$DIMALTTD
 70
     3
  9
$DIMTXSTY
  7
SLDTEXTSTYLE1
  9
$DIMAUNIT
 70
     0
  9
$DIMADEC
 70
     2
  9
$DIMALTRND
 40
0.0
  9
$DIMAZIN
 70
     2
  9
$DIMDSEP
 70
    46
  9
$DIMATFIT
 70
     3
  9
$DIMFRAC
 70
     0
  9
$DIMLDRBLK
  1

  9
$DIMLUNIT
 70
     2
  9
$DIMLWD
 70
    -2
  9
$DIMLWE
 70
    -2
  9
$DIMTMOVE
 70
     0
  9
$DIMFXL
 40
1.0
  9
$DIMFXLON
 70
     0
  9
$DIMJOGANG
 40
0.7853981633974483
  9
$DIMTFILL
 70
     0
  9
$DIMTFILLCLR
 70
     0
  9
$DIMARCSYM
 70
     0
  9
$DIMLTYPE
  6

  9
$DIMLTEX1
  6

  9
$DIMLTEX2
  6

  9
$DIMTXTDIRECTION
 70
     0
  9
$LUNITS
 70
     2
  9
$LUPREC
 70
     1
  9
$SKETCHINC
 40
1.0
  9
$FILLETRAD
 40
0.0
  9
$AUNITS
 70
     0
  9
$AUPREC
 70
     2
  9
$MENU
  1
cncmenue
  9
$ELEVATION
 40
0.0
  9
$PELEVATION
 40
0.0
  9
$THICKNESS
 40
0.0
  9
$LIMCHECK
 70
     0
  9
$CHAMFERA
 40
0.0
  9
$CHAMFERB
 40
0.0
  9
$CHAMFERC
 40
0.0
  9
$CHAMFERD
 40
0.0
  9
$SKPOLY
 70
     0
  9
$TDCREATE
 40
2451037.470726852
  9
$TDUCREATE
 40
2451037.387393518
  9
$TDUPDATE
 40
2457871.482774387
  9
$TDUUPDATE
 40
2457871.399441053
  9
$TDINDWG
 40
0.1127751273
  9
$TDUSRTIMER
 40
0.1127751273
  9
$USRTIMER
 70
     1
  9
$ANGBASE
 50
0.0
  9
$ANGDIR
 70
     0
  9
$PDMODE
 70
     0
  9
$PDSIZE
 40
0.0
  9
$PLINEWID
 40
0.0
  9
$SPLFRAME
 70
     0
  9
$SPLINETYPE
 70
     6
  9
$SPLINESEGS
 70
     8
  9
$HANDSEED
  5
423
  9
$SURFTAB1
 70
    24
  9
$SURFTAB2
 70
    24
  9
$SURFTYPE
 70
     6
  9
$SURFU
 70
     6
  9
$SURFV
 70
     6
  9
$UCSBASE
  2

  9
$UCSNAME
  2

  9
$UCSORG
 10
0.0
 20
0.0
 30
0.0
  9
$UCSXDIR
 10
1.0
 20
0.0
 30
0.0
  9
$UCSYDIR
 10
0.0
 20
1.0
 30
0.0
  9
$UCSORTHOREF
  2

  9
$UCSORTHOVIEW
 70
     0
  9
$UCSORGTOP
 10
0.0
 20
0.0
 30
0.0
  9
$UCSORGBOTTOM
 10
0.0
 20
0.0
 30
0.0
  9
$UCSORGLEFT
 10
0.0
 20
0.0
 30
0.0
  9
$UCSORGRIGHT
 10
0.0
 20
0.0
 30
0.0
  9
$UCSORGFRONT
 10
0.0
 20
0.0
 30
0.0
  9
$UCSORGBACK
 10
0.0
 20
0.0
 30
0.0
  9
$PUCSBASE
  2

  9
$PUCSNAME
  2

  9
$PUCSORG
 10
0.0
 20
0.0
 30
0.0
  9
$PUCSXDIR
 10
1.0
 20
0.0
 30
0.0
  9
$PUCSYDIR
 10
0.0
 20
1.0
 30
0.0
  9
$PUCSORTHOREF
  2

  9
$PUCSORTHOVIEW
 70
     0
  9
$PUCSORGTOP
 10
0.0
 20
0.0
 30
0.0
  9
$PUCSORGBOTTOM
 10
0.0
 20
0.0
 30
0.0
  9
$PUCSORGLEFT
 10
0.0
 20
0.0
 30
0.0
  9
$PUCSORGRIGHT
 10
0.0
 20
0.0
 30
0.0
  9
$PUCSORGFRONT
 10
0.0
 20
0.0
 30
0.0
  9
$PUCSORGBACK
 10
0.0
 20
0.0
 30
0.0
  9
$USERI1
 70
     0
  9
$USERI2
 70
     0
  9
$USERI3
 70
     0
  9
$USERI4
 70
     0
  9
$USERI5
 70
     0
  9
$USERR1
 40
0.0
  9
$USERR2
 40
0.0
  9
$USERR3
 40
0.0
  9
$USERR4
 40
0.0
  9
$USERR5
 40
0.0
  9
$WORLDVIEW
 70
     1
  9
$SHADEDGE
 70
     3
  9
$SHADEDIF
 70
    70
  9
$TILEMODE
 70
     1
  9
$MAXACTVP
 70
    16
  9
$PINSBASE
 10
0.0
 20
0.0
 30
0.0
  9
$PLIMCHECK
 70
     0
  9
$PEXTMIN
 10
1.000000000000000E+20
 20
1.000000000000000E+20
 30
1.000000000000000E+20
  9
$PEXTMAX
 10
-1.000000000000000E+20
 20
-1.000000000000000E+20
 30
-1.000000000000000E+20
  9
$PLIMMIN
 10
0.0
 20
0.0
  9
$PLIMMAX
 10
12.0
 20
9.0
  9
$UNITMODE
 70
     0
  9
$VISRETAIN
 70
     0
  9
$PLINEGEN
 70
     0
  9
$PSLTSCALE
 70
     0
  9
$TREEDEPTH
 70
  3020
  9
$CMLSTYLE
  2
Standard
  9
$CMLJUST
 70
     0
  9
$CMLSCALE
 40
1.0
  9
$PROXYGRAPHICS
 70
     1
  9
$MEASUREMENT
 70
     0
  9
$CELWEIGHT
370
    -1
  9
$ENDCAPS
280
     0
  9
$JOINSTYLE
280
     0
  9
$LWDISPLAY
290
     0
  9
$INSUNITS
 70
     0
  9
$HYPERLINKBASE
  1

  9
$STYLESHEET
  1

  9
$XEDIT
290
     1
  9
$CEPSNTYPE
380
     0
  9
$PSTYLEMODE
290
     1
  9
$FINGERPRINTGUID
  2
{5297B743-DA97-4626-8E40-34C05064596B}
  9
$VERSIONGUID
  2
{588A8D5B-2A14-4830-97DF-55C28E6520F7}
  9
$EXTNAMES
290
     1
  9
$PSVPSCALE
 40
0.0
  9
$OLESTARTUP
290
     0
  9
$SORTENTS
280
   127
  9
$INDEXCTL
280
     0
  9
$HIDETEXT
280
     1
  9
$XCLIPFRAME
280
     0
  9
$HALOGAP
280
     0
  9
$OBSCOLOR
 70
   257
  9
$OBSLTYPE
280
     0
  9
$INTERSECTIONDISPLAY
280
     0
  9
$INTERSECTIONCOLOR
 70
   257
  9
$DIMASSOC
280
     1
  9
$PROJECTNAME
  1

  9
$CAMERADISPLAY
290
     0
  9
$LENSLENGTH
 40
50.0
  9
$CAMERAHEIGHT
 40
0.0
  9
$STEPSPERSEC
 40
2.0
  9
$STEPSIZE
 40
6.0
  9
$3DDWFPREC
 40
2.0
  9
$PSOLWIDTH
 40
0.25
  9
$PSOLHEIGHT
 40
4.0
  9
$LOFTANG1
 40
1.570796326794896
  9
$LOFTANG2
 40
1.570796326794896
  9
$LOFTMAG1
 40
0.0
  9
$LOFTMAG2
 40
0.0
  9
$LOFTPARAM
 70
     7
  9
$LOFTNORMALS
280
     1
  9
$LATITUDE
 40
37.795
  9
$LONGITUDE
 40
-122.394
  9
$NORTHDIRECTION
 40
0.0
  9
$TIMEZONE
 70
 -8000
  9
$LIGHTGLYPHDISPLAY
280
     1
  9
$TILEMODELIGHTSYNCH
280
     1
  9
$CMATERIAL
347
3B
  9
$SOLIDHIST
280
     1
  9
$SHOWHIST
280
     1
  9
$DWFFRAME
280
     2
  9
$DGNFRAME
280
     0
  9
$REALWORLDSCALE
290
     1
  9
$INTERFERECOLOR
 62
     1
  9
$INTERFEREOBJVS
345
55
  9
$INTERFEREVPVS
346
56
  9
$CSHADOW
280
     0
  9
$SHADOWPLANELOCATION
 40
0.0
  0
ENDSEC
  0
SECTION
  2
CLASSES
  0
CLASS
  1
ACDBDICTIONARYWDFLT
  2
AcDbDictionaryWithDefault
  3
ObjectDBX Classes
 90
        0
 91
        1
280
     0
281
     0
  0
CLASS
  1
MATERIAL
  2
AcDbMaterial
  3
ObjectDBX Classes
 90
     1153
 91
        3
280
     0
281
     0
  0
CLASS
  1
VISUALSTYLE
  2
AcDbVisualStyle
  3
ObjectDBX Classes
 90
     4095
 91
        3
280
     0
281
     0
  0
CLASS
  1
TABLESTYLE
  2
AcDbTableStyle
  3
ObjectDBX Classes
 90
     4095
 91
        1
280
     0
281
     0
  0
CLASS
  1
SCALE
  2
AcDbScale
  3
ObjectDBX Classes
 90
     1153
 91
       33
280
     0
281
     0
  0
CLASS
  1
MLEADERSTYLE
  2
AcDbMLeaderStyle
  3
ACDB_MLEADERSTYLE_CLASS
 90
     4095
 91
        0
280
     0
281
     0
  0
CLASS
  1
SORTENTSTABLE
  2
AcDbSortentsTable
  3
ObjectDBX Classes
 90
        0
 91
        4
280
     0
281
     0
  0
CLASS
  1
DIMASSOC
  2
AcDbDimAssoc
  3
"AcDbDimAssoc|Product Desc:     AcDim ARX App For Dimension|Company:          Autodesk, Inc.|WEB Address:      www.autodesk.com"
 90
        0
 91
        0
280
     0
281
     0
  0
CLASS
  1
CELLSTYLEMAP
  2
AcDbCellStyleMap
  3
ObjectDBX Classes
 90
     1152
 91
        1
280
     0
281
     0
  0
CLASS
  1
DICTIONARYVAR
  2
AcDbDictionaryVar
  3
ObjectDBX Classes
 90
        0
 91
        7
280
     0
281
     0
  0
CLASS
  1
AEC_REFEDIT_STATUS_TRACKER
  2
AecDbRefEditStatusTracker
  3
AecArchBase60|Product Desc: Autodesk Architectural Desktop 2007 |Company: Autodesk,Inc. |WEB Address: www.autodesk.com
 90
      129
 91
        0
280
     0
281
     0
  0
CLASS
  1
NPOCOLLECTION
  2
AcDbImpNonPersistentObjectsCollection
  3
ObjectDBX Classes
 90
     1153
 91
        0
280
     0
281
     0
  0
ENDSEC
  0
SECTION
  2
TABLES
  0
TABLE
  2
VPORT
  5
2B
330
0
100
AcDbSymbolTable
 70
     1
  0
VPORT
  5
2C
330
2B
100
AcDbSymbolTableRecord
100
AcDbViewportTableRecord
  2
*Active
 70
     0
 10
0.0
 20
0.0
 11
1.0
 21
1.0
 12
542.6959843757312
 22
739.593722000411
 13
0.0
 23
0.0
 14
1.0
 24
1.0
 15
100.0
 25
100.0
 16
0.0
 26
0.0
 36
1.0
 17
0.0
 27
0.0
 37
0.0
 40
2012.252148781453
 41
1.98076923076923
 42
50.0
 43
0.0
 44
0.0
 50
0.0
 51
0.0
 71
     0
 72
  1000
 73
     1
 74
     0
 75
     0
 76
     0
 77
     0
 78
     0
281
     0
 65
     1
110
0.0
120
0.0
130
0.0
111
1.0
121
0.0
131
0.0
112
0.0
122
1.0
132
0.0
 79
     0
146
0.0
348
2D
 60
     3
 61
     5
292
     1
282
     1
141
0.0
142
0.0
 63
   250
421
  3355443
  0
ENDTAB
  0
TABLE
  2
LTYPE
  5
26
330
0
100
AcDbSymbolTable
 70
     4
  0
LTYPE
  5
27
330
26
100
AcDbSymbolTableRecord
100
AcDbLinetypeTableRecord
  2
ByBlock
 70
     0
  3

 72
    65
 73
     0
 40
0.0
  0
LTYPE
  5
28
330
26
100
AcDbSymbolTableRecord
100
AcDbLinetypeTableRecord
  2
ByLayer
 70
     0
  3

 72
    65
 73
     0
 40
0.0
  0
LTYPE
  5
15
330
26
100
AcDbSymbolTableRecord
100
AcDbLinetypeTableRecord
  2
CONTINUOUS
 70
     0
  3
Ausgezogene Linie
 72
    65
 73
     0
 40
0.0
  0
LTYPE
  5
C3
330
26
100
AcDbSymbolTableRecord
100
AcDbLinetypeTableRecord
  2
VERDECKT
 70
     0
  3
__ __ __ __ __ __ __ __ __ __ __ __ __ __ __ __
 72
    65
 73
     2
 40
0.375
 49
0.25
 74
     0
 49
-0.125
 74
     0
  0
LTYPE
  5
C8
330
26
100
AcDbSymbolTableRecord
100
AcDbLinetypeTableRecord
  2
STRICHPUNKT
 70
     0
  3
__ . __ . __ . __ . __ . __ . __ . __ . __ . __
 72
    65
 73
     4
 40
1.0
 49
0.5
 74
     0
 49
-0.25
 74
     0
 49
0.0
 74
     0
 49
-0.25
 74
     0
  0
LTYPE
  5
10A
330
26
100
AcDbSymbolTableRecord
100
AcDbLinetypeTableRecord
  2
AUSGEZOGEN
 70
     0
  3
Ausgezogene Linie
 72
    65
 73
     0
 40
0.0
  0
ENDTAB
  0
TABLE
  2
LAYER
  5
1F
102
{ACAD_XDICTIONARY
360
20
102
}
330
0
100
AcDbSymbolTable
 70
    11
  0
LAYER
  5
6
102
{ACAD_XDICTIONARY
360
7
102
}
330
1F
100
AcDbSymbolTableRecord
100
AcDbLayerTableRecord
  2
0
 70
     0
 62
     7
  6
CONTINUOUS
370
    -3
390
9
347
C
  0
LAYER
  5
4F
102
{ACAD_XDICTIONARY
360
50
102
}
330
1F
100
AcDbSymbolTableRecord
100
AcDbLayerTableRecord
  2
01-01
 70
     0
 62
     2
  6
CONTINUOUS
370
    -3
390
9
347
C
  0
LAYER
  5
2E0
102
{ACAD_XDICTIONARY
360
2E1
102
}
330
1F
100
AcDbSymbolTableRecord
100
AcDbLayerTableRecord
  2
02-01
 70
     0
 62
     1
  6
CONTINUOUS
370
    -3
390
9
347
C
  0
LAYER
  5
C0
102
{ACAD_XDICTIONARY
360
C1
102
}
330
1F
100
AcDbSymbolTableRecord
100
AcDbLayerTableRecord
  2
03-01
 70
     0
 62
     3
  6
VERDECKT
370
    -3
390
9
347
C
  0
LAYER
  5
C5
102
{ACAD_XDICTIONARY
360
C6
102
}
330
1F
100
AcDbSymbolTableRecord
100
AcDbLayerTableRecord
  2
05-01
 70
     0
 62
     1
  6
STRICHPUNKT
370
    -3
390
9
347
C
  0
LAYER
  5
2FA
102
{ACAD_XDICTIONARY
360
2FB
102
}
330
1F
100
AcDbSymbolTableRecord
100
AcDbLayerTableRecord
  2
09-01
 70
     0
 62
     7
  6
CONTINUOUS
370
    -3
390
9
347
C
  0
LAYER
  5
101
102
{ACAD_XDICTIONARY
360
102
102
}
330
1F
100
AcDbSymbolTableRecord
100
AcDbLayerTableRecord
  2
01-99
 70
     0
 62
     2
  6
CONTINUOUS
370
    -3
390
9
347
C
  0
LAYER
  5
13F
102
{ACAD_XDICTIONARY
360
140
102
}
330
1F
100
AcDbSymbolTableRecord
100
AcDbLayerTableRecord
  2
06-99
 70
     0
 62
     1
  6
AUSGEZOGEN
370
    -3
390
9
347
C
  0
LAYER
  5
107
102
{ACAD_XDICTIONARY
360
108
102
}
330
1F
100
AcDbSymbolTableRecord
100
AcDbLayerTableRecord
  2
02-99
 70
     0
 62
     1
  6
AUSGEZOGEN
370
    -3
390
9
347
C
  0
LAYER
  5
84
330
1F
100
AcDbSymbolTableRecord
100
AcDbLayerTableRecord
  2
DEFPOINTS
 70
     0
 62
     7
  6
CONTINUOUS
290
     0
370
    -3
390
9
347
C
  0
LAYER
  5
129
102
{ACAD_XDICTIONARY
360
12A
102
}
330
1F
100
AcDbSymbolTableRecord
100
AcDbLayerTableRecord
  2
08-99
 70
     0
 62
     7
  6
CONTINUOUS
370
    -3
390
9
347
C
  0
ENDTAB
  0
TABLE
  2
STYLE
  5
22
330
0
100
AcDbSymbolTable
 70
     4
  0
STYLE
  5
23
330
22
100
AcDbSymbolTableRecord
100
AcDbTextStyleTableRecord
  2
STANDARD
 70
     0
 40
0.0
 41
1.0
 50
0.0
 71
     0
 42
3.5
  3
arial.ttf
  4

1001
ACAD
1000
Arial
1071
       34
  0
STYLE
  5
12C
330
22
100
AcDbSymbolTableRecord
100
AcDbTextStyleTableRecord
  2
ROMANS8
 70
     0
 40
0.0
 41
1.0
 50
0.0
 71
     0
 42
2.5
  3
ROMANS8
  4

  0
STYLE
  5
152
330
22
100
AcDbSymbolTableRecord
100
AcDbTextStyleTableRecord
  2
ROMAND8
 70
     0
 40
0.0
 41
1.0
 50
0.0
 71
     0
 42
3.5
  3
ROMAND8
  4

  0
STYLE
  5
32
330
22
100
AcDbSymbolTableRecord
100
AcDbTextStyleTableRecord
  2
SLDTEXTSTYLE1
 70
     0
 40
0.0
 41
0.75
 50
0.0
 71
     0
 42
0.2
  3
TXT
  4

  0
ENDTAB
  0
TABLE
  2
VIEW
  5
29
330
0
100
AcDbSymbolTable
 70
     0
  0
ENDTAB
  0
TABLE
  2
UCS
  5
2A
330
0
100
AcDbSymbolTable
 70
     0
  0
ENDTAB
  0
TABLE
  2
APPID
  5
2F
330
0
100
AcDbSymbolTable
 70
     4
  0
APPID
  5
24
330
2F
100
AcDbSymbolTableRecord
100
AcDbRegAppTableRecord
  2
ACAD
 70
     0
  0
APPID
  5
33
330
2F
100
AcDbSymbolTableRecord
100
AcDbRegAppTableRecord
  2
ACAD_DSTYLE_DIMJOGGED_JOGANGLE_SYMBOL
 70
     0
  0
APPID
  5
34
330
2F
100
AcDbSymbolTableRecord
100
AcDbRegAppTableRecord
  2
ACAD_DSTYLE_DIMJAG
 70
     0
  0
APPID
  5
35
330
2F
100
AcDbSymbolTableRecord
100
AcDbRegAppTableRecord
  2
ACAD_DSTYLE_DIMTALN
 70
     0
  0
ENDTAB
  0
TABLE
  2
DIMSTYLE
  5
30
330
0
100
AcDbSymbolTable
 70
     3
100
AcDbDimStyleTable
 71
     2
340
31
340
36
  0
DIMSTYLE
105
36
330
30
100
AcDbSymbolTableRecord
100
AcDbDimStyleTableRecord
  2
Standard
 70
     0
340
23
  0
DIMSTYLE
105
31
330
30
100
AcDbSymbolTableRecord
100
AcDbDimStyleTableRecord
  2
Wagner
 70
     0
 41
2.5
 42
1.0
 43
10.0
 44
1.0
 73
     0
 74
     0
 77
     1
 78
     8
 79
     2
140
2.5
141
0.0
143
0.03937007874016
147
1.0
171
     3
172
     1
176
     4
177
     4
178
     1
179
     2
271
     8
272
     8
274
     3
283
     0
284
     8
340
32
1001
ACAD_DSTYLE_DIMJOGGED_JOGANGLE_SYMBOL
1070
   384
1040
0.7853981633974483
1001
ACAD_DSTYLE_DIMJAG
1070
   388
1040
1.5
1001
ACAD_DSTYLE_DIMTALN
1070
   392
1070
     0
  0
DIMSTYLE
105
88
102
{ACAD_REACTORS
330
2F9
330
30B
330
318
330
329
330
336
330
345
330
352
330
35F
330
36E
330
37D
330
391
330
3A0
330
3AE
330
3C0
330
3D4
330
3F3
330
402
330
EE
330
B0
330
A3
330
96
330
89
330
78
102
}
330
30
100
AcDbSymbolTableRecord
100
AcDbDimStyleTableRecord
  2
Wagner$0
 70
     0
 41
2.5
 42
1.0
 43
10.0
 44
1.0
 73
     0
 74
     0
 77
     1
 78
     8
 79
     2
140
2.5
141
0.0
143
0.03937007874016
147
1.0
171
     3
172
     1
174
     1
176
     4
177
     4
178
     1
179
     2
271
     2
272
     2
274
     3
279
     2
283
     0
284
     8
340
32
1001
ACAD_DSTYLE_DIMJOGGED_JOGANGLE_SYMBOL
1070
   384
1040
0.7853981633974483
1001
ACAD_DSTYLE_DIMJAG
1070
   388
1040
1.5
1001
ACAD_DSTYLE_DIMTALN
1070
   392
1070
     0
  0
ENDTAB
  0
TABLE
  2
BLOCK_RECORD
  5
1
330
0
100
AcDbSymbolTable
 70
    24
  0
BLOCK_RECORD
  5
2
102
{ACAD_XDICTIONARY
360
3
102
}
330
1
100
AcDbSymbolTableRecord
100
AcDbBlockTableRecord
  2
*Model_Space
340
17
 70
     0
280
     1
281
     0
  0
BLOCK_RECORD
  5
1B
330
1
100
AcDbSymbolTableRecord
100
AcDbBlockTableRecord
  2
*Paper_Space
340
1E
 70
     0
280
     1
281
     0
  0
BLOCK_RECORD
  5
36F
330
1
100
AcDbSymbolTableRecord
100
AcDbBlockTableRecord
  2
*D0
340
0
 70
     0
280
     1
281
     0
  0
BLOCK_RECORD
  5
353
330
1
100
AcDbSymbolTableRecord
100
AcDbBlockTableRecord
  2
*D1
340
0
 70
     0
280
     1
281
     0
  0
BLOCK_RECORD
  5
360
330
1
100
AcDbSymbolTableRecord
100
AcDbBlockTableRecord
  2
*D2
340
0
 70
     0
280
     1
281
     0
  0
BLOCK_RECORD
  5
3C1
330
1
100
AcDbSymbolTableRecord
100
AcDbBlockTableRecord
  2
*D3
340
0
 70
     0
280
     1
281
     0
  0
BLOCK_RECORD
  5
37E
330
1
100
AcDbSymbolTableRecord
100
AcDbBlockTableRecord
  2
*D4
340
0
 70
     0
280
     1
281
     0
  0
BLOCK_RECORD
  5
3D5
330
1
100
AcDbSymbolTableRecord
100
AcDbBlockTableRecord
  2
*D5
340
0
 70
     0
280
     1
281
     0
  0
BLOCK_RECORD
  5
32A
330
1
100
AcDbSymbolTableRecord
100
AcDbBlockTableRecord
  2
*D6
340
0
 70
     0
280
     1
281
     0
  0
BLOCK_RECORD
  5
337
330
1
100
AcDbSymbolTableRecord
100
AcDbBlockTableRecord
  2
*D7
340
0
 70
     0
280
     1
281
     0
  0
BLOCK_RECORD
  5
346
330
1
100
AcDbSymbolTableRecord
100
AcDbBlockTableRecord
  2
*D8
340
0
 70
     0
280
     1
281
     0
  0
BLOCK_RECORD
  5
403
330
1
100
AcDbSymbolTableRecord
100
AcDbBlockTableRecord
  2
*D9
340
0
 70
     0
280
     1
281
     0
  0
BLOCK_RECORD
  5
392
330
1
100
AcDbSymbolTableRecord
100
AcDbBlockTableRecord
  2
*D10
340
0
 70
     0
280
     1
281
     0
  0
BLOCK_RECORD
  5
30C
330
1
100
AcDbSymbolTableRecord
100
AcDbBlockTableRecord
  2
*D11
340
0
 70
     0
280
     1
281
     0
  0
BLOCK_RECORD
  5
319
330
1
100
AcDbSymbolTableRecord
100
AcDbBlockTableRecord
  2
*D12
340
0
 70
     0
280
     1
281
     0
  0
BLOCK_RECORD
  5
3F4
330
1
100
AcDbSymbolTableRecord
100
AcDbBlockTableRecord
  2
*D13
340
0
 70
     0
280
     1
281
     0
  0
BLOCK_RECORD
  5
2FD
330
1
100
AcDbSymbolTableRecord
100
AcDbBlockTableRecord
  2
*D14
340
0
 70
     0
280
     1
281
     0
  0
BLOCK_RECORD
  5
3A1
330
1
100
AcDbSymbolTableRecord
100
AcDbBlockTableRecord
  2
*D15
340
0
 70
     0
280
     1
281
     0
  0
BLOCK_RECORD
  5
3AF
330
1
100
AcDbSymbolTableRecord
100
AcDbBlockTableRecord
  2
*D16
340
0
 70
     0
280
     1
281
     0
  0
BLOCK_RECORD
  5
FC
102
{ACAD_XDICTIONARY
360
FD
102
}
330
1
100
AcDbSymbolTableRecord
100
AcDbBlockTableRecord
  2
DIN A4
340
0
102
{BLKREFS
331
FB
102
}
 70
     4
280
     1
281
     0
  0
BLOCK_RECORD
  5
EF
330
1
100
AcDbSymbolTableRecord
100
AcDbBlockTableRecord
  2
*D18
340
0
 70
     0
280
     1
281
     0
  0
BLOCK_RECORD
  5
B1
330
1
100
AcDbSymbolTableRecord
100
AcDbBlockTableRecord
  2
*D19
340
0
 70
     0
280
     1
281
     0
  0
BLOCK_RECORD
  5
A4
330
1
100
AcDbSymbolTableRecord
100
AcDbBlockTableRecord
  2
*D20
340
0
 70
     0
280
     1
281
     0
  0
BLOCK_RECORD
  5
97
330
1
100
AcDbSymbolTableRecord
100
AcDbBlockTableRecord
  2
*D21
340
0
 70
     0
280
     1
281
     0
  0
BLOCK_RECORD
  5
8A
330
1
100
AcDbSymbolTableRecord
100
AcDbBlockTableRecord
  2
*D22
340
0
 70
     0
280
     1
281
     0
  0
BLOCK_RECORD
  5
79
330
1
100
AcDbSymbolTableRecord
100
AcDbBlockTableRecord
  2
*D23
340
0
 70
     0
280
     1
281
     0
  0
ENDTAB
  0
ENDSEC
  0
SECTION
  2
BLOCKS
  0
BLOCK
  5
5
330
2
100
AcDbEntity
  8
0
100
AcDbBlockBegin
  2
*Model_Space
 70
     0
 10
0.0
 20
0.0
 30
0.0
  3
*Model_Space
  1

  0
ENDBLK
  5
16
330
2
100
AcDbEntity
  8
0
100
AcDbBlockEnd
  0
BLOCK
  5
1C
330
1B
100
AcDbEntity
 67
     1
  8
0
100
AcDbBlockBegin
  2
*Paper_Space
 70
     0
 10
0.0
 20
0.0
 30
0.0
  3
*Paper_Space
  1

  0
ENDBLK
  5
1D
330
1B
100
AcDbEntity
 67
     1
  8
0
100
AcDbBlockEnd
  0
BLOCK
  5
370
330
36F
100
AcDbEntity
  8
0
100
AcDbBlockBegin
  2
*D0
 70
     1
 10
0.0
 20
0.0
 30
0.0
  3
*D0
  1

  0
LINE
  5
371
330
36F
100
AcDbEntity
  8
09-01
 62
     4
440
 16777216
370
    -2
100
AcDbLine
 10
468.0820913780324
 20
1255.011744568016
 30
0.0
 11
468.0820913780324
 21
1326.364120631703
 31
0.0
  0
LINE
  5
372
330
36F
100
AcDbEntity
  8
09-01
 62
     4
440
 16777216
370
    -2
100
AcDbLine
 10
493.5820913780323
 20
1276.511744568016
 30
0.0
 11
493.5820913780323
 21
1326.364120631703
 31
0.0
  0
LINE
  5
373
330
36F
100
AcDbEntity
  8
09-01
 62
     4
440
 16777216
370
    -2
100
AcDbLine
 10
455.5820913780324
 20
1321.364120631703
 30
0.0
 11
443.0820913780324
 21
1321.364120631703
 31
0.0
  0
LINE
  5
374
330
36F
100
AcDbEntity
  8
09-01
 62
     4
440
 16777216
370
    -2
100
AcDbLine
 10
506.0820913780323
 20
1321.364120631703
 30
0.0
 11
518.5820913780323
 21
1321.364120631703
 31
0.0
  0
MTEXT
  5
375
330
36F
100
AcDbEntity
  8
09-01
 62
     1
440
 16777216
100
AcDbMText
 10
519.0602754609962
 20
1338.864120631703
 30
0.0
 40
12.5
 41
0.0
 46
0.0
 71
     5
 72
     1
  1
25.5
  7
SLDTEXTSTYLE1
 73
     1
 44
1.0
  0
LINE
  5
376
330
36F
100
AcDbEntity
  8
09-01
 62
     4
440
 16777216
370
    -2
100
AcDbLine
 10
468.0820913780324
 20
1321.364120631703
 30
0.0
 11
493.5820913780323
 21
1321.364120631703
 31
0.0
  0
SOLID
  5
377
330
36F
100
AcDbEntity
  8
09-01
 62
     4
440
 16777216
100
AcDbTrace
 10
455.5820913780324
 20
1323.447453965036
 30
0.0
 11
455.5820913780324
 21
1319.280787298369
 31
0.0
 12
468.0820913780324
 22
1321.364120631703
 32
0.0
 13
468.0820913780324
 23
1321.364120631703
 33
0.0
  0
SOLID
  5
378
330
36F
100
AcDbEntity
  8
09-01
 62
     4
440
 16777216
100
AcDbTrace
 10
506.0820913780323
 20
1323.447453965036
 30
0.0
 11
506.0820913780323
 21
1319.280787298369
 31
0.0
 12
493.5820913780323
 22
1321.364120631703
 32
0.0
 13
493.5820913780323
 23
1321.364120631703
 33
0.0
  0
POINT
  5
379
330
36F
100
AcDbEntity
  8
DEFPOINTS
 62
     0
440
 16777216
100
AcDbPoint
 10
468.0820913780324
 20
1250.011744568016
 30
0.0
  0
POINT
  5
37A
330
36F
100
AcDbEntity
  8
DEFPOINTS
 62
     0
440
 16777216
100
AcDbPoint
 10
493.5820913780323
 20
1271.511744568016
 30
0.0
  0
POINT
  5
37B
330
36F
100
AcDbEntity
  8
DEFPOINTS
 62
     0
440
 16777216
100
AcDbPoint
 10
493.5820913780323
 20
1321.364120631703
 30
0.0
  0
ENDBLK
  5
37C
330
36F
100
AcDbEntity
  8
0
100
AcDbBlockEnd
  0
BLOCK
  5
354
330
353
100
AcDbEntity
  8
0
100
AcDbBlockBegin
  2
*D1
 70
     1
 10
0.0
 20
0.0
 30
0.0
  3
*D1
  1

  0
LINE
  5
355
330
353
100
AcDbEntity
  8
01-01
 62
     4
440
 16777216
370
    -2
100
AcDbLine
 10
470.5820913780323
 20
1048.509454312471
 30
0.0
 11
536.0020997227946
 21
1048.50945431247
 31
0.0
  0
LINE
  5
356
330
353
100
AcDbEntity
  8
01-01
 62
     4
440
 16777216
370
    -2
100
AcDbLine
 10
499.5820913780323
 20
824.5117445680163
 30
0.0
 11
536.0020997227946
 21
824.5117445680163
 31
0.0
  0
LINE
  5
357
330
353
100
AcDbEntity
  8
01-01
 62
     4
440
 16777216
370
    -2
100
AcDbLine
 10
531.0020997227946
 20
1036.00945431247
 30
0.0
 11
531.0020997227946
 21
837.0117445680163
 31
0.0
  0
SOLID
  5
358
330
353
100
AcDbEntity
  8
01-01
 62
     4
440
 16777216
100
AcDbTrace
 10
528.9187663894612
 20
1036.00945431247
 30
0.0
 11
533.0854330561279
 21
1036.00945431247
 31
0.0
 12
531.0020997227946
 22
1048.50945431247
 32
0.0
 13
531.0020997227946
 23
1048.50945431247
 33
0.0
  0
SOLID
  5
359
330
353
100
AcDbEntity
  8
01-01
 62
     4
440
 16777216
100
AcDbTrace
 10
528.9187663894612
 20
837.0117445680163
 30
0.0
 11
533.0854330561279
 21
837.0117445680163
 31
0.0
 12
531.0020997227946
 22
824.5117445680163
 32
0.0
 13
531.0020997227946
 23
824.5117445680163
 33
0.0
  0
MTEXT
  5
35A
330
353
100
AcDbEntity
  8
01-01
 62
     1
440
 16777216
100
AcDbMText
 10
519.7520997227944
 20
936.5105994402435
 30
0.0
 40
12.5
 41
0.0
 46
0.0
 71
     5
 72
     1
  1
224
  7
SLDTEXTSTYLE1
 11
0.0000000000000001
 21
1.0
 31
0.0
 73
     1
 44
1.0
  0
POINT
  5
35B
330
353
100
AcDbEntity
  8
DEFPOINTS
 62
     0
440
 16777216
100
AcDbPoint
 10
465.5820913780323
 20
1048.509454312471
 30
0.0
  0
POINT
  5
35C
330
353
100
AcDbEntity
  8
DEFPOINTS
 62
     0
440
 16777216
100
AcDbPoint
 10
494.5820913780323
 20
824.5117445680163
 30
0.0
  0
POINT
  5
35D
330
353
100
AcDbEntity
  8
DEFPOINTS
 62
     0
440
 16777216
100
AcDbPoint
 10
531.0020997227946
 20
824.5117445680163
 30
0.0
  0
ENDBLK
  5
35E
330
353
100
AcDbEntity
  8
0
100
AcDbBlockEnd
  0
BLOCK
  5
361
330
360
100
AcDbEntity
  8
0
100
AcDbBlockBegin
  2
*D2
 70
     1
 10
0.0
 20
0.0
 30
0.0
  3
*D2
  1

  0
LINE
  5
362
330
360
100
AcDbEntity
  8
09-01
 62
     4
440
 16777216
370
    -2
100
AcDbLine
 10
197.6156946411771
 20
362.4374913748493
 30
0.0
 11
197.6156946411771
 21
330.2930113821036
 31
0.0
  0
LINE
  5
363
330
360
100
AcDbEntity
  8
09-01
 62
     4
440
 16777216
370
    -2
100
AcDbLine
 10
493.6156946411771
 20
362.4374913748494
 30
0.0
 11
493.6156946411771
 21
330.2930113821036
 31
0.0
  0
LINE
  5
364
330
360
100
AcDbEntity
  8
09-01
 62
     4
440
 16777216
370
    -2
100
AcDbLine
 10
210.1156946411771
 20
335.2930113821037
 30
0.0
 11
481.1156946411771
 21
335.2930113821037
 31
0.0
  0
SOLID
  5
365
330
360
100
AcDbEntity
  8
09-01
 62
     4
440
 16777216
100
AcDbTrace
 10
210.1156946411771
 20
337.376344715437
 30
0.0
 11
210.1156946411771
 21
333.2096780487703
 31
0.0
 12
197.6156946411771
 22
335.2930113821037
 32
0.0
 13
197.6156946411771
 23
335.2930113821037
 33
0.0
  0
SOLID
  5
366
330
360
100
AcDbEntity
  8
09-01
 62
     4
440
 16777216
100
AcDbTrace
 10
481.1156946411771
 20
337.376344715437
 30
0.0
 11
481.1156946411771
 21
333.2096780487703
 31
0.0
 12
493.6156946411771
 22
335.2930113821037
 32
0.0
 13
493.6156946411771
 23
335.2930113821037
 33
0.0
  0
MTEXT
  5
367
330
360
100
AcDbEntity
  8
09-01
 62
     1
440
 16777216
100
AcDbMText
 10
345.6156946411771
 20
346.5430113821037
 30
0.0
 40
12.5
 41
0.0
 46
0.0
 71
     5
 72
     1
  1
296
  7
SLDTEXTSTYLE1
 73
     1
 44
1.0
  0
POINT
  5
368
330
360
100
AcDbEntity
  8
DEFPOINTS
 62
     0
440
 16777216
100
AcDbPoint
 10
197.6156946411771
 20
367.4374913748493
 30
0.0
  0
POINT
  5
369
330
360
100
AcDbEntity
  8
DEFPOINTS
 62
     0
440
 16777216
100
AcDbPoint
 10
493.6156946411771
 20
367.4374913748494
 30
0.0
  0
POINT
  5
36A
330
360
100
AcDbEntity
  8
DEFPOINTS
 62
     0
440
 16777216
100
AcDbPoint
 10
493.6156946411771
 20
335.2930113821037
 30
0.0
  0
ENDBLK
  5
36B
330
360
100
AcDbEntity
  8
0
100
AcDbBlockEnd
  0
BLOCK
  5
3C2
330
3C1
100
AcDbEntity
  8
0
100
AcDbBlockBegin
  2
*D3
 70
     1
 10
0.0
 20
0.0
 30
0.0
  3
*D3
  1

  0
LINE
  5
3C3
330
3C1
100
AcDbEntity
  8
01-01
 62
     4
440
 16777216
370
    -2
100
AcDbLine
 10
196.6156946411771
 20
682.4374913748492
 30
0.0
 11
196.6156946411771
 21
710.1257882732929
 31
0.0
  0
LINE
  5
3C4
330
3C1
100
AcDbEntity
  8
01-01
 62
     4
440
 16777216
370
    -2
100
AcDbLine
 10
494.6156946411771
 20
682.4374913748494
 30
0.0
 11
494.6156946411771
 21
710.1257882732929
 31
0.0
  0
LINE
  5
3C5
330
3C1
100
AcDbEntity
  8
01-01
 62
     4
440
 16777216
370
    -2
100
AcDbLine
 10
209.1156946411771
 20
705.1257882732929
 30
0.0
 11
482.1156946411771
 21
705.1257882732929
 31
0.0
  0
SOLID
  5
3C6
330
3C1
100
AcDbEntity
  8
01-01
 62
     4
440
 16777216
100
AcDbTrace
 10
209.1156946411771
 20
707.2091216066263
 30
0.0
 11
209.1156946411771
 21
703.0424549399596
 31
0.0
 12
196.6156946411771
 22
705.1257882732929
 32
0.0
 13
196.6156946411771
 23
705.1257882732929
 33
0.0
  0
SOLID
  5
3C7
330
3C1
100
AcDbEntity
  8
01-01
 62
     4
440
 16777216
100
AcDbTrace
 10
482.1156946411771
 20
707.2091216066263
 30
0.0
 11
482.1156946411771
 21
703.0424549399596
 31
0.0
 12
494.6156946411771
 22
705.1257882732929
 32
0.0
 13
494.6156946411771
 23
705.1257882732929
 33
0.0
  0
MTEXT
  5
3C8
330
3C1
100
AcDbEntity
  8
01-01
 62
     1
440
 16777216
100
AcDbMText
 10
345.6156946411771
 20
716.3757882732929
 30
0.0
 40
12.5
 41
0.0
 46
0.0
 71
     5
 72
     1
  1
298
  7
SLDTEXTSTYLE1
 73
     1
 44
1.0
  0
POINT
  5
3C9
330
3C1
100
AcDbEntity
  8
DEFPOINTS
 62
     0
440
 16777216
100
AcDbPoint
 10
196.6156946411771
 20
677.4374913748492
 30
0.0
  0
POINT
  5
3CA
330
3C1
100
AcDbEntity
  8
DEFPOINTS
 62
     0
440
 16777216
100
AcDbPoint
 10
494.6156946411771
 20
677.4374913748494
 30
0.0
  0
POINT
  5
3CB
330
3C1
100
AcDbEntity
  8
DEFPOINTS
 62
     0
440
 16777216
100
AcDbPoint
 10
494.6156946411771
 20
705.1257882732929
 30
0.0
  0
ENDBLK
  5
3CC
330
3C1
100
AcDbEntity
  8
0
100
AcDbBlockEnd
  0
BLOCK
  5
37F
330
37E
100
AcDbEntity
  8
0
100
AcDbBlockBegin
  2
*D4
 70
     1
 10
0.0
 20
0.0
 30
0.0
  3
*D4
  1

  0
LINE
  5
380
330
37E
100
AcDbEntity
  8
09-01
 62
     4
440
 16777216
370
    -2
100
AcDbLine
 10
197.5820913780323
 20
1276.511744568016
 30
0.0
 11
197.5820913780323
 21
1326.364120631703
 31
0.0
  0
LINE
  5
381
330
37E
100
AcDbEntity
  8
09-01
 62
     4
440
 16777216
370
    -2
100
AcDbLine
 10
223.0820913780324
 20
1255.011744568016
 30
0.0
 11
223.0820913780324
 21
1326.364120631703
 31
0.0
  0
LINE
  5
382
330
37E
100
AcDbEntity
  8
09-01
 62
     4
440
 16777216
370
    -2
100
AcDbLine
 10
185.0820913780323
 20
1321.364120631703
 30
0.0
 11
172.5820913780323
 21
1321.364120631703
 31
0.0
  0
LINE
  5
383
330
37E
100
AcDbEntity
  8
09-01
 62
     4
440
 16777216
370
    -2
100
AcDbLine
 10
235.5820913780324
 20
1321.364120631703
 30
0.0
 11
248.0820913780324
 21
1321.364120631703
 31
0.0
  0
MTEXT
  5
384
330
37E
100
AcDbEntity
  8
09-01
 62
     1
440
 16777216
100
AcDbMText
 10
163.1820612377615
 20
1338.864120631703
 30
0.0
 40
12.5
 41
0.0
 46
0.0
 71
     5
 72
     1
  1
25.5
  7
SLDTEXTSTYLE1
 73
     1
 44
1.0
  0
LINE
  5
385
330
37E
100
AcDbEntity
  8
09-01
 62
     4
440
 16777216
370
    -2
100
AcDbLine
 10
197.5820913780323
 20
1321.364120631703
 30
0.0
 11
223.0820913780324
 21
1321.364120631703
 31
0.0
  0
SOLID
  5
386
330
37E
100
AcDbEntity
  8
09-01
 62
     4
440
 16777216
100
AcDbTrace
 10
185.0820913780323
 20
1323.447453965036
 30
0.0
 11
185.0820913780323
 21
1319.280787298369
 31
0.0
 12
197.5820913780323
 22
1321.364120631703
 32
0.0
 13
197.5820913780323
 23
1321.364120631703
 33
0.0
  0
SOLID
  5
387
330
37E
100
AcDbEntity
  8
09-01
 62
     4
440
 16777216
100
AcDbTrace
 10
235.5820913780324
 20
1323.447453965036
 30
0.0
 11
235.5820913780324
 21
1319.280787298369
 31
0.0
 12
223.0820913780324
 22
1321.364120631703
 32
0.0
 13
223.0820913780324
 23
1321.364120631703
 33
0.0
  0
POINT
  5
388
330
37E
100
AcDbEntity
  8
DEFPOINTS
 62
     0
440
 16777216
100
AcDbPoint
 10
197.5820913780323
 20
1271.511744568016
 30
0.0
  0
POINT
  5
389
330
37E
100
AcDbEntity
  8
DEFPOINTS
 62
     0
440
 16777216
100
AcDbPoint
 10
223.0820913780324
 20
1250.011744568016
 30
0.0
  0
POINT
  5
38A
330
37E
100
AcDbEntity
  8
DEFPOINTS
 62
     0
440
 16777216
100
AcDbPoint
 10
223.0820913780324
 20
1321.364120631703
 30
0.0
  0
ENDBLK
  5
38B
330
37E
100
AcDbEntity
  8
0
100
AcDbBlockEnd
  0
BLOCK
  5
3D6
330
3D5
100
AcDbEntity
  8
0
100
AcDbBlockBegin
  2
*D5
 70
     1
 10
0.0
 20
0.0
 30
0.0
  3
*D5
  1

  0
LINE
  5
3D7
330
3D5
100
AcDbEntity
  8
09-01
 62
     4
440
 16777216
370
    -2
100
AcDbLine
 10
223.0820913780324
 20
1251.894527191314
 30
0.0
 11
223.0820913780324
 21
1326.364120631703
 31
0.0
  0
LINE
  5
3D8
330
3D5
100
AcDbEntity
  8
09-01
 62
     4
440
 16777216
370
    -2
100
AcDbLine
 10
468.0820913780324
 20
1251.894527191314
 30
0.0
 11
468.0820913780324
 21
1326.364120631703
 31
0.0
  0
LINE
  5
3D9
330
3D5
100
AcDbEntity
  8
09-01
 62
     4
440
 16777216
370
    -2
100
AcDbLine
 10
235.5820913780324
 20
1321.364120631703
 30
0.0
 11
455.5820913780324
 21
1321.364120631703
 31
0.0
  0
SOLID
  5
3DA
330
3D5
100
AcDbEntity
  8
09-01
 62
     4
440
 16777216
100
AcDbTrace
 10
235.5820913780324
 20
1323.447453965036
 30
0.0
 11
235.5820913780324
 21
1319.280787298369
 31
0.0
 12
223.0820913780324
 22
1321.364120631703
 32
0.0
 13
223.0820913780324
 23
1321.364120631703
 33
0.0
  0
SOLID
  5
3DB
330
3D5
100
AcDbEntity
  8
09-01
 62
     4
440
 16777216
100
AcDbTrace
 10
455.5820913780324
 20
1323.447453965036
 30
0.0
 11
455.5820913780324
 21
1319.280787298369
 31
0.0
 12
468.0820913780324
 22
1321.364120631703
 32
0.0
 13
468.0820913780324
 23
1321.364120631703
 33
0.0
  0
MTEXT
  5
3DC
330
3D5
100
AcDbEntity
  8
09-01
 62
     1
440
 16777216
100
AcDbMText
 10
345.5820913780324
 20
1332.614120631703
 30
0.0
 40
12.5
 41
0.0
 46
0.0
 71
     5
 72
     1
  1
245
  7
SLDTEXTSTYLE1
 73
     1
 44
1.0
  0
POINT
  5
3DD
330
3D5
100
AcDbEntity
  8
DEFPOINTS
 62
     0
440
 16777216
100
AcDbPoint
 10
223.0820913780324
 20
1246.894527191314
 30
0.0
  0
POINT
  5
3DE
330
3D5
100
AcDbEntity
  8
DEFPOINTS
 62
     0
440
 16777216
100
AcDbPoint
 10
468.0820913780324
 20
1246.894527191314
 30
0.0
  0
POINT
  5
3DF
330
3D5
100
AcDbEntity
  8
DEFPOINTS
 62
     0
440
 16777216
100
AcDbPoint
 10
468.0820913780324
 20
1321.364120631703
 30
0.0
  0
ENDBLK
  5
3E0
330
3D5
100
AcDbEntity
  8
0
100
AcDbBlockEnd
  0
BLOCK
  5
32B
330
32A
100
AcDbEntity
  8
0
100
AcDbBlockBegin
  2
*D6
 70
     1
 10
0.0
 20
0.0
 30
0.0
  3
*D6
  1

  0
LINE
  5
32C
330
32A
100
AcDbEntity
  8
01-01
 62
     4
440
 16777216
370
    -2
100
AcDbLine
 10
499.6156946411771
 20
677.4374913748494
 30
0.0
 11
559.6011904126121
 21
677.4374913748494
 31
0.0
  0
LINE
  5
32D
330
32A
100
AcDbEntity
  8
01-01
 62
     4
440
 16777216
370
    -2
100
AcDbLine
 10
499.6156946411771
 20
377.4374913748494
 30
0.0
 11
559.6011904126121
 21
377.4374913748494
 31
0.0
  0
LINE
  5
32E
330
32A
100
AcDbEntity
  8
01-01
 62
     4
440
 16777216
370
    -2
100
AcDbLine
 10
554.6011904126121
 20
664.9374913748494
 30
0.0
 11
554.6011904126121
 21
389.9374913748494
 31
0.0
  0
SOLID
  5
32F
330
32A
100
AcDbEntity
  8
01-01
 62
     4
440
 16777216
100
AcDbTrace
 10
552.5178570792787
 20
664.9374913748494
 30
0.0
 11
556.6845237459455
 21
664.9374913748494
 31
0.0
 12
554.6011904126121
 22
677.4374913748494
 32
0.0
 13
554.6011904126121
 23
677.4374913748494
 33
0.0
  0
SOLID
  5
330
330
32A
100
AcDbEntity
  8
01-01
 62
     4
440
 16777216
100
AcDbTrace
 10
552.5178570792787
 20
389.9374913748494
 30
0.0
 11
556.6845237459455
 21
389.9374913748494
 31
0.0
 12
554.6011904126121
 22
377.4374913748494
 32
0.0
 13
554.6011904126121
 23
377.4374913748494
 33
0.0
  0
MTEXT
  5
331
330
32A
100
AcDbEntity
  8
01-01
 62
     1
440
 16777216
100
AcDbMText
 10
543.3511904126119
 20
527.4374913748495
 30
0.0
 40
12.5
 41
0.0
 46
0.0
 71
     5
 72
     1
  1
300
  7
SLDTEXTSTYLE1
 11
0.0000000000000001
 21
1.0
 31
0.0
 73
     1
 44
1.0
  0
POINT
  5
332
330
32A
100
AcDbEntity
  8
DEFPOINTS
 62
     0
440
 16777216
100
AcDbPoint
 10
494.6156946411771
 20
677.4374913748494
 30
0.0
  0
POINT
  5
333
330
32A
100
AcDbEntity
  8
DEFPOINTS
 62
     0
440
 16777216
100
AcDbPoint
 10
494.6156946411771
 20
377.4374913748494
 30
0.0
  0
POINT
  5
334
330
32A
100
AcDbEntity
  8
DEFPOINTS
 62
     0
440
 16777216
100
AcDbPoint
 10
554.6011904126121
 20
377.4374913748494
 30
0.0
  0
ENDBLK
  5
335
330
32A
100
AcDbEntity
  8
0
100
AcDbBlockEnd
  0
BLOCK
  5
338
330
337
100
AcDbEntity
  8
0
100
AcDbBlockBegin
  2
*D7
 70
     1
 10
0.0
 20
0.0
 30
0.0
  3
*D7
  1

  0
LINE
  5
339
330
337
100
AcDbEntity
  8
01-01
 62
     4
440
 16777216
370
    -2
100
AcDbLine
 10
498.6156946411771
 20
367.4374913748494
 30
0.0
 11
559.6011904126121
 21
367.4374913748494
 31
0.0
  0
LINE
  5
33A
330
337
100
AcDbEntity
  8
01-01
 62
     4
440
 16777216
370
    -2
100
AcDbLine
 10
499.6156946411771
 20
377.4374913748494
 30
0.0
 11
559.6011904126121
 21
377.4374913748494
 31
0.0
  0
LINE
  5
33B
330
337
100
AcDbEntity
  8
01-01
 62
     4
440
 16777216
370
    -2
100
AcDbLine
 10
554.6011904126121
 20
354.9374913748494
 30
0.0
 11
554.6011904126121
 21
342.4374913748494
 31
0.0
  0
LINE
  5
33C
330
337
100
AcDbEntity
  8
01-01
 62
     4
440
 16777216
370
    -2
100
AcDbLine
 10
554.6011904126121
 20
389.9374913748494
 30
0.0
 11
554.6011904126121
 21
402.4374913748493
 31
0.0
  0
MTEXT
  5
33D
330
337
100
AcDbEntity
  8
01-01
 62
     1
440
 16777216
100
AcDbMText
 10
537.1046545168724
 20
351.5538998496999
 30
0.0
 40
12.5
 41
0.0
 46
0.0
 71
     5
 72
     1
  1
10
  7
SLDTEXTSTYLE1
 11
0.0000000000000001
 21
1.0
 31
0.0
 73
     1
 44
1.0
  0
LINE
  5
33E
330
337
100
AcDbEntity
  8
01-01
 62
     4
440
 16777216
370
    -2
100
AcDbLine
 10
554.6011904126121
 20
367.4374913748494
 30
0.0
 11
554.6011904126121
 21
377.4374913748494
 31
0.0
  0
SOLID
  5
33F
330
337
100
AcDbEntity
  8
01-01
 62
     4
440
 16777216
100
AcDbTrace
 10
552.5178570792787
 20
354.9374913748494
 30
0.0
 11
556.6845237459455
 21
354.9374913748494
 31
0.0
 12
554.6011904126121
 22
367.4374913748494
 32
0.0
 13
554.6011904126121
 23
367.4374913748494
 33
0.0
  0
SOLID
  5
340
330
337
100
AcDbEntity
  8
01-01
 62
     4
440
 16777216
100
AcDbTrace
 10
552.5178570792787
 20
389.9374913748494
 30
0.0
 11
556.6845237459455
 21
389.9374913748494
 31
0.0
 12
554.6011904126121
 22
377.4374913748494
 32
0.0
 13
554.6011904126121
 23
377.4374913748494
 33
0.0
  0
POINT
  5
341
330
337
100
AcDbEntity
  8
DEFPOINTS
 62
     0
440
 16777216
100
AcDbPoint
 10
493.6156946411771
 20
367.4374913748494
 30
0.0
  0
POINT
  5
342
330
337
100
AcDbEntity
  8
DEFPOINTS
 62
     0
440
 16777216
100
AcDbPoint
 10
494.6156946411771
 20
377.4374913748494
 30
0.0
  0
POINT
  5
343
330
337
100
AcDbEntity
  8
DEFPOINTS
 62
     0
440
 16777216
100
AcDbPoint
 10
554.6011904126121
 20
377.4374913748494
 30
0.0
  0
ENDBLK
  5
344
330
337
100
AcDbEntity
  8
0
100
AcDbBlockEnd
  0
BLOCK
  5
347
330
346
100
AcDbEntity
  8
0
100
AcDbBlockBegin
  2
*D8
 70
     1
 10
0.0
 20
0.0
 30
0.0
  3
*D8
  1

  0
LINE
  5
348
330
346
100
AcDbEntity
  8
09-01
 62
     4
440
 16777216
370
    -2
100
AcDbLine
 10
620.4695613207864
 20
1277.549454312471
 30
0.0
 11
620.4695613207864
 21
1328.699317412525
 31
0.0
  0
LINE
  5
349
330
346
100
AcDbEntity
  8
09-01
 62
     4
440
 16777216
370
    -2
100
AcDbLine
 10
920.4695613207864
 20
1277.549454312471
 30
0.0
 11
920.4695613207864
 21
1328.699317412525
 31
0.0
  0
LINE
  5
34A
330
346
100
AcDbEntity
  8
09-01
 62
     4
440
 16777216
370
    -2
100
AcDbLine
 10
632.9695613207864
 20
1323.699317412525
 30
0.0
 11
907.9695613207864
 21
1323.699317412525
 31
0.0
  0
SOLID
  5
34B
330
346
100
AcDbEntity
  8
09-01
 62
     4
440
 16777216
100
AcDbTrace
 10
632.9695613207864
 20
1325.782650745858
 30
0.0
 11
632.9695613207864
 21
1321.615984079192
 31
0.0
 12
620.4695613207864
 22
1323.699317412525
 32
0.0
 13
620.4695613207864
 23
1323.699317412525
 33
0.0
  0
SOLID
  5
34C
330
346
100
AcDbEntity
  8
09-01
 62
     4
440
 16777216
100
AcDbTrace
 10
907.9695613207864
 20
1325.782650745858
 30
0.0
 11
907.9695613207864
 21
1321.615984079192
 31
0.0
 12
920.4695613207864
 22
1323.699317412525
 32
0.0
 13
920.4695613207864
 23
1323.699317412525
 33
0.0
  0
MTEXT
  5
34D
330
346
100
AcDbEntity
  8
09-01
 62
     1
440
 16777216
100
AcDbMText
 10
770.4695613207864
 20
1334.949317412525
 30
0.0
 40
12.5
 41
0.0
 46
0.0
 71
     5
 72
     1
  1
300
  7
SLDTEXTSTYLE1
 73
     1
 44
1.0
  0
POINT
  5
34E
330
346
100
AcDbEntity
  8
DEFPOINTS
 62
     0
440
 16777216
100
AcDbPoint
 10
620.4695613207864
 20
1272.54945431247
 30
0.0
  0
POINT
  5
34F
330
346
100
AcDbEntity
  8
DEFPOINTS
 62
     0
440
 16777216
100
AcDbPoint
 10
920.4695613207864
 20
1272.54945431247
 30
0.0
  0
POINT
  5
350
330
346
100
AcDbEntity
  8
DEFPOINTS
 62
     0
440
 16777216
100
AcDbPoint
 10
920.4695613207864
 20
1323.699317412525
 30
0.0
  0
ENDBLK
  5
351
330
346
100
AcDbEntity
  8
0
100
AcDbBlockEnd
  0
BLOCK
  5
404
330
403
100
AcDbEntity
  8
0
100
AcDbBlockBegin
  2
*D9
 70
     1
 10
0.0
 20
0.0
 30
0.0
  3
*D9
  1

  0
LINE
  5
405
330
403
100
AcDbEntity
  8
01-01
 62
     4
440
 16777216
370
    -2
100
AcDbLine
 10
620.4695613207864
 20
1277.549454312471
 30
0.0
 11
620.4695613207864
 21
1375.488258500461
 31
0.0
  0
LINE
  5
406
330
403
100
AcDbEntity
  8
01-01
 62
     4
440
 16777216
370
    -2
100
AcDbLine
 10
930.4695613207863
 20
1276.04945431247
 30
0.0
 11
930.4695613207863
 21
1375.488258500461
 31
0.0
  0
LINE
  5
407
330
403
100
AcDbEntity
  8
01-01
 62
     4
440
 16777216
370
    -2
100
AcDbLine
 10
632.9695613207864
 20
1370.488258500461
 30
0.0
 11
917.9695613207863
 21
1370.488258500461
 31
0.0
  0
SOLID
  5
408
330
403
100
AcDbEntity
  8
01-01
 62
     4
440
 16777216
100
AcDbTrace
 10
632.9695613207864
 20
1372.571591833794
 30
0.0
 11
632.9695613207864
 21
1368.404925167128
 31
0.0
 12
620.4695613207864
 22
1370.488258500461
 32
0.0
 13
620.4695613207864
 23
1370.488258500461
 33
0.0
  0
SOLID
  5
409
330
403
100
AcDbEntity
  8
01-01
 62
     4
440
 16777216
100
AcDbTrace
 10
917.9695613207863
 20
1372.571591833794
 30
0.0
 11
917.9695613207863
 21
1368.404925167128
 31
0.0
 12
930.4695613207863
 22
1370.488258500461
 32
0.0
 13
930.4695613207863
 23
1370.488258500461
 33
0.0
  0
MTEXT
  5
40A
330
403
100
AcDbEntity
  8
01-01
 62
     1
440
 16777216
100
AcDbMText
 10
775.4695613207863
 20
1381.738258500461
 30
0.0
 40
12.5
 41
0.0
 46
0.0
 71
     5
 72
     1
  1
310
  7
SLDTEXTSTYLE1
 73
     1
 44
1.0
  0
POINT
  5
40B
330
403
100
AcDbEntity
  8
DEFPOINTS
 62
     0
440
 16777216
100
AcDbPoint
 10
620.4695613207864
 20
1272.54945431247
 30
0.0
  0
POINT
  5
40C
330
403
100
AcDbEntity
  8
DEFPOINTS
 62
     0
440
 16777216
100
AcDbPoint
 10
930.4695613207863
 20
1271.04945431247
 30
0.0
  0
POINT
  5
40D
330
403
100
AcDbEntity
  8
DEFPOINTS
 62
     0
440
 16777216
100
AcDbPoint
 10
930.4695613207863
 20
1370.488258500461
 30
0.0
  0
ENDBLK
  5
40E
330
403
100
AcDbEntity
  8
0
100
AcDbBlockEnd
  0
BLOCK
  5
393
330
392
100
AcDbEntity
  8
0
100
AcDbBlockBegin
  2
*D10
 70
     1
 10
0.0
 20
0.0
 30
0.0
  3
*D10
  1

  0
LINE
  5
394
330
392
100
AcDbEntity
  8
01-01
 62
     4
440
 16777216
370
    -2
100
AcDbLine
 10
499.5820913780323
 20
824.5117445680163
 30
0.0
 11
585.204572355169
 21
824.5117445680163
 31
0.0
  0
LINE
  5
395
330
392
100
AcDbEntity
  8
01-01
 62
     4
440
 16777216
370
    -2
100
AcDbLine
 10
499.5820913780323
 20
1272.511744568016
 30
0.0
 11
585.204572355169
 21
1272.511744568016
 31
0.0
  0
LINE
  5
396
330
392
100
AcDbEntity
  8
01-01
 62
     4
440
 16777216
370
    -2
100
AcDbLine
 10
580.204572355169
 20
837.0117445680163
 30
0.0
 11
580.204572355169
 21
1260.011744568016
 31
0.0
  0
SOLID
  5
397
330
392
100
AcDbEntity
  8
01-01
 62
     4
440
 16777216
100
AcDbTrace
 10
578.1212390218356
 20
837.0117445680163
 30
0.0
 11
582.2879056885024
 21
837.0117445680163
 31
0.0
 12
580.204572355169
 22
824.5117445680163
 32
0.0
 13
580.204572355169
 23
824.5117445680163
 33
0.0
  0
SOLID
  5
398
330
392
100
AcDbEntity
  8
01-01
 62
     4
440
 16777216
100
AcDbTrace
 10
578.1212390218356
 20
1260.011744568016
 30
0.0
 11
582.2879056885024
 21
1260.011744568016
 31
0.0
 12
580.204572355169
 22
1272.511744568016
 32
0.0
 13
580.204572355169
 23
1272.511744568016
 33
0.0
  0
MTEXT
  5
399
330
392
100
AcDbEntity
  8
01-01
 62
     1
440
 16777216
100
AcDbMText
 10
568.9545723551689
 20
1048.511744568016
 30
0.0
 40
12.5
 41
0.0
 46
0.0
 71
     5
 72
     1
  1
448
  7
SLDTEXTSTYLE1
 11
0.0000000000000001
 21
1.0
 31
0.0
 73
     1
 44
1.0
  0
POINT
  5
39A
330
392
100
AcDbEntity
  8
DEFPOINTS
 62
     0
440
 16777216
100
AcDbPoint
 10
494.5820913780323
 20
824.5117445680163
 30
0.0
  0
POINT
  5
39B
330
392
100
AcDbEntity
  8
DEFPOINTS
 62
     0
440
 16777216
100
AcDbPoint
 10
494.5820913780323
 20
1272.511744568016
 30
0.0
  0
POINT
  5
39C
330
392
100
AcDbEntity
  8
DEFPOINTS
 62
     0
440
 16777216
100
AcDbPoint
 10
580.204572355169
 20
1272.511744568016
 30
0.0
  0
ENDBLK
  5
39D
330
392
100
AcDbEntity
  8
0
100
AcDbBlockEnd
  0
BLOCK
  5
30D
330
30C
100
AcDbEntity
  8
0
100
AcDbBlockBegin
  2
*D11
 70
     1
 10
0.0
 20
0.0
 30
0.0
  3
*D11
  1

  0
LINE
  5
30E
330
30C
100
AcDbEntity
  8
09-01
 62
     4
440
 16777216
370
    -2
100
AcDbLine
 10
935.4695613207862
 20
1271.54945431247
 30
0.0
 11
975.1915992979578
 21
1271.54945431247
 31
0.0
  0
LINE
  5
30F
330
30C
100
AcDbEntity
  8
09-01
 62
     4
440
 16777216
370
    -2
100
AcDbLine
 10
935.4695613207864
 20
825.5494543124708
 30
0.0
 11
975.1915992979578
 21
825.5494543124708
 31
0.0
  0
LINE
  5
310
330
30C
100
AcDbEntity
  8
09-01
 62
     4
440
 16777216
370
    -2
100
AcDbLine
 10
970.1915992979579
 20
1259.04945431247
 30
0.0
 11
970.1915992979579
 21
838.0494543124708
 31
0.0
  0
SOLID
  5
311
330
30C
100
AcDbEntity
  8
09-01
 62
     4
440
 16777216
100
AcDbTrace
 10
968.1082659646245
 20
1259.04945431247
 30
0.0
 11
972.2749326312912
 21
1259.04945431247
 31
0.0
 12
970.1915992979579
 22
1271.54945431247
 32
0.0
 13
970.1915992979579
 23
1271.54945431247
 33
0.0
  0
SOLID
  5
312
330
30C
100
AcDbEntity
  8
09-01
 62
     4
440
 16777216
100
AcDbTrace
 10
968.1082659646245
 20
838.0494543124708
 30
0.0
 11
972.2749326312912
 21
838.0494543124708
 31
0.0
 12
970.1915992979579
 22
825.5494543124708
 32
0.0
 13
970.1915992979579
 23
825.5494543124708
 33
0.0
  0
MTEXT
  5
313
330
30C
100
AcDbEntity
  8
09-01
 62
     1
440
 16777216
100
AcDbMText
 10
958.9415992979578
 20
1048.549454312471
 30
0.0
 40
12.5
 41
0.0
 46
0.0
 71
     5
 72
     1
  1
446
  7
SLDTEXTSTYLE1
 11
0.0000000000000001
 21
1.0
 31
0.0
 73
     1
 44
1.0
  0
POINT
  5
314
330
30C
100
AcDbEntity
  8
DEFPOINTS
 62
     0
440
 16777216
100
AcDbPoint
 10
930.4695613207863
 20
1271.54945431247
 30
0.0
  0
POINT
  5
315
330
30C
100
AcDbEntity
  8
DEFPOINTS
 62
     0
440
 16777216
100
AcDbPoint
 10
930.4695613207863
 20
825.5494543124708
 30
0.0
  0
POINT
  5
316
330
30C
100
AcDbEntity
  8
DEFPOINTS
 62
     0
440
 16777216
100
AcDbPoint
 10
970.1915992979579
 20
825.5494543124708
 30
0.0
  0
ENDBLK
  5
317
330
30C
100
AcDbEntity
  8
0
100
AcDbBlockEnd
  0
BLOCK
  5
31A
330
319
100
AcDbEntity
  8
0
100
AcDbBlockBegin
  2
*D12
 70
     1
 10
0.0
 20
0.0
 30
0.0
  3
*D12
  1

  0
LINE
  5
31B
330
319
100
AcDbEntity
  8
09-01
 62
     4
440
 16777216
370
    -2
100
AcDbLine
 10
925.4695613207864
 20
825.5494543124708
 30
0.0
 11
975.1915992979578
 21
825.5494543124708
 31
0.0
  0
LINE
  5
31C
330
319
100
AcDbEntity
  8
09-01
 62
     4
440
 16777216
370
    -2
100
AcDbLine
 10
925.4695613207864
 20
824.5494543124706
 30
0.0
 11
975.1915992979578
 21
824.5494543124706
 31
0.0
  0
LINE
  5
31D
330
319
100
AcDbEntity
  8
09-01
 62
     4
440
 16777216
370
    -2
100
AcDbLine
 10
970.1915992979579
 20
838.0494543124708
 30
0.0
 11
970.1915992979579
 21
850.5494543124708
 31
0.0
  0
LINE
  5
31E
330
319
100
AcDbEntity
  8
09-01
 62
     4
440
 16777216
370
    -2
100
AcDbLine
 10
970.1915992979579
 20
812.0494543124706
 30
0.0
 11
970.1915992979579
 21
799.5494543124707
 31
0.0
  0
MTEXT
  5
31F
330
319
100
AcDbEntity
  8
09-01
 62
     1
440
 16777216
100
AcDbMText
 10
952.6915992979578
 20
809.5288877183635
 30
0.0
 40
12.5
 41
0.0
 46
0.0
 71
     5
 72
     1
  1
1
  7
SLDTEXTSTYLE1
 11
0.0000000000000001
 21
1.0
 31
0.0
 73
     1
 44
1.0
  0
LINE
  5
320
330
319
100
AcDbEntity
  8
09-01
 62
     4
440
 16777216
370
    -2
100
AcDbLine
 10
970.1915992979579
 20
825.5494543124708
 30
0.0
 11
970.1915992979579
 21
824.5494543124706
 31
0.0
  0
SOLID
  5
321
330
319
100
AcDbEntity
  8
09-01
 62
     4
440
 16777216
100
AcDbTrace
 10
968.1082659646245
 20
838.0494543124708
 30
0.0
 11
972.2749326312912
 21
838.0494543124708
 31
0.0
 12
970.1915992979579
 22
825.5494543124708
 32
0.0
 13
970.1915992979579
 23
825.5494543124708
 33
0.0
  0
SOLID
  5
322
330
319
100
AcDbEntity
  8
09-01
 62
     4
440
 16777216
100
AcDbTrace
 10
968.1082659646245
 20
812.0494543124706
 30
0.0
 11
972.2749326312912
 21
812.0494543124706
 31
0.0
 12
970.1915992979579
 22
824.5494543124706
 32
0.0
 13
970.1915992979579
 23
824.5494543124706
 33
0.0
  0
POINT
  5
323
330
319
100
AcDbEntity
  8
DEFPOINTS
 62
     0
440
 16777216
100
AcDbPoint
 10
920.4695613207864
 20
825.5494543124708
 30
0.0
  0
POINT
  5
324
330
319
100
AcDbEntity
  8
DEFPOINTS
 62
     0
440
 16777216
100
AcDbPoint
 10
920.4695613207864
 20
824.5494543124706
 30
0.0
  0
POINT
  5
325
330
319
100
AcDbEntity
  8
DEFPOINTS
 62
     0
440
 16777216
100
AcDbPoint
 10
970.1915992979579
 20
824.5494543124706
 30
0.0
  0
ENDBLK
  5
326
330
319
100
AcDbEntity
  8
0
100
AcDbBlockEnd
  0
BLOCK
  5
3F5
330
3F4
100
AcDbEntity
  8
0
100
AcDbBlockBegin
  2
*D13
 70
     1
 10
0.0
 20
0.0
 30
0.0
  3
*D13
  1

  0
LINE
  5
3F6
330
3F4
100
AcDbEntity
  8
09-01
 62
     4
440
 16777216
370
    -2
100
AcDbLine
 10
920.4695613207864
 20
1277.549454312471
 30
0.0
 11
920.4695613207864
 21
1328.699317412525
 31
0.0
  0
LINE
  5
3F7
330
3F4
100
AcDbEntity
  8
09-01
 62
     4
440
 16777216
370
    -2
100
AcDbLine
 10
930.4695613207863
 20
1276.04945431247
 30
0.0
 11
930.4695613207863
 21
1328.699317412525
 31
0.0
  0
LINE
  5
3F8
330
3F4
100
AcDbEntity
  8
09-01
 62
     4
440
 16777216
370
    -2
100
AcDbLine
 10
907.9695613207864
 20
1323.699317412525
 30
0.0
 11
895.4695613207864
 21
1323.699317412525
 31
0.0
  0
LINE
  5
3F9
330
3F4
100
AcDbEntity
  8
09-01
 62
     4
440
 16777216
370
    -2
100
AcDbLine
 10
942.9695613207863
 20
1323.699317412525
 30
0.0
 11
955.4695613207863
 21
1323.699317412525
 31
0.0
  0
MTEXT
  5
3FA
330
3F4
100
AcDbEntity
  8
09-01
 62
     1
440
 16777216
100
AcDbMText
 10
970.0379169669265
 20
1344.616726857607
 30
0.0
 40
12.5
 41
0.0
 46
0.0
 71
     5
 72
     1
  1
10
  7
SLDTEXTSTYLE1
 73
     1
 44
1.0
  0
LINE
  5
3FB
330
3F4
100
AcDbEntity
  8
09-01
 62
     4
440
 16777216
370
    -2
100
AcDbLine
 10
920.4695613207864
 20
1323.699317412525
 30
0.0
 11
930.4695613207863
 21
1323.699317412525
 31
0.0
  0
SOLID
  5
3FC
330
3F4
100
AcDbEntity
  8
09-01
 62
     4
440
 16777216
100
AcDbTrace
 10
907.9695613207864
 20
1325.782650745858
 30
0.0
 11
907.9695613207864
 21
1321.615984079192
 31
0.0
 12
920.4695613207864
 22
1323.699317412525
 32
0.0
 13
920.4695613207864
 23
1323.699317412525
 33
0.0
  0
SOLID
  5
3FD
330
3F4
100
AcDbEntity
  8
09-01
 62
     4
440
 16777216
100
AcDbTrace
 10
942.9695613207863
 20
1325.782650745858
 30
0.0
 11
942.9695613207863
 21
1321.615984079192
 31
0.0
 12
930.4695613207863
 22
1323.699317412525
 32
0.0
 13
930.4695613207863
 23
1323.699317412525
 33
0.0
  0
POINT
  5
3FE
330
3F4
100
AcDbEntity
  8
DEFPOINTS
 62
     0
440
 16777216
100
AcDbPoint
 10
920.4695613207864
 20
1272.54945431247
 30
0.0
  0
POINT
  5
3FF
330
3F4
100
AcDbEntity
  8
DEFPOINTS
 62
     0
440
 16777216
100
AcDbPoint
 10
930.4695613207863
 20
1271.04945431247
 30
0.0
  0
POINT
  5
400
330
3F4
100
AcDbEntity
  8
DEFPOINTS
 62
     0
440
 16777216
100
AcDbPoint
 10
930.4695613207863
 20
1323.699317412525
 30
0.0
  0
ENDBLK
  5
401
330
3F4
100
AcDbEntity
  8
0
100
AcDbBlockEnd
  0
BLOCK
  5
2FE
330
2FD
100
AcDbEntity
  8
0
100
AcDbBlockBegin
  2
*D14
 70
     1
 10
0.0
 20
0.0
 30
0.0
  3
*D14
  1

  0
LINE
  5
2FF
330
2FD
100
AcDbEntity
  8
09-01
 62
     4
440
 16777216
370
    -2
100
AcDbLine
 10
925.4695613207864
 20
1272.54945431247
 30
0.0
 11
975.1915992979578
 21
1272.54945431247
 31
0.0
  0
LINE
  5
300
330
2FD
100
AcDbEntity
  8
09-01
 62
     4
440
 16777216
370
    -2
100
AcDbLine
 10
935.4695613207862
 20
1271.54945431247
 30
0.0
 11
975.1915992979578
 21
1271.54945431247
 31
0.0
  0
LINE
  5
301
330
2FD
100
AcDbEntity
  8
09-01
 62
     4
440
 16777216
370
    -2
100
AcDbLine
 10
970.1915992979579
 20
1285.04945431247
 30
0.0
 11
970.1915992979579
 21
1297.54945431247
 31
0.0
  0
LINE
  5
302
330
2FD
100
AcDbEntity
  8
09-01
 62
     4
440
 16777216
370
    -2
100
AcDbLine
 10
970.1915992979579
 20
1259.04945431247
 30
0.0
 11
970.1915992979579
 21
1246.54945431247
 31
0.0
  0
MTEXT
  5
303
330
2FD
100
AcDbEntity
  8
09-01
 62
     1
440
 16777216
100
AcDbMText
 10
952.6915992979578
 20
1289.99767207762
 30
0.0
 40
12.5
 41
0.0
 46
0.0
 71
     5
 72
     1
  1
1
  7
SLDTEXTSTYLE1
 11
0.0000000000000001
 21
1.0
 31
0.0
 73
     1
 44
1.0
  0
LINE
  5
304
330
2FD
100
AcDbEntity
  8
09-01
 62
     4
440
 16777216
370
    -2
100
AcDbLine
 10
970.1915992979579
 20
1272.54945431247
 30
0.0
 11
970.1915992979579
 21
1271.54945431247
 31
0.0
  0
SOLID
  5
305
330
2FD
100
AcDbEntity
  8
09-01
 62
     4
440
 16777216
100
AcDbTrace
 10
968.1082659646246
 20
1285.04945431247
 30
0.0
 11
972.2749326312912
 21
1285.04945431247
 31
0.0
 12
970.1915992979579
 22
1272.54945431247
 32
0.0
 13
970.1915992979579
 23
1272.54945431247
 33
0.0
  0
SOLID
  5
306
330
2FD
100
AcDbEntity
  8
09-01
 62
     4
440
 16777216
100
AcDbTrace
 10
968.1082659646245
 20
1259.04945431247
 30
0.0
 11
972.2749326312912
 21
1259.04945431247
 31
0.0
 12
970.1915992979579
 22
1271.54945431247
 32
0.0
 13
970.1915992979579
 23
1271.54945431247
 33
0.0
  0
POINT
  5
307
330
2FD
100
AcDbEntity
  8
DEFPOINTS
 62
     0
440
 16777216
100
AcDbPoint
 10
920.4695613207864
 20
1272.54945431247
 30
0.0
  0
POINT
  5
308
330
2FD
100
AcDbEntity
  8
DEFPOINTS
 62
     0
440
 16777216
100
AcDbPoint
 10
930.4695613207863
 20
1271.54945431247
 30
0.0
  0
POINT
  5
309
330
2FD
100
AcDbEntity
  8
DEFPOINTS
 62
     0
440
 16777216
100
AcDbPoint
 10
970.1915992979579
 20
1271.54945431247
 30
0.0
  0
ENDBLK
  5
30A
330
2FD
100
AcDbEntity
  8
0
100
AcDbBlockEnd
  0
BLOCK
  5
3A2
330
3A1
100
AcDbEntity
  8
0
100
AcDbBlockBegin
  2
*D15
 70
     1
 10
0.0
 20
0.0
 30
0.0
  3
*D15
  1

  0
LINE
  5
3A3
330
3A1
100
AcDbEntity
  8
09-01
 62
     4
440
 16777216
370
    -2
100
AcDbLine
 10
218.0820913780324
 20
1250.011744568016
 30
0.0
 11
153.2313086207629
 21
1250.011744568016
 31
0.0
  0
LINE
  5
3A4
330
3A1
100
AcDbEntity
  8
09-01
 62
     4
440
 16777216
370
    -2
100
AcDbLine
 10
218.0820913780324
 20
1127.012156496907
 30
0.0
 11
153.2313086207628
 21
1127.012156496907
 31
0.0
  0
LINE
  5
3A5
330
3A1
100
AcDbEntity
  8
09-01
 62
     4
440
 16777216
370
    -2
100
AcDbLine
 10
158.2313086207629
 20
1237.511744568016
 30
0.0
 11
158.2313086207628
 21
1139.512156496907
 31
0.0
  0
SOLID
  5
3A6
330
3A1
100
AcDbEntity
  8
09-01
 62
     4
440
 16777216
100
AcDbTrace
 10
156.1479752874295
 20
1237.511744568016
 30
0.0
 11
160.3146419540962
 21
1237.511744568016
 31
0.0
 12
158.2313086207629
 22
1250.011744568016
 32
0.0
 13
158.2313086207629
 23
1250.011744568016
 33
0.0
  0
SOLID
  5
3A7
330
3A1
100
AcDbEntity
  8
09-01
 62
     4
440
 16777216
100
AcDbTrace
 10
156.1479752874295
 20
1139.512156496907
 30
0.0
 11
160.3146419540962
 21
1139.512156496907
 31
0.0
 12
158.2313086207628
 22
1127.012156496907
 32
0.0
 13
158.2313086207628
 23
1127.012156496907
 33
0.0
  0
MTEXT
  5
3A8
330
3A1
100
AcDbEntity
  8
09-01
 62
     1
440
 16777216
100
AcDbMText
 10
146.9813086207627
 20
1188.511950532461
 30
0.0
 40
12.5
 41
0.0
 46
0.0
 71
     5
 72
     1
  1
123
  7
SLDTEXTSTYLE1
 11
0.0000000000000001
 21
1.0
 31
0.0
 73
     1
 44
1.0
  0
POINT
  5
3A9
330
3A1
100
AcDbEntity
  8
DEFPOINTS
 62
     0
440
 16777216
100
AcDbPoint
 10
223.0820913780324
 20
1250.011744568016
 30
0.0
  0
POINT
  5
3AA
330
3A1
100
AcDbEntity
  8
DEFPOINTS
 62
     0
440
 16777216
100
AcDbPoint
 10
223.0820913780324
 20
1127.012156496907
 30
0.0
  0
POINT
  5
3AB
330
3A1
100
AcDbEntity
  8
DEFPOINTS
 62
     0
440
 16777216
100
AcDbPoint
 10
158.2313086207628
 20
1127.012156496907
 30
0.0
  0
ENDBLK
  5
3AC
330
3A1
100
AcDbEntity
  8
0
100
AcDbBlockEnd
  0
BLOCK
  5
3B0
330
3AF
100
AcDbEntity
  8
0
100
AcDbBlockBegin
  2
*D16
 70
     1
 10
0.0
 20
0.0
 30
0.0
  3
*D16
  1

  0
LINE
  5
3B1
330
3AF
100
AcDbEntity
  8
09-01
 62
     4
440
 16777216
370
    -2
100
AcDbLine
 10
193.0820913780324
 20
1271.011744568016
 30
0.0
 11
153.2313086207628
 21
1271.011744568016
 31
0.0
  0
LINE
  5
3B2
330
3AF
100
AcDbEntity
  8
09-01
 62
     4
440
 16777216
370
    -2
100
AcDbLine
 10
218.0820913780324
 20
1250.011744568016
 30
0.0
 11
153.2313086207628
 21
1250.011744568016
 31
0.0
  0
LINE
  5
3B3
330
3AF
100
AcDbEntity
  8
09-01
 62
     4
440
 16777216
370
    -2
100
AcDbLine
 10
158.2313086207628
 20
1283.511744568016
 30
0.0
 11
158.2313086207628
 21
1296.011744568016
 31
0.0
  0
LINE
  5
3B4
330
3AF
100
AcDbEntity
  8
09-01
 62
     4
440
 16777216
370
    -2
100
AcDbLine
 10
158.2313086207628
 20
1237.511744568016
 30
0.0
 11
158.2313086207628
 21
1225.011744568016
 31
0.0
  0
MTEXT
  5
3B5
330
3AF
100
AcDbEntity
  8
09-01
 62
     1
440
 16777216
100
AcDbMText
 10
140.7313086207628
 20
1295.233209969115
 30
0.0
 40
12.5
 41
0.0
 46
0.0
 71
     5
 72
     1
  1
21
  7
SLDTEXTSTYLE1
 11
0.0000000000000001
 21
1.0
 31
0.0
 73
     1
 44
1.0
  0
LINE
  5
3B6
330
3AF
100
AcDbEntity
  8
09-01
 62
     4
440
 16777216
370
    -2
100
AcDbLine
 10
158.2313086207628
 20
1271.011744568016
 30
0.0
 11
158.2313086207628
 21
1250.011744568016
 31
0.0
  0
SOLID
  5
3B7
330
3AF
100
AcDbEntity
  8
09-01
 62
     4
440
 16777216
100
AcDbTrace
 10
156.1479752874295
 20
1283.511744568016
 30
0.0
 11
160.3146419540962
 21
1283.511744568016
 31
0.0
 12
158.2313086207628
 22
1271.011744568016
 32
0.0
 13
158.2313086207628
 23
1271.011744568016
 33
0.0
  0
SOLID
  5
3B8
330
3AF
100
AcDbEntity
  8
09-01
 62
     4
440
 16777216
100
AcDbTrace
 10
156.1479752874295
 20
1237.511744568016
 30
0.0
 11
160.3146419540962
 21
1237.511744568016
 31
0.0
 12
158.2313086207628
 22
1250.011744568016
 32
0.0
 13
158.2313086207628
 23
1250.011744568016
 33
0.0
  0
POINT
  5
3B9
330
3AF
100
AcDbEntity
  8
DEFPOINTS
 62
     0
440
 16777216
100
AcDbPoint
 10
198.0820913780324
 20
1271.011744568016
 30
0.0
  0
POINT
  5
3BA
330
3AF
100
AcDbEntity
  8
DEFPOINTS
 62
     0
440
 16777216
100
AcDbPoint
 10
223.0820913780324
 20
1250.011744568016
 30
0.0
  0
POINT
  5
3BB
330
3AF
100
AcDbEntity
  8
DEFPOINTS
 62
     0
440
 16777216
100
AcDbPoint
 10
158.2313086207628
 20
1250.011744568016
 30
0.0
  0
ENDBLK
  5
3BC
330
3AF
100
AcDbEntity
  8
0
100
AcDbBlockEnd
  0
BLOCK
  5
FF
330
FC
100
AcDbEntity
  8
0
100
AcDbBlockBegin
  2
DIN A4
 70
     2
 10
0.0
 20
0.0
 30
0.0
  3
DIN A4
  1

  0
LINE
  5
100
330
FC
100
AcDbEntity
  8
01-99
100
AcDbLine
 10
204.0000075739527
 20
290.9999979434973
 30
0.0
 11
20.0000075739529
 21
290.9999979434973
 31
0.0
  0
LINE
  5
104
330
FC
100
AcDbEntity
  8
01-99
100
AcDbLine
 10
204.0000075122353
 20
290.9999979871026
 30
0.0
 11
204.0000075122355
 21
5.999997987102574
 31
0.0
  0
LINE
  5
105
330
FC
100
AcDbEntity
  8
01-99
100
AcDbLine
 10
20.0000075122355
 20
5.99999798710246
 30
0.0
 11
20.0000075122355
 21
290.9999979871026
 31
0.0
  0
LWPOLYLINE
  5
106
330
FC
100
AcDbEntity
  8
02-99
100
AcDbPolyline
 90
        4
 70
     1
 43
0.0
 10
0.0000075122354986
 20
-0.0000020128974256
 10
210.0000075122355
 20
-0.0000020128974256
 10
210.0000075122355
 20
296.9999979871026
 10
0.0000075122354986
 20
296.9999979871026
  0
LINE
  5
10B
330
FC
100
AcDbEntity
  8
01-99
100
AcDbLine
 10
20.0000075122355
 20
5.99999798710246
 30
0.0
 11
204.0000075122355
 21
5.999997987102631
 31
0.0
  0
LINE
  5
10C
330
FC
100
AcDbEntity
  8
01-99
100
AcDbLine
 10
70.0000075122355
 20
11.11110909810247
 30
0.0
 11
20.0000075122355
 21
11.11110909810247
 31
0.0
  0
LINE
  5
10D
330
FC
100
AcDbEntity
  8
01-99
100
AcDbLine
 10
70.0000075122355
 20
16.22222020910249
 30
0.0
 11
20.0000075122355
 21
16.22222020910249
 31
0.0
  0
LINE
  5
10E
330
FC
100
AcDbEntity
  8
01-99
100
AcDbLine
 10
70.0000075122355
 20
21.3333313201025
 30
0.0
 11
20.0000075122355
 21
21.33333132010244
 31
0.0
  0
LINE
  5
10F
330
FC
100
AcDbEntity
  8
01-99
100
AcDbLine
 10
115.0000075122355
 20
26.44444243110252
 30
0.0
 11
20.0000075122355
 21
26.44444243110246
 31
0.0
  0
LINE
  5
110
330
FC
100
AcDbEntity
  8
01-99
100
AcDbLine
 10
115.0000075122355
 20
31.55555354210253
 30
0.0
 11
20.0000075122355
 21
31.55555354210247
 31
0.0
  0
LINE
  5
111
330
FC
100
AcDbEntity
  8
01-99
100
AcDbLine
 10
45.0000075122355
 20
5.99999798710246
 30
0.0
 11
45.0000075122355
 21
11.11110909810247
 31
0.0
  0
LINE
  5
112
330
FC
100
AcDbEntity
  8
01-99
100
AcDbLine
 10
28.0000075122355
 20
11.11110909810247
 30
0.0
 11
28.0000075122355
 21
36.66666465376915
 31
0.0
  0
LINE
  5
113
330
FC
100
AcDbEntity
  8
01-99
100
AcDbLine
 10
70.0000075122355
 20
5.99999798710246
 30
0.0
 11
70.0000075122355
 21
51.99999798710246
 31
0.0
  0
LINE
  5
114
330
FC
100
AcDbEntity
  8
01-99
100
AcDbLine
 10
115.0000075122355
 20
5.99999798710246
 30
0.0
 11
115.0000075122355
 21
51.99999798710246
 31
0.0
  0
LINE
  5
115
330
FC
100
AcDbEntity
  8
01-99
100
AcDbLine
 10
144.5000075122355
 20
5.99999798710246
 30
0.0
 11
144.5000075122355
 21
16.22222020910254
 31
0.0
  0
LINE
  5
116
330
FC
100
AcDbEntity
  8
01-99
100
AcDbLine
 10
177.0000075122355
 20
5.99999798710246
 30
0.0
 11
177.0000075122355
 21
16.2222202091026
 31
0.0
  0
LINE
  5
117
330
FC
100
AcDbEntity
  8
01-99
100
AcDbLine
 10
148.5000075122355
 20
36.6666646537692
 30
0.0
 11
148.5000075122355
 21
51.99999798710257
 31
0.0
  0
LINE
  5
118
330
FC
100
AcDbEntity
  8
01-99
100
AcDbLine
 10
182.0000075122355
 20
36.6666646537692
 30
0.0
 11
182.0000075122355
 21
51.99999798710257
 31
0.0
  0
LINE
  5
119
330
FC
100
AcDbEntity
  8
01-99
100
AcDbLine
 10
78.00000751223549
 20
21.33333132043583
 30
0.0
 11
78.00000751223549
 21
36.6666646537692
 31
0.0
  0
LINE
  5
11A
330
FC
100
AcDbEntity
  8
01-99
100
AcDbLine
 10
60.00319585166497
 20
11.11110909810247
 30
0.0
 11
60.00319585166497
 21
36.66666465376915
 31
0.0
  0
LINE
  5
11B
330
FC
100
AcDbEntity
  8
01-99
100
AcDbLine
 10
48.00319585166497
 20
11.11110909810247
 30
0.0
 11
48.00319585166497
 21
36.66666465376915
 31
0.0
  0
LINE
  5
11C
330
FC
100
AcDbEntity
  8
01-99
100
AcDbLine
 10
204.0000075122355
 20
51.99999798710257
 30
0.0
 11
20.00000751223368
 21
51.99999798710246
 31
0.0
  0
LINE
  5
11D
330
FC
100
AcDbEntity
  8
01-99
100
AcDbLine
 10
115.0000075122355
 20
21.33333132043583
 30
0.0
 11
70.0000075122355
 21
21.33333132043583
 31
0.0
  0
LINE
  5
11E
330
FC
100
AcDbEntity
  8
01-99
100
AcDbLine
 10
115.0000075122355
 20
36.6666646537692
 30
0.0
 11
20.0000075122355
 21
36.66666465376909
 31
0.0
  0
LINE
  5
11F
330
FC
100
AcDbEntity
  8
01-99
100
AcDbLine
 10
92.0000075122355
 20
21.33333132043583
 30
0.0
 11
92.0000075122355
 21
51.99999798710251
 31
0.0
  0
LINE
  5
120
330
FC
100
AcDbEntity
  8
01-99
100
AcDbLine
 10
70.0000075122355
 20
36.66666465376915
 30
0.0
 11
78.00000751223549
 21
31.55555355376919
 31
0.0
  0
LINE
  5
121
330
FC
100
AcDbEntity
  8
01-99
100
AcDbLine
 10
70.0000075122355
 20
31.55555355376919
 30
0.0
 11
78.00000751223549
 21
36.6666646537692
 31
0.0
  0
LINE
  5
122
330
FC
100
AcDbEntity
  8
01-99
100
AcDbLine
 10
204.0000075122355
 20
44.33333132043583
 30
0.0
 11
115.0000075122355
 21
44.33333132043578
 31
0.0
  0
LINE
  5
123
330
FC
100
AcDbEntity
  8
01-99
100
AcDbLine
 10
115.0000075122355
 20
16.22222020910249
 30
0.0
 11
204.0000075122355
 21
16.2222202091026
 31
0.0
  0
LINE
  5
124
330
FC
100
AcDbEntity
  8
01-99
100
AcDbLine
 10
115.0000075122355
 20
36.6666646537692
 30
0.0
 11
204.0000075122355
 21
36.66666465376926
 31
0.0
  0
LINE
  5
125
330
FC
100
AcDbEntity
  8
01-99
100
AcDbLine
 10
92.0000075122355
 20
41.77777576510249
 30
0.0
 11
70.0000075122355
 21
41.77777576510249
 31
0.0
  0
LINE
  5
126
330
FC
100
AcDbEntity
  8
01-99
100
AcDbLine
 10
92.0000075122355
 20
46.8888868761025
 30
0.0
 11
70.0000075122355
 21
46.88888687610244
 31
0.0
  0
LINE
  5
127
330
FC
100
AcDbEntity
  8
01-99
100
AcDbLine
 10
20.00000751223368
 20
51.99999798710246
 30
0.0
 11
20.00000751223368
 21
5.99999798710246
 31
0.0
  0
TEXT
  5
128
330
FC
100
AcDbEntity
  8
08-99
100
AcDbText
 10
116.4997086805418
 20
32.66987169496042
 30
0.0
 40
2.5
  1
Benennung/Teil:
 51
15.0
  7
ROMANS8
100
AcDbText
  0
TEXT
  5
12D
330
FC
100
AcDbEntity
  8
08-99
100
AcDbText
 10
178.5028349598029
 20
12.01760068133313
 30
0.0
 40
2.7
  1
Ident-Nr.
 51
15.0
  7
ROMANS8
100
AcDbText
  0
TEXT
  5
12E
330
FC
100
AcDbEntity
  8
08-99
100
AcDbText
 10
93.50002924540357
 20
33.0555749488849
 30
0.0
 40
2.5
  1
Name:
 51
15.0
  7
ROMANS8
100
AcDbText
  0
TEXT
  5
12F
330
FC
100
AcDbEntity
  8
08-99
100
AcDbText
 10
79.50777665478042
 20
33.04841594810694
 30
0.0
 40
2.5
  1
Datum:
 50
0.102528160689452
 41
0.8933771909280748
 51
15.0
  7
ROMANS8
 72
     5
 11
90.67497366186243
 21
33.06839915456692
 31
0.0
100
AcDbText
  0
TEXT
  5
130
330
FC
100
AcDbEntity
  8
08-99
100
AcDbText
 10
29.50001559397086
 20
33.05597508608236
 30
0.0
 40
1.6
  1
Änderung:
 51
15.0
  7
ROMANS8
100
AcDbText
  0
TEXT
  5
131
330
FC
100
AcDbEntity
  8
08-99
100
AcDbText
 10
46.49994558798837
 20
9.111117286264914
 30
0.0
 40
1.0
  1
ERSETZT.DURCH:
 51
15.0
  7
ROMANS8
100
AcDbText
  0
TEXT
  5
132
330
FC
100
AcDbEntity
  8
08-99
100
AcDbText
 10
21.49936832790721
 20
9.110852190038713
 30
0.0
 40
1.0
  1
ERSETZT.FÜR:
 51
15.0
  7
ROMANS8
100
AcDbText
  0
TEXT
  5
133
330
FC
100
AcDbEntity
  8
08-99
100
AcDbText
 10
145.9909143543897
 20
12.61295485116625
 30
0.0
 40
2.112
  1
AUFTRAGS.NR.:
 51
15.0
  7
ROMANS8
100
AcDbText
  0
TEXT
  5
134
330
FC
100
AcDbEntity
  8
08-99
100
AcDbText
 10
116.5034717172479
 20
12.61092664313281
 30
0.0
 40
2.112
  1
Sonder-Nr:
 51
15.0
  7
ROMANS8
100
AcDbText
  0
TEXT
  5
135
330
FC
100
AcDbEntity
  8
08-99
100
AcDbText
 10
99.69631500731376
 20
49.92370649414477
 30
0.0
 40
1.349999999999999
  1
Format
 51
15.0
  7
ROMANS8
100
AcDbText
  0
TEXT
  5
136
330
FC
100
AcDbEntity
  8
08-99
100
AcDbText
 10
98.30438725900334
 20
44.6416167802032
 30
0.0
 40
1.822499999999999
  1
Normen
 51
15.0
  7
ROMANS8
100
AcDbText
  0
TEXT
  5
137
330
FC
100
AcDbEntity
  8
08-99
100
AcDbText
 10
21.50003711613706
 20
33.05556582266059
 30
0.0
 40
1.6
  1
Zust.
 51
15.0
  7
ROMANS8
100
AcDbText
  0
TEXT
  5
138
330
FC
100
AcDbEntity
  8
08-99
100
AcDbText
 10
49.50318821340468
 20
33.05555723859902
 30
0.0
 40
1.6
  1
Datum:
 51
15.0
  7
ROMANS8
100
AcDbText
  0
TEXT
  5
139
330
FC
100
AcDbEntity
  8
08-99
100
AcDbText
 10
61.50322112916754
 20
33.05556204504791
 30
0.0
 40
1.6
  1
Name:
 51
15.0
  7
ROMANS8
100
AcDbText
  0
TEXT
  5
13A
330
FC
100
AcDbEntity
  8
08-99
100
AcDbText
 10
71.1545619578267
 20
28.03813755505132
 30
0.0
 40
1.6
  1
Erst.
 51
15.0
  7
ROMANS8
100
AcDbText
  0
TEXT
  5
13B
330
FC
100
AcDbEntity
  8
08-99
100
AcDbText
 10
70.51718787454618
 20
23.1974490465235
 30
0.0
 40
1.6
  1
Bearb.
 51
15.0
  7
ROMANS8
100
AcDbText
  0
TEXT
  5
13C
330
FC
100
AcDbEntity
  8
08-99
100
AcDbText
 10
149.4308124240035
 20
41.61949547980938
 30
0.0
 40
2.0
  1
Zuschnittsbreite:
 51
15.0
  7
ROMANS8
100
AcDbText
  0
TEXT
  5
13D
330
FC
100
AcDbEntity
  8
08-99
100
AcDbText
 10
115.9850022862677
 20
41.73762161521608
 30
0.0
 40
2.0
  1
Zuschnittslänge:
 51
15.0
  7
ROMANS8
100
AcDbText
  0
LWPOLYLINE
  5
13E
330
FC
100
AcDbEntity
  8
06-99
100
AcDbPolyline
 90
      133
 70
     1
 43
0.010692
 10
93.76754732423549
 20
18.87656283643588
 10
94.00905465623557
 20
19.08724513243589
 10
93.92285931623556
 20
19.22625538843579
 10
93.82427194823552
 20
19.35180441643592
 10
93.71363469623569
 20
19.46393854843592
 10
93.59130396023548
 20
19.56271124443577
 10
93.45762188423558
 20
19.64816170843585
 10
93.31293417623559
 20
19.72033627243581
 10
93.15759367223554
 20
19.77928839643584
 10
92.99194251623569
 20
19.82505728443584
 10
92.81632998023557
 20
19.85768926843593
 10
92.63110533623573
 20
19.87723780843589
 10
92.43661429223564
 20
19.88374210843585
 10
92.27568900023554
 20
19.87767974443585
 10
92.11994932823543
 20
19.85975638843581
 10
91.96972672823566
 20
19.83036051643597
 10
91.82535621623562
 20
19.78988773243583
 10
91.68716924423554
 20
19.73873364043595
 10
91.55549013623559
 20
19.67729028043584
 10
91.43066103623565
 20
19.60594969243584
 10
91.31300626823557
 20
19.52510391643579
 10
91.20285728423553
 20
19.43514499243588
 10
91.10055266423561
 20
19.33647208843587
 10
91.00641316823569
 20
19.22947011643589
 10
90.92077737623563
 20
19.11454180843589
 10
90.84397674023561
 20
18.99207207643587
 10
90.77633914823563
 20
18.86245652443591
 10
90.71819961623559
 20
18.72608719243584
 10
90.66988603223562
 20
18.58336324843583
 10
90.63172984823566
 20
18.43466960443584
 10
90.60406964423547
 20
18.28040542843581
 10
90.5872261802356
 20
18.12095919643588
 10
90.58154160023562
 20
17.95672651243586
 10
90.58715490023557
 20
17.78762184043592
 10
90.60380590823573
 20
17.62428728443586
 10
90.63119524823539
 20
17.46704004043585
 10
90.66902354423545
 20
17.31619374043578
 10
90.71699498423553
 20
17.17206201643586
 10
90.77481375623566
 20
17.03495850043589
 10
90.84218404823563
 20
16.90519326043585
 10
90.91880648423559
 20
16.78308349243582
 10
91.00438525223561
 20
16.66893926443583
 10
91.09862810423559
 20
16.56307777243586
 10
91.2012285362355
 20
16.46580908443587
 10
91.31190142823554
 20
16.37745039643579
 10
91.43034027623562
 20
16.29831177643592
 10
91.55625283223551
 20
16.2287068564359
 10
91.6893397202355
 20
16.16895283243582
 10
91.82930869223552
 20
16.11935977243587
 10
91.9758568082357
 20
16.08024130843591
 10
92.1286953842355
 20
16.05191107243593
 10
92.28751791623555
 20
16.03468269643588
 10
92.45203572023561
 20
16.02886981243591
 10
92.61603318023563
 20
16.03412314843587
 10
92.77336596023557
 20
16.0497619804359
 10
92.92384516823554
 20
16.07559385243587
 10
93.06728191223546
 20
16.11142630843591
 10
93.20349086423565
 20
16.15707045643586
 10
93.33227956823547
 20
16.21233740443585
 10
93.45346269623556
 20
16.27703469643586
 10
93.56684422823562
 20
16.35097700443589
 10
93.67224596423559
 20
16.43397187243585
 10
93.76946832023557
 20
16.52582328043587
 10
93.85832953223555
 20
16.62635302843586
 10
93.93864070823568
 20
16.73535796843583
 10
94.01020939223556
 20
16.85265990043587
 10
94.07284669223557
 20
16.97805924043587
 10
94.12636728023565
 20
17.11137066043579
 10
94.17058226423549
 20
17.25240170443584
 10
94.20529562423556
 20
17.40096348043585
 10
94.23032916023558
 20
17.55686709643589
 10
94.2454868522357
 20
17.71992366043582
 10
94.25057980823547
 20
17.88993715243583
 10
94.25057980823547
 20
17.88993715243583
 10
94.25057980823547
 20
17.94131934043588
 10
92.6164715522356
 20
17.94131934043588
 10
92.6164715522356
 20
17.65354772443584
 10
93.88573312823544
 20
17.65354772443584
 10
93.87499479623548
 20
17.49100437643585
 10
93.84766248023552
 20
17.33635885243586
 10
93.80444185223566
 20
17.19027405643589
 10
93.74603858423554
 20
17.05341645643585
 10
93.67316547623572
 20
16.92644182843588
 10
93.58653176423562
 20
16.81002376843588
 10
93.4868359922356
 20
16.70481448843588
 10
93.37479452423556
 20
16.61148758443585
 10
93.2511130322355
 20
16.53069526843586
 10
93.11649718823563
 20
16.46310757243589
 10
92.9716562282355
 20
16.40938383643583
 10
92.81729938823563
 20
16.37019052843595
 10
92.65413234023563
 20
16.34618698843581
 10
92.48286432023567
 20
16.3380396844359
 10
92.31820395623563
 20
16.34599096843584
 10
92.15990889623553
 20
16.3693743724358
 10
92.00857076423554
 20
16.40748066043585
 10
91.86477762023541
 20
16.45960416043584
 10
91.7291103962356
 20
16.52503563643586
 10
91.60216071623555
 20
16.60306585243592
 10
91.48451307623558
 20
16.69299270043586
 10
91.37675910023554
 20
16.79410338043595
 10
91.27948328423569
 20
16.90569222043587
 10
91.19327012423552
 20
17.02705354843584
 10
91.11871124423558
 20
17.15747456443586
 10
91.05639114023555
 20
17.29625316043587
 10
91.00689787223556
 20
17.44268010043583
 10
90.97081950023541
 20
17.5960425844359
 10
90.94874052023547
 20
17.75564206843597
 10
90.94125255623557
 20
17.92076575243578
 10
90.94763924423572
 20
18.08913980443589
 10
90.96654270023558
 20
18.25115211643583
 10
90.99756375623568
 20
18.40630372843583
 10
91.04030680823555
 20
18.55409924443586
 10
91.09437981623548
 20
18.69404326843585
 10
91.15938361223554
 20
18.82564396843588
 10
91.23492259223556
 20
18.9483988204359
 10
91.32060471623564
 20
19.06181955643586
 10
91.41603081623546
 20
19.16540365243594
 10
91.52081241623548
 20
19.25865927643582
 10
91.63454322023566
 20
19.34108746843589
 10
91.75683831623567
 20
19.41219639643589
 10
91.88729497223542
 20
19.47148710043586
 10
92.02552114823564
 20
19.51846418443586
 10
92.17112480423569
 20
19.55263225243584
 10
92.32370320823568
 20
19.57349947243585
 10
92.48286432023567
 20
19.58056332043588
 10
92.66056892423561
 20
19.57164619243588
 10
92.83032224423564
 20
19.54500885643586
 10
92.99178570023562
 20
19.50081882043588
 10
93.14462071223559
 20
19.43924359243584
 10
93.28848870023561
 20
19.36045780843585
 10
93.42305464823565
 20
19.26462541243592
 10
93.54797997623554
 20
19.15192104043586
 10
93.66292254023566
 20
19.02250863643593
  0
LWPOLYLINE
  5
142
330
FC
100
AcDbEntity
  8
06-99
100
AcDbPolyline
 90
       12
 70
     1
 43
0.010692
 10
90.43900298423549
 20
12.25281181243593
 10
92.32227048023563
 20
12.25281181243593
 10
92.46760683623554
 20
13.00767770443588
 10
91.56487771223558
 20
13.00767770443588
 10
91.62106060823546
 20
13.29950515243581
 10
92.41872301223557
 20
13.29950515243581
 10
92.55580870823544
 20
14.01156027643583
 10
91.75814630423545
 20
14.01156027643583
 10
91.80985281623547
 20
14.28005421643581
 10
92.68923417623549
 20
14.28005421643581
 10
92.83455984023559
 20
15.03490585243588
 10
90.97464010823561
 20
15.03490585243588
  0
LWPOLYLINE
  5
143
330
FC
100
AcDbEntity
  8
06-99
100
AcDbPolyline
 90
        4
 70
     1
 43
0.010692
 10
76.60861942823558
 20
12.88042508443584
 10
89.06586862823544
 20
12.88042508443584
 10
88.94229049223557
 20
12.25209544843585
 10
76.48504485623553
 20
12.25209544843585
  0
SOLID
  5
144
330
FC
100
AcDbEntity
  8
06-99
100
AcDbTrace
 10
76.60861942823558
 20
12.88042508443584
 30
0.0
 11
89.06586862823544
 21
12.88042508443584
 31
0.0
 12
76.48504485623553
 22
12.25209544843585
 32
0.0
 13
88.94229049223557
 23
12.25209544843585
 33
0.0
  0
LWPOLYLINE
  5
145
330
FC
100
AcDbEntity
  8
06-99
100
AcDbPolyline
 90
       10
 70
     1
 43
0.010692
 10
82.3458504002356
 20
16.02886981243591
 10
83.32219038023552
 20
19.10266656043586
 10
84.33965535623546
 20
16.02886981243591
 10
85.56780619223562
 20
19.80153132043585
 10
85.22351666423551
 20
19.80153132043585
 10
84.33965535623546
 20
16.89302932843583
 10
83.32219038023552
 20
19.9454100004358
 10
82.3458504002356
 20
16.86733645243589
 10
81.42601764023565
 20
19.80153132043585
 10
81.07658882423564
 20
19.80153132043585
  0
LWPOLYLINE
  5
146
330
FC
100
AcDbEntity
  8
06-99
100
AcDbPolyline
 90
        3
 70
     1
 43
0.010692
 10
87.32442338423565
 20
17.65868344843591
 10
87.97704168023555
 20
19.25683094443582
 10
88.6039706642355
 20
17.65868344843591
  0
LWPOLYLINE
  5
147
330
FC
100
AcDbEntity
  8
06-99
100
AcDbPolyline
 90
        7
 70
     1
 43
0.010692
 10
86.38318880423563
 20
16.12735738843582
 10
86.72320153223555
 20
16.12735738843582
 10
87.21136974023549
 20
17.37092608843585
 10
88.71187076423566
 20
17.37092608843585
 10
89.17949964023549
 20
16.12735738843582
 10
89.54434632023552
 20
16.12735738843582
 10
87.99759883223558
 20
19.9454100004358
  0
LWPOLYLINE
  5
148
330
FC
100
AcDbEntity
  8
06-99
100
AcDbPolyline
 90
        8
 70
     1
 43
0.010692
 10
98.92981243223543
 20
12.25281181243593
 10
100.0043869442354
 20
12.25281181243593
 10
100.1574144122356
 20
12.60301045243585
 10
100.9122803042355
 20
12.60301045243585
 10
100.9343521562355
 20
12.25281181243593
 10
102.0082815842354
 20
12.25281181243593
 10
101.5711569842355
 20
15.03490585243588
 10
100.4583193682355
 20
15.03490585243588
  0
LWPOLYLINE
  5
149
330
FC
100
AcDbEntity
  8
06-99
100
AcDbPolyline
 90
       34
 70
     1
 43
0.010692
 10
96.0434642642356
 20
13.66137589243584
 10
96.07848769223544
 20
13.66137589243584
 10
96.0642316922356
 20
13.48699650043591
 10
96.06380757623552
 20
13.33509882043586
 10
96.06790617623554
 20
13.20222577243589
 10
96.09523849223561
 20
12.25281181243593
 10
96.9668360762354
 20
12.25281181243593
 10
98.31569602823542
 20
15.03490585243588
 10
97.31181345623557
 20
15.03490585243588
 10
96.85792023623552
 20
13.80922843243581
 10
96.80781752423563
 20
13.66872486043581
 10
96.74884758023544
 20
13.48671138043579
 10
96.69003445223545
 20
13.26059696443593
 10
96.66670094423549
 20
13.26059696443593
 10
96.6884270882355
 20
13.45803187243587
 10
96.69298544423558
 20
13.61569254043581
 10
96.69194475623548
 20
13.73531107243588
 10
96.67756045223544
 20
15.03490585243588
 10
95.97329266823548
 20
15.03490585243588
 10
95.45849068823557
 20
13.73531107243588
 10
95.41138886423542
 20
13.61569254043581
 10
95.35523448023562
 20
13.45803187243587
 10
95.30092981223551
 20
13.26059696443593
 10
95.27759630423545
 20
13.26059696443593
 10
95.30585169623558
 20
13.48671138043579
 10
95.31697137623556
 20
13.66872486043581
 10
95.32096662023551
 20
13.80922843243581
 10
95.33903966423546
 20
15.03490585243588
 10
94.33451200823553
 20
15.03490585243588
 10
94.61274279623561
 20
12.25281181243593
 10
95.48433681623547
 20
12.25281181243593
 10
95.87724643223557
 20
13.20222577243589
 10
95.93252050823551
 20
13.33509882043586
 10
95.99058519623557
 20
13.48699650043591
  0
LWPOLYLINE
  5
14A
330
FC
100
AcDbEntity
  8
06-99
100
AcDbPolyline
 90
       10
 70
     1
 43
0.010692
 10
100.4520752402354
 20
13.26448172443588
 10
100.5983667482354
 20
13.57965693643587
 10
100.6731180842355
 20
13.74409276843596
 10
100.7541598802355
 20
13.94570824843589
 10
100.8288363722355
 20
14.19056217643595
 10
100.8482958122355
 20
14.19056217643595
 10
100.8286724282354
 20
13.94570824843589
 10
100.8320796122355
 20
13.74409276843596
 10
100.8435129242355
 20
13.57965693643587
 10
100.8684181562356
 20
13.26448172443588
  0
LWPOLYLINE
  5
14B
330
FC
100
AcDbEntity
  8
06-99
100
AcDbPolyline
 90
       23
 70
     1
 43
0.010692
 10
103.5867130322356
 20
12.25281181243593
 10
104.5672478402354
 20
12.25281181243593
 10
104.7440436242355
 20
13.17110136043584
 10
105.0536340482356
 20
12.25281181243593
 10
106.1742447482354
 20
12.25281181243593
 10
105.6490750922355
 20
13.38511243243585
 10
105.8084357882355
 20
13.42380678043588
 10
105.9537079922354
 20
13.49881472443587
 10
106.0813562162355
 20
13.60690015243585
 10
106.1878378442354
 20
13.74481626043587
 10
106.2696066962354
 20
13.90931980843584
 10
106.3231201562354
 20
14.09716755643586
 10
106.3446075122355
 20
14.26808986843588
 10
106.3403093282354
 20
14.42329850443593
 10
106.3102362962355
 20
14.56225886443587
 10
106.2543991082354
 20
14.68443278443578
 10
106.1728155842354
 20
14.78928566443591
 10
106.0654999802355
 20
14.87627577643587
 10
105.9324594242355
 20
14.94487208443587
 10
105.7737153002354
 20
14.99453286043592
 10
105.5892711722355
 20
15.02472350443588
 10
105.3791519882354
 20
15.03490585243588
 10
104.1223501562355
 20
15.03490585243588
  0
LWPOLYLINE
  5
14C
330
FC
100
AcDbEntity
  8
06-99
100
AcDbPolyline
 90
        9
 70
     1
 43
0.010692
 10
104.9650401362355
 20
14.31896240443586
 10
105.1206907082355
 20
14.31896240443586
 10
105.2773605842356
 20
14.28538239643581
 10
105.3582277442354
 20
14.19040892443593
 10
105.3632244722355
 20
14.04269894443587
 10
105.3008722922355
 20
13.89699906043591
 10
105.1832994962355
 20
13.80577848043589
 10
105.0158200082354
 20
13.77421926043581
 10
104.8601694362355
 20
13.77421926043581
  0
LWPOLYLINE
  5
14D
330
FC
100
AcDbEntity
  8
06-99
100
AcDbPolyline
 90
       12
 70
     1
 43
0.010692
 10
100.5798090002356
 20
16.12735738843582
 10
102.3989066762356
 20
16.12735738843582
 10
102.3989066762356
 20
16.4408218804358
 10
100.9138270802356
 20
16.4408218804358
 10
100.9138270802356
 20
18.02353012843594
 10
102.3989066762356
 20
18.02353012843594
 10
102.3989066762356
 20
18.33699462043592
 10
100.9138270802356
 20
18.33699462043592
 10
100.9138270802356
 20
19.48806682843587
 10
102.3989066762356
 20
19.48806682843587
 10
102.3989066762356
 20
19.80153132043585
 10
100.5798090002356
 20
19.80153132043585
  0
LWPOLYLINE
  5
14E
330
FC
100
AcDbEntity
  8
06-99
100
AcDbPolyline
 90
        8
 70
     1
 43
0.010692
 10
95.85303261623565
 20
16.12735738843582
 10
96.18705426023556
 20
16.12735738843582
 10
96.18705426023556
 20
19.09753083643585
 10
98.76667389623552
 20
16.01858410843584
 10
98.76667389623552
 20
19.80153132043585
 10
98.4326665082356
 20
19.80153132043585
 10
98.4326665082356
 20
16.88274362443587
 10
95.85303261623565
 20
19.95568144843582
  0
LWPOLYLINE
  5
14F
330
FC
100
AcDbEntity
  8
06-99
100
AcDbPolyline
 90
       19
 70
     1
 43
0.010692
 10
104.4484312082357
 20
19.5086239804358
 10
104.7824385962356
 20
19.5086239804358
 10
104.9866237202355
 20
19.50030560443588
 10
105.1604542562355
 20
19.47385716043584
 10
105.3049031762356
 20
19.42705471243579
 10
105.4209256322356
 20
19.35767076043584
 10
105.5094874682356
 20
19.26347780443581
 10
105.5715509642355
 20
19.14224834443593
 10
105.6080855282355
 20
18.9917477524358
 10
105.6200498762355
 20
18.80975922043586
 10
105.6074547002355
 20
18.63100680043584
 10
105.5693840522356
 20
18.48585933643585
 10
105.5054245082356
 20
18.37130168443593
 10
105.4151448242355
 20
18.28432582843589
 10
105.2981315762356
 20
18.22192018843589
 10
105.1539570842356
 20
18.18106962043583
 10
104.9821972322354
 20
18.15876967243594
 10
104.7824385962356
 20
18.15200520043589
 10
104.4484312082357
 20
18.15200520043589
  0
LWPOLYLINE
  5
150
330
FC
100
AcDbEntity
  8
06-99
100
AcDbPolyline
 90
       29
 70
     1
 43
0.010692
 10
106.3446075122355
 20
16.12735738843582
 10
105.0239637482355
 20
17.87965144843588
 10
105.2123817362357
 20
17.89225018843592
 10
105.3829084442356
 20
17.92941914443582
 10
105.5344069562356
 20
17.99022811243594
 10
105.6657296642355
 20
18.07375401643588
 10
105.7757360882356
 20
18.17905596043584
 10
105.8632821842355
 20
18.30521443243589
 10
105.9272310362355
 20
18.45129210043592
 10
105.9664386002355
 20
18.6163587604359
 10
105.9797608322353
 20
18.79948777243589
 10
105.9699455762357
 20
18.97455145243589
 10
105.9404891162357
 20
19.13261485243589
 10
105.8913629402356
 20
19.27374568843589
 10
105.8225492282356
 20
19.39801167643577
 10
105.7340230322356
 20
19.50548409643591
 10
105.6257594042356
 20
19.59623422843589
 10
105.4977369602356
 20
19.67032622443582
 10
105.3499307522354
 20
19.72783136443587
 10
105.1823193962355
 20
19.76882449243589
 10
104.9948815082355
 20
19.79336619643589
 10
104.7875885762355
 20
19.80153132043585
 10
104.7875885762355
 20
19.80153132043585
 10
104.1144131282356
 20
19.80153132043585
 10
104.1144131282356
 20
16.12735738843582
 10
104.4484312082357
 20
16.12735738843582
 10
104.4484312082357
 20
17.87965144843588
 10
104.6488456202355
 20
17.87965144843588
 10
105.9386465282355
 20
16.12735738843582
  0
TEXT
  5
151
330
FC
100
AcDbEntity
  8
06-99
100
AcDbText
 10
85.6083656112951
 20
9.63320697282171
 30
0.0
 40
1.4256
  1
GmbH & Co KG
 41
1.199203187251
 51
15.0
  7
ROMAND8
 72
     5
 11
106.0419656112951
 21
9.63320697282171
 31
0.0
100
AcDbText
  0
TEXT
  5
153
330
FC
100
AcDbEntity
  8
06-99
100
AcDbText
 10
85.70982236587898
 20
7.391013700398161
 30
0.0
 40
1.4256
  1
72774 Reutlingen
 50
0.5663244663116128
 41
1.087840993687879
 51
15.0
  7
ROMAND8
 72
     5
 11
105.943422365879
 21
7.59101370039815
 31
0.0
100
AcDbText
  0
TEXT
  5
154
330
FC
100
AcDbEntity
  8
08-99
100
AcDbText
 10
73.414125712073
 20
48.45008961754581
 30
0.0
 40
2.25
  1
Zul. Abw.
 51
15.0
  7
ROMANS8
100
AcDbText
  0
TEXT
  5
155
330
FC
100
AcDbEntity
  8
08-99
100
AcDbText
 10
123.2099338325191
 20
49.28616214647601
 30
0.0
 40
2.0
  1
Mat. Art.
 51
15.0
  7
ROMANS8
100
AcDbText
  0
TEXT
  5
156
330
FC
100
AcDbEntity
  8
08-99
100
AcDbText
 10
155.4865384826082
 20
49.4043113704472
 30
0.0
 40
2.0
  1
Oberfläche:
 51
15.0
  7
ROMANS8
100
AcDbText
  0
TEXT
  5
157
330
FC
100
AcDbEntity
  8
08-99
100
AcDbText
 10
184.762545350816
 20
41.73764470378046
 30
0.0
 40
2.0
  1
Blech Dicke:
 51
15.0
  7
ROMANS8
100
AcDbText
  0
TEXT
  5
158
330
FC
100
AcDbEntity
  8
08-99
100
AcDbText
 10
187.4380355407932
 20
49.28616214647604
 30
0.0
 40
2.0
  1
Maßstab:
 51
15.0
  7
ROMANS8
100
AcDbText
  0
LINE
  5
159
330
FC
100
AcDbEntity
  8
01-99
100
AcDbLine
 10
115.0000075122355
 20
46.8888868761025
 30
0.0
 11
92.0000075122355
 21
46.8888868761025
 31
0.0
  0
LINE
  5
15A
330
FC
100
AcDbEntity
  8
01-99
100
AcDbLine
 10
115.0000075122355
 20
44.33333132043578
 30
0.0
 11
92.0000075122355
 21
44.33333132043578
 31
0.0
  0
LINE
  5
15B
330
FC
100
AcDbEntity
  8
01-99
100
AcDbLine
 10
115.0000075122355
 20
40.49999798710246
 30
0.0
 11
92.00000751223544
 21
40.49999798710246
 31
0.0
  0
ATTDEF
  5
15C
330
FC
100
AcDbEntity
  8
06-99
100
AcDbText
 10
116.4954542514127
 20
26.18783668438471
 30
0.0
 40
4.0
  1

 41
0.9
  7
ROMANS8
100
AcDbAttributeDefinition
280
     0
  3
Benennung/Teil
  2
TEILE
 70
     0
280
     0
  0
ATTDEF
  5
15D
330
FC
100
AcDbEntity
  8
06-99
100
AcDbText
 10
116.4954542514127
 20
19.29547648609889
 30
0.0
 40
4.0
  1

 41
0.9
  7
ROMANS8
100
AcDbAttributeDefinition
280
     0
  3
Benennung/Teil2
  2
TEILE2
 70
     0
280
     0
  0
ATTDEF
  5
15E
330
FC
100
AcDbEntity
  8
06-99
100
AcDbText
 10
191.3473937239501
 20
45.33333132043583
 30
0.0
 40
3.375
  1

  7
ROMANS8
100
AcDbAttributeDefinition
280
     0
  3
Maßstab
  2
:
 70
     0
280
     0
  0
ATTDEF
  5
15F
330
FC
100
AcDbEntity
  8
06-99
100
AcDbText
 10
92.99707531160292
 20
27.44168345513378
 30
0.0
 40
2.5
  1

 41
0.9
  7
ROMANS8
100
AcDbAttributeDefinition
280
     0
  3
Name
  2
NAME
 70
     0
280
     0
  0
ATTDEF
  5
160
330
FC
100
AcDbEntity
  8
06-99
100
AcDbText
 10
79.49315396412956
 20
27.46123316121373
 30
0.0
 40
2.5
  1

 50
359.9144597696142
 41
0.9542572414211148
  7
ROMANS8
 72
     5
 11
90.73974463267431
 21
27.44444245376917
 31
0.0
100
AcDbAttributeDefinition
280
     0
  3
Datum
  2
DATUM
 70
     0
280
     0
  0
ATTDEF
  5
161
330
FC
100
AcDbEntity
  8
06-99
100
AcDbText
 10
178.5063514793938
 20
7.4928977873912
 30
0.0
 40
2.99376
  1

  7
ROMANS8
100
AcDbAttributeDefinition
280
     0
  3
Ident-Nummer
  2
ID.NR
 70
     0
280
     0
  0
ATTDEF
  5
162
330
FC
100
AcDbEntity
  8
06-99
100
AcDbText
 10
116.731273767946
 20
37.66666463154695
 30
0.0
 40
3.0
  1

 41
0.9
  7
ROMANS8
100
AcDbAttributeDefinition
280
     0
  3
Zuschnitts.Länge
  2
LÄNGE
 70
     0
280
     0
  0
ATTDEF
  5
163
330
FC
100
AcDbEntity
  8
06-99
100
AcDbText
 10
150.1808124240052
 20
37.67810185754732
 30
0.0
 40
3.0
  1

 41
0.9
  7
ROMANS8
100
AcDbAttributeDefinition
280
     0
  3
Zuschnitts Breite
  2
BREITE
 70
     0
280
     0
  0
ATTDEF
  5
164
330
FC
100
AcDbEntity
  8
06-99
100
AcDbText
 10
190.6090996389673
 20
37.66666465376926
 30
0.0
 40
3.09375
  1

  7
ROMANS8
100
AcDbAttributeDefinition
280
     0
  3
Blech.Dicke
  2
1.0
 70
     0
280
     0
  0
ATTDEF
  5
165
330
FC
100
AcDbEntity
  8
06-99
100
AcDbText
 10
164.1277931136382
 20
45.33333132043594
 30
0.0
 40
3.0
  1

  7
ROMANS8
 72
     1
 11
164.1277931136382
 21
45.33333132043594
 31
0.0
100
AcDbAttributeDefinition
280
     0
  3
Oberfläche
  2
IV
 70
     0
280
     0
  0
ATTDEF
  5
166
330
FC
100
AcDbEntity
  8
06-99
100
AcDbText
 10
123.2747480483513
 20
45.3333313204358
 30
0.0
 40
3.375
  1
1.4301
  7
ROMANS8
100
AcDbAttributeDefinition
280
     0
  3
Mat.Art
  2
1.4301
 70
     0
280
     0
  0
ATTDEF
  5
167
330
FC
100
AcDbEntity
  8
06-99
100
AcDbText
 10
146.0006413991156
 20
7.504394591457128
 30
0.0
 40
3.168
  1

 41
0.9
  7
ROMANS8
100
AcDbAttributeDefinition
280
     0
  3
Auftrags Nr.
  2
AUFTRAGS.NR.
 70
     0
280
     0
  0
ATTDEF
  5
168
330
FC
100
AcDbEntity
  8
06-99
100
AcDbText
 10
116.5000075122355
 20
7.499997987102517
 30
0.0
 40
3.168
  1

 41
0.9
  7
ROMANS8
100
AcDbAttributeDefinition
280
     0
  3
Sonder-NR,WPS
  2
SONDER-NR
 70
     0
280
     0
  0
ATTDEF
  5
169
330
FC
100
AcDbEntity
  8
06-99
100
AcDbText
 10
46.4997585072438
 20
6.601808056362358
 30
0.0
 40
1.5
  1

 41
0.9
  7
ROMANS8
100
AcDbAttributeDefinition
280
     0
  3
ERSETZT.Durch
  2
ERSETZT.DURCH
 70
     0
280
     0
  0
ATTDEF
  5
16A
330
FC
100
AcDbEntity
  8
06-99
100
AcDbText
 10
21.49947529243403
 20
6.597454384974923
 30
0.0
 40
1.5
  1

 41
0.9
  7
ROMANS8
100
AcDbAttributeDefinition
280
     0
  3
ERSETZT.Für
  2
ERSETZT.FÜR
 70
     0
280
     0
  0
ATTDEF
  5
16B
330
FC
100
AcDbEntity
  8
06-99
100
AcDbText
 10
99.97308015867309
 20
47.66850912711049
 30
0.0
 40
1.287
  1
DIN A4
  7
ROMANS8
 72
     1
 11
103.2518658729588
 21
47.66850912711049
 31
0.0
100
AcDbAttributeDefinition
280
     0
  3
Format
  2
FORMAT
 70
     0
280
     0
  0
ATTDEF
  5
16C
330
FC
100
AcDbEntity
  8
06-99
100
AcDbText
 10
95.9874465096418
 20
37.19696532096725
 30
0.0
 40
2.34
  1
DIN 2768
  7
ROMANS8
 72
     1
 11
104.0103036524989
 21
37.19696532096725
 31
0.0
100
AcDbAttributeDefinition
280
     0
  3
Norm / Kanten
  2
NORM2
 70
     0
280
     0
  0
ATTDEF
  5
16D
330
FC
100
AcDbEntity
  8
06-99
100
AcDbText
 10
92.81173222392748
 20
41.03029865430056
 30
0.0
 40
2.34
  1
DIN 6930-M
  7
ROMANS8
 72
     1
 11
103.5088750810703
 21
41.03029865430056
 31
0.0
100
AcDbAttributeDefinition
280
     0
  3
Norm / Fräsen
  2
NORM1
 70
     0
280
     0
  0
ENDBLK
  5
16E
330
FC
100
AcDbEntity
  8
0
100
AcDbBlockEnd
  0
BLOCK
  5
F0
330
EF
100
AcDbEntity
  8
0
100
AcDbBlockBegin
  2
*D18
 70
     1
 10
0.0
 20
0.0
 30
0.0
  3
*D18
  1

  0
LINE
  5
F1
330
EF
100
AcDbEntity
  8
01-01
 62
     4
440
 16777216
370
    -2
100
AcDbLine
 10
196.5820913780324
 20
1277.511744568016
 30
0.0
 11
196.5820913780324
 21
1375.488258500461
 31
0.0
  0
LINE
  5
F2
330
EF
100
AcDbEntity
  8
01-01
 62
     4
440
 16777216
370
    -2
100
AcDbLine
 10
494.5820913780323
 20
1277.511744568016
 30
0.0
 11
494.5820913780323
 21
1375.488258500461
 31
0.0
  0
LINE
  5
F3
330
EF
100
AcDbEntity
  8
01-01
 62
     4
440
 16777216
370
    -2
100
AcDbLine
 10
209.0820913780324
 20
1370.488258500461
 30
0.0
 11
482.0820913780323
 21
1370.488258500461
 31
0.0
  0
SOLID
  5
F4
330
EF
100
AcDbEntity
  8
01-01
 62
     4
440
 16777216
100
AcDbTrace
 10
209.0820913780324
 20
1372.571591833794
 30
0.0
 11
209.0820913780324
 21
1368.404925167128
 31
0.0
 12
196.5820913780324
 22
1370.488258500461
 32
0.0
 13
196.5820913780324
 23
1370.488258500461
 33
0.0
  0
SOLID
  5
F5
330
EF
100
AcDbEntity
  8
01-01
 62
     4
440
 16777216
100
AcDbTrace
 10
482.0820913780323
 20
1372.571591833794
 30
0.0
 11
482.0820913780323
 21
1368.404925167128
 31
0.0
 12
494.5820913780323
 22
1370.488258500461
 32
0.0
 13
494.5820913780323
 23
1370.488258500461
 33
0.0
  0
MTEXT
  5
F6
330
EF
100
AcDbEntity
  8
01-01
 62
     1
440
 16777216
100
AcDbMText
 10
345.5820913780324
 20
1381.738258500461
 30
0.0
 40
12.5
 41
0.0
 46
0.0
 71
     5
 72
     1
  1
298
  7
SLDTEXTSTYLE1
 73
     1
 44
1.0
  0
POINT
  5
F7
330
EF
100
AcDbEntity
  8
DEFPOINTS
 62
     0
440
 16777216
100
AcDbPoint
 10
196.5820913780324
 20
1272.511744568016
 30
0.0
  0
POINT
  5
F8
330
EF
100
AcDbEntity
  8
DEFPOINTS
 62
     0
440
 16777216
100
AcDbPoint
 10
494.5820913780323
 20
1272.511744568016
 30
0.0
  0
POINT
  5
F9
330
EF
100
AcDbEntity
  8
DEFPOINTS
 62
     0
440
 16777216
100
AcDbPoint
 10
494.5820913780323
 20
1370.488258500461
 30
0.0
  0
ENDBLK
  5
FA
330
EF
100
AcDbEntity
  8
0
100
AcDbBlockEnd
  0
BLOCK
  5
B2
330
B1
100
AcDbEntity
  8
0
100
AcDbBlockBegin
  2
*D19
 70
     1
 10
0.0
 20
0.0
 30
0.0
  3
*D19
  1

  0
LINE
  5
B3
330
B1
100
AcDbEntity
  8
01-01
 62
     4
370
    -2
100
AcDbLine
 10
460.5820913780322
 20
1226.511744568016
 30
0.0
 11
460.5820913780322
 21
1234.018648229681
 31
0.0
  0
LINE
  5
B4
330
B1
100
AcDbEntity
  8
01-01
 62
     4
370
    -2
100
AcDbLine
 10
465.5820913780323
 20
1226.511744568016
 30
0.0
 11
465.5820913780323
 21
1234.018648229681
 31
0.0
  0
LINE
  5
B5
330
B1
100
AcDbEntity
  8
01-01
 62
     4
370
    -2
100
AcDbLine
 10
448.0820913780322
 20
1229.018648229681
 30
0.0
 11
435.5820913780322
 21
1229.018648229681
 31
0.0
  0
LINE
  5
B6
330
B1
100
AcDbEntity
  8
01-01
 62
     4
370
    -2
100
AcDbLine
 10
478.0820913780323
 20
1229.018648229681
 30
0.0
 11
490.5820913780323
 21
1229.018648229681
 31
0.0
  0
LINE
  5
B7
330
B1
100
AcDbEntity
  8
01-01
 62
     4
370
    -2
100
AcDbLine
 10
460.5820913780322
 20
1229.018648229681
 30
0.0
 11
465.5820913780323
 21
1229.018648229681
 31
0.0
  0
SOLID
  5
B8
330
B1
100
AcDbEntity
  8
01-01
 62
     4
100
AcDbTrace
 10
448.0820913780322
 20
1231.101981563014
 30
0.0
 11
448.0820913780322
 21
1226.935314896348
 31
0.0
 12
460.5820913780322
 22
1229.018648229681
 32
0.0
 13
460.5820913780322
 23
1229.018648229681
 33
0.0
  0
SOLID
  5
B9
330
B1
100
AcDbEntity
  8
01-01
 62
     4
100
AcDbTrace
 10
478.0820913780323
 20
1231.101981563014
 30
0.0
 11
478.0820913780323
 21
1226.935314896348
 31
0.0
 12
465.5820913780323
 22
1229.018648229681
 32
0.0
 13
465.5820913780323
 23
1229.018648229681
 33
0.0
  0
MTEXT
  5
BA
330
B1
100
AcDbEntity
  8
01-01
 62
     1
100
AcDbMText
 10
463.0820913780323
 20
1240.268648229681
 30
0.0
 40
12.5
 41
0.0
 46
0.0
 71
     5
 72
     1
  1
5
  7
SLDTEXTSTYLE1
 73
     1
 44
1.0
  0
POINT
  5
BB
330
B1
100
AcDbEntity
  8
DEFPOINTS
 62
     0
100
AcDbPoint
 10
460.5820913780322
 20
1221.511744568016
 30
0.0
  0
POINT
  5
BC
330
B1
100
AcDbEntity
  8
DEFPOINTS
 62
     0
100
AcDbPoint
 10
465.5820913780323
 20
1221.511744568016
 30
0.0
  0
POINT
  5
BD
330
B1
100
AcDbEntity
  8
DEFPOINTS
 62
     0
100
AcDbPoint
 10
465.5820913780323
 20
1229.018648229681
 30
0.0
  0
ENDBLK
  5
BE
330
B1
100
AcDbEntity
  8
0
100
AcDbBlockEnd
  0
BLOCK
  5
A5
330
A4
100
AcDbEntity
  8
0
100
AcDbBlockBegin
  2
*D20
 70
     1
 10
0.0
 20
0.0
 30
0.0
  3
*D20
  1

  0
LINE
  5
A6
330
A4
100
AcDbEntity
  8
01-01
 62
     4
370
    -2
100
AcDbLine
 10
504.5820913780324
 20
1272.511744568016
 30
0.0
 11
560.7207425449823
 21
1272.511744568016
 31
0.0
  0
LINE
  5
A7
330
A4
100
AcDbEntity
  8
01-01
 62
     4
370
    -2
100
AcDbLine
 10
471.5820913780323
 20
1221.511744568016
 30
0.0
 11
560.7207425449823
 21
1221.511744568016
 31
0.0
  0
LINE
  5
A8
330
A4
100
AcDbEntity
  8
01-01
 62
     4
370
    -2
100
AcDbLine
 10
555.7207425449823
 20
1260.011744568016
 30
0.0
 11
555.7207425449823
 21
1234.011744568016
 31
0.0
  0
SOLID
  5
A9
330
A4
100
AcDbEntity
  8
01-01
 62
     4
100
AcDbTrace
 10
553.6374092116489
 20
1260.011744568016
 30
0.0
 11
557.8040758783157
 21
1260.011744568016
 31
0.0
 12
555.7207425449823
 22
1272.511744568016
 32
0.0
 13
555.7207425449823
 23
1272.511744568016
 33
0.0
  0
SOLID
  5
AA
330
A4
100
AcDbEntity
  8
01-01
 62
     4
100
AcDbTrace
 10
553.6374092116489
 20
1234.011744568016
 30
0.0
 11
557.8040758783157
 21
1234.011744568016
 31
0.0
 12
555.7207425449823
 22
1221.511744568016
 32
0.0
 13
555.7207425449823
 23
1221.511744568016
 33
0.0
  0
MTEXT
  5
AB
330
A4
100
AcDbEntity
  8
01-01
 62
     1
100
AcDbMText
 10
544.4707425449823
 20
1247.011744568016
 30
0.0
 40
12.5
 41
0.0
 46
0.0
 71
     5
 72
     1
  1
51
  7
SLDTEXTSTYLE1
 11
0.0000000000000001
 21
1.0
 31
0.0
 73
     1
 44
1.0
  0
POINT
  5
AC
330
A4
100
AcDbEntity
  8
DEFPOINTS
 62
     0
100
AcDbPoint
 10
499.5820913780323
 20
1272.511744568016
 30
0.0
  0
POINT
  5
AD
330
A4
100
AcDbEntity
  8
DEFPOINTS
 62
     0
100
AcDbPoint
 10
466.5820913780323
 20
1221.511744568016
 30
0.0
  0
POINT
  5
AE
330
A4
100
AcDbEntity
  8
DEFPOINTS
 62
     0
100
AcDbPoint
 10
555.7207425449823
 20
1221.511744568016
 30
0.0
  0
ENDBLK
  5
AF
330
A4
100
AcDbEntity
  8
0
100
AcDbBlockEnd
  0
BLOCK
  5
98
330
97
100
AcDbEntity
  8
0
100
AcDbBlockBegin
  2
*D21
 70
     1
 10
0.0
 20
0.0
 30
0.0
  3
*D21
  1

  0
LINE
  5
99
330
97
100
AcDbEntity
  8
01-01
 62
     4
370
    -2
100
AcDbLine
 10
471.5820913780323
 20
1221.511744568016
 30
0.0
 11
560.7207425449823
 21
1221.511744568016
 31
0.0
  0
LINE
  5
9A
330
97
100
AcDbEntity
  8
01-01
 62
     4
370
    -2
100
AcDbLine
 10
471.5820913780323
 20
874.5117445680163
 30
0.0
 11
560.7207425449823
 21
874.5117445680163
 31
0.0
  0
LINE
  5
9B
330
97
100
AcDbEntity
  8
01-01
 62
     4
370
    -2
100
AcDbLine
 10
555.7207425449823
 20
1209.011744568016
 30
0.0
 11
555.7207425449823
 21
887.0117445680163
 31
0.0
  0
SOLID
  5
9C
330
97
100
AcDbEntity
  8
01-01
 62
     4
100
AcDbTrace
 10
553.6374092116489
 20
1209.011744568016
 30
0.0
 11
557.8040758783157
 21
1209.011744568016
 31
0.0
 12
555.7207425449823
 22
1221.511744568016
 32
0.0
 13
555.7207425449823
 23
1221.511744568016
 33
0.0
  0
SOLID
  5
9D
330
97
100
AcDbEntity
  8
01-01
 62
     4
100
AcDbTrace
 10
553.6374092116489
 20
887.0117445680163
 30
0.0
 11
557.8040758783157
 21
887.0117445680163
 31
0.0
 12
555.7207425449823
 22
874.5117445680163
 32
0.0
 13
555.7207425449823
 23
874.5117445680163
 33
0.0
  0
MTEXT
  5
9E
330
97
100
AcDbEntity
  8
01-01
 62
     1
100
AcDbMText
 10
544.4707425449823
 20
1048.011744568016
 30
0.0
 40
12.5
 41
0.0
 46
0.0
 71
     5
 72
     1
  1
347
  7
SLDTEXTSTYLE1
 11
0.0000000000000001
 21
1.0
 31
0.0
 73
     1
 44
1.0
  0
POINT
  5
9F
330
97
100
AcDbEntity
  8
DEFPOINTS
 62
     0
100
AcDbPoint
 10
466.5820913780323
 20
1221.511744568016
 30
0.0
  0
POINT
  5
A0
330
97
100
AcDbEntity
  8
DEFPOINTS
 62
     0
100
AcDbPoint
 10
466.5820913780323
 20
874.5117445680163
 30
0.0
  0
POINT
  5
A1
330
97
100
AcDbEntity
  8
DEFPOINTS
 62
     0
100
AcDbPoint
 10
555.7207425449823
 20
874.5117445680163
 30
0.0
  0
ENDBLK
  5
A2
330
97
100
AcDbEntity
  8
0
100
AcDbBlockEnd
  0
BLOCK
  5
8B
330
8A
100
AcDbEntity
  8
0
100
AcDbBlockBegin
  2
*D22
 70
     1
 10
0.0
 20
0.0
 30
0.0
  3
*D22
  1

  0
LINE
  5
8C
330
8A
100
AcDbEntity
  8
01-01
 62
     4
370
    -2
100
AcDbLine
 10
471.5820913780323
 20
874.5117445680163
 30
0.0
 11
560.7207425449823
 21
874.5117445680163
 31
0.0
  0
LINE
  5
8D
330
8A
100
AcDbEntity
  8
01-01
 62
     4
370
    -2
100
AcDbLine
 10
499.5820913780323
 20
824.5117445680163
 30
0.0
 11
560.7207425449823
 21
824.5117445680163
 31
0.0
  0
LINE
  5
8E
330
8A
100
AcDbEntity
  8
01-01
 62
     4
370
    -2
100
AcDbLine
 10
555.7207425449823
 20
862.0117445680163
 30
0.0
 11
555.7207425449823
 21
837.0117445680163
 31
0.0
  0
SOLID
  5
8F
330
8A
100
AcDbEntity
  8
01-01
 62
     4
100
AcDbTrace
 10
553.6374092116489
 20
862.0117445680163
 30
0.0
 11
557.8040758783157
 21
862.0117445680163
 31
0.0
 12
555.7207425449823
 22
874.5117445680163
 32
0.0
 13
555.7207425449823
 23
874.5117445680163
 33
0.0
  0
SOLID
  5
90
330
8A
100
AcDbEntity
  8
01-01
 62
     4
100
AcDbTrace
 10
553.6374092116489
 20
837.0117445680163
 30
0.0
 11
557.8040758783157
 21
837.0117445680163
 31
0.0
 12
555.7207425449823
 22
824.5117445680163
 32
0.0
 13
555.7207425449823
 23
824.5117445680163
 33
0.0
  0
MTEXT
  5
91
330
8A
100
AcDbEntity
  8
01-01
 62
     1
100
AcDbMText
 10
544.4707425449821
 20
849.5117445680165
 30
0.0
 40
12.5
 41
0.0
 46
0.0
 71
     5
 72
     1
  1
50
  7
SLDTEXTSTYLE1
 11
0.0000000000000001
 21
1.0
 31
0.0
 73
     1
 44
1.0
  0
POINT
  5
92
330
8A
100
AcDbEntity
  8
DEFPOINTS
 62
     0
100
AcDbPoint
 10
466.5820913780323
 20
874.5117445680163
 30
0.0
  0
POINT
  5
93
330
8A
100
AcDbEntity
  8
DEFPOINTS
 62
     0
100
AcDbPoint
 10
494.5820913780323
 20
824.5117445680163
 30
0.0
  0
POINT
  5
94
330
8A
100
AcDbEntity
  8
DEFPOINTS
 62
     0
100
AcDbPoint
 10
555.7207425449823
 20
824.5117445680163
 30
0.0
  0
ENDBLK
  5
95
330
8A
100
AcDbEntity
  8
0
100
AcDbBlockEnd
  0
BLOCK
  5
7A
330
79
100
AcDbEntity
  8
0
100
AcDbBlockBegin
  2
*D23
 70
     1
 10
0.0
 20
0.0
 30
0.0
  3
*D23
  1

  0
LINE
  5
7B
330
79
100
AcDbEntity
  8
01-01
 62
     4
370
    -2
100
AcDbLine
 10
463.0820913780323
 20
1197.261744568016
 30
0.0
 11
463.0820913780323
 21
1174.982814991503
 31
0.0
  0
LINE
  5
7C
330
79
100
AcDbEntity
  8
01-01
 62
     4
370
    -2
100
AcDbLine
 10
494.5820913780323
 20
1197.261744568016
 30
0.0
 11
494.5820913780323
 21
1174.982814991503
 31
0.0
  0
LINE
  5
7D
330
79
100
AcDbEntity
  8
01-01
 62
     4
370
    -2
100
AcDbLine
 10
450.5820913780323
 20
1179.982814991503
 30
0.0
 11
438.0820913780323
 21
1179.982814991503
 31
0.0
  0
LINE
  5
7E
330
79
100
AcDbEntity
  8
01-01
 62
     4
370
    -2
100
AcDbLine
 10
507.0820913780323
 20
1179.982814991503
 30
0.0
 11
519.5820913780323
 21
1179.982814991503
 31
0.0
  0
MTEXT
  5
7F
330
79
100
AcDbEntity
  8
01-01
 62
     1
100
AcDbMText
 10
440.2362532372426
 20
1191.232814991503
 30
0.0
 40
12.5
 41
0.0
 46
0.0
 71
     5
 72
     1
  1
31.5
  7
SLDTEXTSTYLE1
 73
     1
 44
1.0
  0
LINE
  5
80
330
79
100
AcDbEntity
  8
01-01
 62
     4
370
    -2
100
AcDbLine
 10
463.0820913780323
 20
1179.982814991503
 30
0.0
 11
494.5820913780323
 21
1179.982814991503
 31
0.0
  0
SOLID
  5
81
330
79
100
AcDbEntity
  8
01-01
 62
     4
100
AcDbTrace
 10
450.5820913780323
 20
1182.066148324836
 30
0.0
 11
450.5820913780323
 21
1177.89948165817
 31
0.0
 12
463.0820913780323
 22
1179.982814991503
 32
0.0
 13
463.0820913780323
 23
1179.982814991503
 33
0.0
  0
SOLID
  5
82
330
79
100
AcDbEntity
  8
01-01
 62
     4
100
AcDbTrace
 10
507.0820913780323
 20
1182.066148324836
 30
0.0
 11
507.0820913780323
 21
1177.89948165817
 31
0.0
 12
494.5820913780323
 22
1179.982814991503
 32
0.0
 13
494.5820913780323
 23
1179.982814991503
 33
0.0
  0
POINT
  5
83
330
79
100
AcDbEntity
  8
DEFPOINTS
 62
     0
100
AcDbPoint
 10
463.0820913780323
 20
1202.261744568016
 30
0.0
  0
POINT
  5
85
330
79
100
AcDbEntity
  8
DEFPOINTS
 62
     0
100
AcDbPoint
 10
494.5820913780323
 20
1202.261744568016
 30
0.0
  0
POINT
  5
86
330
79
100
AcDbEntity
  8
DEFPOINTS
 62
     0
100
AcDbPoint
 10
494.5820913780323
 20
1179.982814991503
 30
0.0
  0
ENDBLK
  5
87
330
79
100
AcDbEntity
  8
0
100
AcDbBlockEnd
  0
ENDSEC
  0
SECTION
  2
ENTITIES
  0
DIMENSION
  5
78
330
2
100
AcDbEntity
  8
01-01
100
AcDbDimension
280
     0
  2
*D23
 10
494.5820913780323
 20
1179.982814991503
 30
0.0
 11
440.2362532372426
 21
1191.232814991503
 31
0.0
 70
   128
 71
     5
 42
31.50000000000006
 73
     0
 74
     0
 75
     0
  3
Wagner$0
100
AcDbAlignedDimension
 13
463.0820913780323
 23
1202.261744568016
 33
0.0
 14
494.5820913780323
 24
1202.261744568016
 34
0.0
100
AcDbRotatedDimension
1001
ACAD
1000
DSTYLE
1002
{
1070
    40
1040
5.0
1002
}
  0
DIMENSION
  5
89
330
2
100
AcDbEntity
  8
01-01
100
AcDbDimension
280
     0
  2
*D22
 10
555.7207425449823
 20
824.5117445680163
 30
0.0
 11
544.4707425449821
 21
849.5117445680165
 31
0.0
 71
     5
 42
50.0
 73
     0
 74
     0
 75
     0
  3
Wagner$0
100
AcDbAlignedDimension
 13
466.5820913780323
 23
874.5117445680163
 33
0.0
 14
494.5820913780323
 24
824.5117445680163
 34
0.0
 50
90.0
100
AcDbRotatedDimension
1001
ACAD
1000
DSTYLE
1002
{
1070
    40
1040
5.0
1002
}
  0
DIMENSION
  5
96
330
2
100
AcDbEntity
  8
01-01
100
AcDbDimension
280
     0
  2
*D21
 10
555.7207425449823
 20
874.5117445680163
 30
0.0
 11
544.4707425449823
 21
1048.011744568016
 31
0.0
 71
     5
 42
346.9999999999999
 73
     0
 74
     0
 75
     0
  3
Wagner$0
100
AcDbAlignedDimension
 13
466.5820913780323
 23
1221.511744568016
 33
0.0
 14
466.5820913780323
 24
874.5117445680163
 34
0.0
 50
90.0
100
AcDbRotatedDimension
1001
ACAD
1000
DSTYLE
1002
{
1070
    40
1040
5.0
1002
}
  0
DIMENSION
  5
A3
330
2
100
AcDbEntity
  8
01-01
100
AcDbDimension
280
     0
  2
*D20
 10
555.7207425449823
 20
1221.511744568016
 30
0.0
 11
544.4707425449823
 21
1247.011744568016
 31
0.0
 71
     5
 42
50.99999999999977
 73
     0
 74
     0
 75
     0
  3
Wagner$0
100
AcDbAlignedDimension
 13
499.5820913780323
 23
1272.511744568016
 33
0.0
 14
466.5820913780323
 24
1221.511744568016
 34
0.0
 50
90.0
100
AcDbRotatedDimension
1001
ACAD
1000
DSTYLE
1002
{
1070
    40
1040
5.0
1002
}
  0
DIMENSION
  5
B0
330
2
100
AcDbEntity
  8
01-01
100
AcDbDimension
280
     0
  2
*D19
 10
465.5820913780323
 20
1229.018648229681
 30
0.0
 11
463.0820913780323
 21
1240.268648229681
 31
0.0
 71
     5
 42
5.0
 73
     0
 74
     0
 75
     0
  3
Wagner$0
100
AcDbAlignedDimension
 13
460.5820913780322
 23
1221.511744568016
 33
0.0
 14
465.5820913780323
 24
1221.511744568016
 34
0.0
100
AcDbRotatedDimension
1001
ACAD
1000
DSTYLE
1002
{
1070
    40
1040
5.0
1002
}
  0
CIRCLE
  5
BF
330
2
100
AcDbEntity
  8
03-01
100
AcDbCircle
 10
345.5820913780323
 20
1209.511744568016
 30
0.0
 40
3.25
  0
LINE
  5
C4
330
2
100
AcDbEntity
  8
05-01
100
AcDbLine
 10
345.5820913780323
 20
1213.761744568016
 30
0.0
 11
345.5820913780323
 21
1205.261744568016
 31
0.0
  0
LINE
  5
C9
330
2
100
AcDbEntity
  8
05-01
100
AcDbLine
 10
341.3320913780323
 20
1209.511744568016
 30
0.0
 11
349.8320913780323
 21
1209.511744568016
 31
0.0
  0
ARC
  5
CA
330
2
100
AcDbEntity
  8
03-01
100
AcDbCircle
 10
463.0820913780323
 20
862.5117445680164
 30
0.0
 40
6.25
100
AcDbArc
 50
113.5781784782074
 51
66.42182152179254
  0
LINE
  5
CB
330
2
100
AcDbEntity
  8
05-01
100
AcDbLine
 10
455.8320913780323
 20
862.5117445680164
 30
0.0
 11
470.3320913780323
 21
862.5117445680164
 31
0.0
  0
LINE
  5
CC
330
2
100
AcDbEntity
  8
05-01
100
AcDbLine
 10
459.5820913780323
 20
874.5117445680163
 30
0.0
 11
466.5820913780323
 21
874.5117445680163
 31
0.0
  0
LINE
  5
CD
330
2
100
AcDbEntity
  8
03-01
100
AcDbLine
 10
460.5820913780322
 20
874.5117445680163
 30
0.0
 11
460.5820913780322
 21
868.2399641867114
 31
0.0
  0
LINE
  5
CE
330
2
100
AcDbEntity
  8
03-01
100
AcDbLine
 10
463.0820913780323
 20
877.0117445680163
 30
0.0
 11
463.0820913780323
 21
877.0117445680163
 31
0.0
  0
ARC
  5
CF
330
2
100
AcDbEntity
  8
03-01
100
AcDbCircle
 10
463.0820913780323
 20
874.5117445680163
 30
0.0
 40
2.5
100
AcDbArc
 50
0.0
 51
180.0
  0
LINE
  5
D0
330
2
100
AcDbEntity
  8
03-01
100
AcDbLine
 10
465.5820913780323
 20
868.2399641867112
 30
0.0
 11
465.5820913780323
 21
874.5117445680163
 31
0.0
  0
LINE
  5
D1
330
2
100
AcDbEntity
  8
05-01
100
AcDbLine
 10
463.0820913780323
 20
878.0117445680163
 30
0.0
 11
463.0820913780323
 21
855.2617445680164
 31
0.0
  0
ARC
  5
D2
330
2
100
AcDbEntity
  8
03-01
100
AcDbCircle
 10
228.0820913780324
 20
862.5117445680164
 30
0.0
 40
6.25
100
AcDbArc
 50
113.5781784782074
 51
66.42182152179254
  0
LINE
  5
D3
330
2
100
AcDbEntity
  8
05-01
100
AcDbLine
 10
220.8320913780324
 20
862.5117445680164
 30
0.0
 11
235.3320913780324
 21
862.5117445680164
 31
0.0
  0
LINE
  5
D4
330
2
100
AcDbEntity
  8
05-01
100
AcDbLine
 10
224.5820913780324
 20
874.5117445680163
 30
0.0
 11
231.5820913780324
 21
874.5117445680163
 31
0.0
  0
LINE
  5
D5
330
2
100
AcDbEntity
  8
03-01
100
AcDbLine
 10
225.5820913780324
 20
874.5117445680163
 30
0.0
 11
225.5820913780324
 21
868.2399641867114
 31
0.0
  0
LINE
  5
D6
330
2
100
AcDbEntity
  8
03-01
100
AcDbLine
 10
228.0820913780324
 20
877.0117445680163
 30
0.0
 11
228.0820913780324
 21
877.0117445680163
 31
0.0
  0
ARC
  5
D7
330
2
100
AcDbEntity
  8
03-01
100
AcDbCircle
 10
228.0820913780324
 20
874.5117445680163
 30
0.0
 40
2.5
100
AcDbArc
 50
0.0
 51
180.0
  0
LINE
  5
D8
330
2
100
AcDbEntity
  8
03-01
100
AcDbLine
 10
230.5820913780324
 20
868.2399641867112
 30
0.0
 11
230.5820913780324
 21
874.5117445680163
 31
0.0
  0
LINE
  5
D9
330
2
100
AcDbEntity
  8
05-01
100
AcDbLine
 10
228.0820913780324
 20
878.0117445680163
 30
0.0
 11
228.0820913780324
 21
855.2617445680164
 31
0.0
  0
ARC
  5
DA
330
2
100
AcDbEntity
  8
03-01
100
AcDbCircle
 10
463.0820913780323
 20
1209.511744568016
 30
0.0
 40
6.25
100
AcDbArc
 50
113.5781784782074
 51
66.42182152179254
  0
LINE
  5
DB
330
2
100
AcDbEntity
  8
05-01
100
AcDbLine
 10
455.8320913780323
 20
1209.511744568016
 30
0.0
 11
470.3320913780323
 21
1209.511744568016
 31
0.0
  0
LINE
  5
DC
330
2
100
AcDbEntity
  8
05-01
100
AcDbLine
 10
459.5820913780323
 20
1221.511744568016
 30
0.0
 11
466.5820913780323
 21
1221.511744568016
 31
0.0
  0
LINE
  5
DD
330
2
100
AcDbEntity
  8
03-01
100
AcDbLine
 10
460.5820913780322
 20
1221.511744568016
 30
0.0
 11
460.5820913780322
 21
1215.239964186711
 31
0.0
  0
LINE
  5
DE
330
2
100
AcDbEntity
  8
03-01
100
AcDbLine
 10
463.0820913780323
 20
1224.011744568016
 30
0.0
 11
463.0820913780323
 21
1224.011744568016
 31
0.0
  0
ARC
  5
DF
330
2
100
AcDbEntity
  8
03-01
100
AcDbCircle
 10
463.0820913780323
 20
1221.511744568016
 30
0.0
 40
2.5
100
AcDbArc
 50
0.0
 51
180.0
  0
LINE
  5
E0
330
2
100
AcDbEntity
  8
03-01
100
AcDbLine
 10
465.5820913780323
 20
1215.239964186711
 30
0.0
 11
465.5820913780323
 21
1221.511744568016
 31
0.0
  0
LINE
  5
E1
330
2
100
AcDbEntity
  8
05-01
100
AcDbLine
 10
463.0820913780323
 20
1225.011744568016
 30
0.0
 11
463.0820913780323
 21
1202.261744568016
 31
0.0
  0
ARC
  5
E2
330
2
100
AcDbEntity
  8
03-01
100
AcDbCircle
 10
228.0820913780324
 20
1209.511744568016
 30
0.0
 40
6.25
100
AcDbArc
 50
113.5781784782074
 51
66.42182152179254
  0
LINE
  5
E3
330
2
100
AcDbEntity
  8
05-01
100
AcDbLine
 10
220.8320913780324
 20
1209.511744568016
 30
0.0
 11
235.3320913780324
 21
1209.511744568016
 31
0.0
  0
LINE
  5
E4
330
2
100
AcDbEntity
  8
05-01
100
AcDbLine
 10
224.5820913780324
 20
1221.511744568016
 30
0.0
 11
231.5820913780324
 21
1221.511744568016
 31
0.0
  0
LINE
  5
E5
330
2
100
AcDbEntity
  8
03-01
100
AcDbLine
 10
225.5820913780324
 20
1221.511744568016
 30
0.0
 11
225.5820913780324
 21
1215.239964186711
 31
0.0
  0
LINE
  5
E6
330
2
100
AcDbEntity
  8
03-01
100
AcDbLine
 10
228.0820913780324
 20
1224.011744568016
 30
0.0
 11
228.0820913780324
 21
1224.011744568016
 31
0.0
  0
ARC
  5
E7
330
2
100
AcDbEntity
  8
03-01
100
AcDbCircle
 10
228.0820913780324
 20
1221.511744568016
 30
0.0
 40
2.5
100
AcDbArc
 50
0.0
 51
180.0
  0
LINE
  5
E8
330
2
100
AcDbEntity
  8
03-01
100
AcDbLine
 10
230.5820913780324
 20
1215.239964186711
 30
0.0
 11
230.5820913780324
 21
1221.511744568016
 31
0.0
  0
LINE
  5
E9
330
2
100
AcDbEntity
  8
05-01
100
AcDbLine
 10
228.0820913780324
 20
1225.011744568016
 30
0.0
 11
228.0820913780324
 21
1202.261744568016
 31
0.0
  0
LINE
  5
EA
330
2
100
AcDbEntity
  8
03-01
100
AcDbLine
 10
198.0820913780324
 20
1270.511744568016
 30
0.0
 11
198.0820913780324
 21
824.5117445680163
 31
0.0
  0
LINE
  5
EB
330
2
100
AcDbEntity
  8
03-01
100
AcDbLine
 10
493.0820913780323
 20
1270.511744568016
 30
0.0
 11
198.0820913780324
 21
1270.511744568016
 31
0.0
  0
LINE
  5
EC
330
2
100
AcDbEntity
  8
03-01
100
AcDbLine
 10
493.0820913780323
 20
824.5117445680163
 30
0.0
 11
493.0820913780323
 21
1270.511744568016
 31
0.0
  0
LINE
  5
ED
330
2
100
AcDbEntity
  8
03-01
100
AcDbLine
 10
198.0820913780324
 20
824.5117445680163
 30
0.0
 11
493.0820913780323
 21
824.5117445680163
 31
0.0
  0
DIMENSION
  5
EE
330
2
100
AcDbEntity
  8
01-01
100
AcDbDimension
280
     0
  2
*D18
 10
494.5820913780323
 20
1370.488258500461
 30
0.0
 11
345.5820913780324
 21
1381.738258500461
 31
0.0
 71
     5
 42
298.0
 73
     0
 74
     0
 75
     0
  3
Wagner$0
100
AcDbAlignedDimension
 13
196.5820913780324
 23
1272.511744568016
 33
0.0
 14
494.5820913780323
 24
1272.511744568016
 34
0.0
100
AcDbRotatedDimension
1001
ACAD
1000
DSTYLE
1002
{
1070
    40
1040
5.0
1002
}
  0
INSERT
  5
FB
330
2
100
AcDbEntity
  8
01-01
100
AcDbBlockReference
 66
     1
  2
DIN A4
 10
0.0
 20
0.0
 30
0.0
 41
5.0
 42
5.0
 43
5.0
  0
ATTRIB
  5
16F
330
FB
100
AcDbEntity
  8
06-99
100
AcDbText
 10
582.4772712570633
 20
130.9391834219235
 30
0.0
 40
20.0
  1
Abfallbehälter WP 139
 41
0.9
  7
ROMANS8
100
AcDbAttribute
280
     0
  2
TEILE
 70
     0
280
     0
  0
ATTRIB
  5
170
330
FB
100
AcDbEntity
  8
06-99
100
AcDbText
 10
582.4772712570633
 20
96.47738243049445
 30
0.0
 40
20.0
  1

 41
0.9
  7
ROMANS8
100
AcDbAttribute
280
     0
  2
TEILE2
 70
     0
280
     0
  0
ATTRIB
  5
171
330
FB
100
AcDbEntity
  8
06-99
100
AcDbText
 10
956.7369686197505
 20
226.6666566021791
 30
0.0
 40
16.875
  1
1:5
  7
ROMANS8
100
AcDbAttribute
280
     0
  2
:
 70
     0
280
     0
  0
ATTRIB
  5
172
330
FB
100
AcDbEntity
  8
06-99
100
AcDbText
 10
464.9853765580145
 20
137.2084172756689
 30
0.0
 40
12.5
  1
Roser
 41
0.9
  7
ROMANS8
100
AcDbAttribute
280
     0
  2
NAME
 70
     0
280
     0
  0
ATTRIB
  5
173
330
FB
100
AcDbEntity
  8
06-99
100
AcDbText
 10
397.4657698206478
 20
137.3061658060686
 30
0.0
 40
12.5
  1
24.11.1995
 50
359.9144597696142
 41
0.5831572030906812
  7
ROMANS8
 72
     5
 11
453.6987231633714
 21
137.2222122688458
 31
0.0
100
AcDbAttribute
280
     0
  2
DATUM
 70
     0
280
     0
  0
ATTRIB
  5
174
330
FB
100
AcDbEntity
  8
06-99
100
AcDbText
 10
892.5317573969689
 20
37.464488936956
 30
0.0
 40
14.9688
  1
727405
  7
ROMANS8
100
AcDbAttribute
280
     0
  2
ID.NR
 70
     0
280
     0
  0
ATTRIB
  5
175
330
FB
100
AcDbEntity
  8
06-99
100
AcDbText
 10
583.6563688397303
 20
188.3333231577347
 30
0.0
 40
15.0
  1

 41
0.9
  7
ROMANS8
100
AcDbAttribute
280
     0
  2
LÄNGE
 70
     0
280
     0
  0
ATTRIB
  5
176
330
FB
100
AcDbEntity
  8
06-99
100
AcDbText
 10
750.9040621200263
 20
188.3905092877366
 30
0.0
 40
15.0
  1

 41
0.9
  7
ROMANS8
100
AcDbAttribute
280
     0
  2
BREITE
 70
     0
280
     0
  0
ATTRIB
  5
177
330
FB
100
AcDbEntity
  8
06-99
100
AcDbText
 10
953.0454981948368
 20
188.3333232688463
 30
0.0
 40
15.46875
  1

  7
ROMANS8
100
AcDbAttribute
280
     0
  2
1.0
 70
     0
280
     0
  0
ATTRIB
  5
178
330
FB
100
AcDbEntity
  8
06-99
100
AcDbText
 10
820.638965568191
 20
226.6666566021797
 30
0.0
 40
15.0
  1

  7
ROMANS8
 72
     1
 11
820.638965568191
 21
226.6666566021797
 31
0.0
100
AcDbAttribute
280
     0
  2
IV
 70
     0
280
     0
  0
ATTRIB
  5
179
330
FB
100
AcDbEntity
  8
06-99
100
AcDbText
 10
616.3737402417568
 20
226.666656602179
 30
0.0
 40
16.875
  1
1.4301
  7
ROMANS8
100
AcDbAttribute
280
     0
  2
1.4301
 70
     0
280
     0
  0
ATTRIB
  5
17A
330
FB
100
AcDbEntity
  8
06-99
100
AcDbText
 10
730.003206995578
 20
37.52197295728564
 30
0.0
 40
15.84
  1

 41
0.9000000000000001
  7
ROMANS8
100
AcDbAttribute
280
     0
  2
AUFTRAGS.NR.
 70
     0
280
     0
  0
ATTRIB
  5
17B
330
FB
100
AcDbEntity
  8
06-99
100
AcDbText
 10
582.5000375611774
 20
37.49998993551259
 30
0.0
 40
15.84
  1

 41
0.9000000000000001
  7
ROMANS8
100
AcDbAttribute
280
     0
  2
SONDER-NR
 70
     0
280
     0
  0
ATTRIB
  5
17C
330
FB
100
AcDbEntity
  8
06-99
100
AcDbText
 10
232.498792536219
 20
33.00904028181179
 30
0.0
 40
7.5
  1

 41
0.9
  7
ROMANS8
100
AcDbAttribute
280
     0
  2
ERSETZT.DURCH
 70
     0
280
     0
  0
ATTRIB
  5
17D
330
FB
100
AcDbEntity
  8
06-99
100
AcDbText
 10
107.4973764621701
 20
32.98727192487462
 30
0.0
 40
7.5
  1

 41
0.9
  7
ROMANS8
100
AcDbAttribute
280
     0
  2
ERSETZT.FÜR
 70
     0
280
     0
  0
ATTRIB
  5
17E
330
FB
100
AcDbEntity
  8
06-99
100
AcDbText
 10
499.8654007933654
 20
238.3425456355525
 30
0.0
 40
6.435
  1
DIN A4
  7
ROMANS8
 72
     1
 11
516.2593293647939
 21
238.3425456355525
 31
0.0
100
AcDbAttribute
280
     0
  2
FORMAT
 70
     0
280
     0
  0
ATTRIB
  5
17F
330
FB
100
AcDbEntity
  8
06-99
100
AcDbText
 10
479.937232548209
 20
185.9848266048362
 30
0.0
 40
11.7
  1
DIN 2768
  7
ROMANS8
 72
     1
 11
520.0515182624947
 21
185.9848266048362
 31
0.0
100
AcDbAttribute
280
     0
  2
NORM2
 70
     0
280
     0
  0
ATTRIB
  5
180
330
FB
100
AcDbEntity
  8
06-99
100
AcDbText
 10
464.0586611196373
 20
205.1514932715028
 30
0.0
 40
11.7
  1
DIN 6930-M
  7
ROMANS8
 72
     1
 11
517.5443754053516
 21
205.1514932715028
 31
0.0
100
AcDbAttribute
280
     0
  2
NORM1
 70
     0
280
     0
  0
SEQEND
  5
181
330
FB
100
AcDbEntity
  8
01-01
  0
LINE
  5
182
330
2
100
AcDbEntity
  8
03-01
100
AcDbLine
 10
908.9695613207863
 20
1015.54945431247
 30
0.0
 11
908.9695613207863
 21
1071.549454312471
 31
0.0
  0
LINE
  5
183
330
2
100
AcDbEntity
  8
03-01
100
AcDbLine
 10
904.9695613207861
 20
1015.54945431247
 30
0.0
 11
904.9695613207864
 21
1071.549454312471
 31
0.0
  0
ARC
  5
184
330
2
100
AcDbEntity
  8
03-01
100
AcDbCircle
 10
910.9695613207863
 20
1073.549454312471
 30
0.0
 40
2.0
100
AcDbArc
 50
90.0
 51
270.0
  0
ARC
  5
185
330
2
100
AcDbEntity
  8
03-01
100
AcDbCircle
 10
910.9695613207863
 20
1073.549454312471
 30
0.0
 40
2.0
100
AcDbArc
 50
270.0
 51
90.0
  0
ARC
  5
186
330
2
100
AcDbEntity
  8
03-01
100
AcDbCircle
 10
910.9695613207863
 20
963.5494543124705
 30
0.0
 40
2.0
100
AcDbArc
 50
270.0
 51
90.0
  0
ARC
  5
187
330
2
100
AcDbEntity
  8
03-01
100
AcDbCircle
 10
910.9695613207863
 20
963.5494543124705
 30
0.0
 40
2.0
100
AcDbArc
 50
90.0
 51
270.0
  0
LINE
  5
188
330
2
100
AcDbEntity
  8
03-01
100
AcDbLine
 10
908.9695613207863
 20
965.5494543124705
 30
0.0
 11
908.9695613207863
 21
1011.54945431247
 31
0.0
  0
LINE
  5
189
330
2
100
AcDbEntity
  8
03-01
100
AcDbLine
 10
904.9695613207861
 20
965.5494543124705
 30
0.0
 11
904.9695613207861
 21
1011.54945431247
 31
0.0
  0
ARC
  5
18A
330
2
100
AcDbEntity
  8
03-01
100
AcDbCircle
 10
910.9695613207863
 20
913.5494543124705
 30
0.0
 40
2.0
100
AcDbArc
 50
270.0
 51
90.0
  0
ARC
  5
18B
330
2
100
AcDbEntity
  8
03-01
100
AcDbCircle
 10
910.9695613207863
 20
913.5494543124705
 30
0.0
 40
2.0
100
AcDbArc
 50
90.0
 51
270.0
  0
LINE
  5
18C
330
2
100
AcDbEntity
  8
03-01
100
AcDbLine
 10
908.9695613207863
 20
915.5494543124705
 30
0.0
 11
908.9695613207863
 21
961.5494543124706
 31
0.0
  0
LINE
  5
18D
330
2
100
AcDbEntity
  8
03-01
100
AcDbLine
 10
904.9695613207861
 20
915.5494543124705
 30
0.0
 11
904.9695613207861
 21
961.5494543124706
 31
0.0
  0
LINE
  5
18E
330
2
100
AcDbEntity
  8
03-01
100
AcDbLine
 10
908.9695613207863
 20
849.5494543124705
 30
0.0
 11
908.9695613207863
 21
861.5494543124706
 31
0.0
  0
LINE
  5
18F
330
2
100
AcDbEntity
  8
03-01
100
AcDbLine
 10
904.9695613207861
 20
849.5494543124705
 30
0.0
 11
904.9695613207861
 21
861.5494543124706
 31
0.0
  0
ARC
  5
190
330
2
100
AcDbEntity
  8
03-01
100
AcDbCircle
 10
902.9695613207861
 20
849.5494543124705
 30
0.0
 40
2.0
100
AcDbArc
 50
270.0
 51
0.0
  0
ARC
  5
191
330
2
100
AcDbEntity
  8
03-01
100
AcDbCircle
 10
902.9695613207863
 20
849.5494543124705
 30
0.0
 40
6.0
100
AcDbArc
 50
270.0
 51
0.0
  0
ARC
  5
192
330
2
100
AcDbEntity
  8
03-01
100
AcDbCircle
 10
910.9695613207863
 20
863.5494543124705
 30
0.0
 40
2.0
100
AcDbArc
 50
90.0
 51
270.0
  0
ARC
  5
193
330
2
100
AcDbEntity
  8
03-01
100
AcDbCircle
 10
910.9695613207863
 20
863.5494543124705
 30
0.0
 40
2.0
100
AcDbArc
 50
270.0
 51
90.0
  0
LINE
  5
194
330
2
100
AcDbEntity
  8
03-01
100
AcDbLine
 10
904.9695613207861
 20
865.5494543124705
 30
0.0
 11
904.9695613207861
 21
911.5494543124706
 31
0.0
  0
LINE
  5
195
330
2
100
AcDbEntity
  8
03-01
100
AcDbLine
 10
908.9695613207863
 20
865.5494543124705
 30
0.0
 11
908.9695613207863
 21
911.5494543124706
 31
0.0
  0
ARC
  5
196
330
2
100
AcDbEntity
  8
03-01
100
AcDbCircle
 10
910.9695613207863
 20
1013.54945431247
 30
0.0
 40
2.0
100
AcDbArc
 50
270.0
 51
90.0
  0
ARC
  5
197
330
2
100
AcDbEntity
  8
03-01
100
AcDbCircle
 10
910.9695613207863
 20
1013.54945431247
 30
0.0
 40
2.0
100
AcDbArc
 50
90.0
 51
270.0
  0
LINE
  5
198
330
2
100
AcDbEntity
  8
03-01
100
AcDbLine
 10
869.9695613207863
 20
1015.54945431247
 30
0.0
 11
869.9695613207866
 21
1071.549454312471
 31
0.0
  0
LINE
  5
199
330
2
100
AcDbEntity
  8
03-01
100
AcDbLine
 10
865.9695613207864
 20
1015.54945431247
 30
0.0
 11
865.9695613207865
 21
1071.549454312471
 31
0.0
  0
LINE
  5
19A
330
2
100
AcDbEntity
  8
03-01
100
AcDbLine
 10
819.9695613207863
 20
1015.54945431247
 30
0.0
 11
819.9695613207863
 21
1071.549454312471
 31
0.0
  0
LINE
  5
19B
330
2
100
AcDbEntity
  8
03-01
100
AcDbLine
 10
815.9695613207864
 20
1015.54945431247
 30
0.0
 11
815.9695613207864
 21
1071.549454312471
 31
0.0
  0
LINE
  5
19C
330
2
100
AcDbEntity
  8
03-01
100
AcDbLine
 10
765.9695613207864
 20
1015.54945431247
 30
0.0
 11
765.9695613207864
 21
1071.549454312471
 31
0.0
  0
LINE
  5
19D
330
2
100
AcDbEntity
  8
03-01
100
AcDbLine
 10
769.9695613207864
 20
1015.54945431247
 30
0.0
 11
769.9695613207864
 21
1071.549454312471
 31
0.0
  0
LINE
  5
19E
330
2
100
AcDbEntity
  8
03-01
100
AcDbLine
 10
715.9695613207864
 20
1015.54945431247
 30
0.0
 11
715.9695613207864
 21
1071.549454312471
 31
0.0
  0
LINE
  5
19F
330
2
100
AcDbEntity
  8
03-01
100
AcDbLine
 10
719.9695613207864
 20
1015.54945431247
 30
0.0
 11
719.9695613207864
 21
1071.549454312471
 31
0.0
  0
LINE
  5
1A0
330
2
100
AcDbEntity
  8
03-01
100
AcDbLine
 10
665.9695613207864
 20
1015.54945431247
 30
0.0
 11
665.9695613207864
 21
1071.549454312471
 31
0.0
  0
LINE
  5
1A1
330
2
100
AcDbEntity
  8
03-01
100
AcDbLine
 10
669.9695613207864
 20
1015.54945431247
 30
0.0
 11
669.9695613207864
 21
1071.549454312471
 31
0.0
  0
LINE
  5
1A2
330
2
100
AcDbEntity
  8
03-01
100
AcDbLine
 10
635.9695613207866
 20
1015.54945431247
 30
0.0
 11
635.9695613207864
 21
1071.549454312471
 31
0.0
  0
LINE
  5
1A3
330
2
100
AcDbEntity
  8
03-01
100
AcDbLine
 10
631.9695613207864
 20
1015.54945431247
 30
0.0
 11
631.9695613207864
 21
1071.549454312471
 31
0.0
  0
ARC
  5
1A4
330
2
100
AcDbEntity
  8
03-01
100
AcDbCircle
 10
629.9695613207863
 20
1073.549454312471
 30
0.0
 40
2.0
100
AcDbArc
 50
90.0
 51
270.0
  0
ARC
  5
1A5
330
2
100
AcDbEntity
  8
03-01
100
AcDbCircle
 10
629.9695613207863
 20
1073.549454312471
 30
0.0
 40
2.0
100
AcDbArc
 50
270.0
 51
90.0
  0
LINE
  5
1A6
330
2
100
AcDbEntity
  8
03-01
100
AcDbLine
 10
631.9695613207864
 20
1015.54945431247
 30
0.0
 11
861.4695613207864
 21
1015.54945431247
 31
0.0
  0
LINE
  5
1A7
330
2
100
AcDbEntity
  8
03-01
100
AcDbLine
 10
629.9695613207863
 20
1071.549454312471
 30
0.0
 11
861.4695613207864
 21
1071.549454312471
 31
0.0
  0
LINE
  5
1A8
330
2
100
AcDbEntity
  8
03-01
100
AcDbLine
 10
869.9695613207863
 20
965.5494543124705
 30
0.0
 11
869.9695613207863
 21
1011.54945431247
 31
0.0
  0
LINE
  5
1A9
330
2
100
AcDbEntity
  8
03-01
100
AcDbLine
 10
865.9695613207864
 20
965.5494543124705
 30
0.0
 11
865.9695613207864
 21
1011.54945431247
 31
0.0
  0
LINE
  5
1AA
330
2
100
AcDbEntity
  8
03-01
100
AcDbLine
 10
869.9695613207863
 20
915.5494543124705
 30
0.0
 11
869.9695613207863
 21
961.5494543124706
 31
0.0
  0
LINE
  5
1AB
330
2
100
AcDbEntity
  8
03-01
100
AcDbLine
 10
865.9695613207864
 20
915.5494543124705
 30
0.0
 11
865.9695613207864
 21
961.5494543124706
 31
0.0
  0
LINE
  5
1AC
330
2
100
AcDbEntity
  8
03-01
100
AcDbLine
 10
819.9695613207863
 20
965.5494543124705
 30
0.0
 11
819.9695613207863
 21
1011.54945431247
 31
0.0
  0
LINE
  5
1AD
330
2
100
AcDbEntity
  8
03-01
100
AcDbLine
 10
815.9695613207864
 20
965.5494543124705
 30
0.0
 11
815.9695613207864
 21
1011.54945431247
 31
0.0
  0
LINE
  5
1AE
330
2
100
AcDbEntity
  8
03-01
100
AcDbLine
 10
815.9695613207864
 20
915.5494543124705
 30
0.0
 11
815.9695613207864
 21
961.5494543124706
 31
0.0
  0
LINE
  5
1AF
330
2
100
AcDbEntity
  8
03-01
100
AcDbLine
 10
819.9695613207863
 20
915.5494543124705
 30
0.0
 11
819.9695613207863
 21
961.5494543124706
 31
0.0
  0
LINE
  5
1B0
330
2
100
AcDbEntity
  8
03-01
100
AcDbLine
 10
869.9695613207863
 20
841.5494543124706
 30
0.0
 11
869.9695613207863
 21
861.5494543124706
 31
0.0
  0
LINE
  5
1B1
330
2
100
AcDbEntity
  8
03-01
100
AcDbLine
 10
865.9695613207864
 20
841.5494543124706
 30
0.0
 11
865.9695613207864
 21
861.5494543124706
 31
0.0
  0
LINE
  5
1B2
330
2
100
AcDbEntity
  8
03-01
100
AcDbLine
 10
861.4695613207864
 20
847.5494543124705
 30
0.0
 11
865.9695613207864
 21
847.5494543124705
 31
0.0
  0
LINE
  5
1B3
330
2
100
AcDbEntity
  8
03-01
100
AcDbLine
 10
861.4695613207864
 20
843.5494543124704
 30
0.0
 11
865.9695613207864
 21
843.5494543124704
 31
0.0
  0
ARC
  5
1B4
330
2
100
AcDbEntity
  8
03-01
100
AcDbCircle
 10
867.9695613207863
 20
841.5494543124706
 30
0.0
 40
2.0
100
AcDbArc
 50
0.0
 51
180.0
  0
ARC
  5
1B5
330
2
100
AcDbEntity
  8
03-01
100
AcDbCircle
 10
867.9695613207863
 20
841.5494543124706
 30
0.0
 40
2.0
100
AcDbArc
 50
180.0
 51
359.9999999999935
  0
LINE
  5
1B6
330
2
100
AcDbEntity
  8
03-01
100
AcDbLine
 10
819.9695613207863
 20
841.5494543124706
 30
0.0
 11
819.9695613207863
 21
861.5494543124706
 31
0.0
  0
LINE
  5
1B7
330
2
100
AcDbEntity
  8
03-01
100
AcDbLine
 10
815.9695613207864
 20
843.5494543124704
 30
0.0
 11
811.4695613207864
 21
843.5494543124704
 31
0.0
  0
LINE
  5
1B8
330
2
100
AcDbEntity
  8
03-01
100
AcDbLine
 10
815.9695613207864
 20
847.5494543124705
 30
0.0
 11
811.4695613207864
 21
847.5494543124705
 31
0.0
  0
LINE
  5
1B9
330
2
100
AcDbEntity
  8
03-01
100
AcDbLine
 10
815.9695613207864
 20
841.5494543124706
 30
0.0
 11
815.9695613207864
 21
861.5494543124706
 31
0.0
  0
ARC
  5
1BA
330
2
100
AcDbEntity
  8
03-01
100
AcDbCircle
 10
817.9695613207863
 20
841.5494543124706
 30
0.0
 40
2.0
100
AcDbArc
 50
0.0
 51
180.0
  0
ARC
  5
1BB
330
2
100
AcDbEntity
  8
03-01
100
AcDbCircle
 10
817.9695613207863
 20
841.5494543124706
 30
0.0
 40
2.0
100
AcDbArc
 50
180.0
 51
359.9999999999935
  0
LINE
  5
1BC
330
2
100
AcDbEntity
  8
03-01
100
AcDbLine
 10
819.9695613207866
 20
847.5494543124707
 30
0.0
 11
861.4695613207864
 21
847.5494543124705
 31
0.0
  0
LINE
  5
1BD
330
2
100
AcDbEntity
  8
03-01
100
AcDbLine
 10
819.9695613207866
 20
843.5494543124708
 30
0.0
 11
861.4695613207864
 21
843.5494543124704
 31
0.0
  0
LINE
  5
1BE
330
2
100
AcDbEntity
  8
03-01
100
AcDbLine
 10
815.9695613207864
 20
865.5494543124705
 30
0.0
 11
815.9695613207864
 21
911.5494543124706
 31
0.0
  0
LINE
  5
1BF
330
2
100
AcDbEntity
  8
03-01
100
AcDbLine
 10
819.9695613207863
 20
865.5494543124705
 30
0.0
 11
819.9695613207863
 21
911.5494543124706
 31
0.0
  0
LINE
  5
1C0
330
2
100
AcDbEntity
  8
03-01
100
AcDbLine
 10
865.9695613207864
 20
865.5494543124705
 30
0.0
 11
865.9695613207864
 21
911.5494543124706
 31
0.0
  0
LINE
  5
1C1
330
2
100
AcDbEntity
  8
03-01
100
AcDbLine
 10
869.9695613207863
 20
865.5494543124705
 30
0.0
 11
869.9695613207863
 21
911.5494543124706
 31
0.0
  0
LINE
  5
1C2
330
2
100
AcDbEntity
  8
03-01
100
AcDbLine
 10
765.9695613207864
 20
965.5494543124705
 30
0.0
 11
765.9695613207864
 21
1011.54945431247
 31
0.0
  0
LINE
  5
1C3
330
2
100
AcDbEntity
  8
03-01
100
AcDbLine
 10
769.9695613207864
 20
965.5494543124705
 30
0.0
 11
769.9695613207864
 21
1011.54945431247
 31
0.0
  0
LINE
  5
1C4
330
2
100
AcDbEntity
  8
03-01
100
AcDbLine
 10
765.9695613207864
 20
915.5494543124705
 30
0.0
 11
765.9695613207864
 21
961.5494543124706
 31
0.0
  0
LINE
  5
1C5
330
2
100
AcDbEntity
  8
03-01
100
AcDbLine
 10
769.9695613207864
 20
915.5494543124705
 30
0.0
 11
769.9695613207864
 21
961.5494543124706
 31
0.0
  0
LINE
  5
1C6
330
2
100
AcDbEntity
  8
03-01
100
AcDbLine
 10
715.9695613207864
 20
965.5494543124705
 30
0.0
 11
715.9695613207864
 21
1011.54945431247
 31
0.0
  0
LINE
  5
1C7
330
2
100
AcDbEntity
  8
03-01
100
AcDbLine
 10
719.9695613207864
 20
965.5494543124705
 30
0.0
 11
719.9695613207864
 21
1011.54945431247
 31
0.0
  0
LINE
  5
1C8
330
2
100
AcDbEntity
  8
03-01
100
AcDbLine
 10
715.9695613207864
 20
915.5494543124705
 30
0.0
 11
715.9695613207864
 21
961.5494543124706
 31
0.0
  0
LINE
  5
1C9
330
2
100
AcDbEntity
  8
03-01
100
AcDbLine
 10
719.9695613207864
 20
915.5494543124705
 30
0.0
 11
719.9695613207864
 21
961.5494543124706
 31
0.0
  0
LINE
  5
1CA
330
2
100
AcDbEntity
  8
03-01
100
AcDbLine
 10
769.9695613207864
 20
841.5494543124706
 30
0.0
 11
769.9695613207864
 21
861.5494543124706
 31
0.0
  0
LINE
  5
1CB
330
2
100
AcDbEntity
  8
03-01
100
AcDbLine
 10
765.9695613207864
 20
841.5494543124706
 30
0.0
 11
765.9695613207864
 21
861.5494543124706
 31
0.0
  0
ARC
  5
1CC
330
2
100
AcDbEntity
  8
03-01
100
AcDbCircle
 10
767.9695613207863
 20
841.5494543124706
 30
0.0
 40
2.0
100
AcDbArc
 50
0.0
 51
180.0
  0
LINE
  5
1CD
330
2
100
AcDbEntity
  8
03-01
100
AcDbLine
 10
765.9695613207864
 20
843.5494543124704
 30
0.0
 11
761.4695613207864
 21
843.5494543124704
 31
0.0
  0
LINE
  5
1CE
330
2
100
AcDbEntity
  8
03-01
100
AcDbLine
 10
765.9695613207864
 20
847.5494543124705
 30
0.0
 11
761.4695613207864
 21
847.5494543124705
 31
0.0
  0
ARC
  5
1CF
330
2
100
AcDbEntity
  8
03-01
100
AcDbCircle
 10
767.9695613207863
 20
841.5494543124706
 30
0.0
 40
2.0
100
AcDbArc
 50
180.0
 51
359.9999999999935
  0
LINE
  5
1D0
330
2
100
AcDbEntity
  8
03-01
100
AcDbLine
 10
719.9695613207864
 20
841.549454312471
 30
0.0
 11
719.9695613207864
 21
861.5494543124706
 31
0.0
  0
LINE
  5
1D1
330
2
100
AcDbEntity
  8
03-01
100
AcDbLine
 10
715.9695613207864
 20
841.549454312471
 30
0.0
 11
715.9695613207864
 21
861.5494543124706
 31
0.0
  0
ARC
  5
1D2
330
2
100
AcDbEntity
  8
03-01
100
AcDbCircle
 10
717.9695613207863
 20
841.549454312471
 30
0.0
 40
2.0
100
AcDbArc
 50
0.0
 51
180.0
  0
ARC
  5
1D3
330
2
100
AcDbEntity
  8
03-01
100
AcDbCircle
 10
717.9695613207863
 20
841.5494543124706
 30
0.0
 40
2.0
100
AcDbArc
 50
180.0
 51
359.9999999999935
  0
LINE
  5
1D4
330
2
100
AcDbEntity
  8
03-01
100
AcDbLine
 10
719.9695613207864
 20
847.5494543124705
 30
0.0
 11
765.9695613207864
 21
847.5494543124705
 31
0.0
  0
LINE
  5
1D5
330
2
100
AcDbEntity
  8
03-01
100
AcDbLine
 10
719.9695613207864
 20
843.5494543124704
 30
0.0
 11
765.9695613207864
 21
843.5494543124704
 31
0.0
  0
LINE
  5
1D6
330
2
100
AcDbEntity
  8
03-01
100
AcDbLine
 10
715.9695613207864
 20
865.5494543124705
 30
0.0
 11
715.9695613207864
 21
911.5494543124706
 31
0.0
  0
LINE
  5
1D7
330
2
100
AcDbEntity
  8
03-01
100
AcDbLine
 10
719.9695613207864
 20
865.5494543124705
 30
0.0
 11
719.9695613207864
 21
911.5494543124706
 31
0.0
  0
LINE
  5
1D8
330
2
100
AcDbEntity
  8
03-01
100
AcDbLine
 10
765.9695613207864
 20
865.5494543124705
 30
0.0
 11
765.9695613207864
 21
911.5494543124706
 31
0.0
  0
LINE
  5
1D9
330
2
100
AcDbEntity
  8
03-01
100
AcDbLine
 10
769.9695613207864
 20
865.5494543124705
 30
0.0
 11
769.9695613207864
 21
911.5494543124706
 31
0.0
  0
LINE
  5
1DA
330
2
100
AcDbEntity
  8
03-01
100
AcDbLine
 10
769.9695613207864
 20
847.5494543124705
 30
0.0
 11
815.9695613207865
 21
847.5494543124707
 31
0.0
  0
LINE
  5
1DB
330
2
100
AcDbEntity
  8
03-01
100
AcDbLine
 10
769.9695613207864
 20
843.5494543124704
 30
0.0
 11
815.9695613207865
 21
843.5494543124708
 31
0.0
  0
LINE
  5
1DC
330
2
100
AcDbEntity
  8
03-01
100
AcDbLine
 10
665.9695613207864
 20
965.5494543124705
 30
0.0
 11
665.9695613207864
 21
1011.54945431247
 31
0.0
  0
LINE
  5
1DD
330
2
100
AcDbEntity
  8
03-01
100
AcDbLine
 10
669.9695613207864
 20
965.5494543124705
 30
0.0
 11
669.9695613207864
 21
1011.54945431247
 31
0.0
  0
LINE
  5
1DE
330
2
100
AcDbEntity
  8
03-01
100
AcDbLine
 10
635.9695613207866
 20
965.5494543124705
 30
0.0
 11
635.9695613207866
 21
1011.54945431247
 31
0.0
  0
LINE
  5
1DF
330
2
100
AcDbEntity
  8
03-01
100
AcDbLine
 10
665.9695613207864
 20
915.5494543124705
 30
0.0
 11
665.9695613207864
 21
961.5494543124706
 31
0.0
  0
LINE
  5
1E0
330
2
100
AcDbEntity
  8
03-01
100
AcDbLine
 10
669.9695613207864
 20
915.5494543124705
 30
0.0
 11
669.9695613207864
 21
961.5494543124706
 31
0.0
  0
LINE
  5
1E1
330
2
100
AcDbEntity
  8
03-01
100
AcDbLine
 10
635.9695613207866
 20
915.5494543124705
 30
0.0
 11
635.9695613207866
 21
961.5494543124706
 31
0.0
  0
LINE
  5
1E2
330
2
100
AcDbEntity
  8
03-01
100
AcDbLine
 10
669.9695613207864
 20
841.5494543124706
 30
0.0
 11
669.9695613207864
 21
861.5494543124706
 31
0.0
  0
LINE
  5
1E3
330
2
100
AcDbEntity
  8
03-01
100
AcDbLine
 10
665.9695613207864
 20
841.5494543124706
 30
0.0
 11
665.9695613207864
 21
861.5494543124706
 31
0.0
  0
ARC
  5
1E4
330
2
100
AcDbEntity
  8
03-01
100
AcDbCircle
 10
667.9695613207863
 20
841.5494543124706
 30
0.0
 40
2.0
100
AcDbArc
 50
0.0
 51
180.0
  0
LINE
  5
1E5
330
2
100
AcDbEntity
  8
03-01
100
AcDbLine
 10
665.9695613207864
 20
843.5494543124704
 30
0.0
 11
661.4695613207864
 21
843.5494543124704
 31
0.0
  0
LINE
  5
1E6
330
2
100
AcDbEntity
  8
03-01
100
AcDbLine
 10
665.9695613207864
 20
847.5494543124705
 30
0.0
 11
661.4695613207864
 21
847.5494543124705
 31
0.0
  0
ARC
  5
1E7
330
2
100
AcDbEntity
  8
03-01
100
AcDbCircle
 10
637.9695613207866
 20
849.5494543124705
 30
0.0
 40
2.0
100
AcDbArc
 50
180.0
 51
270.0
  0
LINE
  5
1E8
330
2
100
AcDbEntity
  8
03-01
100
AcDbLine
 10
635.9695613207866
 20
849.5494543124705
 30
0.0
 11
635.9695613207866
 21
861.5494543124706
 31
0.0
  0
LINE
  5
1E9
330
2
100
AcDbEntity
  8
03-01
100
AcDbLine
 10
635.9695613207864
 20
847.5494543124705
 30
0.0
 11
665.9695613207864
 21
847.5494543124705
 31
0.0
  0
LINE
  5
1EA
330
2
100
AcDbEntity
  8
03-01
100
AcDbLine
 10
635.9695613207864
 20
843.5494543124704
 30
0.0
 11
665.9695613207864
 21
843.5494543124704
 31
0.0
  0
ARC
  5
1EB
330
2
100
AcDbEntity
  8
03-01
100
AcDbCircle
 10
667.9695613207863
 20
841.5494543124706
 30
0.0
 40
2.0
100
AcDbArc
 50
180.0
 51
359.9999999999935
  0
LINE
  5
1EC
330
2
100
AcDbEntity
  8
03-01
100
AcDbLine
 10
665.9695613207864
 20
865.5494543124705
 30
0.0
 11
665.9695613207864
 21
911.5494543124706
 31
0.0
  0
LINE
  5
1ED
330
2
100
AcDbEntity
  8
03-01
100
AcDbLine
 10
669.9695613207864
 20
865.5494543124705
 30
0.0
 11
669.9695613207864
 21
911.5494543124706
 31
0.0
  0
LINE
  5
1EE
330
2
100
AcDbEntity
  8
03-01
100
AcDbLine
 10
635.9695613207866
 20
865.5494543124705
 30
0.0
 11
635.9695613207866
 21
911.5494543124706
 31
0.0
  0
ARC
  5
1EF
330
2
100
AcDbEntity
  8
03-01
100
AcDbCircle
 10
629.9695613207863
 20
963.5494543124705
 30
0.0
 40
2.0
100
AcDbArc
 50
270.0
 51
90.0
  0
ARC
  5
1F0
330
2
100
AcDbEntity
  8
03-01
100
AcDbCircle
 10
629.9695613207863
 20
963.5494543124705
 30
0.0
 40
2.0
100
AcDbArc
 50
90.0
 51
270.0
  0
LINE
  5
1F1
330
2
100
AcDbEntity
  8
03-01
100
AcDbLine
 10
631.9695613207864
 20
965.5494543124705
 30
0.0
 11
631.9695613207864
 21
1011.54945431247
 31
0.0
  0
ARC
  5
1F2
330
2
100
AcDbEntity
  8
03-01
100
AcDbCircle
 10
629.9695613207863
 20
913.5494543124705
 30
0.0
 40
2.0
100
AcDbArc
 50
270.0
 51
90.0
  0
ARC
  5
1F3
330
2
100
AcDbEntity
  8
03-01
100
AcDbCircle
 10
629.9695613207863
 20
913.5494543124705
 30
0.0
 40
2.0
100
AcDbArc
 50
90.0
 51
270.0
  0
LINE
  5
1F4
330
2
100
AcDbEntity
  8
03-01
100
AcDbLine
 10
631.9695613207864
 20
915.5494543124705
 30
0.0
 11
631.9695613207864
 21
961.5494543124706
 31
0.0
  0
ARC
  5
1F5
330
2
100
AcDbEntity
  8
03-01
100
AcDbCircle
 10
629.9695613207863
 20
863.5494543124705
 30
0.0
 40
2.0
100
AcDbArc
 50
90.0
 51
270.0
  0
ARC
  5
1F6
330
2
100
AcDbEntity
  8
03-01
100
AcDbCircle
 10
629.9695613207863
 20
863.5494543124705
 30
0.0
 40
2.0
100
AcDbArc
 50
270.0
 51
90.0
  0
LINE
  5
1F7
330
2
100
AcDbEntity
  8
03-01
100
AcDbLine
 10
631.9695613207864
 20
849.5494543124705
 30
0.0
 11
631.9695613207864
 21
861.5494543124706
 31
0.0
  0
LINE
  5
1F8
330
2
100
AcDbEntity
  8
03-01
100
AcDbLine
 10
631.9695613207864
 20
865.5494543124705
 30
0.0
 11
631.9695613207864
 21
911.5494543124706
 31
0.0
  0
ARC
  5
1F9
330
2
100
AcDbEntity
  8
03-01
100
AcDbCircle
 10
637.9695613207863
 20
849.5494543124705
 30
0.0
 40
6.0
100
AcDbArc
 50
180.0
 51
270.0
  0
LINE
  5
1FA
330
2
100
AcDbEntity
  8
03-01
100
AcDbLine
 10
631.9695613207864
 20
865.5494543124705
 30
0.0
 11
861.4695613207864
 21
865.5494543124705
 31
0.0
  0
LINE
  5
1FB
330
2
100
AcDbEntity
  8
03-01
100
AcDbLine
 10
631.9695613207864
 20
861.5494543124706
 30
0.0
 11
861.4695613207864
 21
861.5494543124706
 31
0.0
  0
LINE
  5
1FC
330
2
100
AcDbEntity
  8
03-01
100
AcDbLine
 10
631.9695613207864
 20
911.5494543124706
 30
0.0
 11
861.4695613207864
 21
911.5494543124706
 31
0.0
  0
LINE
  5
1FD
330
2
100
AcDbEntity
  8
03-01
100
AcDbLine
 10
631.9695613207864
 20
915.5494543124705
 30
0.0
 11
861.4695613207864
 21
915.5494543124705
 31
0.0
  0
LINE
  5
1FE
330
2
100
AcDbEntity
  8
03-01
100
AcDbLine
 10
631.9695613207864
 20
961.5494543124706
 30
0.0
 11
861.4695613207864
 21
961.5494543124706
 31
0.0
  0
LINE
  5
1FF
330
2
100
AcDbEntity
  8
03-01
100
AcDbLine
 10
631.9695613207864
 20
965.5494543124705
 30
0.0
 11
861.4695613207864
 21
965.5494543124705
 31
0.0
  0
LINE
  5
200
330
2
100
AcDbEntity
  8
03-01
100
AcDbLine
 10
631.9695613207864
 20
1011.54945431247
 30
0.0
 11
861.4695613207864
 21
1011.54945431247
 31
0.0
  0
LINE
  5
201
330
2
100
AcDbEntity
  8
03-01
100
AcDbLine
 10
715.9695613207864
 20
843.5494543124704
 30
0.0
 11
711.4695613207864
 21
843.5494543124704
 31
0.0
  0
LINE
  5
202
330
2
100
AcDbEntity
  8
03-01
100
AcDbLine
 10
715.9695613207864
 20
847.5494543124705
 30
0.0
 11
711.4695613207864
 21
847.5494543124705
 31
0.0
  0
LINE
  5
203
330
2
100
AcDbEntity
  8
03-01
100
AcDbLine
 10
669.9695613207864
 20
847.5494543124705
 30
0.0
 11
715.9695613207864
 21
847.5494543124705
 31
0.0
  0
LINE
  5
204
330
2
100
AcDbEntity
  8
03-01
100
AcDbLine
 10
669.9695613207864
 20
843.5494543124704
 30
0.0
 11
715.9695613207864
 21
843.5494543124704
 31
0.0
  0
ARC
  5
205
330
2
100
AcDbEntity
  8
03-01
100
AcDbCircle
 10
629.9695613207863
 20
1013.54945431247
 30
0.0
 40
2.0
100
AcDbArc
 50
270.0
 51
90.0
  0
ARC
  5
206
330
2
100
AcDbEntity
  8
03-01
100
AcDbCircle
 10
629.9695613207863
 20
1013.54945431247
 30
0.0
 40
2.0
100
AcDbArc
 50
90.0
 51
270.0
  0
LINE
  5
207
330
2
100
AcDbEntity
  8
03-01
100
AcDbLine
 10
629.9695613207863
 20
1075.549454312471
 30
0.0
 11
910.9695613207863
 21
1075.549454312471
 31
0.0
  0
LINE
  5
208
330
2
100
AcDbEntity
  8
03-01
100
AcDbLine
 10
910.9695613207863
 20
861.5494543124706
 30
0.0
 11
861.4695613207864
 21
861.5494543124706
 31
0.0
  0
LINE
  5
209
330
2
100
AcDbEntity
  8
03-01
100
AcDbLine
 10
910.9695613207863
 20
865.5494543124705
 30
0.0
 11
861.4695613207864
 21
865.5494543124705
 31
0.0
  0
LINE
  5
20A
330
2
100
AcDbEntity
  8
03-01
100
AcDbLine
 10
910.9695613207863
 20
915.5494543124705
 30
0.0
 11
861.4695613207864
 21
915.5494543124705
 31
0.0
  0
LINE
  5
20B
330
2
100
AcDbEntity
  8
03-01
100
AcDbLine
 10
910.9695613207863
 20
911.5494543124706
 30
0.0
 11
861.4695613207864
 21
911.5494543124706
 31
0.0
  0
LINE
  5
20C
330
2
100
AcDbEntity
  8
03-01
100
AcDbLine
 10
910.9695613207863
 20
965.5494543124705
 30
0.0
 11
861.4695613207864
 21
965.5494543124705
 31
0.0
  0
LINE
  5
20D
330
2
100
AcDbEntity
  8
03-01
100
AcDbLine
 10
910.9695613207863
 20
961.5494543124706
 30
0.0
 11
861.4695613207864
 21
961.5494543124706
 31
0.0
  0
LINE
  5
20E
330
2
100
AcDbEntity
  8
03-01
100
AcDbLine
 10
910.9695613207863
 20
1015.54945431247
 30
0.0
 11
861.4695613207864
 21
1015.54945431247
 31
0.0
  0
LINE
  5
20F
330
2
100
AcDbEntity
  8
03-01
100
AcDbLine
 10
910.9695613207863
 20
1011.54945431247
 30
0.0
 11
861.4695613207864
 21
1011.54945431247
 31
0.0
  0
LINE
  5
210
330
2
100
AcDbEntity
  8
03-01
100
AcDbLine
 10
910.9695613207863
 20
1071.549454312471
 30
0.0
 11
861.4695613207864
 21
1071.549454312471
 31
0.0
  0
LINE
  5
211
330
2
100
AcDbEntity
  8
03-01
100
AcDbLine
 10
869.9695613207863
 20
847.5494543124705
 30
0.0
 11
902.9695613207861
 21
847.5494543124705
 31
0.0
  0
LINE
  5
212
330
2
100
AcDbEntity
  8
03-01
100
AcDbLine
 10
869.9695613207863
 20
843.5494543124704
 30
0.0
 11
902.9695613207863
 21
843.5494543124704
 31
0.0
  0
LINE
  5
213
330
2
100
AcDbEntity
  8
03-01
100
AcDbLine
 10
473.5367228375663
 20
1015.511744568016
 30
0.0
 11
473.5367228375663
 21
1071.511744568016
 31
0.0
  0
LINE
  5
214
330
2
100
AcDbEntity
  8
03-01
100
AcDbLine
 10
469.5367228375663
 20
1015.511744568016
 30
0.0
 11
469.5367228375663
 21
1071.511744568016
 31
0.0
  0
ARC
  5
215
330
2
100
AcDbEntity
  8
03-01
100
AcDbCircle
 10
475.5367228375663
 20
1073.511744568016
 30
0.0
 40
2.0
100
AcDbArc
 50
90.0
 51
270.0
  0
ARC
  5
216
330
2
100
AcDbEntity
  8
03-01
100
AcDbCircle
 10
475.5367228375663
 20
1073.511744568016
 30
0.0
 40
2.0
100
AcDbArc
 50
270.0
 51
90.0
  0
LINE
  5
217
330
2
100
AcDbEntity
  8
03-01
100
AcDbLine
 10
447.536722837566
 20
1015.511744568016
 30
0.0
 11
447.536722837566
 21
1071.511744568016
 31
0.0
  0
LINE
  5
218
330
2
100
AcDbEntity
  8
03-01
100
AcDbLine
 10
443.536722837566
 20
1015.511744568016
 30
0.0
 11
443.536722837566
 21
1071.511744568016
 31
0.0
  0
LINE
  5
219
330
2
100
AcDbEntity
  8
03-01
100
AcDbLine
 10
397.5367228375661
 20
1015.511744568016
 30
0.0
 11
397.5367228375661
 21
1071.511744568016
 31
0.0
  0
LINE
  5
21A
330
2
100
AcDbEntity
  8
03-01
100
AcDbLine
 10
393.5367228375661
 20
1015.511744568016
 30
0.0
 11
393.5367228375661
 21
1071.511744568016
 31
0.0
  0
LINE
  5
21B
330
2
100
AcDbEntity
  8
03-01
100
AcDbLine
 10
343.5367228375661
 20
1015.511744568016
 30
0.0
 11
343.5367228375661
 21
1071.511744568016
 31
0.0
  0
LINE
  5
21C
330
2
100
AcDbEntity
  8
03-01
100
AcDbLine
 10
347.5367228375661
 20
1015.511744568016
 30
0.0
 11
347.5367228375661
 21
1071.511744568016
 31
0.0
  0
LINE
  5
21D
330
2
100
AcDbEntity
  8
03-01
100
AcDbLine
 10
293.5367228375661
 20
1015.511744568016
 30
0.0
 11
293.5367228375661
 21
1071.511744568016
 31
0.0
  0
LINE
  5
21E
330
2
100
AcDbEntity
  8
03-01
100
AcDbLine
 10
297.5367228375661
 20
1015.511744568016
 30
0.0
 11
297.5367228375661
 21
1071.511744568016
 31
0.0
  0
LINE
  5
21F
330
2
100
AcDbEntity
  8
03-01
100
AcDbLine
 10
247.5367228375661
 20
1015.511744568016
 30
0.0
 11
247.5367228375661
 21
1071.511744568016
 31
0.0
  0
LINE
  5
220
330
2
100
AcDbEntity
  8
03-01
100
AcDbLine
 10
243.5367228375661
 20
1015.511744568016
 30
0.0
 11
243.5367228375661
 21
1071.511744568016
 31
0.0
  0
LINE
  5
221
330
2
100
AcDbEntity
  8
03-01
100
AcDbLine
 10
217.5367228375662
 20
1015.511744568016
 30
0.0
 11
217.5367228375662
 21
1071.511744568016
 31
0.0
  0
LINE
  5
222
330
2
100
AcDbEntity
  8
03-01
100
AcDbLine
 10
221.5367228375662
 20
1015.511744568016
 30
0.0
 11
221.5367228375662
 21
1071.511744568016
 31
0.0
  0
ARC
  5
223
330
2
100
AcDbEntity
  8
03-01
100
AcDbCircle
 10
215.5367228375662
 20
1073.511744568016
 30
0.0
 40
2.0
100
AcDbArc
 50
90.0
 51
270.0
  0
ARC
  5
224
330
2
100
AcDbEntity
  8
03-01
100
AcDbCircle
 10
215.5367228375662
 20
1073.511744568016
 30
0.0
 40
2.0
100
AcDbArc
 50
270.0
 51
90.0
  0
LINE
  5
225
330
2
100
AcDbEntity
  8
03-01
100
AcDbLine
 10
215.5367228375662
 20
1015.511744568016
 30
0.0
 11
475.5367228375663
 21
1015.511744568016
 31
0.0
  0
LINE
  5
226
330
2
100
AcDbEntity
  8
03-01
100
AcDbLine
 10
215.5367228375662
 20
1075.511744568016
 30
0.0
 11
475.5367228375663
 21
1075.511744568016
 31
0.0
  0
LINE
  5
227
330
2
100
AcDbEntity
  8
03-01
100
AcDbLine
 10
215.5367228375662
 20
1071.511744568016
 30
0.0
 11
475.5367228375663
 21
1071.511744568016
 31
0.0
  0
ARC
  5
228
330
2
100
AcDbEntity
  8
03-01
100
AcDbCircle
 10
475.5367228375663
 20
963.5117445680164
 30
0.0
 40
2.0
100
AcDbArc
 50
270.0
 51
90.0
  0
ARC
  5
229
330
2
100
AcDbEntity
  8
03-01
100
AcDbCircle
 10
475.5367228375663
 20
963.5117445680164
 30
0.0
 40
2.0
100
AcDbArc
 50
90.0
 51
270.0
  0
LINE
  5
22A
330
2
100
AcDbEntity
  8
03-01
100
AcDbLine
 10
473.5367228375663
 20
965.5117445680163
 30
0.0
 11
473.5367228375663
 21
1010.511744568016
 31
0.0
  0
LINE
  5
22B
330
2
100
AcDbEntity
  8
03-01
100
AcDbLine
 10
469.5367228375663
 20
965.5117445680163
 30
0.0
 11
469.5367228375663
 21
1010.511744568016
 31
0.0
  0
ARC
  5
22C
330
2
100
AcDbEntity
  8
03-01
100
AcDbCircle
 10
475.5367228375663
 20
913.5117445680164
 30
0.0
 40
2.0
100
AcDbArc
 50
270.0
 51
90.0
  0
ARC
  5
22D
330
2
100
AcDbEntity
  8
03-01
100
AcDbCircle
 10
475.5367228375663
 20
913.5117445680164
 30
0.0
 40
2.0
100
AcDbArc
 50
90.0
 51
270.0
  0
LINE
  5
22E
330
2
100
AcDbEntity
  8
03-01
100
AcDbLine
 10
473.5367228375663
 20
915.5117445680163
 30
0.0
 11
473.5367228375663
 21
960.5117445680164
 31
0.0
  0
LINE
  5
22F
330
2
100
AcDbEntity
  8
03-01
100
AcDbLine
 10
469.5367228375663
 20
915.5117445680163
 30
0.0
 11
469.5367228375663
 21
960.5117445680164
 31
0.0
  0
LINE
  5
230
330
2
100
AcDbEntity
  8
03-01
100
AcDbLine
 10
473.5367228375663
 20
845.5117445680164
 30
0.0
 11
473.5367228375663
 21
861.5117445680164
 31
0.0
  0
ARC
  5
231
330
2
100
AcDbEntity
  8
03-01
100
AcDbCircle
 10
475.5367228375663
 20
863.5117445680164
 30
0.0
 40
2.0
100
AcDbArc
 50
270.0
 51
90.0
  0
ARC
  5
232
330
2
100
AcDbEntity
  8
03-01
100
AcDbCircle
 10
475.5367228375663
 20
863.5117445680164
 30
0.0
 40
2.0
100
AcDbArc
 50
90.0
 51
270.0
  0
LINE
  5
233
330
2
100
AcDbEntity
  8
03-01
100
AcDbLine
 10
469.5367228375661
 20
845.5117445680164
 30
0.0
 11
469.5367228375663
 21
861.5117445680164
 31
0.0
  0
ARC
  5
234
330
2
100
AcDbEntity
  8
03-01
100
AcDbCircle
 10
467.5367228375661
 20
845.5117445680164
 30
0.0
 40
2.0
100
AcDbArc
 50
270.0
 51
0.0
  0
ARC
  5
235
330
2
100
AcDbEntity
  8
03-01
100
AcDbCircle
 10
467.5367228375663
 20
845.5117445680164
 30
0.0
 40
6.0
100
AcDbArc
 50
270.0
 51
0.0
  0
LINE
  5
236
330
2
100
AcDbEntity
  8
03-01
100
AcDbLine
 10
469.5367228375663
 20
865.5117445680163
 30
0.0
 11
469.5367228375663
 21
910.5117445680164
 31
0.0
  0
LINE
  5
237
330
2
100
AcDbEntity
  8
03-01
100
AcDbLine
 10
473.5367228375663
 20
865.5117445680163
 30
0.0
 11
473.5367228375663
 21
910.5117445680164
 31
0.0
  0
LINE
  5
238
330
2
100
AcDbEntity
  8
03-01
100
AcDbLine
 10
447.536722837566
 20
965.5117445680163
 30
0.0
 11
447.536722837566
 21
1010.511744568016
 31
0.0
  0
LINE
  5
239
330
2
100
AcDbEntity
  8
03-01
100
AcDbLine
 10
443.536722837566
 20
965.5117445680163
 30
0.0
 11
443.536722837566
 21
1010.511744568016
 31
0.0
  0
LINE
  5
23A
330
2
100
AcDbEntity
  8
03-01
100
AcDbLine
 10
447.536722837566
 20
915.5117445680163
 30
0.0
 11
447.536722837566
 21
960.5117445680164
 31
0.0
  0
LINE
  5
23B
330
2
100
AcDbEntity
  8
03-01
100
AcDbLine
 10
443.536722837566
 20
915.5117445680163
 30
0.0
 11
443.536722837566
 21
960.5117445680164
 31
0.0
  0
LINE
  5
23C
330
2
100
AcDbEntity
  8
03-01
100
AcDbLine
 10
397.5367228375661
 20
965.5117445680163
 30
0.0
 11
397.5367228375661
 21
1010.511744568016
 31
0.0
  0
LINE
  5
23D
330
2
100
AcDbEntity
  8
03-01
100
AcDbLine
 10
393.5367228375661
 20
965.5117445680163
 30
0.0
 11
393.5367228375661
 21
1010.511744568016
 31
0.0
  0
LINE
  5
23E
330
2
100
AcDbEntity
  8
03-01
100
AcDbLine
 10
397.5367228375661
 20
915.5117445680163
 30
0.0
 11
397.5367228375661
 21
960.5117445680164
 31
0.0
  0
LINE
  5
23F
330
2
100
AcDbEntity
  8
03-01
100
AcDbLine
 10
393.5367228375661
 20
915.5117445680163
 30
0.0
 11
393.5367228375661
 21
960.5117445680164
 31
0.0
  0
LINE
  5
240
330
2
100
AcDbEntity
  8
03-01
100
AcDbLine
 10
443.536722837566
 20
843.5117445680164
 30
0.0
 11
447.536722837566
 21
843.5117445680164
 31
0.0
  0
LINE
  5
241
330
2
100
AcDbEntity
  8
03-01
100
AcDbLine
 10
447.536722837566
 20
845.5117445680164
 30
0.0
 11
447.536722837566
 21
861.5117445680164
 31
0.0
  0
LINE
  5
242
330
2
100
AcDbEntity
  8
03-01
100
AcDbLine
 10
443.536722837566
 20
845.5117445680164
 30
0.0
 11
443.536722837566
 21
861.5117445680164
 31
0.0
  0
ARC
  5
243
330
2
100
AcDbEntity
  8
03-01
100
AcDbCircle
 10
445.5367228375661
 20
845.5117445680164
 30
0.0
 40
2.0
100
AcDbArc
 50
180.0
 51
0.0
  0
ARC
  5
244
330
2
100
AcDbEntity
  8
03-01
100
AcDbCircle
 10
395.5367228375661
 20
845.5117445680164
 30
0.0
 40
2.0
100
AcDbArc
 50
180.0
 51
0.0
  0
LINE
  5
245
330
2
100
AcDbEntity
  8
03-01
100
AcDbLine
 10
393.5367228375661
 20
843.5117445680164
 30
0.0
 11
397.5367228375661
 21
843.5117445680164
 31
0.0
  0
LINE
  5
246
330
2
100
AcDbEntity
  8
03-01
100
AcDbLine
 10
393.5367228375661
 20
845.5117445680164
 30
0.0
 11
393.5367228375661
 21
861.5117445680164
 31
0.0
  0
LINE
  5
247
330
2
100
AcDbEntity
  8
03-01
100
AcDbLine
 10
397.5367228375661
 20
845.5117445680164
 30
0.0
 11
397.5367228375661
 21
861.5117445680164
 31
0.0
  0
LINE
  5
248
330
2
100
AcDbEntity
  8
03-01
100
AcDbLine
 10
393.5367228375661
 20
865.5117445680163
 30
0.0
 11
393.5367228375661
 21
910.5117445680164
 31
0.0
  0
LINE
  5
249
330
2
100
AcDbEntity
  8
03-01
100
AcDbLine
 10
397.5367228375661
 20
865.5117445680163
 30
0.0
 11
397.5367228375661
 21
910.5117445680164
 31
0.0
  0
LINE
  5
24A
330
2
100
AcDbEntity
  8
03-01
100
AcDbLine
 10
443.536722837566
 20
865.5117445680163
 30
0.0
 11
443.536722837566
 21
910.5117445680164
 31
0.0
  0
LINE
  5
24B
330
2
100
AcDbEntity
  8
03-01
100
AcDbLine
 10
447.536722837566
 20
865.5117445680163
 30
0.0
 11
447.536722837566
 21
910.5117445680164
 31
0.0
  0
CIRCLE
  5
24C
330
2
100
AcDbEntity
  8
03-01
100
AcDbCircle
 10
471.615694641177
 20
632.5037500293038
 30
0.0
 40
2.0
  0
CIRCLE
  5
24D
330
2
100
AcDbEntity
  8
03-01
100
AcDbCircle
 10
471.615694641177
 20
582.5037500293038
 30
0.0
 40
2.0
  0
CIRCLE
  5
24E
330
2
100
AcDbEntity
  8
03-01
100
AcDbCircle
 10
445.6156946411771
 20
668.5037500293037
 30
0.0
 40
2.0
  0
CIRCLE
  5
24F
330
2
100
AcDbEntity
  8
03-01
100
AcDbCircle
 10
395.6156946411771
 20
668.5037500293037
 30
0.0
 40
2.0
  0
LINE
  5
250
330
2
100
AcDbEntity
  8
03-01
100
AcDbLine
 10
397.6156946411769
 20
634.5037500293038
 30
0.0
 11
443.6156946411768
 21
634.5037500293038
 31
0.0
  0
LINE
  5
251
330
2
100
AcDbEntity
  8
03-01
100
AcDbLine
 10
397.6156946411769
 20
630.5037500293039
 30
0.0
 11
443.6156946411768
 21
630.5037500293039
 31
0.0
  0
LINE
  5
252
330
2
100
AcDbEntity
  8
03-01
100
AcDbLine
 10
397.6156946411769
 20
580.5037500293038
 30
0.0
 11
443.6156946411768
 21
580.5037500293038
 31
0.0
  0
LINE
  5
253
330
2
100
AcDbEntity
  8
03-01
100
AcDbLine
 10
397.6156946411769
 20
584.5037500293038
 30
0.0
 11
443.6156946411768
 21
584.5037500293038
 31
0.0
  0
LINE
  5
254
330
2
100
AcDbEntity
  8
03-01
100
AcDbLine
 10
397.6156946411769
 20
534.5037500293038
 30
0.0
 11
443.6156946411768
 21
534.5037500293037
 31
0.0
  0
LINE
  5
255
330
2
100
AcDbEntity
  8
03-01
100
AcDbLine
 10
447.6156946411768
 20
634.5037500293038
 30
0.0
 11
471.615694641177
 21
634.5037500293038
 31
0.0
  0
LINE
  5
256
330
2
100
AcDbEntity
  8
03-01
100
AcDbLine
 10
447.6156946411768
 20
630.5037500293039
 30
0.0
 11
471.615694641177
 21
630.5037500293039
 31
0.0
  0
LINE
  5
257
330
2
100
AcDbEntity
  8
03-01
100
AcDbLine
 10
447.6156946411768
 20
584.5037500293038
 30
0.0
 11
471.615694641177
 21
584.5037500293038
 31
0.0
  0
LINE
  5
258
330
2
100
AcDbEntity
  8
03-01
100
AcDbLine
 10
447.6156946411768
 20
580.5037500293038
 30
0.0
 11
471.615694641177
 21
580.5037500293038
 31
0.0
  0
LINE
  5
259
330
2
100
AcDbEntity
  8
03-01
100
AcDbLine
 10
447.6156946411768
 20
534.5037500293037
 30
0.0
 11
471.615694641177
 21
534.5037500293038
 31
0.0
  0
LINE
  5
25A
330
2
100
AcDbEntity
  8
03-01
100
AcDbLine
 10
343.5367228375661
 20
965.5117445680163
 30
0.0
 11
343.5367228375661
 21
1010.511744568016
 31
0.0
  0
LINE
  5
25B
330
2
100
AcDbEntity
  8
03-01
100
AcDbLine
 10
347.5367228375661
 20
965.5117445680163
 30
0.0
 11
347.5367228375661
 21
1010.511744568016
 31
0.0
  0
LINE
  5
25C
330
2
100
AcDbEntity
  8
03-01
100
AcDbLine
 10
343.5367228375661
 20
915.5117445680163
 30
0.0
 11
343.5367228375661
 21
960.5117445680164
 31
0.0
  0
LINE
  5
25D
330
2
100
AcDbEntity
  8
03-01
100
AcDbLine
 10
347.5367228375661
 20
915.5117445680163
 30
0.0
 11
347.5367228375661
 21
960.5117445680164
 31
0.0
  0
LINE
  5
25E
330
2
100
AcDbEntity
  8
03-01
100
AcDbLine
 10
293.5367228375661
 20
965.5117445680163
 30
0.0
 11
293.5367228375661
 21
1010.511744568016
 31
0.0
  0
LINE
  5
25F
330
2
100
AcDbEntity
  8
03-01
100
AcDbLine
 10
297.5367228375661
 20
965.5117445680163
 30
0.0
 11
297.5367228375661
 21
1010.511744568016
 31
0.0
  0
LINE
  5
260
330
2
100
AcDbEntity
  8
03-01
100
AcDbLine
 10
293.5367228375661
 20
915.5117445680163
 30
0.0
 11
293.5367228375661
 21
960.5117445680164
 31
0.0
  0
LINE
  5
261
330
2
100
AcDbEntity
  8
03-01
100
AcDbLine
 10
297.5367228375661
 20
915.5117445680163
 30
0.0
 11
297.5367228375661
 21
960.5117445680164
 31
0.0
  0
ARC
  5
262
330
2
100
AcDbEntity
  8
03-01
100
AcDbCircle
 10
345.5367228375661
 20
845.5117445680164
 30
0.0
 40
2.0
100
AcDbArc
 50
180.0
 51
0.0
  0
LINE
  5
263
330
2
100
AcDbEntity
  8
03-01
100
AcDbLine
 10
343.5367228375661
 20
843.5117445680164
 30
0.0
 11
347.5367228375661
 21
843.5117445680164
 31
0.0
  0
LINE
  5
264
330
2
100
AcDbEntity
  8
03-01
100
AcDbLine
 10
343.5367228375661
 20
845.5117445680164
 30
0.0
 11
343.5367228375661
 21
861.5117445680164
 31
0.0
  0
LINE
  5
265
330
2
100
AcDbEntity
  8
03-01
100
AcDbLine
 10
347.5367228375661
 20
845.5117445680164
 30
0.0
 11
347.5367228375661
 21
861.5117445680164
 31
0.0
  0
ARC
  5
266
330
2
100
AcDbEntity
  8
03-01
100
AcDbCircle
 10
295.5367228375661
 20
845.5117445680164
 30
0.0
 40
2.0
100
AcDbArc
 50
180.0
 51
0.0
  0
LINE
  5
267
330
2
100
AcDbEntity
  8
03-01
100
AcDbLine
 10
293.5367228375661
 20
843.5117445680164
 30
0.0
 11
297.5367228375661
 21
843.5117445680164
 31
0.0
  0
LINE
  5
268
330
2
100
AcDbEntity
  8
03-01
100
AcDbLine
 10
293.5367228375661
 20
845.5117445680164
 30
0.0
 11
293.5367228375661
 21
861.5117445680164
 31
0.0
  0
LINE
  5
269
330
2
100
AcDbEntity
  8
03-01
100
AcDbLine
 10
297.5367228375661
 20
845.5117445680164
 30
0.0
 11
297.5367228375661
 21
861.5117445680164
 31
0.0
  0
LINE
  5
26A
330
2
100
AcDbEntity
  8
03-01
100
AcDbLine
 10
347.5367228375661
 20
865.5117445680163
 30
0.0
 11
347.5367228375661
 21
910.5117445680164
 31
0.0
  0
LINE
  5
26B
330
2
100
AcDbEntity
  8
03-01
100
AcDbLine
 10
343.5367228375661
 20
865.5117445680163
 30
0.0
 11
343.5367228375661
 21
910.5117445680164
 31
0.0
  0
LINE
  5
26C
330
2
100
AcDbEntity
  8
03-01
100
AcDbLine
 10
297.5367228375661
 20
865.5117445680163
 30
0.0
 11
297.5367228375661
 21
910.5117445680164
 31
0.0
  0
LINE
  5
26D
330
2
100
AcDbEntity
  8
03-01
100
AcDbLine
 10
293.5367228375661
 20
865.5117445680163
 30
0.0
 11
293.5367228375661
 21
910.5117445680164
 31
0.0
  0
LINE
  5
26E
330
2
100
AcDbEntity
  8
03-01
100
AcDbLine
 10
247.5367228375661
 20
965.5117445680163
 30
0.0
 11
247.5367228375661
 21
1010.511744568016
 31
0.0
  0
LINE
  5
26F
330
2
100
AcDbEntity
  8
03-01
100
AcDbLine
 10
247.5367228375661
 20
915.5117445680163
 30
0.0
 11
247.5367228375661
 21
960.5117445680164
 31
0.0
  0
LINE
  5
270
330
2
100
AcDbEntity
  8
03-01
100
AcDbLine
 10
243.5367228375661
 20
965.5117445680163
 30
0.0
 11
243.5367228375661
 21
1010.511744568016
 31
0.0
  0
ARC
  5
271
330
2
100
AcDbEntity
  8
03-01
100
AcDbCircle
 10
215.5367228375662
 20
963.5117445680164
 30
0.0
 40
2.0
100
AcDbArc
 50
270.0
 51
90.0
  0
ARC
  5
272
330
2
100
AcDbEntity
  8
03-01
100
AcDbCircle
 10
215.5367228375662
 20
963.5117445680164
 30
0.0
 40
2.0
100
AcDbArc
 50
90.0
 51
270.0
  0
LINE
  5
273
330
2
100
AcDbEntity
  8
03-01
100
AcDbLine
 10
217.5367228375662
 20
965.5117445680163
 30
0.0
 11
217.5367228375662
 21
1010.511744568016
 31
0.0
  0
LINE
  5
274
330
2
100
AcDbEntity
  8
03-01
100
AcDbLine
 10
221.5367228375662
 20
965.5117445680163
 30
0.0
 11
221.5367228375662
 21
1010.511744568016
 31
0.0
  0
ARC
  5
275
330
2
100
AcDbEntity
  8
03-01
100
AcDbCircle
 10
215.5367228375662
 20
913.5117445680164
 30
0.0
 40
2.0
100
AcDbArc
 50
270.0
 51
90.0
  0
ARC
  5
276
330
2
100
AcDbEntity
  8
03-01
100
AcDbCircle
 10
215.5367228375662
 20
913.5117445680164
 30
0.0
 40
2.0
100
AcDbArc
 50
90.0
 51
270.0
  0
LINE
  5
277
330
2
100
AcDbEntity
  8
03-01
100
AcDbLine
 10
217.5367228375662
 20
915.5117445680163
 30
0.0
 11
217.5367228375662
 21
960.5117445680164
 31
0.0
  0
LINE
  5
278
330
2
100
AcDbEntity
  8
03-01
100
AcDbLine
 10
243.5367228375661
 20
915.5117445680163
 30
0.0
 11
243.5367228375661
 21
960.5117445680164
 31
0.0
  0
LINE
  5
279
330
2
100
AcDbEntity
  8
03-01
100
AcDbLine
 10
221.5367228375662
 20
915.5117445680163
 30
0.0
 11
221.5367228375662
 21
960.5117445680164
 31
0.0
  0
LINE
  5
27A
330
2
100
AcDbEntity
  8
03-01
100
AcDbLine
 10
247.5367228375661
 20
845.5117445680164
 30
0.0
 11
247.5367228375661
 21
861.5117445680164
 31
0.0
  0
LINE
  5
27B
330
2
100
AcDbEntity
  8
03-01
100
AcDbLine
 10
243.5367228375661
 20
845.5117445680164
 30
0.0
 11
243.5367228375661
 21
861.5117445680164
 31
0.0
  0
LINE
  5
27C
330
2
100
AcDbEntity
  8
03-01
100
AcDbLine
 10
217.5367228375662
 20
845.5117445680164
 30
0.0
 11
217.5367228375662
 21
861.5117445680164
 31
0.0
  0
LINE
  5
27D
330
2
100
AcDbEntity
  8
03-01
100
AcDbLine
 10
221.5367228375662
 20
845.5117445680164
 30
0.0
 11
221.5367228375662
 21
861.5117445680164
 31
0.0
  0
ARC
  5
27E
330
2
100
AcDbEntity
  8
03-01
100
AcDbCircle
 10
223.5367228375662
 20
845.5117445680164
 30
0.0
 40
2.0
100
AcDbArc
 50
180.0
 51
270.0
  0
ARC
  5
27F
330
2
100
AcDbEntity
  8
03-01
100
AcDbCircle
 10
215.5367228375662
 20
863.5117445680164
 30
0.0
 40
2.0
100
AcDbArc
 50
270.0
 51
90.0
  0
ARC
  5
280
330
2
100
AcDbEntity
  8
03-01
100
AcDbCircle
 10
215.5367228375662
 20
863.5117445680164
 30
0.0
 40
2.0
100
AcDbArc
 50
90.0
 51
270.0
  0
ARC
  5
281
330
2
100
AcDbEntity
  8
03-01
100
AcDbCircle
 10
223.5367228375662
 20
845.5117445680164
 30
0.0
 40
6.0
100
AcDbArc
 50
180.0
 51
270.0
  0
ARC
  5
282
330
2
100
AcDbEntity
  8
03-01
100
AcDbCircle
 10
245.5367228375661
 20
845.5117445680164
 30
0.0
 40
2.0
100
AcDbArc
 50
180.0
 51
0.0
  0
LINE
  5
283
330
2
100
AcDbEntity
  8
03-01
100
AcDbLine
 10
243.5367228375661
 20
843.5117445680164
 30
0.0
 11
247.5367228375661
 21
843.5117445680164
 31
0.0
  0
LINE
  5
284
330
2
100
AcDbEntity
  8
03-01
100
AcDbLine
 10
221.5367228375662
 20
865.5117445680163
 30
0.0
 11
221.5367228375662
 21
910.5117445680164
 31
0.0
  0
LINE
  5
285
330
2
100
AcDbEntity
  8
03-01
100
AcDbLine
 10
243.5367228375661
 20
865.5117445680163
 30
0.0
 11
243.5367228375661
 21
910.5117445680164
 31
0.0
  0
LINE
  5
286
330
2
100
AcDbEntity
  8
03-01
100
AcDbLine
 10
247.5367228375661
 20
865.5117445680163
 30
0.0
 11
247.5367228375661
 21
910.5117445680164
 31
0.0
  0
LINE
  5
287
330
2
100
AcDbEntity
  8
03-01
100
AcDbLine
 10
217.5367228375662
 20
865.5117445680163
 30
0.0
 11
217.5367228375662
 21
910.5117445680164
 31
0.0
  0
CIRCLE
  5
288
330
2
100
AcDbEntity
  8
03-01
100
AcDbCircle
 10
345.6156946411771
 20
668.5037500293037
 30
0.0
 40
2.0
  0
CIRCLE
  5
289
330
2
100
AcDbEntity
  8
03-01
100
AcDbCircle
 10
295.6156946411769
 20
668.5037500293037
 30
0.0
 40
2.0
  0
LINE
  5
28A
330
2
100
AcDbEntity
  8
03-01
100
AcDbLine
 10
297.6156946411769
 20
634.5037500293038
 30
0.0
 11
343.6156946411769
 21
634.5037500293038
 31
0.0
  0
LINE
  5
28B
330
2
100
AcDbEntity
  8
03-01
100
AcDbLine
 10
297.6156946411769
 20
630.5037500293039
 30
0.0
 11
343.6156946411769
 21
630.5037500293039
 31
0.0
  0
LINE
  5
28C
330
2
100
AcDbEntity
  8
03-01
100
AcDbLine
 10
297.6156946411769
 20
580.5037500293038
 30
0.0
 11
343.6156946411769
 21
580.5037500293038
 31
0.0
  0
LINE
  5
28D
330
2
100
AcDbEntity
  8
03-01
100
AcDbLine
 10
297.6156946411769
 20
584.5037500293038
 30
0.0
 11
343.6156946411769
 21
584.5037500293038
 31
0.0
  0
LINE
  5
28E
330
2
100
AcDbEntity
  8
03-01
100
AcDbLine
 10
297.6156946411769
 20
534.5037500293038
 30
0.0
 11
343.6156946411769
 21
534.5037500293038
 31
0.0
  0
CIRCLE
  5
28F
330
2
100
AcDbEntity
  8
03-01
100
AcDbCircle
 10
245.6156946411769
 20
668.5037500293037
 30
0.0
 40
2.0
  0
CIRCLE
  5
290
330
2
100
AcDbEntity
  8
03-01
100
AcDbCircle
 10
219.615694641177
 20
632.5037500293038
 30
0.0
 40
2.0
  0
LINE
  5
291
330
2
100
AcDbEntity
  8
03-01
100
AcDbLine
 10
219.615694641177
 20
630.5037500293037
 30
0.0
 11
243.6156946411769
 21
630.5037500293039
 31
0.0
  0
LINE
  5
292
330
2
100
AcDbEntity
  8
03-01
100
AcDbLine
 10
219.615694641177
 20
634.5037500293037
 30
0.0
 11
243.6156946411769
 21
634.5037500293038
 31
0.0
  0
CIRCLE
  5
293
330
2
100
AcDbEntity
  8
03-01
100
AcDbCircle
 10
219.615694641177
 20
582.5037500293038
 30
0.0
 40
2.0
  0
LINE
  5
294
330
2
100
AcDbEntity
  8
03-01
100
AcDbLine
 10
247.6156946411769
 20
634.5037500293038
 30
0.0
 11
293.6156946411769
 21
634.5037500293038
 31
0.0
  0
LINE
  5
295
330
2
100
AcDbEntity
  8
03-01
100
AcDbLine
 10
219.615694641177
 20
580.5037500293037
 30
0.0
 11
293.6156946411769
 21
580.5037500293038
 31
0.0
  0
LINE
  5
296
330
2
100
AcDbEntity
  8
03-01
100
AcDbLine
 10
219.615694641177
 20
584.5037500293037
 30
0.0
 11
293.6156946411769
 21
584.5037500293038
 31
0.0
  0
LINE
  5
297
330
2
100
AcDbEntity
  8
03-01
100
AcDbLine
 10
219.615694641177
 20
534.5037500293037
 30
0.0
 11
293.6156946411769
 21
534.5037500293038
 31
0.0
  0
LINE
  5
298
330
2
100
AcDbEntity
  8
03-01
100
AcDbLine
 10
247.6156946411769
 20
630.5037500293039
 30
0.0
 11
293.6156946411769
 21
630.5037500293039
 31
0.0
  0
LINE
  5
299
330
2
100
AcDbEntity
  8
03-01
100
AcDbLine
 10
223.5367228375662
 20
839.5117445680163
 30
0.0
 11
467.5367228375663
 21
839.5117445680163
 31
0.0
  0
LINE
  5
29A
330
2
100
AcDbEntity
  8
03-01
100
AcDbLine
 10
223.5367228375662
 20
843.5117445680164
 30
0.0
 11
467.5367228375661
 21
843.5117445680164
 31
0.0
  0
LINE
  5
29B
330
2
100
AcDbEntity
  8
03-01
100
AcDbLine
 10
215.5367228375662
 20
1011.511744568016
 30
0.0
 11
475.5367228375663
 21
1011.511744568016
 31
0.0
  0
LINE
  5
29C
330
2
100
AcDbEntity
  8
03-01
100
AcDbLine
 10
215.5367228375662
 20
961.5117445680164
 30
0.0
 11
475.5367228375663
 21
961.5117445680164
 31
0.0
  0
LINE
  5
29D
330
2
100
AcDbEntity
  8
03-01
100
AcDbLine
 10
215.5367228375662
 20
965.5117445680163
 30
0.0
 11
475.5367228375663
 21
965.5117445680163
 31
0.0
  0
LINE
  5
29E
330
2
100
AcDbEntity
  8
03-01
100
AcDbLine
 10
215.5367228375662
 20
911.5117445680164
 30
0.0
 11
475.5367228375663
 21
911.5117445680164
 31
0.0
  0
LINE
  5
29F
330
2
100
AcDbEntity
  8
03-01
100
AcDbLine
 10
215.5367228375662
 20
915.5117445680163
 30
0.0
 11
475.5367228375663
 21
915.5117445680163
 31
0.0
  0
LINE
  5
2A0
330
2
100
AcDbEntity
  8
03-01
100
AcDbLine
 10
215.5367228375662
 20
861.5117445680164
 30
0.0
 11
475.5367228375663
 21
861.5117445680164
 31
0.0
  0
LINE
  5
2A1
330
2
100
AcDbEntity
  8
03-01
100
AcDbLine
 10
215.5367228375662
 20
865.5117445680163
 30
0.0
 11
475.5367228375663
 21
865.5117445680163
 31
0.0
  0
LINE
  5
2A2
330
2
100
AcDbEntity
  8
03-01
100
AcDbLine
 10
347.6156946411769
 20
634.5037500293038
 30
0.0
 11
393.6156946411769
 21
634.5037500293038
 31
0.0
  0
LINE
  5
2A3
330
2
100
AcDbEntity
  8
03-01
100
AcDbLine
 10
347.6156946411769
 20
630.5037500293039
 30
0.0
 11
393.6156946411769
 21
630.5037500293039
 31
0.0
  0
LINE
  5
2A4
330
2
100
AcDbEntity
  8
03-01
100
AcDbLine
 10
347.6156946411769
 20
580.5037500293038
 30
0.0
 11
393.6156946411769
 21
580.5037500293038
 31
0.0
  0
LINE
  5
2A5
330
2
100
AcDbEntity
  8
03-01
100
AcDbLine
 10
347.6156946411769
 20
584.5037500293038
 30
0.0
 11
393.6156946411769
 21
584.5037500293038
 31
0.0
  0
LINE
  5
2A6
330
2
100
AcDbEntity
  8
03-01
100
AcDbLine
 10
347.6156946411769
 20
534.5037500293038
 30
0.0
 11
393.6156946411769
 21
534.5037500293038
 31
0.0
  0
ARC
  5
2A7
330
2
100
AcDbEntity
  8
03-01
100
AcDbCircle
 10
475.5367228375663
 20
1013.511744568016
 30
0.0
 40
2.0
100
AcDbArc
 50
270.0
 51
90.0
  0
ARC
  5
2A8
330
2
100
AcDbEntity
  8
03-01
100
AcDbCircle
 10
475.5367228375663
 20
1013.511744568016
 30
0.0
 40
2.0
100
AcDbArc
 50
90.0
 51
270.0
  0
ARC
  5
2A9
330
2
100
AcDbEntity
  8
03-01
100
AcDbCircle
 10
215.5367228375662
 20
1013.511744568016
 30
0.0
 40
2.0
100
AcDbArc
 50
270.0
 51
90.0
  0
ARC
  5
2AA
330
2
100
AcDbEntity
  8
03-01
100
AcDbCircle
 10
215.5367228375662
 20
1013.511744568016
 30
0.0
 40
2.0
100
AcDbArc
 50
90.0
 51
270.0
  0
CIRCLE
  5
2AB
330
2
100
AcDbEntity
  8
03-01
100
AcDbCircle
 10
471.615694641177
 20
482.5037500293038
 30
0.0
 40
2.0
  0
CIRCLE
  5
2AC
330
2
100
AcDbEntity
  8
03-01
100
AcDbCircle
 10
471.615694641177
 20
432.5037500293038
 30
0.0
 40
2.0
  0
LINE
  5
2AD
330
2
100
AcDbEntity
  8
03-01
100
AcDbLine
 10
397.6156946411769
 20
530.5037500293038
 30
0.0
 11
443.6156946411768
 21
530.5037500293038
 31
0.0
  0
LINE
  5
2AE
330
2
100
AcDbEntity
  8
03-01
100
AcDbLine
 10
397.6156946411769
 20
480.5037500293038
 30
0.0
 11
443.6156946411768
 21
480.5037500293037
 31
0.0
  0
LINE
  5
2AF
330
2
100
AcDbEntity
  8
03-01
100
AcDbLine
 10
397.6156946411769
 20
484.5037500293038
 30
0.0
 11
443.6156946411768
 21
484.5037500293037
 31
0.0
  0
LINE
  5
2B0
330
2
100
AcDbEntity
  8
03-01
100
AcDbLine
 10
397.6156946411769
 20
430.5037500293038
 30
0.0
 11
443.6156946411768
 21
430.5037500293037
 31
0.0
  0
LINE
  5
2B1
330
2
100
AcDbEntity
  8
03-01
100
AcDbLine
 10
397.6156946411769
 20
434.5037500293038
 30
0.0
 11
443.6156946411768
 21
434.5037500293037
 31
0.0
  0
CIRCLE
  5
2B2
330
2
100
AcDbEntity
  8
03-01
100
AcDbCircle
 10
445.6156946411771
 20
395.5037500293038
 30
0.0
 40
2.0
  0
CIRCLE
  5
2B3
330
2
100
AcDbEntity
  8
03-01
100
AcDbCircle
 10
395.6156946411771
 20
395.5037500293038
 30
0.0
 40
2.0
  0
LINE
  5
2B4
330
2
100
AcDbEntity
  8
03-01
100
AcDbLine
 10
447.6156946411768
 20
530.5037500293038
 30
0.0
 11
471.615694641177
 21
530.5037500293038
 31
0.0
  0
LINE
  5
2B5
330
2
100
AcDbEntity
  8
03-01
100
AcDbLine
 10
447.6156946411768
 20
484.5037500293037
 30
0.0
 11
471.615694641177
 21
484.5037500293038
 31
0.0
  0
LINE
  5
2B6
330
2
100
AcDbEntity
  8
03-01
100
AcDbLine
 10
447.6156946411768
 20
480.5037500293037
 30
0.0
 11
471.615694641177
 21
480.5037500293038
 31
0.0
  0
LINE
  5
2B7
330
2
100
AcDbEntity
  8
03-01
100
AcDbLine
 10
447.6156946411768
 20
434.5037500293037
 30
0.0
 11
471.615694641177
 21
434.5037500293037
 31
0.0
  0
LINE
  5
2B8
330
2
100
AcDbEntity
  8
03-01
100
AcDbLine
 10
447.6156946411768
 20
430.5037500293037
 30
0.0
 11
471.615694641177
 21
430.5037500293037
 31
0.0
  0
LINE
  5
2B9
330
2
100
AcDbEntity
  8
03-01
100
AcDbLine
 10
297.6156946411769
 20
530.5037500293038
 30
0.0
 11
343.6156946411769
 21
530.5037500293038
 31
0.0
  0
LINE
  5
2BA
330
2
100
AcDbEntity
  8
03-01
100
AcDbLine
 10
297.6156946411769
 20
480.5037500293038
 30
0.0
 11
343.6156946411769
 21
480.5037500293038
 31
0.0
  0
LINE
  5
2BB
330
2
100
AcDbEntity
  8
03-01
100
AcDbLine
 10
297.6156946411769
 20
484.5037500293038
 30
0.0
 11
343.6156946411769
 21
484.5037500293038
 31
0.0
  0
LINE
  5
2BC
330
2
100
AcDbEntity
  8
03-01
100
AcDbLine
 10
297.6156946411769
 20
430.5037500293038
 30
0.0
 11
343.6156946411769
 21
430.5037500293038
 31
0.0
  0
LINE
  5
2BD
330
2
100
AcDbEntity
  8
03-01
100
AcDbLine
 10
297.6156946411769
 20
434.5037500293038
 30
0.0
 11
343.6156946411769
 21
434.5037500293038
 31
0.0
  0
CIRCLE
  5
2BE
330
2
100
AcDbEntity
  8
03-01
100
AcDbCircle
 10
345.6156946411771
 20
395.5037500293038
 30
0.0
 40
2.0
  0
CIRCLE
  5
2BF
330
2
100
AcDbEntity
  8
03-01
100
AcDbCircle
 10
295.6156946411769
 20
395.5037500293038
 30
0.0
 40
2.0
  0
CIRCLE
  5
2C0
330
2
100
AcDbEntity
  8
03-01
100
AcDbCircle
 10
219.615694641177
 20
482.5037500293038
 30
0.0
 40
2.0
  0
LINE
  5
2C1
330
2
100
AcDbEntity
  8
03-01
100
AcDbLine
 10
219.615694641177
 20
480.5037500293037
 30
0.0
 11
243.6156946411769
 21
480.5037500293038
 31
0.0
  0
LINE
  5
2C2
330
2
100
AcDbEntity
  8
03-01
100
AcDbLine
 10
219.615694641177
 20
484.5037500293037
 30
0.0
 11
243.6156946411769
 21
484.5037500293037
 31
0.0
  0
CIRCLE
  5
2C3
330
2
100
AcDbEntity
  8
03-01
100
AcDbCircle
 10
219.615694641177
 20
432.5037500293038
 30
0.0
 40
2.0
  0
LINE
  5
2C4
330
2
100
AcDbEntity
  8
03-01
100
AcDbLine
 10
219.615694641177
 20
430.5037500293037
 30
0.0
 11
243.6156946411769
 21
430.5037500293037
 31
0.0
  0
LINE
  5
2C5
330
2
100
AcDbEntity
  8
03-01
100
AcDbLine
 10
219.615694641177
 20
434.5037500293037
 30
0.0
 11
243.6156946411769
 21
434.5037500293037
 31
0.0
  0
CIRCLE
  5
2C6
330
2
100
AcDbEntity
  8
03-01
100
AcDbCircle
 10
245.6156946411769
 20
395.5037500293038
 30
0.0
 40
2.0
  0
LINE
  5
2C7
330
2
100
AcDbEntity
  8
03-01
100
AcDbLine
 10
219.615694641177
 20
530.5037500293037
 30
0.0
 11
293.6156946411769
 21
530.5037500293038
 31
0.0
  0
LINE
  5
2C8
330
2
100
AcDbEntity
  8
03-01
100
AcDbLine
 10
247.6156946411769
 20
484.5037500293037
 30
0.0
 11
293.6156946411769
 21
484.5037500293038
 31
0.0
  0
LINE
  5
2C9
330
2
100
AcDbEntity
  8
03-01
100
AcDbLine
 10
247.6156946411769
 20
480.5037500293038
 30
0.0
 11
293.6156946411769
 21
480.5037500293038
 31
0.0
  0
LINE
  5
2CA
330
2
100
AcDbEntity
  8
03-01
100
AcDbLine
 10
247.6156946411769
 20
434.5037500293037
 30
0.0
 11
293.6156946411769
 21
434.5037500293038
 31
0.0
  0
LINE
  5
2CB
330
2
100
AcDbEntity
  8
03-01
100
AcDbLine
 10
247.6156946411769
 20
430.5037500293037
 30
0.0
 11
293.6156946411769
 21
430.5037500293038
 31
0.0
  0
LINE
  5
2CC
330
2
100
AcDbEntity
  8
03-01
100
AcDbLine
 10
347.6156946411769
 20
530.5037500293038
 30
0.0
 11
393.6156946411769
 21
530.5037500293038
 31
0.0
  0
LINE
  5
2CD
330
2
100
AcDbEntity
  8
03-01
100
AcDbLine
 10
347.6156946411769
 20
480.5037500293038
 30
0.0
 11
393.6156946411769
 21
480.5037500293038
 31
0.0
  0
LINE
  5
2CE
330
2
100
AcDbEntity
  8
03-01
100
AcDbLine
 10
347.6156946411769
 20
484.5037500293038
 30
0.0
 11
393.6156946411769
 21
484.5037500293038
 31
0.0
  0
LINE
  5
2CF
330
2
100
AcDbEntity
  8
03-01
100
AcDbLine
 10
347.6156946411769
 20
430.5037500293038
 30
0.0
 11
393.6156946411769
 21
430.5037500293038
 31
0.0
  0
LINE
  5
2D0
330
2
100
AcDbEntity
  8
03-01
100
AcDbLine
 10
347.6156946411769
 20
434.5037500293038
 30
0.0
 11
393.6156946411769
 21
434.5037500293038
 31
0.0
  0
LWPOLYLINE
  5
2D1
330
2
100
AcDbEntity
  8
03-01
100
AcDbPolyline
 90
        8
 70
     1
 43
0.0
 10
219.6156946411771
 20
393.5037500293038
 10
471.615694641177
 20
393.5037500293038
 42
0.4142135623730951
 10
473.6156946411771
 20
395.5037500293038
 10
473.6156946411771
 20
668.5037500293037
 42
0.4142135623730951
 10
471.615694641177
 20
670.5037500293038
 10
219.6156946411771
 20
670.5037500293038
 42
0.4142135623730951
 10
217.6156946411771
 20
668.5037500293037
 10
217.6156946411771
 20
395.5037500293038
 42
0.4142135623730951
  0
CIRCLE
  5
2D2
330
2
100
AcDbEntity
  8
03-01
100
AcDbCircle
 10
471.615694641177
 20
532.5037500293038
 30
0.0
 40
2.0
  0
CIRCLE
  5
2D3
330
2
100
AcDbEntity
  8
03-01
100
AcDbCircle
 10
219.615694641177
 20
532.5037500293038
 30
0.0
 40
2.0
  0
LINE
  5
2D4
330
2
100
AcDbEntity
  8
03-01
100
AcDbLine
 10
243.6156946411769
 20
395.5037500293038
 30
0.0
 11
243.6156946411769
 21
670.5037500293038
 31
0.0
  0
LINE
  5
2D5
330
2
100
AcDbEntity
  8
03-01
100
AcDbLine
 10
247.6156946411769
 20
395.5037500293038
 30
0.0
 11
247.6156946411769
 21
670.5037500293038
 31
0.0
  0
LINE
  5
2D6
330
2
100
AcDbEntity
  8
03-01
100
AcDbLine
 10
297.6156946411769
 20
395.5037500293038
 30
0.0
 11
297.6156946411769
 21
670.5037500293038
 31
0.0
  0
LINE
  5
2D7
330
2
100
AcDbEntity
  8
03-01
100
AcDbLine
 10
293.6156946411769
 20
395.5037500293038
 30
0.0
 11
293.6156946411769
 21
670.5037500293038
 31
0.0
  0
LINE
  5
2D8
330
2
100
AcDbEntity
  8
03-01
100
AcDbLine
 10
347.6156946411769
 20
395.5037500293038
 30
0.0
 11
347.6156946411769
 21
670.5037500293038
 31
0.0
  0
LINE
  5
2D9
330
2
100
AcDbEntity
  8
03-01
100
AcDbLine
 10
343.6156946411769
 20
395.5037500293038
 30
0.0
 11
343.6156946411769
 21
670.5037500293038
 31
0.0
  0
LINE
  5
2DA
330
2
100
AcDbEntity
  8
03-01
100
AcDbLine
 10
397.6156946411769
 20
395.5037500293038
 30
0.0
 11
397.6156946411769
 21
670.5037500293038
 31
0.0
  0
LINE
  5
2DB
330
2
100
AcDbEntity
  8
03-01
100
AcDbLine
 10
393.6156946411769
 20
395.5037500293038
 30
0.0
 11
393.6156946411769
 21
670.5037500293038
 31
0.0
  0
LINE
  5
2DC
330
2
100
AcDbEntity
  8
03-01
100
AcDbLine
 10
447.6156946411768
 20
395.5037500293038
 30
0.0
 11
447.6156946411768
 21
670.5037500293038
 31
0.0
  0
LINE
  5
2DD
330
2
100
AcDbEntity
  8
03-01
100
AcDbLine
 10
443.6156946411768
 20
395.5037500293038
 30
0.0
 11
443.6156946411768
 21
670.5037500293038
 31
0.0
  0
LWPOLYLINE
  5
2DE
330
2
100
AcDbEntity
  8
03-01
100
AcDbPolyline
 90
        8
 70
     1
 43
0.0
 10
219.6156946411771
 20
389.5037500293038
 10
471.615694641177
 20
389.5037500293038
 42
0.4142135623730951
 10
477.6156946411771
 20
395.5037500293038
 10
477.6156946411771
 20
668.5037500293037
 42
0.4142135623730951
 10
471.615694641177
 20
674.5037500293038
 10
219.6156946411771
 20
674.5037500293038
 42
0.4142135623730951
 10
213.6156946411771
 20
668.5037500293037
 10
213.6156946411771
 20
395.5037500293038
 42
0.4142135623730951
  0
LINE
  5
2DF
330
2
100
AcDbEntity
  8
02-01
100
AcDbLine
 10
467.5820913780324
 20
1039.009454312471
 30
0.0
 11
467.5820913780324
 21
1058.009454312471
 31
0.0
  0
LINE
  5
2E3
330
2
100
AcDbEntity
  8
0
100
AcDbLine
 10
476.2781128707164
 20
362.9167698225679
 30
0.0
 11
476.2781128707164
 21
367.4167698225679
 31
0.0
  0
LINE
  5
2E4
330
2
100
AcDbEntity
  8
0
100
AcDbLine
 10
475.7781128707164
 20
362.4167698225678
 30
0.0
 11
476.2781128707164
 21
362.9167698225679
 31
0.0
  0
LINE
  5
2E5
330
2
100
AcDbEntity
  8
0
100
AcDbLine
 10
459.2781128707166
 20
362.9167698225679
 30
0.0
 11
459.2781128707164
 21
367.4167698225679
 31
0.0
  0
LINE
  5
2E6
330
2
100
AcDbEntity
  8
0
100
AcDbLine
 10
459.2781128707166
 20
362.9167698225679
 30
0.0
 11
459.7781128707167
 21
362.4167698225678
 31
0.0
  0
LINE
  5
2E7
330
2
100
AcDbEntity
  8
0
100
AcDbLine
 10
459.2781128707166
 20
362.9167698225679
 30
0.0
 11
476.2781128707164
 21
362.9167698225679
 31
0.0
  0
LINE
  5
2E8
330
2
100
AcDbEntity
  8
0
100
AcDbLine
 10
459.7781128707167
 20
362.4167698225678
 30
0.0
 11
475.7781128707164
 21
362.4167698225678
 31
0.0
  0
LINE
  5
2E9
330
2
100
AcDbEntity
  8
05-01
100
AcDbLine
 10
467.6277017460635
 20
380.4167698225677
 30
0.0
 11
467.6277017460635
 21
360.440735858151
 31
0.0
  0
LINE
  5
2EA
330
2
100
AcDbEntity
  8
02-01
100
AcDbLine
 10
935.4695613207864
 20
1048.54945431247
 30
0.0
 11
911.330435203587
 21
1048.54945431247
 31
0.0
  0
LINE
  5
2EB
330
2
100
AcDbEntity
  8
0
100
AcDbLine
 10
935.4695613207864
 20
1056.54945431247
 30
0.0
 11
934.9695613207863
 21
1057.04945431247
 31
0.0
  0
LINE
  5
2EC
330
2
100
AcDbEntity
  8
0
100
AcDbLine
 10
934.9695613207863
 20
1040.04945431247
 30
0.0
 11
935.4695613207864
 21
1040.54945431247
 31
0.0
  0
LINE
  5
2ED
330
2
100
AcDbEntity
  8
0
100
AcDbLine
 10
935.4695613207864
 20
1040.54945431247
 30
0.0
 11
935.4695613207864
 21
1056.54945431247
 31
0.0
  0
LINE
  5
2EE
330
2
100
AcDbEntity
  8
0
100
AcDbLine
 10
934.9695613207863
 20
1040.04945431247
 30
0.0
 11
934.9695613207863
 21
1057.04945431247
 31
0.0
  0
LINE
  5
2EF
330
2
100
AcDbEntity
  8
0
100
AcDbLine
 10
934.9695613207863
 20
1057.04945431247
 30
0.0
 11
930.4695613207863
 21
1057.04945431247
 31
0.0
  0
LINE
  5
2F0
330
2
100
AcDbEntity
  8
0
100
AcDbLine
 10
934.9695613207863
 20
1040.04945431247
 30
0.0
 11
930.4695613207863
 21
1040.04945431247
 31
0.0
  0
LINE
  5
2F1
330
2
100
AcDbEntity
  8
02-01
100
AcDbLine
 10
458.0820913780323
 20
1048.509454312471
 30
0.0
 11
486.1451329321761
 21
1048.509454312471
 31
0.0
  0
CIRCLE
  5
2F2
330
2
100
AcDbEntity
  8
0
100
AcDbCircle
 10
467.5820913780324
 20
1048.509454312471
 30
0.0
 40
8.0
  0
LINE
  5
2F3
330
2
100
AcDbEntity
  8
0
100
AcDbLine
 10
471.5820913780324
 20
1049.50945431247
 30
0.0
 11
471.5820913780324
 21
1047.509454312471
 31
0.0
  0
LINE
  5
2F4
330
2
100
AcDbEntity
  8
0
100
AcDbLine
 10
463.5820913780324
 20
1047.509454312471
 30
0.0
 11
463.5820913780324
 21
1049.50945431247
 31
0.0
  0
CIRCLE
  5
2F5
330
2
100
AcDbEntity
  8
0
100
AcDbCircle
 10
467.5820913780324
 20
1048.509454312471
 30
0.0
 40
8.5
  0
LINE
  5
2F6
330
2
100
AcDbEntity
  8
0
100
AcDbLine
 10
471.5820913780324
 20
1047.509454312471
 30
0.0
 11
463.5820913780324
 21
1047.509454312471
 31
0.0
  0
LINE
  5
2F7
330
2
100
AcDbEntity
  8
0
100
AcDbLine
 10
463.5820913780324
 20
1049.50945431247
 30
0.0
 11
471.5820913780324
 21
1049.50945431247
 31
0.0
  0
LINE
  5
2F8
330
2
100
AcDbEntity
  8
05-01
100
AcDbLine
 10
461.3320913780324
 20
1048.509454312471
 30
0.0
 11
473.8320913780321
 21
1048.509454312471
 31
0.0
  0
DIMENSION
  5
2F9
330
2
100
AcDbEntity
  8
09-01
100
AcDbDimension
280
     0
  2
*D14
 10
970.1915992979579
 20
1271.54945431247
 30
0.0
 11
952.6915992979578
 21
1289.99767207762
 31
0.0
 70
   128
 71
     5
 73
     0
 74
     0
 75
     0
  3
Wagner$0
100
AcDbAlignedDimension
 13
920.4695613207864
 23
1272.54945431247
 33
0.0
 14
930.4695613207863
 24
1271.54945431247
 34
0.0
 50
90.0
100
AcDbRotatedDimension
1001
ACAD
1000
DSTYLE
1002
{
1070
    40
1040
5.0
1002
}
  0
DIMENSION
  5
30B
330
2
100
AcDbEntity
  8
09-01
100
AcDbDimension
280
     0
  2
*D11
 10
970.1915992979579
 20
825.5494543124708
 30
0.0
 11
958.9415992979578
 21
1048.549454312471
 31
0.0
 71
     5
 42
445.9999999999998
 73
     0
 74
     0
 75
     0
  3
Wagner$0
100
AcDbAlignedDimension
 13
930.4695613207863
 23
1271.54945431247
 33
0.0
 14
930.4695613207863
 24
825.5494543124708
 34
0.0
 50
90.0
100
AcDbRotatedDimension
1001
ACAD
1000
DSTYLE
1002
{
1070
    40
1040
5.0
1002
}
  0
DIMENSION
  5
318
330
2
100
AcDbEntity
  8
09-01
100
AcDbDimension
280
     0
  2
*D12
 10
970.1915992979579
 20
824.5494543124706
 30
0.0
 11
952.6915992979578
 21
809.5288877183635
 31
0.0
 70
   128
 71
     5
 73
     0
 74
     0
 75
     0
  3
Wagner$0
100
AcDbAlignedDimension
 13
920.4695613207864
 23
825.5494543124708
 33
0.0
 14
920.4695613207864
 24
824.5494543124706
 34
0.0
 50
90.0
100
AcDbRotatedDimension
1001
ACAD
1000
DSTYLE
1002
{
1070
    40
1040
5.0
1002
}
  0
LINE
  5
327
330
2
100
AcDbEntity
  8
0
100
AcDbLine
 10
920.4695613207864
 20
825.5494543124708
 30
0.0
 11
930.4695613207863
 21
825.5494543124708
 31
0.0
  0
LINE
  5
328
330
2
100
AcDbEntity
  8
0
100
AcDbLine
 10
920.4695613207864
 20
1271.54945431247
 30
0.0
 11
930.4695613207863
 21
1271.54945431247
 31
0.0
  0
DIMENSION
  5
329
330
2
100
AcDbEntity
  8
01-01
100
AcDbDimension
280
     0
  2
*D6
 10
554.6011904126121
 20
377.4374913748494
 30
0.0
 11
543.3511904126119
 21
527.4374913748495
 31
0.0
 71
     5
 42
300.0
 73
     0
 74
     0
 75
     0
  3
Wagner$0
100
AcDbAlignedDimension
 13
494.6156946411771
 23
677.4374913748494
 33
0.0
 14
494.6156946411771
 24
377.4374913748494
 34
0.0
 50
90.0
100
AcDbRotatedDimension
1001
ACAD
1000
DSTYLE
1002
{
1070
    40
1040
5.0
1002
}
  0
DIMENSION
  5
336
330
2
100
AcDbEntity
  8
01-01
100
AcDbDimension
280
     0
  2
*D7
 10
554.6011904126121
 20
377.4374913748494
 30
0.0
 11
537.1046545168724
 21
351.5538998496999
 31
0.0
 70
   128
 71
     5
 42
10.0
 73
     0
 74
     0
 75
     0
  3
Wagner$0
100
AcDbAlignedDimension
 13
493.6156946411771
 23
367.4374913748494
 33
0.0
 14
494.6156946411771
 24
377.4374913748494
 34
0.0
 50
90.0
100
AcDbRotatedDimension
1001
ACAD
1000
DSTYLE
1002
{
1070
    40
1040
5.0
1002
}
  0
DIMENSION
  5
345
330
2
100
AcDbEntity
  8
09-01
100
AcDbDimension
280
     0
  2
*D8
 10
920.4695613207864
 20
1323.699317412525
 30
0.0
 11
770.4695613207864
 21
1334.949317412525
 31
0.0
 71
     5
 42
300.0
 73
     0
 74
     0
 75
     0
  3
Wagner$0
100
AcDbAlignedDimension
 13
620.4695613207864
 23
1272.54945431247
 33
0.0
 14
920.4695613207864
 24
1272.54945431247
 34
0.0
100
AcDbRotatedDimension
1001
ACAD
1000
DSTYLE
1002
{
1070
    40
1040
5.0
1002
}
  0
DIMENSION
  5
352
330
2
100
AcDbEntity
  8
01-01
100
AcDbDimension
280
     0
  2
*D1
 10
531.0020997227946
 20
824.5117445680163
 30
0.0
 11
519.7520997227944
 21
936.5105994402435
 31
0.0
 71
     5
 42
223.9977097444543
 73
     0
 74
     0
 75
     0
  3
Wagner$0
100
AcDbAlignedDimension
 13
465.5820913780323
 23
1048.509454312471
 33
0.0
 14
494.5820913780323
 24
824.5117445680163
 34
0.0
 50
90.0
100
AcDbRotatedDimension
1001
ACAD
1000
DSTYLE
1002
{
1070
    40
1040
5.0
1002
}
  0
DIMENSION
  5
35F
330
2
100
AcDbEntity
  8
09-01
100
AcDbDimension
280
     0
  2
*D2
 10
493.6156946411771
 20
335.2930113821037
 30
0.0
 11
345.6156946411771
 21
346.5430113821037
 31
0.0
 71
     5
 42
296.0
 73
     0
 74
     0
 75
     0
  3
Wagner$0
100
AcDbAlignedDimension
 13
197.6156946411771
 23
367.4374913748493
 33
0.0
 14
493.6156946411771
 24
367.4374913748494
 34
0.0
100
AcDbRotatedDimension
1001
ACAD
1000
DSTYLE
1002
{
1070
    40
1040
5.0
1002
}
  0
LINE
  5
36C
330
2
100
AcDbEntity
  8
0
100
AcDbLine
 10
493.6156946411771
 20
377.4374913748494
 30
0.0
 11
493.6156946411771
 21
367.4374913748494
 31
0.0
  0
LINE
  5
36D
330
2
100
AcDbEntity
  8
0
100
AcDbLine
 10
197.615694641177
 20
377.4374913748493
 30
0.0
 11
197.615694641177
 21
367.4374913748493
 31
0.0
  0
DIMENSION
  5
36E
330
2
100
AcDbEntity
  8
09-01
100
AcDbDimension
280
     0
  2
*D0
 10
493.5820913780323
 20
1321.364120631703
 30
0.0
 11
519.0602754609962
 21
1338.864120631703
 31
0.0
 70
   128
 71
     5
 42
25.5
 73
     0
 74
     0
 75
     0
  3
Wagner$0
100
AcDbAlignedDimension
 13
468.0820913780324
 23
1250.011744568016
 33
0.0
 14
493.5820913780323
 24
1271.511744568016
 34
0.0
100
AcDbRotatedDimension
1001
ACAD
1000
DSTYLE
1002
{
1070
    40
1040
5.0
1002
}
  0
DIMENSION
  5
37D
330
2
100
AcDbEntity
  8
09-01
100
AcDbDimension
280
     0
  2
*D4
 10
223.0820913780324
 20
1321.364120631703
 30
0.0
 11
163.1820612377615
 21
1338.864120631703
 31
0.0
 70
   128
 71
     5
 42
25.50000000000003
 73
     0
 74
     0
 75
     0
  3
Wagner$0
100
AcDbAlignedDimension
 13
197.5820913780323
 23
1271.511744568016
 33
0.0
 14
223.0820913780324
 24
1250.011744568016
 34
0.0
100
AcDbRotatedDimension
1001
ACAD
1000
DSTYLE
1002
{
1070
    40
1040
5.0
1002
}
  0
LINE
  5
38C
330
2
100
AcDbEntity
  8
0
100
AcDbLine
 10
493.5820913780323
 20
1271.511744568016
 30
0.0
 11
493.5820913780323
 21
825.5117445680163
 31
0.0
  0
LINE
  5
38D
330
2
100
AcDbEntity
  8
0
100
AcDbLine
 10
197.5820913780323
 20
1271.511744568016
 30
0.0
 11
493.5820913780323
 21
1271.511744568016
 31
0.0
  0
LINE
  5
38E
330
2
100
AcDbEntity
  8
0
100
AcDbLine
 10
197.5820913780323
 20
1271.511744568016
 30
0.0
 11
197.5820913780323
 21
825.5117445680166
 31
0.0
  0
LINE
  5
38F
330
2
100
AcDbEntity
  8
0
100
AcDbLine
 10
197.5820913780323
 20
825.5117445680166
 30
0.0
 11
493.5820913780323
 21
825.5117445680163
 31
0.0
  0
LINE
  5
390
330
2
100
AcDbEntity
  8
02-01
100
AcDbLine
 10
920.4695613207864
 20
1048.54945431247
 30
0.0
 11
937.4695613207864
 21
1048.54945431247
 31
0.0
  0
DIMENSION
  5
391
330
2
100
AcDbEntity
  8
01-01
100
AcDbDimension
280
     0
  2
*D10
 10
580.204572355169
 20
1272.511744568016
 30
0.0
 11
568.9545723551689
 21
1048.511744568016
 31
0.0
 71
     5
 42
447.9999999999996
 73
     0
 74
     0
 75
     0
  3
Wagner$0
100
AcDbAlignedDimension
 13
494.5820913780323
 23
824.5117445680163
 33
0.0
 14
494.5820913780323
 24
1272.511744568016
 34
0.0
 50
90.0
100
AcDbRotatedDimension
1001
ACAD
1000
DSTYLE
1002
{
1070
    40
1040
5.0
1002
}
  0
LINE
  5
39E
330
2
100
AcDbEntity
  8
0
100
AcDbLine
 10
930.4695613207865
 20
1271.549454312471
 30
0.0
 11
930.4695613207863
 21
825.5494543124708
 31
0.0
  0
LINE
  5
39F
330
2
100
AcDbEntity
  8
03-01
100
AcDbLine
 10
479.6889825192213
 20
402.4374913748493
 30
0.0
 11
479.6889825192213
 21
367.4374913748494
 31
0.0
  0
DIMENSION
  5
3A0
330
2
100
AcDbEntity
  8
09-01
100
AcDbDimension
280
     0
  2
*D15
 10
158.2313086207628
 20
1127.012156496907
 30
0.0
 11
146.9813086207627
 21
1188.511950532461
 31
0.0
 71
     5
 42
122.9995880711094
 73
     0
 74
     0
 75
     0
  3
Wagner$0
100
AcDbAlignedDimension
 13
223.0820913780324
 23
1250.011744568016
 33
0.0
 14
223.0820913780324
 24
1127.012156496907
 34
0.0
 50
90.0
100
AcDbRotatedDimension
1001
ACAD
1000
DSTYLE
1002
{
1070
    40
1040
5.0
1002
}
  0
LINE
  5
3AD
330
2
100
AcDbEntity
  8
0
100
AcDbLine
 10
223.0820913780324
 20
1127.012156496907
 30
0.0
 11
468.0820913780324
 21
1127.012156496907
 31
0.0
  0
DIMENSION
  5
3AE
330
2
100
AcDbEntity
  8
09-01
100
AcDbDimension
280
     0
  2
*D16
 10
158.2313086207628
 20
1250.011744568016
 30
0.0
 11
140.7313086207628
 21
1295.233209969115
 31
0.0
 70
   128
 71
     5
 42
21.0
 73
     0
 74
     0
 75
     0
  3
Wagner$0
100
AcDbAlignedDimension
 13
198.0820913780324
 23
1271.011744568016
 33
0.0
 14
223.0820913780324
 24
1250.011744568016
 34
0.0
 50
90.0
100
AcDbRotatedDimension
1001
ACAD
1000
DSTYLE
1002
{
1070
    40
1040
5.0
1002
}
  0
LINE
  5
3BD
330
2
100
AcDbEntity
  8
0
100
AcDbLine
 10
223.0820913780324
 20
1250.011744568016
 30
0.0
 11
468.0820913780324
 21
1250.011744568016
 31
0.0
  0
LINE
  5
3BE
330
2
100
AcDbEntity
  8
03-01
100
AcDbLine
 10
197.9937586933058
 20
839.5117445680163
 30
0.0
 11
493.0796869818268
 21
839.5117445680163
 31
0.0
  0
LINE
  5
3BF
330
2
100
AcDbEntity
  8
03-01
100
AcDbLine
 10
196.5820913780324
 20
839.5117445680163
 30
0.0
 11
196.5881710014962
 21
839.5117445680163
 31
0.0
  0
DIMENSION
  5
3C0
330
2
100
AcDbEntity
  8
01-01
100
AcDbDimension
280
     0
  2
*D3
 10
494.6156946411771
 20
705.1257882732929
 30
0.0
 11
345.6156946411771
 21
716.3757882732929
 31
0.0
 71
     5
 42
298.0
 73
     0
 74
     0
 75
     0
  3
Wagner$0
100
AcDbAlignedDimension
 13
196.6156946411771
 23
677.4374913748492
 33
0.0
 14
494.6156946411771
 24
677.4374913748494
 34
0.0
100
AcDbRotatedDimension
1001
ACAD
1000
DSTYLE
1002
{
1070
    40
1040
5.0
1002
}
  0
LINE
  5
3CD
330
2
100
AcDbEntity
  8
0
100
AcDbLine
 10
494.6156946411771
 20
677.4374913748494
 30
0.0
 11
494.6156946411771
 21
377.4374913748494
 31
0.0
  0
LINE
  5
3CE
330
2
100
AcDbEntity
  8
0
100
AcDbLine
 10
197.615694641177
 20
367.4374913748493
 30
0.0
 11
493.6156946411771
 21
367.4374913748494
 31
0.0
  0
LINE
  5
3CF
330
2
100
AcDbEntity
  8
0
100
AcDbLine
 10
196.615694641177
 20
377.4374913748493
 30
0.0
 11
494.6156946411771
 21
377.4374913748494
 31
0.0
  0
LINE
  5
3D0
330
2
100
AcDbEntity
  8
0
100
AcDbLine
 10
196.615694641177
 20
677.4374913748492
 30
0.0
 11
196.615694641177
 21
377.4374913748493
 31
0.0
  0
LINE
  5
3D1
330
2
100
AcDbEntity
  8
0
100
AcDbLine
 10
196.615694641177
 20
677.4374913748492
 30
0.0
 11
494.6156946411771
 21
677.4374913748494
 31
0.0
  0
LINE
  5
3D2
330
2
100
AcDbEntity
  8
0
100
AcDbLine
 10
196.5820913780324
 20
824.5117445680163
 30
0.0
 11
494.5820913780323
 21
824.5117445680163
 31
0.0
  0
LINE
  5
3D3
330
2
100
AcDbEntity
  8
0
100
AcDbLine
 10
196.5820913780324
 20
1272.511744568016
 30
0.0
 11
494.5820913780323
 21
1272.511744568016
 31
0.0
  0
DIMENSION
  5
3D4
330
2
100
AcDbEntity
  8
09-01
100
AcDbDimension
280
     0
  2
*D5
 10
468.0820913780324
 20
1321.364120631703
 30
0.0
 11
345.5820913780324
 21
1332.614120631703
 31
0.0
 71
     5
 42
245.0
 73
     0
 74
     0
 75
     0
  3
Wagner$0
100
AcDbAlignedDimension
 13
223.0820913780324
 23
1246.894527191314
 33
0.0
 14
468.0820913780324
 24
1246.894527191314
 34
0.0
100
AcDbRotatedDimension
1001
ACAD
1000
DSTYLE
1002
{
1070
    40
1040
5.0
1002
}
  0
LINE
  5
3E1
330
2
100
AcDbEntity
  8
03-01
100
AcDbLine
 10
211.6889825192213
 20
402.4374913748493
 30
0.0
 11
211.6889825192213
 21
367.4374913748494
 31
0.0
  0
LINE
  5
3E2
330
2
100
AcDbEntity
  8
03-01
100
AcDbLine
 10
211.6889825192213
 20
402.4374913748493
 30
0.0
 11
479.6889825192213
 21
402.4374913748494
 31
0.0
  0
LINE
  5
3E3
330
2
100
AcDbEntity
  8
03-01
100
AcDbLine
 10
908.4431378049911
 20
1131.471495506433
 30
0.0
 11
907.8695613207862
 21
1130.652343495651
 31
0.0
  0
LINE
  5
3E4
330
2
100
AcDbEntity
  8
03-01
100
AcDbLine
 10
926.4695613207864
 20
1127.550702216811
 30
0.0
 11
929.9695613207862
 21
1129.571428158975
 31
0.0
  0
LINE
  5
3E5
330
2
100
AcDbEntity
  8
03-01
100
AcDbLine
 10
926.4695613207864
 20
1127.550702216811
 30
0.0
 11
926.4695613207862
 21
1118.849256304306
 31
0.0
  0
LINE
  5
3E6
330
2
100
AcDbEntity
  8
03-01
100
AcDbLine
 10
926.4695613207862
 20
1118.849256304306
 30
0.0
 11
908.4431378049913
 21
1131.471495506433
 31
0.0
  0
LINE
  5
3E7
330
2
100
AcDbEntity
  8
03-01
100
AcDbLine
 10
894.9423821832118
 20
1094.870264227744
 30
0.0
 11
895.4695613207864
 21
1094.019887853785
 31
0.0
  0
LINE
  5
3E8
330
2
100
AcDbEntity
  8
03-01
100
AcDbLine
 10
894.9423821832118
 20
1094.870264227744
 30
0.0
 11
929.4695613207863
 21
1114.751091686623
 31
0.0
  0
LINE
  5
3E9
330
2
100
AcDbEntity
  8
03-01
100
AcDbLine
 10
929.4695613207863
 20
1124.04945431247
 30
0.0
 11
929.4695613207863
 21
1114.751091686623
 31
0.0
  0
LINE
  5
3EA
330
2
100
AcDbEntity
  8
03-01
100
AcDbLine
 10
895.4695613207864
 20
1094.019887853785
 30
0.0
 11
930.2743883494812
 21
1114.060585593283
 31
0.0
  0
LINE
  5
3EB
330
2
100
AcDbEntity
  8
03-01
100
AcDbLine
 10
927.4695613207864
 20
1116.928274040338
 30
0.0
 11
907.8695613207862
 21
1130.652343495651
 31
0.0
  0
LINE
  5
3EC
330
2
100
AcDbEntity
  8
03-01
100
AcDbLine
 10
927.4695613207864
 20
1126.928267247561
 30
0.0
 11
927.4695613207864
 21
1116.928274040338
 31
0.0
  0
LINE
  5
3ED
330
2
100
AcDbEntity
  8
03-01
100
AcDbLine
 10
927.4713264165461
 20
1126.974371026133
 30
0.0
 11
930.4695613207863
 21
1128.70540275519
 31
0.0
  0
LINE
  5
3EE
330
2
100
AcDbEntity
  8
03-01
100
AcDbLine
 10
211.6889825192213
 20
390.0374913748494
 30
0.0
 11
479.6889825192213
 21
390.0374913748494
 31
0.0
  0
LINE
  5
3EF
330
2
100
AcDbEntity
  8
03-01
100
AcDbLine
 10
620.4695613207864
 20
839.5494543124707
 30
0.0
 11
920.4695613207864
 21
839.5494543124707
 31
0.0
  0
LINE
  5
3F0
330
2
100
AcDbEntity
  8
0
100
AcDbLine
 10
223.0820913780324
 20
1250.011744568016
 30
0.0
 11
223.0820913780324
 21
1127.012156496907
 31
0.0
  0
LINE
  5
3F1
330
2
100
AcDbEntity
  8
0
100
AcDbLine
 10
468.0820913780324
 20
1250.011744568016
 30
0.0
 11
468.0820913780324
 21
1127.022156496907
 31
0.0
  0
LINE
  5
3F2
330
2
100
AcDbEntity
  8
0
100
AcDbLine
 10
494.5820913780323
 20
1272.511744568016
 30
0.0
 11
494.5820913780323
 21
824.5117445680163
 31
0.0
  0
DIMENSION
  5
3F3
330
2
100
AcDbEntity
  8
09-01
100
AcDbDimension
280
     0
  2
*D13
 10
930.4695613207863
 20
1323.699317412525
 30
0.0
 11
970.0379169669265
 21
1344.616726857607
 31
0.0
 70
   128
 71
     5
 42
10.0
 73
     0
 74
     0
 75
     0
  3
Wagner$0
100
AcDbAlignedDimension
 13
920.4695613207864
 23
1272.54945431247
 33
0.0
 14
930.4695613207863
 24
1271.04945431247
 34
0.0
100
AcDbRotatedDimension
1001
ACAD
1000
DSTYLE
1002
{
1070
    40
1040
5.0
1002
}
  0
DIMENSION
  5
402
330
2
100
AcDbEntity
  8
01-01
100
AcDbDimension
280
     0
  2
*D9
 10
930.4695613207863
 20
1370.488258500461
 30
0.0
 11
775.4695613207863
 21
1381.738258500461
 31
0.0
 71
     5
 42
310.0
 73
     0
 74
     0
 75
     0
  3
Wagner$0
100
AcDbAlignedDimension
 13
620.4695613207864
 23
1272.54945431247
 33
0.0
 14
930.4695613207863
 24
1271.04945431247
 34
0.0
100
AcDbRotatedDimension
1001
ACAD
1000
DSTYLE
1002
{
1070
    40
1040
5.0
1002
}
  0
LINE
  5
40F
330
2
100
AcDbEntity
  8
0
100
AcDbLine
 10
223.0820913780324
 20
1128.022156496907
 30
0.0
 11
468.0820913780324
 21
1128.022156496907
 31
0.0
  0
LINE
  5
410
330
2
100
AcDbEntity
  8
05-01
100
AcDbLine
 10
930.4695613207863
 20
1048.54945431247
 30
0.0
 11
953.9695613207864
 21
1048.54945431247
 31
0.0
  0
LINE
  5
411
330
2
100
AcDbEntity
  8
0
100
AcDbLine
 10
620.4695613207865
 20
824.5494543124706
 30
0.0
 11
920.4695613207864
 21
824.5494543124706
 31
0.0
  0
LINE
  5
412
330
2
100
AcDbEntity
  8
0
100
AcDbLine
 10
920.4695613207864
 20
1272.54945431247
 30
0.0
 11
920.4695613207864
 21
824.5494543124706
 31
0.0
  0
LINE
  5
413
330
2
100
AcDbEntity
  8
0
100
AcDbLine
 10
620.4695613207864
 20
1272.54945431247
 30
0.0
 11
920.4695613207864
 21
1272.54945431247
 31
0.0
  0
LINE
  5
414
330
2
100
AcDbEntity
  8
0
100
AcDbLine
 10
620.4695613207864
 20
1272.54945431247
 30
0.0
 11
620.4695613207865
 21
824.5494543124706
 31
0.0
  0
LINE
  5
415
330
2
100
AcDbEntity
  8
0
100
AcDbLine
 10
196.5820913780324
 20
1272.511744568016
 30
0.0
 11
196.5820913780324
 21
824.5117445680163
 31
0.0
  0
ENDSEC
  0
SECTION
  2
OBJECTS
  0
DICTIONARY
  5
B
330
0
100
AcDbDictionary
281
     1
  3
ACAD_COLOR
350
4B
  3
ACAD_GROUP
350
38
  3
ACAD_LAYOUT
350
18
  3
ACAD_MATERIAL
350
D
  3
ACAD_MLEADERSTYLE
350
4E
  3
ACAD_MLINESTYLE
350
39
  3
ACAD_PLOTSETTINGS
350
3A
  3
ACAD_PLOTSTYLENAME
350
A
  3
ACAD_SCALELIST
350
4C
  3
ACAD_TABLESTYLE
350
4D
  3
ACAD_VISUALSTYLE
350
2E
  3
ACDB_RECOMPOSE_DATA
350
422
  3
AcDbVariableDictionary
350
418
  0
DICTIONARY
  5
20
330
1F
100
AcDbDictionary
280
     1
281
     1
  3
ACAD_LAYERSTATES
360
21
  0
DICTIONARY
  5
7
330
6
100
AcDbDictionary
280
     1
281
     1
  3
ADSK_XREC_LAYER_RECONCILED
360
8
  0
DICTIONARY
  5
50
330
4F
100
AcDbDictionary
280
     1
281
     1
  3
ADSK_XREC_LAYER_RECONCILED
360
51
  0
DICTIONARY
  5
2E1
330
2E0
100
AcDbDictionary
280
     1
281
     1
  3
ADSK_XREC_LAYER_RECONCILED
360
2E2
  0
DICTIONARY
  5
C1
330
C0
100
AcDbDictionary
280
     1
281
     1
  3
ADSK_XREC_LAYER_RECONCILED
360
C2
  0
DICTIONARY
  5
C6
330
C5
100
AcDbDictionary
280
     1
281
     1
  3
ADSK_XREC_LAYER_RECONCILED
360
C7
  0
DICTIONARY
  5
2FB
330
2FA
100
AcDbDictionary
280
     1
281
     1
  3
ADSK_XREC_LAYER_RECONCILED
360
2FC
  0
DICTIONARY
  5
102
330
101
100
AcDbDictionary
280
     1
281
     1
  3
ADSK_XREC_LAYER_RECONCILED
360
103
  0
DICTIONARY
  5
140
330
13F
100
AcDbDictionary
280
     1
281
     1
  3
ADSK_XREC_LAYER_RECONCILED
360
141
  0
DICTIONARY
  5
108
330
107
100
AcDbDictionary
280
     1
281
     1
  3
ADSK_XREC_LAYER_RECONCILED
360
109
  0
DICTIONARY
  5
12A
330
129
100
AcDbDictionary
280
     1
281
     1
  3
ADSK_XREC_LAYER_RECONCILED
360
12B
  0
DICTIONARY
  5
3
330
2
100
AcDbDictionary
280
     1
281
     1
  3
ACAD_SORTENTS
360
417
  0
DICTIONARY
  5
FD
330
FC
100
AcDbDictionary
280
     1
281
     1
  3
ACAD_SORTENTS
360
416
  0
DICTIONARY
  5
4B
102
{ACAD_REACTORS
330
B
102
}
330
B
100
AcDbDictionary
281
     1
  0
DICTIONARY
  5
38
102
{ACAD_REACTORS
330
B
102
}
330
B
100
AcDbDictionary
281
     1
  0
DICTIONARY
  5
18
102
{ACAD_REACTORS
330
B
102
}
330
B
100
AcDbDictionary
281
     1
  3
Layout1
350
1E
  3
Model
350
17
  0
DICTIONARY
  5
D
102
{ACAD_REACTORS
330
B
102
}
330
B
100
AcDbDictionary
281
     1
  3
ByBlock
350
43
  3
ByLayer
350
3B
  3
Global
350
C
  0
DICTIONARY
  5
4E
102
{ACAD_REACTORS
330
B
102
}
330
B
100
AcDbDictionary
281
     1
  0
DICTIONARY
  5
39
102
{ACAD_REACTORS
330
B
102
}
330
B
100
AcDbDictionary
281
     1
  3
Standard
350
52
  0
DICTIONARY
  5
3A
102
{ACAD_REACTORS
330
B
102
}
330
B
100
AcDbDictionary
281
     1
  0
ACDBDICTIONARYWDFLT
  5
A
102
{ACAD_REACTORS
330
B
102
}
330
B
100
AcDbDictionary
281
     1
  3
Normal
350
9
100
AcDbDictionaryWithDefault
340
9
  0
DICTIONARY
  5
4C
102
{ACAD_REACTORS
330
B
102
}
330
B
100
AcDbDictionary
281
     1
  3
A0
350
57
  3
A1
350
58
  3
A2
350
59
  3
A3
350
5A
  3
A4
350
5B
  3
A5
350
5C
  3
A6
350
5D
  3
A7
350
5E
  3
A8
350
5F
  3
A9
350
60
  3
B0
350
61
  3
B1
350
62
  3
B2
350
63
  3
B3
350
64
  3
B4
350
65
  3
B5
350
66
  3
B6
350
67
  3
B7
350
68
  3
B8
350
69
  3
B9
350
6A
  3
C0
350
6B
  3
C1
350
6C
  3
C2
350
6D
  3
C3
350
6E
  3
C4
350
6F
  3
C5
350
70
  3
C6
350
71
  3
C7
350
72
  3
C8
350
73
  3
C9
350
74
  3
D0
350
75
  3
D1
350
76
  3
D2
350
77
  0
DICTIONARY
  5
4D
102
{ACAD_REACTORS
330
B
102
}
330
B
100
AcDbDictionary
281
     1
  3
Standard
350
53
  0
DICTIONARY
  5
2E
102
{ACAD_REACTORS
330
B
102
}
330
B
100
AcDbDictionary
281
     1
  3
2dWireframe
350
2D
  3
3dWireframe
350
56
  3
Realistic
350
55
  0
XRECORD
  5
422
102
{ACAD_REACTORS
330
B
102
}
330
B
100
AcDbXrecord
280
     1
 90
        1
330
53
  0
DICTIONARY
  5
418
102
{ACAD_REACTORS
330
B
102
}
330
B
100
AcDbDictionary
281
     1
  3
CANNOSCALE
350
41C
  3
CMLEADERSTYLE
350
41A
  3
CTABLESTYLE
350
419
  3
LAYEREVAL
350
41E
  3
LAYERNOTIFY
350
41F
  3
LIGHTINGUNITS
350
41D
  3
MSLTSCALE
350
41B
  0
DICTIONARY
  5
21
102
{ACAD_REACTORS
330
20
102
}
330
20
100
AcDbDictionary
281
     1
  0
XRECORD
  5
8
102
{ACAD_REACTORS
330
7
102
}
330
7
100
AcDbXrecord
280
     1
290
     1
  0
XRECORD
  5
51
102
{ACAD_REACTORS
330
50
102
}
330
50
100
AcDbXrecord
280
     1
290
     1
  0
XRECORD
  5
2E2
102
{ACAD_REACTORS
330
2E1
102
}
330
2E1
100
AcDbXrecord
280
     1
290
     1
  0
XRECORD
  5
C2
102
{ACAD_REACTORS
330
C1
102
}
330
C1
100
AcDbXrecord
280
     1
290
     1
  0
XRECORD
  5
C7
102
{ACAD_REACTORS
330
C6
102
}
330
C6
100
AcDbXrecord
280
     1
290
     1
  0
XRECORD
  5
2FC
102
{ACAD_REACTORS
330
2FB
102
}
330
2FB
100
AcDbXrecord
280
     1
290
     1
  0
XRECORD
  5
103
102
{ACAD_REACTORS
330
102
102
}
330
102
100
AcDbXrecord
280
     1
290
     1
  0
XRECORD
  5
141
102
{ACAD_REACTORS
330
140
102
}
330
140
100
AcDbXrecord
280
     1
290
     1
  0
XRECORD
  5
109
102
{ACAD_REACTORS
330
108
102
}
330
108
100
AcDbXrecord
280
     1
290
     1
  0
XRECORD
  5
12B
102
{ACAD_REACTORS
330
12A
102
}
330
12A
100
AcDbXrecord
280
     1
290
     1
  0
SORTENTSTABLE
  5
417
102
{ACAD_REACTORS
330
3
102
}
330
3
100
AcDbSortentsTable
330
2
331
296
  5
1F3
331
292
  5
1F7
331
28E
  5
1FB
331
2CD
  5
1BC
331
28A
  5
1FF
331
2C9
  5
1C0
331
B0
  5
411
331
EB
  5
3A0
331
1A5
  5
2E7
331
21F
  5
26A
331
1A1
  5
2EB
331
21B
  5
26E
331
256
  5
233
331
19D
  5
2EF
331
1DC
  5
2AD
331
217
  5
272
331
1D8
  5
2B1
331
213
  5
276
331
252
  5
237
331
199
  5
2F3
331
37D
  5
186
331
3F3
  5
CA
331
286
  5
203
331
2C5
  5
1C4
331
2C1
  5
1C8
331
282
  5
207
331
27E
  5
20B
331
2BD
  5
1CC
331
2F8
  5
194
331
27A
  5
20F
331
2B9
  5
1D0
331
E7
  5
3BE
331
2F4
  5
198
331
E3
  5
3CE
331
2F0
  5
19C
331
DF
  5
3D2
331
DB
  5
3E2
331
1D4
  5
2B5
331
20F
  5
27A
331
24E
  5
23B
331
195
  5
2F7
331
191
  5
318
331
1D0
  5
2B9
331
20B
  5
27E
331
24A
  5
23F
331
246
  5
243
331
18D
  5
336
331
1CC
  5
2BD
331
207
  5
282
331
203
  5
286
331
242
  5
247
331
189
  5
36C
331
1C8
  5
2C1
331
3EF
  5
CE
331
3EB
  5
D2
331
36D
  5
188
331
3E7
  5
D6
331
3E3
  5
DA
331
276
  5
213
331
2B5
  5
1D4
331
2B1
  5
1D8
331
2EC
  5
1A0
331
272
  5
217
331
2AD
  5
1DC
331
2E8
  5
1A4
331
327
  5
190
331
26E
  5
21B
331
26A
  5
21F
331
2A9
  5
1E0
331
D7
  5
3E6
331
2E4
  5
1A8
331
D3
  5
3EA
331
CF
  5
3EE
331
CB
  5
3F2
331
1C4
  5
2C5
331
1FF
  5
28A
331
23E
  5
24B
331
185
  5
38C
331
1C0
  5
2C9
331
1FB
  5
28E
331
23A
  5
24F
331
236
  5
253
331
1BC
  5
2CD
331
1F7
  5
292
331
1F3
  5
296
331
232
  5
257
331
1B8
  5
2D1
331
3A0
  5
EB
331
3D3
  5
DE
331
412
  5
A3
331
266
  5
223
331
2A5
  5
1E4
331
2DC
  5
1AD
331
262
  5
227
331
2A1
  5
1E8
331
29D
  5
1EC
331
2D8
  5
1B1
331
25E
  5
22B
331
25A
  5
22F
331
299
  5
1F0
331
2D4
  5
1B5
331
2D0
  5
1B9
331
BF
  5
410
331
78
  5
415
331
1B4
  5
2D5
331
1EF
  5
29A
331
22E
  5
25B
331
1B0
  5
2D9
331
1EB
  5
29E
331
22A
  5
25F
331
226
  5
263
331
1AC
  5
2DD
331
1E7
  5
2A2
331
222
  5
267
331
1A8
  5
2E4
331
1E3
  5
2A6
331
3CF
  5
E2
331
390
  5
FB
331
38C
  5
185
331
402
  5
C9
331
295
  5
1F4
331
30B
  5
192
331
291
  5
1F8
331
28D
  5
1FC
331
2CC
  5
1BD
331
289
  5
200
331
2C8
  5
1C1
331
EE
  5
391
331
EA
  5
3AD
331
1A4
  5
2E8
331
21E
  5
26B
331
1A0
  5
2EC
331
1DF
  5
2AA
331
21A
  5
26F
331
255
  5
234
331
19C
  5
2F0
331
1DB
  5
2AE
331
216
  5
273
331
212
  5
277
331
251
  5
238
331
198
  5
2F4
331
3BF
  5
E6
331
3F2
  5
CB
331
285
  5
204
331
2C4
  5
1C5
331
2C0
  5
1C9
331
281
  5
208
331
27D
  5
20C
331
2BC
  5
1CD
331
2F7
  5
195
331
336
  5
18D
331
279
  5
210
331
2B8
  5
1D1
331
E6
  5
3BF
331
2F3
  5
199
331
A3
  5
412
331
E2
  5
3CF
331
DE
  5
3D3
331
DA
  5
3E3
331
1D7
  5
2B2
331
194
  5
2F8
331
1D3
  5
2B6
331
20E
  5
27B
331
24D
  5
23C
331
190
  5
327
331
1CF
  5
2BA
331
20A
  5
27F
331
249
  5
240
331
245
  5
244
331
18C
  5
345
331
1CB
  5
2BE
331
206
  5
283
331
202
  5
287
331
241
  5
248
331
188
  5
36D
331
3EE
  5
CF
331
3EA
  5
D3
331
36C
  5
189
331
3E6
  5
D7
331
3E2
  5
DB
331
275
  5
214
331
2B4
  5
1D5
331
2EF
  5
19D
331
2B0
  5
1D9
331
2EB
  5
1A1
331
271
  5
218
331
26D
  5
21C
331
2AC
  5
1DD
331
2E7
  5
1A5
331
269
  5
220
331
2A8
  5
1E1
331
D6
  5
3E7
331
2E3
  5
1A9
331
D2
  5
3EB
331
CE
  5
3EF
331
CA
  5
3F3
331
1C7
  5
2C2
331
1C3
  5
2C6
331
1FE
  5
28B
331
23D
  5
24C
331
184
  5
38D
331
1BF
  5
2CA
331
1FA
  5
28F
331
239
  5
250
331
235
  5
254
331
1BB
  5
2CE
331
1F6
  5
293
331
1F2
  5
297
331
231
  5
258
331
39F
  5
EC
331
415
  5
78
331
3D2
  5
DF
331
411
  5
B0
331
265
  5
224
331
2A4
  5
1E5
331
2DF
  5
1AA
331
2A0
  5
1E9
331
2DB
  5
1AE
331
261
  5
228
331
29C
  5
1ED
331
2D7
  5
1B2
331
25D
  5
22C
331
259
  5
230
331
298
  5
1F1
331
2D3
  5
1B6
331
1B7
  5
2D2
331
1B3
  5
2D6
331
1EE
  5
29B
331
22D
  5
25C
331
1AF
  5
2DA
331
1EA
  5
29F
331
229
  5
260
331
225
  5
264
331
1AB
  5
2DE
331
1E6
  5
2A3
331
1E2
  5
2A7
331
221
  5
268
331
3CE
  5
E3
331
38F
  5
182
331
294
  5
1F5
331
2CF
  5
1BA
331
290
  5
1F9
331
28C
  5
1FD
331
2CB
  5
1BE
331
345
  5
18C
331
288
  5
201
331
ED
  5
39E
331
E9
  5
3AE
331
1A7
  5
2E5
331
1A3
  5
2E9
331
21D
  5
26C
331
19F
  5
2ED
331
1DE
  5
2AB
331
219
  5
270
331
215
  5
274
331
254
  5
235
331
19B
  5
2F1
331
1DA
  5
2AF
331
211
  5
278
331
250
  5
239
331
3BE
  5
E7
331
3F1
  5
CC
331
2C7
  5
1C2
331
284
  5
205
331
2C3
  5
1C6
331
2BF
  5
1CA
331
280
  5
209
331
27C
  5
20D
331
2BB
  5
1CE
331
2F6
  5
196
331
278
  5
211
331
E5
  5
3C0
331
2F2
  5
19A
331
E1
  5
3D0
331
DD
  5
3D4
331
D9
  5
3E4
331
1D6
  5
2B3
331
197
  5
2F5
331
193
  5
2F9
331
1D2
  5
2B7
331
20D
  5
27C
331
24C
  5
23D
331
248
  5
241
331
18F
  5
328
331
1CE
  5
2BB
331
209
  5
280
331
244
  5
245
331
18B
  5
352
331
1CA
  5
2BF
331
205
  5
284
331
201
  5
288
331
240
  5
249
331
3ED
  5
D0
331
3AE
  5
E9
331
3E9
  5
D4
331
3E5
  5
D8
331
3E1
  5
DC
331
2B7
  5
1D2
331
2EE
  5
19E
331
274
  5
215
331
2B3
  5
1D6
331
2AF
  5
1DA
331
2EA
  5
1A2
331
329
  5
18E
331
270
  5
219
331
26C
  5
21D
331
2AB
  5
1DE
331
2E6
  5
1A6
331
D5
  5
3E8
331
268
  5
221
331
96
  5
413
331
D1
  5
3EC
331
CD
  5
3F0
331
C9
  5
402
331
1C6
  5
2C3
331
187
  5
36E
331
183
  5
38E
331
1C2
  5
2C7
331
1FD
  5
28C
331
23C
  5
24D
331
1BE
  5
2CB
331
1F9
  5
290
331
238
  5
251
331
234
  5
255
331
1BA
  5
2CF
331
1F5
  5
294
331
1F1
  5
298
331
230
  5
259
331
39E
  5
ED
331
35F
  5
18A
331
414
  5
89
331
410
  5
BF
331
3D1
  5
E0
331
2A7
  5
1E2
331
264
  5
225
331
2A3
  5
1E6
331
2DE
  5
1AB
331
29F
  5
1EA
331
2DA
  5
1AF
331
260
  5
229
331
25C
  5
22D
331
29B
  5
1EE
331
2D6
  5
1B3
331
258
  5
231
331
2D2
  5
1B7
331
1B6
  5
2D3
331
1B2
  5
2D7
331
1ED
  5
29C
331
22C
  5
25D
331
1AE
  5
2DB
331
1E9
  5
2A0
331
228
  5
261
331
224
  5
265
331
1AA
  5
2DF
331
1E5
  5
2A4
331
1E1
  5
2A8
331
220
  5
269
331
3CD
  5
E4
331
38E
  5
183
331
297
  5
1F2
331
293
  5
1F6
331
28F
  5
1FA
331
2CE
  5
1BB
331
28B
  5
1FE
331
2CA
  5
1BF
331
EC
  5
39F
331
E8
  5
3BD
331
1A6
  5
2E6
331
1A2
  5
2EA
331
21C
  5
26D
331
257
  5
232
331
19E
  5
2EE
331
1DD
  5
2AC
331
218
  5
271
331
214
  5
275
331
253
  5
236
331
19A
  5
2F2
331
1D9
  5
2B0
331
210
  5
279
331
3BD
  5
E8
331
3F0
  5
CD
331
287
  5
202
331
2C6
  5
1C3
331
2C2
  5
1C7
331
283
  5
206
331
2BE
  5
1CB
331
2F9
  5
193
331
27F
  5
20A
331
27B
  5
20E
331
2BA
  5
1CF
331
2F5
  5
197
331
E4
  5
3CD
331
2F1
  5
19B
331
E0
  5
3D1
331
DC
  5
3E1
331
D8
  5
3E5
331
1D5
  5
2B4
331
24F
  5
23A
331
196
  5
2F6
331
192
  5
30B
331
1D1
  5
2B8
331
20C
  5
27D
331
24B
  5
23E
331
247
  5
242
331
18E
  5
329
331
1CD
  5
2BC
331
208
  5
281
331
204
  5
285
331
243
  5
246
331
18A
  5
35F
331
1C9
  5
2C0
331
200
  5
289
331
3EC
  5
D1
331
3AD
  5
EA
331
3E8
  5
D5
331
36E
  5
187
331
3E4
  5
D9
331
277
  5
212
331
2B6
  5
1D3
331
2ED
  5
19F
331
273
  5
216
331
2B2
  5
1D7
331
2AE
  5
1DB
331
2E9
  5
1A3
331
328
  5
18F
331
26F
  5
21A
331
26B
  5
21E
331
2AA
  5
1DF
331
2E5
  5
1A7
331
D4
  5
3E9
331
D0
  5
3ED
331
CC
  5
3F1
331
89
  5
414
331
1C5
  5
2C4
331
23F
  5
24A
331
186
  5
37D
331
182
  5
38F
331
1C1
  5
2C8
331
1FC
  5
28D
331
23B
  5
24E
331
237
  5
252
331
1BD
  5
2CC
331
1F8
  5
291
331
233
  5
256
331
1B9
  5
2D0
331
1F4
  5
295
331
1F0
  5
299
331
3D4
  5
DD
331
413
  5
96
331
3D0
  5
E1
331
267
  5
222
331
2A6
  5
1E3
331
2DD
  5
1AC
331
263
  5
226
331
2A2
  5
1E7
331
29E
  5
1EB
331
2D9
  5
1B0
331
318
  5
191
331
25F
  5
22A
331
25B
  5
22E
331
29A
  5
1EF
331
2D5
  5
1B4
331
C4
  5
40F
331
2D1
  5
1B8
331
FB
  5
390
331
1B5
  5
2D4
331
22F
  5
25A
331
1B1
  5
2D8
331
1EC
  5
29D
331
22B
  5
25E
331
1AD
  5
2DC
331
1E8
  5
2A1
331
227
  5
262
331
223
  5
266
331
1A9
  5
2E3
331
1E4
  5
2A5
331
1E0
  5
2A9
331
40F
  5
C4
331
352
  5
18B
331
391
  5
EE
331
38D
  5
184
331
3C0
  5
E5
  0
SORTENTSTABLE
  5
416
102
{ACAD_REACTORS
330
FD
102
}
330
FD
100
AcDbSortentsTable
330
FC
  0
LAYOUT
  5
1E
102
{ACAD_REACTORS
330
18
102
}
330
18
100
AcDbPlotSettings
  1

  2
HP LaserJet 4 Plus
  4

  6

 40
0.0
 41
0.0
 42
0.0
 43
0.0
 44
0.0
 45
0.0
 46
0.0
 47
0.0
 48
0.0
 49
0.0
140
0.0
141
0.0
142
1.0
143
1.0
 70
   688
 72
     0
 73
     0
 74
     5
  7
CNC-Soft.ctb
 75
    16
147
1.0
 76
     0
 77
     2
 78
   300
148
0.0
149
0.0
100
AcDbLayout
  1
Layout1
 70
     0
 71
     1
 10
0.0
 20
0.0
 11
12.0
 21
9.0
 12
0.0
 22
0.0
 32
0.0
 14
1.000000000000000E+20
 24
1.000000000000000E+20
 34
1.000000000000000E+20
 15
-1.000000000000000E+20
 25
-1.000000000000000E+20
 35
-1.000000000000000E+20
146
0.0
 13
0.0
 23
0.0
 33
0.0
 16
1.0
 26
0.0
 36
0.0
 17
0.0
 27
1.0
 37
0.0
 76
     0
330
1B
  0
LAYOUT
  5
17
102
{ACAD_XDICTIONARY
360
19
102
}
102
{ACAD_REACTORS
330
18
102
}
330
18
100
AcDbPlotSettings
  1

  2
HP LaserJet 4 Plus.pc3
  4
A4
  6

 40
6.043083190917968
 41
6.720414161682128
 42
7.821090698242187
 43
5.027069091796875
 44
210.0579986572266
 45
296.9259948730469
 46
0.0
 47
0.0
 48
0.0
 49
0.0
140
0.0
141
0.0
142
1.0
143
4.997419952486215
 70
 11952
 72
     1
 73
     0
 74
     1
  7
CNC-Soft.ctb
 75
     0
147
0.200103255181206
 76
     0
 77
     2
 78
   300
148
0.0320410123467809
149
0.0453151460337722
100
AcDbLayout
  1
Model
 70
     1
 71
     0
 10
0.0
 20
0.0
 11
12.0
 21
9.0
 12
0.0
 22
0.0
 32
0.0
 14
0.0
 24
0.0
 34
0.0
 15
0.0
 25
0.0
 35
0.0
146
0.0
 13
0.0
 23
0.0
 33
0.0
 16
1.0
 26
0.0
 36
0.0
 17
0.0
 27
1.0
 37
0.0
 76
     0
330
2
331
2C
  0
MATERIAL
  5
43
102
{ACAD_XDICTIONARY
360
44
102
}
102
{ACAD_REACTORS
330
D
102
}
330
D
100
AcDbMaterial
  1
ByBlock
 72
     0
 43
0.0208333333333333
 43
0.0
 43
0.0
 43
0.0
 43
0.0
 43
0.0208333333333333
 43
0.0
 43
0.0
 43
0.0
 43
0.0
 43
1.0
 43
0.0
 43
0.0
 43
0.0
 43
0.0
 43
1.0
 77
     0
 47
0.0208333333333333
 47
0.0
 47
0.0
 47
0.0
 47
0.0
 47
0.0208333333333333
 47
0.0
 47
0.0
 47
0.0
 47
0.0
 47
1.0
 47
0.0
 47
0.0
 47
0.0
 47
0.0
 47
1.0
171
     0
 49
0.0208333333333333
 49
0.0
 49
0.0
 49
0.0
 49
0.0
 49
0.0208333333333333
 49
0.0
 49
0.0
 49
0.0
 49
0.0
 49
1.0
 49
0.0
 49
0.0
 49
0.0
 49
0.0
 49
1.0
175
     0
142
0.0208333333333333
142
0.0
142
0.0
142
0.0
142
0.0
142
0.0208333333333333
142
0.0
142
0.0
142
0.0
142
0.0
142
1.0
142
0.0
142
0.0
142
0.0
142
0.0
142
1.0
179
     0
144
0.0208333333333333
144
0.0
144
0.0
144
0.0
144
0.0
144
0.0208333333333333
144
0.0
144
0.0
144
0.0
144
0.0
144
1.0
144
0.0
144
0.0
144
0.0
144
0.0
144
1.0
147
0.0208333333333333
147
0.0
147
0.0
147
0.0
147
0.0
147
0.0208333333333333
147
0.0
147
0.0
147
0.0
147
0.0
147
1.0
147
0.0
147
0.0
147
0.0
147
0.0
147
1.0
  0
MATERIAL
  5
3B
102
{ACAD_XDICTIONARY
360
3C
102
}
102
{ACAD_REACTORS
330
D
102
}
330
D
100
AcDbMaterial
  1
ByLayer
 72
     0
 43
0.0208333333333333
 43
0.0
 43
0.0
 43
0.0
 43
0.0
 43
0.0208333333333333
 43
0.0
 43
0.0
 43
0.0
 43
0.0
 43
1.0
 43
0.0
 43
0.0
 43
0.0
 43
0.0
 43
1.0
 77
     0
 47
0.0208333333333333
 47
0.0
 47
0.0
 47
0.0
 47
0.0
 47
0.0208333333333333
 47
0.0
 47
0.0
 47
0.0
 47
0.0
 47
1.0
 47
0.0
 47
0.0
 47
0.0
 47
0.0
 47
1.0
171
     0
 49
0.0208333333333333
 49
0.0
 49
0.0
 49
0.0
 49
0.0
 49
0.0208333333333333
 49
0.0
 49
0.0
 49
0.0
 49
0.0
 49
1.0
 49
0.0
 49
0.0
 49
0.0
 49
0.0
 49
1.0
175
     0
142
0.0208333333333333
142
0.0
142
0.0
142
0.0
142
0.0
142
0.0208333333333333
142
0.0
142
0.0
142
0.0
142
0.0
142
1.0
142
0.0
142
0.0
142
0.0
142
0.0
142
1.0
179
     0
144
0.0208333333333333
144
0.0
144
0.0
144
0.0
144
0.0
144
0.0208333333333333
144
0.0
144
0.0
144
0.0
144
0.0
144
1.0
144
0.0
144
0.0
144
0.0
144
0.0
144
1.0
147
0.0208333333333333
147
0.0
147
0.0
147
0.0
147
0.0
147
0.0208333333333333
147
0.0
147
0.0
147
0.0
147
0.0
147
1.0
147
0.0
147
0.0
147
0.0
147
0.0
147
1.0
  0
MATERIAL
  5
C
102
{ACAD_XDICTIONARY
360
E
102
}
102
{ACAD_REACTORS
330
D
102
}
330
D
100
AcDbMaterial
  1
Global
 72
     0
 43
0.0208333333333333
 43
0.0
 43
0.0
 43
0.0
 43
0.0
 43
0.0208333333333333
 43
0.0
 43
0.0
 43
0.0
 43
0.0
 43
1.0
 43
0.0
 43
0.0
 43
0.0
 43
0.0
 43
1.0
 77
     0
 47
0.0208333333333333
 47
0.0
 47
0.0
 47
0.0
 47
0.0
 47
0.0208333333333333
 47
0.0
 47
0.0
 47
0.0
 47
0.0
 47
1.0
 47
0.0
 47
0.0
 47
0.0
 47
0.0
 47
1.0
171
     0
 49
0.0208333333333333
 49
0.0
 49
0.0
 49
0.0
 49
0.0
 49
0.0208333333333333
 49
0.0
 49
0.0
 49
0.0
 49
0.0
 49
1.0
 49
0.0
 49
0.0
 49
0.0
 49
0.0
 49
1.0
175
     0
142
0.0208333333333333
142
0.0
142
0.0
142
0.0
142
0.0
142
0.0208333333333333
142
0.0
142
0.0
142
0.0
142
0.0
142
1.0
142
0.0
142
0.0
142
0.0
142
0.0
142
1.0
179
     0
144
0.0208333333333333
144
0.0
144
0.0
144
0.0
144
0.0
144
0.0208333333333333
144
0.0
144
0.0
144
0.0
144
0.0
144
1.0
144
0.0
144
0.0
144
0.0
144
0.0
144
1.0
147
0.0208333333333333
147
0.0
147
0.0
147
0.0
147
0.0
147
0.0208333333333333
147
0.0
147
0.0
147
0.0
147
0.0
147
1.0
147
0.0
147
0.0
147
0.0
147
0.0
147
1.0
  0
MLINESTYLE
  5
52
102
{ACAD_REACTORS
330
39
102
}
330
39
100
AcDbMlineStyle
  2
STANDARD
 70
     0
  3

 62
   256
 51
90.0
 52
90.0
 71
     2
 49
0.5
 62
   256
  6
BYLAYER
 49
-0.5
 62
   256
  6
BYLAYER
  0
ACDBPLACEHOLDER
  5
9
102
{ACAD_REACTORS
330
A
102
}
330
A
  0
SCALE
  5
57
102
{ACAD_REACTORS
330
4C
102
}
330
4C
100
AcDbScale
 70
     0
300
1:1
140
1.0
141
1.0
290
     1
  0
SCALE
  5
58
102
{ACAD_REACTORS
330
4C
102
}
330
4C
100
AcDbScale
 70
     0
300
1:2
140
1.0
141
2.0
290
     0
  0
SCALE
  5
59
102
{ACAD_REACTORS
330
4C
102
}
330
4C
100
AcDbScale
 70
     0
300
1:4
140
1.0
141
4.0
290
     0
  0
SCALE
  5
5A
102
{ACAD_REACTORS
330
4C
102
}
330
4C
100
AcDbScale
 70
     0
300
1:5
140
1.0
141
5.0
290
     0
  0
SCALE
  5
5B
102
{ACAD_REACTORS
330
4C
102
}
330
4C
100
AcDbScale
 70
     0
300
1:8
140
1.0
141
8.0
290
     0
  0
SCALE
  5
5C
102
{ACAD_REACTORS
330
4C
102
}
330
4C
100
AcDbScale
 70
     0
300
1:10
140
1.0
141
10.0
290
     0
  0
SCALE
  5
5D
102
{ACAD_REACTORS
330
4C
102
}
330
4C
100
AcDbScale
 70
     0
300
1:16
140
1.0
141
16.0
290
     0
  0
SCALE
  5
5E
102
{ACAD_REACTORS
330
4C
102
}
330
4C
100
AcDbScale
 70
     0
300
1:20
140
1.0
141
20.0
290
     0
  0
SCALE
  5
5F
102
{ACAD_REACTORS
330
4C
102
}
330
4C
100
AcDbScale
 70
     0
300
1:30
140
1.0
141
30.0
290
     0
  0
SCALE
  5
60
102
{ACAD_REACTORS
330
4C
102
}
330
4C
100
AcDbScale
 70
     0
300
1:40
140
1.0
141
40.0
290
     0
  0
SCALE
  5
61
102
{ACAD_REACTORS
330
4C
102
}
330
4C
100
AcDbScale
 70
     0
300
1:50
140
1.0
141
50.0
290
     0
  0
SCALE
  5
62
102
{ACAD_REACTORS
330
4C
102
}
330
4C
100
AcDbScale
 70
     0
300
1:100
140
1.0
141
100.0
290
     0
  0
SCALE
  5
63
102
{ACAD_REACTORS
330
4C
102
}
330
4C
100
AcDbScale
 70
     0
300
2:1
140
2.0
141
1.0
290
     0
  0
SCALE
  5
64
102
{ACAD_REACTORS
330
4C
102
}
330
4C
100
AcDbScale
 70
     0
300
4:1
140
4.0
141
1.0
290
     0
  0
SCALE
  5
65
102
{ACAD_REACTORS
330
4C
102
}
330
4C
100
AcDbScale
 70
     0
300
8:1
140
8.0
141
1.0
290
     0
  0
SCALE
  5
66
102
{ACAD_REACTORS
330
4C
102
}
330
4C
100
AcDbScale
 70
     0
300
10:1
140
10.0
141
1.0
290
     0
  0
SCALE
  5
67
102
{ACAD_REACTORS
330
4C
102
}
330
4C
100
AcDbScale
 70
     0
300
100:1
140
100.0
141
1.0
290
     0
  0
SCALE
  5
68
102
{ACAD_REACTORS
330
4C
102
}
330
4C
100
AcDbScale
 70
     0
300
1/128" = 1'-0"
140
0.0078125
141
12.0
290
     0
  0
SCALE
  5
69
102
{ACAD_REACTORS
330
4C
102
}
330
4C
100
AcDbScale
 70
     0
300
1/64" = 1'-0"
140
0.015625
141
12.0
290
     0
  0
SCALE
  5
6A
102
{ACAD_REACTORS
330
4C
102
}
330
4C
100
AcDbScale
 70
     0
300
1/32" = 1'-0"
140
0.03125
141
12.0
290
     0
  0
SCALE
  5
6B
102
{ACAD_REACTORS
330
4C
102
}
330
4C
100
AcDbScale
 70
     0
300
1/16" = 1'-0"
140
0.0625
141
12.0
290
     0
  0
SCALE
  5
6C
102
{ACAD_REACTORS
330
4C
102
}
330
4C
100
AcDbScale
 70
     0
300
3/32" = 1'-0"
140
0.09375
141
12.0
290
     0
  0
SCALE
  5
6D
102
{ACAD_REACTORS
330
4C
102
}
330
4C
100
AcDbScale
 70
     0
300
1/8" = 1'-0"
140
0.125
141
12.0
290
     0
  0
SCALE
  5
6E
102
{ACAD_REACTORS
330
4C
102
}
330
4C
100
AcDbScale
 70
     0
300
3/16" = 1'-0"
140
0.1875
141
12.0
290
     0
  0
SCALE
  5
6F
102
{ACAD_REACTORS
330
4C
102
}
330
4C
100
AcDbScale
 70
     0
300
1/4" = 1'-0"
140
0.25
141
12.0
290
     0
  0
SCALE
  5
70
102
{ACAD_REACTORS
330
4C
102
}
330
4C
100
AcDbScale
 70
     0
300
3/8" = 1'-0"
140
0.375
141
12.0
290
     0
  0
SCALE
  5
71
102
{ACAD_REACTORS
330
4C
102
}
330
4C
100
AcDbScale
 70
     0
300
1/2" = 1'-0"
140
0.5
141
12.0
290
     0
  0
SCALE
  5
72
102
{ACAD_REACTORS
330
4C
102
}
330
4C
100
AcDbScale
 70
     0
300
3/4" = 1'-0"
140
0.75
141
12.0
290
     0
  0
SCALE
  5
73
102
{ACAD_REACTORS
330
4C
102
}
330
4C
100
AcDbScale
 70
     0
300
1" = 1'-0"
140
1.0
141
12.0
290
     0
  0
SCALE
  5
74
102
{ACAD_REACTORS
330
4C
102
}
330
4C
100
AcDbScale
 70
     0
300
1-1/2" = 1'-0"
140
1.5
141
12.0
290
     0
  0
SCALE
  5
75
102
{ACAD_REACTORS
330
4C
102
}
330
4C
100
AcDbScale
 70
     0
300
3" = 1'-0"
140
3.0
141
12.0
290
     0
  0
SCALE
  5
76
102
{ACAD_REACTORS
330
4C
102
}
330
4C
100
AcDbScale
 70
     0
300
6" = 1'-0"
140
6.0
141
12.0
290
     0
  0
SCALE
  5
77
102
{ACAD_REACTORS
330
4C
102
}
330
4C
100
AcDbScale
 70
     0
300
1'-0" = 1'-0"
140
12.0
141
12.0
290
     0
  0
TABLESTYLE
  5
53
102
{ACAD_XDICTIONARY
360
54
102
}
102
{ACAD_REACTORS
330
4D
102
}
330
4D
100
AcDbTableStyle
280
     0
  3
Standard
 70
     0
 71
     0
 40
0.06
 41
0.06
280
     0
281
     0
  7
STANDARD
140
0.18
170
     2
 62
     0
 63
     7
283
     0
 90
      512
 91
        0
  1

274
    -2
284
     1
 64
     0
275
    -2
285
     1
 65
     0
276
    -2
286
     1
 66
     0
277
    -2
287
     1
 67
     0
278
    -2
288
     1
 68
     0
279
    -2
289
     1
 69
     0
  7
STANDARD
140
0.25
170
     5
 62
     0
 63
     7
283
     0
 90
      512
 91
        0
  1

274
    -2
284
     1
 64
     0
275
    -2
285
     1
 65
     0
276
    -2
286
     1
 66
     0
277
    -2
287
     1
 67
     0
278
    -2
288
     1
 68
     0
279
    -2
289
     1
 69
     0
  7
STANDARD
140
0.18
170
     5
 62
     0
 63
     7
283
     0
 90
      512
 91
        0
  1

274
    -2
284
     1
 64
     0
275
    -2
285
     1
 65
     0
276
    -2
286
     1
 66
     0
277
    -2
287
     1
 67
     0
278
    -2
288
     1
 68
     0
279
    -2
289
     1
 69
     0
  0
VISUALSTYLE
  5
2D
102
{ACAD_REACTORS
330
2E
102
}
330
2E
100
AcDbVisualStyle
  2
2dWireframe
 70
     4
177
     2
291
     0
 71
     0
176
     1
 72
     2
176
     1
 73
     0
176
     1
 90
        0
176
     1
 40
0.6
176
     1
 41
30.0
176
     1
 63
     7
421
 16777215
176
     1
 74
     1
176
     1
 91
        4
176
     1
 64
     7
176
     1
 65
   257
176
     1
 75
     1
176
     1
175
     1
176
     1
 42
1.0
176
     1
 92
        0
176
     1
 66
   257
176
     1
 43
1.0
176
     1
 76
     1
176
     1
 77
     6
176
     1
 78
     2
176
     1
 67
     7
176
     1
 79
     5
176
     1
170
     0
176
     1
171
     0
176
     1
290
     0
176
     1
 93
        1
176
     1
 44
0.0
176
     1
173
     0
176
     1
  0
VISUALSTYLE
  5
56
102
{ACAD_REACTORS
330
2E
102
}
330
2E
100
AcDbVisualStyle
  2
3dWireframe
 70
     5
177
     2
291
     0
 71
     0
176
     1
 72
     2
176
     1
 73
     0
176
     1
 90
        0
176
     1
 40
0.6
176
     1
 41
30.0
176
     1
 63
     7
421
 16777215
176
     1
 74
     1
176
     1
 91
        4
176
     1
 64
     7
176
     1
 65
   257
176
     1
 75
     1
176
     1
175
     1
176
     1
 42
1.0
176
     1
 92
        0
176
     1
 66
   257
176
     1
 43
1.0
176
     1
 76
     1
176
     1
 77
     6
176
     1
 78
     2
176
     1
 67
     7
176
     1
 79
     5
176
     1
170
     0
176
     1
171
     0
176
     1
290
     0
176
     1
 93
        1
176
     1
 44
0.0
176
     1
173
     0
176
     1
  0
VISUALSTYLE
  5
55
102
{ACAD_REACTORS
330
2E
102
}
330
2E
100
AcDbVisualStyle
  2
Realistic
 70
     8
177
     2
291
     0
 71
     2
176
     1
 72
     2
176
     1
 73
     0
176
     1
 90
        0
176
     1
 40
0.6
176
     1
 41
30.0
176
     1
 63
     7
421
 16777215
176
     1
 74
     1
176
     1
 91
        0
176
     1
 64
     7
176
     1
 65
   257
176
     1
 75
     1
176
     1
175
     1
176
     1
 42
1.0
176
     1
 92
        8
176
     1
 66
     8
424
  7895160
176
     1
 43
1.0
176
     1
 76
     1
176
     1
 77
     6
176
     1
 78
     2
176
     1
 67
     7
176
     1
 79
     5
176
     1
170
     0
176
     1
171
     0
176
     1
290
     0
176
     1
 93
       13
176
     1
 44
0.0
176
     1
173
     0
176
     1
  0
DICTIONARYVAR
  5
41C
102
{ACAD_REACTORS
330
418
102
}
330
418
100
DictionaryVariables
280
     0
  1
1:1
  0
DICTIONARYVAR
  5
41A
102
{ACAD_REACTORS
330
418
102
}
330
418
100
DictionaryVariables
280
     0
  1
STANDARD
  0
DICTIONARYVAR
  5
419
102
{ACAD_REACTORS
330
418
102
}
330
418
100
DictionaryVariables
280
     0
  1
STANDARD
  0
DICTIONARYVAR
  5
41E
102
{ACAD_REACTORS
330
418
102
}
330
418
100
DictionaryVariables
280
     0
  1
1
  0
DICTIONARYVAR
  5
41F
102
{ACAD_REACTORS
330
418
102
}
330
418
100
DictionaryVariables
280
     0
  1
15
  0
DICTIONARYVAR
  5
41D
102
{ACAD_REACTORS
330
418
102
}
330
418
100
DictionaryVariables
280
     0
  1
0
  0
DICTIONARYVAR
  5
41B
102
{ACAD_REACTORS
330
418
102
}
330
418
100
DictionaryVariables
280
     0
  1
0
  0
DICTIONARY
  5
19
330
17
100
AcDbDictionary
280
     1
281
     1
  3
ADSK_XREC_LAYOUTTHUMBNAIL
360
1A
  0
DICTIONARY
  5
44
330
43
100
AcDbDictionary
280
     1
281
     1
  3
BUMPTILE
360
45
  3
DIFFUSETILE
360
46
  3
OPACITYTILE
360
47
  3
REFLECTIONTILE
360
48
  3
REFRACTIONTILE
360
49
  3
SPECULARTILE
360
4A
  0
DICTIONARY
  5
3C
330
3B
100
AcDbDictionary
280
     1
281
     1
  3
BUMPTILE
360
3D
  3
DIFFUSETILE
360
3E
  3
OPACITYTILE
360
3F
  3
REFLECTIONTILE
360
40
  3
REFRACTIONTILE
360
41
  3
SPECULARTILE
360
42
  0
DICTIONARY
  5
E
330
C
100
AcDbDictionary
280
     1
281
     1
  3
BUMPTILE
360
F
  3
DIFFUSETILE
360
10
  3
OPACITYTILE
360
11
  3
REFLECTIONTILE
360
12
  3
REFRACTIONTILE
360
13
  3
SPECULARTILE
360
14
  0
DICTIONARY
  5
54
330
53
100
AcDbDictionary
280
     1
281
     1
  3
ACAD_ROUNDTRIP_2008_TABLESTYLE_CELLSTYLEMAP
360
420
  0
XRECORD
  5
1A
102
{ACAD_REACTORS
330
19
102
}
330
19
100
AcDbXrecord
280
     1
310
280000000001000081000000010008000000000000810000000000000000000000010000000000000000000000000000FFFFFF000000000000000000000000000000000000000000000000000000000000000000330000006600000099000000CC000000FF00000000330000333300006633000099330000CC330000FF3300
310
0000660000336600006666000099660000CC660000FF66000000990000339900006699000099990000CC990000FF99000000CC000033CC000066CC000099CC0000CCCC0000FFCC000000FF000033FF000066FF000099FF0000CCFF0000FFFF000000003300330033006600330099003300CC003300FF003300003333003333
310
33006633330099333300CC333300FF33330000663300336633006666330099663300CC663300FF66330000993300339933006699330099993300CC993300FF99330000CC330033CC330066CC330099CC3300CCCC3300FFCC330000FF330033FF330066FF330099FF3300CCFF3300FFFF330000006600330066006600660099
310
006600CC006600FF00660000336600333366006633660099336600CC336600FF33660000666600336666006666660099666600CC666600FF66660000996600339966006699660099996600CC996600FF99660000CC660033CC660066CC660099CC6600CCCC6600FFCC660000FF660033FF660066FF660099FF6600CCFF6600
310
FFFF660000009900330099006600990099009900CC009900FF00990000339900333399006633990099339900CC339900FF33990000669900336699006666990099669900CC669900FF66990000999900339999006699990099999900CC999900FF99990000CC990033CC990066CC990099CC9900CCCC9900FFCC990000FF99
310
0033FF990066FF990099FF9900CCFF9900FFFF99000000CC003300CC006600CC009900CC00CC00CC00FF00CC000033CC003333CC006633CC009933CC00CC33CC00FF33CC000066CC003366CC006666CC009966CC00CC66CC00FF66CC000099CC003399CC006699CC009999CC00CC99CC00FF99CC0000CCCC0033CCCC0066CC
310
CC0099CCCC00CCCCCC00FFCCCC0000FFCC0033FFCC0066FFCC0099FFCC00CCFFCC00FFFFCC000000FF003300FF006600FF009900FF00CC00FF00FF00FF000033FF003333FF006633FF009933FF00CC33FF00FF33FF000066FF003366FF006666FF009966FF00CC66FF00FF66FF000099FF003399FF006699FF009999FF00CC
310
99FF00FF99FF0000CCFF0033CCFF0066CCFF0099CCFF00CCCCFF00FFCCFF0000FFFF0033FFFF0066FFFF0099FFFF00CCFFFF00FFFFFF00000000000D0D0D001A1A1A00282828003535350043434300505050005D5D5D006B6B6B00787878008686860093939300A1A1A100AEAEAE00BBBBBB00C9C9C900D6D6D600E4E4E400
310
F1F1F100FFFFFF0000000000000000000000000000000000000000000000000000000000000000000000000000000000E2E2E2E2E2E2E2E2E2E2E2E2E2E2E2E2E2E2E2E2E2E2E2E2E2E2E2E2E2E2E2E2E2E2E2E2E2E2E2E2E2E2E2E2E2E2E2E2E2E2E2E2E2E2E2E2E2E2E2E2E2E2E2E2E2E2E2E2E2E2E2E2E2E2E2E2E2E2E2
310
E2E2E2E2E2E2E2E2E2E2E2E2E2E2E2E2E2E2E2E2E2E2E2E2E2E2E2E2E2E2E2E2E2E2E2E2E2E2E2E2E2E2E2E2E2E2E2E2E2E2E2E2E2E2E2E2E2E2E2E2E2E2E2E2E2E2E2E2E2E2E2E2E2E2E2E2E2E2E2E2E2E2E2E2E2E2E2E2E2E2E2E2E2E2E2E2E2E2E2E2E2E2E2E2E2E2E2E2E2E2E2E2E2E2E2E2E2E2E2E2E2E2E2E2E2E2E2
310
E2E2E2E2E2E2E2E2E2E2E2E2E2E2E2E2E2E2E2E2E2E2E2E2E2E2E2E2E2E2E2E2E2E2E2E2E2E2E2E2E2E2E2E2E2E2E2E2E2E2E2E2E2E2E2E2E2E2E2E2E2E2E2E2E2E2E2E2E2E2E2E2E2E2E2E2E2E2E2E2E2E2E2E2E2E2E2E2E2E2E2E2E2E2E2E2E2E2E2E2E2E2E2E2E2E2E2E2E2E2E2E2E2E2E2E2E2E2E2E2E2E2E2E2E2E2E2
310
E2E2E2E2E2E2E2E2E2E2E2E2E2E2E2E2E2E2E2E2E2E2E2E2E2E2E2E2E2E2E2E2E2E2E2E2E2E2E2E2E2E2E2E2E2E2E2E2E2E2E2E2E2E2E2E2E2E2E2E2E2E2E2E2E2E2E2E2E2E2E2E2E2E2E2E2E2E2E2E2E2E2E2E2E2E2E2E2E2E2E2E2E2E2E2E2E2E2E2E2E2E2E2E2E2E2E2E2E2E2E2E2E2E2E2E2E2E2E2E2E2E2E2E2E2E2E2
310
E2E2E2E2E2E2E2E2E2E2E2E2E2E2E2E2E2E2E2E2E2E2E2E2E2E2E2E2E2E2E2E2E2E2E2E2E2E2E2E2E2E2E2E2E2E2E2E2E2E2E2E2E2E2E2E2E2E2E2E2E2E2E2E2E2E2E2E2E2E2E2E2E2E2E2E2E2E2E2E2E2E2E2E2E2E2E2E2E2E2E2E2E2E2E2E2E2E2E2E2E2E2E2E2E2E2E2E2E2E2E2E2E2E2E2E2E2E2E2E2E2E2E2E2E2E2E2
310
E2E2E2E2E2E2E2E2E2E2E2E2E2E2E2E2E2E2E2E2E2E2E2E2E2E2E2E2E2E2E2E2E2E2E2E2E2E2E2E2E2E2E2E2E2E2E2E2E2E2E2E2E2E2E2E2E2E2E2E2E2E2E2E2E2E2E2E2E2E2E2E2E2E2E2E2E2E2E2E2E2E2E2E2E2E2E2E2E2E2E2E2E2E2E2E2E2E2E2E2E2E2E2E2E2E2E2E2E2E2E2E2E2E2E2E2E2E2E2E2E2E2E2E2E2E2E2
310
E2E2E2E2E2E2E2E2E2E2E2E2E2E2E2E2E2E2E2E2E2E2E2E2E2E2E2E2E2E2E2E2E2E2E2E2E2E2E2E2E2E2E2E2E2E2E2E2E2E2E2E2E2E2E2E2E2E2E2E2E2E2E2E2E2E2E2E2E2E2E2E2E2E2E2E2E2E2E2E2E2E2E2E2E2E2E2E2E2E2E2E2E2E2E2E2E2E2E2E2E2E2E2E2E2E2E2E2E2E2E2E2E2E2E2E2E2E2E2E2E2E2E2E2E2E2E2
310
E2E2E2E2E2E2E2E2E2E2E2E2E2E2E2E2E2E2E2E2E2E2E2E2E2E2E2E2E2E2E2E2E2E2E2E2E2E2E2E2E2E2E2E2E2E2E2E2E2E2E2E2E2E2E2E2E2E2E2E2E2E2E2E2E2E2E2E2E2E2E2E2E2E2E2E2E2E2E2E2E2E2E2E2E2E2E2E2E2E2E2E2E2E2E2E2E2E2E2E2E2E2E2E2E2E2E2E2E2E2E2E2E2E2E2E2E2E2E2E2E2E2E2E2E2E2E2
310
E2E2E2E2E2E2E2E2E2E2E2E2E2E2E2E2E2E2E2E2E2E2E2E2E2E2E2E2E2E2E2E2E2E2E2E2E2E2E2E2E2E2E2E2E2E2E2E2E2E2E2E2E2E2E2E2E2E2E2E2E2E2E2E2E2E2E2E2E2E2E2E2E2E2E2E2E2E2E2E2E2E2E2E2E2E2E2E2E2E2E2E2E2E2E2E2E2E2E2E2E2E2E2E2E2E2E2E2E2E2E2E2E2E2E2E2E2E2E2E2E2E2E2E2E2E2E2
310
E2E2E2E2E2E2E2E2E2E2E2E2E2E2E2E2E2E2E2E2E2E2E2E2E2E2E2E2E2E2E2E2E2E2E2E2E2E2E2E2E2E2E2E2E2E2E2E2E2E2E2E2E2E2E2E2E2E2E2E2E2E2E2E2E2E2E2E2E2E2E2E2E2E2E2E2E2E2E2E2E2E2E2E2E2E2E2E2E2E2E2E2E2E2E2E2E2E2E2E2E2E2E2E2E2E2E2E2E2E2E2E2E2E2E2E2E2E2E2E2E2E2E2E2E2E2E2
310
E2E2E2E2E2E2E2E2E2E2E2E2E2E2E2E2E2E2E2E2E2E2E2E2E2E2E2E2E2E2E2E2E2E2E2E2E2E2E2E2E2E2E2E2E2E2E2E2E2E2E2E2E2E2E2E2E2E2E2E2E2E2E2E2E2E2E2E2E2E2E2E2E2E2E2E2E2E2E2E2E2E2E2E2E2E2E2E2E2E2E2E2E2E2E2E2E2E2E2E2E2E2E2E2E2E2E2E2E2E2E2E2E2E2E2E2E2E2E2E2E2E2E2E2E2E2E2
310
E2E2E2E2E2E2E2E2E2E2E2E2E2E2E2E2E2E2E2E2E2E2E2E2E2E2E2E2E2E2E2E2E2E2E2E2E2E2E2E2E2E2E2E2E2E2E2E2E2E2E2E2E2E2E2E2E2E2E2E2E2E2E2E2E2E2E2E2E2E2E2E2E2E2E2E2E2E2E2E2E2E2E2E2E2E2E2E2E2E2E2E2E2E2E2E2E2E2E2E2E2E2E2E2E2E2E2E2E2E2E2E2E2E2E2E2E2E2E2E2E2E2E2E2E2E2E2
310
E2E2E2E2E2E2E2E2E2E2E2E2E2E2E2E2E2E2E2E2E2E2E2E2E2E2E2E2E2E2E2E2E2E2E2E2E2E2E2E2E2E2E2E2E2E2E2E2E2E2E2E2E2E2E2E2E2E2E2E2E2E2E2E2E2E2E2E2E2E2E2E2E2E2E2E2E2E2E2E2E2E2E2E2E2E2E2E2E2E2E2E2E2E2E2E2E2E2E2E2E2E2E2E2E2E2E2E2E2E2E2E2E2E2E2E2E2E2E2E2E2E2E2E2E2E2E2
310
E2E2E2E2E2E2E2E2E2E2E2E2E2E2E2E2E2E2E2E2E2E2E2E2E2E2E2E2E2E2E2E2E2E2E2E2E2E2E2E2E2E2E2E2E2E2E2E2E2E2E2E2E2E2E2E2E2E2E2E2E2E2E2E2E2E2E2E2E2E2E2E2E2E2E2E2E2E2E2E2E2E2E2E2E2E2E2E2E2E2E2E2E2E2E2E2E2E2E2E2E2E2E2E2E2E2E2E2E2E2E2E2E2E2E2E2E2E2E2E2E2E2E2E2E2E2E2
310
E2E2E2E2E2E2E2E2E2E2E2E2E2E2E2E2E2E2E2E2E2E2E2E2E2E2E2E2E2E2E2E2E2E2E2E2E2E2E2E2E2E2E2E2E2E2E2E2E2E2E2E2E2E2E2E2E2E2E2E2E2E2E2E2E2E2E2E2E2E2E2E2E2E2E2E2E2E2E2E2E2E2E2E2E2E2E2E2E2E2E2E2E2E2E2E2E2E2E2E2E2E2E2E2E2E2E2E2E2E2E2E2E2E2E2E2E2E2E2E2E2E2E2E2E2E2E2
310
E2E2E2E2E2E2E2E2E2E2E2E2E2E2E2E2E2E2E2E2E2E2E2E2E2E2E2E2E2E2E2E2E2E2E2E2E2E2E2E2E2E2E2E2E2E2E2E2E2E2E2E2E2E2E2E2E2E2E2E2E2E2E2E2E2E2E2E2E2E2E2E2E2E2E2E2E2E2E2E2E2E2E2E2E2E2E2E2E2E2E2E2E2E2E2E2E2E2E2E2E2E2E2E2E2E2E2E2E2E2E2E2E2E2E2E2E2E2E2E2E2E2E2E2E2E2E2
310
E2E2E2E2E2E2E2E2E2E2E2E2E2E2E2E2E2E2E2E2E2E2E2E2E2E2E2E2E2E2E2E2E2E2E2E2E2E2E2E2E2E2E2E2E2E2E2E2E2E2E2E2E2E2E2E2E2E2E2E2E2E2E2E2E2E2E2E2E2E2E2E2E2E2E2E2E2E2E2E2E2E2E2E2E2E2E2E2E2E2E2E2E2E2E2E2E2E2E2E2E2E2E2E2E2E2E2E2E2E2E2E2E2E2E2E2E2E2E2E2E2E2E2E2E2E2E2
310
E2E2E2E2E2E2E2E2E2E2E2E2E2E2E2E2E2E2E2E2E2E2E2E2E2E2E2E2E2E2E2E2E2E2E2E2E2E2E2E2E2E2E2E2E2E2E2E2E2E2E2E2E2E2E2E2E2E2E2E2E2E2E2E2E2E2E2E2E2E2E2E2E2E2E2E2E2E2E2E2E2E2E2E2E2E2E2E2E2E2E2E2E2E2E2E2E2E2E2E2E2E2E2E2E2E2E2E2E2E2E2E2E2E2E2E2E2E2E2E2E2E2E2E2E2E2E2
310
E2E2E2E2E2E2E2E2E2E2E2E2E2E2E2E2E2E2E2E2E2E2E2E2E2E2E2E2E2E2E2E2E2E2E2E2E2E2E2E2E2E2E2E2E2E2E2E2E2E2E2E2E2E2E2E2E2E2E2E2E2E2E2E2E2E2E2E2E2E2E2E2E2E2E2E2E2E2E2E2E2E2E2E2E2E2E2E2E2E2E2E2E2E2E2E2E2E2E2E2E2E2E2E2E2E2E2E2E2E2E2E2E2E2E2E2E2E2E2E2E2E2E2E2E2E2E2
310
E2E2E2E2E2E2E2E2E2E2E2E2E2E2E2E2E2E2E2E2E2E2E2E2E2E2E2E2E2E2E2E2E2E2E2E2E2E2E2E2E2E2E2E2E2E2E2E2E2E2E2E2E2E2E2E2E2E2E2E2E2E2E2E2E2E2E2E2E2E2E2E2E2E2E2E2E2E2E2E2E2E2E2E2E2E2E2E2E2E2E2E2E2E2E2E2E2E2E2E2E2E2E2E2E2E2E2E2E2E2E2E2E2E2E2E2E2E2E2E2E2E2E2E2E2E2E2
310
E2E2E2E2E2E2E2E2E2E2E2E2E2E2E2E2E2E2E2E2E2E2E2E2E2E2E2E2E2E2E2E2E2E2E2E2E2E2E2E2E2E2E2E2E2E2E2E2E2E2E2E2E2E2E2E2E2E2E2E2E2E2E2E2E2E2E2E2E2E2E2E2E2E2E2E2E2E2E2E2E2E2E2E2E2E2E2E2E2E2E2E2E2E2E2E2E2E2E2E2E2E2E2E2E2E2E2E2E2E2E2E2E2E2E2E2E2E2E2E2E2E2E2E2E2E2E2
310
E2E2E2E2E2E2E2E2E2E2E2E2E2E2E2E2E2E2E2E2E2E2E2E2E2E2E2E2E2E2E2E2E2E2E2E2E2E2E2E2E2E2E2E2E2E2E2E2E2E2E2E2E2E2E2E2E2E2E2E2E2E2E2E2E2E2E2E2E2E2E2E2E2E2E2E2E2E2E2E2E2E2E2E2E2E2E2E2E2E2E2E2E2E2E2E2E2E2E2E2E2E2E2E2E2E2E2E2E2E2E2E2E2E2E2E2E2E2E2E2E2E2E2E2E2E2E2
310
E2E2E2E2E2E2E2E2E2E2E2E2E2E2E2E2E2E2E2E2E2E2E2E2E2E2E2E2E2E2E2E2E2E2E2E2E2E2E2E2E2E2E2E2E2E2E2E2E2E2E2E2E2E2E2E2E2E2E2E2E2E2E2E2E2E2E2E2E2E2E2E2E2E2E2E2E2E2E2E2E2E2E2E2E2E2E2E2E2E2E2E2E2E2E2E2E2E2E2E2E2E2E2E2E2E2E2E2E2E2E2E2E2E2E2E2E2E2E2E2E2E2E2E2E2E2E2
310
E2E2E2E2E2E2E2E2E2E2E2E2E2E2E2E2E2E2E2E2E2E2E2E2E2E2E2E2E2E2E2E2E2E2E2E2E2E2E2E2E2E2E2E2E2E2E2E2E2E2E2E2E2E2E2E2E2E2E2E2E2E2E2E2E2E2E2E2E2E2E2E2E2E2E2E2E2E2E2E2E2E2E2E2E2E2E2E2E2E2E2E2E2E2E2E2E2E2E2E2E2E2E2E2E2E2E2E2E2E2E2E2E2E2E2E2E2E2E2E2E2E2E2E2E2E2E2
310
E2E2E2E2E2E2E2E2E2E2E2E2E2E2E2E2E2E2E2E2E2E2E2E2E2E2E2E2E2E2E2E2E2E2E2E2E2E2E2E2E2E2E2E2E2E2E2E2E2E2E2E2E2E2E2E2E2E2E2E2E2E2E2E2E2E2E2E2E2E2E2E2E2E2E2E2E2E2E2E2E2E2E2E2E2E2E2E2E2E2E2E2E2E2E2E2E2E2E2E2E2E2E2E2E2E2E2E2E2E2E2E2E2E2E2E2E2E2E2E2E2E2E2E2E2E2E2
310
E2E2E2E2E2E2E2E2E2E2E2E2E2E2E2E2E2E2E2E2E2E2E2E2E2E2E2E2E2E2E2E2E2E2E2E2E2E2E2E2E2E2E2E2E2E2E2E2E2E2E2E2E2E2E2E2E2E2E2E2E2E2E2E2E2E2E2E2E2E2E2E2E2E2E2E2E2E2E2E2E2E2E2E2E2E2E2E2E2E2E2E2E2E2E2E2E2E2E2E2E2E2E2E2E2E2E2E2E2E2E2E2E2E2E2E2E2E2E2E2E2E2E2E2E2E2E2
310
E2E2E2E2E2E2E2E2E2E2E2E2E2E2E2E2E2E2E2E2E2E2E2E2E2E2E2E2E2E2E2E2E2E2E2E2E2E2E2E2E2E2E2E2E2E2E2E2E2E2E2E2E2E2E2E2E2E2E2E2E2E2E2E2E2E2E2E2E2E2E2E2E2E2E2E2E2E2E2E2E2E2E2E2E2E2E2E2E2E2E2E2E2E2E2E2E2E2E2E2E2E2E2E2E2E2E2E2E2E2E2E2E2E2E2E2E2E2E2E2E2E2E2E2E2E2E2
310
E2E2E2E2E2E2E2E2E2E2E2E2E2E2E2E2E2E2E2E2E2E2E2E2E2E2E2E2E2E2E2E2E2E2E2E2E2E2E2E2E2E2E2E2E2E2E2E2E2E2E2E2E2E2E2E2E2E2E2E2E2E2E2E2E2E2E2E2E2E2E2E2E2E2E2E2E2E2E2E2E2E2E2E2E2E2E2E2E2E2E2E2E2E2E2E2E2E2E2E2E2E2E2E2E2E2E2E2E2E2E2E2E2E2E2E2E2E2E2E2E2E2E2E2E2E2E2
310
E2E2E2E2E2E2E2E2E2E2E2E2E2E2E2E2E2E2E2E2E2E2E2E2E2E2E2E2E2E2E2E2E2E2E2E2E2E2E2E2E2E2E2E2E2E2E2E2E2E2E2E2E2E2E2E2E2E2E2E2E2E2E2E2E2E2E2E2E2E2E2E2E2E2E2E2E2E2E2E2E2E2E2E2E2E2E2E2E2E2E2E2E2E2E2E2E2E2E2E2E2E2E2E2E2E2E2E2E2E2E2E2E2E2E2E2E2E2E2E2E2E2E2E2E2E2E2
310
E2E2E2E2E2E2E2E2E2E2E2E2E2E2E2E2E2E2E2E2E2E2E2E2E2E2E2E2E2E2E2E2E2E2E2E2E2E2E2E2E2E2E2E2E2E2E2E2E2E2E2E2E2E2E2E2E2E2E2E2E2E2E2E2E2E2E2E2E2E2E2E2E2E2E2E2E2E2E2E2E2E2E2E2E2E2E2E2E2E2E2E2E2E2E2E2E2E2E2E2E2E2E2E2E2E2E2E2E2E2E2E2E2E2E2E2E2E2E2E2E2E2E2E2E2E2E2
310
E2E2E2E2E2E2E2E2E2E2E2E2E2E2E2E2E2E2E2E2E2E2E2E2E2E2E2E2E2E2E2E2E2E2E2E2E2E2E2E2E2E2E2E2E2E2E2E2E2E2E2E2E2E2E2E2E2E2E2E2E2E2E2E2E2E2E2E2E2E2E2E2E2E2E2E2E2E2E2E2E2E2E2E2E2E2E2E2E2E2E2E2E2E2E2E2E2E2E2E2E2E2E2E2E2E2E2E2E2E2E2E2E2E2E2E2E2E2E2E2E2E2E2E2E2E2E2
310
E2E2E2E2E2E2E2E2E2E2E2E2E2E2E2E2E2E2E2E2E2E2E2E2E2E2E2E2E2E2E2E2E2E2E2E2E2E2E2E2E2E2E2E2E2E2E2E2E2E2E2E2E2E2E2E2E2E2E2E2E2E2E2E2E2E2E2E2E2E2E2E2E2E2E2E2E2E2E2E2E2E2E2E2E2E2E2E2E2E2E2E2E2E2E2E2E2E2E2E2E2E2E2E2E2E2E2E2E2E2E2E2E2E2E2E2E2E2E2E2E2E2E2E2E2E2E2
310
E2E2E2E2E2E2E2E2E2E2E2E2E2E2E2E2E2E2E2E2E2E2E2E2E2E2E2E2E2E2E2E2E2E2E2E2E2E2E2E2E2E2E2E2E2E2E2E2E2E2E2E2E2E2E2E2E2E2E2E2E2E2E2E2E2E2E2E2E2E2E2E2E2E2E2E2E2E2E2E2E2E2E2E2E2E2E2E2E2E2E2E2E2E2E2E2E2E2E2E2E2E2E2E2E2E2E2E2E2E2E2E2E2E2E2E2E2E2E2E2E2E2E2E2E2E2E2
310
E2E2E2E2E2E2E2E2E2E2E2E2E2E2E2E2E2E2E2E2E2E2E2E2E2E2E2E2E2E2E2E2E2E2E2E2E2E2E2E2E2E2E2E2E2E2E2E2E2E2E2E2E2E2E2E2E2E2E2E2E2E2E2E2E2E2E2E2E2E2E2E2E2E2E2E2E2E2E2E2E2E2E2E2E2E2E2E2E2E2E2E2E2E2E2E2E2E2E2E2E2E2E2E2E2E2E2E2E2E2E2E2E2E2E2E2E2E2E2E2E2E2E2E2E2E2E2
310
E2E2E2E2E2E2E2E2E2E2E2E2E2E2E2E2E2E2E2E2E2E2E2E2E2E2E2E2E2E2E2E2E2E2E2E2E2E2E2E2E2E2E2E2E2E2E2E2E2E2E2E2E2E2E2E2E2E2E2E2E2E2E2E2E2E2E2E2E2E2E2E2E2E2E2E2E2E2E2E2E2E2E2E2E2E2E2E2E2E2E2E2E2E2E2E2E2E2E2E2E2E2E2E2E2E2E2E2E2E2E2E2E2E2E2E2E2E2E2E2E2E2E2E2E2E2E2
310
E2E2E2E2E2E2E2E2E2E2E2E2E2E2E2E2E2E2E2E2E2E2E2E2E2E2E2E2E2E2E2E2E2E2E2E2E2E2E2E2E2E2E2E2E2E2E2E2BEBEBEBEBEBEBEBEBEBEBEBEBEBEBEBEBEBEBEBEBEBEBEBEBEBEBEBEBEBEBEBEBEBEBEBEBEBEBEBEBEBEBEBEBEBEBEBEBEBEBEBEBEBEBEBEBEBEBEBEBEBEBEBEBEBEBEBEBEBEBEBEBEBEBEBEBEBEBE
310
BEBEBEBEBEBEBEBEBEBEBEBEBEBEBEBEBEBEBEBEBEBEBEBEBEBEBEBEBEBEBEBEBEBEBEBEBEBEBEBEBEBEBEBEBEBEBEBEBEBEBEBEBEBEBEBEE2E2E2E2E2E2E2E2E2E2E2E2E2E2E2E2E2E2E2E2E2E2E2E2E2E2E2E2E2E2E2E2E2E2E2E2E2E2E2E2E2E2E2E2E2E2E2E2E2E2E2E2E2E2E2E2E2E2E2E2E2E2E2E2E2E2E2E2E2E2E2
310
E2E2E2E2E2E2E2E2E2E2E2E2E2E2E2E2E2E2E2E2E2E2E2E2E2E2E2E2E2E2E2E2E2E2E2E2E2E2E2E2E2E2E2E2E2E2E2E2E2E2BEE2E2E2E2E2E2E2E2E2E2E2E2E2E2E2E2E2E2E2E2E2E2E2E2E2E2E2E2E2E2E2E2E2E2E2E2E2E2E2E2E2E2E2E2E2E2E2E2E2E2E2E2E2E2E2E2E2E2E2E2E2E2E2E2E2E2BEE2E2E2E2E2E2E2E2E2
310
E2E2E2E2E2E2E2E2E2E2E2E2E2E2E2E2E2E2E2E2E2E2E2E2E2E2E2E2E2E2E2E2E2E2E2E2E2E2E2E2E2E2E2E2E2E2E2E2E2E2E2E2E2E2E2E2E2BEE2E2E2E2E2E2E2E2E2E2E2E2E2E2E2E2E2E2E2E2E2E2E2E2E2E2E2E2E2E2E2E2E2E2E2E2E2E2E2E2E2E2E2E2E2E2E2E2E2E2E2E2E2E2E2E2E2E2E2E2E2E2E2E2E2E2E2E2E2
310
E2E2E2E2E2E2E2E2E2E2E2E2E2E2E2E2E2E2E2E2E2E2E2E2E2E2E2E2E2E2E2E2E2E2E2E2E2E2E2E2E2E2E2E2E2E2E2E2E2E2E2E2BEE2E2E2E2E2DCDCDCDCDCDCDCDCDCDCDCDCDCDCDCDCDCDCDCDCDCBEBEBEBEBEBEBEBEDCDCDCDCDCDCDCDCDCDCDCDCDCDCDCDCDCDCDCDCDCDCBEBEBEBEBEBEDCDCDCE2BEE2E2E2E2E2DCDC
310
DCDCDCDCDCDCDCDCDCDCDCDCDCDCDCDCDCDCDCBEBEBEBEBEBEBEBEDCDCDCDCDCDCDCDCDCDCDCDCDCDCDCDCDCDCDCDCDCDCBEBEBEBEBEBEDCDCDCE2BEE2E2E2E2E2E2E2E2E2E2E2E2E2E2E2E2E2E2E2E2E2E2E2E2E2E2E2E2E2E2E2E2E2E2E2E2E2E2E2E2E2E2E2E2E2E2E2E2E2E2E2E2E2E2E2E2E2E2E2E2E2E2E2E2E2E2E2
310
E2E2E2E2E2E2E2E2E2E2E2E2E2E2E2E2E2E2E2E2E2E2E2E2E2E2E2E2E2E2E2E2E2E2E2E2E2E2E2E2E2E2E2E2E2E2E2E2E2E2E2E2E2E2BEE2E2E2E2E2DCF5F5F5F5DCDCDCDCF5F5F5F5F5DCDCDCE2E2E2E2BEBEBEBEBEBEBEBEE2E2DCE2E2E2E2E2E2E2E2DCE2E2E2E2E2E2E2E2E2DCBEBEBEBEBEBEE2E2DCE2BEE2E2E2E2E2
310
DCF5F5F5F5DCDCDCDCF5F5F5F5F5DCDCDCE2E2E2E2BEBEBEBEBEBEBEBEE2E2DCE2E2E2E2E2E2E2E2DCE2E2E2E2E2E2E2E2E2E2BEBEBEBEBEBEE2E2DCE2BEE2E2E2E2E2E2E2E2E2E2E2E2E2E2E2E2E2E2E2E2E2E2E2E2E2E2E2E2E2E2E2E2E2E2E2E2E2E2E2E2E2E2E2E2E2E2E2E2E2E2E2E2E2E2E2E2E2E2E2E2E2E2E2E2E2
310
E2E2E2E2E2E2E2E2E2E2E2E2E2E2E2E2E2E2E2E2E2E2E2E2E2E2E2E2E2E2E2E2E2E2E2E2E2E2E2E2E2E2E2E2E2E2E2E2E2E2E2E2E2E2E2E2BEE2E2E2E2E2DCE2E2DCE2E2E2E2E2DCE2E2E2DCE2E2DCE2BEBEBEBEBEBEBEBEBEBEBEE2E2F5F5F5F5F5F5F5E2E2F5F5F5F5F5F5F5F5F5E2DCF5F5F5F5F5F5F5E2DCE2BEE2E2E2
310
E2E2DCE2E2DCE2E2E2E2E2DCE2E2E2DCE2E2DCE2BEBEBEBEBEBEBEBEBEBEBEE2E2F5F5F5F5F5F5F5E2E2DCF5F5F5F5F5F5F5F5E2E2F5F5F5F5F5F5F5E2DCE2BEE2E2E2E2E2E2E2E2E2E2E2E2E2E2E2E2E2E2E2E2E2E2E2E2E2E2E2E2E2E2E2E2E2E2E2E2E2E2E2E2E2E2E2E2E2E2E2E2E2E2E2E2E2E2E2E2E2E2E2E2E2E2E2
310
E2E2E2E2E2E2E2E2E2E2E2E2E2E2E2E2E2E2E2E2E2E2E2E2E2E2E2E2E2E2E2E2E2E2E2E2E2E2E2E2E2E2E2E2E2E2E2E2E2E2E2E2E2E2E2E2E2E2BEE2E2E2E2E2DCDCDCDCDCDCDCDCDCDCDCDCDCDCDCDCDCE2E2E2BEBEBEBEBEBEBEBEBEE2E2F5F5F5DCDCF5DCDCDCDCF5F5F5F5F5F5F5DCDCDCF5F5DCF5F5F5DCDCDCE2BEE2
310
E2E2E2E2DCDCDCDCDCDCDCDCDCDCDCDCDCDCDCDCDCE2E2E2BEBEBEBEBEBEBEBEBEE2E2F5F5DCF5DCF5DCDCDCDCF5F5F5F5F5F5F5F5DCDCF5F5DCF5DCF5DCDCDCE2BEE2E2E2E2E2E2E2E2E2E2E2E2E2E2E2E2E2E2E2E2E2E2E2E2E2E2E2E2E2E2E2E2E2E2E2E2E2E2E2E2E2E2E2E2E2E2E2E2E2E2E2E2E2E2E2E2E2E2E2E2E2
310
E2E2E2E2E2E2E2E2E2E2E2E2E2E2E2E2E2E2E2E2E2E2E2E2E2E2E2E2E2E2E2E2E2E2E2E2E2E2E2E2E2E2E2E2E2E2E2E2E2E2E2E2E2E2E2E2E2E2E2E2BEE2E2E2E2E2DCE2E2DCE2E2E2E2E2DCE2E2E2DCE2E2DCE2E2E2BEBEBEBEBEBEBEBEBEE2E2DCE2E2E2E2E2E2E2E2E2E2E2E2E2E2E2E2E2E2E2E2E2E2E2E2E2E2E2DCE2
310
BEE2E2E2E2E2DCE2E2DCE2E2E2E2E2DCE2E2E2DCE2E2DCE2E2E2BEBEBEBEBEBEBEBEBEE2E2DCE2E2E2E2E2E2E2E2E2E2E2E2E2E2E2E2E2E2E2E2E2E2E2E2E2E2E2DCE2BEE2E2E2E2E2E2E2E2E2E2E2E2E2E2E2E2E2E2E2E2E2E2E2E2E2E2E2E2E2E2E2E2E2E2E2E2E2E2E2E2E2E2E2E2E2E2E2E2E2E2E2E2E2E2E2E2E2E2E2
310
E2E2E2E2E2E2E2E2E2E2E2E2E2E2E2E2E2E2E2E2E2E2E2E2E2E2E2E2E2E2E2E2E2E2E2E2E2E2E2E2E2E2E2E2E2E2E2E2E2E2E2E2E2E2E2E2E2E2E2E2E2E2BEE2E2E2E2E2DCDCDCDCDCDCDCDCDCDCDCDCDCDCDCDCF5F5F5F5DCDCDCDCDCDCDCDCDCDCDCDCE2E2E2E2E2E2E2E2E2E2E2E2E2E2E2E2E2E2E2E2E2E2E2E2E2E2E2
310
DCE2BEE2E2E2E2E2DCDCDCDCDCDCDCDCDCDCDCDCDCDCDCDCDCF5F5F5DCDCDCDCDCDCDCDCDCDCDCDCE2E2E2E2E2E2E2E2E2E2E2E2E2E2E2E2E2E2E2E2E2E2E2E2E2E2E2DCE2BEE2E2E2E2E2E2E2E2E2E2E2E2E2E2E2E2E2E2E2E2E2E2E2E2E2E2E2E2E2E2E2E2E2E2E2E2E2E2E2E2E2E2E2E2E2E2E2E2E2E2E2E2E2E2E2E2E2
310
E2E2E2E2E2E2E2E2E2E2E2E2E2E2E2E2E2E2E2E2E2E2E2E2E2E2E2E2E2E2E2E2E2E2E2E2E2E2E2E2E2E2E2E2E2E2E2E2E2E2E2E2E2E2E2E2E2E2E2E2E2E2E2E2BEE2E2E2E2E2DCDCDCDCDCDCDCDCDCDCDCDCDCDCDCDCF5F5F5DCDCDCDCDCDCDCDCDCDCDCDCBEBEBEBEBEBEBEBEBEBEBEBEE2BEBEE2E2BEBEBEE2E2E2E2E2E2
310
E2E2DCE2BEE2E2E2E2E2DCDCDCDCDCDCDCDCDCDCDCDCDCDCDCDCDCF5F5F5DCDCDCDCDCDCDCDCDCDCDCBEBEBEBEBEBEBEBEBEBEBEBEE2BEBEE2E2BEBEBEE2E2E2E2E2E2E2E2DCE2BEE2E2E2E2E2E2E2E2E2E2E2E2E2E2E2E2E2E2E2E2E2E2E2E2E2E2E2E2E2E2E2E2E2E2E2E2E2E2E2E2E2E2E2E2E2E2E2E2E2E2E2E2E2E2E2
310
E2E2E2E2E2E2E2E2E2E2E2E2E2E2E2E2E2E2E2E2E2E2E2E2E2E2E2E2E2E2E2E2E2E2E2E2E2E2E2E2E2E2E2E2E2E2E2E2E2E2E2E2E2E2E2E2E2E2E2E2E2E2E2E2E2E2BEE2E2E2E2E2DCE2E2DCE2E2E2E2E2DCE2E2E2DCE2E2DCF5F5BEBEBEBEBEBEBEBEE2E2E2E2BEBEBEBEBEBEBEBEBEBEBEBEBEBEBEBEBEBEBEBEE2E2E2E2
310
E2E2E2E2DCE2BEE2E2E2E2E2DCE2E2DCE2E2E2E2E2DCE2E2E2DCE2E2DCF5F5BEBEBEBEBEBEBEBEBEE2E2E2BEBEBEBEBEBEBEBEBEBEBEBEBEBEBEBEE2BEBEBEE2E2E2E2E2E2E2E2DCE2BEE2E2E2E2E2E2E2E2E2E2E2E2E2E2E2E2E2E2E2E2E2E2E2E2E2E2E2E2E2E2E2E2E2E2E2E2E2E2E2E2E2E2E2E2E2E2E2E2E2E2E2E2E2
310
E2E2E2E2E2E2E2E2E2E2E2E2E2E2E2E2E2E2E2E2E2E2E2E2E2E2E2E2E2E2E2E2E2E2E2E2E2E2E2E2E2E2E2E2E2E2E2E2E2E2E2E2E2E2E2E2E2E2E2E2E2E2E2E2E2E2E2E2BEE2E2E2E2E2DCF5F5F5F5F5F5F5DCDCF5F5F5F5F5F5F5DCDCF5F5F5F5F5F5F5F5F5DCDCDCBEBEF5BEBEBEF5BEBEBEBEE2E2BEBEBEE2BEBEBEE2E2
310
E2E2E2E2E2E2DCE2BEE2E2E2E2E2DCF5F5F5F5F5F5F5DCDCF5F5F5DCF5F5F5DCDCF5F5F5F5F5F5F5F5F5DCDCDCF5BEF5BEBEBEF5BEBEBEBEE2E2BEBEBEE2BEBEBEE2E2E2E2E2E2E2E2DCE2BEE2E2E2E2E2E2E2E2E2E2E2E2E2E2E2E2E2E2E2E2E2E2E2E2E2E2E2E2E2E2E2E2E2E2E2E2E2E2E2E2E2E2E2E2E2E2E2E2E2E2E2
310
E2E2E2E2E2E2E2E2E2E2E2E2E2E2E2E2E2E2E2E2E2E2E2E2E2E2E2E2E2E2E2E2E2E2E2E2E2E2E2E2E2E2E2E2E2E2E2E2E2E2E2E2E2E2E2E2E2E2E2E2E2E2E2E2E2E2E2E2E2E2BEE2E2E2E2E2DCF5F5F5F5F5F5F5E2DCF5F5F5DCF5F5F5DCDCF5F5F5F5F5F5F5F5F5E2E2E2F5F5F5F5F5F5F5F5F5F5F5E2E2E2E2E2E2E2E2E2
310
E2E2E2E2E2E2E2E2DCE2BEE2E2E2E2E2DCF5F5F5F5F5F5F5E2DCF5F5F5DCF5F5F5DCDCDCF5F5F5F5F5F5F5F5E2E2E2F5F5F5F5F5F5F5F5F5F5F5E2E2E2E2E2E2E2E2E2E2E2E2E2E2E2E2E2DCE2BEE2E2E2E2E2E2E2E2E2E2E2E2E2E2E2E2E2E2E2E2E2E2E2E2E2E2E2E2E2E2E2E2E2E2E2E2E2E2E2E2E2E2E2E2E2E2E2E2E2
310
E2E2E2E2E2E2E2E2E2E2E2E2E2E2E2E2E2E2E2E2E2E2E2E2E2E2E2E2E2E2E2E2E2E2E2E2E2E2E2E2E2E2E2E2E2E2E2E2E2E2E2E2E2E2E2E2E2E2E2E2E2E2E2E2E2E2E2E2E2E2E2E2BEE2E2E2E2E2DCDCDCDCDCDCDCDCDCDCDCDCDCDCDCDCDCDCDCDCDCDCDCDCBEBEBEBEBEBEBEDCDCDCDCDCDCDCDCDCDCDCDCDCDCDCDCDCDC
310
DCDCDCDCDCDCDCDCDCDCDCE2BEE2E2E2E2E2DCDCDCDCDCDCDCDCDCDCDCDCDCDCDCDCDCDCDCDCDCDCDCDCDCBEBEBEBEBEBEDCDCDCDCDCDCDCDCDCDCDCDCDCDCDCDCDCDCDCDCDCDCDCDCDCDCDCDCDCE2BEE2E2E2E2E2E2E2E2E2E2E2E2E2E2E2E2E2E2E2E2E2E2E2E2E2E2E2E2E2E2E2E2E2E2E2E2E2E2E2E2E2E2E2E2E2E2E2
310
E2E2E2E2E2E2E2E2E2E2E2E2E2E2E2E2E2E2E2E2E2E2E2E2E2E2E2E2E2E2E2E2E2E2E2E2E2E2E2E2E2E2E2E2E2E2E2E2E2E2E2E2E2E2E2E2E2E2E2E2E2E2E2E2E2E2E2E2E2E2E2E2E2E2BEE2E2E2E2E2DCE2E2E2E2E2E2E2E2E2E2E2E2E2E2E2DCDCDCDCDCDCDCBEBEBEBEBEBEBEBEDCF5F5F5F5F5F5F5F5E2DCF5F5F5F5F5
310
F5F5F5E2E2DCF5F5F5F5F5F5F5E2BEE2E2E2E2E2DCE2E2E2E2E2E2E2E2E2E2E2E2E2E2E2DCDCDCDCDCDCDCDCBEBEBEBEBEBEBEDCF5F5F5F5F5F5F5F5E2DCF5F5F5F5F5F5F5F5F5E2DCF5F5F5F5F5F5F5E2BEE2E2E2E2E2E2E2E2E2E2E2E2E2E2E2E2E2E2E2E2E2E2E2E2E2E2E2E2E2E2E2E2E2E2E2E2E2E2E2E2E2E2E2E2E2
310
E2E2E2E2E2E2E2E2E2E2E2E2E2E2E2E2E2E2E2E2E2E2E2E2E2E2E2E2E2E2E2E2E2E2E2E2E2E2E2E2E2E2E2E2E2E2E2E2E2E2E2E2E2E2E2E2E2E2E2E2E2E2E2E2E2E2E2E2E2E2E2E2E2E2E2E2BEE2E2E2E2E2DCE2E2E2E2E2E2E2E2E2E2E2E2E2E2E2DCE2E2E2E2E2E2BEBEBEBEBEBEBEBEDCF5BEBEBEBEBEBEF5DCDCF5F5F5
310
F5F5F5F5F5F5DCDCF5F5BEBEBEF5F5E2BEE2E2E2E2E2DCE2E2E2E2E2E2E2E2E2E2E2E2E2E2E2DCE2E2E2E2E2E2DCBEBEBEBEBEBEBEDCF5F5BEBEBEBEBEF5DCDCF5F5F5F5F5F5F5F5F5DCDCF5F5BEBEBEF5F5E2BEE2E2E2E2E2E2E2E2E2E2E2E2E2E2E2E2E2E2E2E2E2E2E2E2E2E2E2E2E2E2E2E2E2E2E2E2E2E2E2E2E2E2E2
310
E2E2E2E2E2E2E2E2E2E2E2E2E2E2E2E2E2E2E2E2E2E2E2E2E2E2E2E2E2E2E2E2E2E2E2E2E2E2E2E2E2E2E2E2E2E2E2E2E2E2E2E2E2E2E2E2E2E2E2E2E2E2E2E2E2E2E2E2E2E2E2E2E2E2E2E2E2E2BEE2E2E2E2E2DCE2E2E2E2E2E2E2E2E2E2E2E2E2E2E2DCF5F5F5F5F5F5DCDCDCBEBEBEDCDCDCE2BEE2BEBEBEBEE2E2DCE2
310
E2E2E2E2E2E2E2E2E2DCE2E2BEBEBEE2DCE2BEE2E2E2E2E2DCE2E2E2E2E2E2E2E2E2E2E2E2E2E2E2DCF5F5F5F5F5F5DCDCDCBEBEBEDCDCDCE2BEBEBEBEBEBEE2E2DCE2E2E2E2E2E2E2E2E2E2DCE2E2BEBEBEE2DCE2BEE2E2E2E2E2E2E2E2E2E2E2E2E2E2E2E2E2E2E2E2E2E2E2E2E2E2E2E2E2E2E2E2E2E2E2E2E2E2E2E2E2
310
E2E2E2E2E2E2E2E2E2E2E2E2E2E2E2E2E2E2E2E2E2E2E2E2E2E2E2E2E2E2E2E2E2E2E2E2E2E2E2E2E2E2E2E2E2E2E2E2E2E2E2E2E2E2E2E2E2E2E2E2E2E2E2E2E2E2E2E2E2E2E2E2E2E2E2E2E2E2E2E2BEE2E2E2E2E2DCDCDCDCDCDCDCDCDCDCDCDCDCDCDCDCDCF5F5F5F5F5F5DCDCDCBEBEBEDCDCDCDCF5F5F5F5F5DCDCDC
310
DCDCDCF5F5F5F5F5F5DCDCDCDCF5F5F5F5F5DCE2BEE2E2E2E2E2DCDCDCDCDCDCDCDCDCDCDCDCDCDCDCDCDCDCF5F5F5F5F5DCDCDCBEBEBEDCDCDCDCF5F5F5F5F5F5DCDCDCDCDCF5F5F5F5F5F5DCDCDCDCF5F5F5F5F5DCE2BEE2E2E2E2E2E2E2E2E2E2E2E2E2E2E2E2E2E2E2E2E2E2E2E2E2E2E2E2E2E2E2E2E2E2E2E2E2E2E2
310
E2E2E2E2E2E2E2E2E2E2E2E2E2E2E2E2E2E2E2E2E2E2E2E2E2E2E2E2E2E2E2E2E2E2E2E2E2E2E2E2E2E2E2E2E2E2E2E2E2E2E2E2E2E2E2E2E2E2E2E2E2E2E2E2E2E2E2E2E2E2E2E2E2E2E2E2E2E2E2E2E2E2BEE2E2E2E2E2DCE2E2E2E2E2E2E2E2E2E2E2E2E2E2E2E2E2E2E2E2E2E2E2E2E2E2E2E2E2E2E2E2E2E2E2E2E2E2
310
E2E2E2E2E2E2E2E2E2E2E2E2E2E2E2E2E2E2E2E2DCE2BEE2E2E2E2E2DCE2E22D2D2D2D2D2D2D2D2D2D2D2D2D2D2D2D2D2D2DF5E2E2E2E2E2E2E2E2E2E2E2E2E2E2E2E2E2E2E2E2E2E2E2E2E2E2E2E2E2E2E2E2E2E2E2E2DCE2BEE2E2E2E2E2E2E2E2E2E2E2E2E2E2E2E2E2E2E2E2E2E2E2E2E2E2E2E2E2E2E2E2E2E2E2E2E2
310
E2E2E2E2E2E2E2E2E2E2E2E2E2E2E2E2E2E2E2E2E2E2E2E2E2E2E2E2E2E2E2E2E2E2E2E2E2E2E2E2E2E2E2E2E2E2E2E2E2E2E2E2E2E2E2E2E2E2E2E2E2E2E2E2E2E2E2E2E2E2E2E2E2E2E2E2E2E2E2E2E2E2E2E2BEE2E2E2E2E2DCE2E2E2E2E2E2E2E2E2E2E2E2E2E2E2E2E2E2E2E2E2E2E2E2E2E2E2E2E2E2E2E2E2E2E2E2
310
E2E2E2E2E2E2E2E2E2E2E2E2E2E2E2E2E2E2E2E2E2E2DCE2BEE2E2E2E2E2DCE2E22DE2E2E2E2E2E2E2E2BEBEE2E2E2E2E2E2E2E22DE2E2BEBEE2E2E2E2E2E2E2E2E2E2E2E2E2E2E2E2E2E2E2E2E2E2E2E2E2E2E2E2E2E2E2E2DCE2BEE2E2E2E2E2E2E2E2E2E2E2E2E2E2E2E2E2E2E2E2E2E2E2E2E2E2E2E2E2E2E2E2E2E2E2
310
E2E2E2E2E2E2E2E2E2E2E2E2E2E2E2E2E2E2E2E2E2E2E2E2E2E2E2E2E2E2E2E2E2E2E2E2E2E2E2E2E2E2E2E2E2E2E2E2E2E2E2E2E2E2E2E2E2E2E2E2E2E2E2E2E2E2E2E2E2E2E2E2E2E2E2E2E2E2E2E2E2E2E2E2E2E2BEE2E2E2E2E2DCE2E2E2E2E2E2E2E2E2E2E2E2E2E2E2E2E2E2E2E2E2E2E2E2E2E2E2E2E2E2E2E2E2E2
310
E2E2E2E2E2E2E2E2E2E2E2E2E2E2E2E2E2E2E2E2E2E2E2E2DCE2BEE2E2E2E2E2DCE2E2F5F5F5F5F5F5F5F5F5F5F5F5F5F5F5F5F5F5F5F5DC2DBE2D2DE2E2E2E2E2E2E2E2E2E2E2E2E2E2E2E2E2E2E2E2E2E2E2E2E2E2E2E2E2E2E2DCE2BEE2E2E2E2E2E2E2E2E2E2E2E2E2E2E2E2E2E2E2E2E2E2E2E2E2E2E2E2E2E2E2E2E2
310
E2E2E2E2E2E2E2E2E2E2E2E2E2E2E2E2E2E2E2E2E2E2E2E2E2E2E2E2E2E2E2E2E2E2E2E2E2E2E2E2E2E2E2E2E2E2E2E2E2E2E2E2E2E2E2E2E2E2E2E2E2E2E2E2E2E2E2E2E2E2E2E2E2E2E2E2E2E2E2E2E2E2E2E2E2E2E2E2BEE2E2E2E2E2DCE2E2E2E2E2E2E2E2E2E2E2E2E2E2E2E2E2E2E2E2E2E2E2E2E2E2E2E2E2E2E2E2
310
E2E2E2E2E2E2E2E2E2E2E2E2E2E2E2E2E2E2E2E2E2E2E2E2E2E2DCE2BEE2E2E2E2E2DCE2E2F5F5F5F5F5F5F5F5F5F5F5F5F5F5F5F5F5BE28DC2D2D2DDC2DE2E2E2E2E2E2E2E2E2E2E2E2E2E2E2E2E2E2E2E2E2E2E2E2E2E2E2E2E2E2E2DCE2BEE2E2E2E2E2E2E2E2E2E2E2E2E2E2E2E2E2E2E2E2E2E2E2E2E2E2E2E2E2E2E2
310
E2E2E2E2E2E2E2E2E2E2E2E2E2E2E2E2E2E2E2E2E2E2E2E2E2E2E2E2E2E2E2E2E2E2E2E2E2E2E2E2E2E2E2E2E2E2E2E2E2E2E2E2E2E2E2E2E2E2E2E2E2E2E2E2E2E2E2E2E2E2E2E2E2E2E2E2E2E2E2E2E2E2E2E2E2E2E2E2E2E2BEE2E2E2E2E2DCE2E2E2E2E22D2D2D2D2D2D2D2D2D2D2D2D2D2D2D2D2D2D2DF5E2E2E2E2E2
310
E2E2E2E2E2E2E2E2E2E2E2E2E2E2E2E2E2E2E2E2E2E2E2E2E2E2E2E2DCE2BEE2E2E2E2E2DCE2E2F5282828282828282828282828282828282828F5E2E2E22D2DE2E2E2E2E2E2E2E2E2E2E2E2E2E2E2E2E2E2E2E2E2E2E2E2E2E2E2E2E2E2E2DCE2BEE2E2E2E2E2E2E2E2E2E2E2E2E2E2E2E2E2E2E2E2E2E2E2E2E2E2E2E2E2
310
E2E2E2E2E2E2E2E2E2E2E2E2E2E2E2E2E2E2E2E2E2E2E2E2E2E2E2E2E2E2E2E2E2E2E2E2E2E2E2E2E2E2E2E2E2E2E2E2E2E2E2E2E2E2E2E2E2E2E2E2E2E2E2E2E2E2E2E2E2E2E2E2E2E2E2E2E2E2E2E2E2E2E2E2E2E2E2E2E2E2E2E2BEE2E2E2E2E2DCE2E2E2E2E22DE2E2E2E2E2E2E2E2BEBEBEE2E2E2E2E2E2E22DE2E2BE
310
BEE2E2E2E2E2E2E2E2E2E2E2E2E2E2E2E2E2E2E2E2E2E2E2E2E2E2E2E2E2DCE2BEE2E2E2E2E2DCE2E2F5282828282828282828282828282828282828F5E2E2E22DE2E2E2E2E2E2E2E2E2E2E2E2E2E2E2E2E2E2E2E2E2E2E2E2E2E2E2E2E2E2E2E2DCE2BEE2E2E2E2E2E2E2E2E2E2E2E2E2E2E2E2E2E2E2E2E2E2E2E2E2E2E2
310
E2E2E2E2E2E2E2E2E2E2E2E2E2E2E2E2E2E2E2E2E2E2E2E2E2E2E2E2E2E2E2E2E2E2E2E2E2E2E2E2E2E2E2E2E2E2E2E2E2E2E2E2E2E2E2E2E2E2E2E2E2E2E2E2E2E2E2E2E2E2E2E2E2E2E2E2E2E2E2E2E2E2E2E2E2E2E2E2E2E2E2E2E2E2BEE2E2E2E2E2DCE2E2E2E2E2F5F5F5F5F5F5F5F5F5F5F5F5F5F5F5F5F5F5F5DC2D
310
2DBE2D2DE2E2E2E2E2E2E2E2E2E2E2E2E2E2E2E2E2E2E2E2E2E2E2E2E2E2E2E2DCE2BEE2E2E2E2E2DCE2E2F5282828282828282828282828282828282828F5E2E2E22DE2E2E2E2E2E2E2E2E2E2E2E2E2E2E2E2E2E2E2E2E2E2E2E2E2E2E2E2E2E2E2E2DCE2BEE2E2E2E2E2E2E2E2E2E2E2E2E2E2E2E2E2E2E2E2E2E2E2E2E2
310
E2E2E2E2E2E2E2E2E2E2E2E2E2E2E2E2E2E2E2E2E2E2E2E2E2E2E2E2E2E2E2E2E2E2E2E2E2E2E2E2E2E2E2E2E2E2E2E2E2E2E2E2E2E2E2E2E2E2E2E2E2E2E2E2E2E2E2E2E2E2E2E2E2E2E2E2E2E2E2E2E2E2E2E2E2E2E2E2E2E2E2E2E2E2E2E2BEE2E2E2E2E2DCE2E2E2E2E2F5F5F5F5F5F5F5F5F5F5F5F5F5F5F5F5F5F5BE
310
DC2D2D2DDC2DE2E2E2E2E2E2E2E2E2E2E2E2E2E2E2E2E2E2E2E2E2E2E2E2E2E2E2E2DCE2BEE2E2E2E2E2DCE2E2F5282828282828282828282828282828282828F5E2E2E22DE2E2E2E2E2E2E2E2E2E2E2E2E2E2E2E2E2E2E2E2E2E2E2E2E2E2E2E2E2E2E2E2DCE2BEE2E2E2E2E2E2E2E2E2E2E2E2E2E2E2E2E2E2E2E2E2E2E2
310
E2E2E2E2E2E2E2E2E2E2E2E2E2E2E2E2E2E2E2E2E2E2E2E2E2E2E2E2E2E2E2E2E2E2E2E2E2E2E2E2E2E2E2E2E2E2E2E2E2E2E2E2E2E2E2E2E2E2E2E2E2E2E2E2E2E2E2E2E2E2E2E2E2E2E2E2E2E2E2E2E2E2E2E2E2E2E2E2E2E2E2E2E2E2E2E2E2E2BEE2E2E2E2E2DCE2E2E2E2E2F528282828282828282828282828282828
310
2828F5E2E2E22DE2E2E2E2E2E2E2E2E2E2E2E2E2E2E2E2E2E2E2E2E2E2E2E2E2E2E2E2E2DCE2BEE2E2E2E2E2DCE2E2F528E228E2E228E2E22828E2E228E2E228E228F5E2E2E22DE2E2E2E2E2E2E2E2E2E2E2E2E2E2E2E2E2E2E2E2E2E2E2E2E2E2E2E2E2E2E2E2DCE2BEE2E2E2E2E2E2E2E2E2E2E2E2E2E2E2E2E2E2E2E2E2
310
E2E2E2E2E2E2E2E2E2E2E2E2E2E2E2E2E2E2E2E2E2E2E2E2E2E2E2E2E2E2E2E2E2E2E2E2E2E2E2E2E2E2E2E2E2E2E2E2E2E2E2E2E2E2E2E2E2E2E2E2E2E2E2E2E2E2E2E2E2E2E2E2E2E2E2E2E2E2E2E2E2E2E2E2E2E2E2E2E2E2E2E2E2E2E2E2E2E2E2E2BEE2E2E2E2E2DCE2E2E2E2E2F52828282828282828282828282828
310
28282828F5E2E2E22DE2E2E2E2E2E2E2E2E2E2E2E2E2E2E2E2E2E2E2E2E2E2E2E2E2E2E2E2E2DCE2BEE2E2E2E2E2DCE2E2F528E228E2E228E2E22828E2E228E2E228E228F5E2E2E22DE2E2E2E2E2E2E2E2E2E2E2E2E2E2E2E2E2E2E2E2E2E2E2E2E2E2E2E2E2E2E2E2DCE2BEE2E2E2E2E2E2E2E2E2E2E2E2E2E2E2E2E2E2E2
310
E2E2E2E2E2E2E2E2E2E2E2E2E2E2E2E2E2E2E2E2E2E2E2E2E2E2E2E2E2E2E2E2E2E2E2E2E2E2E2E2E2E2E2E2E2E2E2E2E2E2E2E2E2E2E2E2E2E2E2E2E2E2E2E2E2E2E2E2E2E2E2E2E2E2E2E2E2E2E2E2E2E2E2E2E2E2E2E2E2E2E2E2E2E2E2E2E2E2E2E2E2E2BEE2E2E2E2E2DCE2E2E2E2E2F5282828282828282828282828
310
282828282828F5E2E2E22DE2E2E2E2E2E2E2E2E2E2E2E2E2E2E2E2E2E2E2E2E2E2E2E2E2E2E2E2E2DCE2BEE2E2E2E2E2DCE2E2F5282828282828282828282828282828282828F5E2E2E22DE2E2E2E2E2E2E2E2E2E2E2E2E2E2E2E2E2E2E2E2E2E2E2E2E2E2E2E2E2E2E2E2DCE2BEE2E2E2E2E2E2E2E2E2E2E2E2E2E2E2E2E2
310
E2E2E2E2E2E2E2E2E2E2E2E2E2E2E2E2E2E2E2E2E2E2E2E2E2E2E2E2E2E2E2E2E2E2E2E2E2E2E2E2E2E2E2E2E2E2E2E2E2E2E2E2E2E2E2E2E2E2E2E2E2E2E2E2E2E2E2E2E2E2E2E2E2E2E2E2E2E2E2E2E2E2E2E2E2E2E2E2E2E2E2E2E2E2E2E2E2E2E2E2E2E2E2E2BEE2E2E2E2E2DCE2E2E2E2E2F528282828282828282828
310
2828282828282828F5E2E2E22DE2E2E2E2E2E2E2E2E2E2E2E2E2E2E2E2E2E2E2E2E2E2E2E2E2E2E2E2E2DCE2BEE2E2E2E2E2DCE2E2F528E228E2E228E2E22828E2E228E2E228E228F5E2E2E22DE2E2E2E2E2E2E2E2E2E2E2E2E2E2E2E2E2E2E2E2E2E2E2E2E2E2E2E2E2E2E2E2DCE2BEE2E2E2E2E2E2E2E2E2E2E2E2E2E2E2
310
E2E2E2E2E2E2E2E2E2E2E2E2E2E2E2E2E2E2E2E2E2E2E2E2E2E2E2E2E2E2E2E2E2E2E2E2E2E2E2E2E2E2E2E2E2E2E2E2E2E2E2E2E2E2E2E2E2E2E2E2E2E2E2E2E2E2E2E2E2E2E2E2E2E2E2E2E2E2E2E2E2E2E2E2E2E2E2E2E2E2E2E2E2E2E2E2E2E2E2E2E2E2E2E2E2E2BEE2E2E2E2E2DCE2E2E2E2E2F528282828E2E228E2
310
E228E2E228E2E228E228F5E2E2E22DE2E2E2E2E2E2E2E2E2E2E2E2E2E2E2E2E2E2E2E2E2E2E2E2E2E2E2E2E2DCE2BEE2E2E2E2E2DCE2E2F528E228E2E228E2E22828E2E228E2E228E228F5E2E2BEBEE2E2E2E2E2E2E2E2E2E2E2E2E2E2E2E2E2E2E2E2E2E2E2E2E2E2E2E2E2E2E2E2DCE2BEE2E2E2E2E2E2E2E2E2E2E2E2E2
310
E2E2E2E2E2E2E2E2E2E2E2E2E2E2E2E2E2E2E2E2E2E2E2E2E2E2E2E2E2E2E2E2E2E2E2E2E2E2E2E2E2E2E2E2E2E2E2E2E2E2E2E2E2E2E2E2E2E2E2E2E2E2E2E2E2E2E2E2E2E2E2E2E2E2E2E2E2E2E2E2E2E2E2E2E2E2E2E2E2E2E2E2E2E2E2E2E2E2E2E2E2E2E2E2E2E2E2E2BEE2E2E2E2E2DCE2E2E2E2E2F528282828E2E2
310
28E2E228E2E228E2E228E228F5E2E2E22DE2E2E2E2E2E2E2E2E2E2E2E2E2E2E2E2E2E2E2E2E2E2E2E2E2E2E2E2E2DCE2BEE2E2E2E2E2DCE2E2F5282828282828282828282828282828282828F5E2E2BEBEE2E2E2E2E2E2E2E2E2E2E2E2E2E2E2E2E2E2E2E2E2E2E2E2E2E2E2E2E2E2E2E2DCE2BEE2E2E2E2E2E2E2E2E2E2E2
310
E2E2E2E2E2E2E2E2E2E2E2E2E2E2E2E2E2E2E2E2E2E2E2E2E2E2E2E2E2E2E2E2E2E2E2E2E2E2E2E2E2E2E2E2E2E2E2E2E2E2E2E2E2E2E2E2E2E2E2E2E2E2E2E2E2E2E2E2E2E2E2E2E2E2E2E2E2E2E2E2E2E2E2E2E2E2E2E2E2E2E2E2E2E2E2E2E2E2E2E2E2E2E2E2E2E2E2E2E2E2BEE2E2E2E2E2DCE2E2E2E2E2F528282828
310
2828282828282828282828282828F5E2E2E22DE2E2E2E2E2E2E2E2E2E2E2E2E2E2E2E2E2E2E2E2E2E2E2E2E2E2E2E2E2DCE2BEE2E2E2E2E2DCE2E2F528E228E2E228E2E22828E2E228E2E228E228F5E2E2E22DE2E2E2E2E2E2E2E2E2E2E2E2E2E2E2E2E2E2E2E2E2E2E2E2E2E2E2E2E2E2E2E2DCE2BEE2E2E2E2E2E2E2E2E2
310
E2E2E2E2E2E2E2E2E2E2E2E2E2E2E2E2E2E2E2E2E2E2E2E2E2E2E2E2E2E2E2E2E2E2E2E2E2E2E2E2E2E2E2E2E2E2E2E2E2E2E2E2E2E2E2E2E2E2E2E2E2E2E2E2E2E2E2E2E2E2E2E2E2E2E2E2E2E2E2E2E2E2E2E2E2E2E2E2E2E2E2E2E2E2E2E2E2E2E2E2E2E2E2E2E2E2E2E2E2E2E2E2BEE2E2E2E2E2DCE2E2E2E2E2F52828
310
2828E2E228E2E228E2E228E2E228E228F5E2E2E22DE2E2E2E2E2E2E2E2E2E2E2E2E2E2E2E2E2E2E2E2E2E2E2E2E2E2E2E2E2DCE2BEE2E2E2E2E2DCE2E2F528E228E2E228E2E22828E2E228E2E228E228F5E2E2E22DE2E2E2E2E2E2E2E2E2E2E2E2E2E2E2E2E2E2E2E2E2E2E2E2E2E2E2E2E2E2E2E2DCE2BEE2E2E2E2E2E2E2
310
E2E2E2E2E2E2E2E2E2E2E2E2E2E2E2E2E2E2E2E2E2E2E2E2E2E2E2E2E2E2E2E2E2E2E2E2E2E2E2E2E2E2E2E2E2E2E2E2E2E2E2E2E2E2E2E2E2E2E2E2E2E2E2E2E2E2E2E2E2E2E2E2E2E2E2E2E2E2E2E2E2E2E2E2E2E2E2E2E2E2E2E2E2E2E2E2E2E2E2E2E2E2E2E2E2E2E2E2E2E2E2E2E2E2BEE2E2E2E2E2DCE2E2E2E2E2F5
310
28282828E2E228E2E228E2E228E2E228E228F5E2E2BEBEE2E2E2E2E2E2E2E2E2E2E2E2E2E2E2E2E2E2E2E2E2E2E2E2E2E2E2E2E2DCE2BEE2E2E2E2E2DCE2E2F5282828282828282828282828282828282828F5E2E2E22DE2E2E2E2E2E2E2E2E2E2E2E2E2E2E2E2E2E2E2E2E2E2E2E2E2E2E2E2E2E2E2E2DCE2BEE2E2E2E2E2
310
E2E2E2E2E2E2E2E2E2E2E2E2E2E2E2E2E2E2E2E2E2E2E2E2E2E2E2E2E2E2E2E2E2E2E2E2E2E2E2E2E2E2E2E2E2E2E2E2E2E2E2E2E2E2E2E2E2E2E2E2E2E2E2E2E2E2E2E2E2E2E2E2E2E2E2E2E2E2E2E2E2E2E2E2E2E2E2E2E2E2E2E2E2E2E2E2E2E2E2E2E2E2E2E2E2E2E2E2E2E2E2E2E2E2E2E2BEE2E2E2E2E2DCE2E2E2E2
310
E2F5282828282828282828282828282828282828F5E2E2BEBEE2E2E2E2E2E2E2E2E2E2E2E2E2E2E2E2E2E2E2E2E2E2E2E2E2E2E2E2E2DCE2BEE2E2E2E2E2DCE2E2F528E228E2E228E2E22828E2E228E2E228E228F5E2E2E22DE2E2E2E2E2E2E2E2E2E2E2E2E2E2E2E2E2E2E2E2E2E2E2E2E2E2E2E2E2E2E2E2DCE2BEE2E2E2
310
E2E2E2E2E2E2E2E2E2E2E2E2E2E2E2E2E2E2E2E2E2E2E2E2E2E2E2E2E2E2E2E2E2E2E2E2E2E2E2E2E2E2E2E2E2E2E2E2E2E2E2E2E2E2E2E2E2E2E2E2E2E2E2E2E2E2E2E2E2E2E2E2E2E2E2E2E2E2E2E2E2E2E2E2E2E2E2E2E2E2E2E2E2E2E2E2E2E2E2E2E2E2E2E2E2E2E2E2E2E2E2E2E2E2E2E2E2E2BEE2E2E2E2E2DCE2E2
310
E2E2E2F528282828E2E228E2E228E2E228E2E228E228F5E2E2E22DE2E2E2E2E2E2E2E2E2E2E2E2E2E2E2E2E2E2E2E2E2E2E2E2E2E2E2E2E2DCE2BEE2E2E2E2E2DCE2E2F528E228E2E228E2E22828E2E228E2E228E228F5E2E2E22DE2E2E2E2E2E2E2E2E2E2E2E2E2E2E2E2E2E2E2E2E2E2E2E2E2E2E2E2E2E2E2E2DCE2BEE2
310
E2E2E2E2E2E2E2E2E2E2E2E2E2E2E2E2E2E2E2E2E2E2E2E2E2E2E2E2E2E2E2E2E2E2E2E2E2E2E2E2E2E2E2E2E2E2E2E2E2E2E2E2E2E2E2E2E2E2E2E2E2E2E2E2E2E2E2E2E2E2E2E2E2E2E2E2E2E2E2E2E2E2E2E2E2E2E2E2E2E2E2E2E2E2E2E2E2E2E2E2E2E2E2E2E2E2E2E2E2E2E2E2E2E2E2E2E2E2E2E2BEE2E2E2E2E2DC
310
E2E2E2E2E2F528282828E2E228E2E228E2E228E2E228E228F5E2E2E22DE2E2E2E2E2E2E2E2E2E2E2E2E2E2E2E2E2E2E2E2E2E2E2E2E2E2E2E2E2DCE2BEE2E2E2E2E2DCE2E2F5282828282828282828282828282828282828F5E2E2E22DE2E2E2E2E2E2E2E2E2E2E2E2E2E2E2E2E2E2E2E2E2E2E2E2E2E2E2E2E2E2E2E2DCE2
310
BEE2E2E2E2E2E2E2E2E2E2E2E2E2E2E2E2E2E2E2E2E2E2E2E2E2E2E2E2E2E2E2E2E2E2E2E2E2E2E2E2E2E2E2E2E2E2E2E2E2E2E2E2E2E2E2E2E2E2E2E2E2E2E2E2E2E2E2E2E2E2E2E2E2E2E2E2E2E2E2E2E2E2E2E2E2E2E2E2E2E2E2E2E2E2E2E2E2E2E2E2E2E2E2E2E2E2E2E2E2E2E2E2E2E2E2E2E2E2E2E2E2BEE2E2E2E2
310
E2DCE2E2E2E2E2F5282828282828282828282828282828282828F5E2E2E22DE2E2E2E2E2E2E2E2E2E2E2E2E2E2E2E2E2E2E2E2E2E2E2E2E2E2E2E2E2DCE2BEE2E2E2E2E2DCE2E2F528E228E2E228E2E22828E2E228E2E228E228F5E2E2E22DE2E2E2E2E2E2E2E2E2E2E2E2E2E2E2E2E2E2E2E2E2E2E2E2E2E2E2E2E2E2E2E2
310
DCE2BEE2E2E2E2E2E2E2E2E2E2E2E2E2E2E2E2E2E2E2E2E2E2E2E2E2E2E2E2E2E2E2E2E2E2E2E2E2E2E2E2E2E2E2E2E2E2E2E2E2E2E2E2E2E2E2E2E2E2E2E2E2E2E2E2E2E2E2E2E2E2E2E2E2E2E2E2E2E2E2E2E2E2E2E2E2E2E2E2E2E2E2E2E2E2E2E2E2E2E2E2E2E2E2E2E2E2E2E2E2E2E2E2E2E2E2E2E2E2E2E2E2BEE2E2
310
E2E2E2DCE2E2E2E2E2F528282828E2E228E2E228E2E228E2E228E228F5E2E2E22DE2E2E2E2E2E2E2E2E2E2E2E2E2E2E2E2E2E2E2E2E2E2E2E2E2E2E2E2E2DCE2BEE2E2E2E2E2DCE2E2F528E228E2E228E2E22828E2E228E2E228E228F5E2E2E22DE2E2E2E2E2E2E2E2E2E2E2E2E2E2E2E2E2E2E2E2E2E2E2E2E2E2E2E2E2E2
310
E2E2DCE2BEE2E2E2E2E2E2E2E2E2E2E2E2E2E2E2E2E2E2E2E2E2E2E2E2E2E2E2E2E2E2E2E2E2E2E2E2E2E2E2E2E2E2E2E2E2E2E2E2E2E2E2E2E2E2E2E2E2E2E2E2E2E2E2E2E2E2E2E2E2E2E2E2E2E2E2E2E2E2E2E2E2E2E2E2E2E2E2E2E2E2E2E2E2E2E2E2E2E2E2E2E2E2E2E2E2E2E2E2E2E2E2E2E2E2E2E2E2E2E2E2E2BE
310
E2E2E2E2E2DCE2E2E2E2E2F528282828E2E228E2E228E2E228E2E228E228F5E2E2E22DE2E2E2E2E2E2E2E2E2E2E2E2E2E2E2E2E2E2E2E2E2E2E2E2E2E2E2E2E2DCE2BEE2E2E2E2E2DCE2E22D2DF52828282828282828282828282828F52D2D2D2D2D2DE2E2E2E2E2E2E2E2E2E2E2E2E2E2E2E2E2E2E2E2E2E2E2E2E2E2E2E2
310
E2E2E2E2DCE2BEE2E2E2E2E2E2E2E2E2E2E2E2E2E2E2E2E2E2E2E2E2E2E2E2E2E2E2E2E2E2E2E2E2E2E2E2E2E2E2E2E2E2E2E2E2E2E2E2E2E2E2E2E2E2E2E2E2E2E2E2E2E2E2E2E2E2E2E2E2E2E2E2E2E2E2E2E2E2E2E2E2E2E2E2E2E2E2E2E2E2E2E2E2E2E2E2E2E2E2E2E2E2E2E2E2E2E2E2E2E2E2E2E2E2E2E2E2E2E2E2
310
E2BEE2E2E2E2E2DCE2E2E2E2E2F5282828282828282828282828282828282828F5E2E2E22DE2E2E2E2E2E2E2E2E2E2E2E2E2E2E2E2E2E2E2E2E2E2E2E2E2E2E2E2E2DCE2BEE2E2E2E2E2DCE2E2F5F5F5E2E2E2E2E2E2E2E2E2E2E2E2E2E2F5F5F5E2E2E22DE2E2E2E2E2E2E2E2E2E22D2D2D2D2D2D2D2D2D2DE2E2E2E2E2E2
310
E2E2E2E2E2E2DCE2BEE2E2E2E2E2E2E2E2E2E2E2E2E2E2E2E2E2E2E2E2E2E2E2E2E2E2E2E2E2E2E2E2E2E2E2E2E2E2E2E2E2E2E2E2E2E2E2E2E2E2E2E2E2E2E2E2E2E2E2E2E2E2E2E2E2E2E2E2E2E2E2E2E2E2E2E2E2E2E2E2E2E2E2E2E2E2E2E2E2E2E2E2E2E2E2E2E2E2E2E2E2E2E2E2E2E2E2E2E2E2E2E2E2E2E2E2E2E2
310
E2E2E2BEE2E2E2E2E2DCE2E2E2E2E2F528282828E2E228E2E228E2E228E2E228E228F5E2E2E22DE2E2E2E2E2E2E2E2E2E2E2E2E2E2E2E2E2E2E2E2E2E2E2E2E2E2E2E2E2DCE2BEE2E2E2E2E2DCE2E22D2DF52D2D2D2D2D2DBEBE2D2D2D2D2D2DF52DDCE2E2E22DE2E2E2E2E2E2E22D2D2DE22DBEBEBEBEBEE2E2E2E2E2E2E2
310
E2E2E2E2E2E2E2E2DCE2BEE2E2E2E2E2E2E2E2E2E2E2E2E2E2E2E2E2E2E2E2E2E2E2E2E2E2E2E2E2E2E2E2E2E2E2E2E2E2E2E2E2E2E2E2E2E2E2E2E2E2E2E2E2E2E2E2E2E2E2E2E2E2E2E2E2E2E2E2E2E2E2E2E2E2E2E2E2E2E2E2E2E2E2E2E2E2E2E2E2E2E2E2E2E2E2E2E2E2E2E2E2E2E2E2E2E2E2E2E2E2E2E2E2E2E2E2
310
E2E2E2E2E2BEE2E2E2E2E2DCE2E2E2E2E2F528282828E2E228E2E228E2E228E2E228E228F5E2E2E22DE2E2E2E2E2E2E2E2E2E2E2E2E2E2E2E2E2E2E2E2E2E2E2E2E2E2E2E2E2DCE2BEE2E2E2E2E2DCE2E2E2E2F5E2E2E2E2E2E2BEBEE2E2E2E2E2E2F5E2E2E2E2E22DE2E2E2E2E22D2DE2E2E22DE2BEBEBEBEBEE2E2E2E2E2
310
E2E2E2E2E2E2E2E2E2E2DCE2BEE2E2E2E2E2E2E2E2E2E2E2E2E2E2E2E2E2E2E2E2E2E2E2E2E2E2E2E2E2E2E2E2E2E2E2E2E2E2E2E2E2E2E2E2E2E2E2E2E2E2E2E2E2E2E2E2E2E2E2E2E2E2E2E2E2E2E2E2E2E2E2E2E2E2E2E2E2E2E2E2E2E2E2E2E2E2E2E2E2E2E2E2E2E2E2E2E2E2E2E2E2E2E2E2E2E2E2E2E2E2E2E2E2E2
310
E2E2E2E2E2E2E2BEE2E2E2E2E2DCE2E2E2E2E2DC282828282828282828282828282828282828DC2D2D2D2D2DE2E2E2E2E2E2E2E2E2E2E2E2E2E2E2E2E2E2E2E2E2E2E2E2E2E2E2E2DCE2BEE2E2E2E2E2DCE2E2E2E2F5E2E2E2E2E2E2E2E2E2E2E2E2E2E2F5E2E2E2E2E22D2DE22D2D2DE2E2E2E2E22DE2BEBEBEBEBEBEBEBE
310
E2E2E2E2E2E2E2E2E2E2E2E2DCE2BEE2E2E2E2E2E2E2E2E2E2E2E2E2E2E2E2E2E2E2E2E2E2E2E2E2E2E2E2E2E2E2E2E2E2E2E2E2E2E2E2E2E2E2E2E2E2E2E2E2E2E2E2E2E2E2E2E2E2E2E2E2E2E2E2E2E2E2E2E2E2E2E2E2E2E2E2E2E2E2E2E2E2E2E2E2E2E2E2E2E2E2E2E2E2E2E2E2E2E2E2E2E2E2E2E2E2E2E2E2E2E2E2
310
E2E2E2E2E2E2E2E2E2BEE2E2E2E2E2DCE2E2E2E2E22DE2E2E2E2E2E2E2E2E2E2E2E2E2E2E2E2E2E22DE2E2E2E2E2E2E2E2E2E2E2E2E2E2E2E2E2E2E2E2E2E2E2E2E2E2E2E2E2E2E2E2E2DCE2BEE2E2E2E2E2DCE2E2E2E2F5E2E2E2E2E2E2E2E2E2E2E2E2E2E2F5E2E2E2E2BE2D2D2DE2E2E2E2E2E2E22DE2E2BEBEBEE2BEBE
310
E2E2E2E2E2E2E2E2E2E2E2E2E2E2DCE2BEE2E2E2E2E2E2E2E2E2E2E2E2E2E2E2E2E2E2E2E2E2E2E2E2E2E2E2E2E2E2E2E2E2E2E2E2E2E2E2E2E2E2E2E2E2E2E2E2E2E2E2E2E2E2E2E2E2E2E2E2E2E2E2E2E2E2E2E2E2E2E2E2E2E2E2E2E2E2E2E2E2E2E2E2E2E2E2E2E2E2E2E2E2E2E2E2E2E2E2E2E2E2E2E2E2E2E2E2E2E2
310
E2E2E2E2E2E2E2E2E2E2E2BEE2E2E2E2E2DCE2E2E2E2E22D2D2D2D2D2D2D2D2DBEBEBE2D2D2D2D2D2D2DDCE2E2E2E2E2E2E2E2E2E2E2E2E2E2E2E2E2E2E2E2E2E2E2E2E2E2E2E2E2E2E2E2E2DCE2BEE2E2E2E2E2DCE2E2E2E2F5E2E2E2E2E2E2E2E2E2E2E2E2E2E2F5E2E2E2E2E22DE2E2E2E2E2E2E2E2E22DE2E2BEBEBEE2
310
E2E2E2E2E2E2E2E2E2E2E2E2E2E2E2E2DCE2BEE2E2E2E2E2E2E2E2E2E2E2E2E2E2E2E2E2E2E2E2E2E2E2E2E2E2E2E2E2E2E2E2E2E2E2E2E2E2E2E2E2E2E2E2E2E2E2E2E2E2E2E2E2E2E2E2E2E2E2E2E2E2E2E2E2E2E2E2E2E2E2E2E2E2E2E2E2E2E2E2E2E2E2E2E2E2E2E2E2E2E2E2E2E2E2E2E2E2E2E2E2E2E2E2E2E2E2E2
310
E2E2E2E2E2E2E2E2E2E2E2E2E2BEE2E2E2E2E2DCE2E2E2E2E2E2E2E2E2E2E2E2E2E2BEBEBEE2E2E2E2E2E2E2E2E2E2E2E2E2E2E2E2E2E2E2E2E2E2E2E2E2E2E2E2E2E2E2E2E2E2E2E2E2E2E2E2E2DCE2BEE2E2E2E2E2DCE2E2E2E2F52D2D2D2D2D2DBEBE2D2D2D2D2DDCF5E2E2E2E2E22DE2E2E2E2E2E2E2E22DE2E2E2E2E2
310
E2E2E2E2E2E2E2E2E2E2E2E2E2E2E2E2E2E2DCE2BEE2E2E2E2E2E2E2E2E2E2E2E2E2E2E2E2E2E2E2E2E2E2E2E2E2E2E2E2E2E2E2E2E2E2E2E2E2E2E2E2E2E2E2E2E2E2E2E2E2E2E2E2E2E2E2E2E2E2E2E2E2E2E2E2E2E2E2E2E2E2E2E2E2E2E2E2E2E2E2E2E2E2E2E2E2E2E2E2E2E2E2E2E2E2E2E2E2E2E2E2E2E2E2E2E2E2
310
E2E2E2E2E2E2E2E2E2E2E2E2E2E2E2BEE2E2E2E2E2DCE2E2E2E2E2E2E2E2E2E2E2E2E2E2E2E2E2E2E2E2E2E2E2E2E2E2E2E2E2E2E2E2E2E2E2E2E2E2E2E2E2E2E2E2E2E2E2E2E2E2E2E2E2E2E2E2E2E2DCE2BEE2E2E2E2E2DCE2E2E2E2F52DE2E2E2E2E2BEBEE2E2E2E2E22DF5E2E2E2E2E22DE2E2E2E2E2E2E2E22DE2E2E2
310
E2E2E2E2E2E2E2E2E2E2E2E2E2E2E2E2E2E2E2E2DCE2BEE2E2E2E2E2E2E2E2E2E2E2E2E2E2E2E2E2E2E2E2E2E2E2E2E2E2E2E2E2E2E2E2E2E2E2E2E2E2E2E2E2E2E2E2E2E2E2E2E2E2E2E2E2E2E2E2E2E2E2E2E2E2E2E2E2E2E2E2E2E2E2E2E2E2E2E2E2E2E2E2E2E2E2E2E2E2E2E2E2E2E2E2E2E2E2E2E2E2E2E2E2E2E2E2
310
E2E2E2E2E2E2E2E2E2E2E2E2E2E2E2E2E2BEE2E2E2E2E2DCE2E2E2E2E2E2E2E2E2E2E2E2E2E2E2E2E2E2E2E2E2E2E2E2E2E2E2E2E2E2E2E2E2E2E2E2E2E2E2E2E2E2E2E2E2E2E2E2E2E2E2E2E2E2E2E2E2E2DCE2BEE2E2E2E2E2DCE2E2E2E2F5DCE2E2E2E2E2E2E2E2E2E2E2E2DCF5E2E2E2E2E22DE2E2E2E2E2E2E22DE2E2
310
E2E2E2E2E2E2E2E2E2E2E2E2E2E2E2E2E2E2E2E2E2E2DCE2BEE2E2E2E2E2E2E2E2E2E2E2E2E2E2E2E2E2E2E2E2E2E2E2E2E2E2E2E2E2E2E2E2E2E2E2E2E2E2E2E2E2E2E2E2E2E2E2E2E2E2E2E2E2E2E2E2E2E2E2E2E2E2E2E2E2E2E2E2E2E2E2E2E2E2E2E2E2E2E2E2E2E2E2E2E2E2E2E2E2E2E2E2E2E2E2E2E2E2E2E2E2E2
310
E2E2E2E2E2E2E2E2E2E2E2E2E2E2E2E2E2E2E2BEE2E2E2E2E2DCE2E2E2E2E2E2E2E2E2E2E2E2E2E2E2E2E2E2E2E2E2E2E2E2E2E2E2E2E2E2E2E2E2E2E2E2E2E2E2E2E2E2E2E2E2E2E2E2E2E2E2E2E2E2E2E2E2E2DCE2BEE2E2E2E2E2DCE2E2E2E2DCBEF5F5F5F5F5F5F5F5F5F5F5F5BEDC2D2D2D2D2DDCE2E2E2E2E2E22D2D
310
E2E2E2E2E2E2E2E2E2E2E2E2E2E2E2E2E2E2E2E2E2E2E2E2DCE2BEE2E2E2E2E2E2E2E2E2E2E2E2E2E2E2E2E2E2E2E2E2E2E2E2E2E2E2E2E2E2E2E2E2E2E2E2E2E2E2E2E2E2E2E2E2E2E2E2E2E2E2E2E2E2E2E2E2E2E2E2E2E2E2E2E2E2E2E2E2E2E2E2E2E2E2E2E2E2E2E2E2E2E2E2E2E2E2E2E2E2E2E2E2E2E2E2E2E2E2E2
310
E2E2E2E2E2E2E2E2E2E2E2E2E2E2E2E2E2E2E2E2E2BEE2E2E2E2E2DCE2E2E2E2E2E2E2E2E2E2E2E2E2E2E2E2E2E2E2E2E2E2E2E2E2E2E2E2E2E2E2E2E2E2E2E2E2E2E2E2E2E2E2E2E2E2E2E2E2E2E2E2E2E2E2E2E2E2DCE2BEE2E2E2E2E2DCE2E2E2E22D2D2D2D2D2D2DBEBE2D2D2D2D2D2DDCE2E2E2E2E2E22D2D2D2D2DBE
310
2D2D2D2DDCE2E2E2E2E2E2E2E2E2E2E2E2E2E2E2E2E2E2E2E2E2DCE2BEE2E2E2E2E2E2E2E2E2E2E2E2E2E2E2E2E2E2E2E2E2E2E2E2E2E2E2E2E2E2E2E2E2E2E2E2E2E2E2E2E2E2E2E2E2E2E2E2E2E2E2E2E2E2E2E2E2E2E2E2E2E2E2E2E2E2E2E2E2E2E2E2E2E2E2E2E2E2E2E2E2E2E2E2E2E2E2E2E2E2E2E2E2E2E2E2E2E2
310
E2E2E2E2E2E2E2E2E2E2E2E2E2E2E2E2E2E2E2E2E2E2E2BEE2E2E2E2E2DCE2E2E2E2E2E2E2E2E2E2E2E2E2E2E2E2E2E2E2E2E2E2E2E2E2E2E2E2E2E2E2E2E2E2E2E2E2E2E2E2E2E2E2E2E2E2E2E2E2E2E2E2E2BEBE2DE2E2DCE2BEE2E2E2E2E2DCE2E2E2E2E2E2E2E2E2E2E2BEBEE2E2E2E2E2E2E2E2E2E2E2E22D2DE2E2E2
310
E2BEE2E2E2E22DE2E2E2E2E2E2E2E2E2E2E2E2E2E2E2E2E2E2E2BEBEDCE2BEE2E2E2E2E2E2E2E2E2E2E2E2E2E2E2E2E2E2E2E2E2E2E2E2E2E2E2E2E2E2E2E2E2E2E2E2E2E2E2E2E2E2E2E2E2E2E2E2E2E2E2E2E2E2E2E2E2E2E2E2E2E2E2E2E2E2E2E2E2E2E2E2E2E2E2E2E2E2E2E2E2E2E2E2E2E2E2E2E2E2E2E2E2E2E2E2
310
E2E2E2E2E2E2E2E2E2E2E2E2E2E2E2E2E2E2E2E2E2E2E2E2E2BEE2E2E2E2E2DCE2E2E2E2E228282828282828282828282828282828282828DC2D2D2DDC2D2DE2F5F5F5F5F5F5F5F5F5F5F5F5F5F5F5F5F5F5F5F5F52D2DF5E2E2DCE2BEE2E2E2E2E2DCE2E2F5F5F5F5F5F5F5F5F5F5F5F5F5F5F5F5F5F5F5F52D2DE2DCDCF5
310
F5F5F5F5F5F5F5F5DCF5F5F5F5F5F5F5F5F5F5F5F5F5F5F5F5F5F5F5F5F5DCE2BEE2E2E2E2E2E2E2E2E2E2E2E2E2E2E2E2E2E2E2E2E2E2E2E2E2E2E2E2E2E2E2E2E2E2E2E2E2E2E2E2E2E2E2E2E2E2E2E2E2E2E2E2E2E2E2E2E2E2E2E2E2E2E2E2E2E2E2E2E2E2E2E2E2E2E2E2E2E2E2E2E2E2E2E2E2E2E2E2E2E2E2E2E2E2
310
E2E2E2E2E2E2E2E2E2E2E2E2E2E2E2E2E2E2E2E2E2E2E2E2E2E2E2BEE2E2E2E2E2DCE2E2E2E2E22828282828282828282828282828282828282828E2E22D2DE22DE22828282828282828282828282828282828282828F5E2E22DE2E2DCE2BEE2E2E2E2E2DCE2E2F5282828282828282828282828282828282828F52DE2BEBE
310
F5E2E2E2E2E2E2E2E2E2F528282828282828282828282828282828282828F52DDCE2BEE2E2E2E2E2E2E2E2E2E2E2E2E2E2E2E2E2E2E2E2E2E2E2E2E2E2E2E2E2E2E2E2E2E2E2E2E2E2E2E2E2E2E2E2E2E2E2E2E2E2E2E2E2E2E2E2E2E2E2E2E2E2E2E2E2E2E2E2E2E2E2E2E2E2E2E2E2E2E2E2E2E2E2E2E2E2E2E2E2E2E2E2
310
E2E2E2E2E2E2E2E2E2E2E2E2E2E2E2E2E2E2E2E2E2E2E2E2E2E2E2E2E2BEE2E2E2E2E2DCE2E2E2E2E228E2282828282828282828282828282828282828E2E2BEBEE22DE2F528282828282828282828282828282828282828F5E2E22DE2E2DCE2BEE2E2E2E2E2DCE2E2F5282828282828282828282828282828282828F52DE2
310
BEBEF5E2E2E2E2E2E2E2BEF52DBE2828282828282828282828282828282828F5F52DDCE2BEE2E2E2E2E2E2E2E2E2E2E2E2E2E2E2E2E2E2E2E2E2E2E2E2E2E2E2E2E2E2E2E2E2E2E2E2E2E2E2E2E2E2E2E2E2E2E2E2E2E2E2E2E2E2E2E2E2E2E2E2E2E2E2E2E2E2E2E2E2E2E2E2E2E2E2E2E2E2E2E2E2E2E2E2E2E2E2E2E2E2
310
E2E2E2E2E2E2E2E2E2E2E2E2E2E2E2E2E2E2E2E2E2E2E2E2E2E2E2E2E2E2E2BEE2E2E2E2E2DCE2E2E2E2E22828282828282828282828282828282828282828E2E22D2DE22DE2F528282828282828282828282828282828282828F5E2E22DE2E2DCE2BEE2E2E2E2E2DCE2E2F52828282828282828282828282828282828BEF5
310
2DE2E22DDCBEE2E2E2E2E2E2E2E2F5282828282828282828282828282828282828F5F52DDCE2BEE2E2E2E2E2E2E2E2E2E2E2E2E2E2E2E2E2E2E2E2E2E2E2E2E2E2E2E2E2E2E2E2E2E2E2E2E2E2E2E2E2E2E2E2E2E2E2E2E2E2E2E2E2E2E2E2E2E2E2E2E2E2E2E2E2E2E2E2E2E2E2E2E2E2E2E2E2E2E2E2E2E2E2E2E2E2E2E2
310
E2E2E2E2E2E2E2E2E2E2E2E2E2E2E2E2E2E2E2E2E2E2E2E2E2E2E2E2E2E2E2E2E2BEE2E2E2E2E2DCE2E2E2E2E228E2BEBE28E2E228E2E228E2E228E2E228BEDC2D2D2D2D2D2D2DE2F528E22828E2E228E2E228E2E228E2E228E2E228F5E2E22DE2E2DCE2BEE2E2E2E2E2DCE2E2F528BE28E2E228E2E22828E2E228E2E228BE
310
28F52DE2E22DF5E2E2E2E2E2E2E2E2E2F528E228E2E228E2E228E2E22828E22828E228F5F52DDCE2BEE2E2E2E2E2E2E2E2E2E2E2E2E2E2E2E2E2E2E2E2E2E2E2E2E2E2E2E2E2E2E2E2E2E2E2E2E2E2E2E2E2E2E2E2E2E2E2E2E2E2E2E2E2E2E2E2E2E2E2E2E2E2E2E2E2E2E2E2E2E2E2E2E2E2E2E2E2E2E2E2E2E2E2E2E2E2
310
E2E2E2E2E2E2E2E2E2E2E2E2E2E2E2E2E2E2E2E2E2E2E2E2E2E2E2E2E2E2E2E2E2E2E2BEE2E2E2E2E2DCE2E2E2E2E228E2282828E2E228E2E228E2E228E2E228E22828E2E22D2DE22DE2F528E22828E2E228E2E228E2E228E2E228E2E228F5E2E22DE2E2DCE2BEE2E2E2E2E2DCE2E2F5282828E2E228E2E22828E2E228E2E2
310
282828F52DE2E22DF5E2E2E2E2E2E2E2E2E2F528E228E2E228E2E228E2E22828E22828E228F5F52DDCE2BEE2E2E2E2E2E2E2E2E2E2E2E2E2E2E2E2E2E2E2E2E2E2E2E2E2E2E2E2E2E2E2E2E2E2E2E2E2E2E2E2E2E2E2E2E2E2E2E2E2E2E2E2E2E2E2E2E2E2E2E2E2E2E2E2E2E2E2E2E2E2E2E2E2E2E2E2E2E2E2E2E2E2E2E2
310
E2E2E2E2E2E2E2E2E2E2E2E2E2E2E2E2E2E2E2E2E2E2E2E2E2E2E2E2E2E2E2E2E2E2E2E2E2BEE2E2E2E2E2DCE2E2E2E2E22828282828282828282828282828282828282828E2E22D2DE22DE2F528282828282828282828282828282828282828F5E2E22DE2E2DCE2BEE2E2E2E2E2DCE2E2F528282828282828282828282828
310
2828282828F52DE2E22DF5E2E2E2E2E2E2E2E2E2F5282828282828282828282828282828282828F5F52DDCE2BEE2E2E2E2E2E2E2E2E2E2E2E2E2E2E2E2E2E2E2E2E2E2E2E2E2E2E2E2E2E2E2E2E2E2E2E2E2E2E2E2E2E2E2E2E2E2E2E2E2E2E2E2E2E2E2E2E2E2E2E2E2E2E2E2E2E2E2E2E2E2E2E2E2E2E2E2E2E2E2E2E2E2
310
E2E2E2E2E2E2E2E2E2E2E2E2E2E2E2E2E2E2E2E2E2E2E2E2E2E2E2E2E2E2E2E2E2E2E2E2E2E2E2BEE2E2E2E2E2DCE2E2E2E2E228E2282828E2E228E2E228E2E228E2E228E22828E2BE2D2DE22DE2F528E22828E2E228E2E228E2E228E2E228E2E228F5E2E22DE2E2DCE2BEE2E2E2E2E2DCE2E2F5282828E2E228E2E22828E2
310
E228E2E2282828F52DE2E22DF5E2E2E2E2E2E2E2E2E2F528E228E2E228E2E228E2E22828E22828E228F5F52DDCE2BEE2E2E2E2E2E2E2E2E2E2E2E2E2E2E2E2E2E2E2E2E2E2E2E2E2E2E2E2E2E2E2E2E2E2E2E2E2E2E2E2E2E2E2E2E2E2E2E2E2E2E2E2E2E2E2E2E2E2E2E2E2E2E2E2E2E2E2E2E2E2E2E2E2E2E2E2E2E2E2E2
310
E2E2E2E2E2E2E2E2E2E2E2E2E2E2E2E2E2E2E2E2E2E2E2E2E2E2E2E2E2E2E2E2E2E2E2E2E2E2E2E2E2BEE2E2E2E2E2DCE2E2E2E2E228E2282828E2E228E2E228E2E228E2E228E22828E2BE2D2DE22DE2F528E22828E2E228E2E228E2E228E2E228E2E228F5E2E22DE2E2DCE2BEE2E2E2E2E2DCE2E2F5282828E2E228E2E228
310
28E2E228E2E2282828F52DE2BEBEF5E2E2E2E2E2E2E2E2E2F528E228E2E228E2E228E2E22828E22828E228F5F52DDCE2BEE2E2E2E2E2E2E2E2E2E2E2E2E2E2E2E2E2E2E2E2E2E2E2E2E2E2E2E2E2E2E2E2E2E2E2E2E2E2E2E2E2E2E2E2E2E2E2E2E2E2E2E2E2E2E2E2E2E2E2E2E2E2E2E2E2E2E2E2E2E2E2E2E2E2E2E2E2E2
310
E2E2E2E2E2E2E2E2E2E2E2E2E2E2E2E2E2E2E2E2E2E2E2E2E2E2E2E2E2E2E2E2E2E2E2E2E2E2E2E2E2E2E2BEE2E2E2E2E2DCE2E2E2E2E22828282828282828282828282828282828282828E2E22D2DE22DE2F528282828282828282828282828282828282828F5E2E22DE2E2DCE2BEE2E2E2E2E2DCE2E2F528282828282828
310
2828282828282828282828F52DE2BEBEF5E2E2E2E2E2E2E2E2E2F5282828282828282828282828282828282828F5F52DDCE2BEE2E2E2E2E2E2E2E2E2E2E2E2E2E2E2E2E2E2E2E2E2E2E2E2E2E2E2E2E2E2E2E2E2E2E2E2E2E2E2E2E2E2E2E2E2E2E2E2E2E2E2E2E2E2E2E2E2E2E2E2E2E2E2E2E2E2E2E2E2E2E2E2E2E2E2E2
310
E2E2E2E2E2E2E2E2E2E2E2E2E2E2E2E2E2E2E2E2E2E2E2E2E2E2E2E2E2E2E2E2E2E2E2E2E2E2E2E2E2E2E2E2E2BEE2E2E2E2E2DCE2E2E2E2E228E2282828E2E228E2E228E2E228E2E228E22828E2E22D2DE22DE2F528E22828E2E228E2E228E2E228E2E228E2E228F5E2E22DE2E2DCE2BEE2E2E2E2E2DCE2E2F5282828E2E2
310
28E2E22828E2E228E2E2282828F52DE2E22DF5E2E2E2E2E2E2E2E2E2F528E228E2E228E2E228E2E22828E22828E228F5F52DDCE2BEE2E2E2E2E2E2E2E2E2E2E2E2E2E2E2E2E2E2E2E2E2E2E2E2E2E2E2E2E2E2E2E2E2E2E2E2E2E2E2E2E2E2E2E2E2E2E2E2E2E2E2E2E2E2E2E2E2E2E2E2E2E2E2E2E2E2E2E2E2E2E2E2E2E2
310
E2E2E2E2E2E2E2E2E2E2E2E2E2E2E2E2E2E2E2E2E2E2E2E2E2E2E2E2E2E2E2E2E2E2E2E2E2E2E2E2E2E2E2E2E2E2E2BEE2E2E2E2E2DCE2E2E2E2E228E2282828E2E228E2E228E2E228E2E228E22828E2E22D2DE22DE2F528E22828E2E228E2E228E2E228E2E228E2E228F5E2E22DE2E2DCE2BEE2E2E2E2E2DCE2E2F5282828
310
E2E228E2E22828E2E228E2E2282828F52DE2E22DF5E2E2E2E2E2E2E2E2E2F528E228E2E228E2E228E2E22828E22828E228F5F52DDCE2BEE2E2E2E2E2E2E2E2E2E2E2E2E2E2E2E2E2E2E2E2E2E2E2E2E2E2E2E2E2E2E2E2E2E2E2E2E2E2E2E2E2E2E2E2E2E2E2E2E2E2E2E2E2E2E2E2E2E2E2E2E2E2E2E2E2E2E2E2E2E2E2E2
310
E2E2E2E2E2E2E2E2E2E2E2E2E2E2E2E2E2E2E2E2E2E2E2E2E2E2E2E2E2E2E2E2E2E2E2E2E2E2E2E2E2E2E2E2E2E2E2E2E2BEE2E2E2E2E2DCE2E2E2E2E22828282828282828282828282828282828282828E2E22D2DE22DE2F528282828282828282828282828282828282828F5E2E22DE2E2DCE2BEE2E2E2E2E2DCE2E2F528
310
2828282828282828282828282828282828F52DE2E22DF5E2E2E2E2E2E2E2E2E2F5282828282828282828282828282828282828F5F52DDCE2BEE2E2E2E2E2E2E2E2E2E2E2E2E2E2E2E2E2E2E2E2E2E2E2E2E2E2E2E2E2E2E2E2E2E2E2E2E2E2E2E2E2E2E2E2E2E2E2E2E2E2E2E2E2E2E2E2E2E2E2E2E2E2E2E2E2E2E2E2E2E2
310
E2E2E2E2E2E2E2E2E2E2E2E2E2E2E2E2E2E2E2E2E2E2E2E2E2E2E2E2E2E2E2E2E2E2E2E2E2E2E2E2E2E2E2E2E2E2E2E2E2E2E2BEE2E2E2E2E2DCE2E2E2E2E22828282828282828282828282828282828282828E2E22D2DE22DE2F528282828282828282828282828282828282828F5E2E22DE2E2DCE2BEE2E2E2E2E2DCE2E2
310
F5282828282828282828282828282828282828F52DE2E22DF5E2E2E2E2E2E2E2E2E2F5282828282828282828282828282828282828F5F52DDCE2BEE2E2E2E2E2E2E2E2E2E2E2E2E2E2E2E2E2E2E2E2E2E2E2E2E2E2E2E2E2E2E2E2E2E2E2E2E2E2E2E2E2E2E2E2E2E2E2E2E2E2E2E2E2E2E2E2E2E2E2E2E2E2E2E2E2E2E2E2
310
E2E2E2E2E2E2E2E2E2E2E2E2E2E2E2E2E2E2E2E2E2E2E2E2E2E2E2E2E2E2E2E2E2E2E2E2E2E2E2E2E2E2E2E2E2E2E2E2E2E2E2E2E2BEE2E2E2E2E2DCE2E2E2E2E228E2282828E2E228E2E228E2E228E2E228F52828E2E2BEBEBEBEE2F528E22828E2E228E2E228E2E228E2E228E2E228F5F5BEBEE2E2DCE2BEE2E2E2E2E2DC
310
E2E2F5282828E2E228E2E22828E2E228E2E228282828BEE2E22DF5E2E2E2E2E2E2E2E2E2F528E228E2E228E2E228E2E22828E22828E22828F5BEDCE2BEE2E2E2E2E2E2E2E2E2E2E2E2E2E2E2E2E2E2E2E2E2E2E2E2E2E2E2E2E2E2E2E2E2E2E2E2E2E2E2E2E2E2E2E2E2E2E2E2E2E2E2E2E2E2E2E2E2E2E2E2E2E2E2E2E2E2
310
E2E2E2E2E2E2E2E2E2E2E2E2E2E2E2E2E2E2E2E2E2E2E2E2E2E2E2E2E2E2E2E2E2E2E2E2E2E2E2E2E2E2E2E2E2E2E2E2E2E2E2E2E2E2E2BEE2E2E2E2E2DCE2E2E2E2E228E2282828E2E228E2E228E2E228E2E228BE28282D2DBEBEBEBEE2F528E22828E2E228E2E228E2E228E2E228E2E228BEBEBEBEE2E2DCE2BEE2E2E2E2
310
E2DCE2E2F5282828E2E228E2E22828E2E228E2E2282828BEBEE2E22DDCBEE2E2E2E2E2E2E2E2F528E228E2E228E2E228E2E22828E22828E228BEF5BEDCE2BEE2E2E2E2E2E2E2E2E2E2E2E2E2E2E2E2E2E2E2E2E2E2E2E2E2E2E2E2E2E2E2E2E2E2E2E2E2E2E2E2E2E2E2E2E2E2E2E2E2E2E2E2E2E2E2E2E2E2E2E2E2E2E2E2
310
E2E2E2E2E2E2E2E2E2E2E2E2E2E2E2E2E2E2E2E2E2E2E2E2E2E2E2E2E2E2E2E2E2E2E2E2E2E2E2E2E2E2E2E2E2E2E2E2E2E2E2E2E2E2E2E2E2BEE2E2E2E2E2DCE2E2E2E2E22828282828282828282828282828282828282828E2E2E22DE22DE2F528282828282828282828282828282828282828F5E2E22DE2E2DCE2BEE2E2
310
E2E2E2DCE2E2F5282828282828282828282828282828282828F52DE2E22DF5E2E2E2E2E2E2E2E2E2F5282828282828282828282828282828282828F5F52DDCE2BEE2E2E2E2E2E2E2E2E2E2E2E2E2E2E2E2E2E2E2E2E2E2E2E2E2E2E2E2E2E2E2E2E2E2E2E2E2E2E2E2E2E2E2E2E2E2E2E2E2E2E2E2E2E2E2E2E2E2E2E2E2E2
310
E2E2E2E2E2E2E2E2E2E2E2E2E2E2E2E2E2E2E2E2E2E2E2E2E2E2E2E2E2E2E2E2E2E2E2E2E2E2E2E2E2E2E2E2E2E2E2E2E2E2E2E2E2E2E2E2E2E2E2BEE2E2E2E2E2DCE2E2E2E2E228E2E2E2E2E2E2E2E2E2E2E2E2E2E2E2E2E2E228E2E2E22DE22DE2F5E2E2E2E2E2E2E2E2E2E2E2E2E2E2E2E2E2E2E2F5E2E22DE2E2DCE2BE
310
E2E2E2E2E2DCE2E2F5E2E2E2E2E2E2E2E2E2E2E2E2E2E2E2E2E2E2F52DE2E22DF5E2E2E2E2E2E2E2E2E2F5E2E2E2E2E2E2E2E2E2E2E2E2E2E2E2E2E2E2F5F52DDCE2BEE2E2E2E2E2E2E2E2E2E2E2E2E2E2E2E2E2E2E2E2E2E2E2E2E2E2E2E2E2E2E2E2E2E2E2E2E2E2E2E2E2E2E2E2E2E2E2E2E2E2E2E2E2E2E2E2E2E2E2E2
310
E2E2E2E2E2E2E2E2E2E2E2E2E2E2E2E2E2E2E2E2E2E2E2E2E2E2E2E2E2E2E2E2E2E2E2E2E2E2E2E2E2E2E2E2E2E2E2E2E2E2E2E2E2E2E2E2E2E2E2E2E2BEE2E2E2E2E2DCE2E2E2E2E228E2E2E2E2E2E2E2E2E2E2E2E2E2E2E2E2E2E228E2E2E22DE22DE2F5E2E2E2E2E2E2E2E2E2E2E2E2E2E2E2E2E22828F5E2E22DE2E2DC
310
E2BEE2E2E2E2E2DCE2E2F5E2E2E2E2E2E2E2E2E2E2E2E2E2E2E2E2E2E2F52DE2E22DF5E2E2E2E2E2E2E2E2E2F5E2E2E2E2E2E2E2E2E2E2E2E2E2E2E2E2282828F52DDCE2BEE2E2E2E2E2E2E2E2E2E2E2E2E2E2E2E2E2E2E2E2E2E2E2E2E2E2E2E2E2E2E2E2E2E2E2E2E2E2E2E2E2E2E2E2E2E2E2E2E2E2E2E2E2E2E2E2E2E2
310
E2E2E2E2E2E2E2E2E2E2E2E2E2E2E2E2E2E2E2E2E2E2E2E2E2E2E2E2E2E2E2E2E2E2E2E2E2E2E2E2E2E2E2E2E2E2E2E2E2E2E2E2E2E2E2E2E2E2E2E2E2E2E2BEE2E2E2E2E2DCE2E2E2E2E228E2E2E2E2E2E2E2E2E2E2E2E2E2E2E2E2E2E228E2E2E22DE22DE2F5E2E2E2E2E2E2E2E2E2E2E2E2E2E2E2E2E2E2E2F5E2E22DE2
310
E2DCE2BEE2E2E2E2E2DCE2E2F5E2E2E2E2E2E2E2E2E2E2E2E2E2E2E2E2E2E2F52DE2E22DF5E2E2E2E2E2E2E2E2E2F5E2E2E2E2E2E2E2E2E2E2E2E2E2E2E2E2E2E228F52DDCE2BEE2E2E2E2E2E2E2E2E2E2E2E2E2E2E2E2E2E2E2E2E2E2E2E2E2E2E2E2E2E2E2E2E2E2E2E2E2E2E2E2E2E2E2E2E2E2E2E2E2E2E2E2E2E2E2E2
310
E2E2E2E2E2E2E2E2E2E2E2E2E2E2E2E2E2E2E2E2E2E2E2E2E2E2E2E2E2E2E2E2E2E2E2E2E2E2E2E2E2E2E2E2E2E2E2E2E2E2E2E2E2E2E2E2E2E2E2E2E2E2E2E2E2BEE2E2E2E2E2DCE2E2E2F52D282DF5F5F5F5F5F5F5F5F5F5F5F5F5F5F5F5F528E2E2E22DE22DE2F5E2E2E2E2E2E2E2E2E2E2E2E2E2E2E2E2E2E228F5E2E2
310
2DE2E2DCE2BEE2E2E2E2E2DC2DF5F52DF5F5F5F5F5F5F5F5F5F5F5F5F5F5F5F5E2F52DE2BEBEF5E2E2E2E2E2E2E2E2E2F5E2E2E2E2E2E2E2E2E2E2E2E2E2E2E2E2E22828F52DDCE2BEE2E2E2E2E2E2E2E2E2E2E2E2E2E2E2E2E2E2E2E2E2E2E2E2E2E2E2E2E2E2E2E2E2E2E2E2E2E2E2E2E2E2E2E2E2E2E2E2E2E2E2E2E2E2
310
E2E2E2E2E2E2E2E2E2E2E2E2E2E2E2E2E2E2E2E2E2E2E2E2E2E2E2E2E2E2E2E2E2E2E2E2E2E2E2E2E2E2E2E2E2E2E2E2E2E2E2E2E2E2E2E2E2E2E2E2E2E2E2E2E2E2E2BEE2E2E2E2E2DCE2E2E22DE228E2F5E2E2E2E2E2E2E2E2E2E2E2E2E2E2E2F528E2E2E22DE22DE2F5E2E2E2E2E2E2E2E2E2E2E2E2E2E2E2E2E2E2E2F5
310
E2E22DE2E2DCE2BEE2E2E2E2E2DCE22DF5E2F5E2E2E2E2E2E2E2E2E2E2E2E2E2E2F5E2F52DE2BEBEF5E2E2E2E2E2E2E2E2E2F5E2E2E2E2E2E2E2E2E2E2E2E2E2E2E2E2E2E2F5F52DDCE2BEE2E2E2E2E2E2E2E2E2E2E2E2E2E2E2E2E2E2E2E2E2E2E2E2E2E2E2E2E2E2E2E2E2E2E2E2E2E2E2E2E2E2E2E2E2E2E2E2E2E2E2E2
310
E2E2E2E2E2E2E2E2E2E2E2E2E2E2E2E2E2E2E2E2E2E2E2E2E2E2E2E2E2E2E2E2E2E2E2E2E2E2E2E2E2E2E2E2E2E2E2E2E2E2E2E2E2E2E2E2E2E2E2E2E2E2E2E2E2E2E2E2E2BEE2E2E2E2E2DCE2E2E22DE228E2F5E2E2E2E2E2E2E2E2E2E2E2E2E2E2E2F528E2E2E22DE22DE2F5E2E2E2E2E2E2E2E2E2E2E2E2E2E2E2E2E2E2
310
E2F5E2E22DE2E2DCE2BEE2E2E2E2E2DCE22DF5E2F5E2E2E2E2E2E2E2E2E2E2E2E2E2E2F5E2F52DE2E22DF5E2E2E2E2E2E2E2E2E2F5E2E2E2E2E2E2E2E2E2E2E2E2E2E2E2E2E2E2F5F52DDCE2BEE2E2E2E2E2E2E2E2E2E2E2E2E2E2E2E2E2E2E2E2E2E2E2E2E2E2E2E2E2E2E2E2E2E2E2E2E2E2E2E2E2E2E2E2E2E2E2E2E2E2
310
E2E2E2E2E2E2E2E2E2E2E2E2E2E2E2E2E2E2E2E2E2E2E2E2E2E2E2E2E2E2E2E2E2E2E2E2E2E2E2E2E2E2E2E2E2E2E2E2E2E2E2E2E2E2E2E2E2E2E2E2E2E2E2E2E2E2E2E2E2E2E2BEE2E2E2E2E2DCE2E2BEBEE228E2F5E2E2E2E2E2E2E2E2E2E2E2E2BEBE2D2DDC2D2DE22DE22DE2F5E2E2E2E2E2E2E2E2E2E2E2E2E2E2E2E2
310
E2E2E2F5E2E22DE2E2DCE2BEE2E2E2E2E2DCBE2DF5E2F5E2E2E2E2E2E2E2E2E2E2E2E2E2E2F5E2F52DE2E22DF5E2E2E2E2E2E2E2E2E2F5E2E2E2E2E2E2E2E2E2E2E2E2E2E2E2E2E2E2F5F52DDCE2BEE2E2E2E2E2E2E2E2E2E2E2E2E2E2E2E2E2E2E2E2E2E2E2E2E2E2E2E2E2E2E2E2E2E2E2E2E2E2E2E2E2E2E2E2E2E2E2E2
310
E2E2E2E2E2E2E2E2E2E2E2E2E2E2E2E2E2E2E2E2E2E2E2E2E2E2E2E2E2E2E2E2E2E2E2E2E2E2E2E2E2E2E2E2E2E2E2E2E2E2E2E2E2E2E2E2E2E2E2E2E2E2E2E2E2E2E2E2E2E2E2E2E2BEE2E2E2E2E2DCE2E2BEBEE228E2BEE2E2E2E2E2E2E2E2E2E2E2E2BEBEDCF5DCE2E2E22DE22DE2F5E2E2E2E2E2E2E2E2E2E2E2E2E2E2
310
E2E2E2E2E2F5E2E22DE2E2DCE2BEE2E2E2E2E2DCBE2DF5E2BEE2E2E2E2E2E2E2E2E2E2E2E2E2E2BEE2F52DE2E22DF5E2E2E2E2E2E2E2E2E2F5E2E2E2E2E2E2E2E2E2E2E2E2E2E2E2E2E2E2F5F52DDCE2BEE2E2E2E2E2E2E2E2E2E2E2E2E2E2E2E2E2E2E2E2E2E2E2E2E2E2E2E2E2E2E2E2E2E2E2E2E2E2E2E2E2E2E2E2E2E2
310
E2E2E2E2E2E2E2E2E2E2E2E2E2E2E2E2E2E2E2E2E2E2E2E2E2E2E2E2E2E2E2E2E2E2E2E2E2E2E2E2E2E2E2E2E2E2E2E2E2E2E2E2E2E2E2E2E2E2E2E2E2E2E2E2E2E2E2E2E2E2E2E2E2E2E2BEE2E2E2E2E2DCE2E2E22DE228E22828E2E2E2E2E2E228E2E2E2E2E2E2282828E2E2E22DE22DE2F5E2E2E2E2E2E2E2E2E2E2E2E2
310
E2E2E2E2E2E2E2F5E2E22DE2E2DCE2BEE2E2E2E2E2DCE22DF5E228E2E2E2E2E2E22828E2E2E2E2E2E228BEF52DE2E22DF5E2E2E2E2E2E2E2E2E2F5E2E2E2E2E2E2E2E2E2E2E2E2E2E2E2E2E2E2F5F52DDCE2BEE2E2E2E2E2E2E2E2E2E2E2E2E2E2E2E2E2E2E2E2E2E2E2E2E2E2E2E2E2E2E2E2E2E2E2E2E2E2E2E2E2E2E2E2
310
E2E2E2E2E2E2E2E2E2E2E2E2E2E2E2E2E2E2E2E2E2E2E2E2E2E2E2E2E2E2E2E2E2E2E2E2E2E2E2E2E2E2E2E2E2E2E2E2E2E2E2E2E2E2E2E2E2E2E2E2E2E2E2E2E2E2E2E2E2E2E2E2E2E2E2E2E2BEE2E2E2E2E2DCE2E2E22DE228E2BEBEE2E2E2E2E2E2E2E2E2E2E2E22DDCDC2D2D2D2D2D2D2DE2F5E2E2E2E2E2E2E2E2E2E2
310
E2E2E2E2E2E2E2E2E2F5E2E22DE2E2DCE2BEE2E2E2E2E2DCE22DF5E2BEE2E2E2E2E2E2E2E2E2E2E2E2E2E2BEE2F52DE2E22DF5E2E2E2E2E2E2E2E2E2F5E2E2E2E2E2E2E2E2E2E2E2E2E2E2E2E2E2E2F5F52DDCE2BEE2E2E2E2E2E2E2E2E2E2E2E2E2E2E2E2E2E2E2E2E2E2E2E2E2E2E2E2E2E2E2E2E2E2E2E2E2E2E2E2E2E2
310
E2E2E2E2E2E2E2E2E2E2E2E2E2E2E2E2E2E2E2E2E2E2E2E2E2E2E2E2E2E2E2E2E2E2E2E2E2E2E2E2E2E2E2E2E2E2E2E2E2E2E2E2E2E2E2E2E2E2E2E2E2E2E2E2E2E2E2E2E2E2E2E2E2E2E2E2E2E2E2BEE2E2E2E2E2DCE2E2E22D2D282DF5F5F5F5F5F5F5F5F5F5F5F5F5F5F5BEBE28E2E2BEBEE22DE2F5E2E2E2E2E2E2E2E2
310
E2E2E2E2E2E2E2E2E2E2E2F5E2E22DE2E2DCE2BEE2E2E2E2E2DC2D2DF52DF5F5F5F5F5F5F5F5F5F5F5F5F5F5F5F5E2F52DE2BE2DDCBEE2E2E2E2E2E2BEF52DBEE2E2E2E2E2E2E2E2E2E2E2E2E2E2E2E2E2F5F52DDCE2BEE2E2E2E2E2E2E2E2E2E2E2E2E2E2E2E2E2E2E2E2E2E2E2E2E2E2E2E2E2E2E2E2E2E2E2E2E2E2E2E2
310
E2E2E2E2E2E2E2E2E2E2E2E2E2E2E2E2E2E2E2E2E2E2E2E2E2E2E2E2E2E2E2E2E2E2E2E2E2E2E2E2E2E2E2E2E2E2E2E2E2E2E2E2E2E2E2E2E2E2E2E2E2E2E2E2E2E2E2E2E2E2E2E2E2E2E2E2E2E2E2E2E2BEE2E2E2E2E2DCE2E2E22DE228E22DE2E2E2E2E2E2E2E2E2E2E2E2E2E2E22D28E2E2BEBEE22DE2F5E2E2E2E2E2E2
310
E2E2E2E2E2E2E2E2E2E2E2E2E2F5E2E22DE2E2DCE2BEE2E2E2E2E2DCE22DF5E22DE2E2E2E2E2E2E2E2E2E2E2E2E2E22DE2F52DE2BEBEF5E2E2E2E2E2E2E2E2F52DE2E2E2E2E2E2E2E2E2E2E2E2E2E2E2E2E2E2F5F52DDCE2BEE2E2E2E2E2E2E2E2E2E2E2E2E2E2E2E2E2E2E2E2E2E2E2E2E2E2E2E2E2E2E2E2E2E2E2E2E2E2
310
E2E2E2E2E2E2E2E2E2E2E2E2E2E2E2E2E2E2E2E2E2E2E2E2E2E2E2E2E2E2E2E2E2E2E2E2E2E2E2E2E2E2E2E2E2E2E2E2E2E2E2E2E2E2E2E2E2E2E2E2E2E2E2E2E2E2E2E2E2E2E2E2E2E2E2E2E2E2E2E2E2E2E2BEE2E2E2E2E2DCE2E2E22D2D2828282828282828282828282828282828282828DC2D2D2D2DDCE2F5F5F5F5F5
310
F5F5F5F5F5F5F5F5F5F5F5F5F5F5F5F52D2DF5E2E2DCE2BEE2E2E2E2E2DC2D2DF5F52DF5F5F5F5F5F5F5F5F5F5F5F5F5F52DF5F5DC2DE22DDCF5F5F5F5F5F5F5F5F5F5F5F5F5F5F5F5F5F5F5F5F5F5F5F5F5F5F5F5F5F5F5DCE2BEE2E2E2E2E2E2E2E2E2E2E2E2E2E2E2E2E2E2E2E2E2E2E2E2E2E2E2E2E2E2E2E2E2E2E2E2
310
E2E2E2E2E2E2E2E2E2E2E2E2E2E2E2E2E2E2E2E2E2E2E2E2E2E2E2E2E2E2E2E2E2E2E2E2E2E2E2E2E2E2E2E2E2E2E2E2E2E2E2E2E2E2E2E2E2E2E2E2E2E2E2E2E2E2E2E2E2E2E2E2E2E2E2E2E2E2E2E2E2E2E2E2E2BEE2E2E2E2E2DCE2BEBE2DE22DE22DE2E2E2E2E2E2E2E2E2E2E2E2E2E2E22D2DE2E2E2E2E2E2E22DE2E2
310
E2E2E2E2E2E2E2E2E2E2E2E2E2E2E2E2E22DBEBE2DE2E2DCE2BEE2E2E2E2E2DCBE2D2DE22DE2E2E2E2E2E2E2E2E2E2E2E2E2E22DE22DE2E2E22DE2E2E2E2E2E2E2E2E2E22DE2E2E2E2E2E2E2E2E2E2E2E2E2E2E2E2E2E22DBE2DDCE2BEE2E2E2E2E2E2E2E2E2E2E2E2E2E2E2E2E2E2E2E2E2E2E2E2E2E2E2E2E2E2E2E2E2E2
310
E2E2E2E2E2E2E2E2E2E2E2E2E2E2E2E2E2E2E2E2E2E2E2E2E2E2E2E2E2E2E2E2E2E2E2E2E2E2E2E2E2E2E2E2E2E2E2E2E2E2E2E2E2E2E2E2E2E2E2E2E2E2E2E2E2E2E2E2E2E2E2E2E2E2E2E2E2E2E2E2E2E2E2E2E2E2E2BEE2E2E2E2E2DCE2BEBEE2E22DE22DE2E2E2E2E2E2E2E2E2E2E2E2E2E2E22D2DE2E2E2E2E2E2E22D
310
E2E2E2E2E2E2E2E2E2E2E2E2E2E2E2E2E2E2E22DE2E2E2E2E2DCE2BEE2E2E2E2E2DCBEBE2DE22DE2E2E2E2E2E2E2E2E2E2E2E2E2E22DE22DE2E2E2E2E2E2E2E2E2E2E2E2E2E22DE2E2E2E2E2E2E2E2E2E2E2E2E2E2E2E2E2E22D2DE2DCE2BEE2E2E2E2E2E2E2E2E2E2E2E2E2E2E2E2E2E2E2E2E2E2E2E2E2E2E2E2E2E2E2E2
310
E2E2E2E2E2E2E2E2E2E2E2E2E2E2E2E2E2E2E2E2E2E2E2E2E2E2E2E2E2E2E2E2E2E2E2E2E2E2E2E2E2E2E2E2E2E2E2E2E2E2E2E2E2E2E2E2E2E2E2E2E2E2E2E2E2E2E2E2E2E2E2E2E2E2E2E2E2E2E2E2E2E2E2E2E2E2E2E2E2BEE2E2E2E2E2DCE2E2E2E22D2D2DF52D2D2D2D2D2DBEBEBE2D2D2D2D2D2D2D2D2D2DE2E2E2E2
310
E22D2D2D2D2D2D2D2D2DBEBEBE2D2D2D2D2D2D2D2DF52D2DE2E2E2DCE2BEE2E2E2E2E2DCBE2D2D2DF52D2D2D2D2D2DBEBE2D2D2D2D2D2D2D2DF52D2DE2E2E2E2E2E2E2E2E2E2E2E22D2D2D2D2D2D2D2D2DBEBE2D2D2D2D2D2D2D2DF5F52DDCE2BEE2E2E2E2E2E2E2E2E2E2E2E2E2E2E2E2E2E2E2E2E2E2E2E2E2E2E2E2E2E2
310
E2E2E2E2E2E2E2E2E2E2E2E2E2E2E2E2E2E2E2E2E2E2E2E2E2E2E2E2E2E2E2E2E2E2E2E2E2E2E2E2E2E2E2E2E2E2E2E2E2E2E2E2E2E2E2E2E2E2E2E2E2E2E2E2E2E2E2E2E2E2E2E2E2E2E2E2E2E2E2E2E2E2E2E2E2E2E2E2E2E2E2BEE2E2E2E2E2DCE2E2BEBEBE2DE2E2E2E2E2E2E2E2BEBEBEE2E2E2E2E2E2E22DBEBEBEE2
310
E2E2E22DE2E2E2E2E2E2E2E2BEBEBEE2E2E2E2E2E2E2E22DE2BEBEE2E2DCE2BEE2E2E2E2E2DCBEBEBEE2E2E2E2E2E2E2E2BEBEE2E2E2E2E2E2E2E2E2BEBEBEE2E2E2E2E2E2E2E2E2E2E22DE2E2E2E2E2E2E2E2BEBEE2E2E2E2E2E2E2E2E22DBEDCE2BEE2E2E2E2E2E2E2E2E2E2E2E2E2E2E2E2E2E2E2E2E2E2E2E2E2E2E2E2
310
E2E2E2E2E2E2E2E2E2E2E2E2E2E2E2E2E2E2E2E2E2E2E2E2E2E2E2E2E2E2E2E2E2E2E2E2E2E2E2E2E2E2E2E2E2E2E2E2E2E2E2E2E2E2E2E2E2E2E2E2E2E2E2E2E2E2E2E2E2E2E2E2E2E2E2E2E2E2E2E2E2E2E2E2E2E2E2E2E2E2E2E2E2BEE2E2E2E2E2DCE2E2BEBEBE2DE2E2E2E2E2E2E2E2E2E2E2E2E2E2E2E2E2E22DBEBE
310
BEE2E2E2E22DE2E2E2E2E2E2E2E2E2E2E2E2E2E2E2E2E2E2E22DE2BEBEE2E2DCE2BEE2E2E2E2E2DCE2E2E2E2E2E2E2E2E2E2E2E2E2E2E2E2E2E2E2E2E2E2BEBEBEE2E2E2E2E2E2E2E2E2E2E22DE2E2E2E2E2E2E2E2E2E2E2E2E2E2E2E2E2E2E22DE2DCE2BEE2E2E2E2E2E2E2E2E2E2E2E2E2E2E2E2E2E2E2E2E2E2E2E2E2E2
310
E2E2E2E2E2E2E2E2E2E2E2E2E2E2E2E2E2E2E2E2E2E2E2E2E2E2E2E2E2E2E2E2E2E2E2E2E2E2E2E2E2E2E2E2E2E2E2E2E2E2E2E2E2E2E2E2E2E2E2E2E2E2E2E2E2E2E2E2E2E2E2E2E2E2E2E2E2E2E2E2E2E2E2E2E2E2E2E2E2E2E2E2E2E2E2BEE2E2E2E2E2DCE2E2E2E2E22D2D2D2D2D2D2D2D2DBEBEBE2D2D2D2D2D2D2DDC
310
E2E2E2E2E2E2E22D2D2D2D2D2D2D2D2D2DBEBE2D2D2D2D2D2D2D2DDCE2E2E2E2E2DCE2BEE2E2E2E2E2DCE2E2E2E2E2E2E2E2E2E2E2E2E2E2E2E2E2E2E2E2E2E2E2E2E2E2E2E2E2E2E2E2E2E2E2E22D2D2D2D2D2D2D2D2DBEBE2D2D2D2D2D2D2D2D2DDCE2DCE2BEE2E2E2E2E2E2E2E2E2E2E2E2E2E2E2E2E2E2E2E2E2E2E2E2
310
E2E2E2E2E2E2E2E2E2E2E2E2E2E2E2E2E2E2E2E2E2E2E2E2E2E2E2E2E2E2E2E2E2E2E2E2E2E2E2E2E2E2E2E2E2E2E2E2E2E2E2E2E2E2E2E2E2E2E2E2E2E2E2E2E2E2E2E2E2E2E2E2E2E2E2E2E2E2E2E2E2E2E2E2E2E2E2E2E2E2E2E2E2E2E2E2E2BEE2E2E2E2E2DCE2E2E2E2E2E2E2E2E2E2E2E2E2E2BEBEBEE2E2E2E2E2E2
310
E2E2E2E2E2E2E2E2E2E2E2E2E2E2E2E2E2E2E2BEBEE2E2E2E2E2E2E2E2E2E2E2E2E2E2DCE2BEE2E2E2E2E2DCE2E2E2E2E2E2E2E2E2E2E2E2E2E2E2E2E2E2E2E2E2E2E2E2E2E2E2E2E2E2E2E2E2E2E2E2E2E2E2E2E2E2E2E2E2BEBEE2E2E2E2E2E2E2E2E2E2E2DCE2BEE2E2E2E2E2E2E2E2E2E2E2E2E2E2E2E2E2E2E2E2E2E2
310
E2E2E2E2E2E2E2E2E2E2E2E2E2E2E2E2E2E2E2E2E2E2E2E2E2E2E2E2E2E2E2E2E2E2E2E2E2E2E2E2E2E2E2E2E2E2E2E2E2E2E2E2E2E2E2E2E2E2E2E2E2E2E2E2E2E2E2E2E2E2E2E2E2E2E2E2E2E2E2E2E2E2E2E2E2E2E2E2E2E2E2E2E2E2E2E2E2E2E2BEE2E2E2E2E2DCE2E2E2E2E2E2E2E2E2E2E2E2E2E2E2E2E2E2E2E2E2
310
E2E2E2E2E2E2E2E2E2E2E2E2E2E2E2E2E2E2E2E2E2E2E2E2E2E2E2E2E2E2E2E2E2E2E2E2E2DCE2BEE2E2E2E2E2DCE2E2E2E2E2E2E2E2E2E2E2E2E2E2E2E2E2E2E2E2E2E2E2E2E2E2E2E2E2E2E2E2E2E2E2E2E2E2E2E2E2E2E2E2E2E2E2E2E2E2E2E2E2E2E2E2E2E2DCE2BEE2E2E2E2E2E2E2E2E2E2E2E2E2E2E2E2E2E2E2E2
310
E2E2E2E2E2E2E2E2E2E2E2E2E2E2E2E2E2E2E2E2E2E2E2E2E2E2E2E2E2E2E2E2E2E2E2E2E2E2E2E2E2E2E2E2E2E2E2E2E2E2E2E2E2E2E2E2E2E2E2E2E2E2E2E2E2E2E2E2E2E2E2E2E2E2E2E2E2E2E2E2E2E2E2E2E2E2E2E2E2E2E2E2E2E2E2E2E2E2E2E2E2BEE2E2E2E2E2DCE2E2E2E2E2E2E2E2E2E2E2E2E2E2E2E2E2E2E2
310
E2E2E2E2E2E2E2E2E2E2E2E2E2E2E2E2E2E2E2E2E2E2E2E2E2E2E2E2E2E2E2E2E2E2E2E2E2E2E2DCE2BEE2E2E2E2E2DCE2E2E2E2E2E2E2E2E2E2E2E2E2E2E2E2E2E2E2E2E2E2E2E2E2E2E2E2E2E2E2E2E2E2E2E2E2E2E2E2E2E2E2E2E2E2E2E2E2E2E2E2E2E2E2E2E2E2DCE2BEE2E2E2E2E2E2E2E2E2E2E2E2E2E2E2E2E2E2
310
E2E2E2E2E2E2E2E2E2E2E2E2E2E2E2E2E2E2E2E2E2E2E2E2E2E2E2E2E2E2E2E2E2E2E2E2E2E2E2E2E2E2E2E2E2E2E2E2E2E2E2E2E2E2E2E2E2E2E2E2E2E2E2E2E2E2E2E2E2E2E2E2E2E2E2E2E2E2E2E2E2E2E2E2E2E2E2E2E2E2E2E2E2E2E2E2E2E2E2E2E2E2E2BEE2E2E2E2E2DCE2E2E2E2E2E2E2E2E2E2E2E2E2E2E2E2E2
310
E2E2E2E2E2E2E2E2E2E2E2E2E2E2E2E2E2E2E2E2E2E2E2E2E2E2E2E2E2E2E2E2E2E2E2E2E2E2E2E2E2DCE2BEE2E2E2E2E2DCE2E2E2E2E2E2E2E2E2E2E2E2E2E2E2E2E2E2E2E2E2E2E2E2E2E2E2E2E2E2E2E2E2E2E2E2E2E2E2E2E2E2E2E2E2E2E2E2E2E2E2E2E2E2E2E2E2E2DCE2BEE2E2E2E2E2E2E2E2E2E2E2E2E2E2E2E2
310
E2E2E2E2E2E2E2E2E2E2E2E2E2E2E2E2E2E2E2E2E2E2E2E2E2E2E2E2E2E2E2E2E2E2E2E2E2E2E2E2E2E2E2E2E2E2E2E2E2E2E2E2E2E2E2E2E2E2E2E2E2E2E2E2E2E2E2E2E2E2E2E2E2E2E2E2E2E2E2E2E2E2E2E2E2E2E2E2E2E2E2E2E2E2E2E2E2E2E2E2E2E2E2E2E2BEE2E2E2E2E2DCE2E2E2E2E2E2E2E2E2E2E2E2E2E2E2
310
E2E2E2E2E2E2E2E2E2E2E2E2E2E2E2E2E2E2E2E2E2E2E2E2E2E2E2E2E2E2E2E2E2E2E2E2E2E2E2E2E2E2E2DCE2BEE2E2E2E2E2DCE2E2E2E2E2E2E2E2E2E2E2E2E2E2E2E2E2E2E2E2E2E2E2E2E2E2E2E2E2E2E2E2E2E2E2E2E2E2E2E2E2E2E2E2E2E2E2E2E2E2E2E2E2E2E2E2E2E2DCE2BEE2E2E2E2E2E2E2E2E2E2E2E2E2E2
310
E2E2E2E2E2E2E2E2E2E2E2E2E2E2E2E2E2E2E2E2E2E2E2E2E2E2E2E2E2E2E2E2E2E2E2E2E2E2E2E2E2E2E2E2E2E2E2E2E2E2E2E2E2E2E2E2E2E2E2E2E2E2E2E2E2E2E2E2E2E2E2E2E2E2E2E2E2E2E2E2E2E2E2E2E2E2E2E2E2E2E2E2E2E2E2E2E2E2E2E2E2E2E2E2E2E2E2BEE2E2E2E2E2DCDCDCDCDCDCDCDCDCDCDCDCDCDC
310
DCDCDCDCDCDCDCDCDCDCDCDCDCDCDCDCDCDCDCDCDCDCDCDCDCDCDCDCDCDCDCDCDCDCDCDCDCDCDCDCDCDCDCDCDCDCE2BEE2E2E2E2E2DCDCDCDCDCDCDCDCDCDCDCDCDCDCDCDCDCDCDCDCDCDCDCDCDCDCDCDCDCDCDCDCDCDCDCDCDCDCDCDCDCDCDCDCDCDCDCDCDCDCDCDCDCDCDCDCDCDCDCDCE2BEE2E2E2E2E2E2E2E2E2E2E2E2
310
E2E2E2E2E2E2E2E2E2E2E2E2E2E2E2E2E2E2E2E2E2E2E2E2E2E2E2E2E2E2E2E2E2E2E2E2E2E2E2E2E2E2E2E2E2E2E2E2E2E2E2E2E2E2E2E2E2E2E2E2E2E2E2E2E2E2E2E2E2E2E2E2E2E2E2E2E2E2E2E2E2E2E2E2E2E2E2E2E2E2E2E2E2E2E2E2E2E2E2E2E2E2E2E2E2E2E2E2E2BEBEBEBEBEBEBEBEBEBEBEBEBEBEBEBEBEBE
310
BEBEBEBEBEBEBEBEBEBEBEBEBEBEBEBEBEBEBEBEBEBEBEBEBEBEBEBEBEBEBEBEBEBEBEBEBEBEBEBEBEBEBEBEBEBEBEBEBEBEBEBEBEBEBEBEBEBEBEBEBEBEBEBEBEBEBEBEBEBEBEBEBEBEBEBEBEBEBEBEBEBEBEBEBEBEBEBEBEBEBEBEBEBEBEBEBEBEBEBEBEBEBEBEBEBEBEBEBEBEBEBEBEBEBEBEBEE2E2E2E2E2E2E2E2E2E2
310
E2E2E2E2E2E2E2E2E2E2E2E2E2E2E2E2E2E2E2E2E2E2E2E2E2E2E2E2E2E2E2E2E2E2E2E2E2E2E2E2E2E2E2E2E2E2E2E2E2E2E2E2E2E2E2E2E2E2E2E2E2E2E2E2E2E2E2E2E2E2E2E2E2E2E2E2E2E2E2E2E2E2E2E2E2E2E2E2E2E2E2E2E2E2E2E2E2E2E2E2E2E2E2E2E2E2E2E2E2E2E2E2E2E2E2E2E2E2E2E2E2E2E2E2E2E2E2
310
E2E2E2E2E2E2E2E2E2E2E2E2E2E2E2E2E2E2E2E2E2E2E2E2E2E2E2E2E2E2E2E2E2E2E2E2E2E2E2E2E2E2E2E2E2E2E2E2E2E2E2E2E2E2E2E2E2E2E2E2E2E2E2E2E2E2E2E2E2E2E2E2E2E2E2E2E2E2E2E2E2E2E2E2E2E2E2E2E2E2E2E2E2E2E2E2E2E2E2E2E2E2E2E2E2E2E2E2E2E2E2E2E2E2E2E2E2E2E2E2E2E2E2E2E2E2E2
310
E2E2E2E2E2E2E2E2E2E2E2E2E2E2E2E2E2E2E2E2E2E2E2E2E2E2E2E2E2E2E2E2E2E2E2E2E2E2E2E2E2E2E2E2E2E2E2E2E2E2E2E2E2E2E2E2E2E2E2E2E2E2E2E2E2E2E2E2E2E2E2E2E2E2E2E2E2E2E2E2E2E2E2E2E2E2E2E2E2E2E2E2E2E2E2E2E2E2E2E2E2E2E2E2E2E2E2E2E2E2E2E2E2E2E2E2E2E2E2E2E2E2E2E2E2E2E2
310
E2E2E2E2E2E2E2E2E2E2E2E2E2E2E2E2E2E2E2E2E2E2E2E2E2E2E2E2E2E2E2E2E2E2E2E2E2E2E2E2E2E2E2E2E2E2E2E2E2E2E2E2E2E2E2E2E2E2E2E2E2E2E2E2E2E2E2E2E2E2E2E2E2E2E2E2E2E2E2E2E2E2E2E2E2E2E2E2E2E2E2E2E2E2E2E2E2E2E2E2E2E2E2E2E2E2E2E2E2E2E2E2E2E2E2E2E2E2E2E2E2E2E2E2E2E2E2
310
E2E2E2E2E2E2E2E2E2E2E2E2E2E2E2E2E2E2E2E2E2E2E2E2E2E2E2E2E2E2E2E2E2E2E2E2E2E2E2E2E2E2E2E2E2E2E2E2E2E2E2E2E2E2E2E2E2E2E2E2E2E2E2E2E2E2E2E2E2E2E2E2E2E2E2E2E2E2E2E2E2E2E2E2E2E2E2E2E2E2E2E2E2E2E2E2E2E2E2E2E2E2E2E2E2E2E2E2E2E2E2E2E2E2E2E2E2E2E2E2E2E2E2E2E2E2E2
310
E2E2E2E2E2E2E2E2E2E2E2E2E2E2E2E2E2E2E2E2E2E2E2E2E2E2E2E2E2E2E2E2E2E2E2E2E2E2E2E2E2E2E2E2E2E2E2E2E2E2E2E2E2E2E2E2E2E2E2E2E2E2E2E2E2E2E2E2E2E2E2E2E2E2E2E2E2E2E2E2E2E2E2E2E2E2E2E2E2E2E2E2E2E2E2E2E2E2E2E2E2E2E2E2E2E2E2E2E2E2E2E2E2E2E2E2E2E2E2E2E2E2E2E2E2E2E2
310
E2E2E2E2E2E2E2E2E2E2E2E2E2E2E2E2E2E2E2E2E2E2E2E2E2E2E2E2E2E2E2E2E2E2E2E2E2E2E2E2E2E2E2E2E2E2E2E2E2E2E2E2E2E2E2E2E2E2E2E2E2E2E2E2E2E2E2E2E2E2E2E2E2E2E2E2E2E2E2E2E2E2E2E2E2E2E2E2E2E2E2E2E2E2E2E2E2E2E2E2E2E2E2E2E2E2E2E2E2E2E2E2E2E2E2E2E2E2E2E2E2E2E2E2E2E2E2
310
E2E2E2E2E2E2E2E2E2E2E2E2E2E2E2E2E2E2E2E2E2E2E2E2E2E2E2E2E2E2E2E2E2E2E2E2E2E2E2E2E2E2E2E2E2E2E2E2E2E2E2E2E2E2E2E2E2E2E2E2E2E2E2E2E2E2E2E2E2E2E2E2E2E2E2E2E2E2E2E2E2E2E2E2E2E2E2E2E2E2E2E2E2E2E2E2E2E2E2E2E2E2E2E2E2E2E2E2E2E2E2E2E2E2E2E2E2E2E2E2E2E2E2E2E2E2E2
310
E2E2E2E2E2E2E2E2E2E2E2E2E2E2E2E2E2E2E2E2E2E2E2E2E2E2E2E2E2E2E2E2E2E2E2E2E2E2E2E2E2E2E2E2E2E2E2E2E2E2E2E2E2E2E2E2E2E2E2E2E2E2E2E2E2E2E2E2E2E2E2E2E2E2E2E2E2E2E2E2E2E2E2E2E2E2E2E2E2E2E2E2E2E2E2E2E2E2E2E2E2E2E2E2E2E2E2E2E2E2E2E2E2E2E2E2E2E2E2E2E2E2E2E2E2E2E2
310
E2E2E2E2E2E2E2E2E2E2E2E2E2E2E2E2E2E2E2E2E2E2E2E2E2E2E2E2E2E2E2E2E2E2E2E2E2E2E2E2E2E2E2E2E2E2E2E2E2E2E2E2E2E2E2E2E2E2E2E2E2E2E2E2E2E2E2E2E2E2E2E2E2E2E2E2E2E2E2E2E2E2E2E2E2E2E2E2E2E2E2E2E2E2E2E2E2E2E2E2E2E2E2E2E2E2E2E2E2E2E2E2E2E2E2E2E2E2E2E2E2E2E2E2E2E2E2
310
E2E2E2E2E2E2E2E2E2E2E2E2E2E2E2E2E2E2E2E2E2E2E2E2E2E2E2E2E2E2E2E2E2E2E2E2E2E2E2E2E2E2E2E2E2E2E2E2E2E2E2E2E2E2E2E2E2E2E2E2E2E2E2E2E2E2E2E2E2E2E2E2E2E2E2E2E2E2E2E2E2E2E2E2E2E2E2E2E2E2E2E2E2E2E2E2E2E2E2E2E2E2E2E2E2E2E2E2E2E2E2E2E2E2E2E2E2E2E2E2E2E2E2E2E2E2E2
310
E2E2E2E2E2E2E2E2E2E2E2E2E2E2E2E2E2E2E2E2E2E2E2E2E2E2E2E2E2E2E2E2E2E2E2E2E2E2E2E2E2E2E2E2E2E2E2E2E2E2E2E2E2E2E2E2E2E2E2E2E2E2E2E2E2E2E2E2E2E2E2E2E2E2E2E2E2E2E2E2E2E2E2E2E2E2E2E2E2E2E2E2E2E2E2E2E2E2E2E2E2E2E2E2E2E2E2E2E2E2E2E2E2E2E2E2E2E2E2E2E2E2E2E2E2E2E2
310
E2E2E2E2E2E2E2E2E2E2E2E2E2E2E2E2E2E2E2E2E2E2E2E2E2E2E2E2E2E2E2E2E2E2E2E2E2E2E2E2E2E2E2E2E2E2E2E2E2E2E2E2E2E2E2E2E2E2E2E2E2E2E2E2E2E2E2E2E2E2E2E2E2E2E2E2E2E2E2E2E2E2E2E2E2E2E2E2E2E2E2E2E2E2E2E2E2E2E2E2E2E2E2E2E2E2E2E2E2E2E2E2E2E2E2E2E2E2E2E2E2E2E2E2E2E2E2
310
E2E2E2E2E2E2E2E2E2E2E2E2E2E2E2E2E2E2E2E2E2E2E2E2E2E2E2E2E2E2E2E2E2E2E2E2E2E2E2E2E2E2E2E2E2E2E2E2E2E2E2E2E2E2E2E2E2E2E2E2E2E2E2E2E2E2E2E2E2E2E2E2E2E2E2E2E2E2E2E2E2E2E2E2E2E2E2E2E2E2E2E2E2E2E2E2E2E2E2E2E2E2E2E2E2E2E2E2E2E2E2E2E2E2E2E2E2E2E2E2E2E2E2E2E2E2E2
310
E2E2E2E2E2E2E2E2E2E2E2E2E2E2E2E2E2E2E2E2E2E2E2E2E2E2E2E2E2E2E2E2E2E2E2E2E2E2E2E2E2E2E2E2E2E2E2E2E2E2E2E2E2E2E2E2E2E2E2E2E2E2E2E2E2E2E2E2E2E2E2E2E2E2E2E2E2E2E2E2E2E2E2E2E2E2E2E2E2E2E2E2E2E2E2E2E2E2E2E2E2E2E2E2E2E2E2E2E2E2E2E2E2E2E2E2E2E2E2E2E2E2E2E2E2E2E2
310
E2E2E2E2E2E2E2E2E2E2E2E2E2E2E2E2E2E2E2E2E2E2E2E2E2E2E2E2E2E2E2E2E2E2E2E2E2E2E2E2E2E2E2E2E2E2E2E2E2E2E2E2E2E2E2E2E2E2E2E2E2E2E2E2E2E2E2E2E2E2E2E2E2E2E2E2E2E2E2E2E2E2E2E2E2E2E2E2E2E2E2E2E2E2E2E2E2E2E2E2E2E2E2E2E2E2E2E2E2E2E2E2E2E2E2E2E2E2E2E2E2E2E2E2E2E2E2
310
E2E2E2E2E2E2E2E2E2E2E2E2E2E2E2E2E2E2E2E2E2E2E2E2E2E2E2E2E2E2E2E2E2E2E2E2E2E2E2E2E2E2E2E2E2E2E2E2E2E2E2E2E2E2E2E2E2E2E2E2E2E2E2E2E2E2E2E2E2E2E2E2E2E2E2E2E2E2E2E2E2E2E2E2E2E2E2E2E2E2E2E2E2E2E2E2E2E2E2E2E2E2E2E2E2E2E2E2E2E2E2E2E2E2E2E2E2E2E2E2E2E2E2E2E2E2E2
310
E2E2E2E2E2E2E2E2E2E2E2E2E2E2E2E2E2E2E2E2E2E2E2E2E2E2E2E2E2E2E2E2E2E2E2E2E2E2E2E2E2E2E2E2E2E2E2E2E2E2E2E2E2E2E2E2E2E2E2E2E2E2E2E2E2E2E2E2E2E2E2E2E2E2E2E2E2E2E2E2E2E2E2E2E2E2E2E2E2E2E2E2E2E2E2E2E2E2E2E2E2E2E2E2E2E2E2E2E2E2E2E2E2E2E2E2E2E2E2E2E2E2E2E2E2E2E2
310
E2E2E2E2E2E2E2E2E2E2E2E2E2E2E2E2E2E2E2E2E2E2E2E2E2E2E2E2E2E2E2E2E2E2E2E2E2E2E2E2E2E2E2E2E2E2E2E2E2E2E2E2E2E2E2E2E2E2E2E2E2E2E2E2E2E2E2E2E2E2E2E2E2E2E2E2E2E2E2E2E2E2E2E2E2E2E2E2E2E2E2E2E2E2E2E2E2E2E2E2E2E2E2E2E2E2E2E2E2E2E2E2E2E2E2E2E2E2E2E2E2E2E2E2E2E2E2
310
E2E2E2E2E2E2E2E2E2E2E2E2E2E2E2E2E2E2E2E2E2E2E2E2E2E2E2E2E2E2E2E2E2E2E2E2E2E2E2E2E2E2E2E2E2E2E2E2E2E2E2E2E2E2E2E2E2E2E2E2E2E2E2E2E2E2E2E2E2E2E2E2E2E2E2E2E2E2E2E2E2E2E2E2E2E2E2E2E2E2E2E2E2E2E2E2E2E2E2E2E2E2E2E2E2E2E2E2E2E2E2E2E2E2E2E2E2E2E2E2E2E2E2E2E2E2E2
310
E2E2E2E2E2E2E2E2E2E2E2E2E2E2E2E2E2E2E2E2E2E2E2E2E2E2E2E2E2E2E2E2E2E2E2E2E2E2E2E2E2E2E2E2E2E2E2E2E2E2E2E2E2E2E2E2E2E2E2E2E2E2E2E2E2E2E2E2E2E2E2E2E2E2E2E2E2E2E2E2E2E2E2E2E2E2E2E2E2E2E2E2E2E2E2E2E2E2E2E2E2E2E2E2E2E2E2E2E2E2E2E2E2E2E2E2E2E2E2E2E2E2E2E2E2E2E2
310
E2E2E2E2E2E2E2E2E2E2E2E2E2E2E2E2E2E2E2E2E2E2E2E2E2E2E2E2E2E2E2E2E2E2E2E2E2E2E2E2E2E2E2E2E2E2E2E2E2E2E2E2E2E2E2E2E2E2E2E2E2E2E2E2E2E2E2E2E2E2E2E2E2E2E2E2E2E2E2E2E2E2E2E2E2E2E2E2E2E2E2E2E2E2E2E2E2E2E2E2E2E2E2E2E2E2E2E2E2E2E2E2E2E2E2E2E2E2E2E2E2E2E2E2E2E2E2
310
E2E2E2E2E2E2E2E2E2E2E2E2E2E2E2E2E2E2E2E2E2E2E2E2E2E2E2E2E2E2E2E2E2E2E2E2E2E2E2E2E2E2E2E2E2E2E2E2E2E2E2E2E2E2E2E2E2E2E2E2E2E2E2E2E2E2E2E2E2E2E2E2E2E2E2E2E2E2E2E2E2E2E2E2E2E2E2E2E2E2E2E2E2E2E2E2E2E2E2E2E2E2E2E2E2E2E2E2E2E2E2E2E2E2E2E2E2E2E2E2E2E2E2E2E2E2E2
310
E2E2E2E2E2E2E2E2E2E2E2E2E2E2E2E2E2E2E2E2E2E2E2E2E2E2E2E2E2E2E2E2E2E2E2E2E2E2E2E2E2E2E2E2E2E2E2E2E2E2E2E2E2E2E2E2E2E2E2E2E2E2E2E2E2E2E2E2E2E2E2E2E2E2E2E2E2E2E2E2E2E2E2E2E2E2E2E2E2E2E2E2E2E2E2E2E2E2E2E2E2E2E2E2E2E2E2E2E2E2E2E2E2E2E2E2E2E2E2E2E2E2E2E2E2E2E2
310
E2E2E2E2E2E2E2E2E2E2E2E2E2E2E2E2E2E2E2E2E2E2E2E2E2E2E2E2E2E2E2E2E2E2E2E2E2E2E2E2E2E2E2E2E2E2E2E2E2E2E2E2E2E2E2E2E2E2E2E2E2E2E2E2E2E2E2E2E2E2E2E2E2E2E2E2E2E2E2E2E2E2E2E2E2E2E2E2E2E2E2E2E2E2E2E2E2E2E2E2E2E2E2E2E2E2E2E2E2E2E2E2E2E2E2E2E2E2E2E2E2E2E2E2E2E2E2
310
E2E2E2E2E2E2E2E2E2E2E2E2E2E2E2E2E2E2E2E2E2E2E2E2E2E2E2E2E2E2E2E2E2E2E2E2E2E2E2E2E2E2E2E2E2E2E2E2E2E2E2E2E2E2E2E2E2E2E2E2E2E2E2E2E2E2E2E2E2E2E2E2E2E2E2E2E2E2E2E2E2E2E2E2E2E2E2E2E2E2E2E2E2E2E2E2E2E2E2E2E2E2E2E2E2E2E2E2E2E2E2E2E2E2E2E2E2E2E2E2E2E2E2E2E2E2E2
310
E2E2E2E2E2E2E2E2E2E2E2E2E2E2E2E2E2E2E2E2E2E2E2E2E2E2E2E2E2E2E2E2E2E2E2E2E2E2E2E2E2E2E2E2E2E2E2E2E2E2E2E2E2E2E2E2E2E2E2E2E2E2E2E2E2E2E2E2E2E2E2E2E2E2E2E2E2E2E2E2E2E2E2E2E2E2E2E2E2E2E2E2E2E2E2E2E2E2E2E2E2E2E2E2E2E2E2E2E2E2E2E2E2E2E2E2E2E2E2E2E2E2E2E2E2E2E2
310
E2E2E2E2E2E2E2E2E2E2E2E2E2E2E2E2E2E2E2E2E2E2E2E2E2E2E2E2E2E2E2E2E2E2E2E2E2E2E2E2E2E2E2E2E2E2E2E2E2E2E2E2E2E2E2E2E2E2E2E2E2E2E2E2E2E2E2E2E2E2E2E2E2E2E2E2E2E2E2E2E2E2E2E2E2E2E2E2E2E2E2E2E2E2E2E2E2E2E2E2E2E2E2E2E2E2E2E2E2E2E2E2E2E2E2E2E2E2E2E2E2E2E2E2E2E2E2
310
E2E2E2E2E2E2E2E2E2E2E2E2E2E2E2E2E2E2E2E2E2E2E2E2E2E2E2E2E2E2E2E2E2E2E2E2E2E2E2E2E2E2E2E2E2E2E2E2E2E2E2E2E2E2E2E2E2E2E2E2E2E2E2E2E2E2E2E2E2E2E2E2E2E2E2E2E2E2E2E2E2E2E2E2E2E2E2E2E2E2E2E2E2E2E2E2E2E2E2E2E2E2E2E2E2E2E2E2E2E2E2E2E2E2E2E2E2E2E2E2E2E2E2E2E2E2E2
310
E2E2E2E2E2E2E2E2E2E2E2E2E2E2E2E2E2E2E2E2E2E2E2E2E2E2E2E2E2E2E2E2E2E2E2E2E2E2E2E2E2E2E2E2E2E2E2E2E2E2E2E2E2E2E2E2E2E2E2E2E2E2E2E2E2E2E2E2E2E2E2E2E2E2E2E2E2E2E2E2E2E2E2E2E2E2E2E2E2E2E2E2E2E2E2E2E2E2E2E2E2E2E2E2E2E2E2E2E2E2E2E2E2E2E2E2E2E2E2E2E2E2E2E2E2E2E2
310
E2E2E2E2E2E2E2E2E2E2E2E2E2E2E2E2E2E2E2E2E2E2E2E2E2E2E2E2E2E2E2E2E2E2E2E2E2E2E2E2E2E2E2E2E2E2E2E2E2E2E2E2E2E2E2E2E2E2E2E2E2E2E2E2E2E2E2E2E2E2E2E2E2E2E2E2E2E2E2E2E2E2E2E2E2E2E2E2E2E2E2E2E2E2E2E2E2E2E2E2E2E2E2E2E2E2E2E2E2E2E2E2E2E2E2E2E2E2E2E2E2E2E2E2E2E2E2
310
E2E2E2E2E2E2E2E2E2E2E2E2E2E2E2E2E2E2E2E2E2E2E2E2E2E2E2E2E2E2E2E2E2E2E2E2E2E2E2E2E2E2E2E2E2E2E2E2E2E2E2E2E2E2E2E2E2E2E2E2E2E2E2E2E2E2E2E2E2E2E2E2E2E2E2E2E2E2E2E2E2E2E2E2E2E2E2E2E2E2E2E2E2E2E2E2E2E2E2E2E2E2E2E2E2E2E2E2E2E2E2E2E2E2E2E2E2E2E2E2E2E2E2E2E2E2E2
310
E2E2E2E2E2E2E2E2E2E2E2E2E2E2E2E2E2E2E2E2E2E2E2E2E2E2E2E2E2E2E2E2E2E2E2E2E2E2E2E2E2E2E2E2E2E2E2E2E2E2E2E2E2E2E2E2E2E2E2E2E2E2E2E2E2E2E2E2E2E2E2E2E2E2E2E2E2E2E2E2E2E2E2E2E2E2E2E2E2E2E2E2E2E2E2E2E2E2E2E2E2E2E2E2E2E2E2E2E2E2E2E2E2E2E2E2E2E2E2E2E2E2E2E2E2E2E2
310
E2E2E2E2E2E2E2E2E2E2E2E2E2E2E2E2E2E2E2E2E2E2E2E2E2E2E2E2E2E2E2E2E2E2E2E2E2E2E2E2E2E2E2E2E2E2E2E2E2E2E2E2E2E2E2E2E2E2E2E2E2E2E2E2E2E2E2E2E2E2E2E2E2E2E2E2E2E2E2E2E2E2E2E2E2E2E2E2E2E2E2E2E2E2E2E2E2E2E2E2E2E2E2E2E2E2E2E2E2E2E2E2E2E2E2E2E2E2E2E2E2E2E2E2E2E2E2
310
E2E2E2E2E2E2E2E2E2E2E2E2E2E2E2E2E2E2E2E2E2E2E2E2E2E2E2E2E2E2E2E2E2E2E2E2E2E2E2E2E2E2E2E2E2E2E2E2E2E2E2E2
  0
XRECORD
  5
45
102
{ACAD_REACTORS
330
44
102
}
330
44
100
AcDbXrecord
280
     1
270
     1
271
     1
  0
XRECORD
  5
46
102
{ACAD_REACTORS
330
44
102
}
330
44
100
AcDbXrecord
280
     1
270
     1
271
     1
  0
XRECORD
  5
47
102
{ACAD_REACTORS
330
44
102
}
330
44
100
AcDbXrecord
280
     1
270
     1
271
     1
  0
XRECORD
  5
48
102
{ACAD_REACTORS
330
44
102
}
330
44
100
AcDbXrecord
280
     1
270
     1
271
     1
  0
XRECORD
  5
49
102
{ACAD_REACTORS
330
44
102
}
330
44
100
AcDbXrecord
280
     1
270
     1
271
     1
  0
XRECORD
  5
4A
102
{ACAD_REACTORS
330
44
102
}
330
44
100
AcDbXrecord
280
     1
270
     1
271
     1
  0
XRECORD
  5
3D
102
{ACAD_REACTORS
330
3C
102
}
330
3C
100
AcDbXrecord
280
     1
270
     1
271
     1
  0
XRECORD
  5
3E
102
{ACAD_REACTORS
330
3C
102
}
330
3C
100
AcDbXrecord
280
     1
270
     1
271
     1
  0
XRECORD
  5
3F
102
{ACAD_REACTORS
330
3C
102
}
330
3C
100
AcDbXrecord
280
     1
270
     1
271
     1
  0
XRECORD
  5
40
102
{ACAD_REACTORS
330
3C
102
}
330
3C
100
AcDbXrecord
280
     1
270
     1
271
     1
  0
XRECORD
  5
41
102
{ACAD_REACTORS
330
3C
102
}
330
3C
100
AcDbXrecord
280
     1
270
     1
271
     1
  0
XRECORD
  5
42
102
{ACAD_REACTORS
330
3C
102
}
330
3C
100
AcDbXrecord
280
     1
270
     1
271
     1
  0
XRECORD
  5
F
102
{ACAD_REACTORS
330
E
102
}
330
E
100
AcDbXrecord
280
     1
270
     1
271
     1
  0
XRECORD
  5
10
102
{ACAD_REACTORS
330
E
102
}
330
E
100
AcDbXrecord
280
     1
270
     1
271
     1
  0
XRECORD
  5
11
102
{ACAD_REACTORS
330
E
102
}
330
E
100
AcDbXrecord
280
     1
270
     1
271
     1
  0
XRECORD
  5
12
102
{ACAD_REACTORS
330
E
102
}
330
E
100
AcDbXrecord
280
     1
270
     1
271
     1
  0
XRECORD
  5
13
102
{ACAD_REACTORS
330
E
102
}
330
E
100
AcDbXrecord
280
     1
270
     1
271
     1
  0
XRECORD
  5
14
102
{ACAD_REACTORS
330
E
102
}
330
E
100
AcDbXrecord
280
     1
270
     1
271
     1
  0
CELLSTYLEMAP
  5
420
102
{ACAD_REACTORS
330
54
102
}
330
54
100
AcDbCellStyleMap
 90
        3
300
CELLSTYLE
  1
TABLEFORMAT_BEGIN
 90
        5
170
     1
 91
        0
 92
    32768
 62
   257
 93
        1
300
CONTENTFORMAT
  1
CONTENTFORMAT_BEGIN
 90
        0
 91
        0
 92
      512
 93
        0
300

 40
0.0
140
1.0
 94
        5
 62
     0
340
23
144
0.25
309
CONTENTFORMAT_END
171
     0
 94
        0
309
TABLEFORMAT_END
  1
CELLSTYLE_BEGIN
 90
        1
 91
        1
300
_TITLE
309
CELLSTYLE_END
300
CELLSTYLE
  1
TABLEFORMAT_BEGIN
 90
        5
170
     1
 91
        0
 92
        0
 62
   257
 93
        1
300
CONTENTFORMAT
  1
CONTENTFORMAT_BEGIN
 90
        0
 91
        0
 92
      512
 93
        0
300

 40
0.0
140
1.0
 94
        5
 62
     0
340
23
144
0.18
309
CONTENTFORMAT_END
171
     0
 94
        0
309
TABLEFORMAT_END
  1
CELLSTYLE_BEGIN
 90
        2
 91
        1
300
_HEADER
309
CELLSTYLE_END
300
CELLSTYLE
  1
TABLEFORMAT_BEGIN
 90
        5
170
     1
 91
        0
 92
        0
 62
   257
 93
        1
300
CONTENTFORMAT
  1
CONTENTFORMAT_BEGIN
 90
        0
 91
        0
 92
      512
 93
        0
300

 40
0.0
140
1.0
 94
        2
 62
     0
340
23
144
0.18
309
CONTENTFORMAT_END
171
     0
 94
        0
309
TABLEFORMAT_END
  1
CELLSTYLE_BEGIN
 90
        3
 91
        2
300
_DATA
309
CELLSTYLE_END
  0
ENDSEC
  0
EOF
