  0
SECTION
  2
HEADER
  9
$ACADVER
  1
AC1024
  9
$ACADMAINTVER
 70
    37
  9
$DWGCODEPAGE
  3
ANSI_1252
  9
$INSBASE
 10
0.0
 20
0.0
 30
0.0
  9
$EXTMIN
 10
0.0000000000000004
 20
-0.0000000000000455
 30
0.0
  9
$EXTMAX
 10
671.999999999933
 20
475.1999999999527
 30
0.0
  9
$LIMMIN
 10
0.0
 20
0.0
  9
$LIMMAX
 10
671.9999999999331
 20
475.1999999999527
  9
$ORTHOMODE
 70
     1
  9
$REGENMODE
 70
     1
  9
$FILLMODE
 70
     1
  9
$QTEXTMODE
 70
     0
  9
$MIRRTEXT
 70
     0
  9
$LTSCALE
 40
15.0
  9
$ATTMODE
 70
     1
  9
$TEXTSIZE
 40
17.0
  9
$TRACEWID
 40
1.0
  9
$TEXTSTYLE
  7
ROMANS
  9
$CLAYER
  8
EBENE_1
  9
$CELTYPE
  6
ByLayer
  9
$CECOLOR
 62
   256
  9
$CELTSCALE
 40
1.0
  9
$DISPSILH
 70
     0
  9
$DIMSCALE
 40
2.0
  9
$DIMASZ
 40
2.5
  9
$DIMEXO
 40
1.0
  9
$DIMDLI
 40
10.0
  9
$DIMRND
 40
0.0
  9
$DIMDLE
 40
0.0
  9
$DIMEXE
 40
1.0
  9
$DIMTP
 40
0.0
  9
$DIMTM
 40
0.0
  9
$DIMTXT
 40
2.5
  9
$DIMCEN
 40
0.0
  9
$DIMTSZ
 40
0.0
  9
$DIMTOL
 70
     0
  9
$DIMLIM
 70
     0
  9
$DIMTIH
 70
     0
  9
$DIMTOH
 70
     0
  9
$DIMSE1
 70
     0
  9
$DIMSE2
 70
     0
  9
$DIMTAD
 70
     1
  9
$DIMZIN
 70
     8
  9
$DIMBLK
  1

  9
$DIMASO
 70
     1
  9
$DIMSHO
 70
     0
  9
$DIMPOST
  1

  9
$DIMAPOST
  1

  9
$DIMALT
 70
     0
  9
$DIMALTD
 70
     3
  9
$DIMALTF
 40
0.03937007874016
  9
$DIMLFAC
 40
1.0
  9
$DIMTOFL
 70
     1
  9
$DIMTVP
 40
0.0
  9
$DIMTIX
 70
     0
  9
$DIMSOXD
 70
     0
  9
$DIMSAH
 70
     0
  9
$DIMBLK1
  1

  9
$DIMBLK2
  1

  9
$DIMSTYLE
  2
Wagner
  9
$DIMCLRD
 70
     4
  9
$DIMCLRE
 70
     4
  9
$DIMCLRT
 70
     1
  9
$DIMTFAC
 40
1.0
  9
$DIMGAP
 40
1.0
  9
$DIMJUST
 70
     0
  9
$DIMSD1
 70
     0
  9
$DIMSD2
 70
     0
  9
$DIMTOLJ
 70
     0
  9
$DIMTZIN
 70
     8
  9
$DIMALTZ
 70
     0
  9
$DIMALTTZ
 70
     0
  9
$DIMUPT
 70
     0
  9
$DIMDEC
 70
     1
  9
$DIMTDEC
 70
     1
  9
$DIMALTU
 70
     2
  9
$DIMALTTD
 70
     3
  9
$DIMTXSTY
  7
STANDARD
  9
$DIMAUNIT
 70
     0
  9
$DIMADEC
 70
     1
  9
$DIMALTRND
 40
0.0
  9
$DIMAZIN
 70
     2
  9
$DIMDSEP
 70
    46
  9
$DIMATFIT
 70
     3
  9
$DIMFRAC
 70
     0
  9
$DIMLDRBLK
  1

  9
$DIMLUNIT
 70
     2
  9
$DIMLWD
 70
    -2
  9
$DIMLWE
 70
    -2
  9
$DIMTMOVE
 70
     0
  9
$DIMFXL
 40
1.0
  9
$DIMFXLON
 70
     0
  9
$DIMJOGANG
 40
0.7853981633974483
  9
$DIMTFILL
 70
     0
  9
$DIMTFILLCLR
 70
     0
  9
$DIMARCSYM
 70
     0
  9
$DIMLTYPE
  6

  9
$DIMLTEX1
  6

  9
$DIMLTEX2
  6

  9
$DIMTXTDIRECTION
 70
     0
  9
$LUNITS
 70
     2
  9
$LUPREC
 70
     2
  9
$SKETCHINC
 40
1.0
  9
$FILLETRAD
 40
0.0
  9
$AUNITS
 70
     0
  9
$AUPREC
 70
     2
  9
$MENU
  1
cncmenue
  9
$ELEVATION
 40
0.0
  9
$PELEVATION
 40
0.0
  9
$THICKNESS
 40
0.0
  9
$LIMCHECK
 70
     0
  9
$CHAMFERA
 40
0.0
  9
$CHAMFERB
 40
0.0
  9
$CHAMFERC
 40
0.0
  9
$CHAMFERD
 40
0.0
  9
$SKPOLY
 70
     0
  9
$TDCREATE
 40
2451376.340883218
  9
$TDUCREATE
 40
2451376.299216551
  9
$TDUPDATE
 40
2458561.728761053
  9
$TDUUPDATE
 40
2458561.687094387
  9
$TDINDWG
 40
0.3098740625
  9
$TDUSRTIMER
 40
0.3098740625
  9
$USRTIMER
 70
     1
  9
$ANGBASE
 50
0.0
  9
$ANGDIR
 70
     0
  9
$PDMODE
 70
     0
  9
$PDSIZE
 40
0.0
  9
$PLINEWID
 40
0.0
  9
$SPLFRAME
 70
     0
  9
$SPLINETYPE
 70
     6
  9
$SPLINESEGS
 70
     8
  9
$HANDSEED
  5
424
  9
$SURFTAB1
 70
    24
  9
$SURFTAB2
 70
    24
  9
$SURFTYPE
 70
     6
  9
$SURFU
 70
     6
  9
$SURFV
 70
     6
  9
$UCSBASE
  2

  9
$UCSNAME
  2

  9
$UCSORG
 10
0.0
 20
0.0
 30
0.0
  9
$UCSXDIR
 10
1.0
 20
0.0
 30
0.0
  9
$UCSYDIR
 10
0.0
 20
1.0
 30
0.0
  9
$UCSORTHOREF
  2

  9
$UCSORTHOVIEW
 70
     0
  9
$UCSORGTOP
 10
0.0
 20
0.0
 30
0.0
  9
$UCSORGBOTTOM
 10
0.0
 20
0.0
 30
0.0
  9
$UCSORGLEFT
 10
0.0
 20
0.0
 30
0.0
  9
$UCSORGRIGHT
 10
0.0
 20
0.0
 30
0.0
  9
$UCSORGFRONT
 10
0.0
 20
0.0
 30
0.0
  9
$UCSORGBACK
 10
0.0
 20
0.0
 30
0.0
  9
$PUCSBASE
  2

  9
$PUCSNAME
  2

  9
$PUCSORG
 10
0.0
 20
0.0
 30
0.0
  9
$PUCSXDIR
 10
1.0
 20
0.0
 30
0.0
  9
$PUCSYDIR
 10
0.0
 20
1.0
 30
0.0
  9
$PUCSORTHOREF
  2

  9
$PUCSORTHOVIEW
 70
     0
  9
$PUCSORGTOP
 10
0.0
 20
0.0
 30
0.0
  9
$PUCSORGBOTTOM
 10
0.0
 20
0.0
 30
0.0
  9
$PUCSORGLEFT
 10
0.0
 20
0.0
 30
0.0
  9
$PUCSORGRIGHT
 10
0.0
 20
0.0
 30
0.0
  9
$PUCSORGFRONT
 10
0.0
 20
0.0
 30
0.0
  9
$PUCSORGBACK
 10
0.0
 20
0.0
 30
0.0
  9
$USERI1
 70
     0
  9
$USERI2
 70
     0
  9
$USERI3
 70
     0
  9
$USERI4
 70
     0
  9
$USERI5
 70
     0
  9
$USERR1
 40
0.0
  9
$USERR2
 40
0.0
  9
$USERR3
 40
0.0
  9
$USERR4
 40
0.0
  9
$USERR5
 40
0.0
  9
$WORLDVIEW
 70
     1
  9
$SHADEDGE
 70
     3
  9
$SHADEDIF
 70
    70
  9
$TILEMODE
 70
     1
  9
$MAXACTVP
 70
    16
  9
$PINSBASE
 10
0.0
 20
0.0
 30
0.0
  9
$PLIMCHECK
 70
     0
  9
$PEXTMIN
 10
1.000000000000000E+20
 20
1.000000000000000E+20
 30
1.000000000000000E+20
  9
$PEXTMAX
 10
-1.000000000000000E+20
 20
-1.000000000000000E+20
 30
-1.000000000000000E+20
  9
$PLIMMIN
 10
0.0
 20
0.0
  9
$PLIMMAX
 10
12.0
 20
9.0
  9
$UNITMODE
 70
     0
  9
$VISRETAIN
 70
     0
  9
$PLINEGEN
 70
     0
  9
$PSLTSCALE
 70
     0
  9
$TREEDEPTH
 70
  3020
  9
$CMLSTYLE
  2
Standard
  9
$CMLJUST
 70
     0
  9
$CMLSCALE
 40
1.0
  9
$PROXYGRAPHICS
 70
     1
  9
$MEASUREMENT
 70
     0
  9
$CELWEIGHT
370
    -1
  9
$ENDCAPS
280
     0
  9
$JOINSTYLE
280
     0
  9
$LWDISPLAY
290
     0
  9
$INSUNITS
 70
     0
  9
$HYPERLINKBASE
  1

  9
$STYLESHEET
  1

  9
$XEDIT
290
     1
  9
$CEPSNTYPE
380
     0
  9
$PSTYLEMODE
290
     1
  9
$FINGERPRINTGUID
  2
{5AB2ABB3-BE50-4FC0-82A9-33C4BA5C0749}
  9
$VERSIONGUID
  2
{852F6B33-CBF0-452E-8AE1-0534B7A9EEB5}
  9
$EXTNAMES
290
     1
  9
$PSVPSCALE
 40
0.0
  9
$OLESTARTUP
290
     0
  9
$SORTENTS
280
   127
  9
$INDEXCTL
280
     0
  9
$HIDETEXT
280
     1
  9
$XCLIPFRAME
280
     0
  9
$HALOGAP
280
     0
  9
$OBSCOLOR
 70
   257
  9
$OBSLTYPE
280
     0
  9
$INTERSECTIONDISPLAY
280
     0
  9
$INTERSECTIONCOLOR
 70
   257
  9
$DIMASSOC
280
     1
  9
$PROJECTNAME
  1

  9
$CAMERADISPLAY
290
     0
  9
$LENSLENGTH
 40
50.0
  9
$CAMERAHEIGHT
 40
0.0
  9
$STEPSPERSEC
 40
2.0
  9
$STEPSIZE
 40
6.0
  9
$3DDWFPREC
 40
2.0
  9
$PSOLWIDTH
 40
0.25
  9
$PSOLHEIGHT
 40
4.0
  9
$LOFTANG1
 40
1.570796326794896
  9
$LOFTANG2
 40
1.570796326794896
  9
$LOFTMAG1
 40
0.0
  9
$LOFTMAG2
 40
0.0
  9
$LOFTPARAM
 70
     7
  9
$LOFTNORMALS
280
     1
  9
$LATITUDE
 40
37.795
  9
$LONGITUDE
 40
-122.394
  9
$NORTHDIRECTION
 40
0.0
  9
$TIMEZONE
 70
 -8000
  9
$LIGHTGLYPHDISPLAY
280
     1
  9
$TILEMODELIGHTSYNCH
280
     1
  9
$CMATERIAL
347
3A
  9
$SOLIDHIST
280
     1
  9
$SHOWHIST
280
     1
  9
$DWFFRAME
280
     2
  9
$DGNFRAME
280
     0
  9
$REALWORLDSCALE
290
     1
  9
$INTERFERECOLOR
 62
     1
  9
$INTERFEREOBJVS
345
55
  9
$INTERFEREVPVS
346
56
  9
$CSHADOW
280
     0
  9
$SHADOWPLANELOCATION
 40
0.0
  0
ENDSEC
  0
SECTION
  2
CLASSES
  0
CLASS
  1
ACDBDICTIONARYWDFLT
  2
AcDbDictionaryWithDefault
  3
ObjectDBX Classes
 90
        0
 91
        1
280
     0
281
     0
  0
CLASS
  1
MATERIAL
  2
AcDbMaterial
  3
ObjectDBX Classes
 90
     1153
 91
        3
280
     0
281
     0
  0
CLASS
  1
VISUALSTYLE
  2
AcDbVisualStyle
  3
ObjectDBX Classes
 90
     4095
 91
        3
280
     0
281
     0
  0
CLASS
  1
TABLESTYLE
  2
AcDbTableStyle
  3
ObjectDBX Classes
 90
     4095
 91
        1
280
     0
281
     0
  0
CLASS
  1
SCALE
  2
AcDbScale
  3
ObjectDBX Classes
 90
     1153
 91
       33
280
     0
281
     0
  0
CLASS
  1
MLEADERSTYLE
  2
AcDbMLeaderStyle
  3
ACDB_MLEADERSTYLE_CLASS
 90
     4095
 91
        0
280
     0
281
     0
  0
CLASS
  1
CELLSTYLEMAP
  2
AcDbCellStyleMap
  3
ObjectDBX Classes
 90
     1152
 91
        1
280
     0
281
     0
  0
CLASS
  1
DICTIONARYVAR
  2
AcDbDictionaryVar
  3
ObjectDBX Classes
 90
        0
 91
        7
280
     0
281
     0
  0
CLASS
  1
SORTENTSTABLE
  2
AcDbSortentsTable
  3
ObjectDBX Classes
 90
        0
 91
        6
280
     0
281
     0
  0
CLASS
  1
ACAD_TABLE
  2
AcDbTable
  3
ObjectDBX Classes
 90
     1025
 91
        0
280
     0
281
     1
  0
CLASS
  1
TABLECONTENT
  2
AcDbTableContent
  3
ObjectDBX Classes
 90
     1152
 91
        0
280
     0
281
     0
  0
CLASS
  1
TABLEGEOMETRY
  2
AcDbTableGeometry
  3
ObjectDBX Classes
 90
     1152
 91
        0
280
     0
281
     0
  0
CLASS
  1
SOLID_BACKGROUND
  2
AcDbSolidBackground
  3
SCENEOE
 90
     4095
 91
        0
280
     0
281
     0
  0
CLASS
  1
NPOCOLLECTION
  2
AcDbImpNonPersistentObjectsCollection
  3
ObjectDBX Classes
 90
     1153
 91
        0
280
     0
281
     0
  0
CLASS
  1
EXACXREFPANELOBJECT
  2
ExAcXREFPanelObject
  3
EXAC_ESW
 90
     1025
 91
        0
280
     1
281
     0
  0
ENDSEC
  0
SECTION
  2
TABLES
  0
TABLE
  2
VPORT
  5
2A
102
{ACAD_XDICTIONARY
360
2E
102
}
330
0
100
AcDbSymbolTable
 70
     1
  0
VPORT
  5
2B
330
2A
100
AcDbSymbolTableRecord
100
AcDbViewportTableRecord
  2
*Active
 70
     0
 10
0.0
 20
0.0
 11
1.0
 21
1.0
 12
555.4630423978131
 22
239.0326625257543
 13
0.0
 23
0.0
 14
1.0
 24
1.0
 15
100.0
 25
100.0
 16
0.0
 26
0.0
 36
1.0
 17
0.0
 27
0.0
 37
0.0
 40
728.3777624062006
 41
1.804901960784313
 42
50.0
 43
0.0
 44
0.0
 50
0.0
 51
0.0
 71
     0
 72
  1000
 73
     1
 74
     0
 75
     0
 76
     0
 77
     0
 78
     0
281
     0
 65
     1
110
0.0
120
0.0
130
0.0
111
1.0
121
0.0
131
0.0
112
0.0
122
1.0
132
0.0
 79
     0
146
0.0
348
2C
 60
     3
 61
     5
292
     1
282
     1
141
0.0
142
0.0
 63
   250
421
  3355443
  0
ENDTAB
  0
TABLE
  2
LTYPE
  5
25
330
0
100
AcDbSymbolTable
 70
     3
  0
LTYPE
  5
26
330
25
100
AcDbSymbolTableRecord
100
AcDbLinetypeTableRecord
  2
ByBlock
 70
     0
  3

 72
    65
 73
     0
 40
0.0
  0
LTYPE
  5
27
330
25
100
AcDbSymbolTableRecord
100
AcDbLinetypeTableRecord
  2
ByLayer
 70
     0
  3

 72
    65
 73
     0
 40
0.0
  0
LTYPE
  5
15
330
25
100
AcDbSymbolTableRecord
100
AcDbLinetypeTableRecord
  2
CONTINUOUS
 70
     0
  3
Ausgezogene Linie
 72
    65
 73
     0
 40
0.0
  0
LTYPE
  5
28B
330
25
100
AcDbSymbolTableRecord
100
AcDbLinetypeTableRecord
  2
VERDECKT
 70
     0
  3
__ __ __ __ __ __ __ __ __ __ __ __ __ __ __ __
 72
    65
 73
     2
 40
0.375
 49
0.25
 74
     0
 49
-0.125
 74
     0
  0
LTYPE
  5
29D
330
25
100
AcDbSymbolTableRecord
100
AcDbLinetypeTableRecord
  2
STRICHPUNKT
 70
     0
  3
__ . __ . __ . __ . __ . __ . __ . __ . __ . __
 72
    65
 73
     4
 40
1.0
 49
0.5
 74
     0
 49
-0.25
 74
     0
 49
0.0
 74
     0
 49
-0.25
 74
     0
  0
ENDTAB
  0
TABLE
  2
LAYER
  5
1F
102
{ACAD_XDICTIONARY
360
20
102
}
330
0
100
AcDbSymbolTable
 70
    12
  0
LAYER
  5
6
102
{ACAD_XDICTIONARY
360
7
102
}
330
1F
100
AcDbSymbolTableRecord
100
AcDbLayerTableRecord
  2
0
 70
     0
 62
     7
  6
CONTINUOUS
370
    -3
390
9
347
C
  0
LAYER
  5
337
102
{ACAD_XDICTIONARY
360
338
102
}
330
1F
100
AcDbSymbolTableRecord
100
AcDbLayerTableRecord
  2
01-01
 70
     0
 62
     2
  6
CONTINUOUS
370
    -3
390
9
347
C
  0
LAYER
  5
A6
102
{ACAD_XDICTIONARY
360
A7
102
}
330
1F
100
AcDbSymbolTableRecord
100
AcDbLayerTableRecord
  2
02-01
 70
     0
 62
     1
  6
CONTINUOUS
370
    -3
390
9
347
C
  0
LAYER
  5
288
102
{ACAD_XDICTIONARY
360
289
102
}
330
1F
100
AcDbSymbolTableRecord
100
AcDbLayerTableRecord
  2
03-01
 70
     0
 62
     3
  6
VERDECKT
370
    -3
390
9
347
C
  0
LAYER
  5
29A
102
{ACAD_XDICTIONARY
360
29B
102
}
330
1F
100
AcDbSymbolTableRecord
100
AcDbLayerTableRecord
  2
05-01
 70
     0
 62
     1
  6
STRICHPUNKT
370
    -3
390
9
347
C
  0
LAYER
  5
79
102
{ACAD_XDICTIONARY
360
7A
102
}
330
1F
100
AcDbSymbolTableRecord
100
AcDbLayerTableRecord
  2
09-01
 70
     0
 62
     7
  6
CONTINUOUS
370
    -3
390
9
347
C
  0
LAYER
  5
A1
102
{ACAD_XDICTIONARY
360
A2
102
}
330
1F
100
AcDbSymbolTableRecord
100
AcDbLayerTableRecord
  2
01-99
 70
     0
 62
     2
  6
CONTINUOUS
370
    -3
390
9
347
C
  0
LAYER
  5
E1
102
{ACAD_XDICTIONARY
360
E2
102
}
330
1F
100
AcDbSymbolTableRecord
100
AcDbLayerTableRecord
  2
06-99
 70
     0
 62
     1
  6
CONTINUOUS
370
    -3
390
9
347
C
  0
LAYER
  5
87
330
1F
100
AcDbSymbolTableRecord
100
AcDbLayerTableRecord
  2
DEFPOINTS
 70
     0
 62
     7
  6
CONTINUOUS
290
     0
370
    -3
390
9
347
C
  0
LAYER
  5
30A
102
{ACAD_XDICTIONARY
360
30B
102
}
330
1F
100
AcDbSymbolTableRecord
100
AcDbLayerTableRecord
  2
10-01
 70
     0
 62
     4
  6
CONTINUOUS
370
    -3
390
9
347
C
  0
LAYER
  5
4E
102
{ACAD_XDICTIONARY
360
4F
102
}
330
1F
100
AcDbSymbolTableRecord
100
AcDbLayerTableRecord
  2
EBENE_1
 70
     0
 62
     7
  6
CONTINUOUS
370
    -3
390
9
347
C
  0
LAYER
  5
CB
102
{ACAD_XDICTIONARY
360
CC
102
}
330
1F
100
AcDbSymbolTableRecord
100
AcDbLayerTableRecord
  2
08-99
 70
     0
 62
     7
  6
CONTINUOUS
370
    -3
390
9
347
C
  0
ENDTAB
  0
TABLE
  2
STYLE
  5
22
330
0
100
AcDbSymbolTable
 70
     4
  0
STYLE
  5
23
330
22
100
AcDbSymbolTableRecord
100
AcDbTextStyleTableRecord
  2
STANDARD
 70
     0
 40
0.0
 41
1.0
 50
0.0
 71
     0
 42
3.5
  3
txt.shx
  4

  0
STYLE
  5
51
330
22
100
AcDbSymbolTableRecord
100
AcDbTextStyleTableRecord
  2
ROMANS
 70
     0
 40
0.0
 41
1.0
 50
0.0
 71
     0
 42
17.0
  3
ROMANS.SHX
  4

  0
STYLE
  5
CE
330
22
100
AcDbSymbolTableRecord
100
AcDbTextStyleTableRecord
  2
ROMANS8
 70
     0
 40
0.0
 41
1.0
 50
0.0
 71
     0
 42
2.5
  3
ROMANS8
  4

  0
STYLE
  5
225
330
22
100
AcDbSymbolTableRecord
100
AcDbTextStyleTableRecord
  2
ROMAND8
 70
     0
 40
0.0
 41
1.0
 50
0.0
 71
     0
 42
3.5
  3
ROMAND8
  4

  0
ENDTAB
  0
TABLE
  2
VIEW
  5
28
330
0
100
AcDbSymbolTable
 70
     0
  0
ENDTAB
  0
TABLE
  2
UCS
  5
29
330
0
100
AcDbSymbolTable
 70
     0
  0
ENDTAB
  0
TABLE
  2
APPID
  5
2F
330
0
100
AcDbSymbolTable
 70
     5
  0
APPID
  5
30
330
2F
100
AcDbSymbolTableRecord
100
AcDbRegAppTableRecord
  2
ACAD
 70
     0
  0
APPID
  5
25F
330
2F
100
AcDbSymbolTableRecord
100
AcDbRegAppTableRecord
  2
ACAD_DSTYLE_DIMRADIAL_EXTENSION
 70
     0
  0
APPID
  5
33
330
2F
100
AcDbSymbolTableRecord
100
AcDbRegAppTableRecord
  2
ACAD_DSTYLE_DIMJOGGED_JOGANGLE_SYMBOL
 70
     0
  0
APPID
  5
34
330
2F
100
AcDbSymbolTableRecord
100
AcDbRegAppTableRecord
  2
ACAD_DSTYLE_DIMJAG
 70
     0
  0
APPID
  5
35
330
2F
100
AcDbSymbolTableRecord
100
AcDbRegAppTableRecord
  2
ACAD_DSTYLE_DIMTALN
 70
     0
  0
ENDTAB
  0
TABLE
  2
DIMSTYLE
  5
31
330
0
100
AcDbSymbolTable
 70
     2
100
AcDbDimStyleTable
 71
     1
340
32
  0
DIMSTYLE
105
32
102
{ACAD_REACTORS
330
362
330
255
102
}
330
31
100
AcDbSymbolTableRecord
100
AcDbDimStyleTableRecord
  2
Wagner
 70
     0
 41
2.5
 42
1.0
 43
10.0
 44
1.0
 73
     0
 74
     0
 77
     1
 78
     8
 79
     2
140
2.5
141
0.0
143
0.03937007874016
147
1.0
171
     3
172
     1
176
     4
177
     4
178
     1
179
     1
271
     1
272
     1
274
     3
283
     0
284
     8
340
23
1001
ACAD_DSTYLE_DIMJOGGED_JOGANGLE_SYMBOL
1070
   384
1040
0.7853981633974483
1001
ACAD_DSTYLE_DIMJAG
1070
   388
1040
1.5
1001
ACAD_DSTYLE_DIMTALN
1070
   392
1070
     0
  0
DIMSTYLE
105
8B
102
{ACAD_REACTORS
330
353
330
36E
330
37A
330
38A
330
397
330
3A4
330
3B1
330
3C4
330
3D6
330
3E3
330
3F2
330
403
330
31B
330
309
330
2FA
330
2E9
330
2DC
330
2CD
330
2AB
330
27A
330
26D
330
260
330
8C
330
78
102
}
330
31
100
AcDbSymbolTableRecord
100
AcDbDimStyleTableRecord
  2
Wagner$0
 70
     0
 41
2.5
 42
1.0
 43
10.0
 44
1.0
 73
     0
 74
     0
 77
     1
 78
     8
 79
     2
140
2.5
141
0.0
143
0.03937007874016
147
1.0
171
     3
172
     1
174
     1
176
     4
177
     4
178
     1
179
     1
271
     1
272
     1
274
     3
279
     2
283
     0
284
     8
340
23
1001
ACAD_DSTYLE_DIMJOGGED_JOGANGLE_SYMBOL
1070
   384
1040
0.7853981633974483
1001
ACAD_DSTYLE_DIMJAG
1070
   388
1040
1.5
1001
ACAD_DSTYLE_DIMTALN
1070
   392
1070
     0
  0
ENDTAB
  0
TABLE
  2
BLOCK_RECORD
  5
1
330
0
100
AcDbSymbolTable
 70
    31
  0
BLOCK_RECORD
  5
2
102
{ACAD_XDICTIONARY
360
3
102
}
330
1
100
AcDbSymbolTableRecord
100
AcDbBlockTableRecord
  2
*Model_Space
340
17
 70
     0
280
     1
281
     0
  0
BLOCK_RECORD
  5
1B
330
1
100
AcDbSymbolTableRecord
100
AcDbBlockTableRecord
  2
*Paper_Space
340
1E
 70
     0
280
     1
281
     0
  0
BLOCK_RECORD
  5
33A
102
{ACAD_XDICTIONARY
360
33B
102
}
330
1
100
AcDbSymbolTableRecord
100
AcDbBlockTableRecord
  2
010404
340
0
102
{BLKREFS
331
336
102
}
 70
     0
280
     1
281
     0
  0
BLOCK_RECORD
  5
36F
330
1
100
AcDbSymbolTableRecord
100
AcDbBlockTableRecord
  2
*D1
340
0
 70
     0
280
     1
281
     0
  0
BLOCK_RECORD
  5
37B
330
1
100
AcDbSymbolTableRecord
100
AcDbBlockTableRecord
  2
*D2
340
0
 70
     0
280
     1
281
     0
  0
BLOCK_RECORD
  5
354
330
1
100
AcDbSymbolTableRecord
100
AcDbBlockTableRecord
  2
*D3
340
0
 70
     0
280
     1
281
     0
  0
BLOCK_RECORD
  5
363
330
1
100
AcDbSymbolTableRecord
100
AcDbBlockTableRecord
  2
*D4
340
0
 70
     0
280
     1
281
     0
  0
BLOCK_RECORD
  5
38B
330
1
100
AcDbSymbolTableRecord
100
AcDbBlockTableRecord
  2
*D5
340
0
 70
     0
280
     1
281
     0
  0
BLOCK_RECORD
  5
398
330
1
100
AcDbSymbolTableRecord
100
AcDbBlockTableRecord
  2
*D6
340
0
 70
     0
280
     1
281
     0
  0
BLOCK_RECORD
  5
3A5
330
1
100
AcDbSymbolTableRecord
100
AcDbBlockTableRecord
  2
*D7
340
0
 70
     0
280
     1
281
     0
  0
BLOCK_RECORD
  5
3B2
330
1
100
AcDbSymbolTableRecord
100
AcDbBlockTableRecord
  2
*D8
340
0
 70
     0
280
     1
281
     0
  0
BLOCK_RECORD
  5
3C5
330
1
100
AcDbSymbolTableRecord
100
AcDbBlockTableRecord
  2
*D9
340
0
 70
     0
280
     1
281
     0
  0
BLOCK_RECORD
  5
3D7
330
1
100
AcDbSymbolTableRecord
100
AcDbBlockTableRecord
  2
*D10
340
0
 70
     0
280
     1
281
     0
  0
BLOCK_RECORD
  5
3E4
330
1
100
AcDbSymbolTableRecord
100
AcDbBlockTableRecord
  2
*D11
340
0
 70
     0
280
     1
281
     0
  0
BLOCK_RECORD
  5
3F3
330
1
100
AcDbSymbolTableRecord
100
AcDbBlockTableRecord
  2
*D12
340
0
 70
     0
280
     1
281
     0
  0
BLOCK_RECORD
  5
404
330
1
100
AcDbSymbolTableRecord
100
AcDbBlockTableRecord
  2
*D13
340
0
 70
     0
280
     1
281
     0
  0
BLOCK_RECORD
  5
31C
330
1
100
AcDbSymbolTableRecord
100
AcDbBlockTableRecord
  2
*D14
340
0
 70
     0
280
     1
281
     0
  0
BLOCK_RECORD
  5
30D
330
1
100
AcDbSymbolTableRecord
100
AcDbBlockTableRecord
  2
*D15
340
0
 70
     0
280
     1
281
     0
  0
BLOCK_RECORD
  5
2FB
330
1
100
AcDbSymbolTableRecord
100
AcDbBlockTableRecord
  2
*D16
340
0
 70
     0
280
     1
281
     0
  0
BLOCK_RECORD
  5
2EA
330
1
100
AcDbSymbolTableRecord
100
AcDbBlockTableRecord
  2
*D17
340
0
 70
     0
280
     1
281
     0
  0
BLOCK_RECORD
  5
2DD
330
1
100
AcDbSymbolTableRecord
100
AcDbBlockTableRecord
  2
*D18
340
0
 70
     0
280
     1
281
     0
  0
BLOCK_RECORD
  5
2CE
330
1
100
AcDbSymbolTableRecord
100
AcDbBlockTableRecord
  2
*D19
340
0
 70
     0
280
     1
281
     0
  0
BLOCK_RECORD
  5
2AC
330
1
100
AcDbSymbolTableRecord
100
AcDbBlockTableRecord
  2
*D20
340
0
 70
     0
280
     1
281
     0
  0
BLOCK_RECORD
  5
28F
330
1
100
AcDbSymbolTableRecord
100
AcDbBlockTableRecord
  2
Scharnier-023555-S-1
340
0
310
2800000020000000200000000100080000000000000400000000000000000000000000000000000000000000000080000080000000808000800000008000800080800000C0C0C000C0DCC000F0CAA6000020400000206000002080000020A0000020C0000020E00000400000004020000040400000406000004080000040A0
310
000040C0000040E00000600000006020000060400000606000006080000060A0000060C0000060E00000800000008020000080400000806000008080000080A0000080C0000080E00000A0000000A0200000A0400000A0600000A0800000A0A00000A0C00000A0E00000C0000000C0200000C0400000C0600000C0800000C0
310
A00000C0C00000C0E00000E0000000E0200000E0400000E0600000E0800000E0A00000E0C00000E0E00040000000400020004000400040006000400080004000A0004000C0004000E00040200000402020004020400040206000402080004020A0004020C0004020E000404000004040200040404000404060004040800040
310
40A0004040C0004040E00040600000406020004060400040606000406080004060A0004060C0004060E00040800000408020004080400040806000408080004080A0004080C0004080E00040A0000040A0200040A0400040A0600040A0800040A0A00040A0C00040A0E00040C0000040C0200040C0400040C0600040C08000
310
40C0A00040C0C00040C0E00040E0000040E0200040E0400040E0600040E0800040E0A00040E0C00040E0E00080000000800020008000400080006000800080008000A0008000C0008000E00080200000802020008020400080206000802080008020A0008020C0008020E00080400000804020008040400080406000804080
310
008040A0008040C0008040E00080600000806020008060400080606000806080008060A0008060C0008060E00080800000808020008080400080806000808080008080A0008080C0008080E00080A0000080A0200080A0400080A0600080A0800080A0A00080A0C00080A0E00080C0000080C0200080C0400080C0600080C0
310
800080C0A00080C0C00080C0E00080E0000080E0200080E0400080E0600080E0800080E0A00080E0C00080E0E000C0000000C0002000C0004000C0006000C0008000C000A000C000C000C000E000C0200000C0202000C0204000C0206000C0208000C020A000C020C000C020E000C0400000C0402000C0404000C0406000C0
310
408000C040A000C040C000C040E000C0600000C0602000C0604000C0606000C0608000C060A000C060C000C060E000C0800000C0802000C0804000C0806000C0808000C080A000C080C000C080E000C0A00000C0A02000C0A04000C0A06000C0A08000C0A0A000C0A0C000C0A0E000C0C00000C0C02000C0C04000C0C06000
310
C0C08000C0C0A000F0FBFF00A4A0A000808080000000FF0000FF000000FFFF00FF000000FF00FF00FFFF0000FFFFFF00000000000000000000000000000000000000000000000000000000000000000000000000000000000000000000000000FF000000000000000000000000000000000000000000000000000000000000
310
00FF00000000000000000000000000000000000000000000000000000000000000FF000000000000000000000000000000000000000000000000000000000000FFFF000000000000000000000000000000000000000000000000000000000000FFFF0000000000000000000000000000000000000000000000000000000000
310
00FFFF000000000000000000000000000000000000000000000000000000000000FFFF000000000000000000000000000000000000000000000000000000000000FFFF000000000000000000000000000000000000000000000000000000000000FFFF00000000000000000000000000000000000000000000000000000000
310
0000FFFF000000000000000000000000000000000000000000000000000000000000FFFF000000000000000000000000000000000000000000000000000000000000FFFF000000000000000000000000000000000000000000000000000000000000FFFF000000000000000000000000000000000000000000000000000000
310
000000FFFF000000000000000000000000000000000000000000000000000000000000FFFF000000000000000000000000000000000000000000000000000000000000FFFF000000000000000000000000000000000000000000000000000000000000FFFF0000000000000000000000000000000000000000000000000000
310
00000000FFFF000000000000000000000000000000000000000000000000000000000000FFFF000000000000000000000000000000000000000000000000000000000000FFFF000000000000000000000000000000000000000000000000000000000000FFFF00000000000000000000000000000000000000000000000000
310
0000000000FFFF000000000000000000000000000000000000000000000000000000000000FFFF000000000000000000000000000000000000000000000000000000000000FFFF000000000000000000000000000000000000000000000000000000000000FFFF000000000000000000000000000000000000000000000000
310
000000000000FFFF000000000000000000000000000000000000000000000000000000000000FFFF000000000000000000000000000000000000000000000000000000000000FFFF000000000000000000000000000000000000000000000000000000000000FFFF0000000000000000000000000000000000000000000000
310
00000000000000FFFF0000000000000000000000000000000000000000000000000000000000000000000000000000000000000000000000
102
{BLKREFS
331
28E
102
}
 70
     4
280
     1
281
     1
  0
BLOCK_RECORD
  5
297
330
1
100
AcDbSymbolTableRecord
100
AcDbBlockTableRecord
  2
Scharnier-023555-S-2
340
0
310
2800000020000000200000000100080000000000000400000000000000000000000000000000000000000000000080000080000000808000800000008000800080800000C0C0C000C0DCC000F0CAA6000020400000206000002080000020A0000020C0000020E00000400000004020000040400000406000004080000040A0
310
000040C0000040E00000600000006020000060400000606000006080000060A0000060C0000060E00000800000008020000080400000806000008080000080A0000080C0000080E00000A0000000A0200000A0400000A0600000A0800000A0A00000A0C00000A0E00000C0000000C0200000C0400000C0600000C0800000C0
310
A00000C0C00000C0E00000E0000000E0200000E0400000E0600000E0800000E0A00000E0C00000E0E00040000000400020004000400040006000400080004000A0004000C0004000E00040200000402020004020400040206000402080004020A0004020C0004020E000404000004040200040404000404060004040800040
310
40A0004040C0004040E00040600000406020004060400040606000406080004060A0004060C0004060E00040800000408020004080400040806000408080004080A0004080C0004080E00040A0000040A0200040A0400040A0600040A0800040A0A00040A0C00040A0E00040C0000040C0200040C0400040C0600040C08000
310
40C0A00040C0C00040C0E00040E0000040E0200040E0400040E0600040E0800040E0A00040E0C00040E0E00080000000800020008000400080006000800080008000A0008000C0008000E00080200000802020008020400080206000802080008020A0008020C0008020E00080400000804020008040400080406000804080
310
008040A0008040C0008040E00080600000806020008060400080606000806080008060A0008060C0008060E00080800000808020008080400080806000808080008080A0008080C0008080E00080A0000080A0200080A0400080A0600080A0800080A0A00080A0C00080A0E00080C0000080C0200080C0400080C0600080C0
310
800080C0A00080C0C00080C0E00080E0000080E0200080E0400080E0600080E0800080E0A00080E0C00080E0E000C0000000C0002000C0004000C0006000C0008000C000A000C000C000C000E000C0200000C0202000C0204000C0206000C0208000C020A000C020C000C020E000C0400000C0402000C0404000C0406000C0
310
408000C040A000C040C000C040E000C0600000C0602000C0604000C0606000C0608000C060A000C060C000C060E000C0800000C0802000C0804000C0806000C0808000C080A000C080C000C080E000C0A00000C0A02000C0A04000C0A06000C0A08000C0A0A000C0A0C000C0A0E000C0C00000C0C02000C0C04000C0C06000
310
C0C08000C0C0A000F0FBFF00A4A0A000808080000000FF0000FF000000FFFF00FF000000FF00FF00FFFF0000FFFFFF0000000000000000000000000000000000000000000000000000000000000000000000000000000000000000000000000000000000000000000000000000000000000000000000000000000000000000
310
00000000000000000000000000000000000000000000000000000000000000000000000000000000000000000000000000000000000000000000000000000000000000000000000000000000000000000000000000000000000000000000000000000000000000000000000000000000000000000000000000000000000000
310
000000000000000000000000000000000000000000000000000000000000000000000000000000000000000000000000000000000000000000000000000000000000000000000000000000000000000000000000000000000000000000000000000000000000000000F9000000000000000000000000000000000000000000
310
00000000000000000000F900000000F900000000FFFFFFFFFFFFFFFFFFFFFFFFFFFFFFFFFFFFFFFFFFFFF9FFFFF9F9F900000000FF000000000000000000000000000000000000000000F90000FFFFF900000000FFFFFFFFFFFFFFFFFFFFFFFFFFFFFFFFFFFFFFFFFFFFF9FFFF00FFF9000000000000000000000000000000
310
00000000000000FFFFFFFFF900FFFF00FF000000000000000000000000000000000000000000FF0000FF00F90000FF00FF0000000000000000000000000000000000000000F9FFF9F9FFF9F9F9F9FFF9FFF9F90000000000000000000000000000000000000000FF00FF00F900FFFF00FF0000000000000000000000000000
310
0000000000000000FF00FFFFF9FFFF00FF000000000000000000000000000000000000000000000000FF0000F90000FFFF00000000000000000000000000000000000000000000000000FFFFF9FFFF0000000000000000000000000000000000000000000000000000000000F9000000000000000000000000000000000000
310
00000000000000000000000000F90000000000000000000000000000000000000000000000000000000000000000000000000000000000000000000000000000000000000000000000000000000000000000000000000000000000000000000000000000000000000000000000000000000000000000000000000000000000
310
00000000000000000000000000000000000000000000000000000000000000000000000000000000000000000000000000000000000000000000000000000000000000000000000000000000000000000000000000000000000000000000000000000000000000000000000000000000000000000000000000000000000000
310
0000000000000000000000000000000000000000000000000000000000000000000000000000000000000000000000000000000000000000
102
{BLKREFS
331
296
102
}
 70
     4
280
     1
281
     1
  0
BLOCK_RECORD
  5
28C
330
1
100
AcDbSymbolTableRecord
100
AcDbBlockTableRecord
  2
Scharnier-023555-S
340
0
310
2800000020000000200000000100080000000000000400000000000000000000000000000000000000000000000080000080000000808000800000008000800080800000C0C0C000C0DCC000F0CAA6000020400000206000002080000020A0000020C0000020E00000400000004020000040400000406000004080000040A0
310
000040C0000040E00000600000006020000060400000606000006080000060A0000060C0000060E00000800000008020000080400000806000008080000080A0000080C0000080E00000A0000000A0200000A0400000A0600000A0800000A0A00000A0C00000A0E00000C0000000C0200000C0400000C0600000C0800000C0
310
A00000C0C00000C0E00000E0000000E0200000E0400000E0600000E0800000E0A00000E0C00000E0E00040000000400020004000400040006000400080004000A0004000C0004000E00040200000402020004020400040206000402080004020A0004020C0004020E000404000004040200040404000404060004040800040
310
40A0004040C0004040E00040600000406020004060400040606000406080004060A0004060C0004060E00040800000408020004080400040806000408080004080A0004080C0004080E00040A0000040A0200040A0400040A0600040A0800040A0A00040A0C00040A0E00040C0000040C0200040C0400040C0600040C08000
310
40C0A00040C0C00040C0E00040E0000040E0200040E0400040E0600040E0800040E0A00040E0C00040E0E00080000000800020008000400080006000800080008000A0008000C0008000E00080200000802020008020400080206000802080008020A0008020C0008020E00080400000804020008040400080406000804080
310
008040A0008040C0008040E00080600000806020008060400080606000806080008060A0008060C0008060E00080800000808020008080400080806000808080008080A0008080C0008080E00080A0000080A0200080A0400080A0600080A0800080A0A00080A0C00080A0E00080C0000080C0200080C0400080C0600080C0
310
800080C0A00080C0C00080C0E00080E0000080E0200080E0400080E0600080E0800080E0A00080E0C00080E0E000C0000000C0002000C0004000C0006000C0008000C000A000C000C000C000E000C0200000C0202000C0204000C0206000C0208000C020A000C020C000C020E000C0400000C0402000C0404000C0406000C0
310
408000C040A000C040C000C040E000C0600000C0602000C0604000C0606000C0608000C060A000C060C000C060E000C0800000C0802000C0804000C0806000C0808000C080A000C080C000C080E000C0A00000C0A02000C0A04000C0A06000C0A08000C0A0A000C0A0C000C0A0E000C0C00000C0C02000C0C04000C0C06000
310
C0C08000C0C0A000F0FBFF00A4A0A000808080000000FF0000FF000000FFFF00FF000000FF00FF00FFFF0000FFFFFF0000000000000000000000000000000000000000000000000000000000000000000000000000000000000000000000000000000000F9000000000000000000000000000000000000FFFFFFFFFFFFFFFF
310
FFFFFFFFFFF9FFF9F9F90000000000000000000000000000FF000000000000000000000000F9FFFFF9000000000000000000000000000000FFFFFFFFFFFFFFFFFFFFFFFFFFF9FFFFFF00000000000000000000000000000000000000000000000000FFF9FFF9F9FFFFF9000000000000000000000000000000000000000000
310
000000FF00FFF900FFFF0000000000000000000000000000000000000000000000000000FFFFF9FFFFFF0000000000000000000000000000000000000000000000000000FFFFF9FFFFFF00000000000000000000000000000000000000000000000000000000F900FFFF000000000000000000000000000000000000000000
310
000000000000000000FFFF000000000000000000000000000000000000000000000000000000000000FFFF000000000000000000000000000000000000000000000000000000000000FFFF000000000000000000000000000000000000000000000000000000000000FFFF0000000000000000000000000000000000000000
310
00000000000000000000FFFF000000000000000000000000000000000000000000000000000000000000FFFF000000000000000000000000000000000000000000000000000000000000FFFF000000000000000000000000000000000000000000000000000000000000FFFF00000000000000000000000000000000000000
310
0000000000000000000000FFFF000000000000000000000000000000000000000000000000000000000000FFFF000000000000000000000000000000000000000000000000000000000000FFFF000000000000000000000000000000000000000000000000000000000000FFFF000000000000000000000000000000000000
310
000000000000000000000000FFFF000000000000000000000000000000000000000000000000000000000000FFFF000000000000000000000000000000000000000000000000000000000000FFFF000000000000000000000000000000000000000000000000000000000000FFFF0000000000000000000000000000000000
310
00000000000000000000000000FFFF000000000000000000000000000000000000000000000000000000000000FFFF000000000000000000000000000000000000000000000000000000000000FFFF000000000000000000000000000000000000000000000000000000000000FFFF00000000000000000000000000000000
310
0000000000000000000000000000FFFF00000000000000000000000000000000000000000000000000000000000000000000000000000000
102
{BLKREFS
331
287
102
}
 70
     4
280
     1
281
     1
  0
BLOCK_RECORD
  5
27B
330
1
100
AcDbSymbolTableRecord
100
AcDbBlockTableRecord
  2
*D24
340
0
 70
     0
280
     1
281
     0
  0
BLOCK_RECORD
  5
26E
330
1
100
AcDbSymbolTableRecord
100
AcDbBlockTableRecord
  2
*D25
340
0
 70
     0
280
     1
281
     0
  0
BLOCK_RECORD
  5
261
330
1
100
AcDbSymbolTableRecord
100
AcDbBlockTableRecord
  2
*D26
340
0
 70
     0
280
     1
281
     0
  0
BLOCK_RECORD
  5
256
330
1
100
AcDbSymbolTableRecord
100
AcDbBlockTableRecord
  2
*D27
340
0
 70
     0
280
     1
281
     0
  0
BLOCK_RECORD
  5
9C
102
{ACAD_XDICTIONARY
360
9D
102
}
330
1
100
AcDbSymbolTableRecord
100
AcDbBlockTableRecord
  2
DIN A3
340
0
102
{BLKREFS
331
9B
102
}
 70
     4
280
     1
281
     0
  0
BLOCK_RECORD
  5
8D
330
1
100
AcDbSymbolTableRecord
100
AcDbBlockTableRecord
  2
*D29
340
0
 70
     0
280
     1
281
     0
  0
BLOCK_RECORD
  5
7C
330
1
100
AcDbSymbolTableRecord
100
AcDbBlockTableRecord
  2
*D30
340
0
 70
     0
280
     1
281
     0
  0
ENDTAB
  0
ENDSEC
  0
SECTION
  2
BLOCKS
  0
BLOCK
  5
5
330
2
100
AcDbEntity
  8
0
100
AcDbBlockBegin
  2
*Model_Space
 70
     0
 10
0.0
 20
0.0
 30
0.0
  3
*Model_Space
  1

  0
ENDBLK
  5
16
330
2
100
AcDbEntity
  8
0
100
AcDbBlockEnd
  0
BLOCK
  5
1C
330
1B
100
AcDbEntity
 67
     1
  8
0
100
AcDbBlockBegin
  2
*Paper_Space
 70
     0
 10
0.0
 20
0.0
 30
0.0
  3
*Paper_Space
  1

  0
ENDBLK
  5
1D
330
1B
100
AcDbEntity
 67
     1
  8
0
100
AcDbBlockEnd
  0
BLOCK
  5
33D
330
33A
100
AcDbEntity
  8
0
100
AcDbBlockBegin
  2
010404
 70
     0
 10
0.0
 20
0.0
 30
0.0
  3
010404
  1

  0
SOLID
  5
33E
330
33A
100
AcDbEntity
  8
EBENE_1
 62
     1
100
AcDbTrace
 10
-18.59910299999993
 20
-4.15218150000004
 30
0.0
 11
-2.870252999999991
 21
-4.15218150000004
 31
0.0
 12
-18.75513149999992
 22
-4.945527000000026
 32
0.0
 13
-3.02628599999997
 23
-4.945527000000026
 33
0.0
  0
LWPOLYLINE
  5
33F
330
33A
100
AcDbEntity
  8
EBENE_1
  6
Continuous
 62
     1
100
AcDbPolyline
 90
        4
 70
     1
 43
0.0135
 10
-18.59910299999993
 20
-4.15218150000004
 10
-2.870252999999991
 20
-4.15218150000004
 10
-3.02628599999997
 20
-4.945527000000026
 10
-18.75513149999992
 20
-4.945527000000026
  0
LWPOLYLINE
  5
340
330
33A
100
AcDbEntity
  8
EBENE_1
  6
Continuous
 62
     1
100
AcDbPolyline
 90
        7
 70
     1
 43
0.0135
 10
-6.699685499999901
 20
-0.0525195000000736
 10
-6.270376499999997
 20
-0.0525195000000736
 10
-5.654002499999933
 20
1.517642999999964
 10
-3.759430499999893
 20
1.517642999999964
 10
-3.168989999999951
 20
-0.0525195000000736
 10
-2.708324999999945
 20
-0.0525195000000736
 10
-4.66128900000001
 20
4.768253999999899
  0
LWPOLYLINE
  5
341
330
33A
100
AcDbEntity
  8
EBENE_1
  6
Continuous
 62
     1
100
AcDbPolyline
 90
       10
 70
     1
 43
0.0135
 10
-11.79733499999992
 20
-0.1768725000000586
 10
-10.56458249999991
 20
3.704183999999997
 10
-9.279904499999929
 20
-0.1768725000000586
 10
-7.729208999999997
 20
4.586588999999946
 10
-8.163917999999966
 20
4.586588999999946
 10
-9.279904499999929
 20
0.9142379999998979
 10
-10.56458249999991
 20
4.768253999999899
 10
-11.79733499999992
 20
0.8817975000000046
 10
-12.95873999999997
 20
4.586588999999946
 10
-13.3999379999999
 20
4.586588999999946
  0
LWPOLYLINE
  5
342
330
33A
100
AcDbEntity
  8
EBENE_1
  6
Continuous
 62
     1
100
AcDbPolyline
 90
       12
 70
     1
 43
0.0135
 10
-1.136497500000018
 20
-4.944622499999979
 10
1.241365500000114
 20
-4.944622499999979
 10
1.424871000000052
 20
-3.991509000000007
 10
0.2850615000000971
 20
-3.991509000000007
 10
0.3559995000000526
 20
-3.623040000000116
 10
1.363149000000106
 20
-3.623040000000116
 10
1.536236999999999
 20
-2.723980500000095
 10
0.5290875000000597
 20
-2.723980500000095
 10
0.5943735000001027
 20
-2.384973000000115
 10
1.70470350000005
 20
-2.384973000000115
 10
1.888195500000023
 20
-1.431877499999984
 10
-0.4601879999999597
 20
-1.431877499999984
  0
LWPOLYLINE
  5
343
330
33A
100
AcDbEntity
  8
EBENE_1
  6
Continuous
 62
     1
100
AcDbPolyline
 90
      133
 70
     1
 43
0.0135
 10
2.623999500000024
 20
3.418699499999945
 10
2.928933000000085
 20
3.684712499999989
 10
2.820100499999995
 20
3.860230499999886
 10
2.695621500000015
 20
4.018752000000006
 10
2.555928000000108
 20
4.16033550000003
 10
2.401469999999989
 20
4.285048499999902
 10
2.232679499999989
 20
4.392940499999951
 10
2.049993000000029
 20
4.484069999999917
 10
1.853856000000007
 20
4.558504499999969
 10
1.644700500000112
 20
4.616293499999926
 10
1.422967499999998
 20
4.657495500000038
 10
1.189098000000086
 20
4.682177999999964
 10
0.9435285000000419
 20
4.690390499999978
 10
0.7403400000000602
 20
4.68273599999992
 10
0.5436990000000037
 20
4.660105499999929
 10
0.3540240000000381
 20
4.622989500000016
 10
0.1717380000001185
 20
4.571887499999945
 10
-0.0027404999999874
 20
4.507298999999989
 10
-0.1690019999999777
 20
4.42971899999992
 10
-0.3266144999999483
 20
4.339642499999911
 10
-0.4751684999999953
 20
4.237564499999905
 10
-0.6142454999999245
 20
4.123980000000017
 10
-0.7434179999999629
 20
3.999392999999997
 10
-0.8622809999998821
 20
3.864289499999983
 10
-0.970406999999966
 20
3.719177999999999
 10
-1.067377499999935
 20
3.564544499999954
 10
-1.152778499999953
 20
3.400888500000007
 10
-1.226186999999924
 20
3.22870499999999
 10
-1.287188999999898
 20
3.048497999999938
 10
-1.335365999999908
 20
2.86075349999993
 10
-1.370290499999981
 20
2.665975499999888
 10
-1.391557500000004
 20
2.464654499999994
 10
-1.398734999999931
 20
2.257290000000011
 10
-1.391647499999919
 20
2.043774000000041
 10
-1.370623499999908
 20
1.837543499999981
 10
-1.336040999999994
 20
1.638998999999955
 10
-1.288277999999991
 20
1.448536499999875
 10
-1.22770799999995
 20
1.26655199999999
 10
-1.154704499999951
 20
1.093441499999983
 10
-1.06964099999999
 20
0.9295964999999455
 10
-0.9728954999999359
 20
0.7754174999999464
 10
-0.8648414999999545
 20
0.6312959999999635
 10
-0.7458479999999668
 20
0.497632499999952
 10
-0.6163019999999904
 20
0.3748185000000035
 10
-0.4765634999999407
 20
0.2632544999999027
 10
-0.3270194999999489
 20
0.1633319999999685
 10
-0.1680389999999647
 20
0.0754469999999969
 10
0.0
 20
0.0
 10
0.1767285000000243
 20
-0.0626174999999876
 10
0.361764000000079
 20
-0.1120094999999424
 10
0.554742000000033
 20
-0.1477799999999547
 10
0.7552755000000673
 20
-0.1695330000000581
 10
0.9629999999999938
 20
-0.1768725000000586
 10
1.170067500000044
 20
-0.1702395000000365
 10
1.368720000000109
 20
-0.1504934999999818
 10
1.558719000000024
 20
-0.1178775000000201
 10
1.739825999999993
 20
-0.0726344999999924
 10
1.91180700000001
 20
-0.0150029999999788
 10
2.074419000000006
 20
0.0547784999999408
 10
2.227428000000088
 20
0.1364669999999819
 10
2.370586500000058
 20
0.2298284999999964
 10
2.503669500000057
 20
0.3346199999999158
 10
2.62642500000004
 20
0.4505939999999669
 10
2.738623500000045
 20
0.577525499999922
 10
2.840026500000078
 20
0.7151579999999172
 10
2.930391000000099
 20
0.8632664999999519
 10
3.009478500000057
 20
1.02159899999998
 10
3.077055000000086
 20
1.189921499999911
 10
3.132882000000051
 20
1.367990999999904
 10
3.176712000000037
 20
1.555568999999934
 10
3.208320000000043
 20
1.752416999999979
 10
3.227458500000068
 20
1.958296499999903
 10
3.23388900000009
 20
2.172959999999932
 10
3.23388900000009
 20
2.172959999999932
 10
3.23388900000009
 20
2.237836500000014
 10
1.170621000000039
 20
2.237836500000014
 10
1.170621000000039
 20
1.874488499999927
 10
2.773224000000027
 20
1.874488499999927
 10
2.759665499999982
 20
1.669257000000015
 10
2.725155000000029
 20
1.473997499999939
 10
2.670583500000077
 20
1.28954699999997
 10
2.596842000000037
 20
1.116746999999975
 10
2.504830500000082
 20
0.9564254999999661
 10
2.39544450000011
 20
0.8094329999999558
 10
2.269566000000111
 20
0.6765929999999685
 10
2.128099500000047
 20
0.5587559999999599
 10
1.971936000000027
 20
0.4567454999999541
 10
1.801966500000048
 20
0.3714075000000321
 10
1.619086500000065
 20
0.303574499999911
 10
1.424191500000119
 20
0.2540880000000243
 10
1.218172500000093
 20
0.2237804999999184
 10
1.001925000000085
 20
0.21349349999997
 10
0.7940205000001015
 20
0.223532999999918
 10
0.5941530000000057
 20
0.2530574999998976
 10
0.4030695000000151
 20
0.3011714999999526
 10
0.2215125000000171
 20
0.3669839999999453
 10
0.0502155000000926
 20
0.4495994999999198
 10
-0.1100744999998824
 20
0.5481224999999768
 10
-0.258619499999952
 20
0.6616664999999671
 10
-0.3946725000000128
 20
0.7893315000000598
 10
-0.5174954999999386
 20
0.9302264999999465
 10
-0.6263504999999441
 20
1.083460500000001
 10
-0.7204904999998974
 20
1.248133499999937
 10
-0.7991774999999848
 20
1.423358999999948
 10
-0.8616689999998925
 20
1.608241499999905
 10
-0.9072224999999889
 20
1.801881000000037
 10
-0.9350999999999771
 20
2.00339550000001
 10
-0.9445545000000095
 20
2.211884999999881
 10
-0.9364904999999055
 20
2.424478499999963
 10
-0.9126224999999408
 20
2.629039499999919
 10
-0.8734544999999513
 20
2.824937999999917
 10
-0.8194859999999835
 20
3.011548499999946
 10
-0.7512119999999527
 20
3.188245499999936
 10
-0.6691364999999792
 20
3.354407999999978
 10
-0.5737589999999671
 20
3.509401500000024
 10
-0.4655744999999172
 20
3.652609499999982
 10
-0.3450869999999782
 20
3.783397500000035
 10
-0.2127869999999348
 20
3.901144499999929
 10
-0.0691874999998845
 20
4.005220500000007
 10
0.0852255000000923
 20
4.095004500000015
 10
0.2499435000000005
 20
4.169866499999955
 10
0.4244715000000952
 20
4.229180999999982
 10
0.6083145000000627
 20
4.272322499999916
 10
0.8009640000000786
 20
4.298669999999958
 10
1.001925000000085
 20
4.30758899999995
 10
1.226299500000038
 20
4.296329999999954
 10
1.440634500000044
 20
4.262696999999946
 10
1.644502500000101
 20
4.206901500000014
 10
1.837476000000037
 20
4.129154999999911
 10
2.019127500000081
 20
4.029677999999933
 10
2.189034000000049
 20
3.90867750000001
 10
2.34676800000011
 20
3.766373999999984
 10
2.491897500000106
 20
3.602974499999959
  0
LWPOLYLINE
  5
344
330
33A
100
AcDbEntity
  8
EBENE_1
  6
Continuous
 62
     1
100
AcDbPolyline
 90
       34
 70
     1
 43
0.0135
 10
5.939842500000111
 20
-3.16613250000006
 10
5.984063999999989
 20
-3.16613250000006
 10
5.966064000000017
 20
-3.386308499999984
 10
5.965528500000118
 20
-3.578098500000066
 10
5.97070350000007
 20
-3.745867499999974
 10
6.005214000000052
 20
-4.944622499999979
 10
7.105716000000001
 20
-4.944622499999979
 10
8.808821999999992
 20
-1.431877499999984
 10
7.541293500000051
 20
-1.431877499999984
 10
6.968196000000091
 20
-2.979450000000042
 10
6.904935000000079
 20
-3.156853500000067
 10
6.830478000000027
 20
-3.386668500000098
 10
6.756219000000044
 20
-3.672166499999946
 10
6.726757500000104
 20
-3.672166499999946
 10
6.754189500000052
 20
-3.42288000000002
 10
6.759945000000072
 20
-3.223813500000062
 10
6.758631000000093
 20
-3.072780000000022
 10
6.740469000000018
 20
-1.431877499999984
 10
5.851242000000127
 20
-1.431877499999984
 10
5.201239500000042
 20
-3.072780000000022
 10
5.141767500000014
 20
-3.223813500000062
 10
5.07086550000011
 20
-3.42288000000002
 10
5.00229900000005
 20
-3.672166499999946
 10
4.972837499999997
 20
-3.672166499999946
 10
5.008513500000105
 20
-3.386668500000098
 10
5.022553500000071
 20
-3.156853500000067
 10
5.027598000000011
 20
-2.979450000000042
 10
5.050417500000065
 20
-1.431877499999984
 10
3.782074500000021
 20
-1.431877499999984
 10
4.133376000000055
 20
-4.944622499999979
 10
5.233873500000015
 20
-4.944622499999979
 10
5.72997150000009
 20
-3.745867499999974
 10
5.799762000000015
 20
-3.578098500000066
 10
5.873076000000111
 20
-3.386308499999984
  0
LWPOLYLINE
  5
345
330
33A
100
AcDbEntity
  8
EBENE_1
  6
Continuous
 62
     1
100
AcDbPolyline
 90
        8
 70
     1
 43
0.0135
 10
5.257188000000098
 20
-0.0525195000000736
 10
5.67893250000003
 20
-0.0525195000000736
 10
5.67893250000003
 20
3.697699499999941
 10
8.936028000000106
 20
-0.1898595000000114
 10
8.936028000000106
 20
4.586588999999946
 10
8.514301499999987
 20
4.586588999999946
 10
8.514301499999987
 20
0.9012509999999451
 10
5.257188000000098
 20
4.781222999999897
  0
LWPOLYLINE
  5
346
330
33A
100
AcDbEntity
  8
EBENE_1
  6
Continuous
 62
     1
100
AcDbPolyline
 90
       10
 70
     1
 43
0.0135
 10
11.50627050000003
 20
-3.667261500000051
 10
11.6909820000001
 20
-3.269313000000067
 10
11.78536500000007
 20
-3.061691999999936
 10
11.88769050000007
 20
-2.807126999999979
 10
11.98197900000005
 20
-2.497967999999957
 10
12.00654900000006
 20
-2.497967999999957
 10
11.98177200000006
 20
-2.807126999999979
 10
11.98607400000009
 20
-3.061691999999936
 10
12.00051000000007
 20
-3.269313000000067
 10
12.03195600000009
 20
-3.667261500000051
  0
LWPOLYLINE
  5
347
330
33A
100
AcDbEntity
  8
EBENE_1
  6
Continuous
 62
     1
100
AcDbPolyline
 90
        8
 70
     1
 43
0.0135
 10
9.584221500000012
 20
-4.944622499999979
 10
10.94100750000007
 20
-4.944622499999979
 10
11.13422400000007
 20
-4.50245250000006
 10
12.08733750000007
 20
-4.50245250000006
 10
12.11520600000006
 20
-4.944622499999979
 10
13.47117750000001
 20
-4.944622499999979
 10
12.91925250000003
 20
-1.431877499999984
 10
11.51415450000007
 20
-1.431877499999984
  0
LWPOLYLINE
  5
348
330
33A
100
AcDbEntity
  8
EBENE_1
  6
Continuous
 62
     1
100
AcDbPolyline
 90
       12
 70
     1
 43
0.0135
 10
11.2253400000001
 20
-0.0525195000000736
 10
13.52218050000002
 20
-0.0525195000000736
 10
13.52218050000002
 20
0.3432689999999638
 10
11.64708000000007
 20
0.3432689999999638
 10
11.64708000000007
 20
2.341638000000045
 10
13.52218050000002
 20
2.341638000000045
 10
13.52218050000002
 20
2.737426500000026
 10
11.64708000000007
 20
2.737426500000026
 10
11.64708000000007
 20
4.190800499999966
 10
13.52218050000002
 20
4.190800499999966
 10
13.52218050000002
 20
4.586588999999946
 10
11.2253400000001
 20
4.586588999999946
  0
LWPOLYLINE
  5
349
330
33A
100
AcDbEntity
  8
EBENE_1
  6
Continuous
 62
     1
100
AcDbPolyline
 90
       23
 70
     1
 43
0.0135
 10
15.46414650000011
 20
-4.944622499999979
 10
16.70219550000001
 20
-4.944622499999979
 10
16.92542250000008
 20
-3.78516600000006
 10
17.31631950000002
 20
-4.944622499999979
 10
18.73123200000003
 20
-4.944622499999979
 10
18.06813900000008
 20
-3.514950000000055
 10
18.26935200000014
 20
-3.466093499999999
 10
18.45277650000003
 20
-3.371386500000028
 10
18.61394850000005
 20
-3.234915000000057
 10
18.74839500000007
 20
-3.060778500000026
 10
18.85163850000003
 20
-2.853072000000054
 10
18.91920600000003
 20
-2.615890500000034
 10
18.94633650000014
 20
-2.400079500000003
 10
18.94090949999997
 20
-2.204108999999959
 10
18.90293850000006
 20
-2.028654000000017
 10
18.83243700000003
 20
-1.874394000000108
 10
18.7294275000001
 20
-1.742004000000008
 10
18.59392800000006
 20
-1.632168000000035
 10
18.42594750000006
 20
-1.545556500000031
 10
18.22551300000003
 20
-1.482853499999976
 10
17.99262900000008
 20
-1.444734000000039
 10
17.72732700000006
 20
-1.431877499999984
 10
16.14045600000003
 20
-1.431877499999984
  0
LWPOLYLINE
  5
34A
330
33A
100
AcDbEntity
  8
EBENE_1
  6
Continuous
 62
     1
100
AcDbPolyline
 90
       29
 70
     1
 43
0.0135
 10
18.50412600000004
 20
-0.0525195000000736
 10
16.83664650000003
 20
2.159972999999979
 10
17.0745480000001
 20
2.175880500000005
 10
17.28985950000006
 20
2.222810999999921
 10
17.48114550000005
 20
2.299590000000023
 10
17.64695700000004
 20
2.405052000000011
 10
17.78585400000003
 20
2.538008999999931
 10
17.89639200000005
 20
2.697299999999984
 10
17.97713550000003
 20
2.881741500000032
 10
18.02664000000004
 20
3.090159000000028
 10
18.04346099999998
 20
3.32138249999997
 10
18.03106800000012
 20
3.542422499999986
 10
17.99387550000011
 20
3.741997499999911
 10
17.93184750000006
 20
3.920192999999983
 10
17.84496150000007
 20
4.077094499999873
 10
17.73318599999999
 20
4.212791999999978
 10
17.59648950000007
 20
4.327375499999959
 10
17.43484500000005
 20
4.420925999999951
 10
17.24822100000006
 20
4.493533499999955
 10
17.03659050000001
 20
4.545292500000016
 10
16.7999265
 20
4.576279499999998
 10
16.53819300000009
 20
4.586588999999946
 10
16.53819300000009
 20
4.586588999999946
 10
15.68822400000005
 20
4.586588999999946
 10
15.68822400000005
 20
-0.0525195000000736
 10
16.10996400000002
 20
-0.0525195000000736
 10
16.10996400000002
 20
2.159972999999979
 10
16.36301250000011
 20
2.159972999999979
 10
17.99154900000007
 20
-0.0525195000000736
  0
LWPOLYLINE
  5
34B
330
33A
100
AcDbEntity
  8
EBENE_1
  6
Continuous
 62
     1
100
AcDbPolyline
 90
       19
 70
     1
 43
0.0135
 10
16.10996400000002
 20
4.216756499999917
 10
16.53169050000002
 20
4.216756499999917
 10
16.78950000000009
 20
4.206253499999945
 10
17.008983
 20
4.172858999999959
 10
17.1913680000001
 20
4.113764999999887
 10
17.33786100000012
 20
4.02615899999995
 10
17.44968150000005
 20
3.907228499999916
 10
17.52804450000008
 20
3.75416100000001
 10
17.574174
 20
3.564134999999907
 10
17.58928050000008
 20
3.334351499999968
 10
17.5733775000001
 20
3.108653999999944
 10
17.52530850000008
 20
2.925386999999943
 10
17.4445515000001
 20
2.780743500000028
 10
17.33056199999998
 20
2.670925500000009
 10
17.18281800000005
 20
2.592130499999996
 10
17.00077950000002
 20
2.540551499999935
 10
16.78391100000002
 20
2.512395000000026
 10
16.53169050000002
 20
2.503853999999989
 10
16.10996400000002
 20
2.503853999999989
  0
LWPOLYLINE
  5
34C
330
33A
100
AcDbEntity
  8
EBENE_1
  6
Continuous
 62
     1
100
AcDbPolyline
 90
        9
 70
     1
 43
0.0135
 10
17.20445850000004
 20
-2.335846500000059
 10
17.4009870000001
 20
-2.335846500000059
 10
17.59880250000009
 20
-2.378245500000048
 10
17.70090750000003
 20
-2.49816149999998
 10
17.70721650000007
 20
-2.684664000000054
 10
17.62848900000011
 20
-2.868628499999999
 10
17.48003850000003
 20
-2.983806000000015
 10
17.26857450000008
 20
-3.023653500000079
 10
17.07204600000003
 20
-3.023653500000079
  0
LINE
  5
34D
330
33A
100
AcDbEntity
  8
EBENE_1
  6
Continuous
 62
     1
100
AcDbLine
 10
-5.511257999999912
 20
1.880972999999983
 30
0.0
 11
-4.687244999999961
 21
3.898835999999903
 31
0.0
  0
LINE
  5
34E
330
33A
100
AcDbEntity
  8
EBENE_1
  6
Continuous
 62
     1
100
AcDbLine
 10
-3.895667999999972
 20
1.880972999999983
 30
0.0
 11
-5.511257999999912
 21
1.880972999999983
 31
0.0
  0
LINE
  5
34F
330
33A
100
AcDbEntity
  8
EBENE_1
  6
Continuous
 62
     1
100
AcDbLine
 10
-4.687244999999961
 20
3.898835999999903
 30
0.0
 11
-3.895667999999972
 21
1.880972999999983
 31
0.0
  0
ENDBLK
  5
350
330
33A
100
AcDbEntity
  8
0
100
AcDbBlockEnd
  0
BLOCK
  5
370
330
36F
100
AcDbEntity
  8
0
100
AcDbBlockBegin
  2
*D1
 70
     1
 10
0.0
 20
0.0
 30
0.0
  3
*D1
  1

  0
LINE
  5
371
330
36F
100
AcDbEntity
  8
10-01
 62
     4
440
 16777216
370
    -2
100
AcDbLine
 10
555.3329290238302
 20
260.3924993731291
 30
0.0
 11
560.0191404151673
 21
260.3924993731291
 31
0.0
  0
LINE
  5
372
330
36F
100
AcDbEntity
  8
10-01
 62
     4
440
 16777216
370
    -2
100
AcDbLine
 10
558.0191404151674
 20
322.8924993731291
 30
0.0
 11
558.0191404151674
 21
265.392499373129
 31
0.0
  0
SOLID
  5
373
330
36F
100
AcDbEntity
  8
10-01
 62
     4
440
 16777216
100
AcDbTrace
 10
557.185807081834
 20
322.8924993731291
 30
0.0
 11
558.8524737485007
 21
322.8924993731291
 31
0.0
 12
558.0191404151674
 22
327.892499373129
 32
0.0
 13
558.0191404151674
 23
327.892499373129
 33
0.0
  0
SOLID
  5
374
330
36F
100
AcDbEntity
  8
10-01
 62
     4
440
 16777216
100
AcDbTrace
 10
557.185807081834
 20
265.392499373129
 30
0.0
 11
558.8524737485007
 21
265.392499373129
 31
0.0
 12
558.0191404151674
 22
260.3924993731291
 32
0.0
 13
558.0191404151674
 23
260.3924993731291
 33
0.0
  0
MTEXT
  5
375
330
36F
100
AcDbEntity
  8
10-01
 62
     1
440
 16777216
100
AcDbMText
 10
553.5191404151673
 20
294.1424993731291
 30
0.0
 40
5.0
 41
0.0
 46
0.0
 71
     5
 72
     1
  1
67.5
 11
0.0000000000000001
 21
1.0
 31
0.0
 73
     1
 44
1.0
  0
POINT
  5
376
330
36F
100
AcDbEntity
  8
DEFPOINTS
 62
     0
440
 16777216
100
AcDbPoint
 10
558.0191404151674
 20
327.892499373129
 30
0.0
  0
POINT
  5
377
330
36F
100
AcDbEntity
  8
DEFPOINTS
 62
     0
440
 16777216
100
AcDbPoint
 10
553.3329290238302
 20
260.3924993731291
 30
0.0
  0
POINT
  5
378
330
36F
100
AcDbEntity
  8
DEFPOINTS
 62
     0
440
 16777216
100
AcDbPoint
 10
558.0191404151674
 20
260.3924993731291
 30
0.0
  0
ENDBLK
  5
379
330
36F
100
AcDbEntity
  8
0
100
AcDbBlockEnd
  0
BLOCK
  5
37C
330
37B
100
AcDbEntity
  8
0
100
AcDbBlockBegin
  2
*D2
 70
     1
 10
0.0
 20
0.0
 30
0.0
  3
*D2
  1

  0
LINE
  5
37D
330
37B
100
AcDbEntity
  8
10-01
 62
     4
440
 16777216
370
    -2
100
AcDbLine
 10
570.9868593987275
 20
327.892499373129
 30
0.0
 11
556.0191404151673
 21
327.892499373129
 31
0.0
  0
LINE
  5
37E
330
37B
100
AcDbEntity
  8
10-01
 62
     4
440
 16777216
370
    -2
100
AcDbLine
 10
557.9868593987275
 20
408.392499373129
 30
0.0
 11
556.0191404151673
 21
408.392499373129
 31
0.0
  0
LINE
  5
37F
330
37B
100
AcDbEntity
  8
10-01
 62
     4
440
 16777216
370
    -2
100
AcDbLine
 10
558.0191404151674
 20
332.8924993731291
 30
0.0
 11
558.0191404151674
 21
403.392499373129
 31
0.0
  0
SOLID
  5
380
330
37B
100
AcDbEntity
  8
10-01
 62
     4
440
 16777216
100
AcDbTrace
 10
557.185807081834
 20
332.8924993731291
 30
0.0
 11
558.8524737485007
 21
332.8924993731291
 31
0.0
 12
558.0191404151674
 22
327.892499373129
 32
0.0
 13
558.0191404151674
 23
327.892499373129
 33
0.0
  0
SOLID
  5
381
330
37B
100
AcDbEntity
  8
10-01
 62
     4
440
 16777216
100
AcDbTrace
 10
557.185807081834
 20
403.392499373129
 30
0.0
 11
558.8524737485007
 21
403.392499373129
 31
0.0
 12
558.0191404151674
 22
408.392499373129
 32
0.0
 13
558.0191404151674
 23
408.392499373129
 33
0.0
  0
MTEXT
  5
382
330
37B
100
AcDbEntity
  8
10-01
 62
     1
440
 16777216
100
AcDbMText
 10
553.5191404151673
 20
368.1424993731291
 30
0.0
 40
5.0
 41
0.0
 46
0.0
 71
     5
 72
     1
  1
80.5
 11
0.0000000000000001
 21
1.0
 31
0.0
 73
     1
 44
1.0
  0
POINT
  5
383
330
37B
100
AcDbEntity
  8
DEFPOINTS
 62
     0
440
 16777216
100
AcDbPoint
 10
572.9868593987275
 20
327.892499373129
 30
0.0
  0
POINT
  5
384
330
37B
100
AcDbEntity
  8
DEFPOINTS
 62
     0
440
 16777216
100
AcDbPoint
 10
559.9868593987276
 20
408.392499373129
 30
0.0
  0
POINT
  5
385
330
37B
100
AcDbEntity
  8
DEFPOINTS
 62
     0
440
 16777216
100
AcDbPoint
 10
558.0191404151674
 20
408.392499373129
 30
0.0
  0
ENDBLK
  5
386
330
37B
100
AcDbEntity
  8
0
100
AcDbBlockEnd
  0
BLOCK
  5
355
330
354
100
AcDbEntity
  8
0
100
AcDbBlockBegin
  2
*D3
 70
     1
 10
0.0
 20
0.0
 30
0.0
  3
*D3
  1

  0
LINE
  5
356
330
354
100
AcDbEntity
  8
09-01
 62
     4
440
 16777216
370
    -2
100
AcDbLine
 10
576.4868593987276
 20
333.3924993731291
 30
0.0
 11
576.4868593987276
 21
356.4321030989436
 31
0.0
  0
LINE
  5
357
330
354
100
AcDbEntity
  8
09-01
 62
     4
440
 16777216
370
    -2
100
AcDbLine
 10
587.4868593987275
 20
357.6669329755979
 30
0.0
 11
587.4868593987275
 21
352.4321030989436
 31
0.0
  0
LINE
  5
358
330
354
100
AcDbEntity
  8
09-01
 62
     4
440
 16777216
370
    -2
100
AcDbLine
 10
571.4868593987275
 20
354.4321030989436
 30
0.0
 11
566.4868593987275
 21
354.4321030989436
 31
0.0
  0
LINE
  5
359
330
354
100
AcDbEntity
  8
09-01
 62
     4
440
 16777216
370
    -2
100
AcDbLine
 10
592.4868593987276
 20
354.4321030989436
 30
0.0
 11
597.4868593987276
 21
354.4321030989436
 31
0.0
  0
MTEXT
  5
35A
330
354
100
AcDbEntity
  8
09-01
 62
     1
440
 16777216
100
AcDbMText
 10
572.3856207419178
 20
359.3122728267728
 30
0.0
 40
5.0
 41
0.0
 46
0.0
 71
     5
 72
     1
  1
11
 73
     1
 44
1.0
  0
LINE
  5
35B
330
354
100
AcDbEntity
  8
09-01
 62
     4
440
 16777216
370
    -2
100
AcDbLine
 10
576.4868593987276
 20
354.4321030989436
 30
0.0
 11
587.4868593987275
 21
354.4321030989436
 31
0.0
  0
SOLID
  5
35C
330
354
100
AcDbEntity
  8
09-01
 62
     4
440
 16777216
100
AcDbTrace
 10
571.4868593987275
 20
355.2654364322769
 30
0.0
 11
571.4868593987275
 21
353.5987697656103
 31
0.0
 12
576.4868593987276
 22
354.4321030989436
 32
0.0
 13
576.4868593987276
 23
354.4321030989436
 33
0.0
  0
SOLID
  5
35D
330
354
100
AcDbEntity
  8
09-01
 62
     4
440
 16777216
100
AcDbTrace
 10
592.4868593987276
 20
355.2654364322769
 30
0.0
 11
592.4868593987276
 21
353.5987697656103
 31
0.0
 12
587.4868593987275
 22
354.4321030989436
 32
0.0
 13
587.4868593987275
 23
354.4321030989436
 33
0.0
  0
POINT
  5
35E
330
354
100
AcDbEntity
  8
DEFPOINTS
 62
     0
440
 16777216
100
AcDbPoint
 10
576.4868593987276
 20
331.3924993731291
 30
0.0
  0
POINT
  5
35F
330
354
100
AcDbEntity
  8
DEFPOINTS
 62
     0
440
 16777216
100
AcDbPoint
 10
587.4868593987275
 20
359.6669329755979
 30
0.0
  0
POINT
  5
360
330
354
100
AcDbEntity
  8
DEFPOINTS
 62
     0
440
 16777216
100
AcDbPoint
 10
587.4868593987275
 20
354.4321030989436
 30
0.0
  0
ENDBLK
  5
361
330
354
100
AcDbEntity
  8
0
100
AcDbBlockEnd
  0
BLOCK
  5
364
330
363
100
AcDbEntity
  8
0
100
AcDbBlockBegin
  2
*D4
 70
     1
 10
0.0
 20
0.0
 30
0.0
  3
*D4
  1

  0
LINE
  5
365
330
363
100
AcDbEntity
  8
09-01
 62
     4
440
 16777216
370
    -2
100
AcDbLine
 10
592.703704571731
 20
309.0853630392986
 30
0.0
 11
581.3845643167488
 21
322.2124917555292
 31
0.0
  0
LINE
  5
366
330
363
100
AcDbEntity
  8
09-01
 62
     4
440
 16777216
370
    -2
100
AcDbLine
 10
571.5891544807065
 20
333.5725069907289
 30
0.0
 11
568.3240178686924
 21
337.3591787357955
 31
0.0
  0
MTEXT
  5
367
330
363
100
AcDbEntity
  8
09-01
 62
     1
440
 16777216
100
AcDbMText
 10
592.084707320807
 20
316.6942144756933
 30
0.0
 40
5.0
 41
0.0
 46
0.0
 71
     5
 72
     1
  1
∅5
 11
0.6530273224028182
 21
-0.7573343490133046
 31
0.0
 73
     1
 44
1.0
  0
LINE
  5
368
330
363
100
AcDbEntity
  8
09-01
 62
     4
440
 16777216
370
    -2
100
AcDbLine
 10
574.8542910927206
 20
329.7858352456624
 30
0.0
 11
578.1194277047347
 21
325.9991635005957
 31
0.0
  0
SOLID
  5
369
330
363
100
AcDbEntity
  8
09-01
 62
     4
440
 16777216
100
AcDbTrace
 10
572.2202664382175
 20
334.1166964260646
 30
0.0
 11
570.9580425231953
 21
333.0283175553932
 31
0.0
 12
574.8542910927206
 22
329.7858352456624
 32
0.0
 13
574.8542910927206
 23
329.7858352456624
 33
0.0
  0
SOLID
  5
36A
330
363
100
AcDbEntity
  8
09-01
 62
     4
440
 16777216
100
AcDbTrace
 10
582.0156762742599
 20
322.7566811908649
 30
0.0
 11
580.7534523592376
 21
321.6683023201934
 31
0.0
 12
578.1194277047347
 22
325.9991635005957
 32
0.0
 13
578.1194277047347
 23
325.9991635005957
 33
0.0
  0
POINT
  5
36B
330
363
100
AcDbEntity
  8
DEFPOINTS
 62
     0
440
 16777216
100
AcDbPoint
 10
578.1194277047347
 20
325.9991635005957
 30
0.0
  0
POINT
  5
36C
330
363
100
AcDbEntity
  8
DEFPOINTS
 62
     0
440
 16777216
100
AcDbPoint
 10
574.8542910927206
 20
329.7858352456624
 30
0.0
  0
ENDBLK
  5
36D
330
363
100
AcDbEntity
  8
0
100
AcDbBlockEnd
  0
BLOCK
  5
38C
330
38B
100
AcDbEntity
  8
0
100
AcDbBlockBegin
  2
*D5
 70
     1
 10
0.0
 20
0.0
 30
0.0
  3
*D5
  1

  0
LINE
  5
38D
330
38B
100
AcDbEntity
  8
09-01
 62
     4
440
 16777216
370
    -2
100
AcDbLine
 10
431.4868593987275
 20
260.3924993731291
 30
0.0
 11
419.7408951635381
 21
260.3924993731291
 31
0.0
  0
LINE
  5
38E
330
38B
100
AcDbEntity
  8
09-01
 62
     4
440
 16777216
370
    -2
100
AcDbLine
 10
431.4868593987275
 20
408.392499373129
 30
0.0
 11
419.7408951635382
 21
408.392499373129
 31
0.0
  0
LINE
  5
38F
330
38B
100
AcDbEntity
  8
09-01
 62
     4
440
 16777216
370
    -2
100
AcDbLine
 10
421.7408951635381
 20
265.392499373129
 30
0.0
 11
421.7408951635381
 21
403.392499373129
 31
0.0
  0
SOLID
  5
390
330
38B
100
AcDbEntity
  8
09-01
 62
     4
440
 16777216
100
AcDbTrace
 10
420.9075618302048
 20
265.392499373129
 30
0.0
 11
422.5742284968714
 21
265.392499373129
 31
0.0
 12
421.7408951635381
 22
260.3924993731291
 32
0.0
 13
421.7408951635381
 23
260.3924993731291
 33
0.0
  0
SOLID
  5
391
330
38B
100
AcDbEntity
  8
09-01
 62
     4
440
 16777216
100
AcDbTrace
 10
420.9075618302049
 20
403.392499373129
 30
0.0
 11
422.5742284968715
 21
403.392499373129
 31
0.0
 12
421.7408951635381
 22
408.392499373129
 32
0.0
 13
421.7408951635381
 23
408.392499373129
 33
0.0
  0
MTEXT
  5
392
330
38B
100
AcDbEntity
  8
09-01
 62
     1
440
 16777216
100
AcDbMText
 10
417.2408951635381
 20
334.3924993731292
 30
0.0
 40
5.0
 41
0.0
 46
0.0
 71
     5
 72
     1
  1
148
 11
0.0000000000000001
 21
1.0
 31
0.0
 73
     1
 44
1.0
  0
POINT
  5
393
330
38B
100
AcDbEntity
  8
DEFPOINTS
 62
     0
440
 16777216
100
AcDbPoint
 10
433.4868593987275
 20
260.3924993731291
 30
0.0
  0
POINT
  5
394
330
38B
100
AcDbEntity
  8
DEFPOINTS
 62
     0
440
 16777216
100
AcDbPoint
 10
433.4868593987275
 20
408.392499373129
 30
0.0
  0
POINT
  5
395
330
38B
100
AcDbEntity
  8
DEFPOINTS
 62
     0
440
 16777216
100
AcDbPoint
 10
421.7408951635381
 20
408.392499373129
 30
0.0
  0
ENDBLK
  5
396
330
38B
100
AcDbEntity
  8
0
100
AcDbBlockEnd
  0
BLOCK
  5
399
330
398
100
AcDbEntity
  8
0
100
AcDbBlockBegin
  2
*D6
 70
     1
 10
0.0
 20
0.0
 30
0.0
  3
*D6
  1

  0
LINE
  5
39A
330
398
100
AcDbEntity
  8
09-01
 62
     4
440
 16777216
370
    -2
100
AcDbLine
 10
433.4868593987275
 20
412.892499373129
 30
0.0
 11
433.4868593987275
 21
441.5827686169402
 31
0.0
  0
LINE
  5
39B
330
398
100
AcDbEntity
  8
09-01
 62
     4
440
 16777216
370
    -2
100
AcDbLine
 10
597.4868593987276
 20
425.392499373129
 30
0.0
 11
597.4868593987276
 21
441.5827686169402
 31
0.0
  0
LINE
  5
39C
330
398
100
AcDbEntity
  8
09-01
 62
     4
440
 16777216
370
    -2
100
AcDbLine
 10
438.4868593987276
 20
439.5827686169402
 30
0.0
 11
592.4868593987276
 21
439.5827686169402
 31
0.0
  0
SOLID
  5
39D
330
398
100
AcDbEntity
  8
09-01
 62
     4
440
 16777216
100
AcDbTrace
 10
438.4868593987276
 20
440.4161019502735
 30
0.0
 11
438.4868593987276
 21
438.7494352836069
 31
0.0
 12
433.4868593987275
 22
439.5827686169402
 32
0.0
 13
433.4868593987275
 23
439.5827686169402
 33
0.0
  0
SOLID
  5
39E
330
398
100
AcDbEntity
  8
09-01
 62
     4
440
 16777216
100
AcDbTrace
 10
592.4868593987276
 20
440.4161019502735
 30
0.0
 11
592.4868593987276
 21
438.7494352836069
 31
0.0
 12
597.4868593987276
 22
439.5827686169402
 32
0.0
 13
597.4868593987276
 23
439.5827686169402
 33
0.0
  0
MTEXT
  5
39F
330
398
100
AcDbEntity
  8
09-01
 62
     1
440
 16777216
100
AcDbMText
 10
515.4868593987275
 20
444.0827686169402
 30
0.0
 40
5.0
 41
0.0
 46
0.0
 71
     5
 72
     1
  1
164
 73
     1
 44
1.0
  0
POINT
  5
3A0
330
398
100
AcDbEntity
  8
DEFPOINTS
 62
     0
440
 16777216
100
AcDbPoint
 10
433.4868593987275
 20
410.8924993731291
 30
0.0
  0
POINT
  5
3A1
330
398
100
AcDbEntity
  8
DEFPOINTS
 62
     0
440
 16777216
100
AcDbPoint
 10
597.4868593987276
 20
423.3924993731291
 30
0.0
  0
POINT
  5
3A2
330
398
100
AcDbEntity
  8
DEFPOINTS
 62
     0
440
 16777216
100
AcDbPoint
 10
597.4868593987276
 20
439.5827686169402
 30
0.0
  0
ENDBLK
  5
3A3
330
398
100
AcDbEntity
  8
0
100
AcDbBlockEnd
  0
BLOCK
  5
3A6
330
3A5
100
AcDbEntity
  8
0
100
AcDbBlockBegin
  2
*D7
 70
     1
 10
0.0
 20
0.0
 30
0.0
  3
*D7
  1

  0
LINE
  5
3A7
330
3A5
100
AcDbEntity
  8
09-01
 62
     4
440
 16777216
370
    -2
100
AcDbLine
 10
587.4868593987275
 20
425.392499373129
 30
0.0
 11
587.4868593987275
 21
430.2981491709292
 31
0.0
  0
LINE
  5
3A8
330
3A5
100
AcDbEntity
  8
09-01
 62
     4
440
 16777216
370
    -2
100
AcDbLine
 10
433.4868593987275
 20
410.392499373129
 30
0.0
 11
433.4868593987275
 21
430.2981491709292
 31
0.0
  0
LINE
  5
3A9
330
3A5
100
AcDbEntity
  8
09-01
 62
     4
440
 16777216
370
    -2
100
AcDbLine
 10
582.4868593987275
 20
428.2981491709292
 30
0.0
 11
438.4868593987276
 21
428.2981491709292
 31
0.0
  0
SOLID
  5
3AA
330
3A5
100
AcDbEntity
  8
09-01
 62
     4
440
 16777216
100
AcDbTrace
 10
582.4868593987275
 20
429.1314825042626
 30
0.0
 11
582.4868593987275
 21
427.4648158375959
 31
0.0
 12
587.4868593987275
 22
428.2981491709292
 32
0.0
 13
587.4868593987275
 23
428.2981491709292
 33
0.0
  0
SOLID
  5
3AB
330
3A5
100
AcDbEntity
  8
09-01
 62
     4
440
 16777216
100
AcDbTrace
 10
438.4868593987276
 20
429.1314825042626
 30
0.0
 11
438.4868593987276
 21
427.4648158375959
 31
0.0
 12
433.4868593987275
 22
428.2981491709292
 32
0.0
 13
433.4868593987275
 23
428.2981491709292
 33
0.0
  0
MTEXT
  5
3AC
330
3A5
100
AcDbEntity
  8
09-01
 62
     1
440
 16777216
100
AcDbMText
 10
510.4868593987275
 20
432.7981491709293
 30
0.0
 40
5.0
 41
0.0
 46
0.0
 71
     5
 72
     1
  1
154
 73
     1
 44
1.0
  0
POINT
  5
3AD
330
3A5
100
AcDbEntity
  8
DEFPOINTS
 62
     0
440
 16777216
100
AcDbPoint
 10
587.4868593987275
 20
423.3924993731291
 30
0.0
  0
POINT
  5
3AE
330
3A5
100
AcDbEntity
  8
DEFPOINTS
 62
     0
440
 16777216
100
AcDbPoint
 10
433.4868593987275
 20
408.392499373129
 30
0.0
  0
POINT
  5
3AF
330
3A5
100
AcDbEntity
  8
DEFPOINTS
 62
     0
440
 16777216
100
AcDbPoint
 10
433.4868593987275
 20
428.2981491709292
 30
0.0
  0
ENDBLK
  5
3B0
330
3A5
100
AcDbEntity
  8
0
100
AcDbBlockEnd
  0
BLOCK
  5
3B3
330
3B2
100
AcDbEntity
  8
0
100
AcDbBlockBegin
  2
*D8
 70
     1
 10
0.0
 20
0.0
 30
0.0
  3
*D8
  1

  0
LINE
  5
3B4
330
3B2
100
AcDbEntity
  8
09-01
 62
     4
440
 16777216
370
    -2
100
AcDbLine
 10
597.4868593987276
 20
422.892499373129
 30
0.0
 11
597.4868593987276
 21
430.2981491709292
 31
0.0
  0
LINE
  5
3B5
330
3B2
100
AcDbEntity
  8
09-01
 62
     4
440
 16777216
370
    -2
100
AcDbLine
 10
587.4868593987275
 20
422.892499373129
 30
0.0
 11
587.4868593987275
 21
430.2981491709292
 31
0.0
  0
LINE
  5
3B6
330
3B2
100
AcDbEntity
  8
09-01
 62
     4
440
 16777216
370
    -2
100
AcDbLine
 10
602.4868593987275
 20
428.2981491709292
 30
0.0
 11
607.4868593987275
 21
428.2981491709292
 31
0.0
  0
LINE
  5
3B7
330
3B2
100
AcDbEntity
  8
09-01
 62
     4
440
 16777216
370
    -2
100
AcDbLine
 10
582.4868593987275
 20
428.2981491709292
 30
0.0
 11
577.4868593987275
 21
428.2981491709292
 31
0.0
  0
MTEXT
  5
3B8
330
3B2
100
AcDbEntity
  8
09-01
 62
     1
440
 16777216
100
AcDbMText
 10
606.7952114262371
 20
437.0481491709292
 30
0.0
 40
5.0
 41
0.0
 46
0.0
 71
     5
 72
     1
  1
10
 73
     1
 44
1.0
  0
LINE
  5
3B9
330
3B2
100
AcDbEntity
  8
09-01
 62
     4
440
 16777216
370
    -2
100
AcDbLine
 10
597.4868593987276
 20
428.2981491709292
 30
0.0
 11
587.4868593987275
 21
428.2981491709292
 31
0.0
  0
SOLID
  5
3BA
330
3B2
100
AcDbEntity
  8
09-01
 62
     4
440
 16777216
100
AcDbTrace
 10
602.4868593987275
 20
429.1314825042626
 30
0.0
 11
602.4868593987275
 21
427.4648158375959
 31
0.0
 12
597.4868593987276
 22
428.2981491709292
 32
0.0
 13
597.4868593987276
 23
428.2981491709292
 33
0.0
  0
SOLID
  5
3BB
330
3B2
100
AcDbEntity
  8
09-01
 62
     4
440
 16777216
100
AcDbTrace
 10
582.4868593987275
 20
429.1314825042626
 30
0.0
 11
582.4868593987275
 21
427.4648158375959
 31
0.0
 12
587.4868593987275
 22
428.2981491709292
 32
0.0
 13
587.4868593987275
 23
428.2981491709292
 33
0.0
  0
POINT
  5
3BC
330
3B2
100
AcDbEntity
  8
DEFPOINTS
 62
     0
440
 16777216
100
AcDbPoint
 10
597.4868593987276
 20
420.892499373129
 30
0.0
  0
POINT
  5
3BD
330
3B2
100
AcDbEntity
  8
DEFPOINTS
 62
     0
440
 16777216
100
AcDbPoint
 10
587.4868593987275
 20
420.892499373129
 30
0.0
  0
POINT
  5
3BE
330
3B2
100
AcDbEntity
  8
DEFPOINTS
 62
     0
440
 16777216
100
AcDbPoint
 10
587.4868593987275
 20
428.2981491709292
 30
0.0
  0
ENDBLK
  5
3BF
330
3B2
100
AcDbEntity
  8
0
100
AcDbBlockEnd
  0
BLOCK
  5
3C6
330
3C5
100
AcDbEntity
  8
0
100
AcDbBlockBegin
  2
*D9
 70
     1
 10
0.0
 20
0.0
 30
0.0
  3
*D9
  1

  0
LINE
  5
3C7
330
3C5
100
AcDbEntity
  8
09-01
 62
     4
440
 16777216
370
    -2
100
AcDbLine
 10
27.20794671784836
 20
420.8924993731291
 30
0.0
 11
19.00525449472904
 21
420.8924993731291
 31
0.0
  0
LINE
  5
3C8
330
3C5
100
AcDbEntity
  8
09-01
 62
     4
440
 16777216
370
    -2
100
AcDbLine
 10
27.20794671784825
 20
247.8924993731291
 30
0.0
 11
19.005254494729
 21
247.8924993731291
 31
0.0
  0
LINE
  5
3C9
330
3C5
100
AcDbEntity
  8
09-01
 62
     4
440
 16777216
370
    -2
100
AcDbLine
 10
21.00525449472904
 20
415.8924993731291
 30
0.0
 11
21.005254494729
 21
252.892499373129
 31
0.0
  0
SOLID
  5
3CA
330
3C5
100
AcDbEntity
  8
09-01
 62
     4
440
 16777216
100
AcDbTrace
 10
20.17192116139571
 20
415.8924993731291
 30
0.0
 11
21.83858782806237
 21
415.8924993731291
 31
0.0
 12
21.00525449472904
 22
420.8924993731291
 32
0.0
 13
21.00525449472904
 23
420.8924993731291
 33
0.0
  0
SOLID
  5
3CB
330
3C5
100
AcDbEntity
  8
09-01
 62
     4
440
 16777216
100
AcDbTrace
 10
20.17192116139567
 20
252.892499373129
 30
0.0
 11
21.83858782806234
 21
252.892499373129
 31
0.0
 12
21.005254494729
 22
247.8924993731291
 32
0.0
 13
21.005254494729
 23
247.8924993731291
 33
0.0
  0
MTEXT
  5
3CC
330
3C5
100
AcDbEntity
  8
09-01
 62
     1
440
 16777216
100
AcDbMText
 10
16.50525449472897
 20
334.3924993731291
 30
0.0
 40
5.0
 41
0.0
 46
0.0
 71
     5
 72
     1
  1
173
 11
0.0000000000000001
 21
1.0
 31
0.0
 73
     1
 44
1.0
  0
POINT
  5
3CD
330
3C5
100
AcDbEntity
  8
DEFPOINTS
 62
     0
440
 16777216
100
AcDbPoint
 10
29.20794671784836
 20
420.8924993731291
 30
0.0
  0
POINT
  5
3CE
330
3C5
100
AcDbEntity
  8
DEFPOINTS
 62
     0
440
 16777216
100
AcDbPoint
 10
29.20794671784824
 20
247.8924993731291
 30
0.0
  0
POINT
  5
3CF
330
3C5
100
AcDbEntity
  8
DEFPOINTS
 62
     0
440
 16777216
100
AcDbPoint
 10
21.005254494729
 20
247.8924993731291
 30
0.0
  0
ENDBLK
  5
3D0
330
3C5
100
AcDbEntity
  8
0
100
AcDbBlockEnd
  0
BLOCK
  5
3D8
330
3D7
100
AcDbEntity
  8
0
100
AcDbBlockBegin
  2
*D10
 70
     1
 10
0.0
 20
0.0
 30
0.0
  3
*D10
  1

  0
LINE
  5
3D9
330
3D7
100
AcDbEntity
  8
09-01
 62
     4
440
 16777216
370
    -2
100
AcDbLine
 10
604.2461474302032
 20
381.8924993731291
 30
0.0
 11
614.9146907348154
 21
381.8924993731291
 31
0.0
  0
LINE
  5
3DA
330
3D7
100
AcDbEntity
  8
09-01
 62
     4
440
 16777216
370
    -2
100
AcDbLine
 10
601.4868593987276
 20
420.892499373129
 30
0.0
 11
614.9146907348154
 21
420.892499373129
 31
0.0
  0
LINE
  5
3DB
330
3D7
100
AcDbEntity
  8
09-01
 62
     4
440
 16777216
370
    -2
100
AcDbLine
 10
612.9146907348155
 20
386.8924993731291
 30
0.0
 11
612.9146907348155
 21
415.892499373129
 31
0.0
  0
SOLID
  5
3DC
330
3D7
100
AcDbEntity
  8
09-01
 62
     4
440
 16777216
100
AcDbTrace
 10
612.0813574014821
 20
386.8924993731291
 30
0.0
 11
613.7480240681489
 21
386.8924993731291
 31
0.0
 12
612.9146907348155
 22
381.8924993731291
 32
0.0
 13
612.9146907348155
 23
381.8924993731291
 33
0.0
  0
SOLID
  5
3DD
330
3D7
100
AcDbEntity
  8
09-01
 62
     4
440
 16777216
100
AcDbTrace
 10
612.0813574014821
 20
415.892499373129
 30
0.0
 11
613.7480240681489
 21
415.892499373129
 31
0.0
 12
612.9146907348155
 22
420.892499373129
 32
0.0
 13
612.9146907348155
 23
420.892499373129
 33
0.0
  0
MTEXT
  5
3DE
330
3D7
100
AcDbEntity
  8
09-01
 62
     1
440
 16777216
100
AcDbMText
 10
608.4146907348154
 20
401.3924993731292
 30
0.0
 40
5.0
 41
0.0
 46
0.0
 71
     5
 72
     1
  1
39
 11
0.0000000000000001
 21
1.0
 31
0.0
 73
     1
 44
1.0
  0
POINT
  5
3DF
330
3D7
100
AcDbEntity
  8
DEFPOINTS
 62
     0
440
 16777216
100
AcDbPoint
 10
602.2461474302032
 20
381.8924993731291
 30
0.0
  0
POINT
  5
3E0
330
3D7
100
AcDbEntity
  8
DEFPOINTS
 62
     0
440
 16777216
100
AcDbPoint
 10
599.4868593987275
 20
420.892499373129
 30
0.0
  0
POINT
  5
3E1
330
3D7
100
AcDbEntity
  8
DEFPOINTS
 62
     0
440
 16777216
100
AcDbPoint
 10
612.9146907348155
 20
420.892499373129
 30
0.0
  0
ENDBLK
  5
3E2
330
3D7
100
AcDbEntity
  8
0
100
AcDbBlockEnd
  0
BLOCK
  5
3E5
330
3E4
100
AcDbEntity
  8
0
100
AcDbBlockBegin
  2
*D11
 70
     1
 10
0.0
 20
0.0
 30
0.0
  3
*D11
  1

  0
LINE
  5
3E6
330
3E4
100
AcDbEntity
  8
09-01
 62
     4
440
 16777216
370
    -2
100
AcDbLine
 10
601.4868593987273
 20
247.892499373129
 30
0.0
 11
614.1320119005878
 21
247.892499373129
 31
0.0
  0
LINE
  5
3E7
330
3E4
100
AcDbEntity
  8
09-01
 62
     4
440
 16777216
370
    -2
100
AcDbLine
 10
602.4868593987273
 20
322.892499373129
 30
0.0
 11
614.1320119005879
 21
322.892499373129
 31
0.0
  0
LINE
  5
3E8
330
3E4
100
AcDbEntity
  8
09-01
 62
     4
440
 16777216
370
    -2
100
AcDbLine
 10
612.1320119005878
 20
252.892499373129
 30
0.0
 11
612.1320119005879
 21
317.892499373129
 31
0.0
  0
SOLID
  5
3E9
330
3E4
100
AcDbEntity
  8
09-01
 62
     4
440
 16777216
100
AcDbTrace
 10
611.2986785672545
 20
252.892499373129
 30
0.0
 11
612.9653452339212
 21
252.892499373129
 31
0.0
 12
612.1320119005878
 22
247.892499373129
 32
0.0
 13
612.1320119005878
 23
247.892499373129
 33
0.0
  0
SOLID
  5
3EA
330
3E4
100
AcDbEntity
  8
09-01
 62
     4
440
 16777216
100
AcDbTrace
 10
611.2986785672545
 20
317.892499373129
 30
0.0
 11
612.9653452339213
 21
317.892499373129
 31
0.0
 12
612.1320119005879
 22
322.892499373129
 32
0.0
 13
612.1320119005879
 23
322.892499373129
 33
0.0
  0
MTEXT
  5
3EB
330
3E4
100
AcDbEntity
  8
09-01
 62
     1
440
 16777216
100
AcDbMText
 10
607.6320119005877
 20
285.3924993731291
 30
0.0
 40
5.0
 41
0.0
 46
0.0
 71
     5
 72
     1
  1
75
 11
0.0000000000000001
 21
1.0
 31
0.0
 73
     1
 44
1.0
  0
POINT
  5
3EC
330
3E4
100
AcDbEntity
  8
DEFPOINTS
 62
     0
440
 16777216
100
AcDbPoint
 10
599.4868593987273
 20
247.892499373129
 30
0.0
  0
POINT
  5
3ED
330
3E4
100
AcDbEntity
  8
DEFPOINTS
 62
     0
440
 16777216
100
AcDbPoint
 10
600.4868593987273
 20
322.892499373129
 30
0.0
  0
POINT
  5
3EE
330
3E4
100
AcDbEntity
  8
DEFPOINTS
 62
     0
440
 16777216
100
AcDbPoint
 10
612.1320119005879
 20
322.892499373129
 30
0.0
  0
ENDBLK
  5
3EF
330
3E4
100
AcDbEntity
  8
0
100
AcDbBlockEnd
  0
BLOCK
  5
3F4
330
3F3
100
AcDbEntity
  8
0
100
AcDbBlockBegin
  2
*D12
 70
     1
 10
0.0
 20
0.0
 30
0.0
  3
*D12
  1

  0
LINE
  5
3F5
330
3F3
100
AcDbEntity
  8
09-01
 62
     4
440
 16777216
370
    -2
100
AcDbLine
 10
29.20794671784836
 20
422.0924993731291
 30
0.0
 11
29.20794671784836
 21
442.0463324835809
 31
0.0
  0
LINE
  5
3F6
330
3F3
100
AcDbEntity
  8
09-01
 62
     4
440
 16777216
370
    -2
100
AcDbLine
 10
355.2079467178486
 20
422.092499373129
 30
0.0
 11
355.2079467178486
 21
442.0463324835809
 31
0.0
  0
LINE
  5
3F7
330
3F3
100
AcDbEntity
  8
09-01
 62
     4
440
 16777216
370
    -2
100
AcDbLine
 10
34.20794671784836
 20
440.046332483581
 30
0.0
 11
350.2079467178486
 21
440.046332483581
 31
0.0
  0
SOLID
  5
3F8
330
3F3
100
AcDbEntity
  8
09-01
 62
     4
440
 16777216
100
AcDbTrace
 10
34.20794671784836
 20
440.8796658169142
 30
0.0
 11
34.20794671784836
 21
439.2129991502476
 31
0.0
 12
29.20794671784836
 22
440.046332483581
 32
0.0
 13
29.20794671784836
 23
440.046332483581
 33
0.0
  0
SOLID
  5
3F9
330
3F3
100
AcDbEntity
  8
09-01
 62
     4
440
 16777216
100
AcDbTrace
 10
350.2079467178486
 20
440.8796658169142
 30
0.0
 11
350.2079467178486
 21
439.2129991502476
 31
0.0
 12
355.2079467178486
 22
440.046332483581
 32
0.0
 13
355.2079467178486
 23
440.046332483581
 33
0.0
  0
MTEXT
  5
3FA
330
3F3
100
AcDbEntity
  8
09-01
 62
     1
440
 16777216
100
AcDbMText
 10
192.2079467178484
 20
444.5463324835809
 30
0.0
 40
5.0
 41
0.0
 46
0.0
 71
     5
 72
     1
  1
326
 73
     1
 44
1.0
  0
POINT
  5
3FB
330
3F3
100
AcDbEntity
  8
DEFPOINTS
 62
     0
440
 16777216
100
AcDbPoint
 10
29.20794671784836
 20
420.092499373129
 30
0.0
  0
POINT
  5
3FC
330
3F3
100
AcDbEntity
  8
DEFPOINTS
 62
     0
440
 16777216
100
AcDbPoint
 10
355.2079467178486
 20
420.092499373129
 30
0.0
  0
POINT
  5
3FD
330
3F3
100
AcDbEntity
  8
DEFPOINTS
 62
     0
440
 16777216
100
AcDbPoint
 10
355.2079467178486
 20
440.046332483581
 30
0.0
  0
ENDBLK
  5
3FE
330
3F3
100
AcDbEntity
  8
0
100
AcDbBlockEnd
  0
BLOCK
  5
405
330
404
100
AcDbEntity
  8
0
100
AcDbBlockBegin
  2
*D13
 70
     1
 10
0.0
 20
0.0
 30
0.0
  3
*D13
  1

  0
LINE
  5
406
330
404
100
AcDbEntity
  8
09-01
 62
     4
440
 16777216
370
    -2
100
AcDbLine
 10
599.4868593987275
 20
420.892499373129
 30
0.0
 11
624.6327063601306
 21
420.892499373129
 31
0.0
  0
LINE
  5
407
330
404
100
AcDbEntity
  8
09-01
 62
     4
440
 16777216
370
    -2
100
AcDbLine
 10
599.4868593987273
 20
247.892499373129
 30
0.0
 11
624.6327063601305
 21
247.892499373129
 31
0.0
  0
LINE
  5
408
330
404
100
AcDbEntity
  8
09-01
 62
     4
440
 16777216
370
    -2
100
AcDbLine
 10
622.6327063601306
 20
415.892499373129
 30
0.0
 11
622.6327063601305
 21
252.892499373129
 31
0.0
  0
SOLID
  5
409
330
404
100
AcDbEntity
  8
09-01
 62
     4
440
 16777216
100
AcDbTrace
 10
621.7993730267973
 20
415.892499373129
 30
0.0
 11
623.466039693464
 21
415.892499373129
 31
0.0
 12
622.6327063601306
 22
420.892499373129
 32
0.0
 13
622.6327063601306
 23
420.892499373129
 33
0.0
  0
SOLID
  5
40A
330
404
100
AcDbEntity
  8
09-01
 62
     4
440
 16777216
100
AcDbTrace
 10
621.7993730267972
 20
252.892499373129
 30
0.0
 11
623.4660396934639
 21
252.892499373129
 31
0.0
 12
622.6327063601305
 22
247.892499373129
 32
0.0
 13
622.6327063601305
 23
247.892499373129
 33
0.0
  0
MTEXT
  5
40B
330
404
100
AcDbEntity
  8
09-01
 62
     1
440
 16777216
100
AcDbMText
 10
618.1327063601306
 20
334.3924993731291
 30
0.0
 40
5.0
 41
0.0
 46
0.0
 71
     5
 72
     1
  1
173
 11
0.0000000000000001
 21
1.0
 31
0.0
 73
     1
 44
1.0
  0
POINT
  5
40C
330
404
100
AcDbEntity
  8
DEFPOINTS
 62
     0
440
 16777216
100
AcDbPoint
 10
597.4868593987276
 20
420.892499373129
 30
0.0
  0
POINT
  5
40D
330
404
100
AcDbEntity
  8
DEFPOINTS
 62
     0
440
 16777216
100
AcDbPoint
 10
597.4868593987273
 20
247.892499373129
 30
0.0
  0
POINT
  5
40E
330
404
100
AcDbEntity
  8
DEFPOINTS
 62
     0
440
 16777216
100
AcDbPoint
 10
622.6327063601305
 20
247.892499373129
 30
0.0
  0
ENDBLK
  5
40F
330
404
100
AcDbEntity
  8
0
100
AcDbBlockEnd
  0
BLOCK
  5
31D
330
31C
100
AcDbEntity
  8
0
100
AcDbBlockBegin
  2
*D14
 70
     1
 10
0.0
 20
0.0
 30
0.0
  3
*D14
  1

  0
LINE
  5
31E
330
31C
100
AcDbEntity
  8
09-01
 62
     4
440
 16777216
370
    -2
100
AcDbLine
 10
43.20794671784819
 20
70.67260620768945
 30
0.0
 11
43.20794671784819
 21
82.78299437672353
 31
0.0
  0
LINE
  5
31F
330
31C
100
AcDbEntity
  8
09-01
 62
     4
440
 16777216
370
    -2
100
AcDbLine
 10
29.20794671784813
 20
70.67260620768968
 30
0.0
 11
29.20794671784813
 21
82.78299437672353
 31
0.0
  0
LINE
  5
320
330
31C
100
AcDbEntity
  8
09-01
 62
     4
440
 16777216
370
    -2
100
AcDbLine
 10
38.20794671784819
 20
80.78299437672354
 30
0.0
 11
34.20794671784813
 21
80.78299437672354
 31
0.0
  0
MTEXT
  5
321
330
31C
100
AcDbEntity
  8
09-01
 62
     1
440
 16777216
100
AcDbMText
 10
20.83404098862911
 20
86.26301895049516
 30
0.0
 40
5.0
 41
0.0
 46
0.0
 71
     5
 72
     1
  1
14
 73
     1
 44
1.0
  0
SOLID
  5
322
330
31C
100
AcDbEntity
  8
09-01
 62
     4
440
 16777216
100
AcDbTrace
 10
38.20794671784819
 20
81.61632771005686
 30
0.0
 11
38.20794671784819
 21
79.9496610433902
 31
0.0
 12
43.20794671784819
 22
80.78299437672354
 32
0.0
 13
43.20794671784819
 23
80.78299437672354
 33
0.0
  0
SOLID
  5
323
330
31C
100
AcDbEntity
  8
09-01
 62
     4
440
 16777216
100
AcDbTrace
 10
34.20794671784813
 20
81.61632771005686
 30
0.0
 11
34.20794671784813
 21
79.9496610433902
 31
0.0
 12
29.20794671784813
 22
80.78299437672354
 32
0.0
 13
29.20794671784813
 23
80.78299437672354
 33
0.0
  0
POINT
  5
324
330
31C
100
AcDbEntity
  8
DEFPOINTS
 62
     0
440
 16777216
100
AcDbPoint
 10
43.20794671784819
 20
68.67260620768945
 30
0.0
  0
POINT
  5
325
330
31C
100
AcDbEntity
  8
DEFPOINTS
 62
     0
440
 16777216
100
AcDbPoint
 10
29.20794671784813
 20
68.67260620768968
 30
0.0
  0
POINT
  5
326
330
31C
100
AcDbEntity
  8
DEFPOINTS
 62
     0
440
 16777216
100
AcDbPoint
 10
29.20794671784813
 20
80.78299437672354
 30
0.0
  0
ENDBLK
  5
327
330
31C
100
AcDbEntity
  8
0
100
AcDbBlockEnd
  0
BLOCK
  5
30E
330
30D
100
AcDbEntity
  8
0
100
AcDbBlockBegin
  2
*D15
 70
     1
 10
0.0
 20
0.0
 30
0.0
  3
*D15
  1

  0
LINE
  5
30F
330
30D
100
AcDbEntity
  8
10-01
 62
     4
440
 16777216
370
    -2
100
AcDbLine
 10
29.20794671784813
 20
70.67260620768968
 30
0.0
 11
29.20794671784813
 21
100.1403251912496
 31
0.0
  0
LINE
  5
310
330
30D
100
AcDbEntity
  8
10-01
 62
     4
440
 16777216
370
    -2
100
AcDbLine
 10
92.8079467178483
 20
98.14032519124964
 30
0.0
 11
34.20794671784813
 21
98.14032519124964
 31
0.0
  0
SOLID
  5
311
330
30D
100
AcDbEntity
  8
10-01
 62
     4
440
 16777216
100
AcDbTrace
 10
92.8079467178483
 20
98.97365852458298
 30
0.0
 11
92.8079467178483
 21
97.30699185791632
 31
0.0
 12
97.80794671784832
 22
98.14032519124964
 32
0.0
 13
97.80794671784832
 23
98.14032519124964
 33
0.0
  0
SOLID
  5
312
330
30D
100
AcDbEntity
  8
10-01
 62
     4
440
 16777216
100
AcDbTrace
 10
34.20794671784813
 20
98.97365852458298
 30
0.0
 11
34.20794671784813
 21
97.30699185791632
 31
0.0
 12
29.20794671784813
 22
98.14032519124964
 32
0.0
 13
29.20794671784813
 23
98.14032519124964
 33
0.0
  0
MTEXT
  5
313
330
30D
100
AcDbEntity
  8
10-01
 62
     1
440
 16777216
100
AcDbMText
 10
63.50794671784822
 20
102.6403251912496
 30
0.0
 40
5.0
 41
0.0
 46
0.0
 71
     5
 72
     1
  1
68.6
 73
     1
 44
1.0
  0
POINT
  5
314
330
30D
100
AcDbEntity
  8
DEFPOINTS
 62
     0
440
 16777216
100
AcDbPoint
 10
97.80794671784832
 20
98.14032519124964
 30
0.0
  0
POINT
  5
315
330
30D
100
AcDbEntity
  8
DEFPOINTS
 62
     0
440
 16777216
100
AcDbPoint
 10
29.20794671784813
 20
68.67260620768968
 30
0.0
  0
POINT
  5
316
330
30D
100
AcDbEntity
  8
DEFPOINTS
 62
     0
440
 16777216
100
AcDbPoint
 10
29.20794671784813
 20
98.14032519124964
 30
0.0
  0
ENDBLK
  5
317
330
30D
100
AcDbEntity
  8
0
100
AcDbBlockEnd
  0
BLOCK
  5
2FC
330
2FB
100
AcDbEntity
  8
0
100
AcDbBlockBegin
  2
*D16
 70
     1
 10
0.0
 20
0.0
 30
0.0
  3
*D16
  1

  0
LINE
  5
2FD
330
2FB
100
AcDbEntity
  8
09-01
 62
     4
440
 16777216
370
    -2
100
AcDbLine
 10
103.3079467178483
 20
79.67260620768946
 30
0.0
 11
113.3866259235654
 21
79.67260620768946
 31
0.0
  0
LINE
  5
2FE
330
2FB
100
AcDbEntity
  8
09-01
 62
     4
440
 16777216
370
    -2
100
AcDbLine
 10
129.4823803203175
 20
68.67260620768945
 30
0.0
 11
109.3866259235654
 21
68.67260620768945
 31
0.0
  0
LINE
  5
2FF
330
2FB
100
AcDbEntity
  8
09-01
 62
     4
440
 16777216
370
    -2
100
AcDbLine
 10
111.3866259235654
 20
84.67260620768945
 30
0.0
 11
111.3866259235654
 21
89.67260620768945
 31
0.0
  0
LINE
  5
300
330
2FB
100
AcDbEntity
  8
09-01
 62
     4
440
 16777216
370
    -2
100
AcDbLine
 10
111.3866259235654
 20
63.67260620768946
 30
0.0
 11
111.3866259235654
 21
58.67260620768946
 31
0.0
  0
MTEXT
  5
301
330
2FB
100
AcDbEntity
  8
09-01
 62
     1
440
 16777216
100
AcDbMText
 10
106.92341034542
 20
63.82684757142124
 30
0.0
 40
5.0
 41
0.0
 46
0.0
 71
     5
 72
     1
  1
11
 11
0.0000000000000001
 21
1.0
 31
0.0
 73
     1
 44
1.0
  0
LINE
  5
302
330
2FB
100
AcDbEntity
  8
09-01
 62
     4
440
 16777216
370
    -2
100
AcDbLine
 10
111.3866259235654
 20
79.67260620768946
 30
0.0
 11
111.3866259235654
 21
68.67260620768945
 31
0.0
  0
SOLID
  5
303
330
2FB
100
AcDbEntity
  8
09-01
 62
     4
440
 16777216
100
AcDbTrace
 10
110.5532925902321
 20
84.67260620768945
 30
0.0
 11
112.2199592568987
 21
84.67260620768945
 31
0.0
 12
111.3866259235654
 22
79.67260620768946
 32
0.0
 13
111.3866259235654
 23
79.67260620768946
 33
0.0
  0
SOLID
  5
304
330
2FB
100
AcDbEntity
  8
09-01
 62
     4
440
 16777216
100
AcDbTrace
 10
110.5532925902321
 20
63.67260620768946
 30
0.0
 11
112.2199592568987
 21
63.67260620768945
 31
0.0
 12
111.3866259235654
 22
68.67260620768945
 32
0.0
 13
111.3866259235654
 23
68.67260620768945
 33
0.0
  0
POINT
  5
305
330
2FB
100
AcDbEntity
  8
DEFPOINTS
 62
     0
440
 16777216
100
AcDbPoint
 10
101.3079467178483
 20
79.67260620768946
 30
0.0
  0
POINT
  5
306
330
2FB
100
AcDbEntity
  8
DEFPOINTS
 62
     0
440
 16777216
100
AcDbPoint
 10
131.4823803203175
 20
68.67260620768945
 30
0.0
  0
POINT
  5
307
330
2FB
100
AcDbEntity
  8
DEFPOINTS
 62
     0
440
 16777216
100
AcDbPoint
 10
111.3866259235654
 20
68.67260620768945
 30
0.0
  0
ENDBLK
  5
308
330
2FB
100
AcDbEntity
  8
0
100
AcDbBlockEnd
  0
BLOCK
  5
2EB
330
2EA
100
AcDbEntity
  8
0
100
AcDbBlockBegin
  2
*D17
 70
     1
 10
0.0
 20
0.0
 30
0.0
  3
*D17
  1

  0
LINE
  5
2EC
330
2EA
100
AcDbEntity
  8
09-01
 62
     4
440
 16777216
370
    -2
100
AcDbLine
 10
97.80794671784832
 20
85.17260620768945
 30
0.0
 11
97.80794671784832
 21
100.1403251912496
 31
0.0
  0
LINE
  5
2ED
330
2EA
100
AcDbEntity
  8
09-01
 62
     4
440
 16777216
370
    -2
100
AcDbLine
 10
286.6079467178483
 20
85.17260620768945
 30
0.0
 11
286.6079467178483
 21
100.1403251912496
 31
0.0
  0
LINE
  5
2EE
330
2EA
100
AcDbEntity
  8
09-01
 62
     4
440
 16777216
370
    -2
100
AcDbLine
 10
102.8079467178483
 20
98.14032519124964
 30
0.0
 11
281.6079467178483
 21
98.14032519124964
 31
0.0
  0
SOLID
  5
2EF
330
2EA
100
AcDbEntity
  8
09-01
 62
     4
440
 16777216
100
AcDbTrace
 10
102.8079467178483
 20
98.97365852458298
 30
0.0
 11
102.8079467178483
 21
97.30699185791632
 31
0.0
 12
97.80794671784832
 22
98.14032519124964
 32
0.0
 13
97.80794671784832
 23
98.14032519124964
 33
0.0
  0
SOLID
  5
2F0
330
2EA
100
AcDbEntity
  8
09-01
 62
     4
440
 16777216
100
AcDbTrace
 10
281.6079467178483
 20
98.97365852458298
 30
0.0
 11
281.6079467178483
 21
97.30699185791632
 31
0.0
 12
286.6079467178483
 22
98.14032519124964
 32
0.0
 13
286.6079467178483
 23
98.14032519124964
 33
0.0
  0
MTEXT
  5
2F1
330
2EA
100
AcDbEntity
  8
09-01
 62
     1
440
 16777216
100
AcDbMText
 10
192.2079467178483
 20
102.6403251912496
 30
0.0
 40
5.0
 41
0.0
 46
0.0
 71
     5
 72
     1
  1
188.8
 73
     1
 44
1.0
  0
POINT
  5
2F2
330
2EA
100
AcDbEntity
  8
DEFPOINTS
 62
     0
440
 16777216
100
AcDbPoint
 10
97.80794671784832
 20
83.17260620768946
 30
0.0
  0
POINT
  5
2F3
330
2EA
100
AcDbEntity
  8
DEFPOINTS
 62
     0
440
 16777216
100
AcDbPoint
 10
286.6079467178483
 20
83.17260620768946
 30
0.0
  0
POINT
  5
2F4
330
2EA
100
AcDbEntity
  8
DEFPOINTS
 62
     0
440
 16777216
100
AcDbPoint
 10
286.6079467178483
 20
98.14032519124964
 30
0.0
  0
ENDBLK
  5
2F5
330
2EA
100
AcDbEntity
  8
0
100
AcDbBlockEnd
  0
BLOCK
  5
2DE
330
2DD
100
AcDbEntity
  8
0
100
AcDbBlockBegin
  2
*D18
 70
     1
 10
0.0
 20
0.0
 30
0.0
  3
*D18
  1

  0
LINE
  5
2DF
330
2DD
100
AcDbEntity
  8
09-01
 62
     4
440
 16777216
370
    -2
100
AcDbLine
 10
355.2079467178483
 20
70.67260620768943
 30
0.0
 11
355.2079467178483
 21
100.1403251912496
 31
0.0
  0
LINE
  5
2E0
330
2DD
100
AcDbEntity
  8
09-01
 62
     4
440
 16777216
370
    -2
100
AcDbLine
 10
286.6079467178483
 20
85.17260620768945
 30
0.0
 11
286.6079467178483
 21
100.1403251912496
 31
0.0
  0
LINE
  5
2E1
330
2DD
100
AcDbEntity
  8
09-01
 62
     4
440
 16777216
370
    -2
100
AcDbLine
 10
350.2079467178484
 20
98.14032519124964
 30
0.0
 11
291.6079467178483
 21
98.14032519124964
 31
0.0
  0
SOLID
  5
2E2
330
2DD
100
AcDbEntity
  8
09-01
 62
     4
440
 16777216
100
AcDbTrace
 10
350.2079467178484
 20
98.97365852458298
 30
0.0
 11
350.2079467178484
 21
97.30699185791632
 31
0.0
 12
355.2079467178483
 22
98.14032519124964
 32
0.0
 13
355.2079467178483
 23
98.14032519124964
 33
0.0
  0
SOLID
  5
2E3
330
2DD
100
AcDbEntity
  8
09-01
 62
     4
440
 16777216
100
AcDbTrace
 10
291.6079467178483
 20
98.97365852458298
 30
0.0
 11
291.6079467178483
 21
97.30699185791632
 31
0.0
 12
286.6079467178483
 22
98.14032519124964
 32
0.0
 13
286.6079467178483
 23
98.14032519124964
 33
0.0
  0
MTEXT
  5
2E4
330
2DD
100
AcDbEntity
  8
09-01
 62
     1
440
 16777216
100
AcDbMText
 10
320.9079467178483
 20
102.6403251912496
 30
0.0
 40
5.0
 41
0.0
 46
0.0
 71
     5
 72
     1
  1
68.6
 73
     1
 44
1.0
  0
POINT
  5
2E5
330
2DD
100
AcDbEntity
  8
DEFPOINTS
 62
     0
440
 16777216
100
AcDbPoint
 10
355.2079467178483
 20
68.67260620768942
 30
0.0
  0
POINT
  5
2E6
330
2DD
100
AcDbEntity
  8
DEFPOINTS
 62
     0
440
 16777216
100
AcDbPoint
 10
286.6079467178483
 20
83.17260620768946
 30
0.0
  0
POINT
  5
2E7
330
2DD
100
AcDbEntity
  8
DEFPOINTS
 62
     0
440
 16777216
100
AcDbPoint
 10
286.6079467178483
 20
98.14032519124964
 30
0.0
  0
ENDBLK
  5
2E8
330
2DD
100
AcDbEntity
  8
0
100
AcDbBlockEnd
  0
BLOCK
  5
2CF
330
2CE
100
AcDbEntity
  8
0
100
AcDbBlockBegin
  2
*D19
 70
     1
 10
0.0
 20
0.0
 30
0.0
  3
*D19
  1

  0
LINE
  5
2D0
330
2CE
100
AcDbEntity
  8
09-01
 62
     4
440
 16777216
370
    -2
100
AcDbLine
 10
288.6079467178483
 20
82.17260620768945
 30
0.0
 11
311.8644784064347
 21
82.17260620768945
 31
0.0
  0
LINE
  5
2D1
330
2CE
100
AcDbEntity
  8
09-01
 62
     4
440
 16777216
370
    -2
100
AcDbLine
 10
288.6079467178483
 20
77.17260620768944
 30
0.0
 11
311.8644784064347
 21
77.17260620768944
 31
0.0
  0
LINE
  5
2D2
330
2CE
100
AcDbEntity
  8
09-01
 62
     4
440
 16777216
370
    -2
100
AcDbLine
 10
309.8644784064347
 20
87.17260620768945
 30
0.0
 11
309.8644784064347
 21
92.17260620768945
 31
0.0
  0
LINE
  5
2D3
330
2CE
100
AcDbEntity
  8
09-01
 62
     4
440
 16777216
370
    -2
100
AcDbLine
 10
309.8644784064347
 20
72.17260620768944
 30
0.0
 11
309.8644784064347
 21
67.17260620768944
 31
0.0
  0
MTEXT
  5
2D4
330
2CE
100
AcDbEntity
  8
09-01
 62
     1
440
 16777216
100
AcDbMText
 10
305.6030996078596
 20
88.32588044542047
 30
0.0
 40
5.0
 41
0.0
 46
0.0
 71
     5
 72
     1
  1
5
 11
0.0000000000000001
 21
1.0
 31
0.0
 73
     1
 44
1.0
  0
LINE
  5
2D5
330
2CE
100
AcDbEntity
  8
09-01
 62
     4
440
 16777216
370
    -2
100
AcDbLine
 10
309.8644784064347
 20
82.17260620768945
 30
0.0
 11
309.8644784064347
 21
77.17260620768944
 31
0.0
  0
SOLID
  5
2D6
330
2CE
100
AcDbEntity
  8
09-01
 62
     4
440
 16777216
100
AcDbTrace
 10
309.0311450731014
 20
87.17260620768945
 30
0.0
 11
310.6978117397681
 21
87.17260620768945
 31
0.0
 12
309.8644784064347
 22
82.17260620768945
 32
0.0
 13
309.8644784064347
 23
82.17260620768945
 33
0.0
  0
SOLID
  5
2D7
330
2CE
100
AcDbEntity
  8
09-01
 62
     4
440
 16777216
100
AcDbTrace
 10
309.0311450731014
 20
72.17260620768944
 30
0.0
 11
310.6978117397681
 21
72.17260620768944
 31
0.0
 12
309.8644784064347
 22
77.17260620768944
 32
0.0
 13
309.8644784064347
 23
77.17260620768944
 33
0.0
  0
POINT
  5
2D8
330
2CE
100
AcDbEntity
  8
DEFPOINTS
 62
     0
440
 16777216
100
AcDbPoint
 10
286.6079467178483
 20
82.17260620768945
 30
0.0
  0
POINT
  5
2D9
330
2CE
100
AcDbEntity
  8
DEFPOINTS
 62
     0
440
 16777216
100
AcDbPoint
 10
286.6079467178483
 20
77.17260620768946
 30
0.0
  0
POINT
  5
2DA
330
2CE
100
AcDbEntity
  8
DEFPOINTS
 62
     0
440
 16777216
100
AcDbPoint
 10
309.8644784064347
 20
77.17260620768944
 30
0.0
  0
ENDBLK
  5
2DB
330
2CE
100
AcDbEntity
  8
0
100
AcDbBlockEnd
  0
BLOCK
  5
2AD
330
2AC
100
AcDbEntity
  8
0
100
AcDbBlockBegin
  2
*D20
 70
     1
 10
0.0
 20
0.0
 30
0.0
  3
*D20
  1

  0
LINE
  5
2AE
330
2AC
100
AcDbEntity
  8
09-01
 62
     4
440
 16777216
370
    -2
100
AcDbLine
 10
43.20794671784824
 20
224.6726062076894
 30
0.0
 11
43.20794671784824
 21
234.6965008007296
 31
0.0
  0
LINE
  5
2AF
330
2AC
100
AcDbEntity
  8
09-01
 62
     4
440
 16777216
370
    -2
100
AcDbLine
 10
341.2079467178484
 20
224.6726062076894
 30
0.0
 11
341.2079467178484
 21
234.6965008007296
 31
0.0
  0
LINE
  5
2B0
330
2AC
100
AcDbEntity
  8
09-01
 62
     4
440
 16777216
370
    -2
100
AcDbLine
 10
48.20794671784824
 20
232.6965008007296
 30
0.0
 11
336.2079467178483
 21
232.6965008007296
 31
0.0
  0
SOLID
  5
2B1
330
2AC
100
AcDbEntity
  8
09-01
 62
     4
440
 16777216
100
AcDbTrace
 10
48.20794671784824
 20
233.5298341340629
 30
0.0
 11
48.20794671784824
 21
231.8631674673963
 31
0.0
 12
43.20794671784824
 22
232.6965008007296
 32
0.0
 13
43.20794671784824
 23
232.6965008007296
 33
0.0
  0
SOLID
  5
2B2
330
2AC
100
AcDbEntity
  8
09-01
 62
     4
440
 16777216
100
AcDbTrace
 10
336.2079467178483
 20
233.5298341340629
 30
0.0
 11
336.2079467178483
 21
231.8631674673963
 31
0.0
 12
341.2079467178484
 22
232.6965008007296
 32
0.0
 13
341.2079467178484
 23
232.6965008007296
 33
0.0
  0
MTEXT
  5
2B3
330
2AC
100
AcDbEntity
  8
09-01
 62
     1
440
 16777216
100
AcDbMText
 10
192.2079467178483
 20
237.1965008007296
 30
0.0
 40
5.0
 41
0.0
 46
0.0
 71
     5
 72
     1
  1
298
 73
     1
 44
1.0
  0
POINT
  5
2B4
330
2AC
100
AcDbEntity
  8
DEFPOINTS
 62
     0
440
 16777216
100
AcDbPoint
 10
43.20794671784824
 20
222.6726062076894
 30
0.0
  0
POINT
  5
2B5
330
2AC
100
AcDbEntity
  8
DEFPOINTS
 62
     0
440
 16777216
100
AcDbPoint
 10
341.2079467178484
 20
222.6726062076894
 30
0.0
  0
POINT
  5
2B6
330
2AC
100
AcDbEntity
  8
DEFPOINTS
 62
     0
440
 16777216
100
AcDbPoint
 10
341.2079467178484
 20
232.6965008007296
 30
0.0
  0
ENDBLK
  5
2B7
330
2AC
100
AcDbEntity
  8
0
100
AcDbBlockEnd
  0
BLOCK
  5
290
330
28F
100
AcDbEntity
  8
0
100
AcDbBlockBegin
  2
Scharnier-023555-S-1
 70
     0
 10
0.0
 20
0.0
 30
0.0
  3
Scharnier-023555-S-1
  1

  0
LINE
  5
291
330
28F
100
AcDbEntity
  8
0
100
AcDbLine
 10
0.8000000000001818
 20
12.80000000000018
 30
0.0
 11
1.599999999999909
 21
12.80000000000018
 31
0.0
  0
LINE
  5
292
330
28F
100
AcDbEntity
  8
0
100
AcDbLine
 10
0.8000000000001818
 20
1.38564064605498
 30
0.0
 11
0.8000000000001818
 21
12.80000000000018
 31
0.0
  0
LINE
  5
293
330
28F
100
AcDbEntity
  8
0
100
AcDbLine
 10
1.599999999999909
 20
2.0
 30
0.0
 11
0.8000000000001818
 21
2.0
 31
0.0
  0
LINE
  5
294
330
28F
100
AcDbEntity
  8
0
100
AcDbLine
 10
1.599999999999909
 20
12.80000000000018
 30
0.0
 11
1.599999999999909
 21
0.0
 31
0.0
  0
ENDBLK
  5
295
330
28F
100
AcDbEntity
  8
0
100
AcDbBlockEnd
  0
BLOCK
  5
298
330
297
100
AcDbEntity
  8
0
100
AcDbBlockBegin
  2
Scharnier-023555-S-2
 70
     0
 10
0.0
 20
0.0
 30
0.0
  3
Scharnier-023555-S-2
  1

  0
LINE
  5
299
330
297
100
AcDbEntity
  8
05-01
100
AcDbLine
 10
2.086093569291278
 20
0.0
 30
0.0
 11
-1.992774007127536
 21
0.0
 31
0.0
  0
LINE
  5
29E
330
297
100
AcDbEntity
  8
05-01
100
AcDbLine
 10
1.599999999999909
 20
0.0
 30
0.0
 11
1.599999999999909
 21
-1.747668526231791
 31
0.0
  0
LINE
  5
29F
330
297
100
AcDbEntity
  8
05-01
100
AcDbLine
 10
0.0
 20
-1.599999999999909
 30
0.0
 11
1.705381878098705
 21
-1.599999999999909
 31
0.0
  0
LINE
  5
2A0
330
297
100
AcDbEntity
  8
0
100
AcDbLine
 10
-1.438749456994173
 20
-0.7000000000000455
 30
0.0
 11
-0.5656854249496064
 21
-0.7000000000000455
 31
0.0
  0
ARC
  5
2A1
330
297
100
AcDbEntity
  8
0
100
AcDbCircle
 10
0.0
 20
0.0
 30
0.0
 40
0.8999999999999872
100
AcDbArc
 50
297.2660444507257
 51
231.0575587310225
  0
LINE
  5
2A2
330
297
100
AcDbEntity
  8
0
100
AcDbLine
 10
0.412310562561288
 20
-0.7999999999999546
 30
0.0
 11
-7.200000000000272
 21
-0.7999999999999546
 31
0.0
  0
ARC
  5
2A3
330
297
100
AcDbEntity
  8
0
100
AcDbCircle
 10
0.0
 20
0.0
 30
0.0
 40
1.599999999999997
100
AcDbArc
 50
270.0
 51
205.9444797723803
  0
LINE
  5
2A4
330
297
100
AcDbEntity
  8
0
100
AcDbLine
 10
-7.200000000000272
 20
-1.599999999999909
 30
0.0
 11
0.0
 21
-1.599999999999909
 31
0.0
  0
LINE
  5
2A5
330
297
100
AcDbEntity
  8
0
100
AcDbLine
 10
-7.200000000000272
 20
-0.7999999999999546
 30
0.0
 11
-7.200000000000272
 21
-1.599999999999909
 31
0.0
  0
ARC
  5
2A6
330
297
100
AcDbEntity
  8
0
100
AcDbCircle
 10
-0.0000000000004547
 20
0.0
 30
0.0
 40
0.9000000000002179
100
AcDbArc
 50
231.0575587309899
 51
242.7339555492743
  0
ARC
  5
2A7
330
297
100
AcDbEntity
  8
0
100
AcDbCircle
 10
-0.0000000000004547
 20
0.0
 30
0.0
 40
1.60000000000029
100
AcDbArc
 50
205.9444797723571
 51
209.9999999999973
  0
LINE
  5
2A8
330
297
100
AcDbEntity
  8
05-01
100
AcDbLine
 10
0.0
 20
-2.086093569291278
 30
0.0
 11
0.0
 21
1.992774007127309
 31
0.0
  0
ENDBLK
  5
2A9
330
297
100
AcDbEntity
  8
0
100
AcDbBlockEnd
  0
BLOCK
  5
28D
330
28C
100
AcDbEntity
  8
0
100
AcDbBlockBegin
  2
Scharnier-023555-S
 70
     0
 10
0.0
 20
0.0
 30
0.0
  3
Scharnier-023555-S
  1

  0
INSERT
  5
28E
330
28C
100
AcDbEntity
  8
0
100
AcDbBlockReference
  2
Scharnier-023555-S-1
 10
-1.599999999999909
 20
1.599999999999909
 30
0.0
  0
INSERT
  5
296
330
28C
100
AcDbEntity
  8
0
100
AcDbBlockReference
  2
Scharnier-023555-S-2
 10
-1.599999999999909
 20
1.599999999999909
 30
0.0
  0
ENDBLK
  5
2AA
330
28C
100
AcDbEntity
  8
0
100
AcDbBlockEnd
  0
BLOCK
  5
27C
330
27B
100
AcDbEntity
  8
0
100
AcDbBlockBegin
  2
*D24
 70
     1
 10
0.0
 20
0.0
 30
0.0
  3
*D24
  1

  0
LINE
  5
27D
330
27B
100
AcDbEntity
  8
09-01
 62
     4
440
 16777216
370
    -2
100
AcDbLine
 10
228.6622998969812
 20
348.892499373129
 30
0.0
 11
221.6622998969812
 21
348.892499373129
 31
0.0
  0
LINE
  5
27E
330
27B
100
AcDbEntity
  8
09-01
 62
     4
440
 16777216
370
    -2
100
AcDbLine
 10
228.6622998969812
 20
296.892499373129
 30
0.0
 11
221.6622998969811
 21
296.892499373129
 31
0.0
  0
LINE
  5
27F
330
27B
100
AcDbEntity
  8
09-01
 62
     4
440
 16777216
370
    -2
100
AcDbLine
 10
223.6622998969812
 20
343.892499373129
 30
0.0
 11
223.6622998969811
 21
301.892499373129
 31
0.0
  0
SOLID
  5
280
330
27B
100
AcDbEntity
  8
09-01
 62
     4
440
 16777216
100
AcDbTrace
 10
222.8289665636479
 20
343.892499373129
 30
0.0
 11
224.4956332303145
 21
343.892499373129
 31
0.0
 12
223.6622998969812
 22
348.892499373129
 32
0.0
 13
223.6622998969812
 23
348.892499373129
 33
0.0
  0
SOLID
  5
281
330
27B
100
AcDbEntity
  8
09-01
 62
     4
440
 16777216
100
AcDbTrace
 10
222.8289665636478
 20
301.892499373129
 30
0.0
 11
224.4956332303145
 21
301.892499373129
 31
0.0
 12
223.6622998969811
 22
296.892499373129
 32
0.0
 13
223.6622998969811
 23
296.892499373129
 33
0.0
  0
MTEXT
  5
282
330
27B
100
AcDbEntity
  8
09-01
 62
     1
440
 16777216
100
AcDbMText
 10
219.1622998969811
 20
322.8924993731291
 30
0.0
 40
5.0
 41
0.0
 46
0.0
 71
     5
 72
     1
  1
52
 11
0.0000000000000001
 21
1.0
 31
0.0
 73
     1
 44
1.0
  0
POINT
  5
283
330
27B
100
AcDbEntity
  8
DEFPOINTS
 62
     0
440
 16777216
100
AcDbPoint
 10
230.6622998969812
 20
348.892499373129
 30
0.0
  0
POINT
  5
284
330
27B
100
AcDbEntity
  8
DEFPOINTS
 62
     0
440
 16777216
100
AcDbPoint
 10
230.6622998969812
 20
296.892499373129
 30
0.0
  0
POINT
  5
285
330
27B
100
AcDbEntity
  8
DEFPOINTS
 62
     0
440
 16777216
100
AcDbPoint
 10
223.6622998969811
 20
296.892499373129
 30
0.0
  0
ENDBLK
  5
286
330
27B
100
AcDbEntity
  8
0
100
AcDbBlockEnd
  0
BLOCK
  5
26F
330
26E
100
AcDbEntity
  8
0
100
AcDbBlockBegin
  2
*D25
 70
     1
 10
0.0
 20
0.0
 30
0.0
  3
*D25
  1

  0
LINE
  5
270
330
26E
100
AcDbEntity
  8
09-01
 62
     4
440
 16777216
370
    -2
100
AcDbLine
 10
68.20794671784836
 20
315.210478324479
 30
0.0
 11
68.20794671784836
 21
318.210478324479
 31
0.0
  0
LINE
  5
271
330
26E
100
AcDbEntity
  8
09-01
 62
     4
440
 16777216
370
    -2
100
AcDbLine
 10
316.2079467178484
 20
315.210478324479
 30
0.0
 11
316.2079467178484
 21
318.210478324479
 31
0.0
  0
LINE
  5
272
330
26E
100
AcDbEntity
  8
09-01
 62
     4
440
 16777216
370
    -2
100
AcDbLine
 10
73.20794671784836
 20
316.210478324479
 30
0.0
 11
311.2079467178483
 21
316.210478324479
 31
0.0
  0
SOLID
  5
273
330
26E
100
AcDbEntity
  8
09-01
 62
     4
440
 16777216
100
AcDbTrace
 10
73.20794671784836
 20
317.0438116578123
 30
0.0
 11
73.20794671784836
 21
315.3771449911457
 31
0.0
 12
68.20794671784836
 22
316.210478324479
 32
0.0
 13
68.20794671784836
 23
316.210478324479
 33
0.0
  0
SOLID
  5
274
330
26E
100
AcDbEntity
  8
09-01
 62
     4
440
 16777216
100
AcDbTrace
 10
311.2079467178483
 20
317.0438116578123
 30
0.0
 11
311.2079467178483
 21
315.3771449911457
 31
0.0
 12
316.2079467178484
 22
316.210478324479
 32
0.0
 13
316.2079467178484
 23
316.210478324479
 33
0.0
  0
MTEXT
  5
275
330
26E
100
AcDbEntity
  8
09-01
 62
     1
440
 16777216
100
AcDbMText
 10
192.2079467178483
 20
320.710478324479
 30
0.0
 40
5.0
 41
0.0
 46
0.0
 71
     5
 72
     1
  1
248
 73
     1
 44
1.0
  0
POINT
  5
276
330
26E
100
AcDbEntity
  8
DEFPOINTS
 62
     0
440
 16777216
100
AcDbPoint
 10
68.20794671784836
 20
313.210478324479
 30
0.0
  0
POINT
  5
277
330
26E
100
AcDbEntity
  8
DEFPOINTS
 62
     0
440
 16777216
100
AcDbPoint
 10
316.2079467178484
 20
313.210478324479
 30
0.0
  0
POINT
  5
278
330
26E
100
AcDbEntity
  8
DEFPOINTS
 62
     0
440
 16777216
100
AcDbPoint
 10
316.2079467178484
 20
316.210478324479
 30
0.0
  0
ENDBLK
  5
279
330
26E
100
AcDbEntity
  8
0
100
AcDbBlockEnd
  0
BLOCK
  5
262
330
261
100
AcDbEntity
  8
0
100
AcDbBlockBegin
  2
*D26
 70
     1
 10
0.0
 20
0.0
 30
0.0
  3
*D26
  1

  0
LINE
  5
263
330
261
100
AcDbEntity
  8
09-01
 62
     4
440
 16777216
370
    -2
100
AcDbLine
 10
222.6622998969812
 20
296.892499373129
 30
0.0
 11
221.6622998969812
 21
296.892499373129
 31
0.0
  0
LINE
  5
264
330
261
100
AcDbEntity
  8
09-01
 62
     4
440
 16777216
370
    -2
100
AcDbLine
 10
222.6622998969812
 20
247.892499373129
 30
0.0
 11
221.6622998969812
 21
247.892499373129
 31
0.0
  0
LINE
  5
265
330
261
100
AcDbEntity
  8
09-01
 62
     4
440
 16777216
370
    -2
100
AcDbLine
 10
223.6622998969812
 20
291.892499373129
 30
0.0
 11
223.6622998969812
 21
252.892499373129
 31
0.0
  0
MTEXT
  5
266
330
261
100
AcDbEntity
  8
09-01
 62
     1
440
 16777216
100
AcDbMText
 10
219.0050626500311
 20
280.5438501097939
 30
0.0
 40
5.0
 41
0.0
 46
0.0
 71
     5
 72
     1
  1
49
 11
0.0000000000000001
 21
1.0
 31
0.0
 73
     1
 44
1.0
  0
SOLID
  5
267
330
261
100
AcDbEntity
  8
09-01
 62
     4
440
 16777216
100
AcDbTrace
 10
222.8289665636479
 20
291.892499373129
 30
0.0
 11
224.4956332303145
 21
291.892499373129
 31
0.0
 12
223.6622998969812
 22
296.892499373129
 32
0.0
 13
223.6622998969812
 23
296.892499373129
 33
0.0
  0
SOLID
  5
268
330
261
100
AcDbEntity
  8
09-01
 62
     4
440
 16777216
100
AcDbTrace
 10
222.8289665636479
 20
252.892499373129
 30
0.0
 11
224.4956332303145
 21
252.892499373129
 31
0.0
 12
223.6622998969812
 22
247.892499373129
 32
0.0
 13
223.6622998969812
 23
247.892499373129
 33
0.0
  0
POINT
  5
269
330
261
100
AcDbEntity
  8
DEFPOINTS
 62
     0
440
 16777216
100
AcDbPoint
 10
224.6622998969812
 20
296.892499373129
 30
0.0
  0
POINT
  5
26A
330
261
100
AcDbEntity
  8
DEFPOINTS
 62
     0
440
 16777216
100
AcDbPoint
 10
224.6622998969812
 20
247.892499373129
 30
0.0
  0
POINT
  5
26B
330
261
100
AcDbEntity
  8
DEFPOINTS
 62
     0
440
 16777216
100
AcDbPoint
 10
223.6622998969812
 20
247.892499373129
 30
0.0
  0
ENDBLK
  5
26C
330
261
100
AcDbEntity
  8
0
100
AcDbBlockEnd
  0
BLOCK
  5
257
330
256
100
AcDbEntity
  8
0
100
AcDbBlockBegin
  2
*D27
 70
     1
 10
0.0
 20
0.0
 30
0.0
  3
*D27
  1

  0
LINE
  5
258
330
256
100
AcDbEntity
  8
09-01
 62
     4
440
 16777216
370
    -2
100
AcDbLine
 10
55.24176721785375
 20
363.9415329127422
 30
0.0
 11
66.84460644137985
 21
351.0644771002729
 31
0.0
  0
MTEXT
  5
259
330
256
100
AcDbEntity
  8
09-01
 62
     1
440
 16777216
100
AcDbMText
 10
62.71278220061467
 20
362.3725482394138
 30
0.0
 40
5.0
 41
0.0
 46
0.0
 71
     5
 72
     1
  1
R6
 11
0.6693945705880449
 21
-0.7429070661039959
 31
0.0
 73
     1
 44
1.0
  0
LINE
  5
25A
330
256
100
AcDbEntity
  8
09-01
 62
     4
440
 16777216
370
    -2
100
AcDbLine
 10
74.20794671784839
 20
342.892499373129
 30
0.0
 11
70.19157929432006
 21
347.349941769753
 31
0.0
  0
SOLID
  5
25B
330
256
100
AcDbEntity
  8
09-01
 62
     4
440
 16777216
100
AcDbTrace
 10
67.46369566313319
 20
351.6223059090963
 30
0.0
 11
66.22551721962654
 21
350.5066482914496
 31
0.0
 12
70.19157929432006
 22
347.349941769753
 32
0.0
 13
70.19157929432006
 23
347.349941769753
 33
0.0
  0
POINT
  5
25C
330
256
100
AcDbEntity
  8
DEFPOINTS
 62
     0
440
 16777216
100
AcDbPoint
 10
70.19157929432006
 20
347.349941769753
 30
0.0
  0
POINT
  5
25D
330
256
100
AcDbEntity
  8
DEFPOINTS
 62
     0
440
 16777216
100
AcDbPoint
 10
74.20794671784839
 20
342.892499373129
 30
0.0
  0
ENDBLK
  5
25E
330
256
100
AcDbEntity
  8
0
100
AcDbBlockEnd
  0
BLOCK
  5
9F
330
9C
100
AcDbEntity
  8
0
100
AcDbBlockBegin
  2
DIN A3
 70
     2
 10
0.0
 20
0.0
 30
0.0
  3
DIN A3
  1

  0
LINE
  5
A0
330
9C
100
AcDbEntity
  8
01-99
100
AcDbLine
 10
412.9999997697348
 20
290.0000007613509
 30
0.0
 11
6.999999769775513
 21
290.0000007613508
 31
0.0
  0
LINE
  5
A4
330
9C
100
AcDbEntity
  8
01-99
100
AcDbLine
 10
6.999999769775286
 20
7.000000761378942
 30
0.0
 11
6.999999769775513
 21
290.0000007613508
 31
0.0
  0
LINE
  5
A5
330
9C
100
AcDbEntity
  8
02-01
100
AcDbLine
 10
419.9999997697341
 20
297.0000007613501
 30
0.0
 11
-0.0000002302240318
 21
297.0000007613501
 31
0.0
  0
LINE
  5
A9
330
9C
100
AcDbEntity
  8
02-01
100
AcDbLine
 10
-0.0000002302240318
 20
297.0000007613501
 30
0.0
 11
-0.0000002302240318
 21
0.0000007613796242
 31
0.0
  0
LINE
  5
AA
330
9C
100
AcDbEntity
  8
02-01
100
AcDbLine
 10
-0.0000002302240318
 20
0.0000007613796242
 30
0.0
 11
419.9999997697341
 21
0.0000007613796242
 31
0.0
  0
LINE
  5
AB
330
9C
100
AcDbEntity
  8
02-01
100
AcDbLine
 10
419.9999997697341
 20
0.0000007613796242
 30
0.0
 11
419.9999997697341
 21
297.0000007613501
 31
0.0
  0
LINE
  5
AC
330
9C
100
AcDbEntity
  8
01-99
100
AcDbLine
 10
412.9999997697348
 20
290.0000007613509
 30
0.0
 11
412.9999997697348
 21
7.000000761379055
 31
0.0
  0
LINE
  5
AD
330
9C
100
AcDbEntity
  8
01-99
100
AcDbLine
 10
412.9999997697348
 20
7.000000761379055
 30
0.0
 11
6.999999769775286
 21
7.000000761378942
 31
0.0
  0
LINE
  5
AE
330
9C
100
AcDbEntity
  8
01-99
100
AcDbLine
 10
412.9999997697348
 20
53.00000076137905
 30
0.0
 11
228.999999769733
 21
53.00000076137894
 31
0.0
  0
LINE
  5
AF
330
9C
100
AcDbEntity
  8
01-99
100
AcDbLine
 10
228.999999769733
 20
53.00000076137894
 30
0.0
 11
228.999999769733
 21
7.000000761378942
 31
0.0
  0
LINE
  5
B0
330
9C
100
AcDbEntity
  8
01-99
100
AcDbLine
 10
278.9999997697348
 20
12.11111187237895
 30
0.0
 11
228.9999997697348
 21
12.11111187237895
 31
0.0
  0
LINE
  5
B1
330
9C
100
AcDbEntity
  8
01-99
100
AcDbLine
 10
278.9999997697348
 20
17.22222298337897
 30
0.0
 11
228.9999997697348
 21
17.22222298337897
 31
0.0
  0
LINE
  5
B2
330
9C
100
AcDbEntity
  8
01-99
100
AcDbLine
 10
278.9999997697348
 20
22.33333409437898
 30
0.0
 11
228.9999997697348
 21
22.33333409437893
 31
0.0
  0
LINE
  5
B3
330
9C
100
AcDbEntity
  8
01-99
100
AcDbLine
 10
323.9999997697348
 20
27.444445205379
 30
0.0
 11
228.9999997697348
 21
27.44444520537894
 31
0.0
  0
LINE
  5
B4
330
9C
100
AcDbEntity
  8
01-99
100
AcDbLine
 10
323.9999997697348
 20
32.55555631637901
 30
0.0
 11
228.9999997697348
 21
32.55555631637895
 31
0.0
  0
LINE
  5
B5
330
9C
100
AcDbEntity
  8
01-99
100
AcDbLine
 10
253.9999997697348
 20
7.000000761378942
 30
0.0
 11
253.9999997697348
 21
12.11111187237895
 31
0.0
  0
LINE
  5
B6
330
9C
100
AcDbEntity
  8
01-99
100
AcDbLine
 10
236.9999997697348
 20
12.11111187237895
 30
0.0
 11
236.9999997697348
 21
37.66666742804563
 31
0.0
  0
LINE
  5
B7
330
9C
100
AcDbEntity
  8
01-99
100
AcDbLine
 10
278.9999997697348
 20
7.000000761378942
 30
0.0
 11
278.9999997697348
 21
53.00000076137894
 31
0.0
  0
LINE
  5
B8
330
9C
100
AcDbEntity
  8
01-99
100
AcDbLine
 10
323.9999997697348
 20
7.000000761378942
 30
0.0
 11
323.9999997697348
 21
53.00000076137894
 31
0.0
  0
LINE
  5
B9
330
9C
100
AcDbEntity
  8
01-99
100
AcDbLine
 10
353.4999997697348
 20
7.000000761378942
 30
0.0
 11
353.4999997697348
 21
17.22222298337903
 31
0.0
  0
LINE
  5
BA
330
9C
100
AcDbEntity
  8
01-99
100
AcDbLine
 10
385.9999997697348
 20
7.000000761378942
 30
0.0
 11
385.9999997697348
 21
17.22222298337908
 31
0.0
  0
LINE
  5
BB
330
9C
100
AcDbEntity
  8
01-99
100
AcDbLine
 10
357.4999997697348
 20
37.66666742804569
 30
0.0
 11
357.4999997697348
 21
53.00000076137905
 31
0.0
  0
LINE
  5
BC
330
9C
100
AcDbEntity
  8
01-99
100
AcDbLine
 10
390.9999997697348
 20
37.66666742804569
 30
0.0
 11
390.9999997697348
 21
53.00000076137905
 31
0.0
  0
LINE
  5
BD
330
9C
100
AcDbEntity
  8
01-99
100
AcDbLine
 10
286.9999997697348
 20
22.33333409471232
 30
0.0
 11
286.9999997697348
 21
37.66666742804569
 31
0.0
  0
LINE
  5
BE
330
9C
100
AcDbEntity
  8
01-99
100
AcDbLine
 10
269.0031881091643
 20
12.11111187237895
 30
0.0
 11
269.0031881091643
 21
37.66666742804563
 31
0.0
  0
LINE
  5
BF
330
9C
100
AcDbEntity
  8
01-99
100
AcDbLine
 10
257.0031881091643
 20
12.11111187237895
 30
0.0
 11
257.0031881091643
 21
37.66666742804563
 31
0.0
  0
LINE
  5
C0
330
9C
100
AcDbEntity
  8
01-99
100
AcDbLine
 10
323.9999997697348
 20
22.33333409471232
 30
0.0
 11
278.9999997697348
 21
22.33333409471232
 31
0.0
  0
LINE
  5
C1
330
9C
100
AcDbEntity
  8
01-99
100
AcDbLine
 10
323.9999997697348
 20
37.66666742804569
 30
0.0
 11
228.9999997697348
 21
37.66666742804557
 31
0.0
  0
LINE
  5
C2
330
9C
100
AcDbEntity
  8
01-99
100
AcDbLine
 10
300.9999997697348
 20
22.33333409471232
 30
0.0
 11
300.9999997697348
 21
53.000000761379
 31
0.0
  0
LINE
  5
C3
330
9C
100
AcDbEntity
  8
01-99
100
AcDbLine
 10
278.9999997697348
 20
37.66666742804563
 30
0.0
 11
286.9999997697348
 21
32.55555632804567
 31
0.0
  0
LINE
  5
C4
330
9C
100
AcDbEntity
  8
01-99
100
AcDbLine
 10
278.9999997697348
 20
32.55555632804567
 30
0.0
 11
286.9999997697348
 21
37.66666742804569
 31
0.0
  0
LINE
  5
C5
330
9C
100
AcDbEntity
  8
01-99
100
AcDbLine
 10
412.9999997697348
 20
45.33333409471231
 30
0.0
 11
323.9999997697349
 21
45.33333409471225
 31
0.0
  0
LINE
  5
C6
330
9C
100
AcDbEntity
  8
01-99
100
AcDbLine
 10
323.9999997697348
 20
17.22222298337897
 30
0.0
 11
412.9999997697348
 21
17.22222298337908
 31
0.0
  0
LINE
  5
C7
330
9C
100
AcDbEntity
  8
01-99
100
AcDbLine
 10
323.9999997697348
 20
37.66666742804569
 30
0.0
 11
412.9999997697348
 21
37.66666742804574
 31
0.0
  0
LINE
  5
C8
330
9C
100
AcDbEntity
  8
01-99
100
AcDbLine
 10
300.9999997697348
 20
42.77777853937897
 30
0.0
 11
278.9999997697348
 21
42.77777853937897
 31
0.0
  0
LINE
  5
C9
330
9C
100
AcDbEntity
  8
01-99
100
AcDbLine
 10
300.9999997697348
 20
47.88888965037898
 30
0.0
 11
278.9999997697348
 21
47.88888965037893
 31
0.0
  0
TEXT
  5
CA
330
9C
100
AcDbEntity
  8
08-99
100
AcDbText
 10
325.4997009380411
 20
33.6698744692369
 30
0.0
 40
2.5
  1
Benennung/Teil:
 51
15.0
  7
ROMANS8
100
AcDbText
  0
TEXT
  5
CF
330
9C
100
AcDbEntity
  8
08-99
100
AcDbText
 10
387.5028272173022
 20
13.01760345560962
 30
0.0
 40
2.7
  1
Ident-Nr.
 51
15.0
  7
ROMANS8
100
AcDbText
  0
TEXT
  5
D0
330
9C
100
AcDbEntity
  8
08-99
100
AcDbText
 10
302.5000215029029
 20
34.05557772316138
 30
0.0
 40
2.5
  1
Name:
 51
15.0
  7
ROMANS8
100
AcDbText
  0
TEXT
  5
D1
330
9C
100
AcDbEntity
  8
08-99
100
AcDbText
 10
288.5077689122797
 20
34.04841872238342
 30
0.0
 40
2.5
  1
Datum:
 50
0.102528160689452
 41
0.8933771909280748
 51
15.0
  7
ROMANS8
 72
     5
 11
299.6749659193617
 21
34.0684019288434
 31
0.0
100
AcDbText
  0
TEXT
  5
D2
330
9C
100
AcDbEntity
  8
08-99
100
AcDbText
 10
238.5000078514702
 20
34.05597786035884
 30
0.0
 40
1.6
  1
Änderung:
 51
15.0
  7
ROMANS8
100
AcDbText
  0
TEXT
  5
D3
330
9C
100
AcDbEntity
  8
08-99
100
AcDbText
 10
255.4999378454877
 20
10.11112006054139
 30
0.0
 40
1.0
  1
ERSETZT.DURCH:
 51
15.0
  7
ROMANS8
100
AcDbText
  0
TEXT
  5
D4
330
9C
100
AcDbEntity
  8
08-99
100
AcDbText
 10
230.4993605854065
 20
10.11085496431519
 30
0.0
 40
1.0
  1
ERSETZT.FÜR:
 51
15.0
  7
ROMANS8
100
AcDbText
  0
TEXT
  5
D5
330
9C
100
AcDbEntity
  8
08-99
100
AcDbText
 10
354.990906611889
 20
13.61295762544273
 30
0.0
 40
2.112
  1
AUFTRAGS.NR.:
 51
15.0
  7
ROMANS8
100
AcDbText
  0
TEXT
  5
D6
330
9C
100
AcDbEntity
  8
08-99
100
AcDbText
 10
325.5034639747472
 20
13.61092941740929
 30
0.0
 40
2.112
  1
Sonder-Nr:
 51
15.0
  7
ROMANS8
100
AcDbText
  0
TEXT
  5
D7
330
9C
100
AcDbEntity
  8
08-99
100
AcDbText
 10
308.6963072648131
 20
50.92370926842125
 30
0.0
 40
1.349999999999999
  1
Format
 51
15.0
  7
ROMANS8
100
AcDbText
  0
TEXT
  5
D8
330
9C
100
AcDbEntity
  8
08-99
100
AcDbText
 10
307.3043795165026
 20
45.64161955447966
 30
0.0
 40
1.822499999999999
  1
Normen
 51
15.0
  7
ROMANS8
100
AcDbText
  0
TEXT
  5
D9
330
9C
100
AcDbEntity
  8
08-99
100
AcDbText
 10
230.5000293736364
 20
34.05556859693707
 30
0.0
 40
1.6
  1
Zust.
 51
15.0
  7
ROMANS8
100
AcDbText
  0
TEXT
  5
DA
330
9C
100
AcDbEntity
  8
08-99
100
AcDbText
 10
258.503180470904
 20
34.0555600128755
 30
0.0
 40
1.6
  1
Datum:
 51
15.0
  7
ROMANS8
100
AcDbText
  0
TEXT
  5
DB
330
9C
100
AcDbEntity
  8
08-99
100
AcDbText
 10
270.5032133866668
 20
34.05556481932439
 30
0.0
 40
1.6
  1
Name:
 51
15.0
  7
ROMANS8
100
AcDbText
  0
TEXT
  5
DC
330
9C
100
AcDbEntity
  8
08-99
100
AcDbText
 10
280.154554215326
 20
29.0381403293278
 30
0.0
 40
1.6
  1
Erst.
 51
15.0
  7
ROMANS8
100
AcDbText
  0
TEXT
  5
DD
330
9C
100
AcDbEntity
  8
08-99
100
AcDbText
 10
279.5171801320455
 20
24.19745182079998
 30
0.0
 40
1.6
  1
Bearb.
 51
15.0
  7
ROMANS8
100
AcDbText
  0
TEXT
  5
DE
330
9C
100
AcDbEntity
  8
08-99
100
AcDbText
 10
358.4308046815029
 20
42.61949825408587
 30
0.0
 40
2.0
  1
Zuschnittsbreite:
 51
15.0
  7
ROMANS8
100
AcDbText
  0
TEXT
  5
DF
330
9C
100
AcDbEntity
  8
08-99
100
AcDbText
 10
324.984994543767
 20
42.73762438949257
 30
0.0
 40
2.0
  1
Zuschnittslänge:
 51
15.0
  7
ROMANS8
100
AcDbText
  0
LINE
  5
E0
330
9C
100
AcDbEntity
  8
06-99
100
AcDbLine
 10
302.7675395817348
 20
19.87656561071236
 30
0.0
 11
303.0090469137349
 21
20.08724790671238
 31
0.0
  0
LINE
  5
E4
330
9C
100
AcDbEntity
  8
06-99
100
AcDbLine
 10
303.0090469137349
 20
20.08724790671238
 30
0.0
 11
302.9228515737349
 21
20.22625816271227
 31
0.0
  0
LINE
  5
E5
330
9C
100
AcDbEntity
  8
06-99
100
AcDbLine
 10
302.9228515737349
 20
20.22625816271227
 30
0.0
 11
302.8242642057348
 21
20.35180719071241
 31
0.0
  0
LINE
  5
E6
330
9C
100
AcDbEntity
  8
06-99
100
AcDbLine
 10
302.8242642057348
 20
20.35180719071241
 30
0.0
 11
302.713626953735
 21
20.4639413227124
 31
0.0
  0
LINE
  5
E7
330
9C
100
AcDbEntity
  8
06-99
100
AcDbLine
 10
302.713626953735
 20
20.4639413227124
 30
0.0
 11
302.5912962177348
 21
20.56271401871226
 31
0.0
  0
LINE
  5
E8
330
9C
100
AcDbEntity
  8
06-99
100
AcDbLine
 10
302.5912962177348
 20
20.56271401871226
 30
0.0
 11
302.4576141417349
 21
20.64816448271233
 31
0.0
  0
LINE
  5
E9
330
9C
100
AcDbEntity
  8
06-99
100
AcDbLine
 10
302.4576141417349
 20
20.64816448271233
 30
0.0
 11
302.3129264337349
 21
20.7203390467123
 31
0.0
  0
LINE
  5
EA
330
9C
100
AcDbEntity
  8
06-99
100
AcDbLine
 10
302.3129264337349
 20
20.7203390467123
 30
0.0
 11
302.1575859297349
 21
20.77929117071233
 31
0.0
  0
LINE
  5
EB
330
9C
100
AcDbEntity
  8
06-99
100
AcDbLine
 10
302.1575859297349
 20
20.77929117071233
 30
0.0
 11
301.991934773735
 21
20.82506005871232
 31
0.0
  0
LINE
  5
EC
330
9C
100
AcDbEntity
  8
06-99
100
AcDbLine
 10
301.991934773735
 20
20.82506005871232
 30
0.0
 11
301.8163222377349
 21
20.85769204271242
 31
0.0
  0
LINE
  5
ED
330
9C
100
AcDbEntity
  8
06-99
100
AcDbLine
 10
301.8163222377349
 20
20.85769204271242
 30
0.0
 11
301.631097593735
 21
20.87724058271238
 31
0.0
  0
LINE
  5
EE
330
9C
100
AcDbEntity
  8
06-99
100
AcDbLine
 10
301.631097593735
 20
20.87724058271238
 30
0.0
 11
301.436606549735
 21
20.88374488271234
 31
0.0
  0
LINE
  5
EF
330
9C
100
AcDbEntity
  8
06-99
100
AcDbLine
 10
301.436606549735
 20
20.88374488271234
 30
0.0
 11
301.2756812577348
 21
20.87768251871233
 31
0.0
  0
LINE
  5
F0
330
9C
100
AcDbEntity
  8
06-99
100
AcDbLine
 10
301.2756812577348
 20
20.87768251871233
 30
0.0
 11
301.1199415857348
 21
20.85975916271229
 31
0.0
  0
LINE
  5
F1
330
9C
100
AcDbEntity
  8
06-99
100
AcDbLine
 10
301.1199415857348
 20
20.85975916271229
 30
0.0
 11
300.969718985735
 21
20.83036329071246
 31
0.0
  0
LINE
  5
F2
330
9C
100
AcDbEntity
  8
06-99
100
AcDbLine
 10
300.969718985735
 20
20.83036329071246
 30
0.0
 11
300.825348473735
 21
20.78989050671231
 31
0.0
  0
LINE
  5
F3
330
9C
100
AcDbEntity
  8
06-99
100
AcDbLine
 10
300.825348473735
 20
20.78989050671231
 30
0.0
 11
300.6871615017349
 21
20.73873641471243
 31
0.0
  0
LINE
  5
F4
330
9C
100
AcDbEntity
  8
06-99
100
AcDbLine
 10
300.6871615017349
 20
20.73873641471243
 30
0.0
 11
300.5554823937349
 21
20.67729305471232
 31
0.0
  0
LINE
  5
F5
330
9C
100
AcDbEntity
  8
06-99
100
AcDbLine
 10
300.5554823937349
 20
20.67729305471232
 30
0.0
 11
300.4306532937349
 21
20.60595246671232
 31
0.0
  0
LINE
  5
F6
330
9C
100
AcDbEntity
  8
06-99
100
AcDbLine
 10
300.4306532937349
 20
20.60595246671232
 30
0.0
 11
300.3129985257349
 21
20.52510669071228
 31
0.0
  0
LINE
  5
F7
330
9C
100
AcDbEntity
  8
06-99
100
AcDbLine
 10
300.3129985257349
 20
20.52510669071228
 30
0.0
 11
300.2028495417349
 21
20.43514776671236
 31
0.0
  0
LINE
  5
F8
330
9C
100
AcDbEntity
  8
06-99
100
AcDbLine
 10
300.2028495417349
 20
20.43514776671236
 30
0.0
 11
300.1005449217349
 21
20.33647486271235
 31
0.0
  0
LINE
  5
F9
330
9C
100
AcDbEntity
  8
06-99
100
AcDbLine
 10
300.1005449217349
 20
20.33647486271235
 30
0.0
 11
300.006405425735
 21
20.22947289071237
 31
0.0
  0
LINE
  5
FA
330
9C
100
AcDbEntity
  8
06-99
100
AcDbLine
 10
300.006405425735
 20
20.22947289071237
 30
0.0
 11
299.920769633735
 21
20.11454458271237
 31
0.0
  0
LINE
  5
FB
330
9C
100
AcDbEntity
  8
06-99
100
AcDbLine
 10
299.920769633735
 20
20.11454458271237
 30
0.0
 11
299.8439689977349
 21
19.99207485071235
 31
0.0
  0
LINE
  5
FC
330
9C
100
AcDbEntity
  8
06-99
100
AcDbLine
 10
299.8439689977349
 20
19.99207485071235
 30
0.0
 11
299.7763314057349
 21
19.86245929871239
 31
0.0
  0
LINE
  5
FD
330
9C
100
AcDbEntity
  8
06-99
100
AcDbLine
 10
299.7763314057349
 20
19.86245929871239
 30
0.0
 11
299.7181918737349
 21
19.72608996671232
 31
0.0
  0
LINE
  5
FE
330
9C
100
AcDbEntity
  8
06-99
100
AcDbLine
 10
299.7181918737349
 20
19.72608996671232
 30
0.0
 11
299.6698782897349
 21
19.58336602271231
 31
0.0
  0
LINE
  5
FF
330
9C
100
AcDbEntity
  8
06-99
100
AcDbLine
 10
299.6698782897349
 20
19.58336602271231
 30
0.0
 11
299.631722105735
 21
19.43467237871232
 31
0.0
  0
LINE
  5
100
330
9C
100
AcDbEntity
  8
06-99
100
AcDbLine
 10
299.631722105735
 20
19.43467237871232
 30
0.0
 11
299.6040619017348
 21
19.28040820271229
 31
0.0
  0
LINE
  5
101
330
9C
100
AcDbEntity
  8
06-99
100
AcDbLine
 10
299.6040619017348
 20
19.28040820271229
 30
0.0
 11
299.5872184377349
 21
19.12096197071235
 31
0.0
  0
LINE
  5
102
330
9C
100
AcDbEntity
  8
06-99
100
AcDbLine
 10
299.5872184377349
 20
19.12096197071235
 30
0.0
 11
299.5815338577349
 21
18.95672928671234
 31
0.0
  0
LINE
  5
103
330
9C
100
AcDbEntity
  8
06-99
100
AcDbLine
 10
299.5815338577349
 20
18.95672928671234
 30
0.0
 11
299.5871471577349
 21
18.7876246147124
 31
0.0
  0
LINE
  5
104
330
9C
100
AcDbEntity
  8
06-99
100
AcDbLine
 10
299.5871471577349
 20
18.7876246147124
 30
0.0
 11
299.603798165735
 21
18.62429005871234
 31
0.0
  0
LINE
  5
105
330
9C
100
AcDbEntity
  8
06-99
100
AcDbLine
 10
299.603798165735
 20
18.62429005871234
 30
0.0
 11
299.6311875057347
 21
18.46704281471233
 31
0.0
  0
LINE
  5
106
330
9C
100
AcDbEntity
  8
06-99
100
AcDbLine
 10
299.6311875057347
 20
18.46704281471233
 30
0.0
 11
299.6690158017348
 21
18.31619651471226
 31
0.0
  0
LINE
  5
107
330
9C
100
AcDbEntity
  8
06-99
100
AcDbLine
 10
299.6690158017348
 20
18.31619651471226
 30
0.0
 11
299.7169872417348
 21
18.17206479071234
 31
0.0
  0
LINE
  5
108
330
9C
100
AcDbEntity
  8
06-99
100
AcDbLine
 10
299.7169872417348
 20
18.17206479071234
 30
0.0
 11
299.774806013735
 21
18.03496127471237
 31
0.0
  0
LINE
  5
109
330
9C
100
AcDbEntity
  8
06-99
100
AcDbLine
 10
299.774806013735
 20
18.03496127471237
 30
0.0
 11
299.8421763057349
 21
17.90519603471233
 31
0.0
  0
LINE
  5
10A
330
9C
100
AcDbEntity
  8
06-99
100
AcDbLine
 10
299.8421763057349
 20
17.90519603471233
 30
0.0
 11
299.9187987417349
 21
17.7830862667123
 31
0.0
  0
LINE
  5
10B
330
9C
100
AcDbEntity
  8
06-99
100
AcDbLine
 10
299.9187987417349
 20
17.7830862667123
 30
0.0
 11
300.0043775097349
 21
17.66894203871231
 31
0.0
  0
LINE
  5
10C
330
9C
100
AcDbEntity
  8
06-99
100
AcDbLine
 10
300.0043775097349
 20
17.66894203871231
 30
0.0
 11
300.0986203617349
 21
17.56308054671234
 31
0.0
  0
LINE
  5
10D
330
9C
100
AcDbEntity
  8
06-99
100
AcDbLine
 10
300.0986203617349
 20
17.56308054671234
 30
0.0
 11
300.2012207937348
 21
17.46581185871235
 31
0.0
  0
LINE
  5
10E
330
9C
100
AcDbEntity
  8
06-99
100
AcDbLine
 10
300.2012207937348
 20
17.46581185871235
 30
0.0
 11
300.3118936857348
 21
17.37745317071227
 31
0.0
  0
LINE
  5
10F
330
9C
100
AcDbEntity
  8
06-99
100
AcDbLine
 10
300.3118936857348
 20
17.37745317071227
 30
0.0
 11
300.430332533735
 21
17.2983145507124
 31
0.0
  0
LINE
  5
110
330
9C
100
AcDbEntity
  8
06-99
100
AcDbLine
 10
300.430332533735
 20
17.2983145507124
 30
0.0
 11
300.5562450897348
 21
17.22870963071239
 31
0.0
  0
LINE
  5
111
330
9C
100
AcDbEntity
  8
06-99
100
AcDbLine
 10
300.5562450897348
 20
17.22870963071239
 30
0.0
 11
300.6893319777348
 21
17.1689556067123
 31
0.0
  0
LINE
  5
112
330
9C
100
AcDbEntity
  8
06-99
100
AcDbLine
 10
300.6893319777348
 20
17.1689556067123
 30
0.0
 11
300.8293009497348
 21
17.11936254671235
 31
0.0
  0
LINE
  5
113
330
9C
100
AcDbEntity
  8
06-99
100
AcDbLine
 10
300.8293009497348
 20
17.11936254671235
 30
0.0
 11
300.975849065735
 21
17.0802440827124
 31
0.0
  0
LINE
  5
114
330
9C
100
AcDbEntity
  8
06-99
100
AcDbLine
 10
300.975849065735
 20
17.0802440827124
 30
0.0
 11
301.1286876417348
 21
17.05191384671241
 31
0.0
  0
LINE
  5
115
330
9C
100
AcDbEntity
  8
06-99
100
AcDbLine
 10
301.1286876417348
 20
17.05191384671241
 30
0.0
 11
301.2875101737348
 21
17.03468547071236
 31
0.0
  0
LINE
  5
116
330
9C
100
AcDbEntity
  8
06-99
100
AcDbLine
 10
301.2875101737348
 20
17.03468547071236
 30
0.0
 11
301.4520279777349
 21
17.02887258671239
 31
0.0
  0
LINE
  5
117
330
9C
100
AcDbEntity
  8
06-99
100
AcDbLine
 10
301.4520279777349
 20
17.02887258671239
 30
0.0
 11
301.616025437735
 21
17.03412592271235
 31
0.0
  0
LINE
  5
118
330
9C
100
AcDbEntity
  8
06-99
100
AcDbLine
 10
301.616025437735
 20
17.03412592271235
 30
0.0
 11
301.7733582177349
 21
17.04976475471238
 31
0.0
  0
LINE
  5
119
330
9C
100
AcDbEntity
  8
06-99
100
AcDbLine
 10
301.7733582177349
 20
17.04976475471238
 30
0.0
 11
301.9238374257349
 21
17.07559662671235
 31
0.0
  0
LINE
  5
11A
330
9C
100
AcDbEntity
  8
06-99
100
AcDbLine
 10
301.9238374257349
 20
17.07559662671235
 30
0.0
 11
302.0672741697348
 21
17.11142908271239
 31
0.0
  0
LINE
  5
11B
330
9C
100
AcDbEntity
  8
06-99
100
AcDbLine
 10
302.0672741697348
 20
17.11142908271239
 30
0.0
 11
302.203483121735
 21
17.15707323071234
 31
0.0
  0
LINE
  5
11C
330
9C
100
AcDbEntity
  8
06-99
100
AcDbLine
 10
302.203483121735
 20
17.15707323071234
 30
0.0
 11
302.3322718257348
 21
17.21234017871234
 31
0.0
  0
LINE
  5
11D
330
9C
100
AcDbEntity
  8
06-99
100
AcDbLine
 10
302.3322718257348
 20
17.21234017871234
 30
0.0
 11
302.4534549537349
 21
17.27703747071234
 31
0.0
  0
LINE
  5
11E
330
9C
100
AcDbEntity
  8
06-99
100
AcDbLine
 10
302.4534549537349
 20
17.27703747071234
 30
0.0
 11
302.5668364857349
 21
17.35097977871237
 31
0.0
  0
LINE
  5
11F
330
9C
100
AcDbEntity
  8
06-99
100
AcDbLine
 10
302.5668364857349
 20
17.35097977871237
 30
0.0
 11
302.6722382217349
 21
17.43397464671233
 31
0.0
  0
LINE
  5
120
330
9C
100
AcDbEntity
  8
06-99
100
AcDbLine
 10
302.6722382217349
 20
17.43397464671233
 30
0.0
 11
302.7694605777349
 21
17.52582605471235
 31
0.0
  0
LINE
  5
121
330
9C
100
AcDbEntity
  8
06-99
100
AcDbLine
 10
302.7694605777349
 20
17.52582605471235
 30
0.0
 11
302.8583217897349
 21
17.62635580271234
 31
0.0
  0
LINE
  5
122
330
9C
100
AcDbEntity
  8
06-99
100
AcDbLine
 10
302.8583217897349
 20
17.62635580271234
 30
0.0
 11
302.938632965735
 21
17.73536074271232
 31
0.0
  0
LINE
  5
123
330
9C
100
AcDbEntity
  8
06-99
100
AcDbLine
 10
302.938632965735
 20
17.73536074271232
 30
0.0
 11
303.0102016497349
 21
17.85266267471235
 31
0.0
  0
LINE
  5
124
330
9C
100
AcDbEntity
  8
06-99
100
AcDbLine
 10
303.0102016497349
 20
17.85266267471235
 30
0.0
 11
303.0728389497349
 21
17.97806201471235
 31
0.0
  0
LINE
  5
125
330
9C
100
AcDbEntity
  8
06-99
100
AcDbLine
 10
303.0728389497349
 20
17.97806201471235
 30
0.0
 11
303.126359537735
 21
18.11137343471228
 31
0.0
  0
LINE
  5
126
330
9C
100
AcDbEntity
  8
06-99
100
AcDbLine
 10
303.126359537735
 20
18.11137343471228
 30
0.0
 11
303.1705745217348
 21
18.25240447871232
 31
0.0
  0
LINE
  5
127
330
9C
100
AcDbEntity
  8
06-99
100
AcDbLine
 10
303.1705745217348
 20
18.25240447871232
 30
0.0
 11
303.2052878817349
 21
18.40096625471233
 31
0.0
  0
LINE
  5
128
330
9C
100
AcDbEntity
  8
06-99
100
AcDbLine
 10
303.2052878817349
 20
18.40096625471233
 30
0.0
 11
303.2303214177349
 21
18.55686987071237
 31
0.0
  0
LINE
  5
129
330
9C
100
AcDbEntity
  8
06-99
100
AcDbLine
 10
303.2303214177349
 20
18.55686987071237
 30
0.0
 11
303.245479109735
 21
18.7199264347123
 31
0.0
  0
LINE
  5
12A
330
9C
100
AcDbEntity
  8
06-99
100
AcDbLine
 10
303.245479109735
 20
18.7199264347123
 30
0.0
 11
303.2505720657348
 21
18.88993992671231
 31
0.0
  0
LINE
  5
12B
330
9C
100
AcDbEntity
  8
06-99
100
AcDbLine
 10
303.2505720657348
 20
18.88993992671231
 30
0.0
 11
303.2505720657348
 21
18.88993992671231
 31
0.0
  0
LINE
  5
12C
330
9C
100
AcDbEntity
  8
06-99
100
AcDbLine
 10
303.2505720657348
 20
18.88993992671231
 30
0.0
 11
303.2505720657348
 21
18.94132211471236
 31
0.0
  0
LINE
  5
12D
330
9C
100
AcDbEntity
  8
06-99
100
AcDbLine
 10
303.2505720657348
 20
18.94132211471236
 30
0.0
 11
301.6164638097349
 21
18.94132211471236
 31
0.0
  0
LINE
  5
12E
330
9C
100
AcDbEntity
  8
06-99
100
AcDbLine
 10
301.6164638097349
 20
18.94132211471236
 30
0.0
 11
301.6164638097349
 21
18.65355049871232
 31
0.0
  0
LINE
  5
12F
330
9C
100
AcDbEntity
  8
06-99
100
AcDbLine
 10
301.6164638097349
 20
18.65355049871232
 30
0.0
 11
302.8857253857347
 21
18.65355049871232
 31
0.0
  0
LINE
  5
130
330
9C
100
AcDbEntity
  8
06-99
100
AcDbLine
 10
302.8857253857347
 20
18.65355049871232
 30
0.0
 11
302.8749870537348
 21
18.49100715071233
 31
0.0
  0
LINE
  5
131
330
9C
100
AcDbEntity
  8
06-99
100
AcDbLine
 10
302.8749870537348
 20
18.49100715071233
 30
0.0
 11
302.8476547377348
 21
18.33636162671234
 31
0.0
  0
LINE
  5
132
330
9C
100
AcDbEntity
  8
06-99
100
AcDbLine
 10
302.8476547377348
 20
18.33636162671234
 30
0.0
 11
302.804434109735
 21
18.19027683071238
 31
0.0
  0
LINE
  5
133
330
9C
100
AcDbEntity
  8
06-99
100
AcDbLine
 10
302.804434109735
 20
18.19027683071238
 30
0.0
 11
302.7460308417349
 21
18.05341923071233
 31
0.0
  0
LINE
  5
134
330
9C
100
AcDbEntity
  8
06-99
100
AcDbLine
 10
302.7460308417349
 20
18.05341923071233
 30
0.0
 11
302.673157733735
 21
17.92644460271236
 31
0.0
  0
LINE
  5
135
330
9C
100
AcDbEntity
  8
06-99
100
AcDbLine
 10
302.673157733735
 20
17.92644460271236
 30
0.0
 11
302.586524021735
 21
17.81002654271236
 31
0.0
  0
LINE
  5
136
330
9C
100
AcDbEntity
  8
06-99
100
AcDbLine
 10
302.586524021735
 20
17.81002654271236
 30
0.0
 11
302.4868282497349
 21
17.70481726271237
 31
0.0
  0
LINE
  5
137
330
9C
100
AcDbEntity
  8
06-99
100
AcDbLine
 10
302.4868282497349
 20
17.70481726271237
 30
0.0
 11
302.3747867817349
 21
17.61149035871233
 31
0.0
  0
LINE
  5
138
330
9C
100
AcDbEntity
  8
06-99
100
AcDbLine
 10
302.3747867817349
 20
17.61149035871233
 30
0.0
 11
302.2511052897348
 21
17.53069804271234
 31
0.0
  0
LINE
  5
139
330
9C
100
AcDbEntity
  8
06-99
100
AcDbLine
 10
302.2511052897348
 20
17.53069804271234
 30
0.0
 11
302.116489445735
 21
17.46311034671237
 31
0.0
  0
LINE
  5
13A
330
9C
100
AcDbEntity
  8
06-99
100
AcDbLine
 10
302.116489445735
 20
17.46311034671237
 30
0.0
 11
301.9716484857348
 21
17.40938661071232
 31
0.0
  0
LINE
  5
13B
330
9C
100
AcDbEntity
  8
06-99
100
AcDbLine
 10
301.9716484857348
 20
17.40938661071232
 30
0.0
 11
301.8172916457349
 21
17.37019330271244
 31
0.0
  0
LINE
  5
13C
330
9C
100
AcDbEntity
  8
06-99
100
AcDbLine
 10
301.8172916457349
 20
17.37019330271244
 30
0.0
 11
301.654124597735
 21
17.3461897627123
 31
0.0
  0
LINE
  5
13D
330
9C
100
AcDbEntity
  8
06-99
100
AcDbLine
 10
301.654124597735
 20
17.3461897627123
 30
0.0
 11
301.482856577735
 21
17.33804245871238
 31
0.0
  0
LINE
  5
13E
330
9C
100
AcDbEntity
  8
06-99
100
AcDbLine
 10
301.482856577735
 20
17.33804245871238
 30
0.0
 11
301.318196213735
 21
17.34599374271232
 31
0.0
  0
LINE
  5
13F
330
9C
100
AcDbEntity
  8
06-99
100
AcDbLine
 10
301.318196213735
 20
17.34599374271232
 30
0.0
 11
301.1599011537348
 21
17.36937714671228
 31
0.0
  0
LINE
  5
140
330
9C
100
AcDbEntity
  8
06-99
100
AcDbLine
 10
301.1599011537348
 20
17.36937714671228
 30
0.0
 11
301.0085630217349
 21
17.40748343471233
 31
0.0
  0
LINE
  5
141
330
9C
100
AcDbEntity
  8
06-99
100
AcDbLine
 10
301.0085630217349
 20
17.40748343471233
 30
0.0
 11
300.8647698777347
 21
17.45960693471232
 31
0.0
  0
LINE
  5
142
330
9C
100
AcDbEntity
  8
06-99
100
AcDbLine
 10
300.8647698777347
 20
17.45960693471232
 30
0.0
 11
300.7291026537349
 21
17.52503841071234
 31
0.0
  0
LINE
  5
143
330
9C
100
AcDbEntity
  8
06-99
100
AcDbLine
 10
300.7291026537349
 20
17.52503841071234
 30
0.0
 11
300.6021529737349
 21
17.6030686267124
 31
0.0
  0
LINE
  5
144
330
9C
100
AcDbEntity
  8
06-99
100
AcDbLine
 10
300.6021529737349
 20
17.6030686267124
 30
0.0
 11
300.4845053337349
 21
17.69299547471234
 31
0.0
  0
LINE
  5
145
330
9C
100
AcDbEntity
  8
06-99
100
AcDbLine
 10
300.4845053337349
 20
17.69299547471234
 30
0.0
 11
300.3767513577348
 21
17.79410615471244
 31
0.0
  0
LINE
  5
146
330
9C
100
AcDbEntity
  8
06-99
100
AcDbLine
 10
300.3767513577348
 20
17.79410615471244
 30
0.0
 11
300.279475541735
 21
17.90569499471235
 31
0.0
  0
LINE
  5
147
330
9C
100
AcDbEntity
  8
06-99
100
AcDbLine
 10
300.279475541735
 20
17.90569499471235
 30
0.0
 11
300.1932623817348
 21
18.02705632271232
 31
0.0
  0
LINE
  5
148
330
9C
100
AcDbEntity
  8
06-99
100
AcDbLine
 10
300.1932623817348
 20
18.02705632271232
 30
0.0
 11
300.1187035017349
 21
18.15747733871234
 31
0.0
  0
LINE
  5
149
330
9C
100
AcDbEntity
  8
06-99
100
AcDbLine
 10
300.1187035017349
 20
18.15747733871234
 30
0.0
 11
300.0563833977349
 21
18.29625593471235
 31
0.0
  0
LINE
  5
14A
330
9C
100
AcDbEntity
  8
06-99
100
AcDbLine
 10
300.0563833977349
 20
18.29625593471235
 30
0.0
 11
300.0068901297349
 21
18.44268287471232
 31
0.0
  0
LINE
  5
14B
330
9C
100
AcDbEntity
  8
06-99
100
AcDbLine
 10
300.0068901297349
 20
18.44268287471232
 30
0.0
 11
299.9708117577347
 21
18.59604535871239
 31
0.0
  0
LINE
  5
14C
330
9C
100
AcDbEntity
  8
06-99
100
AcDbLine
 10
299.9708117577347
 20
18.59604535871239
 30
0.0
 11
299.9487327777348
 21
18.75564484271246
 31
0.0
  0
LINE
  5
14D
330
9C
100
AcDbEntity
  8
06-99
100
AcDbLine
 10
299.9487327777348
 20
18.75564484271246
 30
0.0
 11
299.9412448137349
 21
18.92076852671226
 31
0.0
  0
LINE
  5
14E
330
9C
100
AcDbEntity
  8
06-99
100
AcDbLine
 10
299.9412448137349
 20
18.92076852671226
 30
0.0
 11
299.947631501735
 21
19.08914257871237
 31
0.0
  0
LINE
  5
14F
330
9C
100
AcDbEntity
  8
06-99
100
AcDbLine
 10
299.947631501735
 20
19.08914257871237
 30
0.0
 11
299.9665349577349
 21
19.25115489071231
 31
0.0
  0
LINE
  5
150
330
9C
100
AcDbEntity
  8
06-99
100
AcDbLine
 10
299.9665349577349
 20
19.25115489071231
 30
0.0
 11
299.997556013735
 21
19.40630650271231
 31
0.0
  0
LINE
  5
151
330
9C
100
AcDbEntity
  8
06-99
100
AcDbLine
 10
299.997556013735
 20
19.40630650271231
 30
0.0
 11
300.0402990657349
 21
19.55410201871234
 31
0.0
  0
LINE
  5
152
330
9C
100
AcDbEntity
  8
06-99
100
AcDbLine
 10
300.0402990657349
 20
19.55410201871234
 30
0.0
 11
300.0943720737348
 21
19.69404604271233
 31
0.0
  0
LINE
  5
153
330
9C
100
AcDbEntity
  8
06-99
100
AcDbLine
 10
300.0943720737348
 20
19.69404604271233
 30
0.0
 11
300.1593758697349
 21
19.82564674271236
 31
0.0
  0
LINE
  5
154
330
9C
100
AcDbEntity
  8
06-99
100
AcDbLine
 10
300.1593758697349
 20
19.82564674271236
 30
0.0
 11
300.2349148497349
 21
19.94840159471238
 31
0.0
  0
LINE
  5
155
330
9C
100
AcDbEntity
  8
06-99
100
AcDbLine
 10
300.2349148497349
 20
19.94840159471238
 30
0.0
 11
300.3205969737349
 21
20.06182233071235
 31
0.0
  0
LINE
  5
156
330
9C
100
AcDbEntity
  8
06-99
100
AcDbLine
 10
300.3205969737349
 20
20.06182233071235
 30
0.0
 11
300.4160230737348
 21
20.16540642671242
 31
0.0
  0
LINE
  5
157
330
9C
100
AcDbEntity
  8
06-99
100
AcDbLine
 10
300.4160230737348
 20
20.16540642671242
 30
0.0
 11
300.5208046737348
 21
20.2586620507123
 31
0.0
  0
LINE
  5
158
330
9C
100
AcDbEntity
  8
06-99
100
AcDbLine
 10
300.5208046737348
 20
20.2586620507123
 30
0.0
 11
300.634535477735
 21
20.34109024271237
 31
0.0
  0
LINE
  5
159
330
9C
100
AcDbEntity
  8
06-99
100
AcDbLine
 10
300.634535477735
 20
20.34109024271237
 30
0.0
 11
300.756830573735
 21
20.41219917071237
 31
0.0
  0
LINE
  5
15A
330
9C
100
AcDbEntity
  8
06-99
100
AcDbLine
 10
300.756830573735
 20
20.41219917071237
 30
0.0
 11
300.8872872297347
 21
20.47148987471235
 31
0.0
  0
LINE
  5
15B
330
9C
100
AcDbEntity
  8
06-99
100
AcDbLine
 10
300.8872872297347
 20
20.47148987471235
 30
0.0
 11
301.025513405735
 21
20.51846695871234
 31
0.0
  0
LINE
  5
15C
330
9C
100
AcDbEntity
  8
06-99
100
AcDbLine
 10
301.025513405735
 20
20.51846695871234
 30
0.0
 11
301.171117061735
 21
20.55263502671232
 31
0.0
  0
LINE
  5
15D
330
9C
100
AcDbEntity
  8
06-99
100
AcDbLine
 10
301.171117061735
 20
20.55263502671232
 30
0.0
 11
301.323695465735
 21
20.57350224671234
 31
0.0
  0
LINE
  5
15E
330
9C
100
AcDbEntity
  8
06-99
100
AcDbLine
 10
301.323695465735
 20
20.57350224671234
 30
0.0
 11
301.482856577735
 21
20.58056609471237
 31
0.0
  0
LINE
  5
15F
330
9C
100
AcDbEntity
  8
06-99
100
AcDbLine
 10
301.482856577735
 20
20.58056609471237
 30
0.0
 11
301.6605611817349
 21
20.57164896671236
 31
0.0
  0
LINE
  5
160
330
9C
100
AcDbEntity
  8
06-99
100
AcDbLine
 10
301.6605611817349
 20
20.57164896671236
 30
0.0
 11
301.830314501735
 21
20.54501163071234
 31
0.0
  0
LINE
  5
161
330
9C
100
AcDbEntity
  8
06-99
100
AcDbLine
 10
301.830314501735
 20
20.54501163071234
 30
0.0
 11
301.9917779577349
 21
20.50082159471236
 31
0.0
  0
LINE
  5
162
330
9C
100
AcDbEntity
  8
06-99
100
AcDbLine
 10
301.9917779577349
 20
20.50082159471236
 30
0.0
 11
302.1446129697349
 21
20.43924636671233
 31
0.0
  0
LINE
  5
163
330
9C
100
AcDbEntity
  8
06-99
100
AcDbLine
 10
302.1446129697349
 20
20.43924636671233
 30
0.0
 11
302.2884809577349
 21
20.36046058271233
 31
0.0
  0
LINE
  5
164
330
9C
100
AcDbEntity
  8
06-99
100
AcDbLine
 10
302.2884809577349
 20
20.36046058271233
 30
0.0
 11
302.423046905735
 21
20.2646281867124
 31
0.0
  0
LINE
  5
165
330
9C
100
AcDbEntity
  8
06-99
100
AcDbLine
 10
302.423046905735
 20
20.2646281867124
 30
0.0
 11
302.5479722337349
 21
20.15192381471235
 31
0.0
  0
LINE
  5
166
330
9C
100
AcDbEntity
  8
06-99
100
AcDbLine
 10
302.5479722337349
 20
20.15192381471235
 30
0.0
 11
302.662914797735
 21
20.02251141071241
 31
0.0
  0
LINE
  5
167
330
9C
100
AcDbEntity
  8
06-99
100
AcDbLine
 10
302.662914797735
 20
20.02251141071241
 30
0.0
 11
302.7675395817348
 21
19.87656561071236
 31
0.0
  0
LINE
  5
168
330
9C
100
AcDbEntity
  8
06-99
100
AcDbLine
 10
299.4389952417348
 20
13.25281458671242
 30
0.0
 11
301.3222627377349
 21
13.25281458671242
 31
0.0
  0
LINE
  5
169
330
9C
100
AcDbEntity
  8
06-99
100
AcDbLine
 10
301.3222627377349
 20
13.25281458671242
 30
0.0
 11
301.4675990937349
 21
14.00768047871236
 31
0.0
  0
LINE
  5
16A
330
9C
100
AcDbEntity
  8
06-99
100
AcDbLine
 10
301.4675990937349
 20
14.00768047871236
 30
0.0
 11
300.5648699697349
 21
14.00768047871236
 31
0.0
  0
LINE
  5
16B
330
9C
100
AcDbEntity
  8
06-99
100
AcDbLine
 10
300.5648699697349
 20
14.00768047871236
 30
0.0
 11
300.6210528657348
 21
14.29950792671229
 31
0.0
  0
LINE
  5
16C
330
9C
100
AcDbEntity
  8
06-99
100
AcDbLine
 10
300.6210528657348
 20
14.29950792671229
 30
0.0
 11
301.4187152697349
 21
14.29950792671229
 31
0.0
  0
LINE
  5
16D
330
9C
100
AcDbEntity
  8
06-99
100
AcDbLine
 10
301.4187152697349
 20
14.29950792671229
 30
0.0
 11
301.5558009657348
 21
15.01156305071231
 31
0.0
  0
LINE
  5
16E
330
9C
100
AcDbEntity
  8
06-99
100
AcDbLine
 10
301.5558009657348
 20
15.01156305071231
 30
0.0
 11
300.7581385617348
 21
15.01156305071231
 31
0.0
  0
LINE
  5
16F
330
9C
100
AcDbEntity
  8
06-99
100
AcDbLine
 10
300.7581385617348
 20
15.01156305071231
 30
0.0
 11
300.8098450737348
 21
15.28005699071229
 31
0.0
  0
LINE
  5
170
330
9C
100
AcDbEntity
  8
06-99
100
AcDbLine
 10
300.8098450737348
 20
15.28005699071229
 30
0.0
 11
301.6892264337348
 21
15.28005699071229
 31
0.0
  0
LINE
  5
171
330
9C
100
AcDbEntity
  8
06-99
100
AcDbLine
 10
301.6892264337348
 20
15.28005699071229
 30
0.0
 11
301.8345520977349
 21
16.03490862671236
 31
0.0
  0
LINE
  5
172
330
9C
100
AcDbEntity
  8
06-99
100
AcDbLine
 10
301.8345520977349
 20
16.03490862671236
 30
0.0
 11
299.9746323657349
 21
16.03490862671236
 31
0.0
  0
LINE
  5
173
330
9C
100
AcDbEntity
  8
06-99
100
AcDbLine
 10
299.9746323657349
 20
16.03490862671236
 30
0.0
 11
299.4389952417348
 21
13.25281458671242
 31
0.0
  0
LINE
  5
174
330
9C
100
AcDbEntity
  8
06-99
100
AcDbLine
 10
285.6086116857349
 20
13.88042785871232
 30
0.0
 11
298.0658608857348
 21
13.88042785871232
 31
0.0
  0
LINE
  5
175
330
9C
100
AcDbEntity
  8
06-99
100
AcDbLine
 10
298.0658608857348
 20
13.88042785871232
 30
0.0
 11
297.9422827497349
 21
13.25209822271233
 31
0.0
  0
LINE
  5
176
330
9C
100
AcDbEntity
  8
06-99
100
AcDbLine
 10
297.9422827497349
 20
13.25209822271233
 30
0.0
 11
285.4850371137349
 21
13.25209822271233
 31
0.0
  0
LINE
  5
177
330
9C
100
AcDbEntity
  8
06-99
100
AcDbLine
 10
285.4850371137349
 20
13.25209822271233
 30
0.0
 11
285.6086116857349
 21
13.88042785871232
 31
0.0
  0
LINE
  5
178
330
9C
100
AcDbEntity
  8
06-99
100
AcDbLine
 10
291.3458426577349
 20
17.02887258671239
 30
0.0
 11
292.3221826377348
 21
20.10266933471235
 31
0.0
  0
LINE
  5
179
330
9C
100
AcDbEntity
  8
06-99
100
AcDbLine
 10
292.3221826377348
 20
20.10266933471235
 30
0.0
 11
293.3396476137348
 21
17.02887258671239
 31
0.0
  0
LINE
  5
17A
330
9C
100
AcDbEntity
  8
06-99
100
AcDbLine
 10
293.3396476137348
 20
17.02887258671239
 30
0.0
 11
294.5677984497349
 21
20.80153409471234
 31
0.0
  0
LINE
  5
17B
330
9C
100
AcDbEntity
  8
06-99
100
AcDbLine
 10
294.5677984497349
 20
20.80153409471234
 30
0.0
 11
294.2235089217348
 21
20.80153409471234
 31
0.0
  0
LINE
  5
17C
330
9C
100
AcDbEntity
  8
06-99
100
AcDbLine
 10
294.2235089217348
 20
20.80153409471234
 30
0.0
 11
293.3396476137348
 21
17.89303210271231
 31
0.0
  0
LINE
  5
17D
330
9C
100
AcDbEntity
  8
06-99
100
AcDbLine
 10
293.3396476137348
 20
17.89303210271231
 30
0.0
 11
292.3221826377348
 21
20.94541277471228
 31
0.0
  0
LINE
  5
17E
330
9C
100
AcDbEntity
  8
06-99
100
AcDbLine
 10
292.3221826377348
 20
20.94541277471228
 30
0.0
 11
291.3458426577349
 21
17.86733922671237
 31
0.0
  0
LINE
  5
17F
330
9C
100
AcDbEntity
  8
06-99
100
AcDbLine
 10
291.3458426577349
 20
17.86733922671237
 30
0.0
 11
290.426009897735
 21
20.80153409471234
 31
0.0
  0
LINE
  5
180
330
9C
100
AcDbEntity
  8
06-99
100
AcDbLine
 10
290.426009897735
 20
20.80153409471234
 30
0.0
 11
290.0765810817349
 21
20.80153409471234
 31
0.0
  0
LINE
  5
181
330
9C
100
AcDbEntity
  8
06-99
100
AcDbLine
 10
290.0765810817349
 20
20.80153409471234
 30
0.0
 11
291.3458426577349
 21
17.02887258671239
 31
0.0
  0
LINE
  5
182
330
9C
100
AcDbEntity
  8
06-99
100
AcDbLine
 10
296.324415641735
 20
18.65868622271239
 30
0.0
 11
296.9770339377348
 21
20.2568337187123
 31
0.0
  0
LINE
  5
183
330
9C
100
AcDbEntity
  8
06-99
100
AcDbLine
 10
296.9770339377348
 20
20.2568337187123
 30
0.0
 11
297.6039629217348
 21
18.65868622271239
 31
0.0
  0
LINE
  5
184
330
9C
100
AcDbEntity
  8
06-99
100
AcDbLine
 10
297.6039629217348
 20
18.65868622271239
 30
0.0
 11
296.324415641735
 21
18.65868622271239
 31
0.0
  0
LINE
  5
185
330
9C
100
AcDbEntity
  8
06-99
100
AcDbLine
 10
295.3831810617349
 20
17.12736016271231
 30
0.0
 11
295.7231937897349
 21
17.12736016271231
 31
0.0
  0
LINE
  5
186
330
9C
100
AcDbEntity
  8
06-99
100
AcDbLine
 10
295.7231937897349
 20
17.12736016271231
 30
0.0
 11
296.2113619977348
 21
18.37092886271233
 31
0.0
  0
LINE
  5
187
330
9C
100
AcDbEntity
  8
06-99
100
AcDbLine
 10
296.2113619977348
 20
18.37092886271233
 30
0.0
 11
297.711863021735
 21
18.37092886271233
 31
0.0
  0
LINE
  5
188
330
9C
100
AcDbEntity
  8
06-99
100
AcDbLine
 10
297.711863021735
 20
18.37092886271233
 30
0.0
 11
298.1794918977348
 21
17.12736016271231
 31
0.0
  0
LINE
  5
189
330
9C
100
AcDbEntity
  8
06-99
100
AcDbLine
 10
298.1794918977348
 20
17.12736016271231
 30
0.0
 11
298.5443385777348
 21
17.12736016271231
 31
0.0
  0
LINE
  5
18A
330
9C
100
AcDbEntity
  8
06-99
100
AcDbLine
 10
298.5443385777348
 20
17.12736016271231
 30
0.0
 11
296.9975910897349
 21
20.94541277471228
 31
0.0
  0
LINE
  5
18B
330
9C
100
AcDbEntity
  8
06-99
100
AcDbLine
 10
296.9975910897349
 20
20.94541277471228
 30
0.0
 11
295.3831810617349
 21
17.12736016271231
 31
0.0
  0
LINE
  5
18C
330
9C
100
AcDbEntity
  8
06-99
100
AcDbLine
 10
307.9298046897347
 20
13.25281458671242
 30
0.0
 11
309.0043792017348
 21
13.25281458671242
 31
0.0
  0
LINE
  5
18D
330
9C
100
AcDbEntity
  8
06-99
100
AcDbLine
 10
309.0043792017348
 20
13.25281458671242
 30
0.0
 11
309.1574066697349
 21
13.60301322671233
 31
0.0
  0
LINE
  5
18E
330
9C
100
AcDbEntity
  8
06-99
100
AcDbLine
 10
309.1574066697349
 20
13.60301322671233
 30
0.0
 11
309.9122725617349
 21
13.60301322671233
 31
0.0
  0
LINE
  5
18F
330
9C
100
AcDbEntity
  8
06-99
100
AcDbLine
 10
309.9122725617349
 20
13.60301322671233
 30
0.0
 11
309.9343444137348
 21
13.25281458671242
 31
0.0
  0
LINE
  5
190
330
9C
100
AcDbEntity
  8
06-99
100
AcDbLine
 10
309.9343444137348
 20
13.25281458671242
 30
0.0
 11
311.0082738417347
 21
13.25281458671242
 31
0.0
  0
LINE
  5
191
330
9C
100
AcDbEntity
  8
06-99
100
AcDbLine
 10
311.0082738417347
 20
13.25281458671242
 30
0.0
 11
310.5711492417348
 21
16.03490862671236
 31
0.0
  0
LINE
  5
192
330
9C
100
AcDbEntity
  8
06-99
100
AcDbLine
 10
310.5711492417348
 20
16.03490862671236
 30
0.0
 11
309.4583116257348
 21
16.03490862671236
 31
0.0
  0
LINE
  5
193
330
9C
100
AcDbEntity
  8
06-99
100
AcDbLine
 10
309.4583116257348
 20
16.03490862671236
 30
0.0
 11
307.9298046897347
 21
13.25281458671242
 31
0.0
  0
LINE
  5
194
330
9C
100
AcDbEntity
  8
06-99
100
AcDbLine
 10
305.0434565217349
 20
14.66137866671232
 30
0.0
 11
305.0784799497348
 21
14.66137866671232
 31
0.0
  0
LINE
  5
195
330
9C
100
AcDbEntity
  8
06-99
100
AcDbLine
 10
305.0784799497348
 20
14.66137866671232
 30
0.0
 11
305.0642239497349
 21
14.48699927471239
 31
0.0
  0
LINE
  5
196
330
9C
100
AcDbEntity
  8
06-99
100
AcDbLine
 10
305.0642239497349
 20
14.48699927471239
 30
0.0
 11
305.0637998337348
 21
14.33510159471234
 31
0.0
  0
LINE
  5
197
330
9C
100
AcDbEntity
  8
06-99
100
AcDbLine
 10
305.0637998337348
 20
14.33510159471234
 30
0.0
 11
305.0678984337348
 21
14.20222854671237
 31
0.0
  0
LINE
  5
198
330
9C
100
AcDbEntity
  8
06-99
100
AcDbLine
 10
305.0678984337348
 20
14.20222854671237
 30
0.0
 11
305.0952307497349
 21
13.25281458671242
 31
0.0
  0
LINE
  5
199
330
9C
100
AcDbEntity
  8
06-99
100
AcDbLine
 10
305.0952307497349
 20
13.25281458671242
 30
0.0
 11
305.9668283337347
 21
13.25281458671242
 31
0.0
  0
LINE
  5
19A
330
9C
100
AcDbEntity
  8
06-99
100
AcDbLine
 10
305.9668283337347
 20
13.25281458671242
 30
0.0
 11
307.3156882857347
 21
16.03490862671236
 31
0.0
  0
LINE
  5
19B
330
9C
100
AcDbEntity
  8
06-99
100
AcDbLine
 10
307.3156882857347
 20
16.03490862671236
 30
0.0
 11
306.3118057137349
 21
16.03490862671236
 31
0.0
  0
LINE
  5
19C
330
9C
100
AcDbEntity
  8
06-99
100
AcDbLine
 10
306.3118057137349
 20
16.03490862671236
 30
0.0
 11
305.8579124937348
 21
14.8092312067123
 31
0.0
  0
LINE
  5
19D
330
9C
100
AcDbEntity
  8
06-99
100
AcDbLine
 10
305.8579124937348
 20
14.8092312067123
 30
0.0
 11
305.8078097817349
 21
14.66872763471229
 31
0.0
  0
LINE
  5
19E
330
9C
100
AcDbEntity
  8
06-99
100
AcDbLine
 10
305.8078097817349
 20
14.66872763471229
 30
0.0
 11
305.7488398377348
 21
14.48671415471227
 31
0.0
  0
LINE
  5
19F
330
9C
100
AcDbEntity
  8
06-99
100
AcDbLine
 10
305.7488398377348
 20
14.48671415471227
 30
0.0
 11
305.6900267097347
 21
14.26059973871241
 31
0.0
  0
LINE
  5
1A0
330
9C
100
AcDbEntity
  8
06-99
100
AcDbLine
 10
305.6900267097347
 20
14.26059973871241
 30
0.0
 11
305.6666932017348
 21
14.26059973871241
 31
0.0
  0
LINE
  5
1A1
330
9C
100
AcDbEntity
  8
06-99
100
AcDbLine
 10
305.6666932017348
 20
14.26059973871241
 30
0.0
 11
305.6884193457348
 21
14.45803464671235
 31
0.0
  0
LINE
  5
1A2
330
9C
100
AcDbEntity
  8
06-99
100
AcDbLine
 10
305.6884193457348
 20
14.45803464671235
 30
0.0
 11
305.6929777017349
 21
14.6156953147123
 31
0.0
  0
LINE
  5
1A3
330
9C
100
AcDbEntity
  8
06-99
100
AcDbLine
 10
305.6929777017349
 20
14.6156953147123
 30
0.0
 11
305.6919370137348
 21
14.73531384671236
 31
0.0
  0
LINE
  5
1A4
330
9C
100
AcDbEntity
  8
06-99
100
AcDbLine
 10
305.6919370137348
 20
14.73531384671236
 30
0.0
 11
305.6775527097348
 21
16.03490862671236
 31
0.0
  0
LINE
  5
1A5
330
9C
100
AcDbEntity
  8
06-99
100
AcDbLine
 10
305.6775527097348
 20
16.03490862671236
 30
0.0
 11
304.9732849257348
 21
16.03490862671236
 31
0.0
  0
LINE
  5
1A6
330
9C
100
AcDbEntity
  8
06-99
100
AcDbLine
 10
304.9732849257348
 20
16.03490862671236
 30
0.0
 11
304.4584829457349
 21
14.73531384671236
 31
0.0
  0
LINE
  5
1A7
330
9C
100
AcDbEntity
  8
06-99
100
AcDbLine
 10
304.4584829457349
 20
14.73531384671236
 30
0.0
 11
304.4113811217347
 21
14.6156953147123
 31
0.0
  0
LINE
  5
1A8
330
9C
100
AcDbEntity
  8
06-99
100
AcDbLine
 10
304.4113811217347
 20
14.6156953147123
 30
0.0
 11
304.355226737735
 21
14.45803464671235
 31
0.0
  0
LINE
  5
1A9
330
9C
100
AcDbEntity
  8
06-99
100
AcDbLine
 10
304.355226737735
 20
14.45803464671235
 30
0.0
 11
304.3009220697348
 21
14.26059973871241
 31
0.0
  0
LINE
  5
1AA
330
9C
100
AcDbEntity
  8
06-99
100
AcDbLine
 10
304.3009220697348
 20
14.26059973871241
 30
0.0
 11
304.2775885617348
 21
14.26059973871241
 31
0.0
  0
LINE
  5
1AB
330
9C
100
AcDbEntity
  8
06-99
100
AcDbLine
 10
304.2775885617348
 20
14.26059973871241
 30
0.0
 11
304.3058439537349
 21
14.48671415471227
 31
0.0
  0
LINE
  5
1AC
330
9C
100
AcDbEntity
  8
06-99
100
AcDbLine
 10
304.3058439537349
 20
14.48671415471227
 30
0.0
 11
304.3169636337349
 21
14.66872763471229
 31
0.0
  0
LINE
  5
1AD
330
9C
100
AcDbEntity
  8
06-99
100
AcDbLine
 10
304.3169636337349
 20
14.66872763471229
 30
0.0
 11
304.3209588777348
 21
14.8092312067123
 31
0.0
  0
LINE
  5
1AE
330
9C
100
AcDbEntity
  8
06-99
100
AcDbLine
 10
304.3209588777348
 20
14.8092312067123
 30
0.0
 11
304.3390319217348
 21
16.03490862671236
 31
0.0
  0
LINE
  5
1AF
330
9C
100
AcDbEntity
  8
06-99
100
AcDbLine
 10
304.3390319217348
 20
16.03490862671236
 30
0.0
 11
303.3345042657348
 21
16.03490862671236
 31
0.0
  0
LINE
  5
1B0
330
9C
100
AcDbEntity
  8
06-99
100
AcDbLine
 10
303.3345042657348
 20
16.03490862671236
 30
0.0
 11
303.6127350537349
 21
13.25281458671242
 31
0.0
  0
LINE
  5
1B1
330
9C
100
AcDbEntity
  8
06-99
100
AcDbLine
 10
303.6127350537349
 20
13.25281458671242
 30
0.0
 11
304.4843290737348
 21
13.25281458671242
 31
0.0
  0
LINE
  5
1B2
330
9C
100
AcDbEntity
  8
06-99
100
AcDbLine
 10
304.4843290737348
 20
13.25281458671242
 30
0.0
 11
304.8772386897349
 21
14.20222854671237
 31
0.0
  0
LINE
  5
1B3
330
9C
100
AcDbEntity
  8
06-99
100
AcDbLine
 10
304.8772386897349
 20
14.20222854671237
 30
0.0
 11
304.9325127657348
 21
14.33510159471234
 31
0.0
  0
LINE
  5
1B4
330
9C
100
AcDbEntity
  8
06-99
100
AcDbLine
 10
304.9325127657348
 20
14.33510159471234
 30
0.0
 11
304.9905774537349
 21
14.48699927471239
 31
0.0
  0
LINE
  5
1B5
330
9C
100
AcDbEntity
  8
06-99
100
AcDbLine
 10
304.9905774537349
 20
14.48699927471239
 30
0.0
 11
305.0434565217349
 21
14.66137866671232
 31
0.0
  0
LINE
  5
1B6
330
9C
100
AcDbEntity
  8
06-99
100
AcDbLine
 10
309.4520674977348
 20
14.26448449871236
 30
0.0
 11
309.5983590057348
 21
14.57965971071235
 31
0.0
  0
LINE
  5
1B7
330
9C
100
AcDbEntity
  8
06-99
100
AcDbLine
 10
309.5983590057348
 20
14.57965971071235
 30
0.0
 11
309.6731103417349
 21
14.74409554271244
 31
0.0
  0
LINE
  5
1B8
330
9C
100
AcDbEntity
  8
06-99
100
AcDbLine
 10
309.6731103417349
 20
14.74409554271244
 30
0.0
 11
309.7541521377349
 21
14.94571102271237
 31
0.0
  0
LINE
  5
1B9
330
9C
100
AcDbEntity
  8
06-99
100
AcDbLine
 10
309.7541521377349
 20
14.94571102271237
 30
0.0
 11
309.8288286297349
 21
15.19056495071243
 31
0.0
  0
LINE
  5
1BA
330
9C
100
AcDbEntity
  8
06-99
100
AcDbLine
 10
309.8288286297349
 20
15.19056495071243
 30
0.0
 11
309.8482880697349
 21
15.19056495071243
 31
0.0
  0
LINE
  5
1BB
330
9C
100
AcDbEntity
  8
06-99
100
AcDbLine
 10
309.8482880697349
 20
15.19056495071243
 30
0.0
 11
309.8286646857348
 21
14.94571102271237
 31
0.0
  0
LINE
  5
1BC
330
9C
100
AcDbEntity
  8
06-99
100
AcDbLine
 10
309.8286646857348
 20
14.94571102271237
 30
0.0
 11
309.8320718697348
 21
14.74409554271244
 31
0.0
  0
LINE
  5
1BD
330
9C
100
AcDbEntity
  8
06-99
100
AcDbLine
 10
309.8320718697348
 20
14.74409554271244
 30
0.0
 11
309.8435051817348
 21
14.57965971071235
 31
0.0
  0
LINE
  5
1BE
330
9C
100
AcDbEntity
  8
06-99
100
AcDbLine
 10
309.8435051817348
 20
14.57965971071235
 30
0.0
 11
309.868410413735
 21
14.26448449871236
 31
0.0
  0
LINE
  5
1BF
330
9C
100
AcDbEntity
  8
06-99
100
AcDbLine
 10
309.868410413735
 20
14.26448449871236
 30
0.0
 11
309.4520674977348
 21
14.26448449871236
 31
0.0
  0
LINE
  5
1C0
330
9C
100
AcDbEntity
  8
06-99
100
AcDbLine
 10
312.586705289735
 20
13.25281458671242
 30
0.0
 11
313.5672400977347
 21
13.25281458671242
 31
0.0
  0
LINE
  5
1C1
330
9C
100
AcDbEntity
  8
06-99
100
AcDbLine
 10
313.5672400977347
 20
13.25281458671242
 30
0.0
 11
313.7440358817348
 21
14.17110413471232
 31
0.0
  0
LINE
  5
1C2
330
9C
100
AcDbEntity
  8
06-99
100
AcDbLine
 10
313.7440358817348
 20
14.17110413471232
 30
0.0
 11
314.053626305735
 21
13.25281458671242
 31
0.0
  0
LINE
  5
1C3
330
9C
100
AcDbEntity
  8
06-99
100
AcDbLine
 10
314.053626305735
 20
13.25281458671242
 30
0.0
 11
315.1742370057348
 21
13.25281458671242
 31
0.0
  0
LINE
  5
1C4
330
9C
100
AcDbEntity
  8
06-99
100
AcDbLine
 10
315.1742370057348
 20
13.25281458671242
 30
0.0
 11
314.6490673497349
 21
14.38511520671233
 31
0.0
  0
LINE
  5
1C5
330
9C
100
AcDbEntity
  8
06-99
100
AcDbLine
 10
314.6490673497349
 20
14.38511520671233
 30
0.0
 11
314.8084280457349
 21
14.42380955471236
 31
0.0
  0
LINE
  5
1C6
330
9C
100
AcDbEntity
  8
06-99
100
AcDbLine
 10
314.8084280457349
 20
14.42380955471236
 30
0.0
 11
314.9537002497348
 21
14.49881749871235
 31
0.0
  0
LINE
  5
1C7
330
9C
100
AcDbEntity
  8
06-99
100
AcDbLine
 10
314.9537002497348
 20
14.49881749871235
 30
0.0
 11
315.0813484737348
 21
14.60690292671233
 31
0.0
  0
LINE
  5
1C8
330
9C
100
AcDbEntity
  8
06-99
100
AcDbLine
 10
315.0813484737348
 20
14.60690292671233
 30
0.0
 11
315.1878301017348
 21
14.74481903471235
 31
0.0
  0
LINE
  5
1C9
330
9C
100
AcDbEntity
  8
06-99
100
AcDbLine
 10
315.1878301017348
 20
14.74481903471235
 30
0.0
 11
315.2695989537348
 21
14.90932258271232
 31
0.0
  0
LINE
  5
1CA
330
9C
100
AcDbEntity
  8
06-99
100
AcDbLine
 10
315.2695989537348
 20
14.90932258271232
 30
0.0
 11
315.3231124137347
 21
15.09717033071234
 31
0.0
  0
LINE
  5
1CB
330
9C
100
AcDbEntity
  8
06-99
100
AcDbLine
 10
315.3231124137347
 20
15.09717033071234
 30
0.0
 11
315.3445997697348
 21
15.26809264271236
 31
0.0
  0
LINE
  5
1CC
330
9C
100
AcDbEntity
  8
06-99
100
AcDbLine
 10
315.3445997697348
 20
15.26809264271236
 30
0.0
 11
315.3403015857348
 21
15.42330127871241
 31
0.0
  0
LINE
  5
1CD
330
9C
100
AcDbEntity
  8
06-99
100
AcDbLine
 10
315.3403015857348
 20
15.42330127871241
 30
0.0
 11
315.3102285537349
 21
15.56226163871236
 31
0.0
  0
LINE
  5
1CE
330
9C
100
AcDbEntity
  8
06-99
100
AcDbLine
 10
315.3102285537349
 20
15.56226163871236
 30
0.0
 11
315.2543913657347
 21
15.68443555871226
 31
0.0
  0
LINE
  5
1CF
330
9C
100
AcDbEntity
  8
06-99
100
AcDbLine
 10
315.2543913657347
 20
15.68443555871226
 30
0.0
 11
315.1728078417348
 21
15.78928843871239
 31
0.0
  0
LINE
  5
1D0
330
9C
100
AcDbEntity
  8
06-99
100
AcDbLine
 10
315.1728078417348
 20
15.78928843871239
 30
0.0
 11
315.0654922377348
 21
15.87627855071235
 31
0.0
  0
LINE
  5
1D1
330
9C
100
AcDbEntity
  8
06-99
100
AcDbLine
 10
315.0654922377348
 20
15.87627855071235
 30
0.0
 11
314.9324516817348
 21
15.94487485871235
 31
0.0
  0
LINE
  5
1D2
330
9C
100
AcDbEntity
  8
06-99
100
AcDbLine
 10
314.9324516817348
 20
15.94487485871235
 30
0.0
 11
314.7737075577347
 21
15.9945356347124
 31
0.0
  0
LINE
  5
1D3
330
9C
100
AcDbEntity
  8
06-99
100
AcDbLine
 10
314.7737075577347
 20
15.9945356347124
 30
0.0
 11
314.5892634297348
 21
16.02472627871236
 31
0.0
  0
LINE
  5
1D4
330
9C
100
AcDbEntity
  8
06-99
100
AcDbLine
 10
314.5892634297348
 20
16.02472627871236
 30
0.0
 11
314.3791442457348
 21
16.03490862671236
 31
0.0
  0
LINE
  5
1D5
330
9C
100
AcDbEntity
  8
06-99
100
AcDbLine
 10
314.3791442457348
 20
16.03490862671236
 30
0.0
 11
313.1223424137348
 21
16.03490862671236
 31
0.0
  0
LINE
  5
1D6
330
9C
100
AcDbEntity
  8
06-99
100
AcDbLine
 10
313.1223424137348
 20
16.03490862671236
 30
0.0
 11
312.586705289735
 21
13.25281458671242
 31
0.0
  0
LINE
  5
1D7
330
9C
100
AcDbEntity
  8
06-99
100
AcDbLine
 10
313.9650323937349
 20
15.31896517871234
 30
0.0
 11
314.1206829657349
 21
15.31896517871234
 31
0.0
  0
LINE
  5
1D8
330
9C
100
AcDbEntity
  8
06-99
100
AcDbLine
 10
314.1206829657349
 20
15.31896517871234
 30
0.0
 11
314.2773528417349
 21
15.28538517071229
 31
0.0
  0
LINE
  5
1D9
330
9C
100
AcDbEntity
  8
06-99
100
AcDbLine
 10
314.2773528417349
 20
15.28538517071229
 30
0.0
 11
314.3582200017347
 21
15.19041169871241
 31
0.0
  0
LINE
  5
1DA
330
9C
100
AcDbEntity
  8
06-99
100
AcDbLine
 10
314.3582200017347
 20
15.19041169871241
 30
0.0
 11
314.3632167297349
 21
15.04270171871235
 31
0.0
  0
LINE
  5
1DB
330
9C
100
AcDbEntity
  8
06-99
100
AcDbLine
 10
314.3632167297349
 20
15.04270171871235
 30
0.0
 11
314.3008645497348
 21
14.8970018347124
 31
0.0
  0
LINE
  5
1DC
330
9C
100
AcDbEntity
  8
06-99
100
AcDbLine
 10
314.3008645497348
 20
14.8970018347124
 30
0.0
 11
314.1832917537348
 21
14.80578125471237
 31
0.0
  0
LINE
  5
1DD
330
9C
100
AcDbEntity
  8
06-99
100
AcDbLine
 10
314.1832917537348
 20
14.80578125471237
 30
0.0
 11
314.0158122657348
 21
14.77422203471229
 31
0.0
  0
LINE
  5
1DE
330
9C
100
AcDbEntity
  8
06-99
100
AcDbLine
 10
314.0158122657348
 20
14.77422203471229
 30
0.0
 11
313.8601616937349
 21
14.77422203471229
 31
0.0
  0
LINE
  5
1DF
330
9C
100
AcDbEntity
  8
06-99
100
AcDbLine
 10
313.8601616937349
 20
14.77422203471229
 30
0.0
 11
313.9650323937349
 21
15.31896517871234
 31
0.0
  0
LINE
  5
1E0
330
9C
100
AcDbEntity
  8
06-99
100
AcDbLine
 10
309.579801257735
 20
17.12736016271231
 30
0.0
 11
311.3988989337349
 21
17.12736016271231
 31
0.0
  0
LINE
  5
1E1
330
9C
100
AcDbEntity
  8
06-99
100
AcDbLine
 10
311.3988989337349
 20
17.12736016271231
 30
0.0
 11
311.3988989337349
 21
17.44082465471229
 31
0.0
  0
LINE
  5
1E2
330
9C
100
AcDbEntity
  8
06-99
100
AcDbLine
 10
311.3988989337349
 20
17.44082465471229
 30
0.0
 11
309.913819337735
 21
17.44082465471229
 31
0.0
  0
LINE
  5
1E3
330
9C
100
AcDbEntity
  8
06-99
100
AcDbLine
 10
309.913819337735
 20
17.44082465471229
 30
0.0
 11
309.913819337735
 21
19.02353290271242
 31
0.0
  0
LINE
  5
1E4
330
9C
100
AcDbEntity
  8
06-99
100
AcDbLine
 10
309.913819337735
 20
19.02353290271242
 30
0.0
 11
311.3988989337349
 21
19.02353290271242
 31
0.0
  0
LINE
  5
1E5
330
9C
100
AcDbEntity
  8
06-99
100
AcDbLine
 10
311.3988989337349
 20
19.02353290271242
 30
0.0
 11
311.3988989337349
 21
19.3369973947124
 31
0.0
  0
LINE
  5
1E6
330
9C
100
AcDbEntity
  8
06-99
100
AcDbLine
 10
311.3988989337349
 20
19.3369973947124
 30
0.0
 11
309.913819337735
 21
19.3369973947124
 31
0.0
  0
LINE
  5
1E7
330
9C
100
AcDbEntity
  8
06-99
100
AcDbLine
 10
309.913819337735
 20
19.3369973947124
 30
0.0
 11
309.913819337735
 21
20.48806960271236
 31
0.0
  0
LINE
  5
1E8
330
9C
100
AcDbEntity
  8
06-99
100
AcDbLine
 10
309.913819337735
 20
20.48806960271236
 30
0.0
 11
311.3988989337349
 21
20.48806960271236
 31
0.0
  0
LINE
  5
1E9
330
9C
100
AcDbEntity
  8
06-99
100
AcDbLine
 10
311.3988989337349
 20
20.48806960271236
 30
0.0
 11
311.3988989337349
 21
20.80153409471234
 31
0.0
  0
LINE
  5
1EA
330
9C
100
AcDbEntity
  8
06-99
100
AcDbLine
 10
311.3988989337349
 20
20.80153409471234
 30
0.0
 11
309.579801257735
 21
20.80153409471234
 31
0.0
  0
LINE
  5
1EB
330
9C
100
AcDbEntity
  8
06-99
100
AcDbLine
 10
309.579801257735
 20
20.80153409471234
 30
0.0
 11
309.579801257735
 21
17.12736016271231
 31
0.0
  0
LINE
  5
1EC
330
9C
100
AcDbEntity
  8
06-99
100
AcDbLine
 10
304.853024873735
 20
17.12736016271231
 30
0.0
 11
305.1870465177349
 21
17.12736016271231
 31
0.0
  0
LINE
  5
1ED
330
9C
100
AcDbEntity
  8
06-99
100
AcDbLine
 10
305.1870465177349
 20
17.12736016271231
 30
0.0
 11
305.1870465177349
 21
20.09753361071233
 31
0.0
  0
LINE
  5
1EE
330
9C
100
AcDbEntity
  8
06-99
100
AcDbLine
 10
305.1870465177349
 20
20.09753361071233
 30
0.0
 11
307.7666661537348
 21
17.01858688271232
 31
0.0
  0
LINE
  5
1EF
330
9C
100
AcDbEntity
  8
06-99
100
AcDbLine
 10
307.7666661537348
 20
17.01858688271232
 30
0.0
 11
307.7666661537348
 21
20.80153409471234
 31
0.0
  0
LINE
  5
1F0
330
9C
100
AcDbEntity
  8
06-99
100
AcDbLine
 10
307.7666661537348
 20
20.80153409471234
 30
0.0
 11
307.4326587657349
 21
20.80153409471234
 31
0.0
  0
LINE
  5
1F1
330
9C
100
AcDbEntity
  8
06-99
100
AcDbLine
 10
307.4326587657349
 20
20.80153409471234
 30
0.0
 11
307.4326587657349
 21
17.88274639871235
 31
0.0
  0
LINE
  5
1F2
330
9C
100
AcDbEntity
  8
06-99
100
AcDbLine
 10
307.4326587657349
 20
17.88274639871235
 30
0.0
 11
304.853024873735
 21
20.95568422271231
 31
0.0
  0
LINE
  5
1F3
330
9C
100
AcDbEntity
  8
06-99
100
AcDbLine
 10
304.853024873735
 20
20.95568422271231
 30
0.0
 11
304.853024873735
 21
17.12736016271231
 31
0.0
  0
LINE
  5
1F4
330
9C
100
AcDbEntity
  8
06-99
100
AcDbLine
 10
313.448423465735
 20
20.50862675471228
 30
0.0
 11
313.7824308537349
 21
20.50862675471228
 31
0.0
  0
LINE
  5
1F5
330
9C
100
AcDbEntity
  8
06-99
100
AcDbLine
 10
313.7824308537349
 20
20.50862675471228
 30
0.0
 11
313.9866159777348
 21
20.50030837871236
 31
0.0
  0
LINE
  5
1F6
330
9C
100
AcDbEntity
  8
06-99
100
AcDbLine
 10
313.9866159777348
 20
20.50030837871236
 30
0.0
 11
314.1604465137349
 21
20.47385993471232
 31
0.0
  0
LINE
  5
1F7
330
9C
100
AcDbEntity
  8
06-99
100
AcDbLine
 10
314.1604465137349
 20
20.47385993471232
 30
0.0
 11
314.3048954337349
 21
20.42705748671227
 31
0.0
  0
LINE
  5
1F8
330
9C
100
AcDbEntity
  8
06-99
100
AcDbLine
 10
314.3048954337349
 20
20.42705748671227
 30
0.0
 11
314.4209178897349
 21
20.35767353471232
 31
0.0
  0
LINE
  5
1F9
330
9C
100
AcDbEntity
  8
06-99
100
AcDbLine
 10
314.4209178897349
 20
20.35767353471232
 30
0.0
 11
314.509479725735
 21
20.26348057871229
 31
0.0
  0
LINE
  5
1FA
330
9C
100
AcDbEntity
  8
06-99
100
AcDbLine
 10
314.509479725735
 20
20.26348057871229
 30
0.0
 11
314.5715432217348
 21
20.14225111871241
 31
0.0
  0
LINE
  5
1FB
330
9C
100
AcDbEntity
  8
06-99
100
AcDbLine
 10
314.5715432217348
 20
20.14225111871241
 30
0.0
 11
314.6080777857349
 21
19.99175052671228
 31
0.0
  0
LINE
  5
1FC
330
9C
100
AcDbEntity
  8
06-99
100
AcDbLine
 10
314.6080777857349
 20
19.99175052671228
 30
0.0
 11
314.6200421337348
 21
19.80976199471234
 31
0.0
  0
LINE
  5
1FD
330
9C
100
AcDbEntity
  8
06-99
100
AcDbLine
 10
314.6200421337348
 20
19.80976199471234
 30
0.0
 11
314.6074469577349
 21
19.63100957471232
 31
0.0
  0
LINE
  5
1FE
330
9C
100
AcDbEntity
  8
06-99
100
AcDbLine
 10
314.6074469577349
 20
19.63100957471232
 30
0.0
 11
314.5693763097349
 21
19.48586211071233
 31
0.0
  0
LINE
  5
1FF
330
9C
100
AcDbEntity
  8
06-99
100
AcDbLine
 10
314.5693763097349
 20
19.48586211071233
 30
0.0
 11
314.5054167657349
 21
19.37130445871241
 31
0.0
  0
LINE
  5
200
330
9C
100
AcDbEntity
  8
06-99
100
AcDbLine
 10
314.5054167657349
 20
19.37130445871241
 30
0.0
 11
314.4151370817349
 21
19.28432860271238
 31
0.0
  0
LINE
  5
201
330
9C
100
AcDbEntity
  8
06-99
100
AcDbLine
 10
314.4151370817349
 20
19.28432860271238
 30
0.0
 11
314.298123833735
 21
19.22192296271237
 31
0.0
  0
LINE
  5
202
330
9C
100
AcDbEntity
  8
06-99
100
AcDbLine
 10
314.298123833735
 20
19.22192296271237
 30
0.0
 11
314.1539493417349
 21
19.18107239471232
 31
0.0
  0
LINE
  5
203
330
9C
100
AcDbEntity
  8
06-99
100
AcDbLine
 10
314.1539493417349
 20
19.18107239471232
 30
0.0
 11
313.9821894897348
 21
19.15877244671242
 31
0.0
  0
LINE
  5
204
330
9C
100
AcDbEntity
  8
06-99
100
AcDbLine
 10
313.9821894897348
 20
19.15877244671242
 30
0.0
 11
313.7824308537349
 21
19.15200797471237
 31
0.0
  0
LINE
  5
205
330
9C
100
AcDbEntity
  8
06-99
100
AcDbLine
 10
313.7824308537349
 20
19.15200797471237
 30
0.0
 11
313.448423465735
 21
19.15200797471237
 31
0.0
  0
LINE
  5
206
330
9C
100
AcDbEntity
  8
06-99
100
AcDbLine
 10
313.448423465735
 20
19.15200797471237
 30
0.0
 11
313.448423465735
 21
20.50862675471228
 31
0.0
  0
LINE
  5
207
330
9C
100
AcDbEntity
  8
06-99
100
AcDbLine
 10
315.3445997697348
 20
17.12736016271231
 30
0.0
 11
314.0239560057348
 21
18.87965422271236
 31
0.0
  0
LINE
  5
208
330
9C
100
AcDbEntity
  8
06-99
100
AcDbLine
 10
314.0239560057348
 20
18.87965422271236
 30
0.0
 11
314.212373993735
 21
18.8922529627124
 31
0.0
  0
LINE
  5
209
330
9C
100
AcDbEntity
  8
06-99
100
AcDbLine
 10
314.212373993735
 20
18.8922529627124
 30
0.0
 11
314.3829007017349
 21
18.92942191871231
 31
0.0
  0
LINE
  5
20A
330
9C
100
AcDbEntity
  8
06-99
100
AcDbLine
 10
314.3829007017349
 20
18.92942191871231
 30
0.0
 11
314.5343992137349
 21
18.99023088671242
 31
0.0
  0
LINE
  5
20B
330
9C
100
AcDbEntity
  8
06-99
100
AcDbLine
 10
314.5343992137349
 20
18.99023088671242
 30
0.0
 11
314.6657219217349
 21
19.07375679071236
 31
0.0
  0
LINE
  5
20C
330
9C
100
AcDbEntity
  8
06-99
100
AcDbLine
 10
314.6657219217349
 20
19.07375679071236
 30
0.0
 11
314.7757283457349
 21
19.17905873471233
 31
0.0
  0
LINE
  5
20D
330
9C
100
AcDbEntity
  8
06-99
100
AcDbLine
 10
314.7757283457349
 20
19.17905873471233
 30
0.0
 11
314.8632744417348
 21
19.30521720671237
 31
0.0
  0
LINE
  5
20E
330
9C
100
AcDbEntity
  8
06-99
100
AcDbLine
 10
314.8632744417348
 20
19.30521720671237
 30
0.0
 11
314.9272232937349
 21
19.4512948747124
 31
0.0
  0
LINE
  5
20F
330
9C
100
AcDbEntity
  8
06-99
100
AcDbLine
 10
314.9272232937349
 20
19.4512948747124
 30
0.0
 11
314.9664308577349
 21
19.61636153471238
 31
0.0
  0
LINE
  5
210
330
9C
100
AcDbEntity
  8
06-99
100
AcDbLine
 10
314.9664308577349
 20
19.61636153471238
 30
0.0
 11
314.9797530897347
 21
19.79949054671237
 31
0.0
  0
LINE
  5
211
330
9C
100
AcDbEntity
  8
06-99
100
AcDbLine
 10
314.9797530897347
 20
19.79949054671237
 30
0.0
 11
314.969937833735
 21
19.97455422671237
 31
0.0
  0
LINE
  5
212
330
9C
100
AcDbEntity
  8
06-99
100
AcDbLine
 10
314.969937833735
 20
19.97455422671237
 30
0.0
 11
314.940481373735
 21
20.13261762671238
 31
0.0
  0
LINE
  5
213
330
9C
100
AcDbEntity
  8
06-99
100
AcDbLine
 10
314.940481373735
 20
20.13261762671238
 30
0.0
 11
314.8913551977349
 21
20.27374846271237
 31
0.0
  0
LINE
  5
214
330
9C
100
AcDbEntity
  8
06-99
100
AcDbLine
 10
314.8913551977349
 20
20.27374846271237
 30
0.0
 11
314.822541485735
 21
20.39801445071225
 31
0.0
  0
LINE
  5
215
330
9C
100
AcDbEntity
  8
06-99
100
AcDbLine
 10
314.822541485735
 20
20.39801445071225
 30
0.0
 11
314.7340152897349
 21
20.50548687071239
 31
0.0
  0
LINE
  5
216
330
9C
100
AcDbEntity
  8
06-99
100
AcDbLine
 10
314.7340152897349
 20
20.50548687071239
 30
0.0
 11
314.625751661735
 21
20.59623700271237
 31
0.0
  0
LINE
  5
217
330
9C
100
AcDbEntity
  8
06-99
100
AcDbLine
 10
314.625751661735
 20
20.59623700271237
 30
0.0
 11
314.4977292177349
 21
20.67032899871231
 31
0.0
  0
LINE
  5
218
330
9C
100
AcDbEntity
  8
06-99
100
AcDbLine
 10
314.4977292177349
 20
20.67032899871231
 30
0.0
 11
314.3499230097348
 21
20.72783413871235
 31
0.0
  0
LINE
  5
219
330
9C
100
AcDbEntity
  8
06-99
100
AcDbLine
 10
314.3499230097348
 20
20.72783413871235
 30
0.0
 11
314.1823116537348
 21
20.76882726671238
 31
0.0
  0
LINE
  5
21A
330
9C
100
AcDbEntity
  8
06-99
100
AcDbLine
 10
314.1823116537348
 20
20.76882726671238
 30
0.0
 11
313.9948737657348
 21
20.79336897071238
 31
0.0
  0
LINE
  5
21B
330
9C
100
AcDbEntity
  8
06-99
100
AcDbLine
 10
313.9948737657348
 20
20.79336897071238
 30
0.0
 11
313.7875808337349
 21
20.80153409471234
 31
0.0
  0
LINE
  5
21C
330
9C
100
AcDbEntity
  8
06-99
100
AcDbLine
 10
313.7875808337349
 20
20.80153409471234
 30
0.0
 11
313.7875808337349
 21
20.80153409471234
 31
0.0
  0
LINE
  5
21D
330
9C
100
AcDbEntity
  8
06-99
100
AcDbLine
 10
313.7875808337349
 20
20.80153409471234
 30
0.0
 11
313.1144053857349
 21
20.80153409471234
 31
0.0
  0
LINE
  5
21E
330
9C
100
AcDbEntity
  8
06-99
100
AcDbLine
 10
313.1144053857349
 20
20.80153409471234
 30
0.0
 11
313.1144053857349
 21
17.12736016271231
 31
0.0
  0
LINE
  5
21F
330
9C
100
AcDbEntity
  8
06-99
100
AcDbLine
 10
313.1144053857349
 20
17.12736016271231
 30
0.0
 11
313.448423465735
 21
17.12736016271231
 31
0.0
  0
LINE
  5
220
330
9C
100
AcDbEntity
  8
06-99
100
AcDbLine
 10
313.448423465735
 20
17.12736016271231
 30
0.0
 11
313.448423465735
 21
18.87965422271236
 31
0.0
  0
LINE
  5
221
330
9C
100
AcDbEntity
  8
06-99
100
AcDbLine
 10
313.448423465735
 20
18.87965422271236
 30
0.0
 11
313.6488378777349
 21
18.87965422271236
 31
0.0
  0
LINE
  5
222
330
9C
100
AcDbEntity
  8
06-99
100
AcDbLine
 10
313.6488378777349
 20
18.87965422271236
 30
0.0
 11
314.9386387857348
 21
17.12736016271231
 31
0.0
  0
LINE
  5
223
330
9C
100
AcDbEntity
  8
06-99
100
AcDbLine
 10
314.9386387857348
 20
17.12736016271231
 30
0.0
 11
315.3445997697348
 21
17.12736016271231
 31
0.0
  0
TEXT
  5
224
330
9C
100
AcDbEntity
  8
06-99
100
AcDbText
 10
294.6083578687944
 20
10.63320974709819
 30
0.0
 40
1.4256
  1
GmbH & Co KG
 41
1.199203187251
 51
15.0
  7
ROMAND8
 72
     5
 11
315.0419578687945
 21
10.63320974709819
 31
0.0
100
AcDbText
  0
TEXT
  5
226
330
9C
100
AcDbEntity
  8
06-99
100
AcDbText
 10
294.7098146233783
 20
8.391016474674643
 30
0.0
 40
1.4256
  1
72770 Reutlingen
 50
0.5663244663116128
 41
1.087840993687879
 51
15.0
  7
ROMAND8
 72
     5
 11
314.9434146233783
 21
8.591016474674631
 31
0.0
100
AcDbText
  0
TEXT
  5
227
330
9C
100
AcDbEntity
  8
08-99
100
AcDbText
 10
282.4141179695723
 20
49.4500923918223
 30
0.0
 40
2.25
  1
Zul. Abw.
 51
15.0
  7
ROMANS8
100
AcDbText
  0
TEXT
  5
228
330
9C
100
AcDbEntity
  8
08-99
100
AcDbText
 10
332.2099260900184
 20
50.28616492075241
 30
0.0
 40
2.0
  1
Mat. Art.
 51
15.0
  7
ROMANS8
100
AcDbText
  0
TEXT
  5
229
330
9C
100
AcDbEntity
  8
08-99
100
AcDbText
 10
364.4865307401076
 20
50.40431414472369
 30
0.0
 40
2.0
  1
Oberfläche:
 51
15.0
  7
ROMANS8
100
AcDbText
  0
TEXT
  5
22A
330
9C
100
AcDbEntity
  8
08-99
100
AcDbText
 10
393.7625376083154
 20
42.73764747805694
 30
0.0
 40
2.0
  1
Blech Dicke:
 51
15.0
  7
ROMANS8
100
AcDbText
  0
TEXT
  5
22B
330
9C
100
AcDbEntity
  8
08-99
100
AcDbText
 10
396.4380277982925
 20
50.28616492075252
 30
0.0
 40
2.0
  1
Maßstab:
 51
15.0
  7
ROMANS8
100
AcDbText
  0
LINE
  5
22C
330
9C
100
AcDbEntity
  8
01-99
100
AcDbLine
 10
323.9999997697348
 20
47.88888965037898
 30
0.0
 11
300.9999997697348
 21
47.88888965037898
 31
0.0
  0
LINE
  5
22D
330
9C
100
AcDbEntity
  8
01-99
100
AcDbLine
 10
323.9999997697348
 20
45.33333409471225
 30
0.0
 11
300.9999997697348
 21
45.33333409471225
 31
0.0
  0
LINE
  5
22E
330
9C
100
AcDbEntity
  8
01-99
100
AcDbLine
 10
323.9999997697349
 20
41.50000076137894
 30
0.0
 11
300.9999997697347
 21
41.50000076137897
 31
0.0
  0
ATTDEF
  5
22F
330
9C
100
AcDbEntity
  8
06-99
100
AcDbText
 10
325.495446508912
 20
27.18783945866119
 30
0.0
 40
4.5
  1

 41
0.9
  7
ROMANS8
100
AcDbAttributeDefinition
280
     0
  3
Benennung/Teil
  2
TEILE
 70
     0
280
     0
  0
ATTDEF
  5
230
330
9C
100
AcDbEntity
  8
06-99
100
AcDbText
 10
325.495446508912
 20
19.89177436492207
 30
0.0
 40
4.5
  1

 41
0.9
  7
ROMANS8
100
AcDbAttributeDefinition
280
     0
  3
Benennung/Teil2
  2
TEILE2
 70
     0
280
     0
  0
ATTDEF
  5
231
330
9C
100
AcDbEntity
  8
06-99
100
AcDbText
 10
400.3473859814493
 20
46.33333409471231
 30
0.0
 40
3.375
  1

  7
ROMANS8
100
AcDbAttributeDefinition
280
     0
  3
Maßstab
  2
:
 70
     0
280
     0
  0
ATTDEF
  5
232
330
9C
100
AcDbEntity
  8
06-99
100
AcDbText
 10
301.9970675691022
 20
28.44168622941026
 30
0.0
 40
2.5
  1

 41
0.9
  7
ROMANS8
100
AcDbAttributeDefinition
280
     0
  3
Name
  2
NAME
 70
     0
280
     0
  0
ATTDEF
  5
233
330
9C
100
AcDbEntity
  8
06-99
100
AcDbText
 10
288.4931462216289
 20
28.46123593549021
 30
0.0
 40
2.5
  1

 50
359.9144597696142
 41
0.9542572414211148
  7
ROMANS8
 72
     5
 11
299.7397368901736
 21
28.44444522804565
 31
0.0
100
AcDbAttributeDefinition
280
     0
  3
Datum
  2
DATUM
 70
     0
280
     0
  0
ATTDEF
  5
234
330
9C
100
AcDbEntity
  8
06-99
100
AcDbText
 10
387.5063437368931
 20
8.492900561667681
 30
0.0
 40
2.99376
  1

  7
ROMANS8
100
AcDbAttributeDefinition
280
     0
  3
Ident-Nummer
  2
ID.NR
 70
     0
280
     0
  0
ATTDEF
  5
235
330
9C
100
AcDbEntity
  8
06-99
100
AcDbText
 10
325.7312660254454
 20
38.66666740582343
 30
0.0
 40
3.0
  1

 41
0.9
  7
ROMANS8
100
AcDbAttributeDefinition
280
     0
  3
Zuschnitts.Länge
  2
LÄNGE
 70
     0
280
     0
  0
ATTDEF
  5
236
330
9C
100
AcDbEntity
  8
06-99
100
AcDbText
 10
359.1808046815046
 20
38.6781046318238
 30
0.0
 40
3.0
  1

 41
0.9
  7
ROMANS8
100
AcDbAttributeDefinition
280
     0
  3
Zuschnitts Breite
  2
BREITE
 70
     0
280
     0
  0
ATTDEF
  5
237
330
9C
100
AcDbEntity
  8
06-99
100
AcDbText
 10
399.6090918964667
 20
38.66666742804574
 30
0.0
 40
3.09375
  1

  7
ROMANS8
100
AcDbAttributeDefinition
280
     0
  3
Blech.Dicke
  2
1.0
 70
     0
280
     0
  0
ATTDEF
  5
238
330
9C
100
AcDbEntity
  8
06-99
100
AcDbText
 10
373.1277853711375
 20
46.33333409471243
 30
0.0
 40
3.0
  1

  7
ROMANS8
 72
     1
 11
373.1277853711375
 21
46.33333409471243
 31
0.0
100
AcDbAttributeDefinition
280
     0
  3
Oberfläche
  2
IV
 70
     0
280
     0
  0
ATTDEF
  5
239
330
9C
100
AcDbEntity
  8
06-99
100
AcDbText
 10
332.2747403058506
 20
46.33333409471219
 30
0.0
 40
3.375
  1
1.4301
  7
ROMANS8
100
AcDbAttributeDefinition
280
     0
  3
Mat.Art
  2
1.4301
 70
     0
280
     0
  0
ATTDEF
  5
23A
330
9C
100
AcDbEntity
  8
06-99
100
AcDbText
 10
355.0006336566149
 20
8.504397365733609
 30
0.0
 40
3.168
  1

 41
0.9
  7
ROMANS8
100
AcDbAttributeDefinition
280
     0
  3
Auftrags Nr.
  2
AUFTRAGS.NR.
 70
     0
280
     0
  0
ATTDEF
  5
23B
330
9C
100
AcDbEntity
  8
06-99
100
AcDbText
 10
325.4999997697348
 20
8.500000761378998
 30
0.0
 40
3.168
  1

 41
0.9
  7
ROMANS8
100
AcDbAttributeDefinition
280
     0
  3
Sonder-NR,WPS
  2
SONDER-NR
 70
     0
280
     0
  0
ATTDEF
  5
23C
330
9C
100
AcDbEntity
  8
06-99
100
AcDbText
 10
255.4997507647431
 20
7.601810830638839
 30
0.0
 40
1.5
  1

 41
0.9
  7
ROMANS8
100
AcDbAttributeDefinition
280
     0
  3
ERSETZT.Durch
  2
ERSETZT.DURCH
 70
     0
280
     0
  0
ATTDEF
  5
23D
330
9C
100
AcDbEntity
  8
06-99
100
AcDbText
 10
230.4994675499334
 20
7.597457159251405
 30
0.0
 40
1.5
  1

 41
0.9
  7
ROMANS8
100
AcDbAttributeDefinition
280
     0
  3
ERSETZT.Für
  2
ERSETZT.FÜR
 70
     0
280
     0
  0
ATTDEF
  5
23E
330
9C
100
AcDbEntity
  8
06-99
100
AcDbText
 10
309.0037152733153
 20
48.66851190138698
 30
0.0
 40
1.287
  1
DIN A3
  7
ROMANS8
 72
     1
 11
312.2518581304581
 21
48.66851190138698
 31
0.0
100
AcDbAttributeDefinition
280
     0
  3
Format
  2
FORMAT
 70
     0
280
     0
  0
ATTDEF
  5
23F
330
9C
100
AcDbEntity
  8
06-99
100
AcDbText
 10
304.9914283411633
 20
38.39666742804565
 30
0.0
 40
2.34
  1
DIN 2768
  7
ROMANS8
 72
     1
 11
313.0142854840205
 21
38.39666742804565
 31
0.0
100
AcDbAttributeDefinition
280
     0
  3
Norm / Kanten
  2
NORM2
 70
     0
280
     0
  0
ATTDEF
  5
240
330
9C
100
AcDbEntity
  8
06-99
100
AcDbText
 10
301.8157140554491
 20
42.23000076137895
 30
0.0
 40
2.34
  1
DIN 6930-M
  7
ROMANS8
 72
     1
 11
312.5128569125919
 21
42.23000076137895
 31
0.0
100
AcDbAttributeDefinition
280
     0
  3
Norm / Fräsen
  2
NORM1
 70
     0
280
     0
  0
ENDBLK
  5
241
330
9C
100
AcDbEntity
  8
0
100
AcDbBlockEnd
  0
BLOCK
  5
8E
330
8D
100
AcDbEntity
  8
0
100
AcDbBlockBegin
  2
*D29
 70
     1
 10
0.0
 20
0.0
 30
0.0
  3
*D29
  1

  0
LINE
  5
8F
330
8D
100
AcDbEntity
  8
09-01
 62
     4
440
 16777216
370
    -2
100
AcDbLine
 10
431.4868593987275
 20
408.392499373129
 30
0.0
 11
419.7408951635382
 21
408.392499373129
 31
0.0
  0
LINE
  5
90
330
8D
100
AcDbEntity
  8
09-01
 62
     4
440
 16777216
370
    -2
100
AcDbLine
 10
585.4868593987275
 20
420.892499373129
 30
0.0
 11
419.7408951635382
 21
420.892499373129
 31
0.0
  0
LINE
  5
91
330
8D
100
AcDbEntity
  8
09-01
 62
     4
440
 16777216
370
    -2
100
AcDbLine
 10
421.7408951635381
 20
403.392499373129
 30
0.0
 11
421.7408951635381
 21
398.3924993731291
 31
0.0
  0
LINE
  5
92
330
8D
100
AcDbEntity
  8
09-01
 62
     4
440
 16777216
370
    -2
100
AcDbLine
 10
421.7408951635381
 20
425.892499373129
 30
0.0
 11
421.7408951635381
 21
430.892499373129
 31
0.0
  0
LINE
  5
93
330
8D
100
AcDbEntity
  8
09-01
 62
     4
440
 16777216
370
    -2
100
AcDbLine
 10
421.7408951635381
 20
408.392499373129
 30
0.0
 11
421.7408951635381
 21
420.892499373129
 31
0.0
  0
SOLID
  5
94
330
8D
100
AcDbEntity
  8
09-01
 62
     4
440
 16777216
100
AcDbTrace
 10
420.9075618302049
 20
403.392499373129
 30
0.0
 11
422.5742284968715
 21
403.392499373129
 31
0.0
 12
421.7408951635381
 22
408.392499373129
 32
0.0
 13
421.7408951635381
 23
408.392499373129
 33
0.0
  0
SOLID
  5
95
330
8D
100
AcDbEntity
  8
09-01
 62
     4
440
 16777216
100
AcDbTrace
 10
420.9075618302049
 20
425.892499373129
 30
0.0
 11
422.5742284968715
 21
425.892499373129
 31
0.0
 12
421.7408951635381
 22
420.892499373129
 32
0.0
 13
421.7408951635381
 23
420.892499373129
 33
0.0
  0
MTEXT
  5
96
330
8D
100
AcDbEntity
  8
09-01
 62
     1
440
 16777216
100
AcDbMText
 10
417.2408951635381
 20
414.6424993731291
 30
0.0
 40
5.0
 41
0.0
 46
0.0
 71
     5
 72
     1
  1
12.5
 11
0.0000000000000001
 21
1.0
 31
0.0
 73
     1
 44
1.0
  0
POINT
  5
97
330
8D
100
AcDbEntity
  8
DEFPOINTS
 62
     0
440
 16777216
100
AcDbPoint
 10
433.4868593987275
 20
408.392499373129
 30
0.0
  0
POINT
  5
98
330
8D
100
AcDbEntity
  8
DEFPOINTS
 62
     0
440
 16777216
100
AcDbPoint
 10
587.4868593987275
 20
420.892499373129
 30
0.0
  0
POINT
  5
99
330
8D
100
AcDbEntity
  8
DEFPOINTS
 62
     0
440
 16777216
100
AcDbPoint
 10
421.7408951635381
 20
420.892499373129
 30
0.0
  0
ENDBLK
  5
9A
330
8D
100
AcDbEntity
  8
0
100
AcDbBlockEnd
  0
BLOCK
  5
7D
330
7C
100
AcDbEntity
  8
0
100
AcDbBlockBegin
  2
*D30
 70
     1
 10
0.0
 20
0.0
 30
0.0
  3
*D30
  1

  0
LINE
  5
7E
330
7C
100
AcDbEntity
  8
09-01
 62
     4
440
 16777216
370
    -2
100
AcDbLine
 10
431.4868593987275
 20
260.3924993731291
 30
0.0
 11
419.7408951635381
 21
260.3924993731291
 31
0.0
  0
LINE
  5
7F
330
7C
100
AcDbEntity
  8
09-01
 62
     4
440
 16777216
370
    -2
100
AcDbLine
 10
585.4868593987275
 20
247.892499373129
 30
0.0
 11
419.7408951635381
 21
247.8924993731291
 31
0.0
  0
LINE
  5
80
330
7C
100
AcDbEntity
  8
09-01
 62
     4
440
 16777216
370
    -2
100
AcDbLine
 10
421.7408951635381
 20
265.392499373129
 30
0.0
 11
421.7408951635381
 21
270.3924993731291
 31
0.0
  0
LINE
  5
81
330
7C
100
AcDbEntity
  8
09-01
 62
     4
440
 16777216
370
    -2
100
AcDbLine
 10
421.7408951635381
 20
242.892499373129
 30
0.0
 11
421.7408951635381
 21
237.8924993731291
 31
0.0
  0
LINE
  5
82
330
7C
100
AcDbEntity
  8
09-01
 62
     4
440
 16777216
370
    -2
100
AcDbLine
 10
421.7408951635381
 20
260.3924993731291
 30
0.0
 11
421.7408951635381
 21
247.8924993731291
 31
0.0
  0
SOLID
  5
83
330
7C
100
AcDbEntity
  8
09-01
 62
     4
440
 16777216
100
AcDbTrace
 10
420.9075618302048
 20
265.392499373129
 30
0.0
 11
422.5742284968714
 21
265.392499373129
 31
0.0
 12
421.7408951635381
 22
260.3924993731291
 32
0.0
 13
421.7408951635381
 23
260.3924993731291
 33
0.0
  0
SOLID
  5
84
330
7C
100
AcDbEntity
  8
09-01
 62
     4
440
 16777216
100
AcDbTrace
 10
420.9075618302048
 20
242.892499373129
 30
0.0
 11
422.5742284968714
 21
242.892499373129
 31
0.0
 12
421.7408951635381
 22
247.8924993731291
 32
0.0
 13
421.7408951635381
 23
247.8924993731291
 33
0.0
  0
MTEXT
  5
85
330
7C
100
AcDbEntity
  8
09-01
 62
     1
440
 16777216
100
AcDbMText
 10
417.2408951635381
 20
254.1424993731292
 30
0.0
 40
5.0
 41
0.0
 46
0.0
 71
     5
 72
     1
  1
12.5
 11
0.0000000000000001
 21
1.0
 31
0.0
 73
     1
 44
1.0
  0
POINT
  5
86
330
7C
100
AcDbEntity
  8
DEFPOINTS
 62
     0
440
 16777216
100
AcDbPoint
 10
433.4868593987275
 20
260.3924993731291
 30
0.0
  0
POINT
  5
88
330
7C
100
AcDbEntity
  8
DEFPOINTS
 62
     0
440
 16777216
100
AcDbPoint
 10
587.4868593987275
 20
247.892499373129
 30
0.0
  0
POINT
  5
89
330
7C
100
AcDbEntity
  8
DEFPOINTS
 62
     0
440
 16777216
100
AcDbPoint
 10
421.7408951635381
 20
247.8924993731291
 30
0.0
  0
ENDBLK
  5
8A
330
7C
100
AcDbEntity
  8
0
100
AcDbBlockEnd
  0
ENDSEC
  0
SECTION
  2
ENTITIES
  0
DIMENSION
  5
78
330
2
100
AcDbEntity
  8
09-01
100
AcDbDimension
280
     0
  2
*D30
 10
421.7408951635381
 20
247.8924993731291
 30
0.0
 11
417.2408951635381
 21
254.1424993731292
 31
0.0
 71
     5
 42
12.50000000000003
 73
     0
 74
     0
 75
     0
  3
Wagner$0
100
AcDbAlignedDimension
 13
433.4868593987275
 23
260.3924993731291
 33
0.0
 14
587.4868593987275
 24
247.892499373129
 34
0.0
 50
90.0
100
AcDbRotatedDimension
1001
ACAD
1000
DSTYLE
1002
{
1070
    40
1040
2.0
1002
}
  0
DIMENSION
  5
8C
330
2
100
AcDbEntity
  8
09-01
100
AcDbDimension
280
     0
  2
*D29
 10
421.7408951635381
 20
420.892499373129
 30
0.0
 11
417.2408951635381
 21
414.6424993731291
 31
0.0
 71
     5
 42
12.5
 73
     0
 74
     0
 75
     0
  3
Wagner$0
100
AcDbAlignedDimension
 13
433.4868593987275
 23
408.392499373129
 33
0.0
 14
587.4868593987275
 24
420.892499373129
 34
0.0
 50
90.0
100
AcDbRotatedDimension
1001
ACAD
1000
DSTYLE
1002
{
1070
    40
1040
2.0
1002
}
  0
INSERT
  5
9B
330
2
100
AcDbEntity
  8
0
100
AcDbBlockReference
 66
     1
  2
DIN A3
 10
0.0000003683584513
 20
-0.0000012182074443
 30
0.0
 41
1.6
 42
1.6
 43
1.6
  0
ATTRIB
  5
242
330
9B
100
AcDbEntity
  8
06-99
100
AcDbText
 10
520.7927147826177
 20
43.50054191565038
 30
0.0
 40
7.2
  1
Handtuchspender WP165
 41
0.9
  7
ROMANS8
100
AcDbAttribute
280
     0
  2
TEILE
 70
     0
280
     0
  0
ATTRIB
  5
243
330
9B
100
AcDbEntity
  8
06-99
100
AcDbText
 10
520.7927147826177
 20
31.82683776566785
 30
0.0
 40
7.2
  1

 41
0.9
  7
ROMANS8
100
AcDbAttribute
280
     0
  2
TEILE2
 70
     0
280
     0
  0
ATTRIB
  5
244
330
9B
100
AcDbEntity
  8
06-99
100
AcDbText
 10
640.5558179386775
 20
74.13333333333219
 30
0.0
 40
5.4
  1
1:2
  7
ROMANS8
100
AcDbAttribute
280
     0
  2
:
 70
     0
280
     0
  0
ATTRIB
  5
245
330
9B
100
AcDbEntity
  8
06-99
100
AcDbText
 10
483.195308478922
 20
45.50669674884898
 30
0.0
 40
4.0
  1
Häberle
 41
0.9
  7
ROMANS8
100
AcDbAttribute
280
     0
  2
NAME
 70
     0
280
     0
  0
ATTRIB
  5
246
330
9B
100
AcDbEntity
  8
06-99
100
AcDbText
 10
461.5890343229646
 20
45.53797627857682
 30
0.0
 40
4.0
  1
15.10.2018
 50
359.9144597696144
 41
0.5831572030906809
  7
ROMANS8
 72
     5
 11
479.5835793926362
 21
45.5111111466656
 31
0.0
100
AcDbAttribute
280
     0
  2
DATUM
 70
     0
280
     0
  0
ATTRIB
  5
247
330
9B
100
AcDbEntity
  8
06-99
100
AcDbText
 10
620.0101503473875
 20
13.5886396804608
 30
0.0
 40
4.790016
  1
764186
  7
ROMANS8
100
AcDbAttribute
280
     0
  2
ID.NR
 70
     0
280
     0
  0
ATTRIB
  5
248
330
9B
100
AcDbEntity
  8
06-99
100
AcDbText
 10
521.1700260090712
 20
61.86666663110997
 30
0.0
 40
4.8
  1

 41
0.9
  7
ROMANS8
100
AcDbAttribute
280
     0
  2
LÄNGE
 70
     0
280
     0
  0
ATTRIB
  5
249
330
9B
100
AcDbEntity
  8
06-99
100
AcDbText
 10
574.6892878587658
 20
61.88496619271063
 30
0.0
 40
4.8
  1

 41
0.9
  7
ROMANS8
100
AcDbAttribute
280
     0
  2
BREITE
 70
     0
280
     0
  0
ATTRIB
  5
24A
330
9B
100
AcDbEntity
  8
06-99
100
AcDbText
 10
639.3745474027053
 20
61.86666666666576
 30
0.0
 40
4.950000000000001
  1

  7
ROMANS8
100
AcDbAttribute
280
     0
  2
1.0
 70
     0
280
     0
  0
ATTRIB
  5
24B
330
9B
100
AcDbEntity
  8
06-99
100
AcDbText
 10
597.0044569621785
 20
74.13333333333241
 30
0.0
 40
4.8
  1

  7
ROMANS8
 72
     1
 11
597.0044569621785
 21
74.13333333333241
 31
0.0
100
AcDbAttribute
280
     0
  2
IV
 70
     0
280
     0
  0
ATTRIB
  5
24C
330
9B
100
AcDbEntity
  8
06-99
100
AcDbText
 10
531.6395848577196
 20
74.13333333333207
 30
0.0
 40
5.4
  1
1.4301
  7
ROMANS8
100
AcDbAttribute
280
     0
  2
1.4301
 70
     0
280
     0
  0
ATTRIB
  5
24D
330
9B
100
AcDbEntity
  8
06-99
100
AcDbText
 10
568.0010142189424
 20
13.60703456696626
 30
0.0
 40
5.0688
  1

 41
0.9000000000000001
  7
ROMANS8
100
AcDbAttribute
280
     0
  2
AUFTRAGS.NR.
 70
     0
280
     0
  0
ATTRIB
  5
24E
330
9B
100
AcDbEntity
  8
06-99
100
AcDbText
 10
520.7999999999342
 20
13.59999999999888
 30
0.0
 40
5.0688
  1

 41
0.9000000000000001
  7
ROMANS8
100
AcDbAttribute
280
     0
  2
SONDER-NR
 70
     0
280
     0
  0
ATTRIB
  5
24F
330
9B
100
AcDbEntity
  8
06-99
100
AcDbText
 10
408.7996015919475
 20
12.1628961108147
 30
0.0
 40
2.4
  1

 41
0.9
  7
ROMANS8
100
AcDbAttribute
280
     0
  2
ERSETZT.DURCH
 70
     0
280
     0
  0
ATTRIB
  5
250
330
9B
100
AcDbEntity
  8
06-99
100
AcDbText
 10
368.7991484482518
 20
12.15593023659471
 30
0.0
 40
2.4
  1

 41
0.9
  7
ROMANS8
100
AcDbAttribute
280
     0
  2
ERSETZT.FÜR
 70
     0
280
     0
  0
ATTRIB
  5
251
330
9B
100
AcDbEntity
  8
06-99
100
AcDbText
 10
494.4059448056629
 20
77.8696178240117
 30
0.0
 40
2.0592
  1
DIN A3
  7
ROMANS8
 72
     1
 11
499.6029733770915
 21
77.8696178240117
 31
0.0
100
AcDbAttribute
280
     0
  2
FORMAT
 70
     0
280
     0
  0
ATTRIB
  5
252
330
9B
100
AcDbEntity
  8
06-99
100
AcDbText
 10
487.9862857142199
 20
61.43466666666552
 30
0.0
 40
3.744
  1
DIN 2768
  7
ROMANS8
 72
     1
 11
500.8228571427913
 21
61.43466666666552
 31
0.0
100
AcDbAttribute
280
     0
  2
NORM2
 70
     0
280
     0
  0
ATTRIB
  5
253
330
9B
100
AcDbEntity
  8
06-99
100
AcDbText
 10
482.9051428570769
 20
67.56799999999884
 30
0.0
 40
3.744
  1
DIN 6930-M
  7
ROMANS8
 72
     1
 11
500.0205714285055
 21
67.56799999999884
 31
0.0
100
AcDbAttribute
280
     0
  2
NORM1
 70
     0
280
     0
  0
SEQEND
  5
254
330
9B
100
AcDbEntity
  8
0
  0
DIMENSION
  5
255
330
2
100
AcDbEntity
  8
09-01
100
AcDbDimension
280
     0
  2
*D27
 10
74.20794671784839
 20
342.892499373129
 30
0.0
 11
59.36970040314668
 21
359.3602726717676
 31
0.0
 70
     4
 71
     5
 42
6.000000000000056
 73
     0
 74
     0
 75
     0
  3
Wagner
100
AcDbRadialDimension
 15
70.19157929432006
 25
347.349941769753
 35
0.0
 40
0.0
1001
ACAD
1000
DSTYLE
1002
{
1070
    40
1040
2.0
1070
   288
1070
     1
1002
}
1001
ACAD_DSTYLE_DIMRADIAL_EXTENSION
1070
   387
1070
     1
1070
   388
1040
1.570796326794896
1070
   390
1040
3.141592653589793
  0
DIMENSION
  5
260
330
2
100
AcDbEntity
  8
09-01
100
AcDbDimension
280
     0
  2
*D26
 10
223.6622998969812
 20
247.892499373129
 30
0.0
 11
219.0050626500311
 21
280.5438501097939
 31
0.0
 70
   128
 71
     5
 42
48.99999999999997
 73
     0
 74
     0
 75
     0
  3
Wagner$0
100
AcDbAlignedDimension
 13
224.6622998969812
 23
296.892499373129
 33
0.0
 14
224.6622998969812
 24
247.892499373129
 34
0.0
 50
90.0
100
AcDbRotatedDimension
1001
ACAD
1000
DSTYLE
1002
{
1070
    40
1040
2.0
1002
}
  0
DIMENSION
  5
26D
330
2
100
AcDbEntity
  8
09-01
100
AcDbDimension
280
     0
  2
*D25
 10
316.2079467178484
 20
316.210478324479
 30
0.0
 11
192.2079467178483
 21
320.710478324479
 31
0.0
 71
     5
 42
248.0
 73
     0
 74
     0
 75
     0
  3
Wagner$0
100
AcDbAlignedDimension
 13
68.20794671784836
 23
313.210478324479
 33
0.0
 14
316.2079467178484
 24
313.210478324479
 34
0.0
100
AcDbRotatedDimension
1001
ACAD
1000
DSTYLE
1002
{
1070
    40
1040
2.0
1002
}
  0
DIMENSION
  5
27A
330
2
100
AcDbEntity
  8
09-01
100
AcDbDimension
280
     0
  2
*D24
 10
223.6622998969811
 20
296.892499373129
 30
0.0
 11
219.1622998969811
 21
322.8924993731291
 31
0.0
 71
     5
 42
52.0
 73
     0
 74
     0
 75
     0
  3
Wagner$0
100
AcDbAlignedDimension
 13
230.6622998969812
 23
348.892499373129
 33
0.0
 14
230.6622998969812
 24
296.892499373129
 34
0.0
 50
90.0
100
AcDbRotatedDimension
1001
ACAD
1000
DSTYLE
1002
{
1070
    40
1040
2.0
1002
}
  0
INSERT
  5
287
330
2
100
AcDbEntity
  8
03-01
100
AcDbBlockReference
  2
Scharnier-023555-S
 10
587.4868593987274
 20
248.892499373129
 30
0.0
 41
-1.0
  0
DIMENSION
  5
2AB
330
2
100
AcDbEntity
  8
09-01
100
AcDbDimension
280
     0
  2
*D20
 10
341.2079467178484
 20
232.6965008007296
 30
0.0
 11
192.2079467178483
 21
237.1965008007296
 31
0.0
 71
     5
 42
298.0000000000001
 73
     0
 74
     0
 75
     0
  3
Wagner$0
100
AcDbAlignedDimension
 13
43.20794671784824
 23
222.6726062076894
 33
0.0
 14
341.2079467178484
 24
222.6726062076894
 34
0.0
100
AcDbRotatedDimension
1001
ACAD
1000
DSTYLE
1002
{
1070
    40
1040
2.0
1002
}
  0
LINE
  5
2B8
330
2
100
AcDbEntity
  8
05-01
100
AcDbLine
 10
602.2461474302032
 20
381.8924993731291
 30
0.0
 11
595.864796038243
 21
381.8924993731291
 31
0.0
  0
LINE
  5
2B9
330
2
100
AcDbEntity
  8
0
100
AcDbLine
 10
597.4868962530363
 20
373.3924993731291
 30
0.0
 11
599.2868962530362
 21
373.3924993731291
 31
0.0
  0
LINE
  5
2BA
330
2
100
AcDbEntity
  8
0
100
AcDbLine
 10
599.2868962530362
 20
390.3924993731291
 30
0.0
 11
597.4868962530363
 21
390.3924993731291
 31
0.0
  0
LINE
  5
2BB
330
2
100
AcDbEntity
  8
0
100
AcDbLine
 10
599.2868962530362
 20
373.3924993731291
 30
0.0
 11
599.2868962530362
 21
390.3924993731291
 31
0.0
  0
LINE
  5
2BC
330
2
100
AcDbEntity
  8
0
100
AcDbLine
 10
600.7868962530363
 20
374.6424993731291
 30
0.0
 11
599.2868962530362
 21
373.3924993731291
 31
0.0
  0
LINE
  5
2BD
330
2
100
AcDbEntity
  8
0
100
AcDbLine
 10
600.7868962530363
 20
389.1424993731291
 30
0.0
 11
599.2868962530362
 21
390.3924993731291
 31
0.0
  0
LINE
  5
2BE
330
2
100
AcDbEntity
  8
0
100
AcDbLine
 10
600.7868962530363
 20
389.1424993731291
 30
0.0
 11
600.7868962530363
 21
374.6424993731291
 31
0.0
  0
LINE
  5
2BF
330
2
100
AcDbEntity
  8
05-01
100
AcDbLine
 10
192.2079467178482
 20
371.3924993731291
 30
0.0
 11
192.2079467178482
 21
392.3924993731291
 31
0.0
  0
LINE
  5
2C0
330
2
100
AcDbEntity
  8
05-01
100
AcDbLine
 10
181.7079467178482
 20
381.8924993731291
 30
0.0
 11
202.7079467178483
 21
381.8924993731291
 31
0.0
  0
CIRCLE
  5
2C1
330
2
100
AcDbEntity
  8
0
100
AcDbCircle
 10
192.2079467178482
 20
381.8924993731291
 30
0.0
 40
8.5
  0
CIRCLE
  5
2C2
330
2
100
AcDbEntity
  8
0
100
AcDbCircle
 10
192.2079467178482
 20
381.8924993731291
 30
0.0
 40
5.799999999999999
  0
LINE
  5
2C3
330
2
100
AcDbEntity
  8
0
100
AcDbLine
 10
190.9579467178482
 20
378.6970712110851
 30
0.0
 11
193.4579467178482
 21
378.6970712110851
 31
0.0
  0
LINE
  5
2C4
330
2
100
AcDbEntity
  8
0
100
AcDbLine
 10
190.9579467178482
 20
386.6924993731291
 30
0.0
 11
193.4579467178482
 21
386.6924993731291
 31
0.0
  0
LWPOLYLINE
  5
2C5
330
2
100
AcDbEntity
  8
0
100
AcDbPolyline
 90
        2
 70
     0
 43
0.0
 10
190.9579467178482
 20
384.891107847015
 10
190.9579467178482
 20
386.6924993731291
  0
LWPOLYLINE
  5
2C6
330
2
100
AcDbEntity
  8
0
100
AcDbPolyline
 90
        2
 70
     0
 43
0.0
 10
190.9579467178482
 20
378.6970712110851
 10
190.9579467178482
 20
380.5609808280928
  0
LWPOLYLINE
  5
2C7
330
2
100
AcDbEntity
  8
0
100
AcDbPolyline
 90
        2
 70
     0
 43
0.0
 10
193.4579467178482
 20
384.891107847015
 10
193.4579467178482
 20
386.6924993731291
  0
LWPOLYLINE
  5
2C8
330
2
100
AcDbEntity
  8
0
100
AcDbPolyline
 90
        2
 70
     0
 43
0.0
 10
193.4579467178482
 20
378.6970712110851
 10
193.4579467178482
 20
380.5609808280928
  0
ARC
  5
2C9
330
2
100
AcDbEntity
  8
0
100
AcDbCircle
 10
192.2079467178482
 20
382.7260443375539
 30
0.0
 40
2.5
100
AcDbArc
 50
300.0000000000005
 51
59.99999999999946
  0
ARC
  5
2CA
330
2
100
AcDbEntity
  8
0
100
AcDbCircle
 10
192.2079467178482
 20
382.7260443375539
 30
0.0
 40
2.5
100
AcDbArc
 50
120.0000000000005
 51
239.9999999999995
  0
CIRCLE
  5
2CB
330
2
100
AcDbEntity
  8
0
100
AcDbCircle
 10
192.2079467178482
 20
381.8924993731291
 30
0.0
 40
6.75
  0
CIRCLE
  5
2CC
330
2
100
AcDbEntity
  8
0
100
AcDbCircle
 10
192.2079467178482
 20
381.8924993731291
 30
0.0
 40
7.25
  0
DIMENSION
  5
2CD
330
2
100
AcDbEntity
  8
09-01
100
AcDbDimension
280
     0
  2
*D19
 10
309.8644784064347
 20
77.17260620768944
 30
0.0
 11
305.6030996078596
 21
88.32588044542047
 31
0.0
 70
   128
 71
     5
 42
5.0
 73
     0
 74
     0
 75
     0
  3
Wagner$0
100
AcDbAlignedDimension
 13
286.6079467178483
 23
82.17260620768945
 33
0.0
 14
286.6079467178483
 24
77.17260620768946
 34
0.0
 50
90.0
100
AcDbRotatedDimension
1001
ACAD
1000
DSTYLE
1002
{
1070
    40
1040
2.0
1002
}
  0
DIMENSION
  5
2DC
330
2
100
AcDbEntity
  8
09-01
100
AcDbDimension
280
     0
  2
*D18
 10
286.6079467178483
 20
98.14032519124964
 30
0.0
 11
320.9079467178483
 21
102.6403251912496
 31
0.0
 71
     5
 42
68.60000000000008
 73
     0
 74
     0
 75
     0
  3
Wagner$0
100
AcDbAlignedDimension
 13
355.2079467178483
 23
68.67260620768942
 33
0.0
 14
286.6079467178483
 24
83.17260620768946
 34
0.0
100
AcDbRotatedDimension
1001
ACAD
1000
DSTYLE
1002
{
1070
    40
1040
2.0
1002
}
  0
DIMENSION
  5
2E9
330
2
100
AcDbEntity
  8
09-01
100
AcDbDimension
280
     0
  2
*D17
 10
286.6079467178483
 20
98.14032519124964
 30
0.0
 11
192.2079467178483
 21
102.6403251912496
 31
0.0
 71
     5
 42
188.7999999999999
 73
     0
 74
     0
 75
     0
  3
Wagner$0
100
AcDbAlignedDimension
 13
97.80794671784832
 23
83.17260620768946
 33
0.0
 14
286.6079467178483
 24
83.17260620768946
 34
0.0
100
AcDbRotatedDimension
1001
ACAD
1000
DSTYLE
1002
{
1070
    40
1040
2.0
1002
}
  0
LINE
  5
2F6
330
2
100
AcDbEntity
  8
05-01
100
AcDbLine
 10
286.6079467178483
 20
83.17260620768946
 30
0.0
 11
286.6079467178483
 21
76.17260620768945
 31
0.0
  0
LINE
  5
2F7
330
2
100
AcDbEntity
  8
05-01
100
AcDbLine
 10
290.1079467178483
 20
79.67260620768946
 30
0.0
 11
283.1079467178483
 21
79.67260620768946
 31
0.0
  0
CIRCLE
  5
2F8
330
2
100
AcDbEntity
  8
0
100
AcDbCircle
 10
286.6079467178483
 20
79.67260620768946
 30
0.0
 40
2.5
  0
LINE
  5
2F9
330
2
100
AcDbEntity
  8
0
100
AcDbLine
 10
43.20794671784824
 20
68.67260620768942
 30
0.0
 11
43.20794671784824
 21
222.6726062076894
 31
0.0
  0
DIMENSION
  5
2FA
330
2
100
AcDbEntity
  8
09-01
100
AcDbDimension
280
     0
  2
*D16
 10
111.3866259235654
 20
68.67260620768945
 30
0.0
 11
106.92341034542
 21
63.82684757142124
 31
0.0
 70
   128
 71
     5
 42
11.0
 73
     0
 74
     0
 75
     0
  3
Wagner$0
100
AcDbAlignedDimension
 13
101.3079467178483
 23
79.67260620768946
 33
0.0
 14
131.4823803203175
 24
68.67260620768945
 34
0.0
 50
270.0
100
AcDbRotatedDimension
1001
ACAD
1000
DSTYLE
1002
{
1070
    40
1040
2.0
1002
}
  0
DIMENSION
  5
309
330
2
100
AcDbEntity
  8
10-01
100
AcDbDimension
280
     0
  2
*D15
 10
29.20794671784813
 20
98.14032519124964
 30
0.0
 11
63.50794671784822
 21
102.6403251912496
 31
0.0
 71
     5
 42
68.60000000000018
 73
     0
 74
     0
 75
     0
  3
Wagner$0
100
AcDbAlignedDimension
 13
97.80794671784832
 23
98.14032519124964
 33
0.0
 14
29.20794671784813
 24
68.67260620768968
 34
0.0
100
AcDbRotatedDimension
1001
ACAD
1000
DSTYLE
1002
{
1070
    40
1040
2.0
1002
}
  0
LINE
  5
318
330
2
100
AcDbEntity
  8
05-01
100
AcDbLine
 10
97.80794671784832
 20
83.17260620768946
 30
0.0
 11
97.80794671784832
 21
76.17260620768945
 31
0.0
  0
LINE
  5
319
330
2
100
AcDbEntity
  8
05-01
100
AcDbLine
 10
94.3079467178483
 20
79.67260620768946
 30
0.0
 11
101.3079467178483
 21
79.67260620768946
 31
0.0
  0
CIRCLE
  5
31A
330
2
100
AcDbEntity
  8
0
100
AcDbCircle
 10
97.80794671784832
 20
79.67260620768946
 30
0.0
 40
2.5
  0
DIMENSION
  5
31B
330
2
100
AcDbEntity
  8
09-01
100
AcDbDimension
280
     0
  2
*D14
 10
29.20794671784813
 20
80.78299437672354
 30
0.0
 11
20.83404098862911
 21
86.26301895049516
 31
0.0
 70
   128
 71
     5
 42
14.00000000000005
 73
     0
 74
     0
 75
     0
  3
Wagner$0
100
AcDbAlignedDimension
 13
43.20794671784819
 23
68.67260620768945
 33
0.0
 14
29.20794671784813
 24
68.67260620768968
 34
0.0
100
AcDbRotatedDimension
1001
ACAD
1000
DSTYLE
1002
{
1070
    40
1040
2.0
1002
}
  0
LINE
  5
328
330
2
100
AcDbEntity
  8
0
100
AcDbLine
 10
341.2079467178484
 20
222.6726062076894
 30
0.0
 11
43.20794671784824
 21
222.6726062076894
 31
0.0
  0
LINE
  5
329
330
2
100
AcDbEntity
  8
0
100
AcDbLine
 10
43.20794671784819
 20
68.67260620768945
 30
0.0
 11
43.20794671784824
 21
222.6726062076894
 31
0.0
  0
LINE
  5
32A
330
2
100
AcDbEntity
  8
0
100
AcDbLine
 10
341.2079467178484
 20
68.67260620768942
 30
0.0
 11
341.2079467178484
 21
222.6726062076894
 31
0.0
  0
LINE
  5
32B
330
2
100
AcDbEntity
  8
0
100
AcDbLine
 10
68.20794671784836
 20
58.67260620768957
 30
0.0
 11
68.20794671784813
 21
55.67260620768968
 31
0.0
  0
LINE
  5
32C
330
2
100
AcDbEntity
  8
0
100
AcDbLine
 10
355.2079467178483
 20
68.67260620768942
 30
0.0
 11
30.20794671784814
 21
68.67260620768947
 31
0.0
  0
LINE
  5
32D
330
2
100
AcDbEntity
  8
0
100
AcDbLine
 10
30.20794671784813
 20
68.6726062076898
 30
0.0
 11
29.20794671784813
 21
68.67260620768968
 31
0.0
  0
LINE
  5
32E
330
2
100
AcDbEntity
  8
0
100
AcDbLine
 10
355.2079467178483
 20
59.4726062076894
 30
0.0
 11
355.2079467178483
 21
58.67260620768944
 31
0.0
  0
LINE
  5
32F
330
2
100
AcDbEntity
  8
0
100
AcDbLine
 10
355.2079467178483
 20
68.67260620768942
 30
0.0
 11
355.2079467178483
 21
59.4726062076894
 31
0.0
  0
LINE
  5
330
330
2
100
AcDbEntity
  8
0
100
AcDbLine
 10
355.2079467178483
 20
58.67260620768944
 30
0.0
 11
29.20794671784813
 21
58.67260620768951
 31
0.0
  0
LINE
  5
331
330
2
100
AcDbEntity
  8
0
100
AcDbLine
 10
316.2079467178486
 20
58.67260620768945
 30
0.0
 11
316.2079467178484
 21
55.67260620768967
 31
0.0
  0
LINE
  5
332
330
2
100
AcDbEntity
  8
0
100
AcDbLine
 10
316.2079467178484
 20
55.67260620768967
 30
0.0
 11
68.20794671784813
 21
55.67260620768968
 31
0.0
  0
LINE
  5
333
330
2
100
AcDbEntity
  8
0
100
AcDbLine
 10
29.20794671784813
 20
68.67260620768968
 30
0.0
 11
29.20794671784813
 21
58.67260620768951
 31
0.0
  0
TEXT
  5
334
330
2
100
AcDbEntity
  8
02-01
100
AcDbText
 10
424.0111529477223
 20
117.1981560209131
 30
0.0
 40
8.5
  1
300 x 150 mm
  7
ROMANS
100
AcDbText
  0
TEXT
  5
335
330
2
100
AcDbEntity
  8
02-01
100
AcDbText
 10
424.0111529477223
 20
130.9600607828179
 30
0.0
 40
8.5
  1
Ausschnittsmaß:
  7
ROMANS
100
AcDbText
  0
INSERT
  5
336
330
2
100
AcDbEntity
  8
01-01
100
AcDbBlockReference
  2
010404
 10
190.2079467178483
 20
272.1924993731291
 30
0.0
  0
LWPOLYLINE
  5
351
330
2
100
AcDbEntity
  8
0
100
AcDbPolyline
 90
        8
 70
     1
 43
0.0
 10
74.20794671784836
 20
296.892499373129
 10
310.2079467178484
 20
296.892499373129
 42
0.4142135623730951
 10
316.2079467178484
 20
302.892499373129
 10
316.2079467178484
 20
342.892499373129
 42
0.4142135623730951
 10
310.2079467178484
 20
348.892499373129
 10
74.20794671784836
 20
348.892499373129
 42
0.4142135623730951
 10
68.20794671784836
 20
342.892499373129
 10
68.20794671784836
 20
302.892499373129
 42
0.4142135623730951
  0
LWPOLYLINE
  5
352
330
2
100
AcDbEntity
  8
0
100
AcDbPolyline
 90
        9
 70
     0
 43
0.0
 10
74.20794671784836
 20
297.892499373129
 10
310.2079467178484
 20
297.892499373129
 42
0.4142135623730951
 10
315.2079467178483
 20
302.892499373129
 10
315.2079467178483
 20
342.892499373129
 42
0.4142135623730951
 10
310.2079467178484
 20
347.892499373129
 10
74.20794671784836
 20
347.892499373129
 42
0.4142135623730951
 10
69.20794671784836
 20
342.892499373129
 10
69.20794671784836
 20
302.892499373129
 42
0.4142135623730951
 10
74.20794671784836
 20
297.892499373129
 42
0.4142135623730951
  0
DIMENSION
  5
353
330
2
100
AcDbEntity
  8
09-01
100
AcDbDimension
280
     0
  2
*D3
 10
587.4868593987275
 20
354.4321030989436
 30
0.0
 11
572.3856207419178
 21
359.3122728267728
 31
0.0
 70
   128
 71
     5
 42
11.0
 73
     0
 74
     0
 75
     0
  3
Wagner$0
100
AcDbAlignedDimension
 13
576.4868593987276
 23
331.3924993731291
 33
0.0
 14
587.4868593987275
 24
359.6669329755979
 34
0.0
100
AcDbRotatedDimension
1001
ACAD
1000
DSTYLE
1002
{
1070
    40
1040
2.0
1002
}
  0
DIMENSION
  5
362
330
2
100
AcDbEntity
  8
09-01
100
AcDbDimension
280
     0
  2
*D4
 10
574.8542910927206
 20
329.7858352456624
 30
0.0
 11
592.084707320807
 21
316.6942144756933
 31
0.0
 70
     3
 71
     5
 42
5.00000000000017
 73
     0
 74
     0
 75
     0
  3
Wagner
100
AcDbDiametricDimension
 15
578.1194277047347
 25
325.9991635005957
 35
0.0
 40
0.0
1001
ACAD
1000
DSTYLE
1002
{
1070
    40
1040
2.0
1002
}
  0
DIMENSION
  5
36E
330
2
100
AcDbEntity
  8
10-01
100
AcDbDimension
280
     0
  2
*D1
 10
558.0191404151674
 20
260.3924993731291
 30
0.0
 11
553.5191404151673
 21
294.1424993731291
 31
0.0
 71
     5
 42
67.5
 73
     0
 74
     0
 75
     0
  3
Wagner$0
100
AcDbAlignedDimension
 13
558.0191404151674
 23
327.892499373129
 33
0.0
 14
553.3329290238302
 24
260.3924993731291
 34
0.0
 50
90.0
100
AcDbRotatedDimension
1001
ACAD
1000
DSTYLE
1002
{
1070
    40
1040
2.0
1002
}
  0
DIMENSION
  5
37A
330
2
100
AcDbEntity
  8
10-01
100
AcDbDimension
280
     0
  2
*D2
 10
558.0191404151674
 20
408.392499373129
 30
0.0
 11
553.5191404151673
 21
368.1424993731291
 31
0.0
 71
     5
 42
80.5
 73
     0
 74
     0
 75
     0
  3
Wagner$0
100
AcDbAlignedDimension
 13
572.9868593987275
 23
327.892499373129
 33
0.0
 14
559.9868593987276
 24
408.392499373129
 34
0.0
 50
90.0
100
AcDbRotatedDimension
1001
ACAD
1000
DSTYLE
1002
{
1070
    40
1040
2.0
1002
}
  0
LINE
  5
387
330
2
100
AcDbEntity
  8
05-01
100
AcDbLine
 10
572.9868593987275
 20
327.892499373129
 30
0.0
 11
579.9868593987276
 21
327.892499373129
 31
0.0
  0
LINE
  5
388
330
2
100
AcDbEntity
  8
05-01
100
AcDbLine
 10
576.4868593987276
 20
324.3924993731291
 30
0.0
 11
576.4868593987276
 21
331.3924993731291
 31
0.0
  0
CIRCLE
  5
389
330
2
100
AcDbEntity
  8
0
100
AcDbCircle
 10
576.4868593987276
 20
327.892499373129
 30
0.0
 40
2.5
  0
DIMENSION
  5
38A
330
2
100
AcDbEntity
  8
09-01
100
AcDbDimension
280
     0
  2
*D5
 10
421.7408951635381
 20
408.392499373129
 30
0.0
 11
417.2408951635381
 21
334.3924993731292
 31
0.0
 71
     5
 42
148.0
 73
     0
 74
     0
 75
     0
  3
Wagner$0
100
AcDbAlignedDimension
 13
433.4868593987275
 23
260.3924993731291
 33
0.0
 14
433.4868593987275
 24
408.392499373129
 34
0.0
 50
90.0
100
AcDbRotatedDimension
1001
ACAD
1000
DSTYLE
1002
{
1070
    40
1040
2.0
1002
}
  0
DIMENSION
  5
397
330
2
100
AcDbEntity
  8
09-01
100
AcDbDimension
280
     0
  2
*D6
 10
597.4868593987276
 20
439.5827686169402
 30
0.0
 11
515.4868593987275
 21
444.0827686169402
 31
0.0
 71
     5
 42
164.0
 73
     0
 74
     0
 75
     0
  3
Wagner$0
100
AcDbAlignedDimension
 13
433.4868593987275
 23
410.8924993731291
 33
0.0
 14
597.4868593987276
 24
423.3924993731291
 34
0.0
100
AcDbRotatedDimension
1001
ACAD
1000
DSTYLE
1002
{
1070
    40
1040
2.0
1002
}
  0
DIMENSION
  5
3A4
330
2
100
AcDbEntity
  8
09-01
100
AcDbDimension
280
     0
  2
*D7
 10
433.4868593987275
 20
428.2981491709292
 30
0.0
 11
510.4868593987275
 21
432.7981491709293
 31
0.0
 71
     5
 42
154.0
 73
     0
 74
     0
 75
     0
  3
Wagner$0
100
AcDbAlignedDimension
 13
587.4868593987275
 23
423.3924993731291
 33
0.0
 14
433.4868593987275
 24
408.392499373129
 34
0.0
100
AcDbRotatedDimension
1001
ACAD
1000
DSTYLE
1002
{
1070
    40
1040
2.0
1002
}
  0
DIMENSION
  5
3B1
330
2
100
AcDbEntity
  8
09-01
100
AcDbDimension
280
     0
  2
*D8
 10
587.4868593987275
 20
428.2981491709292
 30
0.0
 11
606.7952114262371
 21
437.0481491709292
 31
0.0
 70
   128
 71
     5
 42
10.0
 73
     0
 74
     0
 75
     0
  3
Wagner$0
100
AcDbAlignedDimension
 13
597.4868593987276
 23
420.892499373129
 33
0.0
 14
587.4868593987275
 24
420.892499373129
 34
0.0
100
AcDbRotatedDimension
1001
ACAD
1000
DSTYLE
1002
{
1070
    40
1040
2.0
1002
}
  0
LINE
  5
3C0
330
2
100
AcDbEntity
  8
03-01
100
AcDbLine
 10
595.0868593987276
 20
271.892499373129
 30
0.0
 11
435.8868593987274
 21
271.892499373129
 31
0.0
  0
LINE
  5
3C1
330
2
100
AcDbEntity
  8
0
100
AcDbLine
 10
433.4868593987275
 20
408.392499373129
 30
0.0
 11
433.4868593987275
 21
260.3924993731291
 31
0.0
  0
LINE
  5
3C2
330
2
100
AcDbEntity
  8
0
100
AcDbLine
 10
587.4868593987275
 20
260.3924993731291
 30
0.0
 11
433.4868593987275
 21
260.3924993731291
 31
0.0
  0
LINE
  5
3C3
330
2
100
AcDbEntity
  8
0
100
AcDbLine
 10
587.4868593987275
 20
408.392499373129
 30
0.0
 11
433.4868593987275
 21
408.392499373129
 31
0.0
  0
DIMENSION
  5
3C4
330
2
100
AcDbEntity
  8
09-01
100
AcDbDimension
280
     0
  2
*D9
 10
21.005254494729
 20
247.8924993731291
 30
0.0
 11
16.50525449472897
 21
334.3924993731291
 31
0.0
 71
     5
 42
173.0000000000001
 73
     0
 74
     0
 75
     0
  3
Wagner$0
100
AcDbAlignedDimension
 13
29.20794671784836
 23
420.8924993731291
 33
0.0
 14
29.20794671784824
 24
247.8924993731291
 34
0.0
 50
90.0
100
AcDbRotatedDimension
1001
ACAD
1000
DSTYLE
1002
{
1070
    40
1040
2.0
1002
}
  0
LINE
  5
3D1
330
2
100
AcDbEntity
  8
03-01
100
AcDbLine
 10
340.4079467178484
 20
272.8924993731291
 30
0.0
 11
44.00794671784825
 21
272.8924993731289
 31
0.0
  0
LINE
  5
3D2
330
2
100
AcDbEntity
  8
03-01
100
AcDbLine
 10
341.2079467178486
 20
410.8924993731291
 30
0.0
 11
341.2079467178484
 21
257.8924993731291
 31
0.0
  0
LINE
  5
3D3
330
2
100
AcDbEntity
  8
03-01
100
AcDbLine
 10
341.2079467178484
 20
257.8924993731291
 30
0.0
 11
43.20794671784824
 21
257.892499373129
 31
0.0
  0
LINE
  5
3D4
330
2
100
AcDbEntity
  8
03-01
100
AcDbLine
 10
43.20794671784836
 20
410.8924993731291
 30
0.0
 11
43.20794671784824
 21
257.892499373129
 31
0.0
  0
LINE
  5
3D5
330
2
100
AcDbEntity
  8
03-01
100
AcDbLine
 10
341.2079467178486
 20
410.8924993731291
 30
0.0
 11
43.20794671784836
 21
410.8924993731291
 31
0.0
  0
DIMENSION
  5
3D6
330
2
100
AcDbEntity
  8
09-01
100
AcDbDimension
280
     0
  2
*D10
 10
612.9146907348155
 20
420.892499373129
 30
0.0
 11
608.4146907348154
 21
401.3924993731292
 31
0.0
 71
     5
 42
38.99999999999995
 73
     0
 74
     0
 75
     0
  3
Wagner$0
100
AcDbAlignedDimension
 13
602.2461474302032
 23
381.8924993731291
 33
0.0
 14
599.4868593987275
 24
420.892499373129
 34
0.0
 50
90.0
100
AcDbRotatedDimension
1001
ACAD
1000
DSTYLE
1002
{
1070
    40
1040
2.0
1002
}
  0
DIMENSION
  5
3E3
330
2
100
AcDbEntity
  8
09-01
100
AcDbDimension
280
     0
  2
*D11
 10
612.1320119005879
 20
322.892499373129
 30
0.0
 11
607.6320119005877
 21
285.3924993731291
 31
0.0
 71
     5
 42
74.99999999999997
 73
     0
 74
     0
 75
     0
  3
Wagner$0
100
AcDbAlignedDimension
 13
599.4868593987273
 23
247.892499373129
 33
0.0
 14
600.4868593987273
 24
322.892499373129
 34
0.0
 50
90.0
100
AcDbRotatedDimension
1001
ACAD
1000
DSTYLE
1002
{
1070
    40
1040
2.0
1002
}
  0
LINE
  5
3F0
330
2
100
AcDbEntity
  8
0
100
AcDbLine
 10
597.4868593987274
 20
294.8924993731291
 30
0.0
 11
600.4868593987273
 21
294.8924993731289
 31
0.0
  0
LINE
  5
3F1
330
2
100
AcDbEntity
  8
0
100
AcDbLine
 10
587.4868593987275
 20
420.892499373129
 30
0.0
 11
587.4868593987275
 21
247.892499373129
 31
0.0
  0
DIMENSION
  5
3F2
330
2
100
AcDbEntity
  8
09-01
100
AcDbDimension
280
     0
  2
*D12
 10
355.2079467178486
 20
440.046332483581
 30
0.0
 11
192.2079467178484
 21
444.5463324835809
 31
0.0
 71
     5
 42
326.0000000000002
 73
     0
 74
     0
 75
     0
  3
Wagner$0
100
AcDbAlignedDimension
 13
29.20794671784836
 23
420.092499373129
 33
0.0
 14
355.2079467178486
 24
420.092499373129
 34
0.0
100
AcDbRotatedDimension
1001
ACAD
1000
DSTYLE
1002
{
1070
    40
1040
2.0
1002
}
  0
LINE
  5
3FF
330
2
100
AcDbEntity
  8
0
100
AcDbLine
 10
355.2079467178483
 20
247.892499373129
 30
0.0
 11
29.20794671784824
 21
247.8924993731291
 31
0.0
  0
LINE
  5
400
330
2
100
AcDbEntity
  8
0
100
AcDbLine
 10
355.2079467178486
 20
420.892499373129
 30
0.0
 11
355.2079467178483
 21
247.892499373129
 31
0.0
  0
LINE
  5
401
330
2
100
AcDbEntity
  8
0
100
AcDbLine
 10
29.20794671784836
 20
420.8924993731291
 30
0.0
 11
29.20794671784824
 21
247.8924993731291
 31
0.0
  0
LINE
  5
402
330
2
100
AcDbEntity
  8
0
100
AcDbLine
 10
355.2079467178486
 20
420.892499373129
 30
0.0
 11
29.20794671784836
 21
420.8924993731291
 31
0.0
  0
DIMENSION
  5
403
330
2
100
AcDbEntity
  8
09-01
100
AcDbDimension
280
     0
  2
*D13
 10
622.6327063601305
 20
247.892499373129
 30
0.0
 11
618.1327063601306
 21
334.3924993731291
 31
0.0
 71
     5
 42
173.0
 73
     0
 74
     0
 75
     0
  3
Wagner$0
100
AcDbAlignedDimension
 13
597.4868593987276
 23
420.892499373129
 33
0.0
 14
597.4868593987273
 24
247.892499373129
 34
0.0
 50
270.0
100
AcDbRotatedDimension
1001
ACAD
1000
DSTYLE
1002
{
1070
    40
1040
2.0
1002
}
  0
LINE
  5
410
330
2
100
AcDbEntity
  8
0
100
AcDbLine
 10
587.4868593987275
 20
420.892499373129
 30
0.0
 11
597.4868593987276
 21
420.8924993731291
 31
0.0
  0
LINE
  5
411
330
2
100
AcDbEntity
  8
0
100
AcDbLine
 10
597.4868593987276
 20
420.8924993731291
 30
0.0
 11
597.4868593987276
 21
247.892499373129
 31
0.0
  0
LINE
  5
412
330
2
100
AcDbEntity
  8
02-01
100
AcDbLine
 10
596.6868593987274
 20
322.892499373129
 30
0.0
 11
600.4868593987273
 21
322.892499373129
 31
0.0
  0
LINE
  5
413
330
2
100
AcDbEntity
  8
0
100
AcDbLine
 10
597.4868593987276
 20
350.8924993731291
 30
0.0
 11
600.4868593987273
 21
350.8924993731289
 31
0.0
  0
LINE
  5
414
330
2
100
AcDbEntity
  8
0
100
AcDbLine
 10
600.4868593987273
 20
350.8924993731289
 30
0.0
 11
600.4868593987273
 21
294.8924993731289
 31
0.0
  0
LINE
  5
415
330
2
100
AcDbEntity
  8
0
100
AcDbLine
 10
587.4868593987275
 20
247.892499373129
 30
0.0
 11
597.4868593987276
 21
247.892499373129
 31
0.0
  0
ENDSEC
  0
SECTION
  2
OBJECTS
  0
DICTIONARY
  5
B
330
0
100
AcDbDictionary
281
     1
  3
ACAD_COLOR
350
4A
  3
ACAD_GROUP
350
37
  3
ACAD_LAYOUT
350
18
  3
ACAD_MATERIAL
350
D
  3
ACAD_MLEADERSTYLE
350
4D
  3
ACAD_MLINESTYLE
350
38
  3
ACAD_PLOTSETTINGS
350
39
  3
ACAD_PLOTSTYLENAME
350
A
  3
ACAD_SCALELIST
350
4B
  3
ACAD_TABLESTYLE
350
4C
  3
ACAD_VISUALSTYLE
350
2D
  3
ACDB_RECOMPOSE_DATA
350
423
  3
AcDbVariableDictionary
350
419
  0
DICTIONARY
  5
2E
330
2A
100
AcDbDictionary
280
     1
281
     1
  0
DICTIONARY
  5
20
330
1F
100
AcDbDictionary
280
     1
281
     1
  3
ACAD_LAYERSTATES
360
21
  0
DICTIONARY
  5
7
330
6
100
AcDbDictionary
280
     1
281
     1
  3
ADSK_XREC_LAYER_RECONCILED
360
8
  0
DICTIONARY
  5
338
330
337
100
AcDbDictionary
280
     1
281
     1
  3
ADSK_XREC_LAYER_RECONCILED
360
339
  0
DICTIONARY
  5
A7
330
A6
100
AcDbDictionary
280
     1
281
     1
  3
ADSK_XREC_LAYER_RECONCILED
360
A8
  0
DICTIONARY
  5
289
330
288
100
AcDbDictionary
280
     1
281
     1
  3
ADSK_XREC_LAYER_RECONCILED
360
28A
  0
DICTIONARY
  5
29B
330
29A
100
AcDbDictionary
280
     1
281
     1
  3
ADSK_XREC_LAYER_RECONCILED
360
29C
  0
DICTIONARY
  5
7A
330
79
100
AcDbDictionary
280
     1
281
     1
  3
ADSK_XREC_LAYER_RECONCILED
360
7B
  0
DICTIONARY
  5
A2
330
A1
100
AcDbDictionary
280
     1
281
     1
  3
ADSK_XREC_LAYER_RECONCILED
360
A3
  0
DICTIONARY
  5
E2
330
E1
100
AcDbDictionary
280
     1
281
     1
  3
ADSK_XREC_LAYER_RECONCILED
360
E3
  0
DICTIONARY
  5
30B
330
30A
100
AcDbDictionary
280
     1
281
     1
  3
ADSK_XREC_LAYER_RECONCILED
360
30C
  0
DICTIONARY
  5
4F
330
4E
100
AcDbDictionary
280
     1
281
     1
  3
ADSK_XREC_LAYER_RECONCILED
360
50
  0
DICTIONARY
  5
CC
330
CB
100
AcDbDictionary
280
     1
281
     1
  3
ADSK_XREC_LAYER_RECONCILED
360
CD
  0
DICTIONARY
  5
3
330
2
100
AcDbDictionary
280
     1
281
     1
  3
ACAD_SORTENTS
360
418
  0
DICTIONARY
  5
33B
330
33A
100
AcDbDictionary
280
     1
281
     1
  3
ACAD_SORTENTS
360
417
  0
DICTIONARY
  5
9D
330
9C
100
AcDbDictionary
280
     1
281
     1
  3
ACAD_SORTENTS
360
416
  0
DICTIONARY
  5
4A
102
{ACAD_REACTORS
330
B
102
}
330
B
100
AcDbDictionary
281
     1
  0
DICTIONARY
  5
37
102
{ACAD_REACTORS
330
B
102
}
330
B
100
AcDbDictionary
281
     1
  0
DICTIONARY
  5
18
102
{ACAD_REACTORS
330
B
102
}
330
B
100
AcDbDictionary
281
     1
  3
Layout1
350
1E
  3
Model
350
17
  0
DICTIONARY
  5
D
102
{ACAD_REACTORS
330
B
102
}
330
B
100
AcDbDictionary
281
     1
  3
ByBlock
350
42
  3
ByLayer
350
3A
  3
Global
350
C
  0
DICTIONARY
  5
4D
102
{ACAD_REACTORS
330
B
102
}
330
B
100
AcDbDictionary
281
     1
  0
DICTIONARY
  5
38
102
{ACAD_REACTORS
330
B
102
}
330
B
100
AcDbDictionary
281
     1
  3
Standard
350
52
  0
DICTIONARY
  5
39
102
{ACAD_REACTORS
330
B
102
}
330
B
100
AcDbDictionary
281
     1
  0
ACDBDICTIONARYWDFLT
  5
A
102
{ACAD_REACTORS
330
B
102
}
330
B
100
AcDbDictionary
281
     1
  3
Normal
350
9
100
AcDbDictionaryWithDefault
340
9
  0
DICTIONARY
  5
4B
102
{ACAD_REACTORS
330
B
102
}
330
B
100
AcDbDictionary
281
     1
  3
A0
350
57
  3
A1
350
58
  3
A2
350
59
  3
A3
350
5A
  3
A4
350
5B
  3
A5
350
5C
  3
A6
350
5D
  3
A7
350
5E
  3
A8
350
5F
  3
A9
350
60
  3
B0
350
61
  3
B1
350
62
  3
B2
350
63
  3
B3
350
64
  3
B4
350
65
  3
B5
350
66
  3
B6
350
67
  3
B7
350
68
  3
B8
350
69
  3
B9
350
6A
  3
C0
350
6B
  3
C1
350
6C
  3
C2
350
6D
  3
C3
350
6E
  3
C4
350
6F
  3
C5
350
70
  3
C6
350
71
  3
C7
350
72
  3
C8
350
73
  3
C9
350
74
  3
D0
350
75
  3
D1
350
76
  3
D2
350
77
  0
DICTIONARY
  5
4C
102
{ACAD_REACTORS
330
B
102
}
330
B
100
AcDbDictionary
281
     1
  3
Standard
350
53
  0
DICTIONARY
  5
2D
102
{ACAD_REACTORS
330
B
102
}
330
B
100
AcDbDictionary
281
     1
  3
2dWireframe
350
2C
  3
3dWireframe
350
56
  3
Realistic
350
55
  0
XRECORD
  5
423
102
{ACAD_REACTORS
330
B
102
}
330
B
100
AcDbXrecord
280
     1
 90
        1
330
53
  0
DICTIONARY
  5
419
102
{ACAD_REACTORS
330
B
102
}
330
B
100
AcDbDictionary
281
     1
  3
CANNOSCALE
350
41D
  3
CMLEADERSTYLE
350
41B
  3
CTABLESTYLE
350
41A
  3
LAYEREVAL
350
41F
  3
LAYERNOTIFY
350
420
  3
LIGHTINGUNITS
350
41E
  3
MSLTSCALE
350
41C
  0
DICTIONARY
  5
21
102
{ACAD_REACTORS
330
20
102
}
330
20
100
AcDbDictionary
281
     1
  0
XRECORD
  5
8
102
{ACAD_REACTORS
330
7
102
}
330
7
100
AcDbXrecord
280
     1
290
     1
  0
XRECORD
  5
339
102
{ACAD_REACTORS
330
338
102
}
330
338
100
AcDbXrecord
280
     1
290
     1
  0
XRECORD
  5
A8
102
{ACAD_REACTORS
330
A7
102
}
330
A7
100
AcDbXrecord
280
     1
290
     1
  0
XRECORD
  5
28A
102
{ACAD_REACTORS
330
289
102
}
330
289
100
AcDbXrecord
280
     1
290
     1
  0
XRECORD
  5
29C
102
{ACAD_REACTORS
330
29B
102
}
330
29B
100
AcDbXrecord
280
     1
290
     1
  0
XRECORD
  5
7B
102
{ACAD_REACTORS
330
7A
102
}
330
7A
100
AcDbXrecord
280
     1
290
     1
  0
XRECORD
  5
A3
102
{ACAD_REACTORS
330
A2
102
}
330
A2
100
AcDbXrecord
280
     1
290
     1
  0
XRECORD
  5
E3
102
{ACAD_REACTORS
330
E2
102
}
330
E2
100
AcDbXrecord
280
     1
290
     1
  0
XRECORD
  5
30C
102
{ACAD_REACTORS
330
30B
102
}
330
30B
100
AcDbXrecord
280
     1
290
     1
  0
XRECORD
  5
50
102
{ACAD_REACTORS
330
4F
102
}
330
4F
100
AcDbXrecord
280
     1
290
     1
  0
XRECORD
  5
CD
102
{ACAD_REACTORS
330
CC
102
}
330
CC
100
AcDbXrecord
280
     1
290
     1
  0
SORTENTSTABLE
  5
418
102
{ACAD_REACTORS
330
3
102
}
330
3
100
AcDbSortentsTable
330
2
331
400
  5
2B8
331
2B8
  5
400
331
389
  5
2CD
331
3C1
  5
2C7
331
37A
  5
2F6
331
3F1
  5
2BB
331
412
  5
255
331
332
  5
328
331
3D3
  5
2C1
331
403
  5
27A
331
3C4
  5
2C4
331
8C
  5
414
331
255
  5
412
331
26D
  5
410
331
415
  5
78
331
36E
  5
2F7
331
335
  5
319
331
3D6
  5
2BE
331
2BE
  5
3D6
331
2CD
  5
389
331
2BB
  5
3F1
331
9B
  5
413
331
2C1
  5
3D3
331
2F9
  5
353
331
362
  5
2F8
331
353
  5
2F9
331
2C4
  5
3C4
331
2C7
  5
3C1
331
32F
  5
32B
331
32C
  5
32E
331
3A4
  5
2CA
331
31A
  5
334
331
329
  5
331
331
2F6
  5
37A
331
2CA
  5
3A4
331
410
  5
26D
331
2C8
  5
3C0
331
330
  5
32A
331
3D1
  5
2C3
331
78
  5
415
331
401
  5
2AB
331
38A
  5
2CC
331
3C2
  5
2C6
331
27A
  5
403
331
3E3
  5
2BD
331
3F2
  5
2BA
331
413
  5
9B
331
333
  5
31B
331
3D4
  5
2C0
331
336
  5
318
331
2BF
  5
3D5
331
2BC
  5
3F0
331
2F7
  5
36E
331
2CB
  5
397
331
3B1
  5
2C9
331
351
  5
309
331
2C2
  5
3D2
331
2FA
  5
352
331
309
  5
351
331
2C5
  5
3C3
331
2DC
  5
388
331
387
  5
2E9
331
31B
  5
333
331
32A
  5
330
331
318
  5
336
331
2B9
  5
3FF
331
388
  5
2DC
331
3C0
  5
2C8
331
411
  5
260
331
2C9
  5
3B1
331
331
  5
329
331
3D2
  5
2C2
331
402
  5
287
331
3C3
  5
2C5
331
2AB
  5
401
331
414
  5
8C
331
334
  5
31A
331
3D5
  5
2BF
331
260
  5
411
331
2C0
  5
3D4
331
2BD
  5
3E3
331
328
  5
332
331
2E9
  5
387
331
2F8
  5
362
331
2CC
  5
38A
331
2C3
  5
3D1
331
352
  5
2FA
331
2C6
  5
3C2
331
3FF
  5
2B9
331
397
  5
2CB
331
32E
  5
32C
331
32B
  5
32F
331
287
  5
402
331
319
  5
335
331
2BA
  5
3F2
331
3F0
  5
2BC
  0
SORTENTSTABLE
  5
417
102
{ACAD_REACTORS
330
33B
102
}
330
33B
100
AcDbSortentsTable
330
33A
  0
SORTENTSTABLE
  5
416
102
{ACAD_REACTORS
330
9D
102
}
330
9D
100
AcDbSortentsTable
330
9C
  0
LAYOUT
  5
1E
102
{ACAD_REACTORS
330
18
102
}
330
18
100
AcDbPlotSettings
  1

  2
HP LaserJet 4 Plus
  4

  6

 40
0.0
 41
0.0
 42
0.0
 43
0.0
 44
0.0
 45
0.0
 46
0.0
 47
0.0
 48
0.0
 49
0.0
140
0.0
141
0.0
142
1.0
143
1.0
 70
   688
 72
     0
 73
     0
 74
     5
  7
CNC-Soft.ctb
 75
    16
147
1.0
 76
     0
 77
     2
 78
   300
148
0.0
149
0.0
100
AcDbLayout
  1
Layout1
 70
     0
 71
     1
 10
0.0
 20
0.0
 11
12.0
 21
9.0
 12
0.0
 22
0.0
 32
0.0
 14
1.000000000000000E+20
 24
1.000000000000000E+20
 34
1.000000000000000E+20
 15
-1.000000000000000E+20
 25
-1.000000000000000E+20
 35
-1.000000000000000E+20
146
0.0
 13
0.0
 23
0.0
 33
0.0
 16
1.0
 26
0.0
 36
0.0
 17
0.0
 27
1.0
 37
0.0
 76
     0
330
1B
  0
LAYOUT
  5
17
102
{ACAD_XDICTIONARY
360
19
102
}
102
{ACAD_REACTORS
330
18
102
}
330
18
100
AcDbPlotSettings
  1

  2
HP LaserJet 4 Plus
  4
A4
  6

 40
6.805083274841308
 41
5.069413185119628
 42
6.805084228515625
 43
5.027069091796875
 44
209.9733276367187
 45
296.9683227539062
 46
0.0
 47
0.0
 48
0.0
 49
0.0
140
0.0
141
0.0
142
1.0
143
3.781489960231147
 70
 11952
 72
     1
 73
     1
 74
     1
  7
CNC-Soft.ctb
 75
     0
147
0.2644460280251211
 76
     0
 77
     2
 78
   300
148
0.0320410123467809
149
0.0226575730166587
100
AcDbLayout
  1
Model
 70
     1
 71
     0
 10
0.0
 20
0.0
 11
12.0
 21
9.0
 12
0.0
 22
0.0
 32
0.0
 14
0.0
 24
0.0
 34
0.0
 15
0.0
 25
0.0
 35
0.0
146
0.0
 13
0.0
 23
0.0
 33
0.0
 16
1.0
 26
0.0
 36
0.0
 17
0.0
 27
1.0
 37
0.0
 76
     0
330
2
331
2B
  0
MATERIAL
  5
42
102
{ACAD_XDICTIONARY
360
43
102
}
102
{ACAD_REACTORS
330
D
102
}
330
D
100
AcDbMaterial
  1
ByBlock
 72
     0
 43
0.0208333333333333
 43
0.0
 43
0.0
 43
0.0
 43
0.0
 43
0.0208333333333333
 43
0.0
 43
0.0
 43
0.0
 43
0.0
 43
1.0
 43
0.0
 43
0.0
 43
0.0
 43
0.0
 43
1.0
 77
     0
 47
0.0208333333333333
 47
0.0
 47
0.0
 47
0.0
 47
0.0
 47
0.0208333333333333
 47
0.0
 47
0.0
 47
0.0
 47
0.0
 47
1.0
 47
0.0
 47
0.0
 47
0.0
 47
0.0
 47
1.0
171
     0
 49
0.0208333333333333
 49
0.0
 49
0.0
 49
0.0
 49
0.0
 49
0.0208333333333333
 49
0.0
 49
0.0
 49
0.0
 49
0.0
 49
1.0
 49
0.0
 49
0.0
 49
0.0
 49
0.0
 49
1.0
175
     0
142
0.0208333333333333
142
0.0
142
0.0
142
0.0
142
0.0
142
0.0208333333333333
142
0.0
142
0.0
142
0.0
142
0.0
142
1.0
142
0.0
142
0.0
142
0.0
142
0.0
142
1.0
179
     0
144
0.0208333333333333
144
0.0
144
0.0
144
0.0
144
0.0
144
0.0208333333333333
144
0.0
144
0.0
144
0.0
144
0.0
144
1.0
144
0.0
144
0.0
144
0.0
144
0.0
144
1.0
147
0.0208333333333333
147
0.0
147
0.0
147
0.0
147
0.0
147
0.0208333333333333
147
0.0
147
0.0
147
0.0
147
0.0
147
1.0
147
0.0
147
0.0
147
0.0
147
0.0
147
1.0
  0
MATERIAL
  5
3A
102
{ACAD_XDICTIONARY
360
3B
102
}
102
{ACAD_REACTORS
330
D
102
}
330
D
100
AcDbMaterial
  1
ByLayer
 72
     0
 43
0.0208333333333333
 43
0.0
 43
0.0
 43
0.0
 43
0.0
 43
0.0208333333333333
 43
0.0
 43
0.0
 43
0.0
 43
0.0
 43
1.0
 43
0.0
 43
0.0
 43
0.0
 43
0.0
 43
1.0
 77
     0
 47
0.0208333333333333
 47
0.0
 47
0.0
 47
0.0
 47
0.0
 47
0.0208333333333333
 47
0.0
 47
0.0
 47
0.0
 47
0.0
 47
1.0
 47
0.0
 47
0.0
 47
0.0
 47
0.0
 47
1.0
171
     0
 49
0.0208333333333333
 49
0.0
 49
0.0
 49
0.0
 49
0.0
 49
0.0208333333333333
 49
0.0
 49
0.0
 49
0.0
 49
0.0
 49
1.0
 49
0.0
 49
0.0
 49
0.0
 49
0.0
 49
1.0
175
     0
142
0.0208333333333333
142
0.0
142
0.0
142
0.0
142
0.0
142
0.0208333333333333
142
0.0
142
0.0
142
0.0
142
0.0
142
1.0
142
0.0
142
0.0
142
0.0
142
0.0
142
1.0
179
     0
144
0.0208333333333333
144
0.0
144
0.0
144
0.0
144
0.0
144
0.0208333333333333
144
0.0
144
0.0
144
0.0
144
0.0
144
1.0
144
0.0
144
0.0
144
0.0
144
0.0
144
1.0
147
0.0208333333333333
147
0.0
147
0.0
147
0.0
147
0.0
147
0.0208333333333333
147
0.0
147
0.0
147
0.0
147
0.0
147
1.0
147
0.0
147
0.0
147
0.0
147
0.0
147
1.0
  0
MATERIAL
  5
C
102
{ACAD_XDICTIONARY
360
E
102
}
102
{ACAD_REACTORS
330
D
102
}
330
D
100
AcDbMaterial
  1
Global
 72
     0
 43
0.0208333333333333
 43
0.0
 43
0.0
 43
0.0
 43
0.0
 43
0.0208333333333333
 43
0.0
 43
0.0
 43
0.0
 43
0.0
 43
1.0
 43
0.0
 43
0.0
 43
0.0
 43
0.0
 43
1.0
 77
     0
 47
0.0208333333333333
 47
0.0
 47
0.0
 47
0.0
 47
0.0
 47
0.0208333333333333
 47
0.0
 47
0.0
 47
0.0
 47
0.0
 47
1.0
 47
0.0
 47
0.0
 47
0.0
 47
0.0
 47
1.0
171
     0
 49
0.0208333333333333
 49
0.0
 49
0.0
 49
0.0
 49
0.0
 49
0.0208333333333333
 49
0.0
 49
0.0
 49
0.0
 49
0.0
 49
1.0
 49
0.0
 49
0.0
 49
0.0
 49
0.0
 49
1.0
175
     0
142
0.0208333333333333
142
0.0
142
0.0
142
0.0
142
0.0
142
0.0208333333333333
142
0.0
142
0.0
142
0.0
142
0.0
142
1.0
142
0.0
142
0.0
142
0.0
142
0.0
142
1.0
179
     0
144
0.0208333333333333
144
0.0
144
0.0
144
0.0
144
0.0
144
0.0208333333333333
144
0.0
144
0.0
144
0.0
144
0.0
144
1.0
144
0.0
144
0.0
144
0.0
144
0.0
144
1.0
147
0.0208333333333333
147
0.0
147
0.0
147
0.0
147
0.0
147
0.0208333333333333
147
0.0
147
0.0
147
0.0
147
0.0
147
1.0
147
0.0
147
0.0
147
0.0
147
0.0
147
1.0
  0
MLINESTYLE
  5
52
102
{ACAD_REACTORS
330
38
102
}
330
38
100
AcDbMlineStyle
  2
STANDARD
 70
     0
  3

 62
   256
 51
90.0
 52
90.0
 71
     2
 49
0.5
 62
   256
  6
BYLAYER
 49
-0.5
 62
   256
  6
BYLAYER
  0
ACDBPLACEHOLDER
  5
9
102
{ACAD_REACTORS
330
A
102
}
330
A
  0
SCALE
  5
57
102
{ACAD_REACTORS
330
4B
102
}
330
4B
100
AcDbScale
 70
     0
300
1:1
140
1.0
141
1.0
290
     1
  0
SCALE
  5
58
102
{ACAD_REACTORS
330
4B
102
}
330
4B
100
AcDbScale
 70
     0
300
1:2
140
1.0
141
2.0
290
     0
  0
SCALE
  5
59
102
{ACAD_REACTORS
330
4B
102
}
330
4B
100
AcDbScale
 70
     0
300
1:4
140
1.0
141
4.0
290
     0
  0
SCALE
  5
5A
102
{ACAD_REACTORS
330
4B
102
}
330
4B
100
AcDbScale
 70
     0
300
1:5
140
1.0
141
5.0
290
     0
  0
SCALE
  5
5B
102
{ACAD_REACTORS
330
4B
102
}
330
4B
100
AcDbScale
 70
     0
300
1:8
140
1.0
141
8.0
290
     0
  0
SCALE
  5
5C
102
{ACAD_REACTORS
330
4B
102
}
330
4B
100
AcDbScale
 70
     0
300
1:10
140
1.0
141
10.0
290
     0
  0
SCALE
  5
5D
102
{ACAD_REACTORS
330
4B
102
}
330
4B
100
AcDbScale
 70
     0
300
1:16
140
1.0
141
16.0
290
     0
  0
SCALE
  5
5E
102
{ACAD_REACTORS
330
4B
102
}
330
4B
100
AcDbScale
 70
     0
300
1:20
140
1.0
141
20.0
290
     0
  0
SCALE
  5
5F
102
{ACAD_REACTORS
330
4B
102
}
330
4B
100
AcDbScale
 70
     0
300
1:30
140
1.0
141
30.0
290
     0
  0
SCALE
  5
60
102
{ACAD_REACTORS
330
4B
102
}
330
4B
100
AcDbScale
 70
     0
300
1:40
140
1.0
141
40.0
290
     0
  0
SCALE
  5
61
102
{ACAD_REACTORS
330
4B
102
}
330
4B
100
AcDbScale
 70
     0
300
1:50
140
1.0
141
50.0
290
     0
  0
SCALE
  5
62
102
{ACAD_REACTORS
330
4B
102
}
330
4B
100
AcDbScale
 70
     0
300
1:100
140
1.0
141
100.0
290
     0
  0
SCALE
  5
63
102
{ACAD_REACTORS
330
4B
102
}
330
4B
100
AcDbScale
 70
     0
300
2:1
140
2.0
141
1.0
290
     0
  0
SCALE
  5
64
102
{ACAD_REACTORS
330
4B
102
}
330
4B
100
AcDbScale
 70
     0
300
4:1
140
4.0
141
1.0
290
     0
  0
SCALE
  5
65
102
{ACAD_REACTORS
330
4B
102
}
330
4B
100
AcDbScale
 70
     0
300
8:1
140
8.0
141
1.0
290
     0
  0
SCALE
  5
66
102
{ACAD_REACTORS
330
4B
102
}
330
4B
100
AcDbScale
 70
     0
300
10:1
140
10.0
141
1.0
290
     0
  0
SCALE
  5
67
102
{ACAD_REACTORS
330
4B
102
}
330
4B
100
AcDbScale
 70
     0
300
100:1
140
100.0
141
1.0
290
     0
  0
SCALE
  5
68
102
{ACAD_REACTORS
330
4B
102
}
330
4B
100
AcDbScale
 70
     0
300
1/128" = 1'-0"
140
0.0078125
141
12.0
290
     0
  0
SCALE
  5
69
102
{ACAD_REACTORS
330
4B
102
}
330
4B
100
AcDbScale
 70
     0
300
1/64" = 1'-0"
140
0.015625
141
12.0
290
     0
  0
SCALE
  5
6A
102
{ACAD_REACTORS
330
4B
102
}
330
4B
100
AcDbScale
 70
     0
300
1/32" = 1'-0"
140
0.03125
141
12.0
290
     0
  0
SCALE
  5
6B
102
{ACAD_REACTORS
330
4B
102
}
330
4B
100
AcDbScale
 70
     0
300
1/16" = 1'-0"
140
0.0625
141
12.0
290
     0
  0
SCALE
  5
6C
102
{ACAD_REACTORS
330
4B
102
}
330
4B
100
AcDbScale
 70
     0
300
3/32" = 1'-0"
140
0.09375
141
12.0
290
     0
  0
SCALE
  5
6D
102
{ACAD_REACTORS
330
4B
102
}
330
4B
100
AcDbScale
 70
     0
300
1/8" = 1'-0"
140
0.125
141
12.0
290
     0
  0
SCALE
  5
6E
102
{ACAD_REACTORS
330
4B
102
}
330
4B
100
AcDbScale
 70
     0
300
3/16" = 1'-0"
140
0.1875
141
12.0
290
     0
  0
SCALE
  5
6F
102
{ACAD_REACTORS
330
4B
102
}
330
4B
100
AcDbScale
 70
     0
300
1/4" = 1'-0"
140
0.25
141
12.0
290
     0
  0
SCALE
  5
70
102
{ACAD_REACTORS
330
4B
102
}
330
4B
100
AcDbScale
 70
     0
300
3/8" = 1'-0"
140
0.375
141
12.0
290
     0
  0
SCALE
  5
71
102
{ACAD_REACTORS
330
4B
102
}
330
4B
100
AcDbScale
 70
     0
300
1/2" = 1'-0"
140
0.5
141
12.0
290
     0
  0
SCALE
  5
72
102
{ACAD_REACTORS
330
4B
102
}
330
4B
100
AcDbScale
 70
     0
300
3/4" = 1'-0"
140
0.75
141
12.0
290
     0
  0
SCALE
  5
73
102
{ACAD_REACTORS
330
4B
102
}
330
4B
100
AcDbScale
 70
     0
300
1" = 1'-0"
140
1.0
141
12.0
290
     0
  0
SCALE
  5
74
102
{ACAD_REACTORS
330
4B
102
}
330
4B
100
AcDbScale
 70
     0
300
1-1/2" = 1'-0"
140
1.5
141
12.0
290
     0
  0
SCALE
  5
75
102
{ACAD_REACTORS
330
4B
102
}
330
4B
100
AcDbScale
 70
     0
300
3" = 1'-0"
140
3.0
141
12.0
290
     0
  0
SCALE
  5
76
102
{ACAD_REACTORS
330
4B
102
}
330
4B
100
AcDbScale
 70
     0
300
6" = 1'-0"
140
6.0
141
12.0
290
     0
  0
SCALE
  5
77
102
{ACAD_REACTORS
330
4B
102
}
330
4B
100
AcDbScale
 70
     0
300
1'-0" = 1'-0"
140
12.0
141
12.0
290
     0
  0
TABLESTYLE
  5
53
102
{ACAD_XDICTIONARY
360
54
102
}
102
{ACAD_REACTORS
330
4C
102
}
330
4C
100
AcDbTableStyle
280
     0
  3
Standard
 70
     0
 71
     0
 40
0.06
 41
0.06
280
     0
281
     0
  7
STANDARD
140
0.18
170
     2
 62
     0
 63
     7
283
     0
 90
      512
 91
        0
  1

274
    -2
284
     1
 64
     0
275
    -2
285
     1
 65
     0
276
    -2
286
     1
 66
     0
277
    -2
287
     1
 67
     0
278
    -2
288
     1
 68
     0
279
    -2
289
     1
 69
     0
  7
STANDARD
140
0.25
170
     5
 62
     0
 63
     7
283
     0
 90
      512
 91
        0
  1

274
    -2
284
     1
 64
     0
275
    -2
285
     1
 65
     0
276
    -2
286
     1
 66
     0
277
    -2
287
     1
 67
     0
278
    -2
288
     1
 68
     0
279
    -2
289
     1
 69
     0
  7
STANDARD
140
0.18
170
     5
 62
     0
 63
     7
283
     0
 90
      512
 91
        0
  1

274
    -2
284
     1
 64
     0
275
    -2
285
     1
 65
     0
276
    -2
286
     1
 66
     0
277
    -2
287
     1
 67
     0
278
    -2
288
     1
 68
     0
279
    -2
289
     1
 69
     0
  0
VISUALSTYLE
  5
2C
102
{ACAD_REACTORS
330
2D
102
}
330
2D
100
AcDbVisualStyle
  2
2dWireframe
 70
     4
177
     2
291
     0
 71
     0
176
     1
 72
     2
176
     1
 73
     0
176
     1
 90
        0
176
     1
 40
0.6
176
     1
 41
30.0
176
     1
 63
     7
176
     1
 74
     1
176
     1
 91
        4
176
     1
 64
     7
176
     1
 65
   257
176
     1
 75
     1
176
     1
175
     1
176
     1
 42
1.0
176
     1
 92
        0
176
     1
 66
   257
176
     1
 43
1.0
176
     1
 76
     1
176
     1
 77
     6
176
     1
 78
     2
176
     1
 67
     7
176
     1
 79
     5
176
     1
170
     0
176
     1
171
     0
176
     1
290
     0
176
     1
 93
        1
176
     1
 44
0.0
176
     1
173
     0
176
     1
  0
VISUALSTYLE
  5
56
102
{ACAD_REACTORS
330
2D
102
}
330
2D
100
AcDbVisualStyle
  2
3dWireframe
 70
     5
177
     2
291
     0
 71
     0
176
     1
 72
     2
176
     1
 73
     0
176
     1
 90
        0
176
     1
 40
0.6
176
     1
 41
30.0
176
     1
 63
     7
176
     1
 74
     1
176
     1
 91
        4
176
     1
 64
     7
176
     1
 65
   257
176
     1
 75
     1
176
     1
175
     1
176
     1
 42
1.0
176
     1
 92
        0
176
     1
 66
   257
176
     1
 43
1.0
176
     1
 76
     1
176
     1
 77
     6
176
     1
 78
     2
176
     1
 67
     7
176
     1
 79
     5
176
     1
170
     0
176
     1
171
     0
176
     1
290
     0
176
     1
 93
        1
176
     1
 44
0.0
176
     1
173
     0
176
     1
  0
VISUALSTYLE
  5
55
102
{ACAD_REACTORS
330
2D
102
}
330
2D
100
AcDbVisualStyle
  2
Realistic
 70
     8
177
     2
291
     0
 71
     2
176
     1
 72
     2
176
     1
 73
     0
176
     1
 90
        0
176
     1
 40
0.6
176
     1
 41
30.0
176
     1
 63
     7
176
     1
 74
     1
176
     1
 91
        0
176
     1
 64
     7
176
     1
 65
   257
176
     1
 75
     1
176
     1
175
     1
176
     1
 42
1.0
176
     1
 92
        8
176
     1
 66
     8
176
     1
 43
1.0
176
     1
 76
     1
176
     1
 77
     6
176
     1
 78
     2
176
     1
 67
     7
176
     1
 79
     5
176
     1
170
     0
176
     1
171
     0
176
     1
290
     0
176
     1
 93
       13
176
     1
 44
0.0
176
     1
173
     0
176
     1
  0
DICTIONARYVAR
  5
41D
102
{ACAD_REACTORS
330
419
102
}
330
419
100
DictionaryVariables
280
     0
  1
1:1
  0
DICTIONARYVAR
  5
41B
102
{ACAD_REACTORS
330
419
102
}
330
419
100
DictionaryVariables
280
     0
  1
STANDARD
  0
DICTIONARYVAR
  5
41A
102
{ACAD_REACTORS
330
419
102
}
330
419
100
DictionaryVariables
280
     0
  1
STANDARD
  0
DICTIONARYVAR
  5
41F
102
{ACAD_REACTORS
330
419
102
}
330
419
100
DictionaryVariables
280
     0
  1
1
  0
DICTIONARYVAR
  5
420
102
{ACAD_REACTORS
330
419
102
}
330
419
100
DictionaryVariables
280
     0
  1
15
  0
DICTIONARYVAR
  5
41E
102
{ACAD_REACTORS
330
419
102
}
330
419
100
DictionaryVariables
280
     0
  1
0
  0
DICTIONARYVAR
  5
41C
102
{ACAD_REACTORS
330
419
102
}
330
419
100
DictionaryVariables
280
     0
  1
0
  0
DICTIONARY
  5
19
330
17
100
AcDbDictionary
280
     1
281
     1
  3
ADSK_XREC_LAYOUTTHUMBNAIL
360
1A
  0
DICTIONARY
  5
43
330
42
100
AcDbDictionary
280
     1
281
     1
  3
BUMPTILE
360
44
  3
DIFFUSETILE
360
45
  3
OPACITYTILE
360
46
  3
REFLECTIONTILE
360
47
  3
REFRACTIONTILE
360
48
  3
SPECULARTILE
360
49
  0
DICTIONARY
  5
3B
330
3A
100
AcDbDictionary
280
     1
281
     1
  3
BUMPTILE
360
3C
  3
DIFFUSETILE
360
3D
  3
OPACITYTILE
360
3E
  3
REFLECTIONTILE
360
3F
  3
REFRACTIONTILE
360
40
  3
SPECULARTILE
360
41
  0
DICTIONARY
  5
E
330
C
100
AcDbDictionary
280
     1
281
     1
  3
BUMPTILE
360
F
  3
DIFFUSETILE
360
10
  3
OPACITYTILE
360
11
  3
REFLECTIONTILE
360
12
  3
REFRACTIONTILE
360
13
  3
SPECULARTILE
360
14
  0
DICTIONARY
  5
54
330
53
100
AcDbDictionary
280
     1
281
     1
  3
ACAD_ROUNDTRIP_2008_TABLESTYLE_CELLSTYLEMAP
360
421
  0
XRECORD
  5
1A
102
{ACAD_REACTORS
330
19
102
}
330
19
100
AcDbXrecord
280
     1
310
28000000000100008D0000000100080000000000008D0000000000000000000000010000000000003028210000000000FFFFFF000000000000000000000000000000000000000000000000000000000000000000330000006600000099000000CC000000FF00000000330000333300006633000099330000CC330000FF3300
310
0000660000336600006666000099660000CC660000FF66000000990000339900006699000099990000CC990000FF99000000CC000033CC000066CC000099CC0000CCCC0000FFCC000000FF000033FF000066FF000099FF0000CCFF0000FFFF000000003300330033006600330099003300CC003300FF003300003333003333
310
33006633330099333300CC333300FF33330000663300336633006666330099663300CC663300FF66330000993300339933006699330099993300CC993300FF99330000CC330033CC330066CC330099CC3300CCCC3300FFCC330000FF330033FF330066FF330099FF3300CCFF3300FFFF330000006600330066006600660099
310
006600CC006600FF00660000336600333366006633660099336600CC336600FF33660000666600336666006666660099666600CC666600FF66660000996600339966006699660099996600CC996600FF99660000CC660033CC660066CC660099CC6600CCCC6600FFCC660000FF660033FF660066FF660099FF6600CCFF6600
310
FFFF660000009900330099006600990099009900CC009900FF00990000339900333399006633990099339900CC339900FF33990000669900336699006666990099669900CC669900FF66990000999900339999006699990099999900CC999900FF99990000CC990033CC990066CC990099CC9900CCCC9900FFCC990000FF99
310
0033FF990066FF990099FF9900CCFF9900FFFF99000000CC003300CC006600CC009900CC00CC00CC00FF00CC000033CC003333CC006633CC009933CC00CC33CC00FF33CC000066CC003366CC006666CC009966CC00CC66CC00FF66CC000099CC003399CC006699CC009999CC00CC99CC00FF99CC0000CCCC0033CCCC0066CC
310
CC0099CCCC00CCCCCC00FFCCCC0000FFCC0033FFCC0066FFCC0099FFCC00CCFFCC00FFFFCC000000FF003300FF006600FF009900FF00CC00FF00FF00FF000033FF003333FF006633FF009933FF00CC33FF00FF33FF000066FF003366FF006666FF009966FF00CC66FF00FF66FF000099FF003399FF006699FF009999FF00CC
310
99FF00FF99FF0000CCFF0033CCFF0066CCFF0099CCFF00CCCCFF00FFCCFF0000FFFF0033FFFF0066FFFF0099FFFF00CCFFFF00FFFFFF00000000000D0D0D001A1A1A00282828003535350043434300505050005D5D5D006B6B6B00787878008686860093939300A1A1A100AEAEAE00BBBBBB00C9C9C900D6D6D600E4E4E400
310
F1F1F100FFFFFF000000000000000000000000000000000000000000000000000000000000000000000000000000000000000000000000000000000000000000000000000000000000000000000000000000000000000000000000000000000000000000000000000000000000000000000000000000000000000000000000
310
00000000000000000000000000000000000000000000000000000000000000000000000000000000000000000000000000000000000000000000000000000000000000000000000000000000000000000000000000000000000000000000000000000000000000000000000000000000000000000000000000000000000000
310
00000000000000000000000000000000000000000000000000000000000000000000000000000000000000000000000000000000000000000000000000000000000000000000000000000000000000000000000000000000000000000000000000000000000000000000000000000000000000000000000000000000000000
310
00000000000000000000000000000000000000000000000000000000000000000000000000000000000000000000000000000000000000000000000000000000000000000000000000000000000000000000000000000000000000000000000000000000000000000000000000000000000000000000000000000000000000
310
00000000000000000000000000000000000000000000000000000000000000000000000000000000000000000000000000000000000000000000000000000000000000000000000000000000000000000000000000000000000000000000000000000000000000000000000000000000000000000000000000000000000000
310
00000000000000000000000000000000000000000000000000000000000000000000000000000000000000000000000000000000000000000000000000000000000000000000000000000000000000000000000000000000000000000000000000000000000000000000000000000000000000000000000000000000000000
310
00000000000000000000000000000000000000000000000000000000000000000000000000000000000000000000000000000000000000000000000000000000000000000000000000000000000000000000000000000000000000000000000000000000000000000000000000000000000000000000000000000000000000
310
00000000000000000000000000000000000000000000000000000000000000000000000000000000000000000000000000000000000000000000000000000000000000000000000000000000000000000000000000000000000000000000000000000000000000000000000000000000000000000000000000000000000000
310
00000000000000000000000000000000000000000000000000000000000000000000000000000000000000000000000000000000000000000000000000000000000000000000000000000000000000000000000000000000000000000000000000000000000000000000000000000000000000000000000000000000000000
310
00000000000000000000000000000000000000000000000000000000000000000000000000000000000000000000000000000000000000000000000000000000000000000000000000000000000000000000000000000000000000000000000000000000000000000000000000000000000000000000000000000000000000
310
00000000000000000000000000000000000000000000000000000000000000000000000000000000000000000000000000000000000000000000000000000000000000000000000000000000000000000000000000000000000000000000000000000000000000000000000000000000000000000000000000000000000000
310
00000000000000000000000000000000000000000000000000000000000000000000000000000000000000000000000000000000000000000000000000000000000000000000000000000000000000000000000000000000000000000000000000000000000000000000000000000000000000000000000000000000000000
310
00000000000000000000000000000000000000000000000000000000000000000000000000000000000000000000000000000000000000000000000000000000000000000000000000000000000000000000000000000000000000000000000000000000000000000000000000000000000000000000000000000000000000
310
00000000000000000000000000000000000000000000000000000000000000000000000000000000000000000000000000000000000000000000000000000000000000000000000000000000000000000000000000000000000000000000000000000000000000000000000000000000000000000000000000000000000000
310
00000000000000000000000000000000000000000000000000000000000000000000000000000000000000000000000000000000000000000000000000000000000000000000000000000000000000000000000000000000000000000000000000000000000000000000000000000000000000000000000000000000000000
310
00000000000000000000000000000000000000000000000000000000000000000000000000000000000000000000000000000000000000000000000000000000000000000000000000000000000000000000000000000000000000000000000000000000000000000000000000000000000000000000000000000000000000
310
00000000000000000000000000000000000000000000000000000000000000000000000000000000000000000000000000000000000000000000000000000000000000000000000000000000000000000000000000000000000000000000000000000000000000000000000000000000000000000000000000000000000000
310
00000000000000000000000000000000000000000000000000000000000000000000000000000000000000000000000000000000000000000000000000000000000000000000000000000000000000000000000000000000000000000000000000000000000000000000000000000000000000000000000000000000000000
310
00000000000000000000000000000000000000000000000000000000000000000000000000000000000000000000000000000000000000000000000000000000000000000000000000000000000000000000000000000000000000000000000000000000000000000000000000000000000000000000000000000000000000
310
00000000000000000000000000000000000000000000000000000000000000000000000000000000000000000000000000000000000000000000000000000000000000000000000000000000000000000000000000000000000000000000000000000000000000000000000000000000000000000000000000000000000000
310
00000000000000000000000000000000000000000000000000000000000000000000000000000000000000000000000000000000000000000000000000000000000000000000000000000000000000000000000000000000000000000000000000000000000000000000000000000000000000000000000000000000000000
310
00000000000000000000000000000000000000000000000000000000000000000000000000000000000000000000000000000000000000000000000000000000000000000000000000000000000000000000000000000000000000000000000000000000000000000000000000000000000000000000000000000000000000
310
00000000000000000000000000000000000000000000000000000000000000000000000000000000000000000000000000000000000000000000000000000000000000000000000000000000000000000000000000000000000000000000000000000000000000000000000000000000000000000000000000000000000000
310
00000000000000000000000000000000000000000000000000000000000000000000000000000000000000000000000000000000000000000000000000000000000000000000000000000000000000000000000000000000000000000000000000000000000000000000000000000000000000000000000000000000000000
310
00000000000000000000000000000000000000000000000000000000000000000000000000000000000000000000000000000000000000000000000000000000000000000000000000000000000000000000000000000000000000000000000000000000000000000000000000000000000000000000000000000000000000
310
00000000000000000000000000000000000000000000000000000000000000000000000000000000000000000000000000000000000000000000000000000000000000000000000000000000000000000000000000000000000000000000000000000000000000000000000000000000000000000000000000000000000000
310
00000000000000000000000000000000000000000000000000000000000000000000000000000000000000000000000000000000000000000000000000000000000000000000000000000000000000000000000000000000000000000000000000000000000000000000000000000000000000000000000000000000000000
310
00000000000000000000000000000000000000000000000000000000000000000000000000000000000000000000000000000000000000000000000000000000000000000000000000000000000000000000000000000000000000000000000000000000000000000000000000000000000000000000000000000000000000
310
00000000000000000000000000000000000000000000000000000000000000000000000000000000000000000000000000000000000000000000000000000000000000000000000000000000000000000000000000000000000000000000000000000000000000000000000000000000000000000000000000000000000000
310
00000000000000000000000000000000000000000000000000000000000000000000000000000000000000000000000000000000000000000000000000000000000000000000000000000000000000000000000000000000000000000000000000000000000000000000000000000000000000000000000000000000000000
310
00000000000000000000000000000000000000000000000000000000000000000000000000000000000000000000000000000000000000000000000000000000000000000000000000000000000000000000000000000000000000000000000000000000000000000000000000000000000000000000000000000000000000
310
00000000000000000000000000000000000000000000000000000000000000000000000000000000000000000000000000000000000000000000000000000000000000000000000000000000000000000000000000000000000000000000000000000000000000000000000000000000000000000000000000000000000000
310
00000000000000000000000000000000000000000000000000000000000000000000000000000000000000000000000000000000000000000000000000000000000000000000000000000000000000000000000000000000000000000000000000000000000000000000000000000000000000000000000000000000000000
310
00000000000000000000000000000000000000000000000000000000000000000000000000000000000000000000000000000000000000000000000000000000000000000000000000000000000000000000000000000000000000000000000000000000000000000000000000000000000000000000000000000000000000
310
00000000000000000000000000000000000000000000000000000000000000000000000000000000000000000000000000000000000000000000000000000000000000000000000000000000000000000000000000000000000000000000000000000000000000000000000000000000000000000000000000000000000000
310
00000000000000000000000000000000000000000000000000000000000000000000000000000000000000000000000000000000000000000000000000000000000000000000000000000000000000000000000000000000000000000000000000000000000000000000000000000000000000000000000000000000000000
310
00000000000000000000000000000000000000000000000000000000000000000000000000000000000000000000000000000000000000000000000000000000000000000000000000000000000000000000000000000000000000000000000000000000000000000000000000000000000000000000000000000000000000
310
00000000000000000000000000000000000000000000000000000000000000000000000000000000000000000000000000000000000000000000000000000000000000000000000000000000000000000000000000000000000000000000000000000000000000000000000000000000000000000000000000000000000000
310
00000000000000000000000000000000000000000000000000000000000000000000000000000000000000000000000000000000000000000000000000000000000000000000000000000000000000000000000000000000000000000000000000000000000000000000000000000000000000000000000000000000000000
310
000000000000000000000000000000000000000000000000000000000000000000000000000000000000000000000000000000000000000000000000000000BEBEBEBEBEBEBEBEBEBEBEBEBEBEBEBEBEBEBEBEBEBEBEBEBEBEBEBEBEBEBEBEBEBEBEBEBEBEBEBEBEBEBEBEBEBEBEBEBEBEBEBEBEBEBEBEBEBEBEBEBEBEBEBE
310
BEBEBEBEBEBEBEBEBEBEBEBEBEBEBEBEBEBEBEBEBEBEBEBEBEBEBEBEBEBEBEBEBEBEBEBEBE000000000000000000000000000000000000000000000000000000000000000000000000000000000000000000000000000000000000000000000000000000000000000000000000000000000000000000000000000000000000
310
0000000000000000000000000000000000000000000000000000000000000000000000000000000000000000000000000000000000000000000000000000000000BE00000000000000000000000000000000000000000000000000000000000000000000000000000000000000000000000000000000000000000000000000
310
0000000000000000000000000000000000000000000000000000000000000000000000000000BE00000000000000000000000000000000000000000000000000000000000000000000000000000000000000000000000000000000000000000000000000000000000000000000000000000000000000000000000000000000
310
00000000000000000000000000000000000000000000000000000000000000000000000000000000000000000000000000000000000000000000000000000000000000BEDCDCDCDCDCDCDCDCDCDCDCDCDCDCDCDCDCDCDCDCDCDCDCDCDCDCDCDCDCDCDCDCDCDCDCDCDCDCDCDCDCDCDCDCDCDCDCDCDCDCDCDCDCDCDCDCDCDCDC
310
DCDCDCDCDCDCDCDCDCDCBEBEBEBEBEDCDCDCDCDCDCDCDCDCDCDCDCDCDCDCDCDCBEBEBEBEBEDCDC00BE0000000000000000000000000000000000000000000000000000000000000000000000000000000000000000000000000000000000000000000000000000000000000000000000000000000000000000000000000000
310
000000000000000000000000000000000000000000000000000000000000000000000000000000000000000000000000000000000000000000000000000000000000000000BEDC00000000000000000000000000000000000000000000000000000000000000000000000000000000000000000000000000000000DCF5F5F5
310
DCDCDCF5F5F5F5DCDC000000BEBEBEBEBEBE00DC000000000000DC00000000000000BEBEBEBEBE00DC00BE000000000000000000000000000000000000000000000000000000000000000000000000000000000000000000000000000000000000000000000000000000000000000000000000000000000000000000000000
310
0000000000000000000000000000000000000000000000000000000000000000000000000000000000000000000000000000000000000000000000000000000000000000000000BEDC00000000000000000000000000000000000000000000000000000000000000000000000000000000000000000000000000000000DC00
310
DC00000000DC0000DC00DC00BEBEBEBEBEBEBEBE00DCF5F5F5F5F500DCF5F5F5F5F5F500F5F5F5F5F5F5DC00BE00000000000000000000000000000000000000000000000000000000000000000000000000000000000000000000000000000000000000000000000000000000000000000000000000000000000000000000
310
00000000000000000000000000000000000000000000000000000000000000000000000000000000000000000000000000000000000000000000000000000000000000000000000000BEDC00000000000000000000000000000000000000000000000000000000000000000000000000000000000000000000000000000000
310
DCDCDCDCDCDCDCDCDCDCDCDCDC0000BEBEBEBEBEBEBE00DCDCDCDCDCDCDCDCDCDCDCDCDCDCDCDCDCDCDCDCDCDC00BE0000000000000000000000000000000000000000000000000000000000000000000000000000000000000000000000000000000000000000000000000000000000000000000000000000000000000000
310
000000000000000000000000000000000000000000000000000000000000000000000000000000000000000000000000000000000000000000000000000000000000000000000000000000BEDC0000000000000000000000000000000000000000000000000000000000000000000000000000000000000000000000000000
310
0000DCDCDCDCDCDCDCDCDCDCDCDCF5F5F5DCDCDCDCDCDCDCDCDC0000000000000000000000000000000000000000DC00BE000000000000000000000000000000000000000000000000000000000000000000000000000000000000000000000000000000000000000000000000000000000000000000000000000000000000
310
0000000000000000000000000000000000000000000000000000000000000000000000000000000000000000000000000000000000000000000000000000000000000000000000000000000000BEDC000000000000000000000000000000000000000000000000000000000000000000000000000000000000000000000000
310
00000000DCDCDCDCDCDCDCDCDCDCDCDCDCF5F5BEBEBEBEBEBEBEDCBEBEBEBEBEBEBEBEBEBEBEBEBEBEBEBEBEBEBE0000DC00BE00000000000000000000000000000000000000000000000000000000000000000000000000000000000000000000000000000000000000000000000000000000000000000000000000000000
310
00000000000000000000000000000000000000000000000000000000000000000000000000000000000000000000000000000000000000000000000000000000000000000000000000000000000000BEDC00000000000000000000000000000000000000000000000000000000000000000000000000000000000000000000
310
000000000000DCDCDCDCDCF5DCDCDCDCDCDCDCF5F5BEBEBEBEBEBEBEDCBEBEBEBEBEBEBEBEBEBEBEBEBEBEBEBEBEBEBE0000DC00BE0000000000000000000000000000000000000000000000000000000000000000000000000000000000000000000000000000000000000000000000000000000000000000000000000000
310
000000000000000000000000000000000000000000000000000000000000000000000000000000000000000000000000000000000000000000000000000000000000000000000000000000000000000000BEDC0000F5F5F5F5F5F5F5F5F5F5F5F52DF5F5F5F5F5F5F5F5F5F5F5F5F5F5F5F5F5F5F5F5F5F5F5F5F5F5F5F5F5
310
F5F5F5F5F5F5F5F5DCF5F5F5F5F5DCF5F5F5F5F5F5DCDCF5F5F5F5F5F5F5DCDCF5F5F5F5F5F5F5F5DCDCDCDCDCDCDCDCDCDCDCDCDC00BE000000000000000000000000000000000000000000000000000000000000000000000000000000000000000000000000000000000000000000000000000000000000000000000000
310
0000000000000000000000000000000000000000000000000000000000000000000000000000000000000000000000000000000000000000000000000000000000000000000000000000000000000000000000BEDC0000F500000000000000000000BE2D000000000000000000000000000000000000000000000000000000
310
00002D000000000000F5DC0000000000000000000000DC0000000000BEBEBEBEBEBE00000000F50000DC00000000000000DC00000000DC00BE00000000000000000000000000000000000000000000000000000000000000000000000000000000000000000000000000000000000000000000000000000000000000000000
310
00000000000000000000000000000000000000000000000000000000000000000000000000000000000000000000000000000000000000000000000000000000000000000000000000000000000000000000000000BEDC00002DF5F5F5F5F5F5F5F5F5F5F5F52D2DF5F5F5F5F5F5F5F5F5F5F5F5F5F5F5F5F5F5F5F5F5F5F5
310
F5F5F5F52DF5F5F5F5F5F5F5DC0000000000000000000000DCDCDCDCDCDCBEBEBEBEBEBEF5BEBEBEBEBEDCF5F5F5F5F5F5F5DCDCF5F5BEBEF500BE0000000000000000000000000000000000000000000000000000000000000000000000000000000000000000000000000000000000000000000000000000000000000000
310
000000000000000000000000000000000000000000000000000000000000000000000000000000000000000000000000000000000000000000000000000000000000000000000000000000000000000000000000000000BEDC00002D2DF500000000000000BEF52D0000000000000000000000000000000000000000000000
310
0000F52D2D2DF500000000F5002DDC0000000000000000000000DCF5F5F5F5F5DCDCBEBEDCDC00BEBEBEBEBE00DC00F5F5F5F5F500DCF5BEBEBEF500BE000000000000000000000000000000000000000000000000000000000000000000000000000000000000000000000000000000000000000000000000000000000000
310
0000000000000000000000000000000000000000000000000000000000000000000000000000000000000000000000000000000000000000000000000000000000000000000000000000000000000000000000000000000000BEDCBEBE2D2DF500000000000000F5002D000000000000000000000000000000000000000000
310
00000000F52D2DBE2D00000000F5002DDCDCDCDCDCDCDCDCDCDCDCDCDCF5F5F5F5F5DCF5F5F5DCDCDCF5F5F5F5DCDCDCDCF5F5F5F5F5DCDCDCF5F5F5F500BE00000000000000000000000000000000000000000000000000000000000000000000000000000000000000000000000000000000000000000000000000000000
310
00000000000000000000000000000000000000000000000000000000000000000000000000000000000000000000000000000000000000000000000000000000000000000000000000000000000000000000000000000000000000BEDCBEBE2D00F5000000000000002D002D00000000000000000000000000000000000000
310
0000000000002D0000BEBE00000000F5002D0000000000000000000000000000000000000000000000000000000000000000000000000000000000000000DC00BE0000000000000000000000000000000000000000000000000000000000000000000000000000000000000000000000000000000000000000000000000000
310
000000000000000000000000000000000000000000000000000000000000000000000000000000000000000000000000000000000000000000000000000000000000000000000000000000000000000000000000000000000000000000BEDC00002D2DF52DBEBEBE2D2D2D2D2D2D2D2D2D2D2D2D2D2D2D2DBEBEBEBE2D2D2D
310
2D2D2D2D2D2D2D2DF52D2D2DBEBEBEBE2D2D2D2D0000000000000000000000000000000000000000000000000000000000000000000000000000000000000000DC00BE000000000000000000000000000000000000000000000000000000000000000000000000000000000000000000000000000000000000000000000000
310
0000000000000000000000000000000000000000000000000000000000000000000000000000000000000000000000000000000000000000000000000000000000000000000000000000000000000000000000000000000000000000000000BEDC00000000F500BEBEBE00000000000000000000000000000000BEBEBEBE00
310
0000000000000000000000000000BEBEBEBE00F500000000000000000000000000000000000000000000000000000000000000000000000000000000000000000000DC00BE00000000000000000000000000000000000000000000000000000000000000000000000000000000000000000000000000000000000000000000
310
00000000000000000000000000000000000000000000000000000000000000000000000000000000000000000000000000000000000000000000000000000000000000000000000000000000000000000000000000000000000000000000000000BEDC00000000F50000000000000000000000000000000000000000000000
310
000000000000000000000000000000000000000000F500000000000000000000000000000000000000000000000000000000000000000000000000000000000000000000DC00BE0000000000000000000000000000000000000000000000000000000000000000000000000000000000000000000000000000000000000000
310
000000000000000000000000000000000000000000000000000000000000000000000000000000000000000000000000000000000000000000000000000000000000000000000000000000000000000000000000000000000000000000000000000000BEDC00000000F5000000000000000000000000000000000000000000
310
0000000000000000000000000000000000000000000000F50000000000000000000000BEBEBEBE00BEBE00BEBEBEBEBEBEBEBEBE000000000000000000000000000000000000DC00BE000000000000000000000000000000000000000000000000000000000000000000000000000000000000000000000000000000000000
310
0000000000000000000000000000000000000000000000000000000000000000000000000000000000000000000000000000000000000000000000000000000000000000000000000000000000000000000000000000000000000000000000000000000000BEDC00000000F500000000000000000000000000000000000000
310
00000000000000000000000000000000000000000000000000F50000000000000000000000BEBEBEBE00BEBE00BEBEBEBEBEBEBEBE00000000000000000000000000000000000000DC00BE00000000000000000000000000000000000000000000000000000000000000000000000000000000000000000000000000000000
310
00000000000000000000000000000000000000000000000000000000000000000000000000000000000000000000000000000000000000000000000000000000000000000000000000000000000000000000000000000000000000000000000000000000000000BEDC00000000F50000000000000000000000000000000000
310
000000000000000000000000000000000000000000000000000000F50000000000000000000000BEBEBEBEBEBEBEBEBEBEBEBEBEBEBEBE00000000000000000000000000000000000000DC00BE0000000000000000000000000000000000000000000000000000000000000000000000000000000000000000000000000000
310
000000000000000000000000000000000000000000000000000000000000000000000000000000000000000000000000000000000000000000000000000000000000000000000000000000000000000000000000000000000000000000000000000000000000000000BEDC00000000F5000000000000000000000000000000
310
0000000000000000000000000000000000000000000000000000000000F5000000000000000000000000BEBEBEBEBEBEBEBEBEBEBEBEBEBEBE00000000000000000000000000000000000000DC00BE000000000000000000000000000000000000000000000000000000000000000000000000000000000000000000000000
310
0000000000000000000000000000000000000000000000000000000000000000000000000000000000000000000000000000000000000000000000000000000000000000000000000000000000000000000000000000000000000000000000000000000000000000000000BEDC00000000F500000000000000000000000000
310
00000000000000000000000000000000000000000000000000000000000000F500000000000000000000000000000000000000000000000000000000000000000000000000000000000000000000DC00BE00000000000000000000000000000000000000000000000000000000000000000000000000000000000000000000
310
00000000000000000000000000000000000000000000000000000000000000000000000000000000000000000000000000000000000000000000000000000000000000000000000000000000000000000000000000000000000000000000000000000000000000000000000000BEDC00000000F50000000000000000000000
310
000000000000000000000000000000000000000000000000000000000000000000F500000000000000000000000000000000000000000000000000000000000000000000000000000000000000000000DC00BE0000000000000000000000000000000000000000000000000000000000000000000000000000000000000000
310
000000000000000000000000000000000000000000000000000000000000000000000000000000000000000000000000000000000000000000000000000000000000000000000000000000000000000000000000000000000000000000000000000000000000000000000000000000BEDC00000000F5000000000000000000
310
0000000000000000000000000000000000000000000000000000000000000000000000F500000000000000000000000000000000000000000000000000000000000000000000000000000000000000000000DC00BE000000000000000000000000000000000000000000000000000000000000000000000000000000000000
310
0000000000000000000000000000000000000000000000000000000000000000000000000000000000000000000000000000000000000000000000000000000000000000000000000000000000000000000000000000000000000000000000000000000000000000000000000000000000BEDC00000000F500000000000000
310
00000000000000000000000000000000000000000000000000000000000000000000000000F500000000000000000000000000000000000000000000000000000000000000000000000000000000000000000000DC00BE00000000000000000000000000000000000000000000000000000000000000000000000000000000
310
00000000000000000000000000000000000000000000000000000000000000000000000000000000000000000000000000000000000000000000000000000000000000000000000000000000000000000000000000000000000000000000000000000000000000000000000000000000000000BEDC00000000F50000000000
310
000000000000000000000000000000000000000000000000000000000000000000000000000000F500000000000000000000000000000000000000000000000000000000000000000000000000000000000000000000DC00BE0000000000000000000000000000000000000000000000000000000000000000000000000000
310
000000000000000000000000000000000000000000000000000000000000000000000000000000000000000000000000000000000000000000000000000000000000000000000000000000000000000000000000000000000000000000000000000000000000000000000000000000000000000000BEDC00000000F5000000
310
0000000000000000000000000000000000000000000000000000000000000000000000000000000000F500000000000000000000000000000000000000000000000000000000000000000000000000000000000000000000DC00BE000000000000000000000000000000000000000000000000000000000000000000000000
310
0000000000000000000000000000000000000000000000000000000000000000000000000000000000000000000000000000000000000000000000000000000000000000000000000000000000000000000000000000000000000000000000000000000000000000000000000000000000000000000000BEDC00000000F500
310
00000000000000000000000000000000000000000000000000000000000000000000000000000000000000F500000000000000000000000000000000000000000000000000000000000000000000000000000000000000000000DC00BE00000000000000000000000000000000000000000000000000000000000000000000
310
00000000000000000000000000000000000000000000000000000000000000000000000000000000000000000000000000000000000000000000000000000000000000000000000000000000000000000000000000000000000000000000000000000000000000000000000000000000000000000000000000BEDC00000000
310
F50000000000000000000000000000000000000000000000000000000000000000000000000000000000000000F500000000000000000000000000000000000000000000000000000000000000000000000000000000000000000000DC00BE0000000000000000000000000000000000000000000000000000000000000000
310
000000000000000000000000000000000000000000000000000000000000000000000000000000000000000000000000000000000000000000000000000000000000000000000000000000000000000000000000000000000000000000000000000000000000000000000000000000000000000000000000000000BEDC0000
310
0000F50000000000000000000000000000000000000000000000000000000000000000000000000000000000000000F500000000000000000000000000000000000000000000000000000000000000000000000000000000000000000000DC00BE000000000000000000000000000000000000000000000000000000000000
310
0000000000000000000000000000000000000000000000000000000000000000000000000000000000000000000000000000000000000000000000000000000000000000000000000000000000000000000000000000000000000000000000000000000000000000000000000000000000000000000000000000000000BEDC
310
00000000F50000000000000000000000000000000000000000000000000000000000000000000000000000000000000000F500000000000000000000000000000000000000000000000000000000000000000000000000000000000000000000DC00BE00000000000000000000000000000000000000000000000000000000
310
00000000000000000000000000000000000000000000000000000000000000000000000000000000000000000000000000000000000000000000000000000000000000000000000000000000000000000000000000000000000000000000000000000000000000000000000000000000000000000000000000000000000000
310
BEDC00000000F50000000000000000000000000000000000000000000000000000000000000000000000000000000000000000F500000000000000000000000000000000000000000000000000000000000000000000000000000000000000000000DC00BE0000000000000000000000000000000000000000000000000000
310
00000000000000000000000000000000000000000000000000000000000000000000000000000000000000000000000000000000000000000000000000000000000000000000000000000000000000000000000000000000000000000000000000000000000000000000000000000000000000000000000000000000000000
310
0000BEDC00000000F50000000000000000000000000000000000000000000000000000000000000000000000000000000000000000F500000000000000000000000000000000000000000000000000000000000000000000000000000000000000000000DC00BE000000000000000000000000000000000000000000000000
310
00000000000000000000000000000000000000000000000000000000000000000000000000000000000000000000000000000000000000000000000000000000000000000000000000000000000000000000000000000000000000000000000000000000000000000000000000000000000000000000000000000000000000
310
00000000BEDC00000000F5F5F5F5F5F5F5F5F5F5F5F5F5F5F5F5F5F5F5F5F5F5F5F5F5F5F5F5F5F5F5F5F5F5F5F5F5F5F5F5F5F5F5F5F5F500000000000000000000000000000000000000000000000000000000000000000000000000000000000000000000DC00BE00000000000000000000000000000000000000000000
310
00000000000000000000000000000000000000000000000000000000000000000000000000000000000000000000000000000000000000000000000000000000000000000000000000000000000000000000000000000000000000000000000000000000000000000000000000000000000000000000000000000000000000
310
000000000000BEDC000000002D2D2D2D2D2D2D2D2D2D2D2D2D2D2D2D2D2D2D2D2DBEBEBE2D2D2D2D2D2D2D2D2D2D2D2D2D2D2D2D2D2D2D2D2DF500000000000000000000000000000000000000000000000000000000000000000000000000000000000000000000DC00BE0000000000000000000000000000000000000000
310
00000000000000000000000000000000000000000000000000000000000000000000000000000000000000000000000000000000000000000000000000000000000000000000000000000000000000000000000000000000000000000000000000000000000000000000000000000000000000000000000000000000000000
310
0000000000000000BEDC00000000000000000000000000000000000000000000000000BEBEBE0000000000000000000000000000000000000000000000000000000000000000002D00000000000000000000000000000000000000000000000000000000000000000000DC00BE000000000000000000000000000000000000
310
00000000000000000000000000000000000000000000000000000000000000000000000000000000000000000000000000000000000000000000000000000000000000000000000000000000000000000000000000000000000000000000000000000000000000000000000000000000000000000000000000000000000000
310
00000000000000000000BEDC2DF5F5F5F5F5F5F5F5F5F5F5F5F5F5F5F5F5F5F5F5F5F5F5F5F5F5F5F5F5F5F5F5F5F5F5F5F5F5F5F5F5F5F5F5F5F5F5F5F5F5F50000000000000000BEF52D2D2D2D2D2D2D2D2D2D2D2D2D2D2D2D2D2D2D2D2D2D2DF5BE282D2D2DF500000000DC00BE00000000000000000000000000000000
310
00000000000000000000000000000000000000000000000000000000000000000000000000000000000000000000000000000000000000000000000000000000000000000000000000000000000000000000000000000000000000000000000000000000000000000000000000000000000000000000000000000000000000
310
000000000000000000000000BEDC002DF5000000000000000000000000000000000000000000000000000000002D00000000000000000000000000000000000000F50000000000000000BE2D000000000000000000000000000000000000000000000028BE28002D002D00000000DC00BE0000000000000000000000000000
310
00000000000000000000000000000000000000000000000000000000000000000000000000000000000000000000000000000000000000000000000000000000000000000000000000000000000000000000000000000000000000000000000000000000000000000000000000000000000000000000000000000000000000
310
0000000000000000000000000000BEDC002DF5002828282828282828282828282828282828282828282828282828282D28282828282828282828282828282828282800F50000000000000000BE2DF5F5F5F5F5F5F5F5F5F5F5F5F5F5F5F5F5F52D2DF5F5F52828F5002D002D00000000DC00BE000000000000000000000000
310
00000000000000000000000000000000000000000000000000000000000000000000000000000000000000000000000000000000000000000000000000000000000000000000000000000000000000000000000000000000000000000000000000000000000000000000000000000000000000000000000000000000000000
310
00000000000000000000000000000000BEDC002DF50028000000000000000000000000000000000000BEBEBEBEBEBEBE002D00000000000000000000000000000000002800F50000000000000000002DF50000000000000000000000000000000000002D0000002828F5002D002D00000000DC00BE00000000000000000000
310
00000000000000000000000000000000000000000000000000000000000000000000000000000000000000000000000000000000000000000000000000000000000000000000000000000000000000000000000000000000000000000000000000000000000000000000000000000000000000000000000000000000000000
310
000000000000000000000000000000000000BEDC002DF5002828282828282828282828282828282828282828BEBEBEBEBEBEBE2D28282828282828282828282828282828282800F50000000000000000002DF52828282828282828282828282828282828282D282828282828002D002D00000000DC00BE0000000000000000
310
00000000000000000000000000000000000000000000000000000000000000000000000000000000000000000000000000000000000000000000000000000000000000000000000000000000000000000000000000000000000000000000000000000000000000000000000000000000000000000000000000000000000000
310
0000000000000000000000000000000000000000BEDC002DF5002800000000000000000000000000000000000000BEBEBEBEBEBEBEBE00000000000000000000000000000000002800F50000000000000000002DF50000000000000000000000000000000000002D000000F500F5BEBE002D00000000DC00BE000000000000
310
00000000000000000000000000000000000000000000000000000000000000000000000000000000000000000000000000000000000000000000000000000000000000000000000000000000000000000000000000000000000000000000000000000000000000000000000000000000000000000000000000000000000000
310
00000000000000000000000000000000000000000000BEDC002DF5002800000000000000000000000000000000000000000000000000BE2D00000000000000000000000000000000002800F50000000000000000002DF50000000000000000000000000000000000BEBE000000F500F5BEBE002D00000000DC00BE00000000
310
00000000000000000000000000000000000000000000000000000000000000000000000000000000000000000000000000000000000000000000000000000000000000000000000000000000000000000000000000000000000000000000000000000000000000000000000000000000000000000000000000000000000000
310
000000000000000000000000000000000000000000000000BEDC002DF5002800000000000000000000000000000000000000000000000000002D00000000000000000000000000000000002800F50000000000000000002DF50000000000000000000000000000000000BEBE000000F500F5002D002D00000000DC00BE0000
310
00000000000000000000000000000000000000000000000000000000000000000000000000000000000000000000000000000000000000000000000000000000000000000000000000000000000000000000000000000000000000000000000000000000000000000000000000000000000000000000000000000000000000
310
0000000000000000000000000000000000000000000000000000BEDC002DF50028000000F5F5F5F5F5F5F5F5F5F5F5F5F5F5F5F5F5F5F5F5F5F5F5F5F5F5F5F5F5F5F5F5F5F5F5F5F5F50000002800F50000000000000000002DF50000000000000000000000000000000000BEBE000000F500F5002D002D00000000DC00BE
310
00000000000000000000000000000000000000000000000000000000000000000000000000000000000000000000000000000000000000000000000000000000000000000000000000000000000000000000000000000000000000000000000000000000000000000000000000000000000000000000000000000000000000
310
00000000000000000000000000000000000000000000000000000000BEDC002DF50028000000F5000000000000000000000000000000000000000000002D00000000000000000000000000F50000002800F50000000000000000002DF50000000000000000000000000000000000002D000000F52DF5002D002D00000000DC
310
00BE0000000000000000000000000000000000000000000000000000000000000000000000000000000000000000000000000000000000000000000000000000000000000000000000000000000000000000000000000000000000000000000000000000000000000000000000000000000000000000000000000000000000
310
000000000000000000000000000000000000000000000000000000000000BEDC002DF50028000000F52D2D2D2D2D2D2D2D2D2D2D2D2D2D2D2D2D2D2D2D2D2D2D2D2D2D2D2D2D2D2D2D2D2D2D2DF50000002800F50000000000000000002DF50000000000000000000000000000000000002D000000F5BEBE002D002D000000
310
00DC00BE000000000000000000000000000000000000000000000000000000000000000000000000000000000000000000000000000000000000000000000000000000000000000000000000000000000000000000000000000000000000000000000000000000000000000000000000000000000000000000000000000000
310
0000000000000000000000000000000000000000000000000000000000000000BEDC002DF500280000002D00000000000000000000000000000000BEBEBE0000BEBE0000000000000000000000002D2D0000002800F50000000000000000002DF50000000000000000000000000000000000002D00002D2DBEBE2DF5002D00
310
000000DC00BE00000000000000000000000000000000000000000000000000000000000000000000000000000000000000000000000000000000000000000000000000000000000000000000000000000000000000000000000000000000000000000000000000000000000000000000000000000000000000000000000000
310
00000000000000000000000000000000000000000000000000000000000000000000BEDCBE2DF50028000000F5000000000000000000000000000000000000000000BEBE00000000000000000000000000F50000002800F50000000000000000BE2DF50000000000000000000000000000000000002D2D2DF5F500F50000BE
310
2D00000000DC00BE0000000000000000000000000000000000000000000000000000000000000000000000000000000000000000000000000000000000000000000000000000000000000000000000000000000000000000000000000000000000000000000000000000000000000000000000000000000000000000000000
310
000000000000000000000000000000000000000000000000000000000000000000000000BEDCBE2DF50028000000F5000000000000000000000000000000000000000000002D00000000000000000000000000F50000002800F50000000000000000BE2DF50000000000000000000000000000000000002D002DF5F500F500
310
00BE2D00000000DC00BE000000000000000000000000000000000000000000000000000000000000000000000000000000000000000000000000000000000000000000000000000000000000000000000000000000000000000000000000000000000000000000000000000000000000000000000000000000000000000000
310
0000000000000000000000000000000000000000000000000000000000000000000000000000BEDCBE2DF50028000000F5F50000000000000000000000000000000000000000002D00000000000000000000000000F50000002800F50000000000000000BE2DF50000000000000000000000000000000000002D002D2DF500
310
F50000BE2D00000000DC00BE00000000000000000000000000000000000000000000000000000000000000000000000000000000000000000000000000000000000000000000000000000000000000000000000000000000000000000000000000000000000000000000000000000000000000000000000000000000000000
310
00000000000000000000000000000000000000000000000000000000000000000000000000000000BEDC002DF5002800002DF5F5F5F5F5F5F5F5F5F5F5F5F5F5F5F5F5F5F5F5F5F5F52DF5F5F5F5F5F5F5F5F5F5F5F5F5F50000002800F50000000000000000002DF50000000000000000000000000000000000002D00002D
310
F500F50000002D00000000DC00BE0000000000000000000000000000000000000000000000000000000000000000000000000000000000000000000000000000000000000000000000000000000000000000000000000000000000000000000000000000000000000000000000000000000000000000000000000000000000
310
000000000000000000000000000000000000000000000000000000000000000000000000000000000000BEDC002DF500280000002D000000000000000000000000000000000000000000000000000000000000000000000000000000002800F50000000000000000002DF50000000000000000000000000000000000002D2D
310
2D2DF52D2D0000002D00000000DC00BE000000000000000000000000000000000000000000000000000000000000000000000000000000000000000000000000000000000000000000000000000000000000000000000000000000000000000000000000000000000000000000000000000000000000000000000000000000
310
0000000000000000000000000000000000000000000000000000000000000000000000000000000000000000BEDC002DF5002800BEBEBE000000000000000000000000000000000000000000000000000000000000000000000000000000002800F50000000000000000002DF50000000000000000000000000000000000BE
310
BE00BE00F500F50000002D00000000DC00BE00000000000000000000000000000000000000000000000000000000000000000000000000000000000000000000000000000000000000000000000000000000000000000000000000000000000000000000000000000000000000000000000000000000000000000000000000
310
00000000000000000000000000000000000000000000000000000000000000000000000000000000000000000000BEDC002DF5002800BEBE00000000000000000000000000000000000000000000000000000000000000000000000000000000002800F50000000000000000002DF500000000000000000000000000000000
310
00BEBE000000F500F50000002D00000000DC00BE0000000000000000000000000000000000000000000000000000000000000000000000000000000000000000000000000000000000000000000000000000000000000000000000000000000000000000000000000000000000000000000000000000000000000000000000
310
000000000000000000000000000000000000000000000000000000000000000000000000000000000000000000000000BEDC002DF500280000000000000000000000000000000000000000F5BEF50000000000000000000000000000000000000000002800F50000000000000000002DF50000000000000000000000000000
310
000000BEBE000000F500F50000002D00000000DC00BE000000000000000000000000000000000000000000000000000000000000000000000000000000000000000000000000000000000000000000000000000000000000000000000000000000000000000000000000000000000000000000000000000000000000000000
310
0000000000000000000000000000000000000000000000000000000000000000000000000000000000000000000000000000BEDC002DF500280000000000000000000000000000000000000000BEBEBEBE00000000000000000000000000000000000000002800F50000000000000000002DF5000000000000000000000000
310
0000000000002D000000F500BEBE2D2D2D00000000DC00BE00000000000000000000000000000000000000000000000000000000000000000000000000000000000000000000000000000000000000000000000000000000000000000000000000000000000000000000000000000000000000000000000000000000000000
310
00000000000000000000000000000000000000000000000000000000000000000000000000000000000000000000000000000000BEDC002DF500280000000000000000000000000000000000000000F5BEF50000000000000000000000000000000000000000002800F50000000000000000002DF500000000000000000000
310
00000000000000002D000000F500F5002D002D00000000DC00BE0000000000000000000000000000000000000000000000000000000000000000000000000000000000000000000000000000000000000000000000000000000000000000000000000000000000000000000000000000000000000000000000000000000000
310
000000000000000000000000000000000000000000000000000000000000000000000000000000000000000000000000000000000000BEDC002DF50028000000000000000000000000000000000000000000BE000000000000000000000000000000000000000000002800F50000000000000000002DF50000000000000000
310
000000000000000000002D000000F500F5BEBE002D00000000DC00BE000000000000000000000000000000000000000000000000000000000000000000000000000000000000000000000000000000000000000000000000000000000000000000000000000000000000000000000000000000000000000000000000000000
310
0000000000000000000000000000000000000000000000000000000000000000000000000000000000000000000000000000000000000000BEDC002DF5002800000000000000000000000000000000000000000000000000000000000000000000000000000000000000002800F50000000000000000002DF5000000000000
310
0000000000000000000000002D000000F500F5BEBE002D00000000DC00BE00000000000000000000000000000000000000000000000000000000000000000000000000000000000000000000000000000000000000000000000000000000000000000000000000000000000000000000000000000000000000000000000000
310
00000000000000000000000000000000000000000000000000000000000000000000000000000000000000000000000000000000000000000000BEDC002DF5002828282828282828282828282828282828282828282828282828282828282828282828282828282828282828282800F50000000000000000BE2DF5F5F5F5F5
310
F5F5F5F5F5F5F5F5F5F5F5F5F5F52DF5F5F5F500F5BEBE002D00000000DC00BE0000000000000000000000000000000000000000000000000000000000000000000000000000000000000000000000000000000000000000000000000000000000000000000000000000000000000000000000000000000000000000000000
310
000000000000000000000000000000000000000000000000000000000000000000000000000000000000000000000000000000000000000000000000BEDC002DF5000000000000000000000000000000000000000000000000000000000000000000000000000000000000000000000000F50000000000000000BE2D2D0000
310
0000000000000000000000000000000000000000F500F5002D002D00000000DC00BE000000000000000000000000000000000000000000000000000000000000000000000000000000000000000000000000000000000000000000000000000000000000000000000000000000000000000000000000000000000000000000
310
0000000000000000000000000000000000000000000000000000000000000000000000000000000000000000000000000000000000000000000000000000BEDC2D2DF5F5F5F5F5F5F5F5F5F5F5F5F5F5F5F5F5F5F5F5F5F5F5F5F5F5F5F5F5F5F5F5F5F5F5F5F5F5F5F5F5F5F5F5F5F5F5F5F5F50000000000000000BEF52D
310
2D2D2D2D2D2D2D2D2D2D2D2D2D2D2D2D2D2D2D2D2D2DF5F5F52DF52D2D00000000DC00BE00000000000000000000000000000000000000000000000000000000000000000000000000000000000000000000000000000000000000000000000000000000000000000000000000000000000000000000000000000000000000
310
00000000000000000000000000000000000000000000000000000000000000000000000000000000000000000000000000000000000000000000000000000000BEDC00002D0000000000000000000000000000000000000000000000000000000000000000000000000000000000000000000000002D000000000000000000
310
2D2D2D2D2D2D2D2D2D2D2D2DBEBEBE2D2D2D2D2D2D2D2D2D2D2D2D2D00000000000000DC00BE0000000000000000000000000000000000000000000000000000000000000000000000000000000000000000000000000000000000000000000000000000000000000000000000000000000000000000000000000000000000
310
000000000000000000000000000000000000000000000000000000000000000000000000000000000000000000000000000000000000000000000000000000000000BEDC00002D0000000000000000000000000000000000000000000000000000000000000000000000000000000000000000000000002D00000000000000
310
0000002D00000000000000000000BEBEBE00000000000000000000002DBEBE000000000000DC00BE000000000000000000000000000000000000000000000000000000000000000000000000000000000000000000000000000000000000000000000000000000000000000000000000000000000000000000000000000000
310
0000000000000000000000000000000000000000000000000000000000000000000000000000000000000000000000000000000000000000000000000000000000000000BEDC00002D2D2D2D2D2D2D2D2D2D2D2D2D2D2D2D2D2D2D2D2D2D2DBEBEBE2D2D2D2D2D2D2D2D2D2D2D2D2D2D2D2D2D2D2D2D2D2D2DF50000000000
310
00000000002D2D2D2D2D2D2D2D2D2D2D2DBEBEBE2D2D2D2D2D2D2D2D2D2DF5BEBE000000000000DC00BE00000000000000000000000000000000000000000000000000000000000000000000000000000000000000000000000000000000000000000000000000000000000000000000000000000000000000000000000000
310
00000000000000000000000000000000000000000000000000000000000000000000000000000000000000000000000000000000000000000000000000000000000000000000BEDC00000000000000000000000000000000000000000000000000BEBEBE000000000000000000000000000000000000000000000000000000
310
00000000000000000000000000000000000000BEBE0000000000000000000000000000000000000000DC00BE0000000000000000000000000000000000000000000000000000000000000000000000000000000000000000000000000000000000000000000000000000000000000000000000000000000000000000000000
310
000000000000000000000000000000000000000000000000000000000000000000000000000000000000000000000000000000000000000000000000000000000000000000000000BEDC0000000000000000000000000000000000000000000000000000000000000000000000000000000000000000000000000000000000
310
00000000000000000000000000000000000000000000000000000000000000000000000000000000000000DC00BE000000000000000000000000000000000000000000000000000000000000000000000000000000000000000000000000000000000000000000000000000000000000000000000000000000000000000000
310
0000000000000000000000000000000000000000000000000000000000000000000000000000000000000000000000000000000000000000000000000000000000000000000000000000BEDCDCDCDCDCDCDCDCDCDCDCDCDCDCDCDCDCDCDCDCDCDCDCDCDCDCDCDCDCDCDCDCDCDCDCDCDCDCDCDCDCDCDCDCDCDCDCDCDCDCDCDC
310
DCDCDCDCDCDCDCDCDCDCDCDCDCDCDCDCDCDCDCDCDCDCDCDCDCDCDCDCDCDCDCDCDCDCDCDCDCDCDCDCDCDCDCDCDCDC00BE00000000000000000000000000000000000000000000000000000000000000000000000000000000000000000000000000000000000000000000000000000000000000000000000000000000000000
310
00000000000000000000000000000000000000000000000000000000000000000000000000000000000000000000000000000000000000000000000000000000000000000000000000000000BE0000000000000000000000000000000000000000000000000000000000000000000000000000000000000000000000000000
310
00000000000000000000000000000000000000000000000000000000000000000000000000000000000000000000000000BE0000000000000000000000000000000000000000000000000000000000000000000000000000000000000000000000000000000000000000000000000000000000000000000000000000000000
310
000000000000000000000000000000000000000000000000000000000000000000000000000000000000000000000000000000000000000000000000000000000000000000000000000000000000BEBEBEBEBEBEBEBEBEBEBEBEBEBEBEBEBEBEBEBEBEBEBEBEBEBEBEBEBEBEBEBEBEBEBEBEBEBEBEBEBEBEBEBEBEBEBEBEBE
310
BEBEBEBEBEBEBEBEBEBEBEBEBEBEBEBEBEBEBEBEBEBEBEBEBEBEBEBEBEBEBEBEBEBEBEBEBEBEBEBEBEBEBEBEBEBEBEBEBEBEBEBE000000000000000000000000000000000000000000000000000000000000000000000000000000000000000000000000000000000000000000000000000000000000000000000000000000
310
00000000000000000000000000000000000000000000000000000000000000000000000000000000000000000000000000000000000000000000000000000000000000000000000000000000000000000000000000000000000000000000000000000000000000000000000000000000000000000000000000000000000000
310
00000000000000000000000000000000000000000000000000000000000000000000000000000000000000000000000000000000000000000000000000000000000000000000000000000000000000000000000000000000000000000000000000000000000000000000000000000000000000000000000000000000000000
310
00000000000000000000000000000000000000000000000000000000000000000000000000000000000000000000000000000000000000000000000000000000000000000000000000000000000000000000000000000000000000000000000000000000000000000000000000000000000000000000000000000000000000
310
00000000000000000000000000000000000000000000000000000000000000000000000000000000000000000000000000000000000000000000000000000000000000000000000000000000000000000000000000000000000000000000000000000000000000000000000000000000000000000000000000000000000000
310
00000000000000000000000000000000000000000000000000000000000000000000000000000000000000000000000000000000000000000000000000000000000000000000000000000000000000000000000000000000000000000000000000000000000000000000000000000000000000000000000000000000000000
310
00000000000000000000000000000000000000000000000000000000000000000000000000000000000000000000000000000000000000000000000000000000000000000000000000000000000000000000000000000000000000000000000000000000000000000000000000000000000000000000000000000000000000
310
00000000000000000000000000000000000000000000000000000000000000000000000000000000000000000000000000000000000000000000000000000000000000000000000000000000000000000000000000000000000000000000000000000000000000000000000000000000000000000000000000000000000000
310
00000000000000000000000000000000000000000000000000000000000000000000000000000000000000000000000000000000000000000000000000000000000000000000000000000000000000000000000000000000000000000000000000000000000000000000000000000000000000000000000000000000000000
310
00000000000000000000000000000000000000000000000000000000000000000000000000000000000000000000000000000000000000000000000000000000000000000000000000000000000000000000000000000000000000000000000000000000000000000000000000000000000000000000000000000000000000
310
00000000000000000000000000000000000000000000000000000000000000000000000000000000000000000000000000000000000000000000000000000000000000000000000000000000000000000000000000000000000000000000000000000000000000000000000000000000000000000000000000000000000000
310
00000000000000000000000000000000000000000000000000000000000000000000000000000000000000000000000000000000000000000000000000000000000000000000000000000000000000000000000000000000000000000000000000000000000000000000000000000000000000000000000000000000000000
310
00000000000000000000000000000000000000000000000000000000000000000000000000000000000000000000000000000000000000000000000000000000000000000000000000000000000000000000000000000000000000000000000000000000000000000000000000000000000000000000000000000000000000
310
00000000000000000000000000000000000000000000000000000000000000000000000000000000000000000000000000000000000000000000000000000000000000000000000000000000000000000000000000000000000000000000000000000000000000000000000000000000000000000000000000000000000000
310
00000000000000000000000000000000000000000000000000000000000000000000000000000000000000000000000000000000000000000000000000000000000000000000000000000000000000000000000000000000000000000000000000000000000000000000000000000000000000000000000000000000000000
310
00000000000000000000000000000000000000000000000000000000000000000000000000000000000000000000000000000000000000000000000000000000000000000000000000000000000000000000000000000000000000000000000000000000000000000000000000000000000000000000000000000000000000
310
00000000000000000000000000000000000000000000000000000000000000000000000000000000000000000000000000000000000000000000000000000000000000000000000000000000000000000000000000000000000000000000000000000000000000000000000000000000000000000000000000000000000000
310
00000000000000000000000000000000000000000000000000000000000000000000000000000000000000000000000000000000000000000000000000000000000000000000000000000000000000000000000000000000000000000000000000000000000000000000000000000000000000000000000000000000000000
310
00000000000000000000000000000000000000000000000000000000000000000000000000000000000000000000000000000000000000000000000000000000000000000000000000000000000000000000000000000000000000000000000000000000000000000000000000000000000000000000000000000000000000
310
00000000000000000000000000000000000000000000000000000000000000000000000000000000000000000000000000000000000000000000000000000000000000000000000000000000000000000000000000000000000000000000000000000000000000000000000000000000000000000000000000000000000000
310
00000000000000000000000000000000000000000000000000000000000000000000000000000000000000000000000000000000000000000000000000000000000000000000000000000000000000000000000000000000000000000000000000000000000000000000000000000000000000000000000000000000000000
310
00000000000000000000000000000000000000000000000000000000000000000000000000000000000000000000000000000000000000000000000000000000000000000000000000000000000000000000000000000000000000000000000000000000000000000000000000000000000000000000000000000000000000
310
00000000000000000000000000000000000000000000000000000000000000000000000000000000000000000000000000000000000000000000000000000000000000000000000000000000000000000000000000000000000000000000000000000000000000000000000000000000000000000000000000000000000000
310
00000000000000000000000000000000000000000000000000000000000000000000000000000000000000000000000000000000000000000000000000000000000000000000000000000000000000000000000000000000000000000000000000000000000000000000000000000000000000000000000000000000000000
310
00000000000000000000000000000000000000000000000000000000000000000000000000000000000000000000000000000000000000000000000000000000000000000000000000000000000000000000000000000000000000000000000000000000000000000000000000000000000000000000000000000000000000
310
00000000000000000000000000000000000000000000000000000000000000000000000000000000000000000000000000000000000000000000000000000000000000000000000000000000000000000000000000000000000000000000000000000000000000000000000000000000000000000000000000000000000000
310
00000000000000000000000000000000000000000000000000000000000000000000000000000000000000000000000000000000000000000000000000000000000000000000000000000000000000000000000000000000000000000000000000000000000000000000000000000000000000000000000000000000000000
310
00000000000000000000000000000000000000000000000000000000000000000000000000000000000000000000000000000000000000000000000000000000000000000000000000000000000000000000000000000000000000000000000000000000000000000000000000000000000000000000000000000000000000
310
00000000000000000000000000000000000000000000000000000000000000000000000000000000000000000000000000000000000000000000000000000000000000000000000000000000000000000000000000000000000000000000000000000000000000000000000000000000000000000000000000000000000000
310
00000000000000000000000000000000000000000000000000000000000000000000000000000000000000000000000000000000000000000000000000000000000000000000000000000000000000000000000000000000000000000000000000000000000000000000000000000000000000000000000000000000000000
310
00000000000000000000000000000000000000000000000000000000000000000000000000000000000000000000000000000000000000000000000000000000000000000000000000000000000000000000000000000000000000000000000000000000000000000000000000000000000000000000000000000000000000
310
00000000000000000000000000000000000000000000000000000000000000000000000000000000000000000000000000000000000000000000000000000000000000000000000000000000000000000000000000000000000000000000000000000000000000000000000000000000000000000000000000000000000000
310
00000000000000000000000000000000000000000000000000000000000000000000000000000000000000000000000000000000000000000000000000000000000000000000000000000000000000000000000000000000000000000000000000000000000000000000000000000000000000000000000000000000000000
310
00000000000000000000000000000000000000000000000000000000000000000000000000000000000000000000000000000000000000000000000000000000000000000000000000000000000000000000000000000000000000000000000000000000000000000000000000000000000000000000000000000000000000
310
00000000000000000000000000000000000000000000000000000000000000000000000000000000000000000000000000000000000000000000000000000000000000000000000000000000000000000000000000000000000000000000000000000000000000000000000000000000000000000000000000000000000000
310
00000000000000000000000000000000000000000000000000000000000000000000000000000000000000000000000000000000000000000000000000000000000000000000000000000000000000000000000000000000000000000000000000000000000000000000000000000000000000000000000000000000000000
310
00000000000000000000000000000000000000000000000000000000000000000000000000000000000000000000000000000000000000000000000000000000000000000000000000000000000000000000000000000000000000000000000000000000000000000000000000000000000000000000000000000000000000
310
00000000000000000000000000000000000000000000000000000000000000000000000000000000000000000000000000000000000000000000000000000000000000000000000000000000000000000000000000000000000000000000000000000000000000000000000000000000000000000000000000000000000000
310
00000000000000000000000000000000000000000000000000000000000000000000000000000000000000000000000000000000000000000000000000000000000000000000000000000000000000000000000000000000000000000000000000000000000000000000000000000000000000000000000000000000000000
310
00000000000000000000000000000000000000000000000000000000000000000000000000000000000000000000000000000000000000000000000000000000000000000000000000000000000000000000000000000000000000000000000000000000000000000000000000000000000000000000000000000000000000
310
00000000000000000000000000000000000000000000000000000000000000000000000000000000000000000000000000000000000000000000000000000000000000000000000000000000000000000000000000000000000000000000000000000000000000000000000000000000000000000000000000000000000000
310
00000000000000000000000000000000000000000000000000000000000000000000000000000000000000000000000000000000000000000000000000000000000000000000000000000000000000000000000000000000000000000000000000000000000000000000000000000000000000000000000000000000000000
310
00000000000000000000000000000000000000000000000000000000000000000000000000000000000000000000000000000000000000000000000000000000000000000000000000000000000000000000000000000000000000000000000000000000000000000000000000000000000000000000000000000000000000
310
00000000000000000000000000000000000000000000000000000000000000000000000000000000000000000000000000000000000000000000000000000000000000000000000000000000000000000000000000000000000000000000000000000000000000000000000000000000000000000000000000000000000000
310
00000000000000000000000000000000000000000000000000000000000000000000000000000000000000000000000000000000000000000000000000000000000000000000000000000000000000000000000000000000000000000000000000000000000000000000000000000000000000000000000000000000000000
310
00000000000000000000000000000000000000000000000000000000000000000000000000000000000000000000000000000000000000000000000000000000000000000000000000000000000000000000000000000000000000000000000000000000000000000000000000000000000000000000000000000000000000
310
00000000000000000000000000000000000000000000000000000000000000000000000000000000000000000000000000000000000000000000000000000000000000000000000000000000000000000000000000000000000000000000000000000000000000000000000000000000000000000000000000000000000000
310
00000000000000000000000000000000000000000000000000000000000000000000000000000000000000000000000000000000000000000000000000000000000000000000000000000000000000000000000000000000000000000000000000000000000000000000000000000000000000000000000000000000000000
310
00000000000000000000000000000000000000000000000000000000000000000000000000000000000000000000000000000000000000000000000000000000000000000000000000000000000000000000000000000000000000000000000000000000000000000000000000000000000000000000000000000000000000
310
00000000000000000000000000000000000000000000000000000000000000000000000000000000000000000000000000000000000000000000000000000000000000000000000000000000000000000000000000000000000000000000000000000000000000000000000000000000000000000000000000000000000000
310
00000000000000000000000000000000000000000000000000000000000000000000000000000000000000000000000000000000000000000000000000000000000000000000000000000000000000000000000000000000000000000000000000000000000000000000000000000000000000000000000000000000000000
310
00000000000000000000000000000000000000000000000000000000000000000000000000000000000000000000000000000000000000000000000000000000000000000000000000000000000000000000000000000000000000000000000000000000000000000000000000000000000000000000000000000000000000
310
00000000000000000000000000000000000000000000000000000000000000000000000000000000000000000000000000000000000000000000000000000000000000000000000000000000000000000000000000000000000000000000000000000000000000000000000000000000000000000000000000000000000000
310
00000000000000000000000000000000000000000000000000000000000000000000000000000000000000000000000000000000000000000000000000000000000000000000000000000000000000000000000000000000000000000000000000000000000000000000000000000000000000000000000000000000000000
310
00000000000000000000000000000000000000000000000000000000000000000000000000000000000000000000000000000000000000000000000000000000000000000000000000000000000000000000000000000000000000000000000000000000000000000000000000000000000000000000000000000000000000
310
00000000000000000000000000000000000000000000000000000000000000000000000000000000000000000000000000000000000000000000000000000000000000000000000000000000000000000000000000000000000000000000000000000000000000000000000000000000000000000000000000000000000000
310
00000000000000000000000000000000000000000000000000000000000000000000000000000000000000000000000000000000000000000000000000000000000000000000000000000000000000000000000000000000000000000000000000000000000000000000000000000000000000000000000000000000000000
310
00000000000000000000000000000000000000000000000000000000000000000000000000000000000000000000000000000000000000000000000000000000000000000000000000000000000000000000000000000000000000000000000000000000000000000000000000000000000000000000000000000000000000
310
00000000000000000000000000000000000000000000000000000000000000000000000000000000000000000000000000000000000000000000000000000000000000000000000000000000000000000000000000000000000000000000000000000000000000000000000000000000000000000000000000000000000000
310
00000000000000000000000000000000000000000000000000000000000000000000000000000000000000000000000000000000000000000000000000000000000000000000000000000000000000000000000000000000000000000000000000000000000000000000000000000000000000000000000000000000000000
310
00000000000000000000000000000000000000000000000000000000000000000000000000000000000000000000000000000000000000000000000000000000000000000000000000000000000000000000000000000000000000000000000000000000000000000000000000000000000000000000000000000000000000
310
00000000000000000000000000000000000000000000000000000000000000000000000000000000000000000000000000000000000000000000000000000000000000000000000000000000000000000000000000000000000000000000000000000000000000000000000000000000000000000000000000000000000000
310
00000000000000000000000000000000000000000000000000000000000000000000000000000000000000000000000000000000000000000000000000000000000000000000000000000000000000000000000000000000000000000000000000000000000000000000000000000000000000000000000000000000000000
310
00000000000000000000000000000000000000000000000000000000000000000000000000000000000000000000000000000000000000000000000000000000000000000000000000000000000000000000000000000000000000000000000000000000000000000000000000000000000000000000000000000000000000
310
00000000000000000000000000000000000000000000000000000000000000000000000000000000000000000000000000000000000000000000000000000000000000000000000000000000000000000000000000000000000000000000000000000000000000000000000000000000000000000000000000000000000000
310
00000000000000000000000000000000000000000000000000000000000000000000000000000000000000000000000000000000000000000000000000000000000000000000000000000000000000000000000000000000000000000000000000000000000000000000000000000000000000000000000000000000000000
310
00000000000000000000000000000000000000000000000000000000000000000000000000000000000000000000000000000000000000000000000000000000000000000000000000000000000000000000000000000000000000000000000000000000000000000000000000000000000000000000000000000000000000
310
00000000000000000000000000000000000000000000000000000000000000000000000000000000000000000000000000000000000000000000000000000000000000000000000000000000000000000000000000000000000000000000000000000000000000000000000000000000000000000000000000000000000000
310
00000000000000000000000000000000000000000000000000000000000000000000000000000000000000000000000000000000000000000000000000000000000000000000000000000000000000000000000000000000000000000000000000000000000000000000000000000000000000000000000000000000000000
310
00000000000000000000000000000000000000000000000000000000000000000000000000000000000000000000000000000000000000000000000000000000000000000000000000000000000000000000000000000000000000000000000000000000000000000000000000000000000000000000000000000000000000
310
00000000000000000000000000000000000000000000000000000000000000000000000000000000000000000000000000000000000000000000000000000000000000000000000000000000000000000000000000000000000000000000000000000000000000000000000000000000000000000000000000000000000000
310
00000000000000000000000000000000000000000000000000000000000000000000000000000000000000000000000000000000000000000000000000000000000000000000000000000000000000000000000000000000000000000000000000000000000000000000000000000000000000000000000000000000000000
310
00000000000000000000000000000000000000000000000000000000000000000000000000000000000000000000000000000000000000000000000000000000000000000000000000000000000000000000000000000000000000000000000000000000000000000000000000000000000000000000000000000000000000
310
00000000000000000000000000000000000000000000000000000000000000000000000000000000000000000000000000000000000000000000000000000000000000000000000000000000000000000000000000000000000000000000000000000000000000000000000000000000000000000000000000000000000000
310
00000000000000000000000000000000000000000000000000000000000000000000000000000000000000000000000000000000000000000000000000000000000000000000000000000000000000000000000000000000000000000000000000000000000000000000000000000000000000000000000000000000000000
310
00000000000000000000000000000000000000000000000000000000000000000000000000000000000000000000000000000000000000000000000000000000000000000000000000000000000000000000000000000000000000000000000000000000000000000000000000000000000000000000000000000000000000
310
00000000000000000000000000000000000000000000000000000000000000000000000000000000000000000000000000000000000000000000000000000000000000000000000000000000000000000000000000000000000000000000000000000000000000000000000000000000000000000000000000000000000000
310
00000000000000000000000000000000000000000000000000000000000000000000000000000000000000000000000000000000000000000000000000000000000000000000000000000000000000000000000000000000000000000000000000000000000000000000000000000000000000000000000000000000000000
310
00000000000000000000000000000000000000000000000000000000000000000000000000000000000000000000000000000000000000000000000000000000000000000000000000000000000000000000000000000000000000000000000000000000000000000000000000000000000000000000000000000000000000
310
00000000000000000000000000000000000000000000000000000000000000000000000000000000000000000000000000000000000000000000000000000000000000000000000000000000000000000000000000000000000000000000000000000000000000000000000000000000000000000000000000000000000000
310
00000000000000000000000000000000000000000000000000000000000000000000000000000000000000000000000000000000000000000000000000000000000000000000000000000000000000000000000000000000000000000000000000000000000000000000000000000000000000000000000000000000000000
310
00000000000000000000000000000000000000000000000000000000000000000000000000000000000000000000000000000000000000000000000000000000000000000000000000000000000000000000000000000000000000000000000000000000000000000000000000000000000000000000000000000000000000
310
00000000000000000000000000000000000000000000000000000000000000000000000000000000000000000000000000000000000000000000000000000000000000000000000000000000000000000000000000000000000000000000000000000000000000000000000000000000000000000000000000000000000000
310
00000000000000000000000000000000000000000000000000000000000000000000000000000000000000000000000000000000000000000000000000000000000000000000000000000000000000000000000000000000000000000000000000000000000000000000000000000000000000000000000000000000000000
310
00000000000000000000000000000000000000000000000000000000000000000000000000000000000000000000000000000000000000000000000000000000000000000000000000000000000000000000000000000000000000000000000000000000000000000000000000000000000000000000000000000000000000
310
00000000000000000000000000000000000000000000000000000000000000000000000000000000000000000000000000000000000000000000000000000000000000000000000000000000000000000000000000000000000000000000000000000000000000000000000000000000000000000000000000000000000000
310
00000000000000000000000000000000000000000000000000000000000000000000000000000000000000000000000000000000000000000000000000000000000000000000000000000000000000000000000000000000000000000000000000000000000000000000000000000000000000000000000000000000000000
310
00000000000000000000000000000000000000000000000000000000000000000000000000000000000000000000000000000000000000000000000000000000000000000000000000000000000000000000000000000000000000000000000000000000000000000000000000000000000000000000000000000000000000
310
00000000000000000000000000000000000000000000000000000000000000000000000000000000000000000000000000000000000000000000000000000000000000000000000000000000000000000000000000000000000000000000000000000000000000000000000000000000000000000000000000000000000000
310
00000000000000000000000000000000000000000000000000000000000000000000000000000000000000000000000000000000000000000000000000000000000000000000000000000000000000000000000000000000000000000000000000000000000000000000000000000000000000000000000000000000000000
310
00000000000000000000000000000000000000000000000000000000000000000000000000000000000000000000000000000000000000000000000000000000000000000000000000000000000000000000000000000000000000000000000000000000000000000000000000000000000000000000000000000000000000
310
00000000000000000000000000000000000000000000000000000000000000000000000000000000000000000000000000000000000000000000000000000000000000000000000000000000000000000000000000000000000000000000000000000000000000000000000000000000000000000000000000000000000000
310
00000000000000000000000000000000000000000000000000000000000000000000000000000000000000000000000000000000000000000000000000000000000000000000000000000000000000000000000000000000000000000000000000000000000000000000000000000000000000000000000000000000000000
310
00000000000000000000000000000000000000000000000000000000000000000000000000000000000000000000000000000000000000000000000000000000000000000000000000000000000000000000000000000000000000000000000000000000000000000000000000000000000000000000000000000000000000
310
00000000000000000000000000000000000000000000000000000000000000000000000000000000000000000000000000000000000000000000000000000000000000000000000000000000000000000000000000000000000000000000000000000000000000000000000000000000000000000000000000000000000000
310
00000000000000000000000000000000000000000000000000000000000000000000000000000000000000000000000000000000000000000000000000000000000000000000000000000000000000000000000000000000000000000000000000000000000000000000000000000000000000000000000000000000000000
310
00000000000000000000000000000000000000000000000000000000000000000000000000000000000000000000000000000000000000000000000000000000000000000000000000000000000000000000000000000000000000000000000000000000000000000000000000000000000000000000000000000000000000
310
00000000000000000000000000000000000000000000000000000000000000000000000000000000000000000000000000000000000000000000000000000000000000000000000000000000000000000000000000000000000000000000000000000000000000000000000000000000000000000000000000000000000000
310
00000000000000000000000000000000000000000000000000000000000000000000000000000000000000000000000000000000000000000000000000000000000000000000000000000000000000000000000000000000000000000000000000000000000000000000000000000000000000000000000000000000000000
310
00000000000000000000000000000000000000000000000000000000000000000000000000000000000000000000000000000000000000000000000000000000000000000000000000000000000000000000000000000000000000000000000000000000000000000000000000000000000000000000000000000000000000
310
00000000000000000000000000000000000000000000000000000000000000000000000000000000000000000000000000000000000000000000000000000000000000000000000000000000000000000000000000000000000000000000000000000000000000000000000000000000000000000000000000000000000000
310
00000000000000000000000000000000000000000000000000000000000000000000000000000000000000000000000000000000000000000000000000000000000000000000000000000000
  0
XRECORD
  5
44
102
{ACAD_REACTORS
330
43
102
}
330
43
100
AcDbXrecord
280
     1
270
     1
271
     1
  0
XRECORD
  5
45
102
{ACAD_REACTORS
330
43
102
}
330
43
100
AcDbXrecord
280
     1
270
     1
271
     1
  0
XRECORD
  5
46
102
{ACAD_REACTORS
330
43
102
}
330
43
100
AcDbXrecord
280
     1
270
     1
271
     1
  0
XRECORD
  5
47
102
{ACAD_REACTORS
330
43
102
}
330
43
100
AcDbXrecord
280
     1
270
     1
271
     1
  0
XRECORD
  5
48
102
{ACAD_REACTORS
330
43
102
}
330
43
100
AcDbXrecord
280
     1
270
     1
271
     1
  0
XRECORD
  5
49
102
{ACAD_REACTORS
330
43
102
}
330
43
100
AcDbXrecord
280
     1
270
     1
271
     1
  0
XRECORD
  5
3C
102
{ACAD_REACTORS
330
3B
102
}
330
3B
100
AcDbXrecord
280
     1
270
     1
271
     1
  0
XRECORD
  5
3D
102
{ACAD_REACTORS
330
3B
102
}
330
3B
100
AcDbXrecord
280
     1
270
     1
271
     1
  0
XRECORD
  5
3E
102
{ACAD_REACTORS
330
3B
102
}
330
3B
100
AcDbXrecord
280
     1
270
     1
271
     1
  0
XRECORD
  5
3F
102
{ACAD_REACTORS
330
3B
102
}
330
3B
100
AcDbXrecord
280
     1
270
     1
271
     1
  0
XRECORD
  5
40
102
{ACAD_REACTORS
330
3B
102
}
330
3B
100
AcDbXrecord
280
     1
270
     1
271
     1
  0
XRECORD
  5
41
102
{ACAD_REACTORS
330
3B
102
}
330
3B
100
AcDbXrecord
280
     1
270
     1
271
     1
  0
XRECORD
  5
F
102
{ACAD_REACTORS
330
E
102
}
330
E
100
AcDbXrecord
280
     1
270
     1
271
     1
  0
XRECORD
  5
10
102
{ACAD_REACTORS
330
E
102
}
330
E
100
AcDbXrecord
280
     1
270
     1
271
     1
  0
XRECORD
  5
11
102
{ACAD_REACTORS
330
E
102
}
330
E
100
AcDbXrecord
280
     1
270
     1
271
     1
  0
XRECORD
  5
12
102
{ACAD_REACTORS
330
E
102
}
330
E
100
AcDbXrecord
280
     1
270
     1
271
     1
  0
XRECORD
  5
13
102
{ACAD_REACTORS
330
E
102
}
330
E
100
AcDbXrecord
280
     1
270
     1
271
     1
  0
XRECORD
  5
14
102
{ACAD_REACTORS
330
E
102
}
330
E
100
AcDbXrecord
280
     1
270
     1
271
     1
  0
CELLSTYLEMAP
  5
421
102
{ACAD_REACTORS
330
54
102
}
330
54
100
AcDbCellStyleMap
 90
        3
300
CELLSTYLE
  1
TABLEFORMAT_BEGIN
 90
        5
170
     1
 91
        0
 92
    32768
 62
   257
 93
        1
300
CONTENTFORMAT
  1
CONTENTFORMAT_BEGIN
 90
        0
 91
        0
 92
      512
 93
        0
300

 40
0.0
140
1.0
 94
        5
 62
     0
340
23
144
0.25
309
CONTENTFORMAT_END
171
     0
 94
        0
309
TABLEFORMAT_END
  1
CELLSTYLE_BEGIN
 90
        1
 91
        1
300
_TITLE
309
CELLSTYLE_END
300
CELLSTYLE
  1
TABLEFORMAT_BEGIN
 90
        5
170
     1
 91
        0
 92
        0
 62
   257
 93
        1
300
CONTENTFORMAT
  1
CONTENTFORMAT_BEGIN
 90
        0
 91
        0
 92
      512
 93
        0
300

 40
0.0
140
1.0
 94
        5
 62
     0
340
23
144
0.18
309
CONTENTFORMAT_END
171
     0
 94
        0
309
TABLEFORMAT_END
  1
CELLSTYLE_BEGIN
 90
        2
 91
        1
300
_HEADER
309
CELLSTYLE_END
300
CELLSTYLE
  1
TABLEFORMAT_BEGIN
 90
        5
170
     1
 91
        0
 92
        0
 62
   257
 93
        1
300
CONTENTFORMAT
  1
CONTENTFORMAT_BEGIN
 90
        0
 91
        0
 92
      512
 93
        0
300

 40
0.0
140
1.0
 94
        2
 62
     0
340
23
144
0.18
309
CONTENTFORMAT_END
171
     0
 94
        0
309
TABLEFORMAT_END
  1
CELLSTYLE_BEGIN
 90
        3
 91
        2
300
_DATA
309
CELLSTYLE_END
  0
ENDSEC
  0
EOF
