  0
SECTION
  2
HEADER
  9
$ACADVER
  1
AC1024
  9
$ACADMAINTVER
 70
    10
  9
$DWGCODEPAGE
  3
ANSI_1252
  9
$INSBASE
 10
0.0
 20
0.0
 30
0.0
  9
$EXTMIN
 10
-5237.779763247279
 20
-0.1391919485959079
 30
-0.000000000000012
  9
$EXTMAX
 10
5934.498471940031
 20
4863.161896193409
 30
0.0000000000000033
  9
$LIMMIN
 10
-0.0000000667182576
 20
0.0000006442210179
  9
$LIMMAX
 10
742.4999999332817
 20
525.000000644221
  9
$ORTHOMODE
 70
     1
  9
$REGENMODE
 70
     1
  9
$FILLMODE
 70
     1
  9
$QTEXTMODE
 70
     0
  9
$MIRRTEXT
 70
     1
  9
$LTSCALE
 40
15.0
  9
$ATTMODE
 70
     1
  9
$TEXTSIZE
 40
5.0
  9
$TRACEWID
 40
1.0
  9
$TEXTSTYLE
  7
STANDARD
  9
$CLAYER
  8
0
  9
$CELTYPE
  6
BYLAYER
  9
$CECOLOR
 62
   256
  9
$CELTSCALE
 40
1.0
  9
$DISPSILH
 70
     0
  9
$DIMSCALE
 40
2.0
  9
$DIMASZ
 40
2.5
  9
$DIMEXO
 40
1.0
  9
$DIMDLI
 40
10.0
  9
$DIMRND
 40
0.0
  9
$DIMDLE
 40
0.0
  9
$DIMEXE
 40
1.0
  9
$DIMTP
 40
0.0
  9
$DIMTM
 40
0.0
  9
$DIMTXT
 40
2.5
  9
$DIMCEN
 40
0.0
  9
$DIMTSZ
 40
0.0
  9
$DIMTOL
 70
     0
  9
$DIMLIM
 70
     0
  9
$DIMTIH
 70
     0
  9
$DIMTOH
 70
     0
  9
$DIMSE1
 70
     0
  9
$DIMSE2
 70
     0
  9
$DIMTAD
 70
     1
  9
$DIMZIN
 70
     8
  9
$DIMBLK
  1

  9
$DIMASO
 70
     1
  9
$DIMSHO
 70
     1
  9
$DIMPOST
  1

  9
$DIMAPOST
  1

  9
$DIMALT
 70
     0
  9
$DIMALTD
 70
     3
  9
$DIMALTF
 40
0.03937007874016
  9
$DIMLFAC
 40
1.0
  9
$DIMTOFL
 70
     1
  9
$DIMTVP
 40
0.0
  9
$DIMTIX
 70
     0
  9
$DIMSOXD
 70
     0
  9
$DIMSAH
 70
     0
  9
$DIMBLK1
  1

  9
$DIMBLK2
  1

  9
$DIMSTYLE
  2
Wagner
  9
$DIMCLRD
 70
     4
  9
$DIMCLRE
 70
     4
  9
$DIMCLRT
 70
     1
  9
$DIMTFAC
 40
1.0
  9
$DIMGAP
 40
1.0
  9
$DIMJUST
 70
     0
  9
$DIMSD1
 70
     0
  9
$DIMSD2
 70
     0
  9
$DIMTOLJ
 70
     0
  9
$DIMTZIN
 70
     8
  9
$DIMALTZ
 70
     0
  9
$DIMALTTZ
 70
     0
  9
$DIMUPT
 70
     0
  9
$DIMDEC
 70
     8
  9
$DIMTDEC
 70
     8
  9
$DIMALTU
 70
     2
  9
$DIMALTTD
 70
     3
  9
$DIMTXSTY
  7
STANDARD
  9
$DIMAUNIT
 70
     0
  9
$DIMADEC
 70
     8
  9
$DIMALTRND
 40
0.0
  9
$DIMAZIN
 70
     2
  9
$DIMDSEP
 70
    46
  9
$DIMATFIT
 70
     3
  9
$DIMFRAC
 70
     0
  9
$DIMLDRBLK
  1

  9
$DIMLUNIT
 70
     2
  9
$DIMLWD
 70
    -2
  9
$DIMLWE
 70
    -2
  9
$DIMTMOVE
 70
     0
  9
$DIMFXL
 40
1.0
  9
$DIMFXLON
 70
     0
  9
$DIMJOGANG
 40
0.7853981633974483
  9
$DIMTFILL
 70
     0
  9
$DIMTFILLCLR
 70
     0
  9
$DIMARCSYM
 70
     0
  9
$DIMLTYPE
  6

  9
$DIMLTEX1
  6

  9
$DIMLTEX2
  6

  9
$DIMTXTDIRECTION
 70
     0
  9
$LUNITS
 70
     2
  9
$LUPREC
 70
     1
  9
$SKETCHINC
 40
1.0
  9
$FILLETRAD
 40
0.0
  9
$AUNITS
 70
     0
  9
$AUPREC
 70
     0
  9
$MENU
  1
.
  9
$ELEVATION
 40
0.0
  9
$PELEVATION
 40
0.0
  9
$THICKNESS
 40
0.0
  9
$LIMCHECK
 70
     0
  9
$CHAMFERA
 40
0.0
  9
$CHAMFERB
 40
0.0
  9
$CHAMFERC
 40
20.0
  9
$CHAMFERD
 40
0.0
  9
$SKPOLY
 70
     0
  9
$TDCREATE
 40
2451661.617428936
  9
$TDUCREATE
 40
2451661.575762269
  9
$TDUPDATE
 40
2457695.663683634
  9
$TDUUPDATE
 40
2457695.622016968
  9
$TDINDWG
 40
9.6005316898
  9
$TDUSRTIMER
 40
9.6005315741
  9
$USRTIMER
 70
     1
  9
$ANGBASE
 50
0.0
  9
$ANGDIR
 70
     0
  9
$PDMODE
 70
     0
  9
$PDSIZE
 40
0.0
  9
$PLINEWID
 40
0.0
  9
$SPLFRAME
 70
     0
  9
$SPLINETYPE
 70
     6
  9
$SPLINESEGS
 70
     8
  9
$HANDSEED
  5
3F3
  9
$SURFTAB1
 70
     6
  9
$SURFTAB2
 70
     6
  9
$SURFTYPE
 70
     6
  9
$SURFU
 70
     6
  9
$SURFV
 70
     6
  9
$UCSBASE
  2

  9
$UCSNAME
  2

  9
$UCSORG
 10
0.0
 20
0.0
 30
0.0
  9
$UCSXDIR
 10
1.0
 20
0.0
 30
0.0
  9
$UCSYDIR
 10
0.0
 20
1.0
 30
0.0
  9
$UCSORTHOREF
  2

  9
$UCSORTHOVIEW
 70
     0
  9
$UCSORGTOP
 10
0.0
 20
0.0
 30
0.0
  9
$UCSORGBOTTOM
 10
0.0
 20
0.0
 30
0.0
  9
$UCSORGLEFT
 10
0.0
 20
0.0
 30
0.0
  9
$UCSORGRIGHT
 10
0.0
 20
0.0
 30
0.0
  9
$UCSORGFRONT
 10
0.0
 20
0.0
 30
0.0
  9
$UCSORGBACK
 10
0.0
 20
0.0
 30
0.0
  9
$PUCSBASE
  2

  9
$PUCSNAME
  2

  9
$PUCSORG
 10
0.0
 20
0.0
 30
0.0
  9
$PUCSXDIR
 10
1.0
 20
0.0
 30
0.0
  9
$PUCSYDIR
 10
0.0
 20
1.0
 30
0.0
  9
$PUCSORTHOREF
  2

  9
$PUCSORTHOVIEW
 70
     0
  9
$PUCSORGTOP
 10
0.0
 20
0.0
 30
0.0
  9
$PUCSORGBOTTOM
 10
0.0
 20
0.0
 30
0.0
  9
$PUCSORGLEFT
 10
0.0
 20
0.0
 30
0.0
  9
$PUCSORGRIGHT
 10
0.0
 20
0.0
 30
0.0
  9
$PUCSORGFRONT
 10
0.0
 20
0.0
 30
0.0
  9
$PUCSORGBACK
 10
0.0
 20
0.0
 30
0.0
  9
$USERI1
 70
     0
  9
$USERI2
 70
     0
  9
$USERI3
 70
     0
  9
$USERI4
 70
     0
  9
$USERI5
 70
     0
  9
$USERR1
 40
0.0
  9
$USERR2
 40
0.0
  9
$USERR3
 40
0.0
  9
$USERR4
 40
0.0
  9
$USERR5
 40
0.0
  9
$WORLDVIEW
 70
     1
  9
$SHADEDGE
 70
     3
  9
$SHADEDIF
 70
    70
  9
$TILEMODE
 70
     1
  9
$MAXACTVP
 70
    48
  9
$PINSBASE
 10
0.0
 20
0.0
 30
0.0
  9
$PLIMCHECK
 70
     0
  9
$PEXTMIN
 10
1.000000000000000E+20
 20
1.000000000000000E+20
 30
1.000000000000000E+20
  9
$PEXTMAX
 10
-1.000000000000000E+20
 20
-1.000000000000000E+20
 30
-1.000000000000000E+20
  9
$PLIMMIN
 10
0.0
 20
0.0
  9
$PLIMMAX
 10
420.0
 20
297.0
  9
$UNITMODE
 70
     0
  9
$VISRETAIN
 70
     1
  9
$PLINEGEN
 70
     0
  9
$PSLTSCALE
 70
     1
  9
$TREEDEPTH
 70
  3020
  9
$CMLSTYLE
  2
STANDARD
  9
$CMLJUST
 70
     0
  9
$CMLSCALE
 40
20.0
  9
$PROXYGRAPHICS
 70
     1
  9
$MEASUREMENT
 70
     1
  9
$CELWEIGHT
370
    -1
  9
$ENDCAPS
280
     0
  9
$JOINSTYLE
280
     0
  9
$LWDISPLAY
290
     0
  9
$INSUNITS
 70
     0
  9
$HYPERLINKBASE
  1

  9
$STYLESHEET
  1

  9
$XEDIT
290
     1
  9
$CEPSNTYPE
380
     0
  9
$PSTYLEMODE
290
     1
  9
$FINGERPRINTGUID
  2
{E9D45DF4-AEA5-4F6B-AF12-F17B8860BDD7}
  9
$VERSIONGUID
  2
{3AFE020B-D7BE-4E41-92E4-7E5079C4F9BB}
  9
$EXTNAMES
290
     1
  9
$PSVPSCALE
 40
0.0
  9
$OLESTARTUP
290
     0
  9
$SORTENTS
280
   127
  9
$INDEXCTL
280
     0
  9
$HIDETEXT
280
     1
  9
$XCLIPFRAME
280
     0
  9
$HALOGAP
280
     0
  9
$OBSCOLOR
 70
   257
  9
$OBSLTYPE
280
     0
  9
$INTERSECTIONDISPLAY
280
     0
  9
$INTERSECTIONCOLOR
 70
   257
  9
$DIMASSOC
280
     1
  9
$PROJECTNAME
  1

  9
$CAMERADISPLAY
290
     0
  9
$LENSLENGTH
 40
50.0
  9
$CAMERAHEIGHT
 40
0.0
  9
$STEPSPERSEC
 40
2.0
  9
$STEPSIZE
 40
6.0
  9
$3DDWFPREC
 40
2.0
  9
$PSOLWIDTH
 40
0.25
  9
$PSOLHEIGHT
 40
4.0
  9
$LOFTANG1
 40
1.570796326794896
  9
$LOFTANG2
 40
1.570796326794896
  9
$LOFTMAG1
 40
0.0
  9
$LOFTMAG2
 40
0.0
  9
$LOFTPARAM
 70
     7
  9
$LOFTNORMALS
280
     1
  9
$LATITUDE
 40
37.795
  9
$LONGITUDE
 40
-122.394
  9
$NORTHDIRECTION
 40
0.0
  9
$TIMEZONE
 70
 -8000
  9
$LIGHTGLYPHDISPLAY
280
     1
  9
$TILEMODELIGHTSYNCH
280
     1
  9
$CMATERIAL
347
3D
  9
$SOLIDHIST
280
     1
  9
$SHOWHIST
280
     1
  9
$DWFFRAME
280
     2
  9
$DGNFRAME
280
     0
  9
$REALWORLDSCALE
290
     1
  9
$INTERFERECOLOR
 62
     1
  9
$INTERFEREOBJVS
345
54
  9
$INTERFEREVPVS
346
55
  9
$CSHADOW
280
     0
  9
$SHADOWPLANELOCATION
 40
0.0
  0
ENDSEC
  0
SECTION
  2
CLASSES
  0
CLASS
  1
ACDBDICTIONARYWDFLT
  2
AcDbDictionaryWithDefault
  3
ObjectDBX Classes
 90
        0
 91
        1
280
     0
281
     0
  0
CLASS
  1
MATERIAL
  2
AcDbMaterial
  3
ObjectDBX Classes
 90
     1153
 91
        3
280
     0
281
     0
  0
CLASS
  1
VISUALSTYLE
  2
AcDbVisualStyle
  3
ObjectDBX Classes
 90
     4095
 91
        3
280
     0
281
     0
  0
CLASS
  1
TABLESTYLE
  2
AcDbTableStyle
  3
ObjectDBX Classes
 90
     4095
 91
        1
280
     0
281
     0
  0
CLASS
  1
SCALE
  2
AcDbScale
  3
ObjectDBX Classes
 90
     1153
 91
       33
280
     0
281
     0
  0
CLASS
  1
MLEADERSTYLE
  2
AcDbMLeaderStyle
  3
ACDB_MLEADERSTYLE_CLASS
 90
     4095
 91
        0
280
     0
281
     0
  0
CLASS
  1
CELLSTYLEMAP
  2
AcDbCellStyleMap
  3
ObjectDBX Classes
 90
     1152
 91
        1
280
     0
281
     0
  0
CLASS
  1
DICTIONARYVAR
  2
AcDbDictionaryVar
  3
ObjectDBX Classes
 90
        0
 91
        7
280
     0
281
     0
  0
CLASS
  1
SORTENTSTABLE
  2
AcDbSortentsTable
  3
ObjectDBX Classes
 90
        0
 91
        4
280
     0
281
     0
  0
CLASS
  1
SOLID_BACKGROUND
  2
AcDbSolidBackground
  3
SCENEOE
 90
     4095
 91
        0
280
     0
281
     0
  0
CLASS
  1
NPOCOLLECTION
  2
AcDbImpNonPersistentObjectsCollection
  3
ObjectDBX Classes
 90
     1153
 91
        0
280
     0
281
     0
  0
CLASS
  1
DIMASSOC
  2
AcDbDimAssoc
  3
"AcDbDimAssoc|Product Desc:     AcDim ARX App For Dimension|Company:          Autodesk, Inc.|WEB Address:      www.autodesk.com"
 90
        0
 91
        0
280
     0
281
     0
  0
CLASS
  1
ACAD_TABLE
  2
AcDbTable
  3
ObjectDBX Classes
 90
     1025
 91
        0
280
     0
281
     1
  0
CLASS
  1
TABLECONTENT
  2
AcDbTableContent
  3
ObjectDBX Classes
 90
     1152
 91
        0
280
     0
281
     0
  0
CLASS
  1
TABLEGEOMETRY
  2
AcDbTableGeometry
  3
ObjectDBX Classes
 90
     1152
 91
        0
280
     0
281
     0
  0
CLASS
  1
ACAD_EVALUATION_GRAPH
  2
AcDbEvalGraph
  3
ObjectDBX Classes
 90
     1153
 91
        0
280
     0
281
     0
  0
CLASS
  1
BLOCKBASEPOINTPARAMETER
  2
AcDbBlockBasepointParameter
  3
ObjectDBX Classes
 90
     1153
 91
        0
280
     0
281
     0
  0
CLASS
  1
ACDB_DYNAMICBLOCKPURGEPREVENTER_VERSION
  2
AcDbDynamicBlockPurgePreventer
  3
ObjectDBX Classes
 90
     1153
 91
        0
280
     0
281
     0
  0
CLASS
  1
ACDB_BLOCKREPRESENTATION_DATA
  2
AcDbBlockRepresentationData
  3
ObjectDBX Classes
 90
     1153
 91
        0
280
     0
281
     0
  0
CLASS
  1
IMAGEDEF
  2
AcDbRasterImageDef
  3
ISM
 90
        0
 91
        0
280
     0
281
     0
  0
CLASS
  1
EXACXREFPANELOBJECT
  2
ExAcXREFPanelObject
  3
EXAC_ESW
 90
     1025
 91
        0
280
     1
281
     0
  0
CLASS
  1
AEC_REFEDIT_STATUS_TRACKER
  2
AecDbRefEditStatusTracker
  3
AecArchBase60|Product Desc: Autodesk Architectural Desktop 2007 |Company: Autodesk,Inc. |WEB Address: www.autodesk.com
 90
      129
 91
        0
280
     0
281
     0
  0
CLASS
  1
ACDBASSOCNETWORK
  2
AcDbAssocNetwork
  3
ObjectDBX Classes
 90
     1025
 91
        0
280
     0
281
     0
  0
CLASS
  1
ACDBASSOC2DCONSTRAINTGROUP
  2
AcDbAssoc2dConstraintGroup
  3
ObjectDBX Classes
 90
     1025
 91
        0
280
     0
281
     0
  0
CLASS
  1
ACDBASSOCGEOMDEPENDENCY
  2
AcDbAssocGeomDependency
  3
ObjectDBX Classes
 90
     1025
 91
        0
280
     0
281
     0
  0
ENDSEC
  0
SECTION
  2
TABLES
  0
TABLE
  2
VPORT
  5
2E
102
{ACAD_XDICTIONARY
360
32
102
}
330
0
100
AcDbSymbolTable
 70
     1
  0
VPORT
  5
2F
330
2E
100
AcDbSymbolTableRecord
100
AcDbViewportTableRecord
  2
*Active
 70
     0
 10
0.0
 20
0.0
 11
1.0
 21
1.0
 12
572.3940088469574
 22
242.9973240165909
 13
0.0
 23
0.0
 14
10.0
 24
10.0
 15
100.0
 25
100.0
 16
0.0
 26
0.0
 36
1.0
 17
0.0
 27
0.0
 37
0.0
 40
658.9748034976037
 41
1.98076923076923
 42
50.0
 43
0.0
 44
0.0
 50
0.0
 51
0.0
 71
     0
 72
  1000
 73
     1
 74
     0
 75
     0
 76
     0
 77
     0
 78
     0
281
     0
 65
     1
110
0.0
120
0.0
130
0.0
111
1.0
121
0.0
131
0.0
112
0.0
122
1.0
132
0.0
 79
     0
146
0.0
348
30
 60
     3
 61
     5
292
     1
282
     1
141
0.0
142
0.0
 63
   250
421
  3355443
  0
ENDTAB
  0
TABLE
  2
LTYPE
  5
29
330
0
100
AcDbSymbolTable
 70
     4
  0
LTYPE
  5
2A
330
29
100
AcDbSymbolTableRecord
100
AcDbLinetypeTableRecord
  2
BYBLOCK
 70
     0
  3

 72
    65
 73
     0
 40
0.0
  0
LTYPE
  5
2B
330
29
100
AcDbSymbolTableRecord
100
AcDbLinetypeTableRecord
  2
BYLAYER
 70
     0
  3

 72
    65
 73
     0
 40
0.0
  0
LTYPE
  5
15
330
29
100
AcDbSymbolTableRecord
100
AcDbLinetypeTableRecord
  2
CONTINUOUS
 70
     0
  3
Solid line
 72
    65
 73
     0
 40
0.0
  0
LTYPE
  5
2A2
330
29
100
AcDbSymbolTableRecord
100
AcDbLinetypeTableRecord
  2
AUSGEZOGEN
 70
     0
  3
Ausgezogene Linie
 72
    65
 73
     0
 40
0.0
  0
LTYPE
  5
C0
330
29
100
AcDbSymbolTableRecord
100
AcDbLinetypeTableRecord
  2
VERDECKT
 70
     0
  3
__ __ __ __ __ __ __ __ __ __ __ __ __ __ __ __
 72
    65
 73
     2
 40
0.375
 49
0.25
 74
     0
 49
-0.125
 74
     0
  0
LTYPE
  5
B9
330
29
100
AcDbSymbolTableRecord
100
AcDbLinetypeTableRecord
  2
STRICHPUNKT
 70
     0
  3
__ . __ . __ . __ . __ . __ . __ . __ . __ . __
 72
    65
 73
     4
 40
1.0
 49
0.5
 74
     0
 49
-0.25
 74
     0
 49
0.0
 74
     0
 49
-0.25
 74
     0
  0
ENDTAB
  0
TABLE
  2
LAYER
  5
20
102
{ACAD_XDICTIONARY
360
21
102
}
330
0
100
AcDbSymbolTable
 70
     9
  0
LAYER
  5
6
102
{ACAD_XDICTIONARY
360
7
102
}
330
20
100
AcDbSymbolTableRecord
100
AcDbLayerTableRecord
  2
0
 70
     0
 62
     7
  6
CONTINUOUS
370
    -3
390
9
347
C
  0
LAYER
  5
262
102
{ACAD_XDICTIONARY
360
263
102
}
330
20
100
AcDbSymbolTableRecord
100
AcDbLayerTableRecord
  2
01-99
 70
     0
 62
     2
  6
CONTINUOUS
370
    -3
390
9
347
C
  0
LAYER
  5
29F
102
{ACAD_XDICTIONARY
360
2A0
102
}
330
20
100
AcDbSymbolTableRecord
100
AcDbLayerTableRecord
  2
06-99
 70
     0
 62
     1
  6
AUSGEZOGEN
370
    -3
390
9
347
C
  0
LAYER
  5
289
102
{ACAD_XDICTIONARY
360
28A
102
}
330
20
100
AcDbSymbolTableRecord
100
AcDbLayerTableRecord
  2
08-99
 70
     0
 62
     7
  6
CONTINUOUS
370
    -3
390
9
347
C
  0
LAYER
  5
BD
102
{ACAD_XDICTIONARY
360
BE
102
}
330
20
100
AcDbSymbolTableRecord
100
AcDbLayerTableRecord
  2
03-01
 70
     0
 62
     3
  6
VERDECKT
370
    -3
390
9
347
C
  0
LAYER
  5
B6
102
{ACAD_XDICTIONARY
360
B7
102
}
330
20
100
AcDbSymbolTableRecord
100
AcDbLayerTableRecord
  2
05-01
 70
     0
 62
     1
  6
STRICHPUNKT
370
    -3
390
9
347
C
  0
LAYER
  5
78
102
{ACAD_XDICTIONARY
360
79
102
}
330
20
100
AcDbSymbolTableRecord
100
AcDbLayerTableRecord
  2
09-01
 70
     0
 62
     7
  6
CONTINUOUS
370
    -3
390
9
347
C
  0
LAYER
  5
86
330
20
100
AcDbSymbolTableRecord
100
AcDbLayerTableRecord
  2
DEFPOINTS
 70
     0
 62
     7
  6
CONTINUOUS
290
     0
370
    -3
390
9
347
C
  0
LAYER
  5
15A
102
{ACAD_XDICTIONARY
360
15B
102
}
330
20
100
AcDbSymbolTableRecord
100
AcDbLayerTableRecord
  2
02-01
 70
     0
 62
     1
  6
CONTINUOUS
370
    -3
390
9
347
C
  0
ENDTAB
  0
TABLE
  2
STYLE
  5
26
330
0
100
AcDbSymbolTable
 70
     3
  0
STYLE
  5
27
330
26
100
AcDbSymbolTableRecord
100
AcDbTextStyleTableRecord
  2
STANDARD
 70
     0
 40
0.0
 41
1.0
 50
0.0
 71
     0
 42
5.0
  3
arial.ttf
  4

1001
ACAD
1000
Arial
1071
       34
  0
STYLE
  5
28C
330
26
100
AcDbSymbolTableRecord
100
AcDbTextStyleTableRecord
  2
ROMANS8
 70
     0
 40
0.0
 41
1.0
 50
0.0
 71
     0
 42
2.5
  3
ROMANS8
  4

  0
STYLE
  5
2B3
330
26
100
AcDbSymbolTableRecord
100
AcDbTextStyleTableRecord
  2
ROMAND8
 70
     0
 40
0.0
 41
1.0
 50
0.0
 71
     0
 42
3.5
  3
ROMAND8
  4

  0
ENDTAB
  0
TABLE
  2
VIEW
  5
2C
330
0
100
AcDbSymbolTable
 70
     0
  0
ENDTAB
  0
TABLE
  2
UCS
  5
2D
330
0
100
AcDbSymbolTable
 70
     0
  0
ENDTAB
  0
TABLE
  2
APPID
  5
33
330
0
100
AcDbSymbolTable
 70
     5
  0
APPID
  5
25
330
33
100
AcDbSymbolTableRecord
100
AcDbRegAppTableRecord
  2
ACAD
 70
     0
  0
APPID
  5
36
330
33
100
AcDbSymbolTableRecord
100
AcDbRegAppTableRecord
  2
ACAD_DSTYLE_DIMJOGGED_JOGANGLE_SYMBOL
 70
     0
  0
APPID
  5
1B
330
33
100
AcDbSymbolTableRecord
100
AcDbRegAppTableRecord
  2
ACAD_PSEXT
 70
     0
  0
APPID
  5
37
330
33
100
AcDbSymbolTableRecord
100
AcDbRegAppTableRecord
  2
ACAD_DSTYLE_DIMJAG
 70
     0
  0
APPID
  5
38
330
33
100
AcDbSymbolTableRecord
100
AcDbRegAppTableRecord
  2
ACAD_DSTYLE_DIMTALN
 70
     0
  0
ENDTAB
  0
TABLE
  2
DIMSTYLE
  5
34
330
0
100
AcDbSymbolTable
 70
     2
100
AcDbDimStyleTable
 71
     1
340
35
  0
DIMSTYLE
105
35
102
{ACAD_REACTORS
330
A9
102
}
330
34
100
AcDbSymbolTableRecord
100
AcDbDimStyleTableRecord
  2
Wagner
 70
     0
 41
2.5
 42
1.0
 43
10.0
 44
1.0
 73
     0
 74
     0
 77
     1
 78
     8
 79
     2
140
2.5
141
0.0
143
0.03937007874016
147
1.0
171
     3
172
     1
176
     4
177
     4
178
     1
179
     1
271
     1
272
     1
274
     3
283
     0
284
     8
340
27
1001
ACAD_DSTYLE_DIMJOGGED_JOGANGLE_SYMBOL
1070
   384
1040
0.7853981633974483
1001
ACAD_DSTYLE_DIMJAG
1070
   388
1040
1.5
1001
ACAD_DSTYLE_DIMTALN
1070
   392
1070
     0
  0
DIMSTYLE
105
8A
102
{ACAD_REACTORS
330
3B8
330
374
330
360
330
34F
330
332
330
325
330
318
330
30B
330
2FE
330
2F0
330
2E3
330
24F
330
242
330
235
330
17D
330
170
330
161
330
9A
330
8B
330
77
102
}
330
34
100
AcDbSymbolTableRecord
100
AcDbDimStyleTableRecord
  2
Wagner$0
 70
     0
 41
2.5
 42
1.0
 43
10.0
 44
1.0
 73
     0
 74
     0
 77
     1
 78
     8
 79
     2
140
2.5
141
0.0
143
0.03937007874016
147
1.0
171
     3
172
     1
174
     1
176
     4
177
     4
178
     1
179
     1
271
     1
272
     1
274
     3
279
     2
283
     0
284
     8
340
27
1001
ACAD_DSTYLE_DIMJOGGED_JOGANGLE_SYMBOL
1070
   384
1040
0.7853981633974483
1001
ACAD_DSTYLE_DIMJAG
1070
   388
1040
1.5
1001
ACAD_DSTYLE_DIMTALN
1070
   392
1070
     0
  0
ENDTAB
  0
TABLE
  2
BLOCK_RECORD
  5
1
330
0
100
AcDbSymbolTable
 70
    28
  0
BLOCK_RECORD
  5
2
102
{ACAD_XDICTIONARY
360
3
102
}
330
1
100
AcDbSymbolTableRecord
100
AcDbBlockTableRecord
  2
*MODEL_SPACE
340
17
 70
     0
280
     1
281
     0
  0
BLOCK_RECORD
  5
1C
330
1
100
AcDbSymbolTableRecord
100
AcDbBlockTableRecord
  2
*PAPER_SPACE
340
1F
 70
     0
280
     1
281
     0
  0
BLOCK_RECORD
  5
3B9
330
1
100
AcDbSymbolTableRecord
100
AcDbBlockTableRecord
  2
*D0
340
0
 70
     0
280
     1
281
     0
  0
BLOCK_RECORD
  5
375
330
1
100
AcDbSymbolTableRecord
100
AcDbBlockTableRecord
  2
*D1
340
0
 70
     0
280
     1
281
     0
  0
BLOCK_RECORD
  5
361
330
1
100
AcDbSymbolTableRecord
100
AcDbBlockTableRecord
  2
*D2
340
0
 70
     0
280
     1
281
     0
  0
BLOCK_RECORD
  5
350
330
1
100
AcDbSymbolTableRecord
100
AcDbBlockTableRecord
  2
*D3
340
0
 70
     0
280
     1
281
     0
  0
BLOCK_RECORD
  5
333
330
1
100
AcDbSymbolTableRecord
100
AcDbBlockTableRecord
  2
*D4
340
0
 70
     0
280
     1
281
     0
  0
BLOCK_RECORD
  5
326
330
1
100
AcDbSymbolTableRecord
100
AcDbBlockTableRecord
  2
*D5
340
0
 70
     0
280
     1
281
     0
  0
BLOCK_RECORD
  5
319
330
1
100
AcDbSymbolTableRecord
100
AcDbBlockTableRecord
  2
*D6
340
0
 70
     0
280
     1
281
     0
  0
BLOCK_RECORD
  5
30C
330
1
100
AcDbSymbolTableRecord
100
AcDbBlockTableRecord
  2
*D7
340
0
 70
     0
280
     1
281
     0
  0
BLOCK_RECORD
  5
2FF
330
1
100
AcDbSymbolTableRecord
100
AcDbBlockTableRecord
  2
*D8
340
0
 70
     0
280
     1
281
     0
  0
BLOCK_RECORD
  5
2F1
330
1
100
AcDbSymbolTableRecord
100
AcDbBlockTableRecord
  2
*D9
340
0
 70
     0
280
     1
281
     0
  0
BLOCK_RECORD
  5
2E4
330
1
100
AcDbSymbolTableRecord
100
AcDbBlockTableRecord
  2
*D10
340
0
 70
     0
280
     1
281
     0
  0
BLOCK_RECORD
  5
25D
102
{ACAD_XDICTIONARY
360
25E
102
}
330
1
100
AcDbSymbolTableRecord
100
AcDbBlockTableRecord
  2
DIN A4 Quer
340
0
102
{BLKREFS
331
25C
102
}
 70
     4
280
     1
281
     0
  0
BLOCK_RECORD
  5
250
330
1
100
AcDbSymbolTableRecord
100
AcDbBlockTableRecord
  2
*D12
340
0
 70
     0
280
     1
281
     0
  0
BLOCK_RECORD
  5
243
330
1
100
AcDbSymbolTableRecord
100
AcDbBlockTableRecord
  2
*D13
340
0
 70
     0
280
     1
281
     0
  0
BLOCK_RECORD
  5
236
330
1
100
AcDbSymbolTableRecord
100
AcDbBlockTableRecord
  2
*D14
340
0
 70
     0
280
     1
281
     0
  0
BLOCK_RECORD
  5
1E6
330
1
100
AcDbSymbolTableRecord
100
AcDbBlockTableRecord
  2
Kolbendruckplatte01_s
340
0
310
2800000020000000200000000100080000000000000400000000000000000000000000000000000000000000000080000080000000808000800000008000800080800000C0C0C000C0DCC000F0CAA6000020400000206000002080000020A0000020C0000020E00000400000004020000040400000406000004080000040A0
310
000040C0000040E00000600000006020000060400000606000006080000060A0000060C0000060E00000800000008020000080400000806000008080000080A0000080C0000080E00000A0000000A0200000A0400000A0600000A0800000A0A00000A0C00000A0E00000C0000000C0200000C0400000C0600000C0800000C0
310
A00000C0C00000C0E00000E0000000E0200000E0400000E0600000E0800000E0A00000E0C00000E0E00040000000400020004000400040006000400080004000A0004000C0004000E00040200000402020004020400040206000402080004020A0004020C0004020E000404000004040200040404000404060004040800040
310
40A0004040C0004040E00040600000406020004060400040606000406080004060A0004060C0004060E00040800000408020004080400040806000408080004080A0004080C0004080E00040A0000040A0200040A0400040A0600040A0800040A0A00040A0C00040A0E00040C0000040C0200040C0400040C0600040C08000
310
40C0A00040C0C00040C0E00040E0000040E0200040E0400040E0600040E0800040E0A00040E0C00040E0E00080000000800020008000400080006000800080008000A0008000C0008000E00080200000802020008020400080206000802080008020A0008020C0008020E00080400000804020008040400080406000804080
310
008040A0008040C0008040E00080600000806020008060400080606000806080008060A0008060C0008060E00080800000808020008080400080806000808080008080A0008080C0008080E00080A0000080A0200080A0400080A0600080A0800080A0A00080A0C00080A0E00080C0000080C0200080C0400080C0600080C0
310
800080C0A00080C0C00080C0E00080E0000080E0200080E0400080E0600080E0800080E0A00080E0C00080E0E000C0000000C0002000C0004000C0006000C0008000C000A000C000C000C000E000C0200000C0202000C0204000C0206000C0208000C020A000C020C000C020E000C0400000C0402000C0404000C0406000C0
310
408000C040A000C040C000C040E000C0600000C0602000C0604000C0606000C0608000C060A000C060C000C060E000C0800000C0802000C0804000C0806000C0808000C080A000C080C000C080E000C0A00000C0A02000C0A04000C0A06000C0A08000C0A0A000C0A0C000C0A0E000C0C00000C0C02000C0C04000C0C06000
310
C0C08000C0C0A000F0FBFF00A4A0A000808080000000FF0000FF000000FFFF00FF000000FF00FF00FFFF0000FFFFFF00494949494949494949494949494949494949494949494949494949494949494949494949494949494949494949494949FFFFFF49494949494949494949494949494949494949494949494949FFFFFF
310
FF4949FF49494949494949494949494949494949494949494949494949FF4949494949FF49494949494949494949494949494949494949494949494949FF4949494949FF49494949494949494949494949494949494949494949494949FF494949494949FF494949494949494949494949494949494949494949494949FF49
310
49FFFFFF49FF494949494949494949494949494949494949494949494949FF4949FF4949FFFF494949494949494949494949494949494949494949494949FF4949FF4949FFFF49494949494949494949494949494949494949494949494949FF49FFFFFF49FF49494949494949494949494949494949494949494949494949
310
FF4949494949FF49494949494949494949494949494949494949494949494949FF4949494949FF49494949494949494949494949494949494949494949494949FF4949494949FF49494949494949494949494949494949494949494949494949FF4949494949FF494949494949494949494949494949494949494949494949
310
49FF4949494949FF49494949494949494949494949494949494949494949494949FF4949494949FF49494949494949494949494949494949494949494949494949FF4949494949FF49494949494949494949494949494949494949494949494949FF4949494949FF4949494949494949494949494949494949494949494949
310
4949FF4949494949FF49494949494949494949494949494949494949494949494949FF4949494949FF49494949494949494949494949494949494949494949494949FF4949494949FF4949494949494949494949494949494949494949494949494949FF49494949FF49494949494949494949494949494949494949494949
310
49494949FF49494949FF4949494949494949494949494949494949494949494949494949FF49494949FF4949494949494949494949494949494949494949494949494949FF49494949FF4949494949494949494949494949494949494949494949494949FF49494949FF494949494949494949494949494949494949494949
310
4949494949FFFFFFFF49FF4949494949494949494949494949494949494949494949494949FFFF49FFFFFF4949494949494949494949494949494949494949494949494949FFFFFFFF49FF4949494949494949494949494949494949494949494949494949FFFF4949FF494949494949494949494949494949494949494949
310
4949494949494949FFFF49494949494949494949494949494949494949494949494949494949494949494949494949494949494949494949
102
{BLKREFS
331
1E5
102
}
 70
     4
280
     1
281
     0
  0
BLOCK_RECORD
  5
1F4
330
1
100
AcDbSymbolTableRecord
100
AcDbBlockTableRecord
  2
Desipumpe_937045_V
340
0
310
2800000020000000200000000100080000000000000400000000000000000000000000000000000000000000000080000080000000808000800000008000800080800000C0C0C000C0DCC000F0CAA6000020400000206000002080000020A0000020C0000020E00000400000004020000040400000406000004080000040A0
310
000040C0000040E00000600000006020000060400000606000006080000060A0000060C0000060E00000800000008020000080400000806000008080000080A0000080C0000080E00000A0000000A0200000A0400000A0600000A0800000A0A00000A0C00000A0E00000C0000000C0200000C0400000C0600000C0800000C0
310
A00000C0C00000C0E00000E0000000E0200000E0400000E0600000E0800000E0A00000E0C00000E0E00040000000400020004000400040006000400080004000A0004000C0004000E00040200000402020004020400040206000402080004020A0004020C0004020E000404000004040200040404000404060004040800040
310
40A0004040C0004040E00040600000406020004060400040606000406080004060A0004060C0004060E00040800000408020004080400040806000408080004080A0004080C0004080E00040A0000040A0200040A0400040A0600040A0800040A0A00040A0C00040A0E00040C0000040C0200040C0400040C0600040C08000
310
40C0A00040C0C00040C0E00040E0000040E0200040E0400040E0600040E0800040E0A00040E0C00040E0E00080000000800020008000400080006000800080008000A0008000C0008000E00080200000802020008020400080206000802080008020A0008020C0008020E00080400000804020008040400080406000804080
310
008040A0008040C0008040E00080600000806020008060400080606000806080008060A0008060C0008060E00080800000808020008080400080806000808080008080A0008080C0008080E00080A0000080A0200080A0400080A0600080A0800080A0A00080A0C00080A0E00080C0000080C0200080C0400080C0600080C0
310
800080C0A00080C0C00080C0E00080E0000080E0200080E0400080E0600080E0800080E0A00080E0C00080E0E000C0000000C0002000C0004000C0006000C0008000C000A000C000C000C000E000C0200000C0202000C0204000C0206000C0208000C020A000C020C000C020E000C0400000C0402000C0404000C0406000C0
310
408000C040A000C040C000C040E000C0600000C0602000C0604000C0606000C0608000C060A000C060C000C060E000C0800000C0802000C0804000C0806000C0808000C080A000C080C000C080E000C0A00000C0A02000C0A04000C0A06000C0A08000C0A0A000C0A0C000C0A0E000C0C00000C0C02000C0C04000C0C06000
310
C0C08000C0C0A000F0FBFF00A4A0A000808080000000FF0000FF000000FFFF00FF000000FF00FF00FFFF0000FFFFFF004949494949494949494949494949494949494949494949494949494949494949494949494949494949494949494949FAFA494949494949494949494949494949494949494949494949494949FAFAFF
310
FAFAFFFAFA494949494949494949494949494949494949494949494949FAFA49494949FAFA494949494949494949494949494949494949494949494949FAFA49494949FAFA494949494949494949494949494949494949494949494949FAFAFAFAFAFAFAFA494949494949494949494949494949494949494949494949FAFA
310
49494949FAFA494949494949494949494949494949494949494949494949FAFA49494949FAFA494949494949494949494949494949494949494949494949FAFAFAFAFAFAFAFA494949494949494949494949494949494949494949494949FA494949494949FA494949494949494949494949494949494949494949494949FA
310
494949494949FA494949494949494949494949494949494949494949494949FA494949494949FA494949494949494949494949494949494949494949494949FA494949494949FA494949494949494949494949494949494949494949494949FAFAFAFAFAFAFAFA494949494949494949494949494949494949494949494949
310
FA494949494949FA4949494949494949494949494949494949494949494949FFFAFAFAFAFAFAFAFAFF49494949494949494949494949494949494949494949FFFA494949494949FAFF49494949494949494949494949494949494949494949FFFA494949494949FAFF49494949494949494949494949494949494949494949
310
FFFA494949494949FAFF49494949494949494949494949494949494949494949FFFA494949494949FAFF49494949494949494949494949494949494949494949FFFA494949494949FAFF49494949494949494949494949494949494949494949FFFA494949494949FAFF494949494949494949494949494949494949494949
310
49FFFA494949494949FAFF49494949494949494949494949494949494949494949FFFA494949494949FAFF49494949494949494949494949494949494949494949FFFA494949494949FAFF49494949494949494949494949494949494949494949FFFA494949494949FAFF4949494949494949494949494949494949494949
310
4949FFFA494949494949FAFF49494949494949494949494949494949494949494949FFFA494949494949FAFF49494949494949494949494949494949494949494949FFFA494949494949FAFF49494949494949494949494949494949494949494949FFFFFFFFFFFFFFFFFFFF49494949494949494949494949494949494949
310
49494949FFFFFFFFFFFFFFFF4949494949494949494949494949494949494949494949494949494949494949494949494949494949494949
102
{BLKREFS
331
1F3
102
}
 70
     4
280
     1
281
     0
  0
BLOCK_RECORD
  5
18D
330
1
100
AcDbSymbolTableRecord
100
AcDbBlockTableRecord
  2
Desipumpe_937045_S
340
0
310
2800000020000000200000000100080000000000000400000000000000000000000000000000000000000000000080000080000000808000800000008000800080800000C0C0C000C0DCC000F0CAA6000020400000206000002080000020A0000020C0000020E00000400000004020000040400000406000004080000040A0
310
000040C0000040E00000600000006020000060400000606000006080000060A0000060C0000060E00000800000008020000080400000806000008080000080A0000080C0000080E00000A0000000A0200000A0400000A0600000A0800000A0A00000A0C00000A0E00000C0000000C0200000C0400000C0600000C0800000C0
310
A00000C0C00000C0E00000E0000000E0200000E0400000E0600000E0800000E0A00000E0C00000E0E00040000000400020004000400040006000400080004000A0004000C0004000E00040200000402020004020400040206000402080004020A0004020C0004020E000404000004040200040404000404060004040800040
310
40A0004040C0004040E00040600000406020004060400040606000406080004060A0004060C0004060E00040800000408020004080400040806000408080004080A0004080C0004080E00040A0000040A0200040A0400040A0600040A0800040A0A00040A0C00040A0E00040C0000040C0200040C0400040C0600040C08000
310
40C0A00040C0C00040C0E00040E0000040E0200040E0400040E0600040E0800040E0A00040E0C00040E0E00080000000800020008000400080006000800080008000A0008000C0008000E00080200000802020008020400080206000802080008020A0008020C0008020E00080400000804020008040400080406000804080
310
008040A0008040C0008040E00080600000806020008060400080606000806080008060A0008060C0008060E00080800000808020008080400080806000808080008080A0008080C0008080E00080A0000080A0200080A0400080A0600080A0800080A0A00080A0C00080A0E00080C0000080C0200080C0400080C0600080C0
310
800080C0A00080C0C00080C0E00080E0000080E0200080E0400080E0600080E0800080E0A00080E0C00080E0E000C0000000C0002000C0004000C0006000C0008000C000A000C000C000C000E000C0200000C0202000C0204000C0206000C0208000C020A000C020C000C020E000C0400000C0402000C0404000C0406000C0
310
408000C040A000C040C000C040E000C0600000C0602000C0604000C0606000C0608000C060A000C060C000C060E000C0800000C0802000C0804000C0806000C0808000C080A000C080C000C080E000C0A00000C0A02000C0A04000C0A06000C0A08000C0A0A000C0A0C000C0A0E000C0C00000C0C02000C0C04000C0C06000
310
C0C08000C0C0A000F0FBFF00A4A0A000808080000000FF0000FF000000FFFF00FF000000FF00FF00FFFF0000FFFFFF00494949494949494949494949494949494949494949494949494949494949494949494949494949494949494949494949494949FAFA494949494949494949494949494949494949494949494949FFFF
310
FFFFFFFFFAFAFA4949494949494949494949494949494949494949494949FAFA494949494949FA4949494949494949494949494949494949494949494949FAFA494949494949FA4949494949494949494949494949494949494949494949FAFAFAFAFAFAFAFAFA4949494949494949494949494949494949494949494949FA
310
FAFAFA49494949FA4949494949494949494949494949494949494949494949FAFAFA4949494949FA4949494949494949494949494949494949494949494949FAFAFA4949494949FA494949494949494949494949494949494949494949494949FA494949494949FA4949494949494949494949494949494949494949494949
310
49FA494949494949FA494949494949494949494949494949494949494949494949FA494949494949FA494949494949494949494949494949494949494949494949FA494949494949FA494949494949494949494949494949494949494949494949FAFFFFFFFFFFFFFA49494949494949494949494949494949494949494949
310
FAFA49494949494949FA4949494949494949494949494949494949494949FFFAFFFFFFFFFFFFFFFFFFFA4949494949494949494949494949494949494949FA49494949494949494949FA4949494949494949494949494949494949494949FA49494949494949494949FA4949494949494949494949494949494949494949FA
310
49494949494949494949FA4949494949494949494949494949494949494949FA49494949494949494949FA4949494949494949494949494949494949494949FA49494949494949494949FA4949494949494949494949494949494949494949FA49494949494949494949FA4949494949494949494949494949494949494949
310
FA49494949494949494949FA4949494949494949494949494949494949494949FA49494949494949494949FA4949494949494949494949494949494949494949FA49494949494949494949FA4949494949494949494949494949494949494949FA49494949494949494949FA49494949494949494949494949494949494949
310
49FA49494949494949494949FA4949494949494949494949494949494949494949FA49494949494949494949FA4949494949494949494949494949494949494949FAFAFA4949494949494949FA4949494949494949494949494949494949494949FFFFFFFFFAFAFAFAFAFAFFFA494949494949494949494949494949494949
310
4949494949FFFFFFFFFFFFFFFF49494949494949494949494949494949494949494949494949494949494949494949494949494949494949
102
{BLKREFS
331
18C
102
}
 70
     4
280
     1
281
     0
  0
BLOCK_RECORD
  5
128
330
1
100
AcDbSymbolTableRecord
100
AcDbBlockTableRecord
  2
Desipumpe_937045_D
340
0
310
2800000020000000200000000100080000000000000400000000000000000000000000000000000000000000000080000080000000808000800000008000800080800000C0C0C000C0DCC000F0CAA6000020400000206000002080000020A0000020C0000020E00000400000004020000040400000406000004080000040A0
310
000040C0000040E00000600000006020000060400000606000006080000060A0000060C0000060E00000800000008020000080400000806000008080000080A0000080C0000080E00000A0000000A0200000A0400000A0600000A0800000A0A00000A0C00000A0E00000C0000000C0200000C0400000C0600000C0800000C0
310
A00000C0C00000C0E00000E0000000E0200000E0400000E0600000E0800000E0A00000E0C00000E0E00040000000400020004000400040006000400080004000A0004000C0004000E00040200000402020004020400040206000402080004020A0004020C0004020E000404000004040200040404000404060004040800040
310
40A0004040C0004040E00040600000406020004060400040606000406080004060A0004060C0004060E00040800000408020004080400040806000408080004080A0004080C0004080E00040A0000040A0200040A0400040A0600040A0800040A0A00040A0C00040A0E00040C0000040C0200040C0400040C0600040C08000
310
40C0A00040C0C00040C0E00040E0000040E0200040E0400040E0600040E0800040E0A00040E0C00040E0E00080000000800020008000400080006000800080008000A0008000C0008000E00080200000802020008020400080206000802080008020A0008020C0008020E00080400000804020008040400080406000804080
310
008040A0008040C0008040E00080600000806020008060400080606000806080008060A0008060C0008060E00080800000808020008080400080806000808080008080A0008080C0008080E00080A0000080A0200080A0400080A0600080A0800080A0A00080A0C00080A0E00080C0000080C0200080C0400080C0600080C0
310
800080C0A00080C0C00080C0E00080E0000080E0200080E0400080E0600080E0800080E0A00080E0C00080E0E000C0000000C0002000C0004000C0006000C0008000C000A000C000C000C000E000C0200000C0202000C0204000C0206000C0208000C020A000C020C000C020E000C0400000C0402000C0404000C0406000C0
310
408000C040A000C040C000C040E000C0600000C0602000C0604000C0606000C0608000C060A000C060C000C060E000C0800000C0802000C0804000C0806000C0808000C080A000C080C000C080E000C0A00000C0A02000C0A04000C0A06000C0A08000C0A0A000C0A0C000C0A0E000C0C00000C0C02000C0C04000C0C06000
310
C0C08000C0C0A000F0FBFF00A4A0A000808080000000FF0000FF000000FFFF00FF000000FF00FF00FFFF0000FFFFFF004949494949494949494949494949494949494949494949494949494949494949494949494949FFFFFFFFFFFFFFFFFFFFFFFFFFFFFFFFFFFFFFFF4949494949494949494949FFFFFAFAFAFAFAFAFAFA
310
FAFAFAFAFAFAFAFAFAFAFFFF49494949494949494949FF49FAFA494949494949FAFA494949494949FAFA49FF49494949494949494949FF49FAFFFFFFFFFFFFFAFAFAFAFFFFFFFFFFFFFA49FF49494949494949494949FF49FAFF49494949FAFAFAFAFAFA49494949FFFA49FF49494949494949494949FF49FAFF49494949FA
310
FAFAFAFAFA49494949FFFA49FF49494949494949494949FF49FAFF4949494949FAFAFAFA4949494949FFFA49FF49494949494949494949FF49FAFF494949494949FAFA494949494949FFFA49FF49494949494949494949FF49FAFF4949494949494949494949494949FFFA49FF49494949494949494949FF49FAFF49494949
310
49494949494949494949FFFA49FF49494949494949494949FF49FAFF4949494949494949494949494949FFFA49FF49494949494949494949FF49FAFF4949494949494949494949494949FFFA49FF49494949494949494949FF49FAFF4949494949494949494949494949FFFA49FF49494949494949494949FF49FAFF494949
310
4949494949494949494949FFFA49FF49494949494949494949FF49FAFF4949494949494949494949494949FFFA49FF49494949494949494949FF49FAFF4949494949494949494949494949FFFA49FF49494949494949494949FF49FAFF4949494949494949494949494949FFFA49FF49494949494949494949FF49FAFF4949
310
494949494949494949494949FFFA49FF49494949494949494949FF49FAFFFA494949494949494949494949FAFFFA49FF49494949494949494949FF49FAFFFA494949494949494949494949FAFFFA49FF49494949494949494949FF49FAFFFAFAFAFAFAFAFAFAFAFAFAFAFAFAFFFA49FF49494949494949494949FF49FAFFFF
310
FFFFFFFFFFFFFFFFFFFFFFFFFFFFFA49FF49494949494949494949FFFFFFFFFFFFFFFFFFFFFFFFFFFFFFFFFFFFFFFFFFFF49494949494949494949FFFFFFFFFFFFFFFFFFFFFFFFFFFFFFFFFFFFFFFFFFFF49494949494949494949FF4949494949494949494949494949494949494949FF49494949494949494949FF494949
310
4949494949494949494949494949494949FF49494949494949494949FF4949494949494949494949494949494949494949FF49494949494949494949FF4949494949494949494949494949494949494949FF49494949494949494949FFFF494949494949494949494949494949494949FFFF4949494949494949494949FFFF
310
FFFFFFFFFFFFFFFFFFFFFFFFFFFFFFFFFFFF4949494949494949494949494949494949494949494949494949494949494949494949494949
102
{BLKREFS
331
127
102
}
 70
     4
280
     1
281
     0
  0
BLOCK_RECORD
  5
17E
330
1
100
AcDbSymbolTableRecord
100
AcDbBlockTableRecord
  2
*D19
340
0
 70
     0
280
     1
281
     0
  0
BLOCK_RECORD
  5
171
330
1
100
AcDbSymbolTableRecord
100
AcDbBlockTableRecord
  2
*D20
340
0
 70
     0
280
     1
281
     0
  0
BLOCK_RECORD
  5
162
330
1
100
AcDbSymbolTableRecord
100
AcDbBlockTableRecord
  2
*D21
340
0
 70
     0
280
     1
281
     0
  0
BLOCK_RECORD
  5
FB
330
1
100
AcDbSymbolTableRecord
100
AcDbBlockTableRecord
  2
Deckel_eModul01-s
340
0
310
2800000020000000200000000100080000000000000400000000000000000000000000000000000000000000000080000080000000808000800000008000800080800000C0C0C000C0DCC000F0CAA6000020400000206000002080000020A0000020C0000020E00000400000004020000040400000406000004080000040A0
310
000040C0000040E00000600000006020000060400000606000006080000060A0000060C0000060E00000800000008020000080400000806000008080000080A0000080C0000080E00000A0000000A0200000A0400000A0600000A0800000A0A00000A0C00000A0E00000C0000000C0200000C0400000C0600000C0800000C0
310
A00000C0C00000C0E00000E0000000E0200000E0400000E0600000E0800000E0A00000E0C00000E0E00040000000400020004000400040006000400080004000A0004000C0004000E00040200000402020004020400040206000402080004020A0004020C0004020E000404000004040200040404000404060004040800040
310
40A0004040C0004040E00040600000406020004060400040606000406080004060A0004060C0004060E00040800000408020004080400040806000408080004080A0004080C0004080E00040A0000040A0200040A0400040A0600040A0800040A0A00040A0C00040A0E00040C0000040C0200040C0400040C0600040C08000
310
40C0A00040C0C00040C0E00040E0000040E0200040E0400040E0600040E0800040E0A00040E0C00040E0E00080000000800020008000400080006000800080008000A0008000C0008000E00080200000802020008020400080206000802080008020A0008020C0008020E00080400000804020008040400080406000804080
310
008040A0008040C0008040E00080600000806020008060400080606000806080008060A0008060C0008060E00080800000808020008080400080806000808080008080A0008080C0008080E00080A0000080A0200080A0400080A0600080A0800080A0A00080A0C00080A0E00080C0000080C0200080C0400080C0600080C0
310
800080C0A00080C0C00080C0E00080E0000080E0200080E0400080E0600080E0800080E0A00080E0C00080E0E000C0000000C0002000C0004000C0006000C0008000C000A000C000C000C000E000C0200000C0202000C0204000C0206000C0208000C020A000C020C000C020E000C0400000C0402000C0404000C0406000C0
310
408000C040A000C040C000C040E000C0600000C0602000C0604000C0606000C0608000C060A000C060C000C060E000C0800000C0802000C0804000C0806000C0808000C080A000C080C000C080E000C0A00000C0A02000C0A04000C0A06000C0A08000C0A0A000C0A0C000C0A0E000C0C00000C0C02000C0C04000C0C06000
310
C0C08000C0C0A000F0FBFF00A4A0A000808080000000FF0000FF000000FFFF00FF000000FF00FF00FFFF0000FFFFFF0049494949494949494949494949494949494949494949494949494949494949494949494949494949494949494949494949494949494949494949494949494949494949494949494949494949494949
310
49494949494949494949494949494949494949494949494949494949494949494949494949494949494949494949494949494949494949494949494949494949494949494949494949494949494949494949494949494949494949494949494949494949494949494949494949494949494949494949494949494949494949
310
49494949494949494949494949494949494949494949494949494949494949494949494949494949494949494949494949494949494949494949494949494949494949494949494949494949494949494949494949494949494949494949494949494949494949494949494949494949494949494949494949494949494949
310
494949494949494949494949494949494949494949494949494949494949494949494949494949494949494949494949494949494949494949494949494949494949494949494949494949494949494949494949FFFFFFFFFFFFFFFFFFFFFFFFFFFFFFFFFFFFFFFFFFFFFFFFFFFFFFFFFFFF4949FF49494949494949494949
310
49494949494949494949494949494949FFFFFF4949FF4949494949494949494949494949494949494949494949494949FF49494949FFFFFFFFFFFFFFFFFFFFFFFFFFFFFF494949494949494949494949FF494949494949494949494949494949494949FF494949494949494949494949FF4949494949494949494949494949
310
49494949FFFFFFFFFFFFFFFFFFFFFFFFFFFF49494949494949494949494949494949494949494949494949494949494949494949494949494949494949494949494949494949494949494949494949494949494949494949494949494949494949494949494949494949494949494949494949494949494949494949494949
310
49494949494949494949494949494949494949494949494949494949494949494949494949494949494949494949494949494949494949494949494949494949494949494949494949494949494949494949494949494949494949494949494949494949494949494949494949494949494949494949494949494949494949
310
49494949494949494949494949494949494949494949494949494949494949494949494949494949494949494949494949494949494949494949494949494949494949494949494949494949494949494949494949494949494949494949494949494949494949494949494949494949494949494949494949494949494949
310
4949494949494949494949494949494949494949494949494949494949494949494949494949494949494949494949494949494949494949
102
{BLKREFS
331
FA
102
}
 70
     4
280
     1
281
     0
  0
BLOCK_RECORD
  5
BA
330
1
100
AcDbSymbolTableRecord
100
AcDbBlockTableRecord
  2
eModul_937031_V
340
0
310
2800000020000000200000000100080000000000000400000000000000000000000000000000000000000000000080000080000000808000800000008000800080800000C0C0C000C0DCC000F0CAA6000020400000206000002080000020A0000020C0000020E00000400000004020000040400000406000004080000040A0
310
000040C0000040E00000600000006020000060400000606000006080000060A0000060C0000060E00000800000008020000080400000806000008080000080A0000080C0000080E00000A0000000A0200000A0400000A0600000A0800000A0A00000A0C00000A0E00000C0000000C0200000C0400000C0600000C0800000C0
310
A00000C0C00000C0E00000E0000000E0200000E0400000E0600000E0800000E0A00000E0C00000E0E00040000000400020004000400040006000400080004000A0004000C0004000E00040200000402020004020400040206000402080004020A0004020C0004020E000404000004040200040404000404060004040800040
310
40A0004040C0004040E00040600000406020004060400040606000406080004060A0004060C0004060E00040800000408020004080400040806000408080004080A0004080C0004080E00040A0000040A0200040A0400040A0600040A0800040A0A00040A0C00040A0E00040C0000040C0200040C0400040C0600040C08000
310
40C0A00040C0C00040C0E00040E0000040E0200040E0400040E0600040E0800040E0A00040E0C00040E0E00080000000800020008000400080006000800080008000A0008000C0008000E00080200000802020008020400080206000802080008020A0008020C0008020E00080400000804020008040400080406000804080
310
008040A0008040C0008040E00080600000806020008060400080606000806080008060A0008060C0008060E00080800000808020008080400080806000808080008080A0008080C0008080E00080A0000080A0200080A0400080A0600080A0800080A0A00080A0C00080A0E00080C0000080C0200080C0400080C0600080C0
310
800080C0A00080C0C00080C0E00080E0000080E0200080E0400080E0600080E0800080E0A00080E0C00080E0E000C0000000C0002000C0004000C0006000C0008000C000A000C000C000C000E000C0200000C0202000C0204000C0206000C0208000C020A000C020C000C020E000C0400000C0402000C0404000C0406000C0
310
408000C040A000C040C000C040E000C0600000C0602000C0604000C0606000C0608000C060A000C060C000C060E000C0800000C0802000C0804000C0806000C0808000C080A000C080C000C080E000C0A00000C0A02000C0A04000C0A06000C0A08000C0A0A000C0A0C000C0A0E000C0C00000C0C02000C0C04000C0C06000
310
C0C08000C0C0A000F0FBFF00A4A0A000808080000000FF0000FF000000FFFF00FF000000FF00FF00FFFF0000FFFFFF00494949494949494949494949494949494949494949494949494949494949494949494949494949494949494949FFFFFFFF49494949494949494949494949494949494949494949FFFFFFFFFFFFFFFF
310
FFFFFFFFFFFFFFFFFFFF4949494949494949494949494949FF4949494949FFFA49FF4949494949FF49FF4949494949494949494949494949FFFFFFFFFFFFFFFFFFFFFFFFFFFFFFFFFFFF4949494949494949494949494949FAFAFA49494949FA49FA4949FAFAFAFF49FF4949494949494949494949494949FAFAFF49494949
310
FA49FA4949FAFFFAFF49FF4949494949494949494949494949FAFAFF49494949FA49FA4949FAFFFAFF49FF4949494949494949494949494949FAFAFF49494949FA49FA4949FAFFFAFF49FF4949494949494949494949494949FAFAFF49494949FA49FA4949FAFFFAFF49FF4949494949494949494949494949FAFAFF494949
310
49FA49FA4949FAFFFAFF49FF4949494949494949494949494949FAFAFF49494949FAFAFA4949FAFFFAFF49FF4949494949494949494949494949FA49FF49494949494949494949FFFAFF49FF4949494949494949494949494949FA49FF49494949494949494949FFFAFF49FF4949494949494949494949494949FA49FF4949
310
4949494949494949FFFAFF49FF4949494949494949494949494949FA49FF49494949494949494949FFFAFF49FF4949494949494949494949494949FAFFFF49494949494949494949FFFFFF49FF4949494949494949494949494949FF494949494949494949494949FF494949FF4949494949494949494949494949FF494949
310
494949494949494949FF494949FF4949494949494949494949494949FF494949494949494949494949FF494949FF4949494949494949494949494949FF494949494949494949494949FF494949FF4949494949494949494949494949FAFA49494949494949494949FAFF494949FF4949494949494949494949494949FFFA49
310
494949494949494949FAFF494949FF4949494949494949494949494949FFFA49494949494949494949FAFF494949FF4949494949494949494949494949FFFA49494949494949494949FAFF494949FF4949494949494949494949494949FFFA49494949494949494949FAFF494949FF4949494949494949494949494949FFFA
310
49494949494949494949FAFF494949FF4949494949494949494949494949FAFA49494949494949494949FAFF494949FF4949494949494949494949494949FFFFFFFFFFFFFFFFFFFFFFFFFFFFFFFFFFFF49494949494949494949494949494949494949494949494949494949494949FF494949494949494949494949494949
310
49494949494949494949494949494949FF494949494949494949494949494949494949494949494949494949494949494949494949494949
102
{BLKREFS
331
B5
102
}
 70
     4
280
     1
281
     0
  0
BLOCK_RECORD
  5
AA
330
1
100
AcDbSymbolTableRecord
100
AcDbBlockTableRecord
  2
*D24
340
0
 70
     0
280
     1
281
     0
  0
BLOCK_RECORD
  5
9B
330
1
100
AcDbSymbolTableRecord
100
AcDbBlockTableRecord
  2
*D25
340
0
 70
     0
280
     1
281
     0
  0
BLOCK_RECORD
  5
8C
330
1
100
AcDbSymbolTableRecord
100
AcDbBlockTableRecord
  2
*D26
340
0
 70
     0
280
     1
281
     0
  0
BLOCK_RECORD
  5
7B
330
1
100
AcDbSymbolTableRecord
100
AcDbBlockTableRecord
  2
*D27
340
0
 70
     0
280
     1
281
     0
  0
ENDTAB
  0
ENDSEC
  0
SECTION
  2
BLOCKS
  0
BLOCK
  5
5
330
2
100
AcDbEntity
  8
0
100
AcDbBlockBegin
  2
*MODEL_SPACE
 70
     0
 10
0.0
 20
0.0
 30
0.0
  3
*MODEL_SPACE
  1

  0
ENDBLK
  5
16
330
2
100
AcDbEntity
  8
0
100
AcDbBlockEnd
  0
BLOCK
  5
1D
330
1C
100
AcDbEntity
 67
     1
  8
0
100
AcDbBlockBegin
  2
*PAPER_SPACE
 70
     0
 10
0.0
 20
0.0
 30
0.0
  3
*PAPER_SPACE
  1

  0
ENDBLK
  5
1E
330
1C
100
AcDbEntity
 67
     1
  8
0
100
AcDbBlockEnd
  0
BLOCK
  5
3BA
330
3B9
100
AcDbEntity
  8
0
100
AcDbBlockBegin
  2
*D0
 70
     1
 10
0.0
 20
0.0
 30
0.0
  3
*D0
  1

  0
LINE
  5
3BB
330
3B9
100
AcDbEntity
  8
09-01
 62
     4
440
 16777216
370
    -2
100
AcDbLine
 10
74.64683390031769
 20
208.2387681537319
 30
0.0
 11
55.79399427265158
 21
208.238768153732
 31
0.0
  0
LINE
  5
3BC
330
3B9
100
AcDbEntity
  8
09-01
 62
     4
440
 16777216
370
    -2
100
AcDbLine
 10
76.09022322560349
 20
382.2387681537319
 30
0.0
 11
55.79399427265162
 21
382.2387681537319
 31
0.0
  0
LINE
  5
3BD
330
3B9
100
AcDbEntity
  8
09-01
 62
     4
440
 16777216
370
    -2
100
AcDbLine
 10
57.79399427265158
 20
213.2387681537319
 30
0.0
 11
57.79399427265161
 21
377.238768153732
 31
0.0
  0
SOLID
  5
3BE
330
3B9
100
AcDbEntity
  8
09-01
 62
     4
440
 16777216
100
AcDbTrace
 10
56.96066093931825
 20
213.2387681537319
 30
0.0
 11
58.62732760598492
 21
213.2387681537319
 31
0.0
 12
57.79399427265158
 22
208.238768153732
 32
0.0
 13
57.79399427265158
 23
208.238768153732
 33
0.0
  0
SOLID
  5
3BF
330
3B9
100
AcDbEntity
  8
09-01
 62
     4
440
 16777216
100
AcDbTrace
 10
56.96066093931828
 20
377.238768153732
 30
0.0
 11
58.62732760598495
 21
377.238768153732
 31
0.0
 12
57.79399427265161
 22
382.2387681537319
 32
0.0
 13
57.79399427265161
 23
382.2387681537319
 33
0.0
  0
MTEXT
  5
3C0
330
3B9
100
AcDbEntity
  8
09-01
 62
     1
440
 16777216
100
AcDbMText
 10
53.28376234904991
 20
295.2387681537319
 30
0.0
 40
5.0
 41
0.0
 46
0.0
 71
     5
 72
     1
  1
174
 11
0.0000000000000001
 21
1.0
 31
0.0
 73
     1
 44
1.0
  0
POINT
  5
3C1
330
3B9
100
AcDbEntity
  8
DEFPOINTS
 62
     0
440
 16777216
100
AcDbPoint
 10
76.64683390031768
 20
208.2387681537319
 30
0.0
  0
POINT
  5
3C2
330
3B9
100
AcDbEntity
  8
DEFPOINTS
 62
     0
440
 16777216
100
AcDbPoint
 10
78.09022322560349
 20
382.2387681537319
 30
0.0
  0
POINT
  5
3C3
330
3B9
100
AcDbEntity
  8
DEFPOINTS
 62
     0
440
 16777216
100
AcDbPoint
 10
57.79399427265161
 20
382.2387681537319
 30
0.0
  0
ENDBLK
  5
3C4
330
3B9
100
AcDbEntity
  8
0
100
AcDbBlockEnd
  0
BLOCK
  5
376
330
375
100
AcDbEntity
  8
0
100
AcDbBlockBegin
  2
*D1
 70
     1
 10
0.0
 20
0.0
 30
0.0
  3
*D1
  1

  0
LINE
  5
377
330
375
100
AcDbEntity
  8
09-01
 62
     4
440
 16777216
370
    -2
100
AcDbLine
 10
74.64683390031746
 20
105.4677996290722
 30
0.0
 11
60.16281177260906
 21
105.4677996290722
 31
0.0
  0
LINE
  5
378
330
375
100
AcDbEntity
  8
09-01
 62
     4
440
 16777216
370
    -2
100
AcDbLine
 10
74.64683390031723
 20
149.9677996290722
 30
0.0
 11
60.16281177260907
 21
149.9677996290722
 31
0.0
  0
LINE
  5
379
330
375
100
AcDbEntity
  8
09-01
 62
     4
440
 16777216
370
    -2
100
AcDbLine
 10
62.16281177260906
 20
110.4677996290722
 30
0.0
 11
62.16281177260907
 21
144.9677996290722
 31
0.0
  0
SOLID
  5
37A
330
375
100
AcDbEntity
  8
09-01
 62
     4
440
 16777216
100
AcDbTrace
 10
61.32947843927572
 20
110.4677996290722
 30
0.0
 11
62.99614510594239
 21
110.4677996290722
 31
0.0
 12
62.16281177260906
 22
105.4677996290722
 32
0.0
 13
62.16281177260906
 23
105.4677996290722
 33
0.0
  0
SOLID
  5
37B
330
375
100
AcDbEntity
  8
09-01
 62
     4
440
 16777216
100
AcDbTrace
 10
61.32947843927574
 20
144.9677996290722
 30
0.0
 11
62.99614510594241
 21
144.9677996290722
 31
0.0
 12
62.16281177260907
 22
149.9677996290722
 32
0.0
 13
62.16281177260907
 23
149.9677996290722
 33
0.0
  0
MTEXT
  5
37C
330
375
100
AcDbEntity
  8
09-01
 62
     1
440
 16777216
100
AcDbMText
 10
57.62017875760222
 20
127.7177996290722
 30
0.0
 40
5.0
 41
0.0
 46
0.0
 71
     5
 72
     1
  1
44.5
 11
0.0000000000000001
 21
1.0
 31
0.0
 73
     1
 44
1.0
  0
POINT
  5
37D
330
375
100
AcDbEntity
  8
DEFPOINTS
 62
     0
440
 16777216
100
AcDbPoint
 10
76.64683390031746
 20
105.4677996290722
 30
0.0
  0
POINT
  5
37E
330
375
100
AcDbEntity
  8
DEFPOINTS
 62
     0
440
 16777216
100
AcDbPoint
 10
76.64683390031723
 20
149.9677996290722
 30
0.0
  0
POINT
  5
37F
330
375
100
AcDbEntity
  8
DEFPOINTS
 62
     0
440
 16777216
100
AcDbPoint
 10
62.16281177260907
 20
149.9677996290722
 30
0.0
  0
ENDBLK
  5
380
330
375
100
AcDbEntity
  8
0
100
AcDbBlockEnd
  0
BLOCK
  5
362
330
361
100
AcDbEntity
  8
0
100
AcDbBlockBegin
  2
*D2
 70
     1
 10
0.0
 20
0.0
 30
0.0
  3
*D2
  1

  0
LINE
  5
363
330
361
100
AcDbEntity
  8
09-01
 62
     4
440
 16777216
370
    -2
100
AcDbLine
 10
76.64683390031723
 20
151.9677996290722
 30
0.0
 11
76.64683390031723
 21
164.2729445718018
 31
0.0
  0
LINE
  5
364
330
361
100
AcDbEntity
  8
09-01
 62
     4
440
 16777216
370
    -2
100
AcDbLine
 10
163.6468339003172
 20
151.9677996290722
 30
0.0
 11
163.6468339003172
 21
164.2729445718018
 31
0.0
  0
LINE
  5
365
330
361
100
AcDbEntity
  8
09-01
 62
     4
440
 16777216
370
    -2
100
AcDbLine
 10
81.64683390031724
 20
162.2729445718018
 30
0.0
 11
158.6468339003172
 21
162.2729445718018
 31
0.0
  0
SOLID
  5
366
330
361
100
AcDbEntity
  8
09-01
 62
     4
440
 16777216
100
AcDbTrace
 10
81.64683390031724
 20
163.1062779051351
 30
0.0
 11
81.64683390031724
 21
161.4396112384684
 31
0.0
 12
76.64683390031723
 22
162.2729445718018
 32
0.0
 13
76.64683390031723
 23
162.2729445718018
 33
0.0
  0
SOLID
  5
367
330
361
100
AcDbEntity
  8
09-01
 62
     4
440
 16777216
100
AcDbTrace
 10
158.6468339003172
 20
163.1062779051351
 30
0.0
 11
158.6468339003172
 21
161.4396112384684
 31
0.0
 12
163.6468339003172
 22
162.2729445718018
 32
0.0
 13
163.6468339003172
 23
162.2729445718018
 33
0.0
  0
MTEXT
  5
368
330
361
100
AcDbEntity
  8
09-01
 62
     1
440
 16777216
100
AcDbMText
 10
120.1468339003172
 20
166.8258095104102
 30
0.0
 40
5.0
 41
0.0
 46
0.0
 71
     5
 72
     1
  1
87
 73
     1
 44
1.0
  0
POINT
  5
369
330
361
100
AcDbEntity
  8
DEFPOINTS
 62
     0
440
 16777216
100
AcDbPoint
 10
76.64683390031723
 20
149.9677996290722
 30
0.0
  0
POINT
  5
36A
330
361
100
AcDbEntity
  8
DEFPOINTS
 62
     0
440
 16777216
100
AcDbPoint
 10
163.6468339003172
 20
149.9677996290722
 30
0.0
  0
POINT
  5
36B
330
361
100
AcDbEntity
  8
DEFPOINTS
 62
     0
440
 16777216
100
AcDbPoint
 10
163.6468339003172
 20
162.2729445718018
 30
0.0
  0
ENDBLK
  5
36C
330
361
100
AcDbEntity
  8
0
100
AcDbBlockEnd
  0
BLOCK
  5
351
330
350
100
AcDbEntity
  8
0
100
AcDbBlockBegin
  2
*D3
 70
     1
 10
0.0
 20
0.0
 30
0.0
  3
*D3
  1

  0
LINE
  5
352
330
350
100
AcDbEntity
  8
0
 62
     4
440
 16777216
370
    -2
100
AcDbLine
 10
331.3291411978162
 20
206.2387681537319
 30
0.0
 11
331.3291411978162
 21
188.2724783956249
 31
0.0
  0
LINE
  5
353
330
350
100
AcDbEntity
  8
0
 62
     4
440
 16777216
370
    -2
100
AcDbLine
 10
435.1546050694743
 20
216.7509562450271
 30
0.0
 11
435.1546050694743
 21
188.2724783956249
 31
0.0
  0
LINE
  5
354
330
350
100
AcDbEntity
  8
0
 62
     4
440
 16777216
370
    -2
100
AcDbLine
 10
336.3291411978162
 20
190.2724783956249
 30
0.0
 11
430.1546050694743
 21
190.2724783956249
 31
0.0
  0
SOLID
  5
355
330
350
100
AcDbEntity
  8
0
 62
     4
440
 16777216
100
AcDbTrace
 10
336.3291411978162
 20
191.1058117289583
 30
0.0
 11
336.3291411978162
 21
189.4391450622916
 31
0.0
 12
331.3291411978162
 22
190.2724783956249
 32
0.0
 13
331.3291411978162
 23
190.2724783956249
 33
0.0
  0
SOLID
  5
356
330
350
100
AcDbEntity
  8
0
 62
     4
440
 16777216
100
AcDbTrace
 10
430.1546050694743
 20
191.1058117289583
 30
0.0
 11
430.1546050694743
 21
189.4391450622916
 31
0.0
 12
435.1546050694743
 22
190.2724783956249
 32
0.0
 13
435.1546050694743
 23
190.2724783956249
 33
0.0
  0
MTEXT
  5
357
330
350
100
AcDbEntity
  8
0
 62
     1
440
 16777216
100
AcDbMText
 10
383.2418731336452
 20
194.8253433342334
 30
0.0
 40
5.0
 41
0.0
 46
0.0
 71
     5
 72
     1
  1
104
 73
     1
 44
1.0
  0
POINT
  5
358
330
350
100
AcDbEntity
  8
DEFPOINTS
 62
     0
440
 16777216
100
AcDbPoint
 10
331.3291411978162
 20
208.2387681537319
 30
0.0
  0
POINT
  5
359
330
350
100
AcDbEntity
  8
DEFPOINTS
 62
     0
440
 16777216
100
AcDbPoint
 10
435.1546050694743
 20
218.7509562450271
 30
0.0
  0
POINT
  5
35A
330
350
100
AcDbEntity
  8
DEFPOINTS
 62
     0
440
 16777216
100
AcDbPoint
 10
435.1546050694743
 20
190.2724783956249
 30
0.0
  0
ENDBLK
  5
35B
330
350
100
AcDbEntity
  8
0
100
AcDbBlockEnd
  0
BLOCK
  5
334
330
333
100
AcDbEntity
  8
0
100
AcDbBlockBegin
  2
*D4
 70
     1
 10
0.0
 20
0.0
 30
0.0
  3
*D4
  1

  0
LINE
  5
335
330
333
100
AcDbEntity
  8
09-01
 62
     4
440
 16777216
370
    -2
100
AcDbLine
 10
160.646833900317
 20
382.2387681537319
 30
0.0
 11
183.2681662559775
 21
382.2387681537319
 31
0.0
  0
LINE
  5
336
330
333
100
AcDbEntity
  8
09-01
 62
     4
440
 16777216
370
    -2
100
AcDbLine
 10
155.6468339003177
 20
373.238768153731
 30
0.0
 11
183.2681662559775
 21
373.238768153731
 31
0.0
  0
LINE
  5
337
330
333
100
AcDbEntity
  8
09-01
 62
     4
440
 16777216
370
    -2
100
AcDbLine
 10
181.2681662559775
 20
387.2387681537319
 30
0.0
 11
181.2681662559775
 21
392.2387681537319
 31
0.0
  0
LINE
  5
338
330
333
100
AcDbEntity
  8
09-01
 62
     4
440
 16777216
370
    -2
100
AcDbLine
 10
181.2681662559775
 20
368.238768153731
 30
0.0
 11
181.2681662559775
 21
363.238768153731
 31
0.0
  0
LINE
  5
339
330
333
100
AcDbEntity
  8
09-01
 62
     4
440
 16777216
370
    -2
100
AcDbLine
 10
181.2681662559775
 20
382.2387681537319
 30
0.0
 11
181.2681662559775
 21
373.238768153731
 31
0.0
  0
SOLID
  5
33A
330
333
100
AcDbEntity
  8
09-01
 62
     4
440
 16777216
100
AcDbTrace
 10
180.4348329226442
 20
387.2387681537319
 30
0.0
 11
182.1014995893109
 21
387.2387681537319
 31
0.0
 12
181.2681662559775
 22
382.2387681537319
 32
0.0
 13
181.2681662559775
 23
382.2387681537319
 33
0.0
  0
SOLID
  5
33B
330
333
100
AcDbEntity
  8
09-01
 62
     4
440
 16777216
100
AcDbTrace
 10
180.4348329226442
 20
368.238768153731
 30
0.0
 11
182.1014995893109
 21
368.238768153731
 31
0.0
 12
181.2681662559775
 22
373.238768153731
 32
0.0
 13
181.2681662559775
 23
373.238768153731
 33
0.0
  0
MTEXT
  5
33C
330
333
100
AcDbEntity
  8
09-01
 62
     1
440
 16777216
100
AcDbMText
 10
176.7153013173691
 20
377.7387681537315
 30
0.0
 40
5.0
 41
0.0
 46
0.0
 71
     5
 72
     1
  1
9
 11
0.0000000000000001
 21
1.0
 31
0.0
 73
     1
 44
1.0
  0
POINT
  5
33D
330
333
100
AcDbEntity
  8
DEFPOINTS
 62
     0
440
 16777216
100
AcDbPoint
 10
158.646833900317
 20
382.2387681537319
 30
0.0
  0
POINT
  5
33E
330
333
100
AcDbEntity
  8
DEFPOINTS
 62
     0
440
 16777216
100
AcDbPoint
 10
153.6468339003176
 20
373.238768153731
 30
0.0
  0
POINT
  5
33F
330
333
100
AcDbEntity
  8
DEFPOINTS
 62
     0
440
 16777216
100
AcDbPoint
 10
181.2681662559775
 20
373.238768153731
 30
0.0
  0
ENDBLK
  5
340
330
333
100
AcDbEntity
  8
0
100
AcDbBlockEnd
  0
BLOCK
  5
327
330
326
100
AcDbEntity
  8
0
100
AcDbBlockBegin
  2
*D5
 70
     1
 10
0.0
 20
0.0
 30
0.0
  3
*D5
  1

  0
LINE
  5
328
330
326
100
AcDbEntity
  8
09-01
 62
     4
440
 16777216
370
    -2
100
AcDbLine
 10
155.6468339003177
 20
373.238768153731
 30
0.0
 11
183.2681662559775
 21
373.238768153731
 31
0.0
  0
LINE
  5
329
330
326
100
AcDbEntity
  8
09-01
 62
     4
440
 16777216
370
    -2
100
AcDbLine
 10
125.6468339003177
 20
246.7387681537829
 30
0.0
 11
183.2681662559774
 21
246.7387681537829
 31
0.0
  0
LINE
  5
32A
330
326
100
AcDbEntity
  8
09-01
 62
     4
440
 16777216
370
    -2
100
AcDbLine
 10
181.2681662559775
 20
368.238768153731
 30
0.0
 11
181.2681662559774
 21
251.7387681537829
 31
0.0
  0
MTEXT
  5
32B
330
326
100
AcDbEntity
  8
09-01
 62
     1
440
 16777216
100
AcDbMText
 10
176.7153013173688
 20
322.4195986198842
 30
0.0
 40
5.0
 41
0.0
 46
0.0
 71
     5
 72
     1
  1
126.5
 11
0.0000000000000001
 21
1.0
 31
0.0
 73
     1
 44
1.0
  0
SOLID
  5
32C
330
326
100
AcDbEntity
  8
09-01
 62
     4
440
 16777216
100
AcDbTrace
 10
180.4348329226441
 20
368.238768153731
 30
0.0
 11
182.1014995893108
 21
368.238768153731
 31
0.0
 12
181.2681662559775
 22
373.238768153731
 32
0.0
 13
181.2681662559775
 23
373.238768153731
 33
0.0
  0
SOLID
  5
32D
330
326
100
AcDbEntity
  8
09-01
 62
     4
440
 16777216
100
AcDbTrace
 10
180.4348329226441
 20
251.7387681537829
 30
0.0
 11
182.1014995893108
 21
251.7387681537829
 31
0.0
 12
181.2681662559774
 22
246.7387681537829
 32
0.0
 13
181.2681662559774
 23
246.7387681537829
 33
0.0
  0
POINT
  5
32E
330
326
100
AcDbEntity
  8
DEFPOINTS
 62
     0
440
 16777216
100
AcDbPoint
 10
153.6468339003176
 20
373.238768153731
 30
0.0
  0
POINT
  5
32F
330
326
100
AcDbEntity
  8
DEFPOINTS
 62
     0
440
 16777216
100
AcDbPoint
 10
123.6468339003177
 20
246.7387681537829
 30
0.0
  0
POINT
  5
330
330
326
100
AcDbEntity
  8
DEFPOINTS
 62
     0
440
 16777216
100
AcDbPoint
 10
181.2681662559774
 20
246.7387681537829
 30
0.0
  0
ENDBLK
  5
331
330
326
100
AcDbEntity
  8
0
100
AcDbBlockEnd
  0
BLOCK
  5
31A
330
319
100
AcDbEntity
  8
0
100
AcDbBlockBegin
  2
*D6
 70
     1
 10
0.0
 20
0.0
 30
0.0
  3
*D6
  1

  0
LINE
  5
31B
330
319
100
AcDbEntity
  8
09-01
 62
     4
440
 16777216
370
    -2
100
AcDbLine
 10
125.6468339003177
 20
246.7387681537829
 30
0.0
 11
183.2681662559774
 21
246.7387681537829
 31
0.0
  0
LINE
  5
31C
330
319
100
AcDbEntity
  8
09-01
 62
     4
440
 16777216
370
    -2
100
AcDbLine
 10
158.0066723994682
 20
208.2387681537319
 30
0.0
 11
183.2681662559774
 21
208.2387681537319
 31
0.0
  0
LINE
  5
31D
330
319
100
AcDbEntity
  8
09-01
 62
     4
440
 16777216
370
    -2
100
AcDbLine
 10
181.2681662559774
 20
241.7387681537829
 30
0.0
 11
181.2681662559774
 21
213.2387681537319
 31
0.0
  0
SOLID
  5
31E
330
319
100
AcDbEntity
  8
09-01
 62
     4
440
 16777216
100
AcDbTrace
 10
180.4348329226441
 20
241.7387681537829
 30
0.0
 11
182.1014995893108
 21
241.7387681537829
 31
0.0
 12
181.2681662559774
 22
246.7387681537829
 32
0.0
 13
181.2681662559774
 23
246.7387681537829
 33
0.0
  0
SOLID
  5
31F
330
319
100
AcDbEntity
  8
09-01
 62
     4
440
 16777216
100
AcDbTrace
 10
180.4348329226441
 20
213.2387681537319
 30
0.0
 11
182.1014995893108
 21
213.2387681537319
 31
0.0
 12
181.2681662559774
 22
208.2387681537319
 32
0.0
 13
181.2681662559774
 23
208.2387681537319
 33
0.0
  0
MTEXT
  5
320
330
319
100
AcDbEntity
  8
09-01
 62
     1
440
 16777216
100
AcDbMText
 10
176.7135959967687
 20
227.4887681537574
 30
0.0
 40
5.0
 41
0.0
 46
0.0
 71
     5
 72
     1
  1
38.5
 11
0.0000000000000001
 21
1.0
 31
0.0
 73
     1
 44
1.0
  0
POINT
  5
321
330
319
100
AcDbEntity
  8
DEFPOINTS
 62
     0
440
 16777216
100
AcDbPoint
 10
123.6468339003177
 20
246.7387681537829
 30
0.0
  0
POINT
  5
322
330
319
100
AcDbEntity
  8
DEFPOINTS
 62
     0
440
 16777216
100
AcDbPoint
 10
156.0066723994682
 20
208.2387681537319
 30
0.0
  0
POINT
  5
323
330
319
100
AcDbEntity
  8
DEFPOINTS
 62
     0
440
 16777216
100
AcDbPoint
 10
181.2681662559774
 20
208.2387681537319
 30
0.0
  0
ENDBLK
  5
324
330
319
100
AcDbEntity
  8
0
100
AcDbBlockEnd
  0
BLOCK
  5
30D
330
30C
100
AcDbEntity
  8
0
100
AcDbBlockBegin
  2
*D7
 70
     1
 10
0.0
 20
0.0
 30
0.0
  3
*D7
  1

  0
LINE
  5
30E
330
30C
100
AcDbEntity
  8
09-01
 62
     4
440
 16777216
370
    -2
100
AcDbLine
 10
163.6468339003172
 20
211.2387681537319
 30
0.0
 11
163.6468339003172
 21
194.433066004461
 31
0.0
  0
LINE
  5
30F
330
30C
100
AcDbEntity
  8
09-01
 62
     4
440
 16777216
370
    -2
100
AcDbLine
 10
120.1468339003177
 20
226.4887681537829
 30
0.0
 11
120.1468339003177
 21
194.433066004461
 31
0.0
  0
LINE
  5
310
330
30C
100
AcDbEntity
  8
09-01
 62
     4
440
 16777216
370
    -2
100
AcDbLine
 10
158.6468339003172
 20
196.433066004461
 30
0.0
 11
125.1468339003177
 21
196.433066004461
 31
0.0
  0
SOLID
  5
311
330
30C
100
AcDbEntity
  8
09-01
 62
     4
440
 16777216
100
AcDbTrace
 10
158.6468339003172
 20
197.2663993377943
 30
0.0
 11
158.6468339003172
 21
195.5997326711276
 31
0.0
 12
163.6468339003172
 22
196.433066004461
 32
0.0
 13
163.6468339003172
 23
196.433066004461
 33
0.0
  0
SOLID
  5
312
330
30C
100
AcDbEntity
  8
09-01
 62
     4
440
 16777216
100
AcDbTrace
 10
125.1468339003177
 20
197.2663993377943
 30
0.0
 11
125.1468339003177
 21
195.5997326711276
 31
0.0
 12
120.1468339003177
 22
196.433066004461
 32
0.0
 13
120.1468339003177
 23
196.433066004461
 33
0.0
  0
MTEXT
  5
313
330
30C
100
AcDbEntity
  8
09-01
 62
     1
440
 16777216
100
AcDbMText
 10
141.8968339003174
 20
200.9876362636697
 30
0.0
 40
5.0
 41
0.0
 46
0.0
 71
     5
 72
     1
  1
43.5
 73
     1
 44
1.0
  0
POINT
  5
314
330
30C
100
AcDbEntity
  8
DEFPOINTS
 62
     0
440
 16777216
100
AcDbPoint
 10
163.6468339003172
 20
213.2387681537319
 30
0.0
  0
POINT
  5
315
330
30C
100
AcDbEntity
  8
DEFPOINTS
 62
     0
440
 16777216
100
AcDbPoint
 10
120.1468339003177
 20
228.4887681537829
 30
0.0
  0
POINT
  5
316
330
30C
100
AcDbEntity
  8
DEFPOINTS
 62
     0
440
 16777216
100
AcDbPoint
 10
120.1468339003177
 20
196.433066004461
 30
0.0
  0
ENDBLK
  5
317
330
30C
100
AcDbEntity
  8
0
100
AcDbBlockEnd
  0
BLOCK
  5
300
330
2FF
100
AcDbEntity
  8
0
100
AcDbBlockBegin
  2
*D8
 70
     1
 10
0.0
 20
0.0
 30
0.0
  3
*D8
  1

  0
LINE
  5
301
330
2FF
100
AcDbEntity
  8
09-01
 62
     4
440
 16777216
370
    -2
100
AcDbLine
 10
120.1468339003177
 20
226.4887681537829
 30
0.0
 11
120.1468339003177
 21
194.433066004461
 31
0.0
  0
LINE
  5
302
330
2FF
100
AcDbEntity
  8
09-01
 62
     4
440
 16777216
370
    -2
100
AcDbLine
 10
76.64683390031768
 20
206.2387681537319
 30
0.0
 11
76.64683390031768
 21
194.433066004461
 31
0.0
  0
LINE
  5
303
330
2FF
100
AcDbEntity
  8
09-01
 62
     4
440
 16777216
370
    -2
100
AcDbLine
 10
115.1468339003177
 20
196.433066004461
 30
0.0
 11
81.64683390031768
 21
196.433066004461
 31
0.0
  0
SOLID
  5
304
330
2FF
100
AcDbEntity
  8
09-01
 62
     4
440
 16777216
100
AcDbTrace
 10
115.1468339003177
 20
197.2663993377943
 30
0.0
 11
115.1468339003177
 21
195.5997326711276
 31
0.0
 12
120.1468339003177
 22
196.433066004461
 32
0.0
 13
120.1468339003177
 23
196.433066004461
 33
0.0
  0
SOLID
  5
305
330
2FF
100
AcDbEntity
  8
09-01
 62
     4
440
 16777216
100
AcDbTrace
 10
81.64683390031768
 20
197.2663993377943
 30
0.0
 11
81.64683390031768
 21
195.5997326711276
 31
0.0
 12
76.64683390031768
 22
196.433066004461
 32
0.0
 13
76.64683390031768
 23
196.433066004461
 33
0.0
  0
MTEXT
  5
306
330
2FF
100
AcDbEntity
  8
09-01
 62
     1
440
 16777216
100
AcDbMText
 10
98.39683390031769
 20
200.9876362636697
 30
0.0
 40
5.0
 41
0.0
 46
0.0
 71
     5
 72
     1
  1
43.5
 73
     1
 44
1.0
  0
POINT
  5
307
330
2FF
100
AcDbEntity
  8
DEFPOINTS
 62
     0
440
 16777216
100
AcDbPoint
 10
120.1468339003177
 20
228.4887681537829
 30
0.0
  0
POINT
  5
308
330
2FF
100
AcDbEntity
  8
DEFPOINTS
 62
     0
440
 16777216
100
AcDbPoint
 10
76.64683390031768
 20
208.2387681537319
 30
0.0
  0
POINT
  5
309
330
2FF
100
AcDbEntity
  8
DEFPOINTS
 62
     0
440
 16777216
100
AcDbPoint
 10
76.64683390031768
 20
196.433066004461
 30
0.0
  0
ENDBLK
  5
30A
330
2FF
100
AcDbEntity
  8
0
100
AcDbBlockEnd
  0
BLOCK
  5
2F2
330
2F1
100
AcDbEntity
  8
0
100
AcDbBlockBegin
  2
*D9
 70
     1
 10
0.0
 20
0.0
 30
0.0
  3
*D9
  1

  0
LINE
  5
2F3
330
2F1
100
AcDbEntity
  8
09-01
 62
     4
440
 16777216
370
    -2
100
AcDbLine
 10
91.91729349146063
 20
456.2509602497041
 30
0.0
 11
42.98916556385261
 21
456.2509602497041
 31
0.0
  0
LINE
  5
2F4
330
2F1
100
AcDbEntity
  8
09-01
 62
     4
440
 16777216
370
    -2
100
AcDbLine
 10
70.64683390031769
 20
208.2387681537319
 30
0.0
 11
42.98916556385257
 21
208.238768153732
 31
0.0
  0
LINE
  5
2F5
330
2F1
100
AcDbEntity
  8
09-01
 62
     4
440
 16777216
370
    -2
100
AcDbLine
 10
44.98916556385261
 20
451.2509602497041
 30
0.0
 11
44.98916556385256
 21
213.2387681537319
 31
0.0
  0
SOLID
  5
2F6
330
2F1
100
AcDbEntity
  8
09-01
 62
     4
440
 16777216
100
AcDbTrace
 10
44.15583223051927
 20
451.2509602497041
 30
0.0
 11
45.82249889718595
 21
451.2509602497041
 31
0.0
 12
44.98916556385261
 22
456.2509602497041
 32
0.0
 13
44.98916556385261
 23
456.2509602497041
 33
0.0
  0
SOLID
  5
2F7
330
2F1
100
AcDbEntity
  8
09-01
 62
     4
440
 16777216
100
AcDbTrace
 10
44.15583223051923
 20
213.2387681537319
 30
0.0
 11
45.8224988971859
 21
213.2387681537319
 31
0.0
 12
44.98916556385256
 22
208.238768153732
 32
0.0
 13
44.98916556385256
 23
208.238768153732
 33
0.0
  0
MTEXT
  5
2F8
330
2F1
100
AcDbEntity
  8
09-01
 62
     1
440
 16777216
100
AcDbMText
 10
40.43630062524408
 20
332.244864201718
 30
0.0
 40
5.0
 41
0.0
 46
0.0
 71
     5
 72
     1
  1
248
 11
0.0000000000000001
 21
1.0
 31
0.0
 73
     1
 44
1.0
  0
POINT
  5
2F9
330
2F1
100
AcDbEntity
  8
DEFPOINTS
 62
     0
440
 16777216
100
AcDbPoint
 10
93.91729349146064
 20
456.2509602497041
 30
0.0
  0
POINT
  5
2FA
330
2F1
100
AcDbEntity
  8
DEFPOINTS
 62
     0
440
 16777216
100
AcDbPoint
 10
72.64683390031769
 20
208.2387681537319
 30
0.0
  0
POINT
  5
2FB
330
2F1
100
AcDbEntity
  8
DEFPOINTS
 62
     0
440
 16777216
100
AcDbPoint
 10
44.98916556385256
 20
208.238768153732
 30
0.0
  0
ENDBLK
  5
2FC
330
2F1
100
AcDbEntity
  8
0
100
AcDbBlockEnd
  0
BLOCK
  5
2E5
330
2E4
100
AcDbEntity
  8
0
100
AcDbBlockBegin
  2
*D10
 70
     1
 10
0.0
 20
0.0
 30
0.0
  3
*D10
  1

  0
LINE
  5
2E6
330
2E4
100
AcDbEntity
  8
09-01
 62
     4
440
 16777216
370
    -2
100
AcDbLine
 10
76.64683390031768
 20
206.2387681537319
 30
0.0
 11
76.64683390031768
 21
185.0837234783256
 31
0.0
  0
LINE
  5
2E7
330
2E4
100
AcDbEntity
  8
09-01
 62
     4
440
 16777216
370
    -2
100
AcDbLine
 10
282.0468339003172
 20
211.338768153732
 30
0.0
 11
282.0468339003172
 21
185.0837234783256
 31
0.0
  0
LINE
  5
2E8
330
2E4
100
AcDbEntity
  8
09-01
 62
     4
440
 16777216
370
    -2
100
AcDbLine
 10
81.64683390031768
 20
187.0837234783256
 30
0.0
 11
277.0468339003172
 21
187.0837234783256
 31
0.0
  0
SOLID
  5
2E9
330
2E4
100
AcDbEntity
  8
09-01
 62
     4
440
 16777216
100
AcDbTrace
 10
81.64683390031768
 20
187.917056811659
 30
0.0
 11
81.64683390031768
 21
186.2503901449923
 31
0.0
 12
76.64683390031768
 22
187.0837234783256
 32
0.0
 13
76.64683390031768
 23
187.0837234783256
 33
0.0
  0
SOLID
  5
2EA
330
2E4
100
AcDbEntity
  8
09-01
 62
     4
440
 16777216
100
AcDbTrace
 10
277.0468339003172
 20
187.917056811659
 30
0.0
 11
277.0468339003172
 21
186.2503901449923
 31
0.0
 12
282.0468339003172
 22
187.0837234783256
 32
0.0
 13
282.0468339003172
 23
187.0837234783256
 33
0.0
  0
MTEXT
  5
2EB
330
2E4
100
AcDbEntity
  8
09-01
 62
     1
440
 16777216
100
AcDbMText
 10
179.3468339003174
 20
191.6365884169341
 30
0.0
 40
5.0
 41
0.0
 46
0.0
 71
     5
 72
     1
  1
205.4
 73
     1
 44
1.0
  0
POINT
  5
2EC
330
2E4
100
AcDbEntity
  8
DEFPOINTS
 62
     0
440
 16777216
100
AcDbPoint
 10
76.64683390031768
 20
208.2387681537319
 30
0.0
  0
POINT
  5
2ED
330
2E4
100
AcDbEntity
  8
DEFPOINTS
 62
     0
440
 16777216
100
AcDbPoint
 10
282.0468339003172
 20
213.338768153732
 30
0.0
  0
POINT
  5
2EE
330
2E4
100
AcDbEntity
  8
DEFPOINTS
 62
     0
440
 16777216
100
AcDbPoint
 10
282.0468339003172
 20
187.0837234783256
 30
0.0
  0
ENDBLK
  5
2EF
330
2E4
100
AcDbEntity
  8
0
100
AcDbBlockEnd
  0
BLOCK
  5
260
330
25D
100
AcDbEntity
  8
0
100
AcDbBlockBegin
  2
DIN A4 Quer
 70
     2
 10
0.0
 20
0.0
 30
0.0
  3
DIN A4 Quer
  1

  0
LINE
  5
261
330
25D
100
AcDbEntity
  8
01-99
100
AcDbLine
 10
6.000001890710336
 20
6.000000518749175
 30
0.0
 11
6.000001890710223
 21
204.0000005187492
 31
0.0
  0
LINE
  5
265
330
25D
100
AcDbEntity
  8
01-99
100
AcDbLine
 10
6.000001890710223
 20
204.0000005187492
 30
0.0
 11
291.0000018907103
 21
204.0000005187492
 31
0.0
  0
LINE
  5
266
330
25D
100
AcDbEntity
  8
02-01
100
AcDbLine
 10
297.0000018907104
 20
210.0000005187492
 30
0.0
 11
0.0000018907103367
 21
210.0000005187492
 31
0.0
  0
LINE
  5
267
330
25D
100
AcDbEntity
  8
02-01
100
AcDbLine
 10
0.0000018907103367
 20
210.0000005187492
 30
0.0
 11
0.0000018907103367
 21
0.0000005187491752
 31
0.0
  0
LINE
  5
268
330
25D
100
AcDbEntity
  8
01-99
100
AcDbLine
 10
291.0000018907103
 20
6.000000518749288
 30
0.0
 11
291.0000018907103
 21
204.0000005187492
 31
0.0
  0
LINE
  5
269
330
25D
100
AcDbEntity
  8
01-99
100
AcDbLine
 10
291.0000018907103
 20
6.000000518749288
 30
0.0
 11
6.000001890710336
 21
6.000000518749175
 31
0.0
  0
LINE
  5
26A
330
25D
100
AcDbEntity
  8
02-01
100
AcDbLine
 10
0.0000018907103367
 20
0.0000005187491752
 30
0.0
 11
297.0000018907104
 21
0.0000005187491752
 31
0.0
  0
LINE
  5
26B
330
25D
100
AcDbEntity
  8
02-01
100
AcDbLine
 10
297.0000018907104
 20
0.0000005187491752
 30
0.0
 11
297.0000018907104
 21
210.0000005187492
 31
0.0
  0
LINE
  5
26C
330
25D
100
AcDbEntity
  8
01-99
100
AcDbLine
 10
157.0000018907103
 20
11.11111162974919
 30
0.0
 11
107.0000018907103
 21
11.11111162974919
 31
0.0
  0
LINE
  5
26D
330
25D
100
AcDbEntity
  8
01-99
100
AcDbLine
 10
157.0000018907103
 20
16.2222227407492
 30
0.0
 11
107.0000018907103
 21
16.2222227407492
 31
0.0
  0
LINE
  5
26E
330
25D
100
AcDbEntity
  8
01-99
100
AcDbLine
 10
157.0000018907103
 20
21.33333385174922
 30
0.0
 11
107.0000018907103
 21
21.33333385174916
 31
0.0
  0
LINE
  5
26F
330
25D
100
AcDbEntity
  8
01-99
100
AcDbLine
 10
202.0000018907103
 20
26.44444496274923
 30
0.0
 11
107.0000018907103
 21
26.44444496274918
 31
0.0
  0
LINE
  5
270
330
25D
100
AcDbEntity
  8
01-99
100
AcDbLine
 10
202.0000018907103
 20
31.55555607374925
 30
0.0
 11
107.0000018907103
 21
31.55555607374919
 31
0.0
  0
LINE
  5
271
330
25D
100
AcDbEntity
  8
01-99
100
AcDbLine
 10
132.0000018907103
 20
6.000000518749175
 30
0.0
 11
132.0000018907103
 21
11.11111162974919
 31
0.0
  0
LINE
  5
272
330
25D
100
AcDbEntity
  8
01-99
100
AcDbLine
 10
115.0000018907103
 20
11.11111162974919
 30
0.0
 11
115.0000018907103
 21
36.66666718541586
 31
0.0
  0
LINE
  5
273
330
25D
100
AcDbEntity
  8
01-99
100
AcDbLine
 10
157.0000018907103
 20
6.000000518749175
 30
0.0
 11
157.0000018907103
 21
52.00000051874917
 31
0.0
  0
LINE
  5
274
330
25D
100
AcDbEntity
  8
01-99
100
AcDbLine
 10
202.0000018907103
 20
6.000000518749175
 30
0.0
 11
202.0000018907103
 21
52.00000051874917
 31
0.0
  0
LINE
  5
275
330
25D
100
AcDbEntity
  8
01-99
100
AcDbLine
 10
231.5000018907103
 20
6.000000518749175
 30
0.0
 11
231.5000018907103
 21
16.22222274074926
 31
0.0
  0
LINE
  5
276
330
25D
100
AcDbEntity
  8
01-99
100
AcDbLine
 10
264.0000018907104
 20
6.000000518749175
 30
0.0
 11
264.0000018907104
 21
16.22222274074931
 31
0.0
  0
LINE
  5
277
330
25D
100
AcDbEntity
  8
01-99
100
AcDbLine
 10
235.5000018907103
 20
36.66666718541592
 30
0.0
 11
235.5000018907103
 21
52.00000051874929
 31
0.0
  0
LINE
  5
278
330
25D
100
AcDbEntity
  8
01-99
100
AcDbLine
 10
269.0000018907103
 20
36.66666718541592
 30
0.0
 11
269.0000018907103
 21
52.00000051874929
 31
0.0
  0
LINE
  5
279
330
25D
100
AcDbEntity
  8
01-99
100
AcDbLine
 10
165.0000018907103
 20
21.33333385208254
 30
0.0
 11
165.0000018907103
 21
36.66666718541592
 31
0.0
  0
LINE
  5
27A
330
25D
100
AcDbEntity
  8
01-99
100
AcDbLine
 10
147.0031902301398
 20
11.11111162974919
 30
0.0
 11
147.0031902301398
 21
36.66666718541586
 31
0.0
  0
LINE
  5
27B
330
25D
100
AcDbEntity
  8
01-99
100
AcDbLine
 10
135.0031902301398
 20
11.11111162974919
 30
0.0
 11
135.0031902301398
 21
36.66666718541586
 31
0.0
  0
LINE
  5
27C
330
25D
100
AcDbEntity
  8
01-99
100
AcDbLine
 10
291.0000018907103
 20
52.00000051874929
 30
0.0
 11
107.0000018907085
 21
52.00000051874917
 31
0.0
  0
LINE
  5
27D
330
25D
100
AcDbEntity
  8
01-99
100
AcDbLine
 10
202.0000018907103
 20
21.33333385208254
 30
0.0
 11
157.0000018907103
 21
21.33333385208254
 31
0.0
  0
LINE
  5
27E
330
25D
100
AcDbEntity
  8
01-99
100
AcDbLine
 10
202.0000018907103
 20
36.66666718541592
 30
0.0
 11
107.0000018907103
 21
36.66666718541581
 31
0.0
  0
LINE
  5
27F
330
25D
100
AcDbEntity
  8
01-99
100
AcDbLine
 10
179.0000018907103
 20
21.33333385208254
 30
0.0
 11
179.0000018907103
 21
52.00000051874923
 31
0.0
  0
LINE
  5
280
330
25D
100
AcDbEntity
  8
01-99
100
AcDbLine
 10
157.0000018907103
 20
36.66666718541586
 30
0.0
 11
165.0000018907103
 21
31.5555560854159
 31
0.0
  0
LINE
  5
281
330
25D
100
AcDbEntity
  8
01-99
100
AcDbLine
 10
157.0000018907103
 20
31.5555560854159
 30
0.0
 11
165.0000018907103
 21
36.66666718541592
 31
0.0
  0
LINE
  5
282
330
25D
100
AcDbEntity
  8
01-99
100
AcDbLine
 10
291.0000018907103
 20
44.33333385208254
 30
0.0
 11
202.0000018907103
 21
44.33333385208249
 31
0.0
  0
LINE
  5
283
330
25D
100
AcDbEntity
  8
01-99
100
AcDbLine
 10
202.0000018907103
 20
16.2222227407492
 30
0.0
 11
291.0000018907103
 21
16.22222274074931
 31
0.0
  0
LINE
  5
284
330
25D
100
AcDbEntity
  8
01-99
100
AcDbLine
 10
202.0000018907103
 20
36.66666718541592
 30
0.0
 11
291.0000018907103
 21
36.66666718541597
 31
0.0
  0
LINE
  5
285
330
25D
100
AcDbEntity
  8
01-99
100
AcDbLine
 10
179.0000018907103
 20
41.7777782967492
 30
0.0
 11
157.0000018907103
 21
41.7777782967492
 31
0.0
  0
LINE
  5
286
330
25D
100
AcDbEntity
  8
01-99
100
AcDbLine
 10
179.0000018907103
 20
46.88888940774922
 30
0.0
 11
157.0000018907103
 21
46.88888940774916
 31
0.0
  0
LINE
  5
287
330
25D
100
AcDbEntity
  8
01-99
100
AcDbLine
 10
107.0000018907085
 20
52.00000051874917
 30
0.0
 11
107.0000018907085
 21
6.000000518749175
 31
0.0
  0
TEXT
  5
288
330
25D
100
AcDbEntity
  8
08-99
100
AcDbText
 10
203.4997030590166
 20
32.66987422660714
 30
0.0
 40
2.5
  1
Benennung/Teil:
 51
15.0
  7
ROMANS8
100
AcDbText
  0
TEXT
  5
28D
330
25D
100
AcDbEntity
  8
08-99
100
AcDbText
 10
265.5028293382777
 20
12.01760321297985
 30
0.0
 40
2.7
  1
Ident-Nr.
 51
15.0
  7
ROMANS8
100
AcDbText
  0
TEXT
  5
28E
330
25D
100
AcDbEntity
  8
08-99
100
AcDbText
 10
180.5000236238784
 20
33.05557748053161
 30
0.0
 40
2.5
  1
Name:
 51
15.0
  7
ROMANS8
100
AcDbText
  0
TEXT
  5
28F
330
25D
100
AcDbEntity
  8
08-99
100
AcDbText
 10
166.5077710332552
 20
33.04841847975365
 30
0.0
 40
2.5
  1
Datum:
 50
0.102528160689452
 41
0.8933771909280748
 51
15.0
  7
ROMANS8
 72
     5
 11
177.6749680403372
 21
33.06840168621363
 31
0.0
100
AcDbText
  0
TEXT
  5
290
330
25D
100
AcDbEntity
  8
08-99
100
AcDbText
 10
116.5000099724457
 20
33.05597761772907
 30
0.0
 40
1.6
  1
Änderung:
 51
15.0
  7
ROMANS8
100
AcDbText
  0
TEXT
  5
291
330
25D
100
AcDbEntity
  8
08-99
100
AcDbText
 10
133.4999399664632
 20
9.111119817911628
 30
0.0
 40
1.0
  1
ERSETZT.DURCH:
 51
15.0
  7
ROMANS8
100
AcDbText
  0
TEXT
  5
292
330
25D
100
AcDbEntity
  8
08-99
100
AcDbText
 10
108.499362706382
 20
9.110854721685427
 30
0.0
 40
1.0
  1
ERSETZT.FÜR:
 51
15.0
  7
ROMANS8
100
AcDbText
  0
TEXT
  5
293
330
25D
100
AcDbEntity
  8
08-99
100
AcDbText
 10
232.9909087328646
 20
12.61295738281296
 30
0.0
 40
2.112
  1
AUFTRAGS.NR.:
 51
15.0
  7
ROMANS8
100
AcDbText
  0
TEXT
  5
294
330
25D
100
AcDbEntity
  8
08-99
100
AcDbText
 10
203.5034660957227
 20
12.61092917477953
 30
0.0
 40
2.112
  1
Sonder-Nr:
 51
15.0
  7
ROMANS8
100
AcDbText
  0
TEXT
  5
295
330
25D
100
AcDbEntity
  8
08-99
100
AcDbText
 10
186.6963093857886
 20
49.92370902579148
 30
0.0
 40
1.349999999999999
  1
Format
 51
15.0
  7
ROMANS8
100
AcDbText
  0
TEXT
  5
296
330
25D
100
AcDbEntity
  8
08-99
100
AcDbText
 10
185.3043816374782
 20
44.64161931184992
 30
0.0
 40
1.822499999999999
  1
Normen
 51
15.0
  7
ROMANS8
100
AcDbText
  0
TEXT
  5
297
330
25D
100
AcDbEntity
  8
08-99
100
AcDbText
 10
108.5000314946119
 20
33.0555683543073
 30
0.0
 40
1.6
  1
Zust.
 51
15.0
  7
ROMANS8
100
AcDbText
  0
TEXT
  5
298
330
25D
100
AcDbEntity
  8
08-99
100
AcDbText
 10
136.5031825918795
 20
33.05555977024574
 30
0.0
 40
1.6
  1
Datum:
 51
15.0
  7
ROMANS8
100
AcDbText
  0
TEXT
  5
299
330
25D
100
AcDbEntity
  8
08-99
100
AcDbText
 10
148.5032155076424
 20
33.05556457669462
 30
0.0
 40
1.6
  1
Name:
 51
15.0
  7
ROMANS8
100
AcDbText
  0
TEXT
  5
29A
330
25D
100
AcDbEntity
  8
08-99
100
AcDbText
 10
158.1545563363015
 20
28.03814008669803
 30
0.0
 40
1.6
  1
Erst.
 51
15.0
  7
ROMANS8
100
AcDbText
  0
TEXT
  5
29B
330
25D
100
AcDbEntity
  8
08-99
100
AcDbText
 10
157.517182253021
 20
23.19745157817022
 30
0.0
 40
1.6
  1
Bearb.
 51
15.0
  7
ROMANS8
100
AcDbText
  0
TEXT
  5
29C
330
25D
100
AcDbEntity
  8
08-99
100
AcDbText
 10
236.4308068024784
 20
41.61949801145603
 30
0.0
 40
2.0
  1
Zuschnittsbreite:
 51
15.0
  7
ROMANS8
100
AcDbText
  0
TEXT
  5
29D
330
25D
100
AcDbEntity
  8
08-99
100
AcDbText
 10
202.9849966647425
 20
41.73762414686279
 30
0.0
 40
2.0
  1
Zuschnittslänge:
 51
15.0
  7
ROMANS8
100
AcDbText
  0
LWPOLYLINE
  5
29E
330
25D
100
AcDbEntity
  8
06-99
100
AcDbPolyline
 90
      133
 70
     1
 43
0.010692
 10
180.7675417027103
 20
18.87656536808259
 10
181.0090490347104
 20
19.08724766408261
 10
180.9228536947104
 20
19.2262579200825
 10
180.8242663267103
 20
19.35180694808264
 10
180.7136290747105
 20
19.46394108008263
 10
180.5912983387103
 20
19.56271377608249
 10
180.4576162627104
 20
19.64816424008256
 10
180.3129285547104
 20
19.72033880408253
 10
180.1575880507104
 20
19.77929092808256
 10
179.9919368947105
 20
19.82505981608255
 10
179.8163243587104
 20
19.85769180008265
 10
179.6310997147105
 20
19.87724034008261
 10
179.4366086707105
 20
19.88374464008257
 10
179.2756833787104
 20
19.87768227608256
 10
179.1199437067102
 20
19.85975892008253
 10
178.9697211067105
 20
19.83036304808269
 10
178.8253505947104
 20
19.78989026408254
 10
178.6871636227104
 20
19.73873617208267
 10
178.5554845147104
 20
19.67729281208255
 10
178.4306554147105
 20
19.60595222408256
 10
178.3130006467104
 20
19.52510644808251
 10
178.2028516627103
 20
19.43514752408259
 10
178.1005470427104
 20
19.33647462008258
 10
178.0064075467105
 20
19.2294726480826
 10
177.9207717547105
 20
19.1145443400826
 10
177.8439711187104
 20
18.99207460808259
 10
177.7763335267104
 20
18.86245905608262
 10
177.7181939947104
 20
18.72608972408255
 10
177.6698804107104
 20
18.58336578008254
 10
177.6317242267105
 20
18.43467213608255
 10
177.6040640227103
 20
18.28040796008252
 10
177.5872205587104
 20
18.12096172808259
 10
177.5815359787104
 20
17.95672904408258
 10
177.5871492787104
 20
17.78762437208263
 10
177.6038002867105
 20
17.62428981608258
 10
177.6311896267102
 20
17.46704257208256
 10
177.6690179227102
 20
17.31619627208249
 10
177.7169893627103
 20
17.17206454808257
 10
177.7748081347105
 20
17.0349610320826
 10
177.8421784267104
 20
16.90519579208256
 10
177.9188008627104
 20
16.78308602408253
 10
178.0043796307104
 20
16.66894179608255
 10
178.0986224827104
 20
16.56308030408257
 10
178.2012229147103
 20
16.46581161608259
 10
178.3118958067103
 20
16.3774529280825
 10
178.4303346547105
 20
16.29831430808264
 10
178.5562472107103
 20
16.22870938808262
 10
178.6893340987103
 20
16.16895536408253
 10
178.8293030707103
 20
16.11936230408258
 10
178.9758511867105
 20
16.08024384008263
 10
179.1286897627103
 20
16.05191360408264
 10
179.2875122947104
 20
16.03468522808259
 10
179.4520300987104
 20
16.02887234408263
 10
179.6160275587104
 20
16.03412568008258
 10
179.7733603387104
 20
16.04976451208262
 10
179.9238395467104
 20
16.07559638408259
 10
180.0672762907103
 20
16.11142884008262
 10
180.2034852427104
 20
16.15707298808257
 10
180.3322739467103
 20
16.21233993608257
 10
180.4534570747104
 20
16.27703722808258
 10
180.5668386067104
 20
16.3509795360826
 10
180.6722403427104
 20
16.43397440408256
 10
180.7694626987104
 20
16.52582581208259
 10
180.8583239107104
 20
16.62635556008257
 10
180.9386350867105
 20
16.73536050008255
 10
181.0102037707104
 20
16.85266243208258
 10
181.0728410707104
 20
16.97806177208258
 10
181.1263616587105
 20
17.11137319208251
 10
181.1705766427103
 20
17.25240423608255
 10
181.2052900027104
 20
17.40096601208256
 10
181.2303235387104
 20
17.55686962808261
 10
181.2454812307105
 20
17.71992619208254
 10
181.2505741867103
 20
17.88993968408255
 10
181.2505741867103
 20
17.88993968408255
 10
181.2505741867103
 20
17.9413218720826
 10
179.6164659307104
 20
17.9413218720826
 10
179.6164659307104
 20
17.65355025608255
 10
180.8857275067103
 20
17.65355025608255
 10
180.8749891747103
 20
17.49100690808257
 10
180.8476568587103
 20
17.33636138408258
 10
180.8044362307105
 20
17.19027658808261
 10
180.7460329627104
 20
17.05341898808257
 10
180.6731598547105
 20
16.9264443600826
 10
180.5865261427104
 20
16.8100263000826
 10
180.4868303707104
 20
16.7048170200826
 10
180.3747889027104
 20
16.61149011608256
 10
180.2511074107103
 20
16.53069780008258
 10
180.1164915667104
 20
16.4631101040826
 10
179.9716506067103
 20
16.40938636808255
 10
179.8172937667104
 20
16.37019306008267
 10
179.6541267187105
 20
16.34618952008253
 10
179.4828586987105
 20
16.33804221608261
 10
179.3181983347104
 20
16.34599350008256
 10
179.1599032747103
 20
16.36937690408251
 10
179.0085651427103
 20
16.40748319208256
 10
178.8647719987102
 20
16.45960669208256
 10
178.7291047747104
 20
16.52503816808257
 10
178.6021550947103
 20
16.60306838408263
 10
178.4845074547104
 20
16.69299523208258
 10
178.3767534787104
 20
16.79410591208267
 10
178.2794776627105
 20
16.90569475208258
 10
178.1932645027103
 20
17.02705608008256
 10
178.1187056227104
 20
17.15747709608257
 10
178.0563855187104
 20
17.29625569208258
 10
178.0068922507104
 20
17.44268263208255
 10
177.9708138787102
 20
17.59604511608262
 10
177.9487348987103
 20
17.75564460008269
 10
177.9412469347104
 20
17.9207682840825
 10
177.9476336227105
 20
18.0891423360826
 10
177.9665370787104
 20
18.25115464808255
 10
177.9975581347105
 20
18.40630626008254
 10
178.0403011867104
 20
18.55410177608257
 10
178.0943741947103
 20
18.69404580008256
 10
178.1593779907104
 20
18.8256465000826
 10
178.2349169707104
 20
18.94840135208261
 10
178.3205990947104
 20
19.06182208808258
 10
178.4160251947103
 20
19.16540618408265
 10
178.5208067947103
 20
19.25866180808253
 10
178.6345375987105
 20
19.3410900000826
 10
178.7568326947105
 20
19.4121989280826
 10
178.8872893507102
 20
19.47148963208258
 10
179.0255155267105
 20
19.51846671608257
 10
179.1711191827105
 20
19.55263478408255
 10
179.3236975867105
 20
19.57350200408257
 10
179.4828586987105
 20
19.5805658520826
 10
179.6605633027104
 20
19.57164872408259
 10
179.8303166227105
 20
19.54501138808257
 10
179.9917800787104
 20
19.50082135208259
 10
180.1446150907104
 20
19.43924612408256
 10
180.2884830787104
 20
19.36046034008256
 10
180.4230490267105
 20
19.26462794408263
 10
180.5479743547104
 20
19.15192357208258
 10
180.6629169187105
 20
19.02251116808264
  0
LWPOLYLINE
  5
2A3
330
25D
100
AcDbEntity
  8
06-99
100
AcDbPolyline
 90
       12
 70
     1
 43
0.010692
 10
177.4389973627103
 20
12.25281434408265
 10
179.3222648587105
 20
12.25281434408265
 10
179.4676012147104
 20
13.00768023608259
 10
178.5648720907104
 20
13.00768023608259
 10
178.6210549867103
 20
13.29950768408252
 10
179.4187173907104
 20
13.29950768408252
 10
179.5558030867103
 20
14.01156280808254
 10
178.7581406827103
 20
14.01156280808254
 10
178.8098471947103
 20
14.28005674808253
 10
179.6892285547103
 20
14.28005674808253
 10
179.8345542187104
 20
15.0349083840826
 10
177.9746344867104
 20
15.0349083840826
  0
LWPOLYLINE
  5
2A4
330
25D
100
AcDbEntity
  8
06-99
100
AcDbPolyline
 90
        4
 70
     1
 43
0.010692
 10
163.6086138067104
 20
12.88042761608255
 10
176.0658630067103
 20
12.88042761608255
 10
175.9422848707104
 20
12.25209798008257
 10
163.4850392347104
 20
12.25209798008257
  0
SOLID
  5
2A5
330
25D
100
AcDbEntity
  8
06-99
100
AcDbTrace
 10
163.6086138067104
 20
12.88042761608255
 30
0.0
 11
176.0658630067103
 21
12.88042761608255
 31
0.0
 12
163.4850392347104
 22
12.25209798008257
 32
0.0
 13
175.9422848707104
 23
12.25209798008257
 33
0.0
  0
LWPOLYLINE
  5
2A6
330
25D
100
AcDbEntity
  8
06-99
100
AcDbPolyline
 90
       10
 70
     1
 43
0.010692
 10
169.3458447787104
 20
16.02887234408263
 10
170.3221847587103
 20
19.10266909208258
 10
171.3396497347103
 20
16.02887234408263
 10
172.5678005707104
 20
19.80153385208257
 10
172.2235110427103
 20
19.80153385208257
 10
171.3396497347103
 20
16.89303186008254
 10
170.3221847587103
 20
19.94541253208251
 10
169.3458447787104
 20
16.86733898408261
 10
168.4260120187104
 20
19.80153385208257
 10
168.0765832027105
 20
19.80153385208257
  0
LWPOLYLINE
  5
2A7
330
25D
100
AcDbEntity
  8
06-99
100
AcDbPolyline
 90
        3
 70
     1
 43
0.010692
 10
174.3244177627104
 20
17.65868598008262
 10
174.9770360587104
 20
19.25683347608253
 10
175.6039650427103
 20
17.65868598008262
  0
LWPOLYLINE
  5
2A8
330
25D
100
AcDbEntity
  8
06-99
100
AcDbPolyline
 90
        7
 70
     1
 43
0.010692
 10
173.3831831827104
 20
16.12735992008254
 10
173.7231959107104
 20
16.12735992008254
 10
174.2113641187103
 20
17.37092862008256
 10
175.7118651427105
 20
17.37092862008256
 10
176.1794940187103
 20
16.12735992008254
 10
176.5443406987103
 20
16.12735992008254
 10
174.9975932107104
 20
19.94541253208251
  0
LWPOLYLINE
  5
2A9
330
25D
100
AcDbEntity
  8
06-99
100
AcDbPolyline
 90
        8
 70
     1
 43
0.010692
 10
185.9298068107102
 20
12.25281434408265
 10
187.0043813227103
 20
12.25281434408265
 10
187.1574087907104
 20
12.60301298408257
 10
187.9122746827104
 20
12.60301298408257
 10
187.9343465347103
 20
12.25281434408265
 10
189.0082759627103
 20
12.25281434408265
 10
188.5711513627103
 20
15.0349083840826
 10
187.4583137467103
 20
15.0349083840826
  0
LWPOLYLINE
  5
2AA
330
25D
100
AcDbEntity
  8
06-99
100
AcDbPolyline
 90
       34
 70
     1
 43
0.010692
 10
183.0434586427104
 20
13.66137842408255
 10
183.0784820707102
 20
13.66137842408255
 10
183.0642260707104
 20
13.48699903208262
 10
183.0638019547103
 20
13.33510135208257
 10
183.0679005547104
 20
13.20222830408261
 10
183.0952328707104
 20
12.25281434408265
 10
183.9668304547102
 20
12.25281434408265
 10
185.3156904067102
 20
15.0349083840826
 10
184.3118078347104
 20
15.0349083840826
 10
183.8579146147103
 20
13.80923096408253
 10
183.8078119027104
 20
13.66872739208253
 10
183.7488419587103
 20
13.48671391208251
 10
183.6900288307102
 20
13.26059949608265
 10
183.6666953227103
 20
13.26059949608265
 10
183.6884214667103
 20
13.45803440408258
 10
183.6929798227104
 20
13.61569507208253
 10
183.6919391347103
 20
13.73531360408259
 10
183.6775548307103
 20
15.0349083840826
 10
182.9732870467103
 20
15.0349083840826
 10
182.4584850667104
 20
13.73531360408259
 10
182.4113832427102
 20
13.61569507208253
 10
182.3552288587104
 20
13.45803440408258
 10
182.3009241907103
 20
13.26059949608265
 10
182.2775906827103
 20
13.26059949608265
 10
182.3058460747104
 20
13.48671391208251
 10
182.3169657547104
 20
13.66872739208253
 10
182.3209609987103
 20
13.80923096408253
 10
182.3390340427103
 20
15.0349083840826
 10
181.3345063867103
 20
15.0349083840826
 10
181.6127371747104
 20
12.25281434408265
 10
182.4843311947103
 20
12.25281434408265
 10
182.8772408107104
 20
13.20222830408261
 10
182.9325148867103
 20
13.33510135208257
 10
182.9905795747104
 20
13.48699903208262
  0
LWPOLYLINE
  5
2AB
330
25D
100
AcDbEntity
  8
06-99
100
AcDbPolyline
 90
       10
 70
     1
 43
0.010692
 10
187.4520696187103
 20
13.2644842560826
 10
187.5983611267103
 20
13.57965946808258
 10
187.6731124627104
 20
13.74409530008267
 10
187.7541542587104
 20
13.9457107800826
 10
187.8288307507103
 20
14.19056470808266
 10
187.8482901907103
 20
14.19056470808266
 10
187.8286668067103
 20
13.9457107800826
 10
187.8320739907103
 20
13.74409530008267
 10
187.8435073027103
 20
13.57965946808258
 10
187.8684125347105
 20
13.2644842560826
  0
LWPOLYLINE
  5
2AC
330
25D
100
AcDbEntity
  8
06-99
100
AcDbPolyline
 90
       23
 70
     1
 43
0.010692
 10
190.5867074107104
 20
12.25281434408265
 10
191.5672422187102
 20
12.25281434408265
 10
191.7440380027103
 20
13.17110389208255
 10
192.0536284267105
 20
12.25281434408265
 10
193.1742391267103
 20
12.25281434408265
 10
192.6490694707104
 20
13.38511496408256
 10
192.8084301667104
 20
13.42380931208259
 10
192.9537023707103
 20
13.49881725608259
 10
193.0813505947103
 20
13.60690268408257
 10
193.1878322227103
 20
13.74481879208258
 10
193.2696010747103
 20
13.90932234008255
 10
193.3231145347102
 20
14.09717008808257
 10
193.3446018907103
 20
14.26809240008259
 10
193.3403037067103
 20
14.42330103608265
 10
193.3102306747104
 20
14.56226139608259
 10
193.2543934867102
 20
14.6844353160825
 10
193.1728099627103
 20
14.78928819608262
 10
193.0654943587103
 20
14.87627830808259
 10
192.9324538027104
 20
14.94487461608258
 10
192.7737096787102
 20
14.99453539208264
 10
192.5892655507103
 20
15.0247260360826
 10
192.3791463667103
 20
15.0349083840826
 10
191.1223445347103
 20
15.0349083840826
  0
LWPOLYLINE
  5
2AD
330
25D
100
AcDbEntity
  8
06-99
100
AcDbPolyline
 90
        9
 70
     1
 43
0.010692
 10
191.9650345147104
 20
14.31896493608258
 10
192.1206850867104
 20
14.31896493608258
 10
192.2773549627104
 20
14.28538492808252
 10
192.3582221227102
 20
14.19041145608264
 10
192.3632188507104
 20
14.04270147608258
 10
192.3008666707103
 20
13.89700159208263
 10
192.1832938747103
 20
13.8057810120826
 10
192.0158143867103
 20
13.77422179208253
 10
191.8601638147104
 20
13.77422179208253
  0
LWPOLYLINE
  5
2AE
330
25D
100
AcDbEntity
  8
06-99
100
AcDbPolyline
 90
       12
 70
     1
 43
0.010692
 10
187.5798033787105
 20
16.12735992008254
 10
189.3989010547104
 20
16.12735992008254
 10
189.3989010547104
 20
16.44082441208252
 10
187.9138214587104
 20
16.44082441208252
 10
187.9138214587104
 20
18.02353266008265
 10
189.3989010547104
 20
18.02353266008265
 10
189.3989010547104
 20
18.33699715208263
 10
187.9138214587104
 20
18.33699715208263
 10
187.9138214587104
 20
19.48806936008259
 10
189.3989010547104
 20
19.48806936008259
 10
189.3989010547104
 20
19.80153385208257
 10
187.5798033787105
 20
19.80153385208257
  0
LWPOLYLINE
  5
2AF
330
25D
100
AcDbEntity
  8
06-99
100
AcDbPolyline
 90
        8
 70
     1
 43
0.010692
 10
182.8530269947105
 20
16.12735992008254
 10
183.1870486387104
 20
16.12735992008254
 10
183.1870486387104
 20
19.09753336808256
 10
185.7666682747103
 20
16.01858664008256
 10
185.7666682747103
 20
19.80153385208257
 10
185.4326608867104
 20
19.80153385208257
 10
185.4326608867104
 20
16.88274615608259
 10
182.8530269947105
 20
19.95568398008254
  0
LWPOLYLINE
  5
2B0
330
25D
100
AcDbEntity
  8
06-99
100
AcDbPolyline
 90
       19
 70
     1
 43
0.010692
 10
191.4484255867105
 20
19.50862651208251
 10
191.7824329747104
 20
19.50862651208251
 10
191.9866180987103
 20
19.50030813608259
 10
192.1604486347104
 20
19.47385969208255
 10
192.3048975547104
 20
19.4270572440825
 10
192.4209200107105
 20
19.35767329208255
 10
192.5094818467105
 20
19.26348033608252
 10
192.5715453427103
 20
19.14225087608264
 10
192.6080799067104
 20
18.99175028408251
 10
192.6200442547104
 20
18.80976175208258
 10
192.6074490787103
 20
18.63100933208255
 10
192.5693784307105
 20
18.48586186808256
 10
192.5054188867104
 20
18.37130421608265
 10
192.4151392027104
 20
18.28432836008261
 10
192.2981259547105
 20
18.2219227200826
 10
192.1539514627104
 20
18.18107215208255
 10
191.9821916107103
 20
18.15877220408265
 10
191.7824329747104
 20
18.15200773208261
 10
191.4484255867105
 20
18.15200773208261
  0
LWPOLYLINE
  5
2B1
330
25D
100
AcDbEntity
  8
06-99
100
AcDbPolyline
 90
       29
 70
     1
 43
0.010692
 10
193.3446018907103
 20
16.12735992008254
 10
192.0239581267103
 20
17.87965398008259
 10
192.2123761147105
 20
17.89225272008264
 10
192.3829028227104
 20
17.92942167608254
 10
192.5344013347104
 20
17.99023064408266
 10
192.6657240427104
 20
18.0737565480826
 10
192.7757304667104
 20
18.17905849208256
 10
192.8632765627103
 20
18.3052169640826
 10
192.9272254147104
 20
18.45129463208263
 10
192.9664329787103
 20
18.61636129208261
 10
192.9797552107102
 20
18.79949030408261
 10
192.9699399547105
 20
18.9745539840826
 10
192.9404834947105
 20
19.13261738408261
 10
192.8913573187104
 20
19.27374822008261
 10
192.8225436067105
 20
19.39801420808248
 10
192.7340174107104
 20
19.50548662808262
 10
192.6257537827105
 20
19.5962367600826
 10
192.4977313387104
 20
19.67032875608254
 10
192.3499251307103
 20
19.72783389608258
 10
192.1823137747103
 20
19.76882702408261
 10
191.9948758867103
 20
19.79336872808261
 10
191.7875829547104
 20
19.80153385208257
 10
191.7875829547104
 20
19.80153385208257
 10
191.1144075067104
 20
19.80153385208257
 10
191.1144075067104
 20
16.12735992008254
 10
191.4484255867105
 20
16.12735992008254
 10
191.4484255867105
 20
17.87965398008259
 10
191.6488399987104
 20
17.87965398008259
 10
192.9386409067103
 20
16.12735992008254
  0
TEXT
  5
2B2
330
25D
100
AcDbEntity
  8
06-99
100
AcDbText
 10
172.6083599897699
 20
9.633209504468425
 30
0.0
 40
1.4256
  1
GmbH & Co KG
 41
1.199203187251
 51
15.0
  7
ROMAND8
 72
     5
 11
193.04195998977
 21
9.633209504468425
 31
0.0
100
AcDbText
  0
TEXT
  5
2B4
330
25D
100
AcDbEntity
  8
06-99
100
AcDbText
 10
172.7098167443538
 20
7.391016232044876
 30
0.0
 40
1.4256
  1
72774 Reutlingen
 50
0.5663244663116128
 41
1.087840993687879
 51
15.0
  7
ROMAND8
 72
     5
 11
192.9434167443538
 21
7.591016232044864
 31
0.0
100
AcDbText
  0
TEXT
  5
2B5
330
25D
100
AcDbEntity
  8
08-99
100
AcDbText
 10
160.4141200905478
 20
48.45009214919253
 30
0.0
 40
2.25
  1
Zul. Abw.
 51
15.0
  7
ROMANS8
100
AcDbText
  0
TEXT
  5
2B6
330
25D
100
AcDbEntity
  8
08-99
100
AcDbText
 10
210.2099282109939
 20
49.2861646781227
 30
0.0
 40
2.0
  1
Mat. Art.
 51
15.0
  7
ROMANS8
100
AcDbText
  0
TEXT
  5
2B7
330
25D
100
AcDbEntity
  8
08-99
100
AcDbText
 10
242.4865328610831
 20
49.40431390209392
 30
0.0
 40
2.0
  1
Oberfläche:
 51
15.0
  7
ROMANS8
100
AcDbText
  0
TEXT
  5
2B8
330
25D
100
AcDbEntity
  8
08-99
100
AcDbText
 10
270.2625397292909
 20
41.73764723542717
 30
0.0
 40
2.0
  1
Blech Dicke:
 51
15.0
  7
ROMANS8
100
AcDbText
  0
TEXT
  5
2B9
330
25D
100
AcDbEntity
  8
08-99
100
AcDbText
 10
274.438029919268
 20
49.28616467812275
 30
0.0
 40
2.0
  1
Maßstab:
 51
15.0
  7
ROMANS8
100
AcDbText
  0
LINE
  5
2BA
330
25D
100
AcDbEntity
  8
01-99
100
AcDbLine
 10
202.0000018907103
 20
46.88888940774922
 30
0.0
 11
179.0000018907103
 21
46.88888940774922
 31
0.0
  0
LINE
  5
2BB
330
25D
100
AcDbEntity
  8
01-99
100
AcDbLine
 10
202.0000018907103
 20
44.33333385208249
 30
0.0
 11
179.0000018907103
 21
44.33333385208249
 31
0.0
  0
LINE
  5
2BC
330
25D
100
AcDbEntity
  8
01-99
100
AcDbLine
 10
202.0000018907103
 20
40.50000051874917
 30
0.0
 11
179.0000018907103
 21
40.50000051874917
 31
0.0
  0
ATTDEF
  5
2BD
330
25D
100
AcDbEntity
  8
06-99
100
AcDbText
 10
203.4954486298875
 20
26.18783921603142
 30
0.0
 40
4.5
  1

 41
0.9
  7
ROMANS8
100
AcDbAttributeDefinition
280
     0
  3
Benennung/Teil
  2
TEILE
 70
     0
280
     0
  0
ATTDEF
  5
2BE
330
25D
100
AcDbEntity
  8
06-99
100
AcDbText
 10
203.4954486298875
 20
18.95060400366537
 30
0.0
 40
4.5
  1

 41
0.9
  7
ROMANS8
100
AcDbAttributeDefinition
280
     0
  3
Benennung/Teil2
  2
TEILE2
 70
     0
280
     0
  0
ATTDEF
  5
2BF
330
25D
100
AcDbEntity
  8
06-99
100
AcDbText
 10
278.3473881024249
 20
45.33333385208254
 30
0.0
 40
3.375
  1

  7
ROMANS8
100
AcDbAttributeDefinition
280
     0
  3
Maßstab
  2
:
 70
     0
280
     0
  0
ATTDEF
  5
2C0
330
25D
100
AcDbEntity
  8
06-99
100
AcDbText
 10
179.9970696900777
 20
27.4416859867805
 30
0.0
 40
2.5
  1

 41
0.9
  7
ROMANS8
100
AcDbAttributeDefinition
280
     0
  3
Name
  2
NAME
 70
     0
280
     0
  0
ATTDEF
  5
2C1
330
25D
100
AcDbEntity
  8
06-99
100
AcDbText
 10
166.4931483426044
 20
27.46123569286044
 30
0.0
 40
2.5
  1

 50
359.9144597696142
 41
0.9542572414211148
  7
ROMANS8
 72
     5
 11
177.7397390111491
 21
27.44444498541589
 31
0.0
100
AcDbAttributeDefinition
280
     0
  3
Datum
  2
DATUM
 70
     0
280
     0
  0
ATTDEF
  5
2C2
330
25D
100
AcDbEntity
  8
06-99
100
AcDbText
 10
265.5063458578686
 20
7.492900319037914
 30
0.0
 40
2.99376
  1

  7
ROMANS8
100
AcDbAttributeDefinition
280
     0
  3
Ident-Nummer
  2
ID.NR
 70
     0
280
     0
  0
ATTDEF
  5
2C3
330
25D
100
AcDbEntity
  8
06-99
100
AcDbText
 10
203.7312681464209
 20
37.66666716319367
 30
0.0
 40
3.0
  1

 41
0.9
  7
ROMANS8
100
AcDbAttributeDefinition
280
     0
  3
Zuschnitts.Länge
  2
LÄNGE
 70
     0
280
     0
  0
ATTDEF
  5
2C4
330
25D
100
AcDbEntity
  8
06-99
100
AcDbText
 10
237.1808068024801
 20
37.67810438919398
 30
0.0
 40
3.0
  1

 41
0.9
  7
ROMANS8
100
AcDbAttributeDefinition
280
     0
  3
Zuschnitts Breite
  2
BREITE
 70
     0
280
     0
  0
ATTDEF
  5
2C5
330
25D
100
AcDbEntity
  8
06-99
100
AcDbText
 10
277.6090940174422
 20
37.66666718541598
 30
0.0
 40
3.09375
  1

  7
ROMANS8
100
AcDbAttributeDefinition
280
     0
  3
Blech.Dicke
  2
1.0
 70
     0
280
     0
  0
ATTDEF
  5
2C6
330
25D
100
AcDbEntity
  8
06-99
100
AcDbText
 10
251.127787492113
 20
45.33333385208266
 30
0.0
 40
3.0
  1

  7
ROMANS8
 72
     1
 11
251.127787492113
 21
45.33333385208266
 31
0.0
100
AcDbAttributeDefinition
280
     0
  3
Oberfläche
  2
IV
 70
     0
280
     0
  0
ATTDEF
  5
2C7
330
25D
100
AcDbEntity
  8
06-99
100
AcDbText
 10
210.2747424268261
 20
45.33333385208249
 30
0.0
 40
3.375
  1
1.4301
  7
ROMANS8
100
AcDbAttributeDefinition
280
     0
  3
Mat.Art
  2
1.4301
 70
     0
280
     0
  0
ATTDEF
  5
2C8
330
25D
100
AcDbEntity
  8
06-99
100
AcDbText
 10
233.0006357775904
 20
7.504397123103842
 30
0.0
 40
3.168
  1

 41
0.9
  7
ROMANS8
100
AcDbAttributeDefinition
280
     0
  3
Auftrags Nr.
  2
AUFTRAGS.NR.
 70
     0
280
     0
  0
ATTDEF
  5
2C9
330
25D
100
AcDbEntity
  8
06-99
100
AcDbText
 10
203.5000018907104
 20
7.500000518749232
 30
0.0
 40
3.168
  1

 41
0.9
  7
ROMANS8
100
AcDbAttributeDefinition
280
     0
  3
Sonder-NR,WPS
  2
SONDER-NR
 70
     0
280
     0
  0
ATTDEF
  5
2CA
330
25D
100
AcDbEntity
  8
06-99
100
AcDbText
 10
133.4997528857186
 20
6.601810588009072
 30
0.0
 40
1.5
  1

 41
0.9
  7
ROMANS8
100
AcDbAttributeDefinition
280
     0
  3
ERSETZT.Durch
  2
ERSETZT.DURCH
 70
     0
280
     0
  0
ATTDEF
  5
2CB
330
25D
100
AcDbEntity
  8
06-99
100
AcDbText
 10
108.4994696709088
 20
6.597456916621638
 30
0.0
 40
1.5
  1

 41
0.9
  7
ROMANS8
100
AcDbAttributeDefinition
280
     0
  3
ERSETZT.Für
  2
ERSETZT.FÜR
 70
     0
280
     0
  0
ATTDEF
  5
2CC
330
25D
100
AcDbEntity
  8
06-99
100
AcDbText
 10
186.9730745371479
 20
47.66851165875721
 30
0.0
 40
1.287
  1
DIN A4
  7
ROMANS8
 72
     1
 11
190.2518602514336
 21
47.66851165875721
 31
0.0
100
AcDbAttributeDefinition
280
     0
  3
Format
  2
FORMAT
 70
     0
280
     0
  0
ATTDEF
  5
2CD
330
25D
100
AcDbEntity
  8
06-99
100
AcDbText
 10
182.9908211122643
 20
37.31860869812611
 30
0.0
 40
2.34
  1
DIN 2768
  7
ROMANS8
 72
     1
 11
191.0136782551214
 21
37.31860869812611
 31
0.0
100
AcDbAttributeDefinition
280
     0
  3
Norm / Kanten
  2
NORM2
 70
     0
280
     0
  0
ATTDEF
  5
2CE
330
25D
100
AcDbEntity
  8
06-99
100
AcDbText
 10
179.8151068265501
 20
41.15194203145941
 30
0.0
 40
2.34
  1
DIN 6930-M
  7
ROMANS8
 72
     1
 11
190.5122496836929
 21
41.15194203145941
 31
0.0
100
AcDbAttributeDefinition
280
     0
  3
Norm / Fräsen
  2
NORM1
 70
     0
280
     0
  0
ENDBLK
  5
2CF
330
25D
100
AcDbEntity
  8
0
100
AcDbBlockEnd
  0
BLOCK
  5
251
330
250
100
AcDbEntity
  8
0
100
AcDbBlockBegin
  2
*D12
 70
     1
 10
0.0
 20
0.0
 30
0.0
  3
*D12
  1

  0
LINE
  5
252
330
250
100
AcDbEntity
  8
09-01
 62
     4
440
 16777216
370
    -2
100
AcDbLine
 10
329.3291411978162
 20
208.2387681537319
 30
0.0
 11
317.4972396181038
 21
208.238768153732
 31
0.0
  0
LINE
  5
253
330
250
100
AcDbEntity
  8
09-01
 62
     4
440
 16777216
370
    -2
100
AcDbLine
 10
329.3291411978162
 20
382.2387681537319
 30
0.0
 11
317.4972396181038
 21
382.2387681537319
 31
0.0
  0
LINE
  5
254
330
250
100
AcDbEntity
  8
09-01
 62
     4
440
 16777216
370
    -2
100
AcDbLine
 10
319.4972396181038
 20
213.2387681537319
 30
0.0
 11
319.4972396181038
 21
377.238768153732
 31
0.0
  0
SOLID
  5
255
330
250
100
AcDbEntity
  8
09-01
 62
     4
440
 16777216
100
AcDbTrace
 10
318.6639062847705
 20
213.2387681537319
 30
0.0
 11
320.3305729514371
 21
213.2387681537319
 31
0.0
 12
319.4972396181038
 22
208.238768153732
 32
0.0
 13
319.4972396181038
 23
208.238768153732
 33
0.0
  0
SOLID
  5
256
330
250
100
AcDbEntity
  8
09-01
 62
     4
440
 16777216
100
AcDbTrace
 10
318.6639062847705
 20
377.238768153732
 30
0.0
 11
320.3305729514371
 21
377.238768153732
 31
0.0
 12
319.4972396181038
 22
382.2387681537319
 32
0.0
 13
319.4972396181038
 23
382.2387681537319
 33
0.0
  0
MTEXT
  5
257
330
250
100
AcDbEntity
  8
09-01
 62
     1
440
 16777216
100
AcDbMText
 10
314.9870076945021
 20
295.238768153732
 30
0.0
 40
5.0
 41
0.0
 46
0.0
 71
     5
 72
     1
  1
174
 11
0.0000000000000001
 21
1.0
 31
0.0
 73
     1
 44
1.0
  0
POINT
  5
258
330
250
100
AcDbEntity
  8
DEFPOINTS
 62
     0
440
 16777216
100
AcDbPoint
 10
331.3291411978162
 20
208.2387681537319
 30
0.0
  0
POINT
  5
259
330
250
100
AcDbEntity
  8
DEFPOINTS
 62
     0
440
 16777216
100
AcDbPoint
 10
331.3291411978162
 20
382.2387681537319
 30
0.0
  0
POINT
  5
25A
330
250
100
AcDbEntity
  8
DEFPOINTS
 62
     0
440
 16777216
100
AcDbPoint
 10
319.4972396181038
 20
382.2387681537319
 30
0.0
  0
ENDBLK
  5
25B
330
250
100
AcDbEntity
  8
0
100
AcDbBlockEnd
  0
BLOCK
  5
244
330
243
100
AcDbEntity
  8
0
100
AcDbBlockBegin
  2
*D13
 70
     1
 10
0.0
 20
0.0
 30
0.0
  3
*D13
  1

  0
LINE
  5
245
330
243
100
AcDbEntity
  8
09-01
 62
     4
440
 16777216
370
    -2
100
AcDbLine
 10
329.3291411978162
 20
208.2387681537319
 30
0.0
 11
307.6630349699289
 21
208.238768153732
 31
0.0
  0
LINE
  5
246
330
243
100
AcDbEntity
  8
09-01
 62
     4
440
 16777216
370
    -2
100
AcDbLine
 10
380.6573401847783
 20
456.2509601938247
 30
0.0
 11
307.663034969929
 21
456.2509601938247
 31
0.0
  0
LINE
  5
247
330
243
100
AcDbEntity
  8
09-01
 62
     4
440
 16777216
370
    -2
100
AcDbLine
 10
309.6630349699289
 20
213.2387681537319
 30
0.0
 11
309.663034969929
 21
451.2509601938247
 31
0.0
  0
SOLID
  5
248
330
243
100
AcDbEntity
  8
09-01
 62
     4
440
 16777216
100
AcDbTrace
 10
308.8297016365956
 20
213.2387681537319
 30
0.0
 11
310.4963683032622
 21
213.2387681537319
 31
0.0
 12
309.6630349699289
 22
208.238768153732
 32
0.0
 13
309.6630349699289
 23
208.238768153732
 33
0.0
  0
SOLID
  5
249
330
243
100
AcDbEntity
  8
09-01
 62
     4
440
 16777216
100
AcDbTrace
 10
308.8297016365956
 20
451.2509601938247
 30
0.0
 11
310.4963683032623
 21
451.2509601938247
 31
0.0
 12
309.663034969929
 22
456.2509601938247
 32
0.0
 13
309.663034969929
 23
456.2509601938247
 33
0.0
  0
MTEXT
  5
24A
330
243
100
AcDbEntity
  8
09-01
 62
     1
440
 16777216
100
AcDbMText
 10
305.1101700313204
 20
332.2448641737784
 30
0.0
 40
5.0
 41
0.0
 46
0.0
 71
     5
 72
     1
  1
248
 11
0.0000000000000001
 21
1.0
 31
0.0
 73
     1
 44
1.0
  0
POINT
  5
24B
330
243
100
AcDbEntity
  8
DEFPOINTS
 62
     0
440
 16777216
100
AcDbPoint
 10
331.3291411978162
 20
208.2387681537319
 30
0.0
  0
POINT
  5
24C
330
243
100
AcDbEntity
  8
DEFPOINTS
 62
     0
440
 16777216
100
AcDbPoint
 10
382.6573401847783
 20
456.2509601938247
 30
0.0
  0
POINT
  5
24D
330
243
100
AcDbEntity
  8
DEFPOINTS
 62
     0
440
 16777216
100
AcDbPoint
 10
309.663034969929
 20
456.2509601938247
 30
0.0
  0
ENDBLK
  5
24E
330
243
100
AcDbEntity
  8
0
100
AcDbBlockEnd
  0
BLOCK
  5
237
330
236
100
AcDbEntity
  8
0
100
AcDbBlockBegin
  2
*D14
 70
     1
 10
0.0
 20
0.0
 30
0.0
  3
*D14
  1

  0
LINE
  5
238
330
236
100
AcDbEntity
  8
09-01
 62
     4
440
 16777216
370
    -2
100
AcDbLine
 10
331.3291411978166
 20
384.2387681537319
 30
0.0
 11
331.3291411978166
 21
470.3587929676464
 31
0.0
  0
LINE
  5
239
330
236
100
AcDbEntity
  8
09-01
 62
     4
440
 16777216
370
    -2
100
AcDbLine
 10
451.4200169307152
 20
454.2509600597243
 30
0.0
 11
451.4200169307152
 21
470.3587929676464
 31
0.0
  0
LINE
  5
23A
330
236
100
AcDbEntity
  8
09-01
 62
     4
440
 16777216
370
    -2
100
AcDbLine
 10
336.3291411978166
 20
468.3587929676463
 30
0.0
 11
446.4200169307152
 21
468.3587929676463
 31
0.0
  0
SOLID
  5
23B
330
236
100
AcDbEntity
  8
09-01
 62
     4
440
 16777216
100
AcDbTrace
 10
336.3291411978166
 20
469.1921263009797
 30
0.0
 11
336.3291411978166
 21
467.5254596343131
 31
0.0
 12
331.3291411978166
 22
468.3587929676463
 32
0.0
 13
331.3291411978166
 23
468.3587929676463
 33
0.0
  0
SOLID
  5
23C
330
236
100
AcDbEntity
  8
09-01
 62
     4
440
 16777216
100
AcDbTrace
 10
446.4200169307152
 20
469.1921263009797
 30
0.0
 11
446.4200169307152
 21
467.5254596343131
 31
0.0
 12
451.4200169307152
 22
468.3587929676463
 32
0.0
 13
451.4200169307152
 23
468.3587929676463
 33
0.0
  0
MTEXT
  5
23D
330
236
100
AcDbEntity
  8
09-01
 62
     1
440
 16777216
100
AcDbMText
 10
391.3745790642659
 20
472.9116579062549
 30
0.0
 40
5.0
 41
0.0
 46
0.0
 71
     5
 72
     1
  1
120.1
 73
     1
 44
1.0
  0
POINT
  5
23E
330
236
100
AcDbEntity
  8
DEFPOINTS
 62
     0
440
 16777216
100
AcDbPoint
 10
331.3291411978166
 20
382.2387681537319
 30
0.0
  0
POINT
  5
23F
330
236
100
AcDbEntity
  8
DEFPOINTS
 62
     0
440
 16777216
100
AcDbPoint
 10
451.4200169307152
 20
452.2509600597244
 30
0.0
  0
POINT
  5
240
330
236
100
AcDbEntity
  8
DEFPOINTS
 62
     0
440
 16777216
100
AcDbPoint
 10
451.4200169307152
 20
468.3587929676463
 30
0.0
  0
ENDBLK
  5
241
330
236
100
AcDbEntity
  8
0
100
AcDbBlockEnd
  0
BLOCK
  5
1E7
330
1E6
100
AcDbEntity
  8
0
100
AcDbBlockBegin
  2
Kolbendruckplatte01_s
 70
     0
 10
0.0
 20
0.0
 30
0.0
  3
Kolbendruckplatte01_s
  1

  0
LINE
  5
1E8
330
1E6
100
AcDbEntity
  8
0
100
AcDbLine
 10
-3.998079160962277
 20
0.1722786661994178
 30
0.0
 11
-6.728982372248708
 21
-37.18724677554974
 31
0.0
  0
ARC
  5
1E9
330
1E6
100
AcDbEntity
  8
0
100
AcDbCircle
 10
-5.731643365302261
 20
-37.26015017206282
 30
0.0
 40
1.0
100
AcDbArc
 50
175.8192340796936
 51
265.81923407968
  0
CIRCLE
  5
1EA
330
1E6
100
AcDbEntity
  8
0
100
AcDbCircle
 10
0.0
 20
0.0
 30
0.0
 40
1.9
  0
CIRCLE
  5
1EB
330
1E6
100
AcDbEntity
  8
0
100
AcDbCircle
 10
-0.1486818435844839
 20
-29.46757359725052
 30
0.0
 40
2.5
  0
LINE
  5
1EC
330
1E6
100
AcDbEntity
  8
0
100
AcDbLine
 10
3.840674184201247
 20
-29.75918718330195
 30
0.0
 11
3.244407697215592
 21
-37.9162807406783
 31
0.0
  0
ARC
  5
1ED
330
1E6
100
AcDbEntity
  8
0
100
AcDbCircle
 10
2.247068690269145
 20
-37.84337734416522
 30
0.0
 40
1.0
100
AcDbArc
 50
265.81923407968
 51
355.8192340796936
  0
LINE
  5
1EE
330
1E6
100
AcDbEntity
  8
0
100
AcDbLine
 10
4.229908413562554
 20
-0.1822682719116528
 30
0.0
 11
3.840674184201247
 21
-29.75918718330195
 31
0.0
  0
ARC
  5
1EF
330
1E6
100
AcDbEntity
  8
0
100
AcDbCircle
 10
0.1106117866753493
 20
-0.1280580530287807
 30
0.0
 40
4.119653316495944
100
AcDbArc
 50
359.2460272369752
 51
175.8192340796936
  0
LINE
  5
1F0
330
1E6
100
AcDbEntity
  8
0
100
AcDbLine
 10
2.174165293756288
 20
-38.84071635111195
 30
0.0
 11
-5.804546761815117
 21
-38.2574891790091
 31
0.0
  0
ENDBLK
  5
1F1
330
1E6
100
AcDbEntity
  8
0
100
AcDbBlockEnd
  0
BLOCK
  5
1F5
330
1F4
100
AcDbEntity
  8
0
100
AcDbBlockBegin
  2
Desipumpe_937045_V
 70
     0
 10
0.0
 20
0.0
 30
0.0
  3
Desipumpe_937045_V
  1

  0
LINE
  5
1F6
330
1F4
100
AcDbEntity
  8
0
100
AcDbLine
 10
-35.44640027120659
 20
226.5348919169746
 30
0.0
 11
-35.489521920681
 21
225.2999940537848
 31
0.0
  0
LINE
  5
1F7
330
1F4
100
AcDbEntity
  8
0
100
AcDbLine
 10
35.489521920681
 20
225.2999940537848
 30
0.0
 11
-35.489521920681
 21
225.2999940537848
 31
0.0
  0
LINE
  5
1F8
330
1F4
100
AcDbEntity
  8
0
100
AcDbLine
 10
-26.7289400791733
 20
228.0348962732905
 30
0.0
 11
-26.73076838254929
 21
227.9825443401933
 31
0.0
  0
ARC
  5
1F9
330
1F4
100
AcDbEntity
  8
0
100
AcDbCircle
 10
-27.23046323316566
 20
227.9999940395355
 30
0.0
 40
0.4999999999999858
100
AcDbArc
 50
270.0
 51
358.0000000000747
  0
LINE
  5
1FA
330
1F4
100
AcDbEntity
  8
0
100
AcDbLine
 10
-29.34546396136284
 20
0.0
 30
0.0
 11
29.34546396136284
 21
0.0
 31
0.0
  0
LINE
  5
1FB
330
1F4
100
AcDbEntity
  8
0
100
AcDbLine
 10
35.50000116229057
 20
224.9999940395355
 30
0.0
 11
33.93948450684547
 21
106.0533300042152
 31
0.0
  0
LINE
  5
1FC
330
1F4
100
AcDbEntity
  8
03-01
100
AcDbLine
 10
33.40018186535781
 20
225.0275425463629
 30
0.0
 11
31.83966520991271
 21
106.0808785110425
 31
0.0
  0
LINE
  5
1FD
330
1F4
100
AcDbEntity
  8
0
100
AcDbLine
 10
-33.93948450684547
 20
106.0533300042152
 30
0.0
 11
-35.50000116229057
 21
224.9999940395355
 31
0.0
  0
LINE
  5
1FE
330
1F4
100
AcDbEntity
  8
03-01
100
AcDbLine
 10
-31.83966520991271
 20
106.0808785110425
 30
0.0
 11
-33.40018186535781
 21
225.0275425463629
 31
0.0
  0
LINE
  5
1FF
330
1F4
100
AcDbEntity
  8
0
100
AcDbLine
 10
-35.50000116229057
 20
224.9999940395355
 30
0.0
 11
35.50000116229057
 21
224.9999940395355
 31
0.0
  0
ARC
  5
200
330
1F4
100
AcDbEntity
  8
0
100
AcDbCircle
 10
-23.94034354855285
 20
106.1845104766498
 30
0.0
 40
10.00000000000001
100
AcDbArc
 50
180.7516470000064
 51
192.7786363657759
  0
ARC
  5
201
330
1F4
100
AcDbEntity
  8
03-01
100
AcDbCircle
 10
-23.94034354855285
 20
106.1845104766498
 30
0.0
 40
7.900000000000011
100
AcDbArc
 50
180.7516470000064
 51
192.7786363657759
  0
LINE
  5
202
330
1F4
100
AcDbEntity
  8
0
100
AcDbLine
 10
-30.75666166841984
 20
91.02746844291687
 30
0.0
 11
-33.69266167283058
 21
103.9726585149765
 31
0.0
  0
LINE
  5
203
330
1F4
100
AcDbEntity
  8
03-01
100
AcDbLine
 10
-28.70867470782286
 20
91.49195677347643
 30
0.0
 11
-31.64467471223361
 21
104.437146845536
 31
0.0
  0
ARC
  5
204
330
1F4
100
AcDbEntity
  8
0
100
AcDbCircle
 10
-40.50898116836743
 20
88.81561932607928
 30
0.0
 40
10.00000000000002
100
AcDbArc
 50
0.7499999999958722
 51
12.77863636577588
  0
ARC
  5
205
330
1F4
100
AcDbEntity
  8
03-01
100
AcDbCircle
 10
-40.50898116836743
 20
88.81561932607928
 30
0.0
 40
12.10000000000002
100
AcDbArc
 50
0.7499999999958722
 51
12.77863636577588
  0
LINE
  5
206
330
1F4
100
AcDbEntity
  8
0
100
AcDbLine
 10
30.5098369717598
 20
88.94652128219604
 30
0.0
 11
29.34546396136284
 21
0.0
 31
0.0
  0
LINE
  5
207
330
1F4
100
AcDbEntity
  8
03-01
100
AcDbLine
 10
28.41001688362758
 20
88.97400941553815
 30
0.0
 11
27.24564387323062
 21
0.0274881333421036
 31
0.0
  0
LINE
  5
208
330
1F4
100
AcDbEntity
  8
0
100
AcDbLine
 10
-29.34546396136284
 20
0.0
 30
0.0
 11
-30.5098369717598
 21
88.94652128219604
 31
0.0
  0
LINE
  5
209
330
1F4
100
AcDbEntity
  8
03-01
100
AcDbLine
 10
-27.24564387322971
 20
0.0274881333421036
 30
0.0
 11
-28.41001688362667
 21
88.97400941553815
 31
0.0
  0
ARC
  5
20A
330
1F4
100
AcDbEntity
  8
0
100
AcDbCircle
 10
-34.44700889223168
 20
226.4999939836562
 30
0.0
 40
1.0
100
AcDbArc
 50
89.9999715032462
 51
178.0000906243824
  0
ARC
  5
20B
330
1F4
100
AcDbEntity
  8
0
100
AcDbCircle
 10
23.94034354855376
 20
106.1845104766498
 30
0.0
 40
10.00000000000001
100
AcDbArc
 50
347.2213636342242
 51
359.2483529999936
  0
ARC
  5
20C
330
1F4
100
AcDbEntity
  8
03-01
100
AcDbCircle
 10
23.94034354855376
 20
106.1845104766498
 30
0.0
 40
7.900000000000011
100
AcDbArc
 50
347.2213636342242
 51
359.2483529999936
  0
LINE
  5
20D
330
1F4
100
AcDbEntity
  8
0
100
AcDbLine
 10
30.75666166841984
 20
91.02746844291687
 30
0.0
 11
33.69266167283058
 21
103.9726585149765
 31
0.0
  0
LINE
  5
20E
330
1F4
100
AcDbEntity
  8
03-01
100
AcDbLine
 10
28.70867470782332
 20
91.49195677347643
 30
0.0
 11
31.64467471223407
 21
104.437146845536
 31
0.0
  0
ARC
  5
20F
330
1F4
100
AcDbEntity
  8
0
100
AcDbCircle
 10
40.50898116836788
 20
88.81561932607928
 30
0.0
 40
10.00000000000002
100
AcDbArc
 50
167.2213636342241
 51
179.2500000000041
  0
ARC
  5
210
330
1F4
100
AcDbEntity
  8
03-01
100
AcDbCircle
 10
40.50898116836788
 20
88.81561932607928
 30
0.0
 40
12.10000000000002
100
AcDbArc
 50
167.2213636342241
 51
179.2500000000041
  0
LINE
  5
211
330
1F4
100
AcDbEntity
  8
0
100
AcDbLine
 10
-34.4470083948695
 20
227.4999939836557
 30
0.0
 11
34.44700889223213
 21
227.4999939836557
 31
0.0
  0
ARC
  5
212
330
1F4
100
AcDbEntity
  8
0
100
AcDbCircle
 10
-25.72954487498009
 20
227.9999942295253
 30
0.0
 40
1.0
100
AcDbArc
 50
89.99974411002318
 51
177.9998629061295
  0
LINE
  5
213
330
1F4
100
AcDbEntity
  8
0
100
AcDbLine
 10
35.44640027120704
 20
226.5348919169746
 30
0.0
 11
35.489521920681
 21
225.2999940537848
 31
0.0
  0
LINE
  5
214
330
1F4
100
AcDbEntity
  8
0
100
AcDbLine
 10
26.72894007917375
 20
228.0348962732905
 30
0.0
 11
26.73076838254929
 21
227.9825443401933
 31
0.0
  0
ARC
  5
215
330
1F4
100
AcDbEntity
  8
0
100
AcDbCircle
 10
27.23046323316612
 20
227.9999940395355
 30
0.0
 40
0.4999999999999858
100
AcDbArc
 50
181.9999999999254
 51
270.0
  0
ARC
  5
216
330
1F4
100
AcDbEntity
  8
0
100
AcDbCircle
 10
34.44700889223213
 20
226.4999939836562
 30
0.0
 40
1.0
100
AcDbArc
 50
1.999909375617534
 51
90.00002849675381
  0
ARC
  5
217
330
1F4
100
AcDbEntity
  8
0
100
AcDbCircle
 10
25.729544874981
 20
227.9999942295253
 30
0.0
 40
1.0
100
AcDbArc
 50
2.000137093870475
 51
90.00025588996379
  0
LINE
  5
218
330
1F4
100
AcDbEntity
  8
0
100
AcDbLine
 10
-25.7295404088577
 20
228.9999942295153
 30
0.0
 11
25.72954040885816
 21
228.9999942295153
 31
0.0
  0
LINE
  5
219
330
1F4
100
AcDbEntity
  8
03-01
100
AcDbLine
 10
-33.69266167283058
 20
103.9726585149765
 30
0.0
 11
33.69266167283058
 21
103.9726585149765
 31
0.0
  0
LINE
  5
21A
330
1F4
100
AcDbEntity
  8
03-01
100
AcDbLine
 10
-30.50983797117897
 20
88.9465212821965
 30
0.0
 11
30.5098369717598
 21
88.94652128219604
 31
0.0
  0
LINE
  5
21B
330
1F4
100
AcDbEntity
  8
0
100
AcDbLine
 10
-5.248327739536762
 20
-4.850000143051147
 30
0.0
 11
-6.430027914070706
 21
-4.850000143051147
 31
0.0
  0
LINE
  5
21C
330
1F4
100
AcDbEntity
  8
0
100
AcDbLine
 10
6.430027914070706
 20
-4.850000143051147
 30
0.0
 11
5.312562920153141
 21
-4.850000143051147
 31
0.0
  0
LINE
  5
21D
330
1F4
100
AcDbEntity
  8
0
100
AcDbLine
 10
-7.42987560875008
 20
-3.867452576801497
 30
0.0
 11
-7.497382350265979
 21
0.0
 31
0.0
  0
ARC
  5
21E
330
1F4
100
AcDbEntity
  8
0
100
AcDbCircle
 10
-6.430027914070706
 20
-3.850000143051147
 30
0.0
 40
1.0
100
AcDbArc
 50
181.0000015651618
 51
270.0
  0
LINE
  5
21F
330
1F4
100
AcDbEntity
  8
0
100
AcDbLine
 10
7.497382350265979
 20
0.0
 30
0.0
 11
7.429875608750535
 21
-3.867452576801497
 31
0.0
  0
ARC
  5
220
330
1F4
100
AcDbEntity
  8
0
100
AcDbCircle
 10
6.430027914070706
 20
-3.850000143051147
 30
0.0
 40
1.0
100
AcDbArc
 50
270.0
 51
358.9999984348382
  0
LINE
  5
221
330
1F4
100
AcDbEntity
  8
0
100
AcDbLine
 10
5.322081036865711
 20
-4.848375916481018
 30
0.0
 11
4.823907278478145
 21
-7.673650979995727
 31
0.0
  0
LINE
  5
222
330
1F4
100
AcDbEntity
  8
0
100
AcDbLine
 10
-4.823909141123294
 20
-7.673650979995727
 30
0.0
 11
-5.324219353497028
 21
-4.836246371269226
 31
0.0
  0
ARC
  5
223
330
1F4
100
AcDbEntity
  8
0
100
AcDbCircle
 10
3.83909952716931
 20
-7.500005960464477
 30
0.0
 40
1.000000000000002
100
AcDbArc
 50
270.0
 51
349.999999999995
  0
ARC
  5
224
330
1F4
100
AcDbEntity
  8
0
100
AcDbCircle
 10
-3.8390997351853
 20
-7.500005960464477
 30
0.0
 40
1.000000000000002
100
AcDbArc
 50
190.000000000005
 51
270.0
  0
SPLINE
  5
225
330
1F4
100
AcDbEntity
  8
0
100
AcDbSpline
210
0.0
220
0.0
230
1.0
 70
     8
 71
     3
 72
    17
 73
    13
 74
     0
 42
0.0000000001
 43
0.0000000001
 40
0.0
 40
0.0
 40
0.0
 40
0.0
 40
0.0600543499638597
 40
0.1648234495280559
 40
0.2723661016691685
 40
0.3832407533501493
 40
0.4895330601902239
 40
0.5863420781005051
 40
0.6814648365672097
 40
0.7837911670314727
 40
0.8936449548470841
 40
1.0
 40
1.0
 40
1.0
 40
1.0
 10
-5.248327739536762
 20
-4.82286512851715
 30
0.0
 10
-5.258854618867644
 20
-4.82668787482271
 30
0.0
 10
-5.287746390489701
 20
-4.837179674886101
 30
0.0
 10
-4.694444456982637
 20
-4.620693885926812
 30
0.0
 10
-3.585124810742854
 20
-4.278353410881663
 30
0.0
 10
-2.015985082593942
 20
-3.937661984898568
 30
0.0
 10
-0.2361049607652603
 20
-3.784743391334814
 30
0.0
 10
1.478322220405061
 20
-3.873174061122426
 30
0.0
 10
2.997739763296522
 20
-4.134917041686094
 30
0.0
 10
4.255208798731473
 20
-4.474955176451203
 30
0.0
 10
5.150242755354156
 20
-4.78469793723525
 30
0.0
 10
5.259043076092893
 20
-4.826221548578814
 30
0.0
 10
5.312562920153141
 20
-4.846647381782531
 30
0.0
  0
LINE
  5
226
330
1F4
100
AcDbEntity
  8
0
100
AcDbLine
 10
-3.8390988484025
 20
-8.500009775161743
 30
0.0
 11
3.8390988484025
 21
-8.500009775161743
 31
0.0
  0
LINE
  5
227
330
1F4
100
AcDbEntity
  8
0
100
AcDbLine
 10
4.823907278478145
 20
-7.673650979995727
 30
0.0
 11
-4.823909141123294
 21
-7.673650979995727
 31
0.0
  0
LINE
  5
228
330
1F4
100
AcDbEntity
  8
03-01
100
AcDbLine
 10
-0.749998725950718
 20
-8.500009775161743
 30
0.0
 11
-0.45000109821558
 21
-6.999999284744262
 31
0.0
  0
LINE
  5
229
330
1F4
100
AcDbEntity
  8
03-01
100
AcDbLine
 10
0.4499992355704308
 20
-6.999999284744262
 30
0.0
 11
0.7500005885958672
 21
-8.500009775161743
 31
0.0
  0
LINE
  5
22A
330
1F4
100
AcDbEntity
  8
03-01
100
AcDbLine
 10
-0.45000109821558
 20
-6.999999284744262
 30
0.0
 11
-0.45000109821558
 21
0.0
 31
0.0
  0
LINE
  5
22B
330
1F4
100
AcDbEntity
  8
03-01
100
AcDbLine
 10
-0.45000109821558
 20
-6.999999284744262
 30
0.0
 11
0.4499992355704308
 21
-6.999999284744262
 31
0.0
  0
LINE
  5
22C
330
1F4
100
AcDbEntity
  8
03-01
100
AcDbLine
 10
0.4499992355704308
 20
-6.999999284744262
 30
0.0
 11
0.4499992355704308
 21
0.0
 31
0.0
  0
LINE
  5
22D
330
1F4
100
AcDbEntity
  8
03-01
100
AcDbLine
 10
-27.58297277337443
 20
25.79606223106384
 30
0.0
 11
27.58297277337488
 21
25.79606223106384
 31
0.0
  0
LINE
  5
22E
330
1F4
100
AcDbEntity
  8
03-01
100
AcDbLine
 10
-27.53715529251485
 20
22.29606223106384
 30
0.0
 11
27.53715529251531
 21
22.29606223106384
 31
0.0
  0
LINE
  5
22F
330
1F4
100
AcDbEntity
  8
03-01
100
AcDbLine
 10
-29.97381789251085
 20
47.99999296665191
 30
0.0
 11
29.97381789251085
 21
47.99999296665191
 31
0.0
  0
LINE
  5
230
330
1F4
100
AcDbEntity
  8
03-01
100
AcDbLine
 10
-24.6454639613628
 20
45.99998891353652
 30
0.0
 11
-29.94763642181863
 21
45.99998891353698
 31
0.0
  0
LINE
  5
231
330
1F4
100
AcDbEntity
  8
03-01
100
AcDbLine
 10
-24.6454639613628
 20
0.0
 30
0.0
 11
-24.6454639613628
 21
45.99998891353652
 31
0.0
  0
LINE
  5
232
330
1F4
100
AcDbEntity
  8
03-01
100
AcDbLine
 10
24.6454639613628
 20
45.99998891353652
 30
0.0
 11
29.94763642181863
 21
45.99998891353698
 31
0.0
  0
LINE
  5
233
330
1F4
100
AcDbEntity
  8
03-01
100
AcDbLine
 10
24.6454639613628
 20
0.0
 30
0.0
 11
24.6454639613628
 21
45.99998891353652
 31
0.0
  0
ENDBLK
  5
234
330
1F4
100
AcDbEntity
  8
0
100
AcDbBlockEnd
  0
BLOCK
  5
18E
330
18D
100
AcDbEntity
  8
0
100
AcDbBlockBegin
  2
Desipumpe_937045_S
 70
     0
 10
0.0
 20
0.0
 30
0.0
  3
Desipumpe_937045_S
  1

  0
LINE
  5
18F
330
18D
100
AcDbEntity
  8
0
100
AcDbLine
 10
54.27379161119461
 20
-50.84998905658721
 30
0.0
 11
55.45549178572844
 21
-50.84998905658721
 31
0.0
  0
LINE
  5
190
330
18D
100
AcDbEntity
  8
0
100
AcDbLine
 10
42.59543595758725
 20
-50.84998905658721
 30
0.0
 11
43.7129009515047
 21
-50.84998905658721
 31
0.0
  0
LINE
  5
191
330
18D
100
AcDbEntity
  8
0
100
AcDbLine
 10
56.45533948040804
 20
-49.86744149033757
 30
0.0
 11
56.52284622192382
 21
-45.99998891353607
 31
0.0
  0
ARC
  5
192
330
18D
100
AcDbEntity
  8
0
100
AcDbCircle
 10
55.45549178572844
 20
-49.84998905658722
 30
0.0
 40
1.0
100
AcDbArc
 50
270.0
 51
358.9999984348382
  0
LINE
  5
193
330
18D
100
AcDbEntity
  8
0
100
AcDbLine
 10
41.52808152139186
 20
-45.99998891353607
 30
0.0
 11
41.59558826290765
 21
-49.86744149033757
 31
0.0
  0
ARC
  5
194
330
18D
100
AcDbEntity
  8
0
100
AcDbCircle
 10
42.59543595758725
 20
-49.84998905658722
 30
0.0
 40
1.0
100
AcDbArc
 50
181.0000015651618
 51
270.0
  0
LINE
  5
195
330
18D
100
AcDbEntity
  8
0
100
AcDbLine
 10
43.70338283479213
 20
-50.84836483001708
 30
0.0
 11
44.2015565931797
 21
-53.67363989353179
 31
0.0
  0
LINE
  5
196
330
18D
100
AcDbEntity
  8
0
100
AcDbLine
 10
53.84937301278114
 20
-53.67363989353179
 30
0.0
 11
54.34968322515487
 21
-50.83623528480529
 31
0.0
  0
ARC
  5
197
330
18D
100
AcDbEntity
  8
0
100
AcDbCircle
 10
45.18636434448888
 20
-53.49999487400054
 30
0.0
 40
1.000000000000002
100
AcDbArc
 50
190.000000000005
 51
270.0
  0
ARC
  5
198
330
18D
100
AcDbEntity
  8
0
100
AcDbCircle
 10
52.86456360684349
 20
-53.49999487400054
 30
0.0
 40
1.000000000000002
100
AcDbArc
 50
270.0
 51
349.999999999995
  0
SPLINE
  5
199
330
18D
100
AcDbEntity
  8
0
100
AcDbSpline
210
0.0
220
0.0
230
1.0
 70
     8
 71
     3
 72
    17
 73
    13
 74
     0
 42
0.0000000001
 43
0.0000000001
 40
0.0
 40
0.0
 40
0.0
 40
0.0
 40
0.0600543499638597
 40
0.1648234495280559
 40
0.2723661016691685
 40
0.3832407533501493
 40
0.4895330601902239
 40
0.5863420781005051
 40
0.6814648365672097
 40
0.7837911670314727
 40
0.8936449548470841
 40
1.0
 40
1.0
 40
1.0
 40
1.0
 10
54.27379161119461
 20
-50.82285404205322
 30
0.0
 10
54.28431849052561
 20
-50.82667678835878
 30
0.0
 10
54.31321026214778
 20
-50.83716858842217
 30
0.0
 10
53.71990832864082
 20
-50.62068279946288
 30
0.0
 10
52.61058868240081
 20
-50.27834232441773
 30
0.0
 10
51.04144895425168
 20
-49.93765089843464
 30
0.0
 10
49.26156883242334
 20
-49.78473230487089
 30
0.0
 10
47.54714165125267
 20
-49.8731629746585
 30
0.0
 10
46.02772410836132
 20
-50.13490595522217
 30
0.0
 10
44.77025507292672
 20
-50.47494408998727
 30
0.0
 10
43.87522111630414
 20
-50.78468685077132
 30
0.0
 10
43.76642079556484
 20
-50.82621046211489
 30
0.0
 10
43.7129009515047
 20
-50.8466362953186
 30
0.0
  0
LINE
  5
19A
330
18D
100
AcDbEntity
  8
0
100
AcDbLine
 10
52.86456272006034
 20
-54.49999868869781
 30
0.0
 11
45.18636502325534
 21
-54.49999868869781
 31
0.0
  0
LINE
  5
19B
330
18D
100
AcDbEntity
  8
0
100
AcDbLine
 10
-32.26552441788283
 20
180.5349055224401
 30
0.0
 11
-32.31912579028165
 21
179.0000051259994
 31
0.0
  0
ARC
  5
19C
330
18D
100
AcDbEntity
  8
0
100
AcDbCircle
 10
-31.26613362423518
 20
180.5000050701201
 30
0.0
 40
1.0
100
AcDbArc
 50
90.0
 51
177.9999452137744
  0
LINE
  5
19D
330
18D
100
AcDbEntity
  8
0
100
AcDbLine
 10
65.22727616265388
 20
180.5349030034381
 30
0.0
 11
65.28087357359971
 21
179.0000051259994
 31
0.0
  0
LINE
  5
19E
330
18D
100
AcDbEntity
  8
0
100
AcDbLine
 10
-14.36319055131537
 20
181.5000050701201
 30
0.0
 11
-31.26613362423518
 21
181.5000050701201
 31
0.0
  0
LINE
  5
19F
330
18D
100
AcDbEntity
  8
0
100
AcDbLine
 10
-10.27505968875505
 20
181.5000050701201
 30
0.0
 11
62.22067773342132
 21
181.5000050701201
 31
0.0
  0
SPLINE
  5
1A0
330
18D
100
AcDbEntity
  8
0
100
AcDbSpline
210
0.0
220
0.0
230
1.0
 70
    24
 71
     3
 72
     9
 73
     5
 74
     0
 42
0.0000000001
 43
0.0000000001
 40
0.0
 40
0.0
 40
0.0
 40
0.0
 40
0.5000826474199004
 40
1.0
 40
1.0
 40
1.0
 40
1.0
 10
62.22067773342132
 20
181.5000050701201
 30
0.0
 10
62.51850415890761
 20
181.5000050701201
 30
0.0
 10
63.11405856780936
 20
181.5000050701201
 30
0.0
 10
63.57862267001519
 20
181.5000050701201
 30
0.0
 10
63.81086632609367
 20
181.5000050701201
 30
0.0
  0
SPLINE
  5
1A1
330
18D
100
AcDbEntity
  8
0
100
AcDbSpline
210
0.0
220
0.0
230
1.0
 70
    24
 71
     3
 72
     8
 73
     4
 74
     0
 42
0.0000000001
 43
0.0000000001
 40
0.0
 40
0.0
 40
0.0
 40
0.0
 40
0.4052512809765209
 40
0.4052512809765209
 40
0.4052512809765209
 40
0.4052512809765209
 10
63.81086632609367
 20
181.5000050701201
 30
0.0
 10
63.96390967109221
 20
181.5000050701201
 30
0.0
 10
64.1169530160904
 20
181.5000050701201
 30
0.0
 10
64.22788441768614
 20
181.5000050701201
 30
0.0
  0
LINE
  5
1A2
330
18D
100
AcDbEntity
  8
0
100
AcDbLine
 10
-32.01911970973015
 20
167.8444556891918
 30
0.0
 11
-30.56292616128383
 21
167.7936046212057
 31
0.0
  0
ARC
  5
1A3
330
18D
100
AcDbEntity
  8
0
100
AcDbCircle
 10
-32.00864845348622
 20
168.1442727466478
 30
0.0
 40
0.3000000000000114
100
AcDbArc
 50
180.0
 51
268.0000000000091
  0
LINE
  5
1A4
330
18D
100
AcDbEntity
  8
0
100
AcDbLine
 10
-32.30864927172661
 20
168.1442726403474
 30
0.0
 11
-32.30864927172661
 21
171.0000047460198
 31
0.0
  0
LINE
  5
1A5
330
18D
100
AcDbEntity
  8
0
100
AcDbLine
 10
-30.70912510156643
 20
179.0000051259994
 30
0.0
 11
65.29087573289871
 21
179.0000051259994
 31
0.0
  0
LINE
  5
1A6
330
18D
100
AcDbEntity
  8
0
100
AcDbLine
 10
-29.18425947427749
 20
62.11642920970916
 30
0.0
 11
-30.70912510156631
 21
179.0000051259994
 31
0.0
  0
LINE
  5
1A7
330
18D
100
AcDbEntity
  8
03-01
100
AcDbLine
 10
-27.08443816007559
 20
62.14382352341317
 30
0.0
 11
-28.60894640056301
 21
179.0000051259994
 31
0.0
  0
ARC
  5
1A8
330
18D
100
AcDbEntity
  8
0
100
AcDbCircle
 10
-24.18468461290274
 20
62.18165143625402
 30
0.0
 40
5.000000000000079
100
AcDbArc
 50
180.7474394900076
 51
244.6210996702739
  0
ARC
  5
1A9
330
18D
100
AcDbEntity
  8
03-01
100
AcDbCircle
 10
-24.18468461290274
 20
62.18165143625402
 30
0.0
 40
2.900000000000078
100
AcDbArc
 50
180.7474394900076
 51
244.6210996702739
  0
LINE
  5
1AA
330
18D
100
AcDbEntity
  8
0
100
AcDbLine
 10
-25.73329955339432
 20
57.38221108913421
 30
0.0
 11
-26.327695697546
 21
57.66418576240539
 31
0.0
  0
LINE
  5
1AB
330
18D
100
AcDbEntity
  8
0
100
AcDbLine
 10
63.70653958010564
 20
57.97266960144042
 30
0.0
 11
-26.88366069916412
 21
57.97266960144042
 31
0.0
  0
LWPOLYLINE
  5
1AC
330
18D
100
AcDbEntity
  8
0
100
AcDbPolyline
 90
        4
 70
     0
 43
0.0
 10
-22.66307175159454
 20
55.92574924230575
 10
-23.67714419960976
 20
56.40680342912673
 10
-24.70222488045692
 20
56.89308792352676
 10
-25.73329955339432
 20
57.38221108913421
  0
LINE
  5
1AD
330
18D
100
AcDbEntity
  8
0
100
AcDbLine
 10
-0.3393944352865219
 20
45.33575475215911
 30
0.0
 11
-22.66307175159454
 21
55.92574924230575
 31
0.0
  0
LINE
  5
1AE
330
18D
100
AcDbEntity
  8
03-01
100
AcDbLine
 10
0.5606711003200644
 20
47.23309026060587
 30
0.0
 11
-25.43128594496045
 21
59.5632578220484
 31
0.0
  0
ARC
  5
1AF
330
18D
100
AcDbEntity
  8
0
100
AcDbCircle
 10
-2.48240635105742
 20
40.81829232613062
 30
0.0
 40
5.000000000000079
100
AcDbArc
 50
37.52392776271751
 51
64.62109967026801
  0
ARC
  5
1B0
330
18D
100
AcDbEntity
  8
03-01
100
AcDbCircle
 10
-2.48240635105742
 20
40.81829232613062
 30
0.0
 40
7.100000000000079
100
AcDbArc
 50
37.52392776271751
 51
64.62109967026801
  0
SPLINE
  5
1B1
330
18D
100
AcDbEntity
  8
0
100
AcDbSpline
210
0.0
220
0.0
230
1.0
 70
     8
 71
     3
 72
    10
 73
     6
 74
     0
 42
0.0000000001
 43
0.0000000001
 40
0.0
 40
0.0
 40
0.0
 40
0.0
 40
0.5
 40
0.5
 40
1.0
 40
1.0
 40
1.0
 40
1.0
 10
2.330577857009188
 20
42.17298159415577
 30
0.0
 10
2.242162194065144
 20
42.48710764471161
 30
0.0
 10
2.125853053799005
 20
42.78384821888903
 30
0.0
 10
1.842353234662482
 20
43.34730779380334
 30
0.0
 10
1.67356316210396
 20
43.61573937878438
 30
0.0
 10
1.483088855134042
 20
43.86375579983587
 30
0.0
  0
SPLINE
  5
1B2
330
18D
100
AcDbEntity
  8
03-01
100
AcDbSpline
210
0.0
220
0.0
230
1.0
 70
     8
 71
     3
 72
    12
 73
     8
 74
     0
 42
0.0000000001
 43
0.0000000001
 40
0.0
 40
0.0
 40
0.0
 40
0.0
 40
0.4970186212892235
 40
0.4970186212892235
 40
0.9135240146987644
 40
0.9135240146987644
 40
1.0
 40
1.0
 40
1.0
 40
1.0
 10
4.352031224397023
 20
42.74195108672666
 30
0.0
 10
4.227676982156822
 20
43.18376089376807
 30
0.0
 10
4.062577450293474
 20
43.60577625091354
 30
0.0
 10
3.696894126629103
 20
44.33459901998276
 30
0.0
 10
3.502687588386947
 20
44.65567469998041
 30
0.0
 10
3.241436419837214
 20
45.01989211361115
 30
0.0
 10
3.195514748688765
 20
45.0817586950202
 30
0.0
 10
3.148596841734729
 20
45.14285045879205
 30
0.0
  0
LINE
  5
1B3
330
18D
100
AcDbEntity
  8
0
100
AcDbLine
 10
63.50983679294586
 20
42.94653236865997
 30
0.0
 11
2.042055443915955
 21
42.94653236865997
 31
0.0
  0
LINE
  5
1B4
330
18D
100
AcDbEntity
  8
0
100
AcDbLine
 10
0.0
 20
0.0
 30
0.0
 11
-2.399999648332595
 21
0.0
 31
0.0
  0
LINE
  5
1B5
330
18D
100
AcDbEntity
  8
0
100
AcDbLine
 10
-2.399999648332595
 20
0.0
 30
0.0
 11
-3.100000321865081
 21
-45.99998891353607
 31
0.0
  0
LINE
  5
1B6
330
18D
100
AcDbEntity
  8
03-01
100
AcDbLine
 10
-4.37028098932069
 20
1.968154628321826
 30
0.0
 11
-5.099768792520308
 21
-45.969557617585
 31
0.0
  0
LINE
  5
1B7
330
18D
100
AcDbEntity
  8
0
100
AcDbLine
 10
0.0
 20
-45.99998891353607
 30
0.0
 11
0.0
 21
0.0
 31
0.0
  0
LINE
  5
1B8
330
18D
100
AcDbEntity
  8
03-01
100
AcDbLine
 10
2.0
 20
-45.99998891353607
 30
0.0
 11
2.0
 21
-0.4999959468841553
 31
0.0
  0
ARC
  5
1B9
330
18D
100
AcDbEntity
  8
0
100
AcDbCircle
 10
-2.48240635105742
 20
40.81829232613062
 30
0.0
 40
5.000000000000039
100
AcDbArc
 50
0.7499999999959149
 51
15.7200822183791
  0
ARC
  5
1BA
330
18D
100
AcDbEntity
  8
03-01
100
AcDbCircle
 10
-2.48240635105742
 20
40.81829232613062
 30
0.0
 40
7.100000000000038
100
AcDbArc
 50
0.7499999999959149
 51
15.7200822183791
  0
LINE
  5
1BB
330
18D
100
AcDbEntity
  8
0
100
AcDbLine
 10
62.3454637825489
 20
-45.99998891353607
 30
0.0
 11
-6.345463916659241
 21
-45.99998891353607
 31
0.0
  0
LINE
  5
1BC
330
18D
100
AcDbEntity
  8
0
100
AcDbLine
 10
65.29087318836388
 20
179.0000051259994
 30
0.0
 11
62.3454637825489
 21
-45.99998891353607
 31
0.0
  0
LINE
  5
1BD
330
18D
100
AcDbEntity
  8
03-01
100
AcDbLine
 10
63.19069326108172
 20
179.0000051259994
 30
0.0
 11
60.24564369441634
 21
-45.97250078019397
 31
0.0
  0
LINE
  5
1BE
330
18D
100
AcDbEntity
  8
0
100
AcDbLine
 10
3.02618101071755
 20
2.000004053115844
 30
0.0
 11
2.51716561615467
 21
40.88373482227325
 31
0.0
  0
LINE
  5
1BF
330
18D
100
AcDbEntity
  8
03-01
100
AcDbLine
 10
5.069927057361155
 20
6.310993148681063
 30
0.0
 11
4.616985704430476
 21
40.91122294467322
 31
0.0
  0
LINE
  5
1C0
330
18D
100
AcDbEntity
  8
0
100
AcDbLine
 10
-3.934290260076522
 20
2.000004053115844
 30
0.0
 11
3.02618101071755
 21
2.000004053115844
 31
0.0
  0
ARC
  5
1C1
330
18D
100
AcDbEntity
  8
0
100
AcDbCircle
 10
-3.934289553779422
 20
-0.9999948740005493
 30
0.0
 40
3.000000000000047
100
AcDbArc
 50
90.0
 51
180.7499999999959
  0
LINE
  5
1C2
330
18D
100
AcDbEntity
  8
0
100
AcDbLine
 10
-6.345463916659355
 20
-45.99998891353607
 30
0.0
 11
-6.934031844139099
 21
-1.03926658630371
 31
0.0
  0
LINE
  5
1C3
330
18D
100
AcDbEntity
  8
0
100
AcDbLine
 10
-34.05806049704552
 20
171.4912788011133
 30
0.0
 11
-34.189123660326
 21
179.0000051259994
 31
0.0
  0
LINE
  5
1C4
330
18D
100
AcDbEntity
  8
0
100
AcDbLine
 10
-34.189123660326
 20
179.0000051259994
 30
0.0
 11
-30.70912510156631
 21
179.0000051259994
 31
0.0
  0
LINE
  5
1C5
330
18D
100
AcDbEntity
  8
0
100
AcDbLine
 10
-30.60475692578029
 20
171.0000047460198
 30
0.0
 11
-33.55813398957252
 21
171.0000047460198
 31
0.0
  0
ARC
  5
1C6
330
18D
100
AcDbEntity
  8
0
100
AcDbCircle
 10
-33.55813553335008
 20
171.5000051259994
 30
0.0
 40
0.5000000000001137
100
AcDbArc
 50
181.0000000000278
 51
270.0
  0
LINE
  5
1C7
330
18D
100
AcDbEntity
  8
0
100
AcDbLine
 10
44.2015565931797
 20
-53.67363989353179
 30
0.0
 11
53.84937301278114
 21
-53.67363989353179
 31
0.0
  0
LINE
  5
1C8
330
18D
100
AcDbEntity
  8
03-01
100
AcDbLine
 10
-13.63273524190833
 20
172.491278711283
 30
0.0
 11
-13.51912505924701
 21
179.0000051259994
 31
0.0
  0
LINE
  5
1C9
330
18D
100
AcDbEntity
  8
03-01
100
AcDbLine
 10
-28.51762424826905
 20
172.0000049099326
 30
0.0
 11
-14.13265908956623
 21
172.0000049099326
 31
0.0
  0
ARC
  5
1CA
330
18D
100
AcDbEntity
  8
03-01
100
AcDbCircle
 10
-14.13265908956623
 20
172.5000049099326
 30
0.0
 40
0.5
100
AcDbArc
 50
270.0
 51
359.0000005236813
  0
LINE
  5
1CB
330
18D
100
AcDbEntity
  8
03-01
100
AcDbLine
 10
16.73648831796004
 20
-20.20392668247223
 30
0.0
 11
5.069927057361155
 21
6.310993148681063
 31
0.0
  0
LINE
  5
1CC
330
18D
100
AcDbEntity
  8
03-01
100
AcDbLine
 10
14.45266796532439
 20
-23.70392668247223
 30
0.0
 11
4.242941474076701
 21
-0.4999959468841553
 31
0.0
  0
LINE
  5
1CD
330
18D
100
AcDbEntity
  8
03-01
100
AcDbLine
 10
60.57642724015216
 20
-20.20392668247223
 30
0.0
 11
16.73648831796004
 21
-20.20392668247223
 31
0.0
  0
LINE
  5
1CE
330
18D
100
AcDbEntity
  8
03-01
100
AcDbLine
 10
60.53060975929247
 20
-23.70392668247223
 30
0.0
 11
14.45266796532439
 21
-23.70392668247223
 31
0.0
  0
LINE
  5
1CF
330
18D
100
AcDbEntity
  8
03-01
100
AcDbLine
 10
49.77546259760856
 20
-54.49999868869781
 30
0.0
 11
49.47546496987342
 21
-52.99998819828033
 31
0.0
  0
LINE
  5
1D0
330
18D
100
AcDbEntity
  8
03-01
100
AcDbLine
 10
48.57546463608741
 20
-52.99998819828033
 30
0.0
 11
48.27546328306198
 21
-54.49999868869781
 31
0.0
  0
ARC
  5
1D1
330
18D
100
AcDbEntity
  8
0
100
AcDbCircle
 10
64.22788484936393
 20
180.5000050701201
 30
0.0
 40
1.0
100
AcDbArc
 50
1.999909506936956
 51
90.0000247333155
  0
LINE
  5
1D2
330
18D
100
AcDbEntity
  8
0
100
AcDbLine
 10
-12.31912512003521
 20
180.0000051390379
 30
0.0
 11
-12.31912512003521
 21
180.5000051390379
 31
0.0
  0
ARC
  5
1D3
330
18D
100
AcDbEntity
  8
0
100
AcDbCircle
 10
-12.31912512003521
 20
183.0891069922327
 30
0.0
 40
2.589101853194733
100
AcDbArc
 50
217.8622888067998
 51
322.1377111932002
  0
LINE
  5
1D4
330
18D
100
AcDbEntity
  8
03-01
100
AcDbLine
 10
2.0
 20
-0.4999959468841553
 30
0.0
 11
4.242941474076701
 21
-0.4999959468841553
 31
0.0
  0
LINE
  5
1D5
330
18D
100
AcDbEntity
  8
0
100
AcDbLine
 10
-12.31912512003521
 20
180.5000051390379
 30
0.0
 11
-12.31912512003521
 21
180.0000051390379
 31
0.0
  0
LINE
  5
1D6
330
18D
100
AcDbEntity
  8
0
100
AcDbLine
 10
-12.31912512003521
 20
180.0000051390379
 30
0.0
 11
-13.51912505924701
 21
179.0000051259994
 31
0.0
  0
LINE
  5
1D7
330
18D
100
AcDbEntity
  8
03-01
100
AcDbLine
 10
-11.31912510699692
 20
179.0000051259994
 30
0.0
 11
-9.319125106996693
 21
177.0000051259994
 31
0.0
  0
LINE
  5
1D8
330
18D
100
AcDbEntity
  8
03-01
100
AcDbLine
 10
-9.319125106996693
 20
177.0000051259994
 30
0.0
 11
63.06451184344758
 21
177.0000051259994
 31
0.0
  0
LINE
  5
1D9
330
18D
100
AcDbEntity
  8
0
100
AcDbLine
 10
-11.31912510699692
 20
179.0000051259994
 30
0.0
 11
-12.31912512003521
 21
180.0000051390379
 31
0.0
  0
LINE
  5
1DA
330
18D
100
AcDbEntity
  8
03-01
100
AcDbLine
 10
63.09069326108181
 20
179.0000051259994
 30
0.0
 11
63.06451184344758
 21
177.0000051259994
 31
0.0
  0
LINE
  5
1DB
330
18D
100
AcDbEntity
  8
03-01
100
AcDbLine
 10
49.47546496987342
 20
-52.99998819828033
 30
0.0
 11
49.47546496987342
 21
-45.99998891353607
 31
0.0
  0
LINE
  5
1DC
330
18D
100
AcDbEntity
  8
03-01
100
AcDbLine
 10
49.47546496987342
 20
-52.99998819828033
 30
0.0
 11
48.57546463608741
 21
-52.99998819828033
 31
0.0
  0
LINE
  5
1DD
330
18D
100
AcDbEntity
  8
03-01
100
AcDbLine
 10
48.57546463608741
 20
-52.99998819828033
 30
0.0
 11
48.57546463608741
 21
-45.99998891353607
 31
0.0
  0
LINE
  5
1DE
330
18D
100
AcDbEntity
  8
0
100
AcDbLine
 10
56.02575300866158
 20
182.0349073038751
 30
0.0
 11
56.02758131203734
 21
181.9825553707778
 31
0.0
  0
ARC
  5
1DF
330
18D
100
AcDbEntity
  8
0
100
AcDbCircle
 10
56.52727616265394
 20
182.0000050701201
 30
0.0
 40
0.4999999999999858
100
AcDbArc
 50
181.9999999999254
 51
270.0
  0
ARC
  5
1E0
330
18D
100
AcDbEntity
  8
0
100
AcDbCircle
 10
55.02635780446849
 20
182.0000052601099
 30
0.0
 40
1.0
100
AcDbArc
 50
2.000137093870475
 51
90.00025588997031
  0
LINE
  5
1E1
330
18D
100
AcDbEntity
  8
0
100
AcDbLine
 10
-4.471200683353686
 20
182.0349073038751
 30
0.0
 11
-4.473028986729445
 21
181.9825553707778
 31
0.0
  0
ARC
  5
1E2
330
18D
100
AcDbEntity
  8
0
100
AcDbCircle
 10
-4.972723837346052
 20
182.0000050701201
 30
0.0
 40
0.4999999999999858
100
AcDbArc
 50
270.0
 51
358.0000000000747
  0
ARC
  5
1E3
330
18D
100
AcDbEntity
  8
0
100
AcDbCircle
 10
-3.471805479160707
 20
182.0000052601099
 30
0.0
 40
1.0
100
AcDbArc
 50
89.9997441100297
 51
177.9998629061295
  0
LINE
  5
1E4
330
18D
100
AcDbEntity
  8
0
100
AcDbLine
 10
55.02635333834598
 20
183.0000052600999
 30
0.0
 11
-3.471801013038202
 21
183.0000052600999
 31
0.0
  0
INSERT
  5
1E5
330
18D
100
AcDbEntity
  8
03-01
100
AcDbBlockReference
  2
Kolbendruckplatte01_s
 10
0.0659681558609009
 20
-3.99999594688461
 30
0.0
  0
ENDBLK
  5
1F2
330
18D
100
AcDbEntity
  8
0
100
AcDbBlockEnd
  0
BLOCK
  5
129
330
128
100
AcDbEntity
  8
0
100
AcDbBlockBegin
  2
Desipumpe_937045_D
 70
     0
 10
0.0
 20
0.0
 30
0.0
  3
Desipumpe_937045_D
  1

  0
LINE
  5
12A
330
128
100
AcDbEntity
  8
03-01
100
AcDbLine
 10
-29.34022409187696
 20
70.22788681753127
 30
0.0
 11
-27.84022409187696
 21
70.22788681753127
 31
0.0
  0
LINE
  5
12B
330
128
100
AcDbEntity
  8
03-01
100
AcDbLine
 10
-23.9402240918771
 20
70.22788681753127
 30
0.0
 11
23.95070383084862
 21
70.22788681753081
 31
0.0
  0
LINE
  5
12C
330
128
100
AcDbEntity
  8
03-01
100
AcDbLine
 10
27.85070383084871
 20
70.22788681753127
 30
0.0
 11
29.35070383084872
 21
70.22788681753127
 31
0.0
  0
LINE
  5
12D
330
128
100
AcDbEntity
  8
03-01
100
AcDbLine
 10
-29.34022409187696
 20
70.22788681753127
 30
0.0
 11
-29.34022409187696
 21
66.62788681753136
 31
0.0
  0
LINE
  5
12E
330
128
100
AcDbEntity
  8
03-01
100
AcDbLine
 10
-27.84022409187696
 20
70.22788681753127
 30
0.0
 11
-27.84022409187696
 21
68.12788681753136
 31
0.0
  0
LINE
  5
12F
330
128
100
AcDbEntity
  8
03-01
100
AcDbLine
 10
-29.34022409187696
 20
63.42788681753154
 30
0.0
 11
-29.34022409187696
 21
1.22788681753127
 31
0.0
  0
LINE
  5
130
330
128
100
AcDbEntity
  8
03-01
100
AcDbLine
 10
-24.64022409187692
 20
66.62788681753136
 30
0.0
 11
-24.64022409187692
 21
63.42788681753154
 31
0.0
  0
LINE
  5
131
330
128
100
AcDbEntity
  8
03-01
100
AcDbLine
 10
-23.9402240918771
 20
70.22788681753127
 30
0.0
 11
-23.9402240918771
 21
68.12788681753136
 31
0.0
  0
LINE
  5
132
330
128
100
AcDbEntity
  8
03-01
100
AcDbLine
 10
-27.54022409187701
 20
61.32788681753163
 30
0.0
 11
-27.54022409187701
 21
3.027886817531452
 31
0.0
  0
LINE
  5
133
330
128
100
AcDbEntity
  8
03-01
100
AcDbLine
 10
29.35070383084872
 20
70.22788681753127
 30
0.0
 11
29.35070383084872
 21
66.62788681753136
 31
0.0
  0
LINE
  5
134
330
128
100
AcDbEntity
  8
03-01
100
AcDbLine
 10
27.85070383084871
 20
70.22788681753127
 30
0.0
 11
27.85070383084871
 21
68.12788681753136
 31
0.0
  0
LINE
  5
135
330
128
100
AcDbEntity
  8
03-01
100
AcDbLine
 10
29.35070383084872
 20
63.42788681753154
 30
0.0
 11
29.35070383084872
 21
1.22788681753127
 31
0.0
  0
LINE
  5
136
330
128
100
AcDbEntity
  8
03-01
100
AcDbLine
 10
24.65070383084867
 20
66.62788681753136
 30
0.0
 11
24.65070383084867
 21
63.42788681753154
 31
0.0
  0
LINE
  5
137
330
128
100
AcDbEntity
  8
03-01
100
AcDbLine
 10
23.95070383084862
 20
70.22788681753081
 30
0.0
 11
23.95070383084862
 21
68.12788681753136
 31
0.0
  0
LINE
  5
138
330
128
100
AcDbEntity
  8
03-01
100
AcDbLine
 10
27.55070383084876
 20
61.32788681753118
 30
0.0
 11
27.55070383084876
 21
3.027886817531452
 31
0.0
  0
LINE
  5
139
330
128
100
AcDbEntity
  8
03-01
100
AcDbLine
 10
-29.34022409187696
 20
1.22788681753127
 30
0.0
 11
29.35070383084872
 21
1.22788681753127
 31
0.0
  0
LINE
  5
13A
330
128
100
AcDbEntity
  8
03-01
100
AcDbLine
 10
-27.54022409187701
 20
3.027886817531452
 30
0.0
 11
27.55070383084876
 21
3.027886817531452
 31
0.0
  0
LINE
  5
13B
330
128
100
AcDbEntity
  8
03-01
100
AcDbLine
 10
-29.34022409187696
 20
66.62788681753136
 30
0.0
 11
-24.64022409187692
 21
66.62788681753136
 31
0.0
  0
LINE
  5
13C
330
128
100
AcDbEntity
  8
03-01
100
AcDbLine
 10
24.6507038308489
 20
66.62788681753136
 30
0.0
 11
29.35070383084872
 21
66.62788681753136
 31
0.0
  0
LINE
  5
13D
330
128
100
AcDbEntity
  8
03-01
100
AcDbLine
 10
-27.84022409187696
 20
68.12788681753136
 30
0.0
 11
-23.94022409187733
 21
68.12788681753136
 31
0.0
  0
LINE
  5
13E
330
128
100
AcDbEntity
  8
03-01
100
AcDbLine
 10
23.95070383084862
 20
68.12788681753136
 30
0.0
 11
27.85070383084871
 21
68.12788681753136
 31
0.0
  0
LINE
  5
13F
330
128
100
AcDbEntity
  8
03-01
100
AcDbLine
 10
-29.34022409187696
 20
63.42788681753154
 30
0.0
 11
-24.64022409187692
 21
63.42788681753154
 31
0.0
  0
LINE
  5
140
330
128
100
AcDbEntity
  8
03-01
100
AcDbLine
 10
-27.54022409187701
 20
61.32788681753163
 30
0.0
 11
-22.34022409187696
 21
61.32788681753163
 31
0.0
  0
LINE
  5
141
330
128
100
AcDbEntity
  8
03-01
100
AcDbLine
 10
22.35070383084872
 20
61.32788681753118
 30
0.0
 11
27.55070383084876
 21
61.32788681753118
 31
0.0
  0
LINE
  5
142
330
128
100
AcDbEntity
  8
03-01
100
AcDbLine
 10
29.35070383084872
 20
63.42788681753154
 30
0.0
 11
24.65070383084867
 21
63.42788681753154
 31
0.0
  0
LINE
  5
143
330
128
100
AcDbEntity
  8
03-01
100
AcDbLine
 10
-22.34022409187696
 20
68.22788681753127
 30
0.0
 11
22.35070383084883
 21
68.22788681753127
 31
0.0
  0
LINE
  5
144
330
128
100
AcDbEntity
  8
03-01
100
AcDbLine
 10
-22.34022409187696
 20
61.32788681753163
 30
0.0
 11
-22.34022409187696
 21
68.22788681753127
 31
0.0
  0
LINE
  5
145
330
128
100
AcDbEntity
  8
03-01
100
AcDbLine
 10
22.35070383084872
 20
61.32788681753118
 30
0.0
 11
22.35070383084883
 21
68.22788681753127
 31
0.0
  0
LINE
  5
146
330
128
100
AcDbEntity
  8
0
100
AcDbLine
 10
-32.49476154148579
 20
0.0
 30
0.0
 11
32.49476154148579
 21
0.0
 31
0.0
  0
ARC
  5
147
330
128
100
AcDbEntity
  8
0
100
AcDbCircle
 10
32.49476154148579
 20
3.0
 30
0.0
 40
3.0
100
AcDbArc
 50
270.0
 51
0.0
  0
LINE
  5
148
330
128
100
AcDbEntity
  8
0
100
AcDbLine
 10
-32.49476154148601
 20
97.51959928600946
 30
0.0
 11
32.49476154148579
 21
97.51959928600946
 31
0.0
  0
ARC
  5
149
330
128
100
AcDbEntity
  8
0
100
AcDbCircle
 10
-32.49476154148601
 20
94.51959928600945
 30
0.0
 40
3.0
100
AcDbArc
 50
90.0
 51
180.0
  0
LINE
  5
14A
330
128
100
AcDbEntity
  8
0
100
AcDbLine
 10
-35.49476154148579
 20
94.51959928600945
 30
0.0
 11
-35.49476154148579
 21
3.0
 31
0.0
  0
ARC
  5
14B
330
128
100
AcDbEntity
  8
0
100
AcDbCircle
 10
-32.49476154148579
 20
3.0
 30
0.0
 40
3.0
100
AcDbArc
 50
180.0
 51
270.0
  0
LINE
  5
14C
330
128
100
AcDbEntity
  8
0
100
AcDbLine
 10
35.49476154148579
 20
94.51959928600945
 30
0.0
 11
35.49476154148579
 21
3.0
 31
0.0
  0
ARC
  5
14D
330
128
100
AcDbEntity
  8
0
100
AcDbCircle
 10
32.49476154148579
 20
94.51959928600945
 30
0.0
 40
3.0
100
AcDbArc
 50
0.0
 51
90.0
  0
LINE
  5
14E
330
128
100
AcDbEntity
  8
0
100
AcDbLine
 10
35.49476154148579
 20
77.57319998816183
 30
0.0
 11
-35.49476154148602
 21
77.57319998816183
 31
0.0
  0
LINE
  5
14F
330
128
100
AcDbEntity
  8
0
100
AcDbLine
 10
35.49476154148579
 20
75.52913455688167
 30
0.0
 11
-35.49476154148579
 21
75.52913455688167
 31
0.0
  0
LINE
  5
150
330
128
100
AcDbEntity
  8
0
100
AcDbLine
 10
35.49476154148579
 20
79.61726541944199
 30
0.0
 11
-35.49476154148579
 21
79.61726541944199
 31
0.0
  0
LINE
  5
151
330
128
100
AcDbEntity
  8
0
100
AcDbLine
 10
25.73417969997831
 20
9.228326320147061
 30
0.0
 11
-25.72369599768672
 21
9.228326320147061
 31
0.0
  0
LINE
  5
152
330
128
100
AcDbEntity
  8
0
100
AcDbLine
 10
25.73417969997831
 20
69.72527555148008
 30
0.0
 11
-25.72369599768672
 21
69.72527555148008
 31
0.0
  0
ARC
  5
153
330
128
100
AcDbEntity
  8
0
100
AcDbCircle
 10
25.73417969997831
 20
68.72527555148008
 30
0.0
 40
1.0
100
AcDbArc
 50
0.0
 51
90.0
  0
LINE
  5
154
330
128
100
AcDbEntity
  8
0
100
AcDbLine
 10
-26.72369599768672
 20
10.22832632014706
 30
0.0
 11
-26.72369599768672
 21
68.72527555148008
 31
0.0
  0
ARC
  5
155
330
128
100
AcDbEntity
  8
0
100
AcDbCircle
 10
-25.72369599768672
 20
68.72527555148008
 30
0.0
 40
1.0
100
AcDbArc
 50
90.0
 51
180.0
  0
ARC
  5
156
330
128
100
AcDbEntity
  8
0
100
AcDbCircle
 10
-25.72369599768672
 20
10.22832632014706
 30
0.0
 40
1.0
100
AcDbArc
 50
180.0
 51
270.0
  0
LINE
  5
157
330
128
100
AcDbEntity
  8
0
100
AcDbLine
 10
26.73417969997831
 20
10.22832632014706
 30
0.0
 11
26.73417969997831
 21
68.72527555148008
 31
0.0
  0
ARC
  5
158
330
128
100
AcDbEntity
  8
0
100
AcDbCircle
 10
25.73417969997831
 20
10.22832632014706
 30
0.0
 40
1.0
100
AcDbArc
 50
270.0
 51
0.0
  0
LINE
  5
159
330
128
100
AcDbEntity
  8
02-01
100
AcDbLine
 10
8.497382350265979
 20
14.54788672842233
 30
0.0
 11
-8.497382350265979
 21
14.54788672842233
 31
0.0
  0
LINE
  5
15C
330
128
100
AcDbEntity
  8
02-01
100
AcDbLine
 10
0.0
 20
6.050504378156347
 30
0.0
 11
0.0
 21
23.04526907868831
 31
0.0
  0
CIRCLE
  5
15D
330
128
100
AcDbEntity
  8
03-01
100
AcDbCircle
 10
0.0
 20
14.54788672842233
 30
0.0
 40
1.0
  0
CIRCLE
  5
15E
330
128
100
AcDbEntity
  8
03-01
100
AcDbCircle
 10
0.0
 20
14.54788672842233
 30
0.0
 40
5.312562920153141
  0
CIRCLE
  5
15F
330
128
100
AcDbEntity
  8
03-01
100
AcDbCircle
 10
0.0
 20
14.54788672842233
 30
0.0
 40
7.497382350265979
  0
ENDBLK
  5
160
330
128
100
AcDbEntity
  8
0
100
AcDbBlockEnd
  0
BLOCK
  5
17F
330
17E
100
AcDbEntity
  8
0
100
AcDbBlockBegin
  2
*D19
 70
     1
 10
0.0
 20
0.0
 30
0.0
  3
*D19
  1

  0
LINE
  5
180
330
17E
100
AcDbEntity
  8
09-01
 62
     4
440
 16777216
370
    -2
100
AcDbLine
 10
76.64683390031732
 20
348.3745498680673
 30
0.0
 11
76.64683390031732
 21
342.4162422075751
 31
0.0
  0
LINE
  5
181
330
17E
100
AcDbEntity
  8
09-01
 62
     4
440
 16777216
370
    -2
100
AcDbLine
 10
90.14683390031768
 20
351.988768153731
 30
0.0
 11
90.14683390031768
 21
342.4162422075751
 31
0.0
  0
LINE
  5
182
330
17E
100
AcDbEntity
  8
09-01
 62
     4
440
 16777216
370
    -2
100
AcDbLine
 10
71.64683390031732
 20
344.4162422075751
 30
0.0
 11
66.64683390031732
 21
344.4162422075751
 31
0.0
  0
LINE
  5
183
330
17E
100
AcDbEntity
  8
09-01
 62
     4
440
 16777216
370
    -2
100
AcDbLine
 10
95.14683390031768
 20
344.4162422075751
 30
0.0
 11
100.1468339003177
 21
344.4162422075751
 31
0.0
  0
MTEXT
  5
184
330
17E
100
AcDbEntity
  8
09-01
 62
     1
440
 16777216
100
AcDbMText
 10
67.50762460063197
 20
348.6987705359388
 30
0.0
 40
5.0
 41
0.0
 46
0.0
 71
     5
 72
     1
  1
13.5
 73
     1
 44
1.0
  0
LINE
  5
185
330
17E
100
AcDbEntity
  8
09-01
 62
     4
440
 16777216
370
    -2
100
AcDbLine
 10
76.64683390031732
 20
344.4162422075751
 30
0.0
 11
90.14683390031768
 21
344.4162422075751
 31
0.0
  0
SOLID
  5
186
330
17E
100
AcDbEntity
  8
09-01
 62
     4
440
 16777216
100
AcDbTrace
 10
71.64683390031732
 20
345.2495755409084
 30
0.0
 11
71.64683390031732
 21
343.5829088742418
 31
0.0
 12
76.64683390031732
 22
344.4162422075751
 32
0.0
 13
76.64683390031732
 23
344.4162422075751
 33
0.0
  0
SOLID
  5
187
330
17E
100
AcDbEntity
  8
09-01
 62
     4
440
 16777216
100
AcDbTrace
 10
95.14683390031768
 20
345.2495755409084
 30
0.0
 11
95.14683390031768
 21
343.5829088742418
 31
0.0
 12
90.14683390031768
 22
344.4162422075751
 32
0.0
 13
90.14683390031768
 23
344.4162422075751
 33
0.0
  0
POINT
  5
188
330
17E
100
AcDbEntity
  8
DEFPOINTS
 62
     0
440
 16777216
100
AcDbPoint
 10
76.64683390031732
 20
350.3745498680673
 30
0.0
  0
POINT
  5
189
330
17E
100
AcDbEntity
  8
DEFPOINTS
 62
     0
440
 16777216
100
AcDbPoint
 10
90.14683390031768
 20
353.988768153731
 30
0.0
  0
POINT
  5
18A
330
17E
100
AcDbEntity
  8
DEFPOINTS
 62
     0
440
 16777216
100
AcDbPoint
 10
90.14683390031768
 20
344.4162422075751
 30
0.0
  0
ENDBLK
  5
18B
330
17E
100
AcDbEntity
  8
0
100
AcDbBlockEnd
  0
BLOCK
  5
172
330
171
100
AcDbEntity
  8
0
100
AcDbBlockBegin
  2
*D20
 70
     1
 10
0.0
 20
0.0
 30
0.0
  3
*D20
  1

  0
LINE
  5
173
330
171
100
AcDbEntity
  8
09-01
 62
     4
440
 16777216
370
    -2
100
AcDbLine
 10
90.14683390031768
 20
351.988768153731
 30
0.0
 11
90.14683390031768
 21
342.4162422075751
 31
0.0
  0
LINE
  5
174
330
171
100
AcDbEntity
  8
09-01
 62
     4
440
 16777216
370
    -2
100
AcDbLine
 10
150.1468339003177
 20
351.988768153731
 30
0.0
 11
150.1468339003177
 21
342.4162422075751
 31
0.0
  0
LINE
  5
175
330
171
100
AcDbEntity
  8
09-01
 62
     4
440
 16777216
370
    -2
100
AcDbLine
 10
95.14683390031768
 20
344.4162422075751
 30
0.0
 11
145.1468339003177
 21
344.4162422075751
 31
0.0
  0
SOLID
  5
176
330
171
100
AcDbEntity
  8
09-01
 62
     4
440
 16777216
100
AcDbTrace
 10
95.14683390031768
 20
345.2495755409084
 30
0.0
 11
95.14683390031768
 21
343.5829088742418
 31
0.0
 12
90.14683390031768
 22
344.4162422075751
 32
0.0
 13
90.14683390031768
 23
344.4162422075751
 33
0.0
  0
SOLID
  5
177
330
171
100
AcDbEntity
  8
09-01
 62
     4
440
 16777216
100
AcDbTrace
 10
145.1468339003177
 20
345.2495755409084
 30
0.0
 11
145.1468339003177
 21
343.5829088742418
 31
0.0
 12
150.1468339003177
 22
344.4162422075751
 32
0.0
 13
150.1468339003177
 23
344.4162422075751
 33
0.0
  0
MTEXT
  5
178
330
171
100
AcDbEntity
  8
09-01
 62
     1
440
 16777216
100
AcDbMText
 10
120.1468339003177
 20
348.9691071461836
 30
0.0
 40
5.0
 41
0.0
 46
0.0
 71
     5
 72
     1
  1
60
 73
     1
 44
1.0
  0
POINT
  5
179
330
171
100
AcDbEntity
  8
DEFPOINTS
 62
     0
440
 16777216
100
AcDbPoint
 10
90.14683390031768
 20
353.988768153731
 30
0.0
  0
POINT
  5
17A
330
171
100
AcDbEntity
  8
DEFPOINTS
 62
     0
440
 16777216
100
AcDbPoint
 10
150.1468339003177
 20
353.988768153731
 30
0.0
  0
POINT
  5
17B
330
171
100
AcDbEntity
  8
DEFPOINTS
 62
     0
440
 16777216
100
AcDbPoint
 10
150.1468339003177
 20
344.4162422075751
 30
0.0
  0
ENDBLK
  5
17C
330
171
100
AcDbEntity
  8
0
100
AcDbBlockEnd
  0
BLOCK
  5
163
330
162
100
AcDbEntity
  8
0
100
AcDbBlockBegin
  2
*D21
 70
     1
 10
0.0
 20
0.0
 30
0.0
  3
*D21
  1

  0
LINE
  5
164
330
162
100
AcDbEntity
  8
09-01
 62
     4
440
 16777216
370
    -2
100
AcDbLine
 10
150.1468339003177
 20
351.988768153731
 30
0.0
 11
150.1468339003177
 21
342.4162422075751
 31
0.0
  0
LINE
  5
165
330
162
100
AcDbEntity
  8
09-01
 62
     4
440
 16777216
370
    -2
100
AcDbLine
 10
163.6468339003172
 20
346.140180253291
 30
0.0
 11
163.6468339003172
 21
342.4162422075751
 31
0.0
  0
LINE
  5
166
330
162
100
AcDbEntity
  8
09-01
 62
     4
440
 16777216
370
    -2
100
AcDbLine
 10
145.1468339003177
 20
344.4162422075751
 30
0.0
 11
140.1468339003177
 21
344.4162422075751
 31
0.0
  0
LINE
  5
167
330
162
100
AcDbEntity
  8
09-01
 62
     4
440
 16777216
370
    -2
100
AcDbLine
 10
168.6468339003172
 20
344.4162422075751
 30
0.0
 11
173.6468339003172
 21
344.4162422075751
 31
0.0
  0
MTEXT
  5
168
330
162
100
AcDbEntity
  8
09-01
 62
     1
440
 16777216
100
AcDbMText
 10
174.0565033602051
 20
349.4435632355926
 30
0.0
 40
5.0
 41
0.0
 46
0.0
 71
     5
 72
     1
  1
13.5
 73
     1
 44
1.0
  0
LINE
  5
169
330
162
100
AcDbEntity
  8
09-01
 62
     4
440
 16777216
370
    -2
100
AcDbLine
 10
150.1468339003177
 20
344.4162422075751
 30
0.0
 11
163.6468339003172
 21
344.4162422075751
 31
0.0
  0
SOLID
  5
16A
330
162
100
AcDbEntity
  8
09-01
 62
     4
440
 16777216
100
AcDbTrace
 10
145.1468339003177
 20
345.2495755409084
 30
0.0
 11
145.1468339003177
 21
343.5829088742418
 31
0.0
 12
150.1468339003177
 22
344.4162422075751
 32
0.0
 13
150.1468339003177
 23
344.4162422075751
 33
0.0
  0
SOLID
  5
16B
330
162
100
AcDbEntity
  8
09-01
 62
     4
440
 16777216
100
AcDbTrace
 10
168.6468339003172
 20
345.2495755409084
 30
0.0
 11
168.6468339003172
 21
343.5829088742418
 31
0.0
 12
163.6468339003172
 22
344.4162422075751
 32
0.0
 13
163.6468339003172
 23
344.4162422075751
 33
0.0
  0
POINT
  5
16C
330
162
100
AcDbEntity
  8
DEFPOINTS
 62
     0
440
 16777216
100
AcDbPoint
 10
150.1468339003177
 20
353.988768153731
 30
0.0
  0
POINT
  5
16D
330
162
100
AcDbEntity
  8
DEFPOINTS
 62
     0
440
 16777216
100
AcDbPoint
 10
163.6468339003172
 20
348.140180253291
 30
0.0
  0
POINT
  5
16E
330
162
100
AcDbEntity
  8
DEFPOINTS
 62
     0
440
 16777216
100
AcDbPoint
 10
163.6468339003172
 20
344.4162422075751
 30
0.0
  0
ENDBLK
  5
16F
330
162
100
AcDbEntity
  8
0
100
AcDbBlockEnd
  0
BLOCK
  5
FC
330
FB
100
AcDbEntity
  8
0
100
AcDbBlockBegin
  2
Deckel_eModul01-s
 70
     0
 10
0.0
 20
0.0
 30
0.0
  3
Deckel_eModul01-s
  1

  0
LINE
  5
FD
330
FB
100
AcDbEntity
  8
0
100
AcDbLine
 10
0.0
 20
9.499999999999545
 30
0.0
 11
59.89999999999998
 21
9.499999999999516
 31
0.0
  0
LINE
  5
FE
330
FB
100
AcDbEntity
  8
0
100
AcDbLine
 10
59.89999999999998
 20
9.499999999999516
 30
0.0
 11
59.89999999999998
 21
17.89999999999961
 31
0.0
  0
LINE
  5
FF
330
FB
100
AcDbEntity
  8
0
100
AcDbLine
 10
59.89999999999998
 20
17.89999999999961
 30
0.0
 11
112.4
 21
17.89999999999961
 31
0.0
  0
LINE
  5
100
330
FB
100
AcDbEntity
  8
0
100
AcDbLine
 10
112.4
 20
17.89999999999961
 30
0.0
 11
112.4
 21
-0.0000000000000568
 31
0.0
  0
LINE
  5
101
330
FB
100
AcDbEntity
  8
0
100
AcDbLine
 10
112.4
 20
2.999999999999971
 30
0.0
 11
119.9
 21
2.999999999999971
 31
0.0
  0
LINE
  5
102
330
FB
100
AcDbEntity
  8
0
100
AcDbLine
 10
119.9
 20
2.999999999999971
 30
0.0
 11
119.9
 21
-0.0000000000000284
 31
0.0
  0
LINE
  5
103
330
FB
100
AcDbEntity
  8
0
100
AcDbLine
 10
119.9
 20
-0.0000000000000284
 30
0.0
 11
0.0
 21
0.0
 31
0.0
  0
LINE
  5
104
330
FB
100
AcDbEntity
  8
0
100
AcDbLine
 10
0.0
 20
0.0
 30
0.0
 11
0.0
 21
9.499999999999545
 31
0.0
  0
ENDBLK
  5
105
330
FB
100
AcDbEntity
  8
0
100
AcDbBlockEnd
  0
BLOCK
  5
BB
330
BA
100
AcDbEntity
  8
0
100
AcDbBlockBegin
  2
eModul_937031_V
 70
     0
 10
0.0
 20
0.0
 30
0.0
  3
eModul_937031_V
  1

  0
LINE
  5
BC
330
BA
100
AcDbEntity
  8
03-01
100
AcDbLine
 10
5.499999999999772
 20
0.0
 30
0.0
 11
5.499999999999772
 21
-39.50000000000091
 31
0.0
  0
LINE
  5
C1
330
BA
100
AcDbEntity
  8
03-01
100
AcDbLine
 10
-5.499999999999772
 20
0.0
 30
0.0
 11
-5.500000000000682
 21
-39.50000000000091
 31
0.0
  0
LINE
  5
C2
330
BA
100
AcDbEntity
  8
0
100
AcDbLine
 10
40.49999999999932
 20
80.39999999999906
 30
0.0
 11
40.49999999999932
 21
-39.50000000000091
 31
0.0
  0
LINE
  5
C3
330
BA
100
AcDbEntity
  8
0
100
AcDbLine
 10
-35.00000000000023
 20
72.89999999999901
 30
0.0
 11
-35.00000000000023
 21
-39.50000000000091
 31
0.0
  0
LINE
  5
C4
330
BA
100
AcDbEntity
  8
0
100
AcDbLine
 10
-10.20000000000021
 20
-33.84154472971574
 30
0.0
 11
-10.20000000000021
 21
-40.92564340076456
 31
0.0
  0
ARC
  5
C5
330
BA
100
AcDbEntity
  8
0
100
AcDbCircle
 10
-9.200000000000216
 20
-40.81803345298914
 30
0.0
 40
1.0
100
AcDbArc
 50
90.0
 51
180.0
  0
ARC
  5
C6
330
BA
100
AcDbEntity
  8
0
100
AcDbCircle
 10
-9.200000000000216
 20
-33.84154472971574
 30
0.0
 40
1.0
100
AcDbArc
 50
90.0
 51
180.0
  0
LINE
  5
C7
330
BA
100
AcDbEntity
  8
0
100
AcDbLine
 10
6.199999999999761
 20
-33.84154472971574
 30
0.0
 11
6.199999999999761
 21
-40.92564340076456
 31
0.0
  0
ARC
  5
C8
330
BA
100
AcDbEntity
  8
0
100
AcDbCircle
 10
5.199999999999761
 20
-40.81803345298914
 30
0.0
 40
1.0
100
AcDbArc
 50
0.0
 51
90.0
  0
ARC
  5
C9
330
BA
100
AcDbEntity
  8
0
100
AcDbCircle
 10
5.199999999999761
 20
-40.92564340076456
 30
0.0
 40
1.0
100
AcDbArc
 50
270.0
 51
0.0
  0
ARC
  5
CA
330
BA
100
AcDbEntity
  8
0
100
AcDbCircle
 10
5.199999999999761
 20
-33.84154472971574
 30
0.0
 40
1.0
100
AcDbArc
 50
0.0
 51
90.0
  0
LINE
  5
CB
330
BA
100
AcDbEntity
  8
03-01
100
AcDbLine
 10
-29.40000000000032
 20
-2.100000000001045
 30
0.0
 11
-29.40000000000032
 21
-25.10000000000105
 31
0.0
  0
LINE
  5
CC
330
BA
100
AcDbEntity
  8
03-01
100
AcDbLine
 10
-31.90000000000032
 20
-4.600000000001045
 30
0.0
 11
-31.90000000000032
 21
-25.10000000000105
 31
0.0
  0
LINE
  5
CD
330
BA
100
AcDbEntity
  8
0
100
AcDbLine
 10
-35.00000000000023
 20
-39.50000000000091
 30
0.0
 11
-10.20000000000021
 21
-39.50000000000091
 31
0.0
  0
LINE
  5
CE
330
BA
100
AcDbEntity
  8
0
100
AcDbLine
 10
6.199999999999761
 20
-39.50000000000091
 30
0.0
 11
40.49999999999932
 21
-39.50000000000091
 31
0.0
  0
LINE
  5
CF
330
BA
100
AcDbEntity
  8
03-01
100
AcDbLine
 10
-5.499999999999772
 20
0.0
 30
0.0
 11
5.499999999999772
 21
0.0
 31
0.0
  0
LINE
  5
D0
330
BA
100
AcDbEntity
  8
0
100
AcDbLine
 10
-35.00000000000023
 20
72.89999999999901
 30
0.0
 11
40.49999999999932
 21
72.89999999999901
 31
0.0
  0
LINE
  5
D1
330
BA
100
AcDbEntity
  8
03-01
100
AcDbLine
 10
-35.00000000000023
 20
-25.10000000000105
 30
0.0
 11
-29.40000000000032
 21
-25.10000000000105
 31
0.0
  0
LINE
  5
D2
330
BA
100
AcDbEntity
  8
03-01
100
AcDbLine
 10
-35.00000000000023
 20
-2.100000000001045
 30
0.0
 11
-29.40000000000032
 21
-2.100000000001045
 31
0.0
  0
LINE
  5
D3
330
BA
100
AcDbEntity
  8
03-01
100
AcDbLine
 10
17.59999999999968
 20
-2.100000000001045
 30
0.0
 11
17.59999999999968
 21
-25.10000000000105
 31
0.0
  0
LINE
  5
D4
330
BA
100
AcDbEntity
  8
03-01
100
AcDbLine
 10
20.09999999999968
 20
-4.600000000001045
 30
0.0
 11
20.09999999999968
 21
-25.10000000000105
 31
0.0
  0
LINE
  5
D5
330
BA
100
AcDbEntity
  8
03-01
100
AcDbLine
 10
22.59999999999968
 20
-25.10000000000105
 30
0.0
 11
17.59999999999968
 21
-25.10000000000105
 31
0.0
  0
LINE
  5
D6
330
BA
100
AcDbEntity
  8
03-01
100
AcDbLine
 10
20.09999999999968
 20
-4.600000000001045
 30
0.0
 11
17.59999999999968
 21
-4.600000000001045
 31
0.0
  0
LINE
  5
D7
330
BA
100
AcDbEntity
  8
03-01
100
AcDbLine
 10
22.59999999999968
 20
-2.100000000001045
 30
0.0
 11
17.59999999999968
 21
-2.100000000001045
 31
0.0
  0
LINE
  5
D8
330
BA
100
AcDbEntity
  8
03-01
100
AcDbLine
 10
-29.40000000000032
 20
67.89999999999896
 30
0.0
 11
-29.40000000000032
 21
44.89999999999895
 31
0.0
  0
LINE
  5
D9
330
BA
100
AcDbEntity
  8
03-01
100
AcDbLine
 10
-31.90000000000032
 20
65.39999999999896
 30
0.0
 11
-31.90000000000032
 21
44.89999999999895
 31
0.0
  0
LINE
  5
DA
330
BA
100
AcDbEntity
  8
03-01
100
AcDbLine
 10
-35.00000000000023
 20
44.89999999999895
 30
0.0
 11
-29.40000000000032
 21
44.89999999999895
 31
0.0
  0
LINE
  5
DB
330
BA
100
AcDbEntity
  8
03-01
100
AcDbLine
 10
-31.90000000000032
 20
65.39999999999896
 30
0.0
 11
-29.40000000000032
 21
65.39999999999896
 31
0.0
  0
LINE
  5
DC
330
BA
100
AcDbEntity
  8
03-01
100
AcDbLine
 10
-35.00000000000023
 20
67.89999999999896
 30
0.0
 11
-29.40000000000032
 21
67.89999999999896
 31
0.0
  0
LINE
  5
DD
330
BA
100
AcDbEntity
  8
0
100
AcDbLine
 10
22.59999999999968
 20
72.89999999999901
 30
0.0
 11
22.59999999999968
 21
20.39999999999901
 31
0.0
  0
LINE
  5
DE
330
BA
100
AcDbEntity
  8
03-01
100
AcDbLine
 10
17.59999999999968
 20
67.89999999999896
 30
0.0
 11
17.59999999999968
 21
44.89999999999895
 31
0.0
  0
LINE
  5
DF
330
BA
100
AcDbEntity
  8
03-01
100
AcDbLine
 10
20.09999999999968
 20
65.39999999999896
 30
0.0
 11
20.09999999999968
 21
44.89999999999895
 31
0.0
  0
LINE
  5
E0
330
BA
100
AcDbEntity
  8
03-01
100
AcDbLine
 10
22.59999999999968
 20
44.89999999999895
 30
0.0
 11
17.59999999999968
 21
44.89999999999895
 31
0.0
  0
LINE
  5
E1
330
BA
100
AcDbEntity
  8
03-01
100
AcDbLine
 10
20.09999999999968
 20
65.39999999999896
 30
0.0
 11
17.59999999999968
 21
65.39999999999896
 31
0.0
  0
LINE
  5
E2
330
BA
100
AcDbEntity
  8
03-01
100
AcDbLine
 10
22.59999999999968
 20
67.89999999999896
 30
0.0
 11
17.59999999999968
 21
67.89999999999896
 31
0.0
  0
LINE
  5
E3
330
BA
100
AcDbEntity
  8
0
100
AcDbLine
 10
40.49999999999932
 20
80.39999999999906
 30
0.0
 11
37.49999999999932
 21
80.39999999999906
 31
0.0
  0
LINE
  5
E4
330
BA
100
AcDbEntity
  8
0
100
AcDbLine
 10
37.49999999999932
 20
80.39999999999906
 30
0.0
 11
37.49999999999932
 21
72.89999999999901
 31
0.0
  0
LINE
  5
E5
330
BA
100
AcDbEntity
  8
03-01
100
AcDbLine
 10
-31.90000000000032
 20
-4.600000000001045
 30
0.0
 11
-29.40000000000032
 21
-4.600000000001045
 31
0.0
  0
LINE
  5
E6
330
BA
100
AcDbEntity
  8
0
100
AcDbLine
 10
23.49999999999977
 20
20.39999999999907
 30
0.0
 11
30.99999999999977
 21
20.39999999999907
 31
0.0
  0
LINE
  5
E7
330
BA
100
AcDbEntity
  8
0
100
AcDbLine
 10
23.49999999999977
 20
-27.60000000000105
 30
0.0
 11
30.99999999999977
 21
-27.60000000000105
 31
0.0
  0
LINE
  5
E8
330
BA
100
AcDbEntity
  8
0
100
AcDbLine
 10
-27.50000000000028
 20
-27.60000000000108
 30
0.0
 11
-27.50000000000028
 21
20.39999999999907
 31
0.0
  0
LINE
  5
E9
330
BA
100
AcDbEntity
  8
0
100
AcDbLine
 10
30.99999999999977
 20
-27.60000000000105
 30
0.0
 11
30.99999999999977
 21
20.39999999999907
 31
0.0
  0
LINE
  5
EA
330
BA
100
AcDbEntity
  8
0
100
AcDbLine
 10
23.49999999999977
 20
-27.60000000000105
 30
0.0
 11
23.49999999999977
 21
20.39999999999907
 31
0.0
  0
LINE
  5
EB
330
BA
100
AcDbEntity
  8
03-01
100
AcDbLine
 10
23.49999999999977
 20
-25.10000000000108
 30
0.0
 11
27.99999999999978
 21
-25.10000000000105
 31
0.0
  0
LINE
  5
EC
330
BA
100
AcDbEntity
  8
03-01
100
AcDbLine
 10
27.99999999999978
 20
-25.10000000000105
 30
0.0
 11
27.99999999999978
 21
20.39999999999907
 31
0.0
  0
LINE
  5
ED
330
BA
100
AcDbEntity
  8
0
100
AcDbLine
 10
-35.00000000000028
 20
-31.79771707969414
 30
0.0
 11
40.49999999999932
 21
-31.79771707969417
 31
0.0
  0
LINE
  5
EE
330
BA
100
AcDbEntity
  8
0
100
AcDbLine
 10
-9.200000000000272
 20
-32.84154472971574
 30
0.0
 11
5.199999999999761
 21
-32.84154472971574
 31
0.0
  0
LINE
  5
EF
330
BA
100
AcDbEntity
  8
0
100
AcDbLine
 10
-9.200000000000216
 20
-39.81803345298914
 30
0.0
 11
5.199999999999761
 21
-39.81803345298914
 31
0.0
  0
LINE
  5
F0
330
BA
100
AcDbEntity
  8
0
100
AcDbLine
 10
-9.200000000000216
 20
-41.92564340076455
 30
0.0
 11
5.199999999999761
 21
-41.92564340076455
 31
0.0
  0
ARC
  5
F1
330
BA
100
AcDbEntity
  8
0
100
AcDbCircle
 10
-9.200000000000216
 20
-40.92564340076456
 30
0.0
 40
1.0
100
AcDbArc
 50
180.0
 51
270.0
  0
LINE
  5
F2
330
BA
100
AcDbEntity
  8
0
100
AcDbLine
 10
-27.50000000000028
 20
20.39999999999907
 30
0.0
 11
-35.00000000000023
 21
20.39999999999907
 31
0.0
  0
LINE
  5
F3
330
BA
100
AcDbEntity
  8
0
100
AcDbLine
 10
-27.50000000000028
 20
-27.60000000000108
 30
0.0
 11
-35.00000000000023
 21
-27.60000000000105
 31
0.0
  0
LINE
  5
F4
330
BA
100
AcDbEntity
  8
03-01
100
AcDbLine
 10
-32.00000000000023
 20
-25.10000000000108
 30
0.0
 11
-32.00000000000029
 21
20.39999999999907
 31
0.0
  0
LINE
  5
F5
330
BA
100
AcDbEntity
  8
03-01
100
AcDbLine
 10
-27.50000000000028
 20
-25.10000000000105
 30
0.0
 11
-32.00000000000023
 21
-25.10000000000108
 31
0.0
  0
LINE
  5
F6
330
BA
100
AcDbEntity
  8
0
100
AcDbLine
 10
30.99999999999977
 20
20.39999999999907
 30
0.0
 11
22.59999999999968
 21
20.39999999999901
 31
0.0
  0
LINE
  5
F7
330
BA
100
AcDbEntity
  8
0
100
AcDbLine
 10
30.99999999999977
 20
20.39999999999907
 30
0.0
 11
30.99999999999977
 21
-39.50000000000094
 31
0.0
  0
LWPOLYLINE
  5
F8
330
BA
100
AcDbEntity
  8
0
100
AcDbPolyline
 90
        9
 70
     0
 43
0.0
 10
30.99999999999977
 20
-39.50000000000094
 10
30.99999999999977
 20
20.39999999999907
 10
22.59999999999968
 20
20.39999999999901
 10
22.59999999999968
 20
72.89999999999901
 10
37.49999999999932
 20
72.89999999999901
 10
37.49999999999932
 20
80.39999999999906
 10
40.49999999999932
 20
80.39999999999906
 10
40.49999999999932
 20
-39.50000000000091
 10
30.99999999999977
 20
-39.50000000000094
  0
ENDBLK
  5
F9
330
BA
100
AcDbEntity
  8
0
100
AcDbBlockEnd
  0
BLOCK
  5
AB
330
AA
100
AcDbEntity
  8
0
100
AcDbBlockBegin
  2
*D24
 70
     1
 10
0.0
 20
0.0
 30
0.0
  3
*D24
  1

  0
ARC
  5
AC
330
AA
100
AcDbEntity
  8
09-01
 62
     4
440
 16777216
370
    -2
100
AcDbCircle
 10
162.1468339003172
 20
213.338768153732
 30
0.0
 40
52.14694830171083
100
AcDbArc
 50
5.495791416646881
 51
84.50420858335304
  0
SOLID
  5
AD
330
AA
100
AcDbEntity
  8
09-01
 62
     4
440
 16777216
100
AcDbTrace
 10
214.8864501054446
 20
218.3729700965134
 30
0.0
 11
213.2216998589524
 21
218.2930676899036
 31
0.0
 12
214.2937822020281
 22
213.338768153732
 32
0.0
 13
214.2937822020281
 23
213.338768153732
 33
0.0
  0
SOLID
  5
AE
330
AA
100
AcDbEntity
  8
09-01
 62
     4
440
 16777216
100
AcDbTrace
 10
167.1011334364888
 20
264.4136341123672
 30
0.0
 11
167.1810358430987
 21
266.0783843588593
 31
0.0
 12
162.1468339003173
 22
265.4857164554428
 32
0.0
 13
162.1468339003173
 23
265.4857164554428
 33
0.0
  0
POINT
  5
AF
330
AA
100
AcDbEntity
  8
DEFPOINTS
 62
     0
440
 16777216
100
AcDbPoint
 10
207.3074158594326
 20
239.4122423045874
 30
0.0
  0
POINT
  5
B0
330
AA
100
AcDbEntity
  8
DEFPOINTS
 62
     0
440
 16777216
100
AcDbPoint
 10
162.1468339003172
 20
333.238768153732
 30
0.0
  0
POINT
  5
B1
330
AA
100
AcDbEntity
  8
DEFPOINTS
 62
     0
440
 16777216
100
AcDbPoint
 10
282.0468339003172
 20
213.338768153732
 30
0.0
  0
POINT
  5
B2
330
AA
100
AcDbEntity
  8
DEFPOINTS
 62
     0
440
 16777216
100
AcDbPoint
 10
162.1468339003172
 20
213.338768153732
 30
0.0
  0
POINT
  5
B3
330
AA
100
AcDbEntity
  8
DEFPOINTS
 62
     0
440
 16777216
100
AcDbPoint
 10
162.1468339003172
 20
213.338768153732
 30
0.0
  0
ENDBLK
  5
B4
330
AA
100
AcDbEntity
  8
0
100
AcDbBlockEnd
  0
BLOCK
  5
9C
330
9B
100
AcDbEntity
  8
0
100
AcDbBlockBegin
  2
*D25
 70
     1
 10
0.0
 20
0.0
 30
0.0
  3
*D25
  1

  0
LINE
  5
9D
330
9B
100
AcDbEntity
  8
09-01
 62
     4
440
 16777216
370
    -2
100
AcDbLine
 10
95.64683390031769
 20
373.238768153731
 30
0.0
 11
110.9835857523048
 21
373.238768153731
 31
0.0
  0
LINE
  5
9E
330
9B
100
AcDbEntity
  8
09-01
 62
     4
440
 16777216
370
    -2
100
AcDbLine
 10
99.39683390031769
 20
361.238768153731
 30
0.0
 11
110.9835857523048
 21
361.238768153731
 31
0.0
  0
LINE
  5
9F
330
9B
100
AcDbEntity
  8
09-01
 62
     4
440
 16777216
370
    -2
100
AcDbLine
 10
108.9835857523048
 20
378.238768153731
 30
0.0
 11
108.9835857523048
 21
383.238768153731
 31
0.0
  0
LINE
  5
A0
330
9B
100
AcDbEntity
  8
09-01
 62
     4
440
 16777216
370
    -2
100
AcDbLine
 10
108.9835857523048
 20
356.238768153731
 30
0.0
 11
108.9835857523048
 21
351.238768153731
 31
0.0
  0
LINE
  5
A1
330
9B
100
AcDbEntity
  8
09-01
 62
     4
440
 16777216
370
    -2
100
AcDbLine
 10
108.9835857523048
 20
373.238768153731
 30
0.0
 11
108.9835857523048
 21
361.238768153731
 31
0.0
  0
SOLID
  5
A2
330
9B
100
AcDbEntity
  8
09-01
 62
     4
440
 16777216
100
AcDbTrace
 10
108.1502524189715
 20
378.238768153731
 30
0.0
 11
109.8169190856382
 21
378.238768153731
 31
0.0
 12
108.9835857523048
 22
373.238768153731
 32
0.0
 13
108.9835857523048
 23
373.238768153731
 33
0.0
  0
SOLID
  5
A3
330
9B
100
AcDbEntity
  8
09-01
 62
     4
440
 16777216
100
AcDbTrace
 10
108.1502524189715
 20
356.238768153731
 30
0.0
 11
109.8169190856382
 21
356.238768153731
 31
0.0
 12
108.9835857523048
 22
361.238768153731
 32
0.0
 13
108.9835857523048
 23
361.238768153731
 33
0.0
  0
MTEXT
  5
A4
330
9B
100
AcDbEntity
  8
09-01
 62
     1
440
 16777216
100
AcDbMText
 10
104.4733538287031
 20
367.238768153731
 30
0.0
 40
5.0
 41
0.0
 46
0.0
 71
     5
 72
     1
  1
12
 11
0.0000000000000001
 21
1.0
 31
0.0
 73
     1
 44
1.0
  0
POINT
  5
A5
330
9B
100
AcDbEntity
  8
DEFPOINTS
 62
     0
440
 16777216
100
AcDbPoint
 10
93.64683390031769
 20
373.238768153731
 30
0.0
  0
POINT
  5
A6
330
9B
100
AcDbEntity
  8
DEFPOINTS
 62
     0
440
 16777216
100
AcDbPoint
 10
97.39683390031769
 20
361.238768153731
 30
0.0
  0
POINT
  5
A7
330
9B
100
AcDbEntity
  8
DEFPOINTS
 62
     0
440
 16777216
100
AcDbPoint
 10
108.9835857523048
 20
361.238768153731
 30
0.0
  0
ENDBLK
  5
A8
330
9B
100
AcDbEntity
  8
0
100
AcDbBlockEnd
  0
BLOCK
  5
8D
330
8C
100
AcDbEntity
  8
0
100
AcDbBlockBegin
  2
*D26
 70
     1
 10
0.0
 20
0.0
 30
0.0
  3
*D26
  1

  0
LINE
  5
8E
330
8C
100
AcDbEntity
  8
09-01
 62
     4
440
 16777216
370
    -2
100
AcDbLine
 10
87.64683390031768
 20
375.238768153731
 30
0.0
 11
87.64683390031768
 21
387.1739549614249
 31
0.0
  0
LINE
  5
8F
330
8C
100
AcDbEntity
  8
09-01
 62
     4
440
 16777216
370
    -2
100
AcDbLine
 10
92.64683390031768
 20
375.238768153731
 30
0.0
 11
92.64683390031768
 21
387.1739549614249
 31
0.0
  0
LINE
  5
90
330
8C
100
AcDbEntity
  8
09-01
 62
     4
440
 16777216
370
    -2
100
AcDbLine
 10
82.64683390031768
 20
385.1739549614249
 30
0.0
 11
77.64683390031769
 21
385.1739549614249
 31
0.0
  0
LINE
  5
91
330
8C
100
AcDbEntity
  8
09-01
 62
     4
440
 16777216
370
    -2
100
AcDbLine
 10
97.6468339003177
 20
385.1739549614249
 30
0.0
 11
102.6468339003177
 21
385.1739549614249
 31
0.0
  0
MTEXT
  5
92
330
8C
100
AcDbEntity
  8
09-01
 62
     1
440
 16777216
100
AcDbMText
 10
100.9302665858176
 20
389.4916332699086
 30
0.0
 40
5.0
 41
0.0
 46
0.0
 71
     5
 72
     1
  1
5
 73
     1
 44
1.0
  0
LINE
  5
93
330
8C
100
AcDbEntity
  8
09-01
 62
     4
440
 16777216
370
    -2
100
AcDbLine
 10
87.64683390031768
 20
385.1739549614249
 30
0.0
 11
92.64683390031768
 21
385.1739549614249
 31
0.0
  0
SOLID
  5
94
330
8C
100
AcDbEntity
  8
09-01
 62
     4
440
 16777216
100
AcDbTrace
 10
82.64683390031768
 20
386.0072882947582
 30
0.0
 11
82.64683390031768
 21
384.3406216280916
 31
0.0
 12
87.64683390031768
 22
385.1739549614249
 32
0.0
 13
87.64683390031768
 23
385.1739549614249
 33
0.0
  0
SOLID
  5
95
330
8C
100
AcDbEntity
  8
09-01
 62
     4
440
 16777216
100
AcDbTrace
 10
97.6468339003177
 20
386.0072882947582
 30
0.0
 11
97.6468339003177
 21
384.3406216280916
 31
0.0
 12
92.64683390031768
 22
385.1739549614249
 32
0.0
 13
92.64683390031768
 23
385.1739549614249
 33
0.0
  0
POINT
  5
96
330
8C
100
AcDbEntity
  8
DEFPOINTS
 62
     0
440
 16777216
100
AcDbPoint
 10
87.64683390031768
 20
373.238768153731
 30
0.0
  0
POINT
  5
97
330
8C
100
AcDbEntity
  8
DEFPOINTS
 62
     0
440
 16777216
100
AcDbPoint
 10
92.64683390031768
 20
373.238768153731
 30
0.0
  0
POINT
  5
98
330
8C
100
AcDbEntity
  8
DEFPOINTS
 62
     0
440
 16777216
100
AcDbPoint
 10
92.64683390031768
 20
385.1739549614249
 30
0.0
  0
ENDBLK
  5
99
330
8C
100
AcDbEntity
  8
0
100
AcDbBlockEnd
  0
BLOCK
  5
7C
330
7B
100
AcDbEntity
  8
0
100
AcDbBlockBegin
  2
*D27
 70
     1
 10
0.0
 20
0.0
 30
0.0
  3
*D27
  1

  0
LINE
  5
7D
330
7B
100
AcDbEntity
  8
09-01
 62
     4
440
 16777216
370
    -2
100
AcDbLine
 10
143.8968339003177
 20
363.238768153731
 30
0.0
 11
143.8968339003177
 21
388.2095091789743
 31
0.0
  0
LINE
  5
7E
330
7B
100
AcDbEntity
  8
09-01
 62
     4
440
 16777216
370
    -2
100
AcDbLine
 10
156.3968339003177
 20
363.238768153731
 30
0.0
 11
156.3968339003177
 21
388.2095091789743
 31
0.0
  0
LINE
  5
7F
330
7B
100
AcDbEntity
  8
09-01
 62
     4
440
 16777216
370
    -2
100
AcDbLine
 10
138.8968339003177
 20
386.2095091789742
 30
0.0
 11
133.8968339003177
 21
386.2095091789742
 31
0.0
  0
LINE
  5
80
330
7B
100
AcDbEntity
  8
09-01
 62
     4
440
 16777216
370
    -2
100
AcDbLine
 10
161.3968339003177
 20
386.2095091789742
 30
0.0
 11
166.3968339003177
 21
386.2095091789742
 31
0.0
  0
MTEXT
  5
81
330
7B
100
AcDbEntity
  8
09-01
 62
     1
440
 16777216
100
AcDbMText
 10
132.2765925607873
 20
390.7974766659772
 30
0.0
 40
5.0
 41
0.0
 46
0.0
 71
     5
 72
     1
  1
12.5
 73
     1
 44
1.0
  0
LINE
  5
82
330
7B
100
AcDbEntity
  8
09-01
 62
     4
440
 16777216
370
    -2
100
AcDbLine
 10
143.8968339003177
 20
386.2095091789742
 30
0.0
 11
156.3968339003177
 21
386.2095091789742
 31
0.0
  0
SOLID
  5
83
330
7B
100
AcDbEntity
  8
09-01
 62
     4
440
 16777216
100
AcDbTrace
 10
138.8968339003177
 20
387.0428425123076
 30
0.0
 11
138.8968339003177
 21
385.376175845641
 31
0.0
 12
143.8968339003177
 22
386.2095091789742
 32
0.0
 13
143.8968339003177
 23
386.2095091789742
 33
0.0
  0
SOLID
  5
84
330
7B
100
AcDbEntity
  8
09-01
 62
     4
440
 16777216
100
AcDbTrace
 10
161.3968339003177
 20
387.0428425123076
 30
0.0
 11
161.3968339003177
 21
385.376175845641
 31
0.0
 12
156.3968339003177
 22
386.2095091789742
 32
0.0
 13
156.3968339003177
 23
386.2095091789742
 33
0.0
  0
POINT
  5
85
330
7B
100
AcDbEntity
  8
DEFPOINTS
 62
     0
440
 16777216
100
AcDbPoint
 10
143.8968339003177
 20
361.238768153731
 30
0.0
  0
POINT
  5
87
330
7B
100
AcDbEntity
  8
DEFPOINTS
 62
     0
440
 16777216
100
AcDbPoint
 10
156.3968339003177
 20
361.238768153731
 30
0.0
  0
POINT
  5
88
330
7B
100
AcDbEntity
  8
DEFPOINTS
 62
     0
440
 16777216
100
AcDbPoint
 10
156.3968339003177
 20
386.2095091789742
 30
0.0
  0
ENDBLK
  5
89
330
7B
100
AcDbEntity
  8
0
100
AcDbBlockEnd
  0
ENDSEC
  0
SECTION
  2
ENTITIES
  0
DIMENSION
  5
77
330
2
100
AcDbEntity
  8
09-01
100
AcDbDimension
280
     0
  2
*D27
 10
156.3968339003177
 20
386.2095091789742
 30
0.0
 11
132.2765925607873
 21
390.7974766659772
 31
0.0
 70
   128
 71
     5
 42
12.5
 73
     0
 74
     0
 75
     0
  3
Wagner$0
100
AcDbAlignedDimension
 13
143.8968339003177
 23
361.238768153731
 33
0.0
 14
156.3968339003177
 24
361.238768153731
 34
0.0
100
AcDbRotatedDimension
1001
ACAD
1000
DSTYLE
1002
{
1070
    40
1040
2.0
1070
   179
1070
     8
1070
   271
1070
     8
1070
   272
1070
     8
1002
}
  0
DIMENSION
  5
8B
330
2
100
AcDbEntity
  8
09-01
100
AcDbDimension
280
     0
  2
*D26
 10
92.64683390031768
 20
385.1739549614249
 30
0.0
 11
100.9302665858176
 21
389.4916332699086
 31
0.0
 70
   128
 71
     5
 42
5.0
 73
     0
 74
     0
 75
     0
  3
Wagner$0
100
AcDbAlignedDimension
 13
87.64683390031768
 23
373.238768153731
 33
0.0
 14
92.64683390031768
 24
373.238768153731
 34
0.0
100
AcDbRotatedDimension
1001
ACAD
1000
DSTYLE
1002
{
1070
    40
1040
2.0
1070
   179
1070
     8
1070
   271
1070
     8
1070
   272
1070
     8
1002
}
  0
DIMENSION
  5
9A
330
2
100
AcDbEntity
  8
09-01
100
AcDbDimension
280
     0
  2
*D25
 10
108.9835857523048
 20
361.238768153731
 30
0.0
 11
104.4733538287031
 21
367.238768153731
 31
0.0
 71
     5
 42
12.0
 73
     0
 74
     0
 75
     0
  3
Wagner$0
100
AcDbAlignedDimension
 13
93.64683390031769
 23
373.238768153731
 33
0.0
 14
97.39683390031769
 24
361.238768153731
 34
0.0
 50
90.0
100
AcDbRotatedDimension
1001
ACAD
1000
DSTYLE
1002
{
1070
    40
1040
2.0
1070
   179
1070
     8
1070
   271
1070
     8
1070
   272
1070
     8
1002
}
  0
DIMENSION
  5
A9
330
2
100
AcDbEntity
  8
09-01
100
AcDbDimension
280
     0
  2
*D24
 10
162.1468339003172
 20
213.338768153732
 30
0.0
 11
-22.70154048818611
 21
315.878499577115
 31
0.0
 70
     2
  1
 
 71
     5
 42
1.570796326794895
 73
     0
 74
     0
 75
     0
  3
Wagner
100
AcDb2LineAngularDimension
 13
282.0468339003172
 23
213.338768153732
 33
0.0
 14
162.1468339003172
 24
213.338768153732
 34
0.0
 15
162.1468339003172
 25
333.238768153732
 35
0.0
 16
207.3074158594326
 26
239.4122423045874
 36
0.0
1001
ACAD
1000
DSTYLE
1002
{
1070
    40
1040
2.0
1070
   179
1070
     8
1070
   271
1070
     8
1070
   272
1070
     8
1002
}
  0
INSERT
  5
B5
330
2
100
AcDbEntity
  8
05-01
100
AcDbBlockReference
  2
eModul_937031_V
 10
121.6468339003179
 20
252.8387681537329
 30
0.0
  0
INSERT
  5
FA
330
2
100
AcDbEntity
  8
05-01
100
AcDbBlockReference
  2
Deckel_eModul01-s
 10
162.1468339003172
 20
213.338768153732
 30
0.0
  0
LINE
  5
106
330
2
100
AcDbEntity
  8
03-01
100
AcDbLine
 10
127.2468339003178
 20
102.1677996290718
 30
0.0
 11
127.2468339003177
 21
99.48939562342729
 31
0.0
  0
LINE
  5
107
330
2
100
AcDbEntity
  8
03-01
100
AcDbLine
 10
110.8468339003178
 20
102.1677996290718
 30
0.0
 11
110.8468339003177
 21
99.48939562342729
 31
0.0
  0
ARC
  5
108
330
2
100
AcDbEntity
  8
03-01
100
AcDbCircle
 10
111.3468339003177
 20
99.48939562342729
 30
0.0
 40
0.5
100
AcDbArc
 50
179.9999999999984
 51
270.0
  0
ARC
  5
109
330
2
100
AcDbEntity
  8
03-01
100
AcDbCircle
 10
126.7468339003178
 20
99.48939562342729
 30
0.0
 40
0.5
100
AcDbArc
 50
270.0
 51
359.9999999999984
  0
LINE
  5
10A
330
2
100
AcDbEntity
  8
03-01
100
AcDbLine
 10
126.7468339003178
 20
98.9893956234273
 30
0.0
 11
111.3468339003177
 21
98.98939562342729
 31
0.0
  0
LINE
  5
10B
330
2
100
AcDbEntity
  8
0
100
AcDbLine
 10
143.6468339003177
 20
145.1677996290719
 30
0.0
 11
143.6468339003177
 21
128.1595120975494
 31
0.0
  0
LINE
  5
10C
330
2
100
AcDbEntity
  8
0
100
AcDbLine
 10
158.5468339003173
 20
145.1677996290719
 30
0.0
 11
158.5468339003173
 21
102.1677996290718
 31
0.0
  0
LINE
  5
10D
330
2
100
AcDbEntity
  8
03-01
100
AcDbLine
 10
144.5468339003177
 20
96.96779962907193
 30
0.0
 11
149.0468339003178
 21
96.96779962907193
 31
0.0
  0
LINE
  5
10E
330
2
100
AcDbEntity
  8
03-01
100
AcDbLine
 10
89.04683390031777
 20
96.96779962907193
 30
0.0
 11
93.54683390031778
 21
96.96779962907193
 31
0.0
  0
LINE
  5
10F
330
2
100
AcDbEntity
  8
03-01
100
AcDbLine
 10
144.5468339003177
 20
95.16779962907188
 30
0.0
 11
152.0468339003178
 21
95.16779962907188
 31
0.0
  0
LINE
  5
110
330
2
100
AcDbEntity
  8
03-01
100
AcDbLine
 10
144.5468339003177
 20
102.1677996290718
 30
0.0
 11
144.5468339003177
 21
95.16779962907188
 31
0.0
  0
LINE
  5
111
330
2
100
AcDbEntity
  8
03-01
100
AcDbLine
 10
149.0468339003178
 20
102.1677996290718
 30
0.0
 11
149.0468339003178
 21
96.96779962907193
 31
0.0
  0
LINE
  5
112
330
2
100
AcDbEntity
  8
03-01
100
AcDbLine
 10
152.0468339003178
 20
102.1677996290718
 30
0.0
 11
152.0468339003178
 21
95.16779962907188
 31
0.0
  0
LINE
  5
113
330
2
100
AcDbEntity
  8
03-01
100
AcDbLine
 10
93.54683390031778
 20
95.16779962907188
 30
0.0
 11
93.54683390031778
 21
102.1677996290718
 31
0.0
  0
LINE
  5
114
330
2
100
AcDbEntity
  8
03-01
100
AcDbLine
 10
86.04683390031778
 20
95.16779962907188
 30
0.0
 11
93.54683390031778
 21
95.16779962907188
 31
0.0
  0
LINE
  5
115
330
2
100
AcDbEntity
  8
03-01
100
AcDbLine
 10
89.04683390031777
 20
102.1677996290718
 30
0.0
 11
89.04683390031777
 21
96.96779962907193
 31
0.0
  0
LINE
  5
116
330
2
100
AcDbEntity
  8
03-01
100
AcDbLine
 10
86.04683390031778
 20
102.1677996290718
 30
0.0
 11
86.04683390031778
 21
95.16779962907188
 31
0.0
  0
LINE
  5
117
330
2
100
AcDbEntity
  8
03-01
100
AcDbLine
 10
141.1468339003176
 20
146.3677996290718
 30
0.0
 11
141.1468339003176
 21
145.1677996290719
 31
0.0
  0
LINE
  5
118
330
2
100
AcDbEntity
  8
0
100
AcDbLine
 10
138.6468339003177
 20
148.4677996290718
 30
0.0
 11
138.6468339003177
 21
145.1677996290719
 31
0.0
  0
LINE
  5
119
330
2
100
AcDbEntity
  8
0
100
AcDbLine
 10
143.6468339003177
 20
148.4677996290718
 30
0.0
 11
143.6468339003177
 21
145.1677996290719
 31
0.0
  0
LINE
  5
11A
330
2
100
AcDbEntity
  8
03-01
100
AcDbLine
 10
138.6468339003177
 20
146.3677996290718
 30
0.0
 11
141.1468339003176
 21
146.3677996290718
 31
0.0
  0
LINE
  5
11B
330
2
100
AcDbEntity
  8
0
100
AcDbLine
 10
138.6468339003177
 20
148.4677996290718
 30
0.0
 11
143.6468339003177
 21
148.4677996290718
 31
0.0
  0
LINE
  5
11C
330
2
100
AcDbEntity
  8
03-01
100
AcDbLine
 10
89.14683390031768
 20
146.3677996290718
 30
0.0
 11
89.14683390031768
 21
145.1677996290719
 31
0.0
  0
LINE
  5
11D
330
2
100
AcDbEntity
  8
0
100
AcDbLine
 10
91.64683390031768
 20
148.4677996290718
 30
0.0
 11
91.64683390031768
 21
145.1677996290719
 31
0.0
  0
LINE
  5
11E
330
2
100
AcDbEntity
  8
0
100
AcDbLine
 10
86.04683390031778
 20
148.4677996290718
 30
0.0
 11
86.04683390031778
 21
145.1677996290719
 31
0.0
  0
LINE
  5
11F
330
2
100
AcDbEntity
  8
0
100
AcDbLine
 10
161.5468339003173
 20
145.1677996290719
 30
0.0
 11
161.5468339003173
 21
102.1677996290718
 31
0.0
  0
LINE
  5
120
330
2
100
AcDbEntity
  8
03-01
100
AcDbLine
 10
86.04683390031778
 20
127.9484990013946
 30
0.0
 11
86.04683390031778
 21
102.1677996290718
 31
0.0
  0
LINE
  5
121
330
2
100
AcDbEntity
  8
0
100
AcDbLine
 10
86.04683390031778
 20
145.1677996290719
 30
0.0
 11
86.04683390031778
 21
127.9484990013946
 31
0.0
  0
LINE
  5
122
330
2
100
AcDbEntity
  8
03-01
100
AcDbLine
 10
91.64683390031768
 20
146.3677996290718
 30
0.0
 11
89.14683390031768
 21
146.3677996290718
 31
0.0
  0
LINE
  5
123
330
2
100
AcDbEntity
  8
03-01
100
AcDbLine
 10
155.1415954418041
 20
102.1677996290718
 30
0.0
 11
86.04683390031778
 21
102.1677996290718
 31
0.0
  0
LINE
  5
124
330
2
100
AcDbEntity
  8
0
100
AcDbLine
 10
161.5468339003173
 20
102.1677996290718
 30
0.0
 11
155.1415954418041
 21
102.1677996290718
 31
0.0
  0
LINE
  5
125
330
2
100
AcDbEntity
  8
0
100
AcDbLine
 10
161.5468339003173
 20
145.1677996290719
 30
0.0
 11
86.04683390031778
 21
145.1677996290719
 31
0.0
  0
LINE
  5
126
330
2
100
AcDbEntity
  8
0
100
AcDbLine
 10
91.64683390031768
 20
148.4677996290718
 30
0.0
 11
86.04683390031778
 21
148.4677996290718
 31
0.0
  0
INSERT
  5
127
330
2
100
AcDbEntity
  8
09-01
100
AcDbBlockReference
  2
Desipumpe_937045_D
 10
119.6468339003184
 20
30.63991281153994
 30
0.0
  0
DIMENSION
  5
161
330
2
100
AcDbEntity
  8
09-01
100
AcDbDimension
280
     0
  2
*D21
 10
163.6468339003172
 20
344.4162422075751
 30
0.0
 11
174.0565033602051
 21
349.4435632355926
 31
0.0
 70
   128
 71
     5
 42
13.49999999999954
 73
     0
 74
     0
 75
     0
  3
Wagner$0
100
AcDbAlignedDimension
 13
150.1468339003177
 23
353.988768153731
 33
0.0
 14
163.6468339003172
 24
348.140180253291
 34
0.0
100
AcDbRotatedDimension
1001
ACAD
1000
DSTYLE
1002
{
1070
    40
1040
2.0
1070
   179
1070
     8
1070
   271
1070
     8
1070
   272
1070
     8
1002
}
  0
DIMENSION
  5
170
330
2
100
AcDbEntity
  8
09-01
100
AcDbDimension
280
     0
  2
*D20
 10
150.1468339003177
 20
344.4162422075751
 30
0.0
 11
120.1468339003177
 21
348.9691071461836
 31
0.0
 71
     5
 42
60.0
 73
     0
 74
     0
 75
     0
  3
Wagner$0
100
AcDbAlignedDimension
 13
90.14683390031768
 23
353.988768153731
 33
0.0
 14
150.1468339003177
 24
353.988768153731
 34
0.0
100
AcDbRotatedDimension
1001
ACAD
1000
DSTYLE
1002
{
1070
    40
1040
2.0
1070
   179
1070
     8
1070
   271
1070
     8
1070
   272
1070
     8
1002
}
  0
DIMENSION
  5
17D
330
2
100
AcDbEntity
  8
09-01
100
AcDbDimension
280
     0
  2
*D19
 10
90.14683390031768
 20
344.4162422075751
 30
0.0
 11
67.50762460063197
 21
348.6987705359388
 31
0.0
 70
   128
 71
     5
 42
13.50000000000037
 73
     0
 74
     0
 75
     0
  3
Wagner$0
100
AcDbAlignedDimension
 13
76.64683390031732
 23
350.3745498680673
 33
0.0
 14
90.14683390031768
 24
353.988768153731
 34
0.0
100
AcDbRotatedDimension
1001
ACAD
1000
DSTYLE
1002
{
1070
    40
1040
2.0
1070
   179
1070
     8
1070
   271
1070
     8
1070
   272
1070
     8
1002
}
  0
INSERT
  5
18C
330
2
100
AcDbEntity
  8
09-01
100
AcDbBlockReference
  2
Desipumpe_937045_S
 10
386.1291411978164
 20
273.2509549337249
 30
0.0
  0
INSERT
  5
1F3
330
2
100
AcDbEntity
  8
09-01
100
AcDbBlockReference
  2
Desipumpe_937045_V
 10
119.6468339003181
 20
227.2509660201888
 30
0.0
  0
DIMENSION
  5
235
330
2
100
AcDbEntity
  8
09-01
100
AcDbDimension
280
     0
  2
*D14
 10
451.4200169307152
 20
468.3587929676463
 30
0.0
 11
391.3745790642659
 21
472.9116579062549
 31
0.0
 71
     5
 42
120.0908757328985
 73
     0
 74
     0
 75
     0
  3
Wagner$0
100
AcDbAlignedDimension
 13
331.3291411978166
 23
382.2387681537319
 33
0.0
 14
451.4200169307152
 24
452.2509600597244
 34
0.0
100
AcDbRotatedDimension
1001
ACAD
1000
DSTYLE
1002
{
1070
    40
1040
2.0
1070
   179
1070
     8
1070
   271
1070
     1
1070
   272
1070
     8
1002
}
  0
DIMENSION
  5
242
330
2
100
AcDbEntity
  8
09-01
100
AcDbDimension
280
     0
  2
*D13
 10
309.663034969929
 20
456.2509601938247
 30
0.0
 11
305.1101700313204
 21
332.2448641737784
 31
0.0
 71
     5
 42
248.0121920400927
 73
     0
 74
     0
 75
     0
  3
Wagner$0
100
AcDbAlignedDimension
 13
331.3291411978162
 23
208.2387681537319
 33
0.0
 14
382.6573401847783
 24
456.2509601938247
 34
0.0
 50
90.0
100
AcDbRotatedDimension
1001
ACAD
1000
DSTYLE
1002
{
1070
    40
1040
2.0
1070
   179
1070
     8
1070
   271
1070
     1
1070
   272
1070
     8
1002
}
  0
DIMENSION
  5
24F
330
2
100
AcDbEntity
  8
09-01
100
AcDbDimension
280
     0
  2
*D12
 10
319.4972396181038
 20
382.2387681537319
 30
0.0
 11
314.9870076945021
 21
295.238768153732
 31
0.0
 71
     5
 42
174.0
 73
     0
 74
     0
 75
     0
  3
Wagner$0
100
AcDbAlignedDimension
 13
331.3291411978162
 23
208.2387681537319
 33
0.0
 14
331.3291411978162
 24
382.2387681537319
 34
0.0
 50
90.0
100
AcDbRotatedDimension
1001
ACAD
1000
DSTYLE
1002
{
1070
    40
1040
2.0
1070
   179
1070
     8
1070
   271
1070
     8
1070
   272
1070
     8
1002
}
  0
INSERT
  5
25C
330
2
100
AcDbEntity
  8
09-01
100
AcDbBlockReference
 66
     1
  2
DIN A4 Quer
 10
-0.0000047934940994
 20
-0.0000006526518916
 30
0.0
 41
2.5
 42
2.5
 43
2.5
  0
ATTRIB
  5
2D0
330
25C
100
AcDbEntity
  8
06-99
100
AcDbText
 10
508.7386167812251
 20
65.46959738742637
 30
0.0
 40
11.25
  1
Sensor-Desinfektionsmittelspender WP 173e-7
 41
0.5
  7
ROMANS8
100
AcDbAttribute
280
     0
  2
TEILE
 70
     0
280
     0
  0
ATTRIB
  5
2D1
330
25C
100
AcDbEntity
  8
06-99
100
AcDbText
 10
508.7386167812251
 20
47.37650935651155
 30
0.0
 40
11.25
  1

 41
0.9
  7
ROMANS8
100
AcDbAttribute
280
     0
  2
TEILE2
 70
     0
280
     0
  0
ATTRIB
  5
2D2
330
25C
100
AcDbEntity
  8
06-99
100
AcDbText
 10
695.8684654625681
 20
113.3333339775542
 30
0.0
 40
8.4375
  1
1:2,5
  7
ROMANS8
100
AcDbAttribute
280
     0
  2
:
 70
     0
280
     0
  0
ATTRIB
  5
2D3
330
25C
100
AcDbEntity
  8
06-99
100
AcDbText
 10
449.9926694317005
 20
68.60421431429907
 30
0.0
 40
6.25
  1
Pfrepper
 41
0.9
  7
ROMANS8
100
AcDbAttribute
280
     0
  2
NAME
 70
     0
280
     0
  0
ATTRIB
  5
2D4
330
25C
100
AcDbEntity
  8
06-99
100
AcDbText
 10
416.2328660630168
 20
68.65308857949893
 30
0.0
 40
6.250000000000001
  1
31.10.2016
 50
359.9144597696147
 41
0.5867792975198159
  7
ROMANS8
 72
     5
 11
444.3493427343788
 21
68.61111181088782
 31
0.0
100
AcDbAttribute
280
     0
  2
DATUM
 70
     0
280
     0
  0
ATTRIB
  5
2D5
330
25C
100
AcDbEntity
  8
06-99
100
AcDbText
 10
663.7658598511775
 20
18.73225014494304
 30
0.0
 40
7.4844
  1
727186
  7
ROMANS8
100
AcDbAttribute
280
     0
  2
ID.NR
 70
     0
280
     0
  0
ATTRIB
  5
2D6
330
25C
100
AcDbEntity
  8
06-99
100
AcDbText
 10
509.3281655725582
 20
94.16666725533199
 30
0.0
 40
7.5
  1

 41
0.9
  7
ROMANS8
100
AcDbAttribute
280
     0
  2
LÄNGE
 70
     0
280
     0
  0
ATTRIB
  5
2D7
330
25C
100
AcDbEntity
  8
06-99
100
AcDbText
 10
592.9520122127065
 20
94.19526032033312
 30
0.0
 40
7.5
  1

 41
0.9
  7
ROMANS8
100
AcDbAttribute
280
     0
  2
BREITE
 70
     0
280
     0
  0
ATTRIB
  5
2D8
330
25C
100
AcDbEntity
  8
06-99
100
AcDbText
 10
694.0227302501112
 20
94.1666673108879
 30
0.0
 40
7.734375000000001
  1

  7
ROMANS8
100
AcDbAttribute
280
     0
  2
1.0
 70
     0
280
     0
  0
ATTRIB
  5
2D9
330
25C
100
AcDbEntity
  8
06-99
100
AcDbText
 10
627.819463936788
 20
113.3333339775547
 30
0.0
 40
7.5
  1

  7
ROMANS8
 72
     1
 11
627.819463936788
 21
113.3333339775547
 31
0.0
100
AcDbAttribute
280
     0
  2
IV
 70
     0
280
     0
  0
ATTRIB
  5
2DA
330
25C
100
AcDbEntity
  8
06-99
100
AcDbText
 10
525.6868512735714
 20
113.3333339775542
 30
0.0
 40
8.4375
  1
1.4301
  7
ROMANS8
100
AcDbAttribute
280
     0
  2
1.4301
 70
     0
280
     0
  0
ATTRIB
  5
2DB
330
25C
100
AcDbEntity
  8
06-99
100
AcDbText
 10
582.5015846504824
 20
18.76099215510786
 30
0.0
 40
7.919999999999999
  1

 41
0.9000000000000001
  7
ROMANS8
100
AcDbAttribute
280
     0
  2
AUFTRAGS.NR.
 70
     0
280
     0
  0
ATTRIB
  5
2DC
330
25C
100
AcDbEntity
  8
06-99
100
AcDbText
 10
508.7499999332817
 20
18.75000064422104
 30
0.0
 40
7.919999999999999
  1

 41
0.9000000000000001
  7
ROMANS8
100
AcDbAttribute
280
     0
  2
SONDER-NR
 70
     0
280
     0
  0
ATTRIB
  5
2DD
330
25C
100
AcDbEntity
  8
06-99
100
AcDbText
 10
333.7493774208028
 20
16.50452581737093
 30
0.0
 40
3.75
  1

 41
0.9
  7
ROMANS8
100
AcDbAttribute
280
     0
  2
ERSETZT.DURCH
 70
     0
280
     0
  0
ATTRIB
  5
2DE
330
25C
100
AcDbEntity
  8
06-99
100
AcDbText
 10
271.2486693837777
 20
16.49364163890234
 30
0.0
 40
3.75
  1

 41
0.9
  7
ROMANS8
100
AcDbAttribute
280
     0
  2
ERSETZT.FÜR
 70
     0
280
     0
  0
ATTRIB
  5
2DF
330
25C
100
AcDbEntity
  8
06-99
100
AcDbText
 10
467.432681549376
 20
119.1712784942408
 30
0.0
 40
3.217500000000001
  1
DIN A4
  7
ROMANS8
 72
     1
 11
475.6296458350902
 21
119.1712784942408
 31
0.0
100
AcDbAttribute
280
     0
  2
FORMAT
 70
     0
280
     0
  0
ATTRIB
  5
2E0
330
25C
100
AcDbEntity
  8
06-99
100
AcDbText
 10
457.4770479871664
 20
93.29652109266342
 30
0.0
 40
5.85
  1
DIN 2768
  7
ROMANS8
 72
     1
 11
477.5341908443092
 21
93.29652109266342
 31
0.0
100
AcDbAttribute
280
     0
  2
NORM2
 70
     0
280
     0
  0
ATTRIB
  5
2E1
330
25C
100
AcDbEntity
  8
06-99
100
AcDbText
 10
449.5377622728807
 20
102.8798544259965
 30
0.0
 40
5.85
  1
DIN 6930-M
  7
ROMANS8
 72
     1
 11
476.2806194157378
 21
102.8798544259965
 31
0.0
100
AcDbAttribute
280
     0
  2
NORM1
 70
     0
280
     0
  0
SEQEND
  5
2E2
330
25C
100
AcDbEntity
  8
09-01
  0
DIMENSION
  5
2E3
330
2
100
AcDbEntity
  8
09-01
100
AcDbDimension
280
     0
  2
*D10
 10
282.0468339003172
 20
187.0837234783256
 30
0.0
 11
179.3468339003174
 21
191.6365884169341
 31
0.0
 71
     5
 42
205.3999999999995
 73
     0
 74
     0
 75
     0
  3
Wagner$0
100
AcDbAlignedDimension
 13
76.64683390031768
 23
208.2387681537319
 33
0.0
 14
282.0468339003172
 24
213.338768153732
 34
0.0
100
AcDbRotatedDimension
1001
ACAD
1000
DSTYLE
1002
{
1070
    40
1040
2.0
1070
   179
1070
     8
1070
   271
1070
     8
1070
   272
1070
     8
1002
}
  0
DIMENSION
  5
2F0
330
2
100
AcDbEntity
  8
09-01
100
AcDbDimension
280
     0
  2
*D9
 10
44.98916556385256
 20
208.238768153732
 30
0.0
 11
40.43630062524408
 21
332.244864201718
 31
0.0
 71
     5
 42
248.0121920959721
 73
     0
 74
     0
 75
     0
  3
Wagner$0
100
AcDbAlignedDimension
 13
93.91729349146064
 23
456.2509602497041
 33
0.0
 14
72.64683390031769
 24
208.2387681537319
 34
0.0
 50
90.0
100
AcDbRotatedDimension
1001
ACAD
1000
DSTYLE
1002
{
1070
    40
1040
2.0
1070
   179
1070
     8
1070
   271
1070
     0
1070
   272
1070
     8
1002
}
  0
LINE
  5
2FD
330
2
100
AcDbEntity
  8
05-01
100
AcDbLine
 10
334.8291411978162
 20
246.738768153784
 30
0.0
 11
327.8291411978162
 21
246.738768153784
 31
0.0
  0
DIMENSION
  5
2FE
330
2
100
AcDbEntity
  8
09-01
100
AcDbDimension
280
     0
  2
*D8
 10
76.64683390031768
 20
196.433066004461
 30
0.0
 11
98.39683390031769
 21
200.9876362636697
 31
0.0
 71
     5
 42
43.5
 73
     0
 74
     0
 75
     0
  3
Wagner$0
100
AcDbAlignedDimension
 13
120.1468339003177
 23
228.4887681537829
 33
0.0
 14
76.64683390031768
 24
208.2387681537319
 34
0.0
100
AcDbRotatedDimension
1001
ACAD
1000
DSTYLE
1002
{
1070
    40
1040
2.0
1070
   179
1070
     8
1070
   271
1070
     8
1070
   272
1070
     8
1002
}
  0
DIMENSION
  5
30B
330
2
100
AcDbEntity
  8
09-01
100
AcDbDimension
280
     0
  2
*D7
 10
120.1468339003177
 20
196.433066004461
 30
0.0
 11
141.8968339003174
 21
200.9876362636697
 31
0.0
 71
     5
 42
43.49999999999954
 73
     0
 74
     0
 75
     0
  3
Wagner$0
100
AcDbAlignedDimension
 13
163.6468339003172
 23
213.2387681537319
 33
0.0
 14
120.1468339003177
 24
228.4887681537829
 34
0.0
100
AcDbRotatedDimension
1001
ACAD
1000
DSTYLE
1002
{
1070
    40
1040
2.0
1070
   179
1070
     8
1070
   271
1070
     8
1070
   272
1070
     8
1002
}
  0
DIMENSION
  5
318
330
2
100
AcDbEntity
  8
09-01
100
AcDbDimension
280
     0
  2
*D6
 10
181.2681662559774
 20
208.2387681537319
 30
0.0
 11
176.7135959967687
 21
227.4887681537574
 31
0.0
 71
     5
 42
38.50000000005093
 73
     0
 74
     0
 75
     0
  3
Wagner$0
100
AcDbAlignedDimension
 13
123.6468339003177
 23
246.7387681537829
 33
0.0
 14
156.0066723994682
 24
208.2387681537319
 34
0.0
 50
90.0
100
AcDbRotatedDimension
1001
ACAD
1000
DSTYLE
1002
{
1070
    40
1040
2.0
1070
   179
1070
     8
1070
   271
1070
     8
1070
   272
1070
     8
1002
}
  0
DIMENSION
  5
325
330
2
100
AcDbEntity
  8
09-01
100
AcDbDimension
280
     0
  2
*D5
 10
181.2681662559774
 20
246.7387681537829
 30
0.0
 11
176.7153013173688
 21
322.4195986198842
 31
0.0
 70
   128
 71
     5
 42
126.4999999999482
 73
     0
 74
     0
 75
     0
  3
Wagner$0
100
AcDbAlignedDimension
 13
153.6468339003176
 23
373.238768153731
 33
0.0
 14
123.6468339003177
 24
246.7387681537829
 34
0.0
 50
90.0
100
AcDbRotatedDimension
1001
ACAD
1000
DSTYLE
1002
{
1070
    40
1040
2.0
1070
   179
1070
     8
1070
   271
1070
     8
1070
   272
1070
     8
1002
}
  0
DIMENSION
  5
332
330
2
100
AcDbEntity
  8
09-01
100
AcDbDimension
280
     0
  2
*D4
 10
181.2681662559775
 20
373.238768153731
 30
0.0
 11
176.7153013173691
 21
377.7387681537315
 31
0.0
 71
     5
 42
9.000000000000909
 73
     0
 74
     0
 75
     0
  3
Wagner$0
100
AcDbAlignedDimension
 13
158.646833900317
 23
382.2387681537319
 33
0.0
 14
153.6468339003176
 24
373.238768153731
 34
0.0
 50
90.0
100
AcDbRotatedDimension
1001
ACAD
1000
DSTYLE
1002
{
1070
    40
1040
2.0
1070
   179
1070
     8
1070
   271
1070
     8
1070
   272
1070
     8
1002
}
  0
ARC
  5
341
330
2
100
AcDbEntity
  8
03-01
100
AcDbCircle
 10
150.1468339003177
 20
361.238768153731
 30
0.0
 40
6.25
100
AcDbArc
 50
113.5781784782075
 51
306.7585618629198
  0
ARC
  5
342
330
2
100
AcDbEntity
  8
03-01
100
AcDbCircle
 10
150.1468339003177
 20
373.238768153731
 30
0.0
 40
2.5
100
AcDbArc
 50
126.8698976458456
 51
180.0
  0
LINE
  5
343
330
2
100
AcDbEntity
  8
03-01
100
AcDbLine
 10
147.6468339003177
 20
366.9669877724262
 30
0.0
 11
147.6468339003177
 21
373.238768153731
 31
0.0
  0
ARC
  5
344
330
2
100
AcDbEntity
  8
03-01
100
AcDbCircle
 10
90.14683390031768
 20
361.238768153731
 30
0.0
 40
6.25
100
AcDbArc
 50
220.4974195645205
 51
66.42182152179251
  0
ARC
  5
345
330
2
100
AcDbEntity
  8
03-01
100
AcDbCircle
 10
90.14683390031768
 20
373.238768153731
 30
0.0
 40
2.5
100
AcDbArc
 50
0.0
 51
78.46304096718838
  0
LINE
  5
346
330
2
100
AcDbEntity
  8
03-01
100
AcDbLine
 10
92.64683390031768
 20
366.9669877724262
 30
0.0
 11
92.64683390031768
 21
373.238768153731
 31
0.0
  0
LINE
  5
347
330
2
100
AcDbEntity
  8
03-01
100
AcDbLine
 10
85.06535527449042
 20
382.2387681537319
 30
0.0
 11
154.2283125261458
 21
382.2387681537318
 31
0.0
  0
ARC
  5
348
330
2
100
AcDbEntity
  8
0
100
AcDbCircle
 10
81.2468339003176
 20
216.6469637923882
 30
0.0
 40
0.2
100
AcDbArc
 50
270.0
 51
0.0
  0
LINE
  5
349
330
2
100
AcDbEntity
  8
0
100
AcDbLine
 10
77.64683390031746
 20
216.4469637923884
 30
0.0
 11
81.2468339003176
 21
216.4469637923884
 31
0.0
  0
LINE
  5
34A
330
2
100
AcDbEntity
  8
0
100
AcDbLine
 10
77.64683390031746
 20
224.4469637923884
 30
0.0
 11
81.2468339003176
 21
224.4469637923884
 31
0.0
  0
ARC
  5
34B
330
2
100
AcDbEntity
  8
0
100
AcDbCircle
 10
81.2468339003176
 20
224.2469637923885
 30
0.0
 40
0.2
100
AcDbArc
 50
0.0
 51
90.0
  0
LINE
  5
34C
330
2
100
AcDbEntity
  8
0
100
AcDbLine
 10
81.44683390031742
 20
224.2469637923885
 30
0.0
 11
81.44683390031742
 21
216.6469637923882
 31
0.0
  0
LINE
  5
34D
330
2
100
AcDbEntity
  8
03-01
100
AcDbLine
 10
77.64683390031746
 20
216.4469637923884
 30
0.0
 11
77.64683390031746
 21
224.4469637923884
 31
0.0
  0
LINE
  5
34E
330
2
100
AcDbEntity
  8
03-01
100
AcDbLine
 10
143.6468339003177
 20
128.1595120975494
 30
0.0
 11
143.6468339003177
 21
102.7677996290715
 31
0.0
  0
DIMENSION
  5
34F
330
2
100
AcDbEntity
  8
0
100
AcDbDimension
280
     0
  2
*D3
 10
435.1546050694743
 20
190.2724783956249
 30
0.0
 11
383.2418731336452
 21
194.8253433342334
 31
0.0
 71
     5
 42
103.8254638716581
 73
     0
 74
     0
 75
     0
  3
Wagner$0
100
AcDbAlignedDimension
 13
331.3291411978162
 23
208.2387681537319
 33
0.0
 14
435.1546050694743
 24
218.7509562450271
 34
0.0
100
AcDbRotatedDimension
1001
ACAD
1000
DSTYLE
1002
{
1070
    40
1040
2.0
1070
   179
1070
     8
1070
   271
1070
     0
1070
   272
1070
     8
1002
}
  0
ARC
  5
35C
330
2
100
AcDbEntity
  8
0
100
AcDbCircle
 10
347.3291411978155
 20
233.4389681278572
 30
0.0
 40
3.0
100
AcDbArc
 50
180.0
 51
261.4701831348376
  0
LINE
  5
35D
330
2
100
AcDbEntity
  8
0
100
AcDbLine
 10
346.8841689656469
 20
230.472151700675
 30
0.0
 11
370.2080801085865
 21
226.9739599321898
 31
0.0
  0
LINE
  5
35E
330
2
100
AcDbEntity
  8
0
100
AcDbLine
 10
332.3291411978159
 20
208.2387681537319
 30
0.0
 11
370.2080801085865
 21
213.9199676525869
 31
0.0
  0
LINE
  5
35F
330
2
100
AcDbEntity
  8
05-01
100
AcDbLine
 10
120.1468339003177
 20
250.2387681537829
 30
0.0
 11
120.1468339003177
 21
227.4887681537829
 31
0.0
  0
DIMENSION
  5
360
330
2
100
AcDbEntity
  8
09-01
100
AcDbDimension
280
     0
  2
*D2
 10
163.6468339003172
 20
162.2729445718018
 30
0.0
 11
120.1468339003172
 21
166.8258095104102
 31
0.0
 71
     5
 42
87.0
 73
     0
 74
     0
 75
     0
  3
Wagner$0
100
AcDbAlignedDimension
 13
76.64683390031723
 23
149.9677996290722
 33
0.0
 14
163.6468339003172
 24
149.9677996290722
 34
0.0
100
AcDbRotatedDimension
1001
ACAD
1000
DSTYLE
1002
{
1070
    40
1040
2.0
1070
   179
1070
     8
1070
   271
1070
     8
1070
   272
1070
     8
1002
}
  0
ARC
  5
36D
330
2
100
AcDbEntity
  8
0
100
AcDbCircle
 10
81.2468339003176
 20
108.267799629072
 30
0.0
 40
0.2
100
AcDbArc
 50
270.0
 51
0.0
  0
LINE
  5
36E
330
2
100
AcDbEntity
  8
0
100
AcDbLine
 10
77.64683390031746
 20
108.0677996290722
 30
0.0
 11
81.2468339003176
 21
108.0677996290722
 31
0.0
  0
LINE
  5
36F
330
2
100
AcDbEntity
  8
0
100
AcDbLine
 10
77.64683390031746
 20
116.0677996290722
 30
0.0
 11
81.2468339003176
 21
116.0677996290722
 31
0.0
  0
LINE
  5
370
330
2
100
AcDbEntity
  8
0
100
AcDbLine
 10
77.81012252822484
 20
112.0677996290722
 30
0.0
 11
82.80980399442569
 21
112.0677996290722
 31
0.0
  0
ARC
  5
371
330
2
100
AcDbEntity
  8
0
100
AcDbCircle
 10
81.2468339003176
 20
115.8677996290724
 30
0.0
 40
0.2
100
AcDbArc
 50
0.0
 51
90.0
  0
LINE
  5
372
330
2
100
AcDbEntity
  8
0
100
AcDbLine
 10
81.44683390031742
 20
115.8677996290724
 30
0.0
 11
81.44683390031742
 21
108.267799629072
 31
0.0
  0
LINE
  5
373
330
2
100
AcDbEntity
  8
0
100
AcDbLine
 10
77.64683390031746
 20
108.0677996290722
 30
0.0
 11
77.64683390031746
 21
116.0677996290722
 31
0.0
  0
DIMENSION
  5
374
330
2
100
AcDbEntity
  8
09-01
100
AcDbDimension
280
     0
  2
*D1
 10
62.16281177260907
 20
149.9677996290722
 30
0.0
 11
57.62017875760222
 21
127.7177996290722
 31
0.0
 71
     5
 42
44.50000000000001
 73
     0
 74
     0
 75
     0
  3
Wagner$0
100
AcDbAlignedDimension
 13
76.64683390031746
 23
105.4677996290722
 33
0.0
 14
76.64683390031723
 24
149.9677996290722
 34
0.0
 50
90.0
100
AcDbRotatedDimension
1001
ACAD
1000
DSTYLE
1002
{
1070
    40
1040
2.0
1070
   179
1070
     8
1070
   271
1070
     8
1070
   272
1070
     8
1002
}
  0
LINE
  5
381
330
2
100
AcDbEntity
  8
0
100
AcDbLine
 10
77.64683390031724
 20
148.9677996290722
 30
0.0
 11
77.64683390031746
 21
105.4677996290722
 31
0.0
  0
LINE
  5
382
330
2
100
AcDbEntity
  8
0
100
AcDbLine
 10
77.64683390031746
 20
105.4677996290722
 30
0.0
 11
76.64683390031746
 21
105.4677996290722
 31
0.0
  0
LINE
  5
383
330
2
100
AcDbEntity
  8
0
100
AcDbLine
 10
76.64683390031723
 20
149.9677996290722
 30
0.0
 11
76.64683390031746
 21
105.4677996290722
 31
0.0
  0
LINE
  5
384
330
2
100
AcDbEntity
  8
0
100
AcDbLine
 10
163.6468339003172
 20
149.9677996290722
 30
0.0
 11
163.6468339003172
 21
148.9677996290722
 31
0.0
  0
LINE
  5
385
330
2
100
AcDbEntity
  8
0
100
AcDbLine
 10
131.9093904269082
 20
148.9677996290722
 30
0.0
 11
163.6468339003172
 21
148.9677996290722
 31
0.0
  0
LINE
  5
386
330
2
100
AcDbEntity
  8
0
100
AcDbLine
 10
77.64683390031724
 20
148.9677996290722
 30
0.0
 11
98.38427737372718
 21
148.9677996290722
 31
0.0
  0
LINE
  5
387
330
2
100
AcDbEntity
  8
0
100
AcDbLine
 10
135.8282109336075
 20
146.2677996290714
 30
0.0
 11
130.4579754244273
 21
149.9677996290722
 31
0.0
  0
LINE
  5
388
330
2
100
AcDbEntity
  8
0
100
AcDbLine
 10
135.5170694094979
 20
145.2677996290714
 30
0.0
 11
130.1468339003177
 21
148.9677996290722
 31
0.0
  0
LINE
  5
389
330
2
100
AcDbEntity
  8
0
100
AcDbLine
 10
94.4654568670278
 20
146.2677996290714
 30
0.0
 11
99.83569237620782
 21
149.9677996290722
 31
0.0
  0
LINE
  5
38A
330
2
100
AcDbEntity
  8
0
100
AcDbLine
 10
94.77659839113744
 20
145.2677996290714
 30
0.0
 11
100.1468339003177
 21
148.9677996290722
 31
0.0
  0
LINE
  5
38B
330
2
100
AcDbEntity
  8
0
100
AcDbLine
 10
138.6468339003177
 20
146.2677996290714
 30
0.0
 11
135.8282109336075
 21
146.2677996290714
 31
0.0
  0
LINE
  5
38C
330
2
100
AcDbEntity
  8
03-01
100
AcDbLine
 10
140.8468339003179
 20
146.2677996290714
 30
0.0
 11
138.6468339003177
 21
146.2677996290714
 31
0.0
  0
LINE
  5
38D
330
2
100
AcDbEntity
  8
0
100
AcDbLine
 10
140.8468339003179
 20
145.2677996290714
 30
0.0
 11
135.5170694094979
 21
145.2677996290714
 31
0.0
  0
LINE
  5
38E
330
2
100
AcDbEntity
  8
03-01
100
AcDbLine
 10
140.8468339003179
 20
146.2677996290714
 30
0.0
 11
140.8468339003179
 21
145.2677996290714
 31
0.0
  0
LINE
  5
38F
330
2
100
AcDbEntity
  8
0
100
AcDbLine
 10
91.64683390031768
 20
146.2677996290714
 30
0.0
 11
94.4654568670278
 21
146.2677996290714
 31
0.0
  0
LINE
  5
390
330
2
100
AcDbEntity
  8
03-01
100
AcDbLine
 10
89.44683390031741
 20
146.2677996290714
 30
0.0
 11
91.64683390031768
 21
146.2677996290714
 31
0.0
  0
LINE
  5
391
330
2
100
AcDbEntity
  8
0
100
AcDbLine
 10
89.44683390031741
 20
145.2677996290714
 30
0.0
 11
94.77659839113744
 21
145.2677996290714
 31
0.0
  0
LINE
  5
392
330
2
100
AcDbEntity
  8
03-01
100
AcDbLine
 10
89.44683390031741
 20
146.2677996290714
 30
0.0
 11
89.44683390031741
 21
145.2677996290714
 31
0.0
  0
LINE
  5
393
330
2
100
AcDbEntity
  8
0
100
AcDbLine
 10
76.64683390031723
 20
149.9677996290722
 30
0.0
 11
163.6468339003172
 21
149.9677996290722
 31
0.0
  0
LINE
  5
394
330
2
100
AcDbEntity
  8
0
100
AcDbLine
 10
100.1468339003177
 20
148.9677996290722
 30
0.0
 11
130.1468339003177
 21
148.9677996290722
 31
0.0
  0
ARC
  5
395
330
2
100
AcDbEntity
  8
0
100
AcDbCircle
 10
382.0075452034609
 20
213.2344045430023
 30
0.0
 40
0.3
100
AcDbArc
 50
280.0000769541885
 51
34.9999999999977
  0
LINE
  5
396
330
2
100
AcDbEntity
  8
0
100
AcDbLine
 10
377.6384008200557
 20
219.9972234240173
 30
0.0
 11
382.2532908167477
 21
213.4064774739075
 31
0.0
  0
LINE
  5
397
330
2
100
AcDbEntity
  8
0
100
AcDbLine
 10
368.6276593370951
 20
213.6879811603434
 30
0.0
 11
370.4610120015636
 21
211.0696822069275
 31
0.0
  0
ARC
  5
398
330
2
100
AcDbEntity
  8
0
100
AcDbCircle
 10
377.1291411978164
 20
222.0821851751422
 30
0.0
 40
2.0
100
AcDbArc
 50
304.9999999999971
 51
0.0
  0
LINE
  5
399
330
2
100
AcDbEntity
  8
0
100
AcDbLine
 10
375.5450578023209
 20
218.5314488629405
 30
0.0
 11
378.2762940705183
 21
220.4438810865644
 31
0.0
  0
LWPOLYLINE
  5
39A
330
2
100
AcDbEntity
  8
0
100
AcDbPolyline
 90
        9
 70
     0
 43
0.0
 10
379.6509063447402
 20
212.5142342090923
 10
379.946482052891
 20
212.5663286686259
 10
380.2306956256316
 20
212.616456174882
 10
380.4926282370971
 20
212.662649774583
 10
380.7222067023204
 20
212.7031213283855
 10
380.9106207097457
 20
212.7363509178477
 10
381.0506208444522
 20
212.7610272407848
 10
381.1368352378295
 20
212.7762264252025
 10
381.1659446562217
 20
212.7813524246532
  0
ARC
  5
39B
330
2
100
AcDbEntity
  8
0
100
AcDbCircle
 10
370.7067576148504
 20
211.2417551378329
 30
0.0
 40
0.3
100
AcDbArc
 50
214.9999999999977
 51
280.0000769541885
  0
LINE
  5
39C
330
2
100
AcDbEntity
  8
0
100
AcDbLine
 10
370.7588524649602
 20
210.9463128818976
 30
0.0
 11
382.0596400535708
 21
212.9389622870671
 31
0.0
  0
LINE
  5
39D
330
2
100
AcDbEntity
  8
0
100
AcDbLine
 10
369.8809507885865
 20
227.0146988858118
 30
0.0
 11
377.3162161130195
 21
232.4067704527512
 31
0.0
  0
LINE
  5
39E
330
2
100
AcDbEntity
  8
0
100
AcDbLine
 10
377.7291411978165
 20
233.2163030610749
 30
0.0
 11
377.7291411978165
 21
290.9567461870796
 31
0.0
  0
ARC
  5
39F
330
2
100
AcDbEntity
  8
0
100
AcDbCircle
 10
369.4891411978165
 20
290.9567461870796
 30
0.0
 40
9.639999999999981
100
AcDbArc
 50
0.0
 51
20.00000000001779
  0
ARC
  5
3A0
330
2
100
AcDbEntity
  8
0
100
AcDbCircle
 10
369.4891411978165
 20
290.9567461870796
 30
0.0
 40
8.23999999999998
100
AcDbArc
 50
0.0
 51
20.00000000001779
  0
ARC
  5
3A1
330
2
100
AcDbEntity
  8
03-01
100
AcDbCircle
 10
360.3027603484814
 20
326.8387681537321
 30
0.0
 40
6.0
100
AcDbArc
 50
20.00000000000371
 51
90.0
  0
LINE
  5
3A2
330
2
100
AcDbEntity
  8
03-01
100
AcDbLine
 10
366.3316665646856
 20
327.8173108616798
 30
0.0
 11
365.9409160731968
 21
328.8908890136862
 31
0.0
  0
LINE
  5
3A3
330
2
100
AcDbEntity
  8
0
100
AcDbLine
 10
378.5477780621925
 20
294.2538203687389
 30
0.0
 11
366.3316665646856
 21
327.8173108616798
 31
0.0
  0
LINE
  5
3A4
330
2
100
AcDbEntity
  8
0
100
AcDbLine
 10
377.2322083930924
 20
293.7749921680831
 30
0.0
 11
367.9768358537108
 21
319.2039192286746
 31
0.0
  0
ARC
  5
3A5
330
2
100
AcDbEntity
  8
0
100
AcDbCircle
 10
360.9291411978166
 20
316.638768153732
 30
0.0
 40
7.500000000000028
100
AcDbArc
 50
20.00000000001779
 51
90.0
  0
LINE
  5
3A6
330
2
100
AcDbEntity
  8
0
100
AcDbLine
 10
360.9291411978166
 20
324.138768153732
 30
0.0
 11
344.3291411978162
 21
324.1387681537323
 31
0.0
  0
ARC
  5
3A7
330
2
100
AcDbEntity
  8
0
100
AcDbCircle
 10
376.7291411978165
 20
233.2163030610749
 30
0.0
 40
1.000000000000005
100
AcDbArc
 50
305.9497089065578
 51
0.0
  0
LINE
  5
3A8
330
2
100
AcDbEntity
  8
0
100
AcDbLine
 10
386.1291411978164
 20
225.238768153732
 30
0.0
 11
379.1291411978161
 21
225.238768153732
 31
0.0
  0
LINE
  5
3A9
330
2
100
AcDbEntity
  8
0
100
AcDbLine
 10
386.1291411978164
 20
273.238768153732
 30
0.0
 11
379.1291411978164
 21
273.238768153732
 31
0.0
  0
ARC
  5
3AA
330
2
100
AcDbEntity
  8
0
100
AcDbCircle
 10
361.136430166247
 20
317.2387681537319
 30
0.0
 40
8.5
100
AcDbArc
 50
20.00000000000371
 51
90.0
  0
LINE
  5
3AB
330
2
100
AcDbEntity
  8
0
100
AcDbLine
 10
361.136430166247
 20
325.7387681537319
 30
0.0
 11
344.3291411978162
 21
325.7387681537319
 31
0.0
  0
LINE
  5
3AC
330
2
100
AcDbEntity
  8
0
100
AcDbLine
 10
357.6698801956162
 20
332.8387681537321
 30
0.0
 11
344.3291411978162
 21
332.8387681537323
 31
0.0
  0
LINE
  5
3AD
330
2
100
AcDbEntity
  8
03-01
100
AcDbLine
 10
360.3027603484814
 20
332.8387681537321
 30
0.0
 11
357.6698801956162
 21
332.8387681537321
 31
0.0
  0
LINE
  5
3AE
330
2
100
AcDbEntity
  8
0
100
AcDbLine
 10
386.1291411978164
 20
273.238768153732
 30
0.0
 11
386.1291411978164
 21
225.238768153732
 31
0.0
  0
LINE
  5
3AF
330
2
100
AcDbEntity
  8
0
100
AcDbLine
 10
379.1291411978161
 20
225.238768153732
 30
0.0
 11
379.1291411978164
 21
222.0821851751424
 31
0.0
  0
LINE
  5
3B0
330
2
100
AcDbEntity
  8
0
100
AcDbLine
 10
379.1291411978164
 20
290.9567461870796
 30
0.0
 11
379.1291411978164
 21
273.238768153732
 31
0.0
  0
LINE
  5
3B1
330
2
100
AcDbEntity
  8
09-01
100
AcDbLine
 10
77.64683390031724
 20
376.4435349509507
 30
0.0
 11
76.64683390031723
 21
376.4435349509507
 31
0.0
  0
ARC
  5
3B2
330
2
100
AcDbEntity
  8
0
100
AcDbCircle
 10
158.6468339003172
 20
213.2387681537319
 30
0.0
 40
5.0
100
AcDbArc
 50
270.0
 51
0.0
  0
LINE
  5
3B3
330
2
100
AcDbEntity
  8
05-01
100
AcDbLine
 10
334.8291411978166
 20
373.2387681537308
 30
0.0
 11
327.8291411978166
 21
373.2387681537308
 31
0.0
  0
LINE
  5
3B4
330
2
100
AcDbEntity
  8
09-01
100
AcDbLine
 10
76.64683390031768
 20
242.5391396571807
 30
0.0
 11
77.64683390031769
 21
242.5391396571807
 31
0.0
  0
LINE
  5
3B5
330
2
100
AcDbEntity
  8
0
100
AcDbLine
 10
76.64683390031723
 20
382.2387681537319
 30
0.0
 11
76.64683390031768
 21
208.2387681537319
 31
0.0
  0
LINE
  5
3B6
330
2
100
AcDbEntity
  8
0
100
AcDbLine
 10
332.3291411978159
 20
208.2387681537319
 30
0.0
 11
331.3291411978162
 21
208.2387681537319
 31
0.0
  0
ARC
  5
3B7
330
2
100
AcDbEntity
  8
0
100
AcDbCircle
 10
369.2291411978156
 20
220.4469637923884
 30
0.0
 40
6.600000000000363
100
AcDbArc
 50
278.5298168651625
 51
84.3322856700442
  0
DIMENSION
  5
3B8
330
2
100
AcDbEntity
  8
09-01
100
AcDbDimension
280
     0
  2
*D0
 10
57.79399427265161
 20
382.2387681537319
 30
0.0
 11
53.28376234904991
 21
295.2387681537319
 31
0.0
 71
     5
 42
174.0
 73
     0
 74
     0
 75
     0
  3
Wagner$0
100
AcDbAlignedDimension
 13
76.64683390031768
 23
208.2387681537319
 33
0.0
 14
78.09022322560349
 24
382.2387681537319
 34
0.0
 50
90.0
100
AcDbRotatedDimension
1001
ACAD
1000
DSTYLE
1002
{
1070
    40
1040
2.0
1070
   179
1070
     8
1070
   271
1070
     8
1070
   272
1070
     8
1002
}
  0
ARC
  5
3C5
330
2
100
AcDbEntity
  8
03-01
100
AcDbCircle
 10
150.1468339003177
 20
361.238768153731
 30
0.0
 40
6.25
100
AcDbArc
 50
51.73814437676583
 51
66.42182152179248
  0
ARC
  5
3C6
330
2
100
AcDbEntity
  8
0
100
AcDbCircle
 10
150.1468339003177
 20
361.238768153731
 30
0.0
 40
6.25
100
AcDbArc
 50
306.7585618629198
 51
51.73814437676583
  0
LINE
  5
3C7
330
2
100
AcDbEntity
  8
05-01
100
AcDbLine
 10
157.3968339003177
 20
361.238768153731
 30
0.0
 11
142.8968339003177
 21
361.238768153731
 31
0.0
  0
LINE
  5
3C8
330
2
100
AcDbEntity
  8
05-01
100
AcDbLine
 10
153.6468339003176
 20
373.238768153731
 30
0.0
 11
146.6468339003177
 21
373.238768153731
 31
0.0
  0
LINE
  5
3C9
330
2
100
AcDbEntity
  8
03-01
100
AcDbLine
 10
152.6468339003177
 20
373.238768153731
 30
0.0
 11
152.6468339003177
 21
366.9669877724262
 31
0.0
  0
ARC
  5
3CA
330
2
100
AcDbEntity
  8
03-01
100
AcDbCircle
 10
150.1468339003177
 20
373.238768153731
 30
0.0
 40
2.5
100
AcDbArc
 50
0.0
 51
126.8698976458456
  0
LINE
  5
3CB
330
2
100
AcDbEntity
  8
05-01
100
AcDbLine
 10
150.1468339003177
 20
376.738768153731
 30
0.0
 11
150.1468339003177
 21
353.988768153731
 31
0.0
  0
LINE
  5
3CC
330
2
100
AcDbEntity
  8
05-01
100
AcDbLine
 10
116.6468339003177
 20
246.7387681537829
 30
0.0
 11
123.6468339003177
 21
246.7387681537829
 31
0.0
  0
ARC
  5
3CD
330
2
100
AcDbEntity
  8
03-01
100
AcDbCircle
 10
120.1468339003177
 20
234.7387681537829
 30
0.0
 40
6.25
100
AcDbArc
 50
113.5781784782075
 51
66.42182152179251
  0
LINE
  5
3CE
330
2
100
AcDbEntity
  8
05-01
100
AcDbLine
 10
112.8968339003177
 20
234.7387681537829
 30
0.0
 11
127.3968339003177
 21
234.7387681537829
 31
0.0
  0
LINE
  5
3CF
330
2
100
AcDbEntity
  8
03-01
100
AcDbLine
 10
117.6468339003177
 20
246.7387681537829
 30
0.0
 11
117.6468339003177
 21
240.4669877724772
 31
0.0
  0
ARC
  5
3D0
330
2
100
AcDbEntity
  8
03-01
100
AcDbCircle
 10
120.1468339003177
 20
246.7387681537829
 30
0.0
 40
2.5
100
AcDbArc
 50
0.0
 51
180.0
  0
LINE
  5
3D1
330
2
100
AcDbEntity
  8
03-01
100
AcDbLine
 10
122.6468339003177
 20
240.4669877724772
 30
0.0
 11
122.6468339003177
 21
246.7387681537829
 31
0.0
  0
ARC
  5
3D2
330
2
100
AcDbEntity
  8
0
100
AcDbCircle
 10
90.14683390031768
 20
361.238768153731
 30
0.0
 40
6.25
100
AcDbArc
 50
141.0058741957938
 51
220.4974195645205
  0
ARC
  5
3D3
330
2
100
AcDbEntity
  8
03-01
100
AcDbCircle
 10
90.14683390031768
 20
361.238768153731
 30
0.0
 40
6.25
100
AcDbArc
 50
113.5781784782075
 51
141.0058741957938
  0
LINE
  5
3D4
330
2
100
AcDbEntity
  8
05-01
100
AcDbLine
 10
82.89683390031768
 20
361.238768153731
 30
0.0
 11
97.39683390031769
 21
361.238768153731
 31
0.0
  0
LINE
  5
3D5
330
2
100
AcDbEntity
  8
05-01
100
AcDbLine
 10
86.64683390031768
 20
373.238768153731
 30
0.0
 11
93.64683390031769
 21
373.238768153731
 31
0.0
  0
LINE
  5
3D6
330
2
100
AcDbEntity
  8
03-01
100
AcDbLine
 10
87.64683390031768
 20
373.238768153731
 30
0.0
 11
87.64683390031768
 21
366.9669877724262
 31
0.0
  0
ARC
  5
3D7
330
2
100
AcDbEntity
  8
03-01
100
AcDbCircle
 10
90.14683390031768
 20
373.238768153731
 30
0.0
 40
2.5
100
AcDbArc
 50
78.46304096718838
 51
180.0
  0
LINE
  5
3D8
330
2
100
AcDbEntity
  8
05-01
100
AcDbLine
 10
90.14683390031768
 20
376.738768153731
 30
0.0
 11
90.14683390031768
 21
353.988768153731
 31
0.0
  0
ARC
  5
3D9
330
2
100
AcDbEntity
  8
0
100
AcDbCircle
 10
332.3857518725308
 20
380.2387681537319
 30
0.0
 40
2.0
100
AcDbArc
 50
65.0000000000218
 51
90.0
  0
ARC
  5
3DA
330
2
100
AcDbEntity
  8
0
100
AcDbCircle
 10
342.3291411978162
 20
375.6020895633345
 30
0.0
 40
2.0
100
AcDbArc
 50
0.0
 51
65.0000000000218
  0
LINE
  5
3DB
330
2
100
AcDbEntity
  8
0
100
AcDbLine
 10
333.230988396012
 20
382.0513837278057
 30
0.0
 11
343.1743777212978
 21
377.4147051374083
 31
0.0
  0
LINE
  5
3DC
330
2
100
AcDbEntity
  8
0
100
AcDbLine
 10
331.3291411978162
 20
382.2387681537319
 30
0.0
 11
332.3857518725308
 21
382.2387681537319
 31
0.0
  0
LINE
  5
3DD
330
2
100
AcDbEntity
  8
03-01
100
AcDbLine
 10
332.3291411978166
 20
382.2387681537319
 30
0.0
 11
332.3291411978162
 21
208.2387681537319
 31
0.0
  0
LINE
  5
3DE
330
2
100
AcDbEntity
  8
0
100
AcDbLine
 10
331.3291411978166
 20
382.2387681537319
 30
0.0
 11
331.3291411978162
 21
208.2387681537319
 31
0.0
  0
LINE
  5
3DF
330
2
100
AcDbEntity
  8
0
100
AcDbLine
 10
344.3291411978155
 20
233.4389681278572
 30
0.0
 11
344.3291411978166
 21
375.6020895633345
 31
0.0
  0
ARC
  5
3E0
330
2
100
AcDbEntity
  8
0
100
AcDbCircle
 10
158.6468339003172
 20
377.238768153732
 30
0.0
 40
5.0
100
AcDbArc
 50
0.0
 51
90.0
  0
LINE
  5
3E1
330
2
100
AcDbEntity
  8
0
100
AcDbLine
 10
163.6468339003172
 20
377.238768153732
 30
0.0
 11
163.6468339003172
 21
213.2387681537319
 31
0.0
  0
LINE
  5
3E2
330
2
100
AcDbEntity
  8
0
100
AcDbLine
 10
77.64683390031724
 20
382.2387681537319
 30
0.0
 11
77.64683390031769
 21
208.2387681537319
 31
0.0
  0
LINE
  5
3E3
330
2
100
AcDbEntity
  8
0
100
AcDbLine
 10
76.64683390031768
 20
208.2387681537319
 30
0.0
 11
158.6468339003172
 21
208.2387681537319
 31
0.0
  0
LINE
  5
3E4
330
2
100
AcDbEntity
  8
0
100
AcDbLine
 10
154.2283125261458
 20
382.2387681537318
 30
0.0
 11
158.6468339003172
 21
382.2387681537319
 31
0.0
  0
LINE
  5
3E5
330
2
100
AcDbEntity
  8
0
100
AcDbLine
 10
76.64683390031723
 20
382.2387681537319
 30
0.0
 11
85.06535527449042
 21
382.2387681537319
 31
0.0
  0
ENDSEC
  0
SECTION
  2
OBJECTS
  0
DICTIONARY
  5
B
330
0
100
AcDbDictionary
281
     1
  3
ACAD_COLOR
350
4D
  3
ACAD_GROUP
350
3A
  3
ACAD_LAYOUT
350
18
  3
ACAD_MATERIAL
350
D
  3
ACAD_MLEADERSTYLE
350
50
  3
ACAD_MLINESTYLE
350
3B
  3
ACAD_PLOTSETTINGS
350
3C
  3
ACAD_PLOTSTYLENAME
350
A
  3
ACAD_SCALELIST
350
4E
  3
ACAD_TABLESTYLE
350
4F
  3
ACAD_VISUALSTYLE
350
31
  3
ACDB_RECOMPOSE_DATA
350
3F2
  3
AcDbVariableDictionary
350
3E8
  0
DICTIONARY
  5
32
330
2E
100
AcDbDictionary
280
     1
281
     1
  0
DICTIONARY
  5
21
330
20
100
AcDbDictionary
280
     1
281
     1
  3
ACAD_LAYERFILTERS
360
22
  3
ACAD_LAYERSTATES
360
23
  3
ACLYDICTIONARY
360
24
  0
DICTIONARY
  5
7
330
6
100
AcDbDictionary
280
     1
281
     1
  3
ADSK_XREC_LAYER_RECONCILED
360
8
  0
DICTIONARY
  5
263
330
262
100
AcDbDictionary
280
     1
281
     1
  3
ADSK_XREC_LAYER_RECONCILED
360
264
  0
DICTIONARY
  5
2A0
330
29F
100
AcDbDictionary
280
     1
281
     1
  3
ADSK_XREC_LAYER_RECONCILED
360
2A1
  0
DICTIONARY
  5
28A
330
289
100
AcDbDictionary
280
     1
281
     1
  3
ADSK_XREC_LAYER_RECONCILED
360
28B
  0
DICTIONARY
  5
BE
330
BD
100
AcDbDictionary
280
     1
281
     1
  3
ADSK_XREC_LAYER_RECONCILED
360
BF
  0
DICTIONARY
  5
B7
330
B6
100
AcDbDictionary
280
     1
281
     1
  3
ADSK_XREC_LAYER_RECONCILED
360
B8
  0
DICTIONARY
  5
79
330
78
100
AcDbDictionary
280
     1
281
     1
  3
ADSK_XREC_LAYER_RECONCILED
360
7A
  0
DICTIONARY
  5
15B
330
15A
100
AcDbDictionary
280
     1
281
     1
  0
DICTIONARY
  5
3
330
2
100
AcDbDictionary
280
     1
281
     1
  3
ACAD_SORTENTS
360
3E7
  0
DICTIONARY
  5
25E
330
25D
100
AcDbDictionary
280
     1
281
     1
  3
ACAD_SORTENTS
360
3E6
  0
DICTIONARY
  5
4D
102
{ACAD_REACTORS
330
B
102
}
330
B
100
AcDbDictionary
281
     1
  0
DICTIONARY
  5
3A
102
{ACAD_REACTORS
330
B
102
}
330
B
100
AcDbDictionary
281
     1
  0
DICTIONARY
  5
18
102
{ACAD_REACTORS
330
B
102
}
330
B
100
AcDbDictionary
281
     1
  3
Layout1
350
1F
  3
Model
350
17
  0
DICTIONARY
  5
D
102
{ACAD_REACTORS
330
B
102
}
330
B
100
AcDbDictionary
281
     1
  3
ByBlock
350
45
  3
ByLayer
350
3D
  3
Global
350
C
  0
DICTIONARY
  5
50
102
{ACAD_REACTORS
330
B
102
}
330
B
100
AcDbDictionary
281
     1
  0
DICTIONARY
  5
3B
102
{ACAD_REACTORS
330
B
102
}
330
B
100
AcDbDictionary
281
     1
  3
STANDARD
350
51
  0
DICTIONARY
  5
3C
102
{ACAD_REACTORS
330
B
102
}
330
B
100
AcDbDictionary
281
     1
  0
ACDBDICTIONARYWDFLT
  5
A
102
{ACAD_REACTORS
330
B
102
}
330
B
100
AcDbDictionary
281
     1
  3
Normal
350
9
100
AcDbDictionaryWithDefault
340
9
  0
DICTIONARY
  5
4E
102
{ACAD_REACTORS
330
B
102
}
330
B
100
AcDbDictionary
281
     1
  3
A0
350
56
  3
A1
350
57
  3
A2
350
58
  3
A3
350
59
  3
A4
350
5A
  3
A5
350
5B
  3
A6
350
5C
  3
A7
350
5D
  3
A8
350
5E
  3
A9
350
5F
  3
B0
350
60
  3
B1
350
61
  3
B2
350
62
  3
B3
350
63
  3
B4
350
64
  3
B5
350
65
  3
B6
350
66
  3
B7
350
67
  3
B8
350
68
  3
B9
350
69
  3
C0
350
6A
  3
C1
350
6B
  3
C2
350
6C
  3
C3
350
6D
  3
C4
350
6E
  3
C5
350
6F
  3
C6
350
70
  3
C7
350
71
  3
C8
350
72
  3
C9
350
73
  3
D0
350
74
  3
D1
350
75
  3
D2
350
76
  0
DICTIONARY
  5
4F
102
{ACAD_REACTORS
330
B
102
}
330
B
100
AcDbDictionary
281
     1
  3
Standard
350
52
  0
DICTIONARY
  5
31
102
{ACAD_REACTORS
330
B
102
}
330
B
100
AcDbDictionary
281
     1
  3
2dWireframe
350
30
  3
3dWireframe
350
55
  3
Realistic
350
54
  0
XRECORD
  5
3F2
102
{ACAD_REACTORS
330
B
102
}
330
B
100
AcDbXrecord
280
     1
 90
        1
330
52
  0
DICTIONARY
  5
3E8
102
{ACAD_REACTORS
330
B
102
}
330
B
100
AcDbDictionary
281
     1
  3
CANNOSCALE
350
3EC
  3
CMLEADERSTYLE
350
3EA
  3
CTABLESTYLE
350
3E9
  3
LAYEREVAL
350
3EE
  3
LAYERNOTIFY
350
3EF
  3
LIGHTINGUNITS
350
3ED
  3
MSLTSCALE
350
3EB
  0
DICTIONARY
  5
22
102
{ACAD_REACTORS
330
21
102
}
330
21
100
AcDbDictionary
281
     1
  0
DICTIONARY
  5
23
102
{ACAD_REACTORS
330
21
102
}
330
21
100
AcDbDictionary
281
     1
  0
DICTIONARY
  5
24
102
{ACAD_REACTORS
330
21
102
}
330
21
100
AcDbDictionary
281
     1
1001
ACAD
1000
<All
  0
XRECORD
  5
8
102
{ACAD_REACTORS
330
7
102
}
330
7
100
AcDbXrecord
280
     1
290
     1
  0
XRECORD
  5
264
102
{ACAD_REACTORS
330
263
102
}
330
263
100
AcDbXrecord
280
     1
290
     1
  0
XRECORD
  5
2A1
102
{ACAD_REACTORS
330
2A0
102
}
330
2A0
100
AcDbXrecord
280
     1
290
     1
  0
XRECORD
  5
28B
102
{ACAD_REACTORS
330
28A
102
}
330
28A
100
AcDbXrecord
280
     1
290
     1
  0
XRECORD
  5
BF
102
{ACAD_REACTORS
330
BE
102
}
330
BE
100
AcDbXrecord
280
     1
290
     1
  0
XRECORD
  5
B8
102
{ACAD_REACTORS
330
B7
102
}
330
B7
100
AcDbXrecord
280
     1
290
     1
  0
XRECORD
  5
7A
102
{ACAD_REACTORS
330
79
102
}
330
79
100
AcDbXrecord
280
     1
290
     1
  0
SORTENTSTABLE
  5
3E7
102
{ACAD_REACTORS
330
3
102
}
330
3
100
AcDbSortentsTable
330
2
331
386
  5
373
331
382
  5
383
331
B5
  5
3E1
331
127
  5
3B2
331
A9
  5
3E2
331
123
  5
3B6
331
347
  5
39A
331
343
  5
39E
331
3B5
  5
124
331
372
  5
387
331
3B1
  5
161
331
36E
  5
38B
331
3AD
  5
1F3
331
3A9
  5
25C
331
3E4
  5
8B
331
3E0
  5
FA
331
24F
  5
3AA
331
11F
  5
3C6
331
11B
  5
3CA
331
117
  5
3CE
331
113
  5
3D2
331
2F0
  5
3A7
331
3A5
  5
2FE
331
3A1
  5
332
331
3DC
  5
109
331
35E
  5
38F
331
39D
  5
344
331
3D8
  5
10D
331
399
  5
348
331
3D4
  5
111
331
3D0
  5
115
331
10F
  5
3D6
331
10B
  5
3DA
331
107
  5
3DE
331
395
  5
34C
331
391
  5
35C
331
3CC
  5
119
331
34E
  5
393
331
38D
  5
360
331
3C8
  5
11D
331
34A
  5
397
331
389
  5
370
331
385
  5
374
331
381
  5
384
331
3B8
  5
121
331
126
  5
3B3
331
161
  5
3B1
331
122
  5
3B7
331
30B
  5
3A4
331
346
  5
39B
331
342
  5
39F
331
3B4
  5
125
331
371
  5
388
331
3B0
  5
170
331
36D
  5
38C
331
3AC
  5
235
331
3A8
  5
2E3
331
3E3
  5
9A
331
11E
  5
3C7
331
11A
  5
3CB
331
116
  5
3CF
331
242
  5
3AB
331
112
  5
3D3
331
332
  5
3A1
331
3A4
  5
30B
331
3DF
  5
106
331
3A0
  5
341
331
3DB
  5
10A
331
35D
  5
390
331
39C
  5
345
331
3D7
  5
10E
331
398
  5
349
331
3D3
  5
112
331
10E
  5
3D7
331
10A
  5
3DB
331
17D
  5
3AF
331
106
  5
3DF
331
1F3
  5
3AD
331
2E3
  5
3A8
331
394
  5
34D
331
3CF
  5
116
331
390
  5
35D
331
3CB
  5
11A
331
34D
  5
394
331
38C
  5
36D
331
3C7
  5
11E
331
349
  5
398
331
388
  5
371
331
FA
  5
3E0
331
384
  5
381
331
125
  5
3B4
331
121
  5
3B8
331
345
  5
39C
331
341
  5
3A0
331
3B7
  5
122
331
3B3
  5
126
331
374
  5
385
331
370
  5
389
331
3AF
  5
17D
331
3AB
  5
242
331
3E2
  5
A9
331
11D
  5
3C8
331
119
  5
3CC
331
18C
  5
3AE
331
115
  5
3D0
331
111
  5
3D4
331
2FE
  5
3A5
331
3A7
  5
2F0
331
3A3
  5
318
331
3DE
  5
107
331
360
  5
38D
331
39F
  5
342
331
3DA
  5
10B
331
35C
  5
391
331
39B
  5
346
331
3D6
  5
10F
331
3D2
  5
113
331
10D
  5
3D8
331
109
  5
3DC
331
235
  5
3AC
331
8B
  5
3E4
331
325
  5
3A2
331
397
  5
34A
331
393
  5
34E
331
3CE
  5
117
331
38F
  5
35E
331
3CA
  5
11B
331
34C
  5
395
331
38B
  5
36E
331
3C6
  5
11F
331
348
  5
399
331
170
  5
3B0
331
25C
  5
3A9
331
387
  5
372
331
383
  5
382
331
77
  5
3E5
331
124
  5
3B5
331
120
  5
3C5
331
344
  5
39D
331
3B6
  5
123
331
3B2
  5
127
331
373
  5
386
331
36F
  5
38A
331
3AE
  5
18C
331
3AA
  5
24F
331
3E5
  5
77
331
3E1
  5
B5
331
11C
  5
3C9
331
118
  5
3CD
331
9A
  5
3E3
331
114
  5
3D1
331
110
  5
3D5
331
2FD
  5
3A6
331
3A6
  5
2FD
331
3A2
  5
325
331
3DD
  5
108
331
35F
  5
38E
331
39E
  5
343
331
3D9
  5
10C
331
39A
  5
347
331
3D5
  5
110
331
3D1
  5
114
331
10C
  5
3D9
331
108
  5
3DD
331
396
  5
34B
331
392
  5
34F
331
3CD
  5
118
331
34F
  5
392
331
38E
  5
35F
331
3C9
  5
11C
331
34B
  5
396
331
38A
  5
36F
331
3C5
  5
120
331
318
  5
3A3
  0
SORTENTSTABLE
  5
3E6
102
{ACAD_REACTORS
330
25E
102
}
330
25E
100
AcDbSortentsTable
330
25D
  0
LAYOUT
  5
1F
102
{ACAD_REACTORS
330
18
102
}
330
18
100
AcDbPlotSettings
  1

  2
HP LaserJet 4 Plus
  4

  6

 40
0.0
 41
0.0
 42
0.0
 43
0.0
 44
0.0
 45
0.0
 46
0.0
 47
0.0
 48
0.0
 49
0.0
140
0.0
141
0.0
142
1.0
143
1.0
 70
   688
 72
     0
 73
     0
 74
     5
  7
CNC-Soft.ctb
 75
    16
147
1.0
 76
     0
 77
     2
 78
   300
148
0.0
149
0.0
100
AcDbLayout
  1
Layout1
 70
     1
 71
     1
 10
0.0
 20
0.0
 11
420.0
 21
297.0
 12
0.0
 22
0.0
 32
0.0
 14
1.000000000000000E+20
 24
1.000000000000000E+20
 34
1.000000000000000E+20
 15
-1.000000000000000E+20
 25
-1.000000000000000E+20
 35
-1.000000000000000E+20
146
0.0
 13
0.0
 23
0.0
 33
0.0
 16
1.0
 26
0.0
 36
0.0
 17
0.0
 27
1.0
 37
0.0
 76
     0
330
1C
  0
LAYOUT
  5
17
102
{ACAD_XDICTIONARY
360
19
102
}
102
{ACAD_REACTORS
330
18
102
}
330
18
100
AcDbPlotSettings
  1

  2
\\SBS01\KMC364e s/w
  4
A4
  6

 40
5.027082920074462
 41
5.027099609375
 42
5.027069091796875
 43
5.027069091796875
 44
209.9733276367187
 45
296.9259948730469
 46
0.0
 47
0.0
 48
-1524.36259419634
 49
-3374.216867175878
140
-1104.36259419634
141
-2780.216867175878
142
1.0
143
2.100848999038186
 70
  3760
 72
     1
 73
     0
 74
     4
  7
monochrome.ctb
 75
     0
147
0.4759980372020177
 76
     1
 77
     2
 78
   300
148
1524.36259419634
149
3374.216867175878
100
AcDbLayout
  1
Model
 70
     1
 71
     0
 10
0.0
 20
0.0
 11
12.0
 21
9.0
 12
0.0
 22
0.0
 32
0.0
 14
0.0
 24
0.0
 34
0.0
 15
0.0
 25
0.0
 35
0.0
146
0.0
 13
0.0
 23
0.0
 33
0.0
 16
1.0
 26
0.0
 36
0.0
 17
0.0
 27
1.0
 37
0.0
 76
     0
330
2
331
2F
1001
ACAD_PSEXT
1000
\\SBS01\KMC364e s/w
1000
KONICA MINOLTA C364SeriesPCL
1000
2.Stock
1000
schwarzweiss
1070
     0
  0
MATERIAL
  5
45
102
{ACAD_XDICTIONARY
360
46
102
}
102
{ACAD_REACTORS
330
D
102
}
330
D
100
AcDbMaterial
  1
ByBlock
 72
     0
 43
0.0208333333333333
 43
0.0
 43
0.0
 43
0.0
 43
0.0
 43
0.0208333333333333
 43
0.0
 43
0.0
 43
0.0
 43
0.0
 43
1.0
 43
0.0
 43
0.0
 43
0.0
 43
0.0
 43
1.0
 77
     0
 47
0.0208333333333333
 47
0.0
 47
0.0
 47
0.0
 47
0.0
 47
0.0208333333333333
 47
0.0
 47
0.0
 47
0.0
 47
0.0
 47
1.0
 47
0.0
 47
0.0
 47
0.0
 47
0.0
 47
1.0
171
     0
 49
0.0208333333333333
 49
0.0
 49
0.0
 49
0.0
 49
0.0
 49
0.0208333333333333
 49
0.0
 49
0.0
 49
0.0
 49
0.0
 49
1.0
 49
0.0
 49
0.0
 49
0.0
 49
0.0
 49
1.0
175
     0
142
0.0208333333333333
142
0.0
142
0.0
142
0.0
142
0.0
142
0.0208333333333333
142
0.0
142
0.0
142
0.0
142
0.0
142
1.0
142
0.0
142
0.0
142
0.0
142
0.0
142
1.0
179
     0
144
0.0208333333333333
144
0.0
144
0.0
144
0.0
144
0.0
144
0.0208333333333333
144
0.0
144
0.0
144
0.0
144
0.0
144
1.0
144
0.0
144
0.0
144
0.0
144
0.0
144
1.0
147
0.0208333333333333
147
0.0
147
0.0
147
0.0
147
0.0
147
0.0208333333333333
147
0.0
147
0.0
147
0.0
147
0.0
147
1.0
147
0.0
147
0.0
147
0.0
147
0.0
147
1.0
  0
MATERIAL
  5
3D
102
{ACAD_XDICTIONARY
360
3E
102
}
102
{ACAD_REACTORS
330
D
102
}
330
D
100
AcDbMaterial
  1
ByLayer
 72
     0
 43
0.0208333333333333
 43
0.0
 43
0.0
 43
0.0
 43
0.0
 43
0.0208333333333333
 43
0.0
 43
0.0
 43
0.0
 43
0.0
 43
1.0
 43
0.0
 43
0.0
 43
0.0
 43
0.0
 43
1.0
 77
     0
 47
0.0208333333333333
 47
0.0
 47
0.0
 47
0.0
 47
0.0
 47
0.0208333333333333
 47
0.0
 47
0.0
 47
0.0
 47
0.0
 47
1.0
 47
0.0
 47
0.0
 47
0.0
 47
0.0
 47
1.0
171
     0
 49
0.0208333333333333
 49
0.0
 49
0.0
 49
0.0
 49
0.0
 49
0.0208333333333333
 49
0.0
 49
0.0
 49
0.0
 49
0.0
 49
1.0
 49
0.0
 49
0.0
 49
0.0
 49
0.0
 49
1.0
175
     0
142
0.0208333333333333
142
0.0
142
0.0
142
0.0
142
0.0
142
0.0208333333333333
142
0.0
142
0.0
142
0.0
142
0.0
142
1.0
142
0.0
142
0.0
142
0.0
142
0.0
142
1.0
179
     0
144
0.0208333333333333
144
0.0
144
0.0
144
0.0
144
0.0
144
0.0208333333333333
144
0.0
144
0.0
144
0.0
144
0.0
144
1.0
144
0.0
144
0.0
144
0.0
144
0.0
144
1.0
147
0.0208333333333333
147
0.0
147
0.0
147
0.0
147
0.0
147
0.0208333333333333
147
0.0
147
0.0
147
0.0
147
0.0
147
1.0
147
0.0
147
0.0
147
0.0
147
0.0
147
1.0
  0
MATERIAL
  5
C
102
{ACAD_XDICTIONARY
360
E
102
}
102
{ACAD_REACTORS
330
D
102
}
330
D
100
AcDbMaterial
  1
Global
 72
     0
 43
0.0208333333333333
 43
0.0
 43
0.0
 43
0.0
 43
0.0
 43
0.0208333333333333
 43
0.0
 43
0.0
 43
0.0
 43
0.0
 43
1.0
 43
0.0
 43
0.0
 43
0.0
 43
0.0
 43
1.0
 77
     0
 47
0.0208333333333333
 47
0.0
 47
0.0
 47
0.0
 47
0.0
 47
0.0208333333333333
 47
0.0
 47
0.0
 47
0.0
 47
0.0
 47
1.0
 47
0.0
 47
0.0
 47
0.0
 47
0.0
 47
1.0
171
     0
 49
0.0208333333333333
 49
0.0
 49
0.0
 49
0.0
 49
0.0
 49
0.0208333333333333
 49
0.0
 49
0.0
 49
0.0
 49
0.0
 49
1.0
 49
0.0
 49
0.0
 49
0.0
 49
0.0
 49
1.0
175
     0
142
0.0208333333333333
142
0.0
142
0.0
142
0.0
142
0.0
142
0.0208333333333333
142
0.0
142
0.0
142
0.0
142
0.0
142
1.0
142
0.0
142
0.0
142
0.0
142
0.0
142
1.0
179
     0
144
0.0208333333333333
144
0.0
144
0.0
144
0.0
144
0.0
144
0.0208333333333333
144
0.0
144
0.0
144
0.0
144
0.0
144
1.0
144
0.0
144
0.0
144
0.0
144
0.0
144
1.0
147
0.0208333333333333
147
0.0
147
0.0
147
0.0
147
0.0
147
0.0208333333333333
147
0.0
147
0.0
147
0.0
147
0.0
147
1.0
147
0.0
147
0.0
147
0.0
147
0.0
147
1.0
  0
MLINESTYLE
  5
51
102
{ACAD_REACTORS
330
3B
102
}
330
3B
100
AcDbMlineStyle
  2
STANDARD
 70
     0
  3

 62
   256
 51
90.0
 52
90.0
 71
     2
 49
0.5
 62
   256
  6
BYLAYER
 49
-0.5
 62
   256
  6
BYLAYER
  0
ACDBPLACEHOLDER
  5
9
102
{ACAD_REACTORS
330
A
102
}
330
A
  0
SCALE
  5
56
102
{ACAD_REACTORS
330
4E
102
}
330
4E
100
AcDbScale
 70
     0
300
1:1
140
1.0
141
1.0
290
     1
  0
SCALE
  5
57
102
{ACAD_REACTORS
330
4E
102
}
330
4E
100
AcDbScale
 70
     0
300
1:2
140
1.0
141
2.0
290
     0
  0
SCALE
  5
58
102
{ACAD_REACTORS
330
4E
102
}
330
4E
100
AcDbScale
 70
     0
300
1:4
140
1.0
141
4.0
290
     0
  0
SCALE
  5
59
102
{ACAD_REACTORS
330
4E
102
}
330
4E
100
AcDbScale
 70
     0
300
1:5
140
1.0
141
5.0
290
     0
  0
SCALE
  5
5A
102
{ACAD_REACTORS
330
4E
102
}
330
4E
100
AcDbScale
 70
     0
300
1:8
140
1.0
141
8.0
290
     0
  0
SCALE
  5
5B
102
{ACAD_REACTORS
330
4E
102
}
330
4E
100
AcDbScale
 70
     0
300
1:10
140
1.0
141
10.0
290
     0
  0
SCALE
  5
5C
102
{ACAD_REACTORS
330
4E
102
}
330
4E
100
AcDbScale
 70
     0
300
1:16
140
1.0
141
16.0
290
     0
  0
SCALE
  5
5D
102
{ACAD_REACTORS
330
4E
102
}
330
4E
100
AcDbScale
 70
     0
300
1:20
140
1.0
141
20.0
290
     0
  0
SCALE
  5
5E
102
{ACAD_REACTORS
330
4E
102
}
330
4E
100
AcDbScale
 70
     0
300
1:30
140
1.0
141
30.0
290
     0
  0
SCALE
  5
5F
102
{ACAD_REACTORS
330
4E
102
}
330
4E
100
AcDbScale
 70
     0
300
1:40
140
1.0
141
40.0
290
     0
  0
SCALE
  5
60
102
{ACAD_REACTORS
330
4E
102
}
330
4E
100
AcDbScale
 70
     0
300
1:50
140
1.0
141
50.0
290
     0
  0
SCALE
  5
61
102
{ACAD_REACTORS
330
4E
102
}
330
4E
100
AcDbScale
 70
     0
300
1:100
140
1.0
141
100.0
290
     0
  0
SCALE
  5
62
102
{ACAD_REACTORS
330
4E
102
}
330
4E
100
AcDbScale
 70
     0
300
2:1
140
2.0
141
1.0
290
     0
  0
SCALE
  5
63
102
{ACAD_REACTORS
330
4E
102
}
330
4E
100
AcDbScale
 70
     0
300
4:1
140
4.0
141
1.0
290
     0
  0
SCALE
  5
64
102
{ACAD_REACTORS
330
4E
102
}
330
4E
100
AcDbScale
 70
     0
300
8:1
140
8.0
141
1.0
290
     0
  0
SCALE
  5
65
102
{ACAD_REACTORS
330
4E
102
}
330
4E
100
AcDbScale
 70
     0
300
10:1
140
10.0
141
1.0
290
     0
  0
SCALE
  5
66
102
{ACAD_REACTORS
330
4E
102
}
330
4E
100
AcDbScale
 70
     0
300
100:1
140
100.0
141
1.0
290
     0
  0
SCALE
  5
67
102
{ACAD_REACTORS
330
4E
102
}
330
4E
100
AcDbScale
 70
     0
300
1/128" = 1'-0"
140
0.0078125
141
12.0
290
     0
  0
SCALE
  5
68
102
{ACAD_REACTORS
330
4E
102
}
330
4E
100
AcDbScale
 70
     0
300
1/64" = 1'-0"
140
0.015625
141
12.0
290
     0
  0
SCALE
  5
69
102
{ACAD_REACTORS
330
4E
102
}
330
4E
100
AcDbScale
 70
     0
300
1/32" = 1'-0"
140
0.03125
141
12.0
290
     0
  0
SCALE
  5
6A
102
{ACAD_REACTORS
330
4E
102
}
330
4E
100
AcDbScale
 70
     0
300
1/16" = 1'-0"
140
0.0625
141
12.0
290
     0
  0
SCALE
  5
6B
102
{ACAD_REACTORS
330
4E
102
}
330
4E
100
AcDbScale
 70
     0
300
3/32" = 1'-0"
140
0.09375
141
12.0
290
     0
  0
SCALE
  5
6C
102
{ACAD_REACTORS
330
4E
102
}
330
4E
100
AcDbScale
 70
     0
300
1/8" = 1'-0"
140
0.125
141
12.0
290
     0
  0
SCALE
  5
6D
102
{ACAD_REACTORS
330
4E
102
}
330
4E
100
AcDbScale
 70
     0
300
3/16" = 1'-0"
140
0.1875
141
12.0
290
     0
  0
SCALE
  5
6E
102
{ACAD_REACTORS
330
4E
102
}
330
4E
100
AcDbScale
 70
     0
300
1/4" = 1'-0"
140
0.25
141
12.0
290
     0
  0
SCALE
  5
6F
102
{ACAD_REACTORS
330
4E
102
}
330
4E
100
AcDbScale
 70
     0
300
3/8" = 1'-0"
140
0.375
141
12.0
290
     0
  0
SCALE
  5
70
102
{ACAD_REACTORS
330
4E
102
}
330
4E
100
AcDbScale
 70
     0
300
1/2" = 1'-0"
140
0.5
141
12.0
290
     0
  0
SCALE
  5
71
102
{ACAD_REACTORS
330
4E
102
}
330
4E
100
AcDbScale
 70
     0
300
3/4" = 1'-0"
140
0.75
141
12.0
290
     0
  0
SCALE
  5
72
102
{ACAD_REACTORS
330
4E
102
}
330
4E
100
AcDbScale
 70
     0
300
1" = 1'-0"
140
1.0
141
12.0
290
     0
  0
SCALE
  5
73
102
{ACAD_REACTORS
330
4E
102
}
330
4E
100
AcDbScale
 70
     0
300
1-1/2" = 1'-0"
140
1.5
141
12.0
290
     0
  0
SCALE
  5
74
102
{ACAD_REACTORS
330
4E
102
}
330
4E
100
AcDbScale
 70
     0
300
3" = 1'-0"
140
3.0
141
12.0
290
     0
  0
SCALE
  5
75
102
{ACAD_REACTORS
330
4E
102
}
330
4E
100
AcDbScale
 70
     0
300
6" = 1'-0"
140
6.0
141
12.0
290
     0
  0
SCALE
  5
76
102
{ACAD_REACTORS
330
4E
102
}
330
4E
100
AcDbScale
 70
     0
300
1'-0" = 1'-0"
140
12.0
141
12.0
290
     0
  0
TABLESTYLE
  5
52
102
{ACAD_XDICTIONARY
360
53
102
}
102
{ACAD_REACTORS
330
4F
102
}
330
4F
100
AcDbTableStyle
280
     0
  3
Standard
 70
     0
 71
     0
 40
1.5
 41
1.5
280
     0
281
     0
  7
STANDARD
140
4.5
170
     2
 62
     0
 63
     7
283
     0
 90
      512
 91
        0
  1

274
    -2
284
     1
 64
     0
275
    -2
285
     1
 65
     0
276
    -2
286
     1
 66
     0
277
    -2
287
     1
 67
     0
278
    -2
288
     1
 68
     0
279
    -2
289
     1
 69
     0
  7
STANDARD
140
6.0
170
     5
 62
     0
 63
     7
283
     0
 90
      512
 91
        0
  1

274
    -2
284
     1
 64
     0
275
    -2
285
     1
 65
     0
276
    -2
286
     1
 66
     0
277
    -2
287
     1
 67
     0
278
    -2
288
     1
 68
     0
279
    -2
289
     1
 69
     0
  7
STANDARD
140
4.5
170
     5
 62
     0
 63
     7
283
     0
 90
      512
 91
        0
  1

274
    -2
284
     1
 64
     0
275
    -2
285
     1
 65
     0
276
    -2
286
     1
 66
     0
277
    -2
287
     1
 67
     0
278
    -2
288
     1
 68
     0
279
    -2
289
     1
 69
     0
  0
VISUALSTYLE
  5
30
102
{ACAD_REACTORS
330
31
102
}
330
31
100
AcDbVisualStyle
  2
2dWireframe
 70
     4
177
     2
291
     0
 71
     0
176
     1
 72
     2
176
     1
 73
     0
176
     1
 90
        0
176
     1
 40
0.6
176
     1
 41
30.0
176
     1
 63
     7
176
     1
 74
     1
176
     1
 91
        4
176
     1
 64
     7
176
     1
 65
   257
176
     1
 75
     1
176
     1
175
     1
176
     1
 42
1.0
176
     1
 92
        0
176
     1
 66
   257
176
     1
 43
1.0
176
     1
 76
     1
176
     1
 77
     6
176
     1
 78
     2
176
     1
 67
     7
176
     1
 79
     5
176
     1
170
     0
176
     1
171
     0
176
     1
290
     0
176
     1
 93
        1
176
     1
 44
0.0
176
     1
173
     0
176
     1
  0
VISUALSTYLE
  5
55
102
{ACAD_REACTORS
330
31
102
}
330
31
100
AcDbVisualStyle
  2
3dWireframe
 70
     5
177
     2
291
     0
 71
     0
176
     1
 72
     2
176
     1
 73
     0
176
     1
 90
        0
176
     1
 40
0.6
176
     1
 41
30.0
176
     1
 63
     7
176
     1
 74
     1
176
     1
 91
        4
176
     1
 64
     7
176
     1
 65
   257
176
     1
 75
     1
176
     1
175
     1
176
     1
 42
1.0
176
     1
 92
        0
176
     1
 66
   257
176
     1
 43
1.0
176
     1
 76
     1
176
     1
 77
     6
176
     1
 78
     2
176
     1
 67
     7
176
     1
 79
     5
176
     1
170
     0
176
     1
171
     0
176
     1
290
     0
176
     1
 93
        1
176
     1
 44
0.0
176
     1
173
     0
176
     1
  0
VISUALSTYLE
  5
54
102
{ACAD_REACTORS
330
31
102
}
330
31
100
AcDbVisualStyle
  2
Realistic
 70
     8
177
     2
291
     0
 71
     2
176
     1
 72
     2
176
     1
 73
     0
176
     1
 90
        0
176
     1
 40
0.6
176
     1
 41
30.0
176
     1
 63
     7
176
     1
 74
     1
176
     1
 91
        0
176
     1
 64
     7
176
     1
 65
   257
176
     1
 75
     1
176
     1
175
     1
176
     1
 42
1.0
176
     1
 92
        8
176
     1
 66
     8
176
     1
 43
1.0
176
     1
 76
     1
176
     1
 77
     6
176
     1
 78
     2
176
     1
 67
     7
176
     1
 79
     5
176
     1
170
     0
176
     1
171
     0
176
     1
290
     0
176
     1
 93
       13
176
     1
 44
0.0
176
     1
173
     0
176
     1
  0
DICTIONARYVAR
  5
3EC
102
{ACAD_REACTORS
330
3E8
102
}
330
3E8
100
DictionaryVariables
280
     0
  1
1:1
  0
DICTIONARYVAR
  5
3EA
102
{ACAD_REACTORS
330
3E8
102
}
330
3E8
100
DictionaryVariables
280
     0
  1
STANDARD
  0
DICTIONARYVAR
  5
3E9
102
{ACAD_REACTORS
330
3E8
102
}
330
3E8
100
DictionaryVariables
280
     0
  1
STANDARD
  0
DICTIONARYVAR
  5
3EE
102
{ACAD_REACTORS
330
3E8
102
}
330
3E8
100
DictionaryVariables
280
     0
  1
1
  0
DICTIONARYVAR
  5
3EF
102
{ACAD_REACTORS
330
3E8
102
}
330
3E8
100
DictionaryVariables
280
     0
  1
15
  0
DICTIONARYVAR
  5
3ED
102
{ACAD_REACTORS
330
3E8
102
}
330
3E8
100
DictionaryVariables
280
     0
  1
0
  0
DICTIONARYVAR
  5
3EB
102
{ACAD_REACTORS
330
3E8
102
}
330
3E8
100
DictionaryVariables
280
     0
  1
0
  0
DICTIONARY
  5
19
330
17
100
AcDbDictionary
280
     1
281
     1
  3
ADSK_XREC_LAYOUTTHUMBNAIL
360
1A
  0
DICTIONARY
  5
46
330
45
100
AcDbDictionary
280
     1
281
     1
  3
BUMPTILE
360
47
  3
DIFFUSETILE
360
48
  3
OPACITYTILE
360
49
  3
REFLECTIONTILE
360
4A
  3
REFRACTIONTILE
360
4B
  3
SPECULARTILE
360
4C
  0
DICTIONARY
  5
3E
330
3D
100
AcDbDictionary
280
     1
281
     1
  3
BUMPTILE
360
3F
  3
DIFFUSETILE
360
40
  3
OPACITYTILE
360
41
  3
REFLECTIONTILE
360
42
  3
REFRACTIONTILE
360
43
  3
SPECULARTILE
360
44
  0
DICTIONARY
  5
E
330
C
100
AcDbDictionary
280
     1
281
     1
  3
BUMPTILE
360
F
  3
DIFFUSETILE
360
10
  3
OPACITYTILE
360
11
  3
REFLECTIONTILE
360
12
  3
REFRACTIONTILE
360
13
  3
SPECULARTILE
360
14
  0
DICTIONARY
  5
53
330
52
100
AcDbDictionary
280
     1
281
     1
  3
ACAD_ROUNDTRIP_2008_TABLESTYLE_CELLSTYLEMAP
360
3F0
  0
XRECORD
  5
1A
102
{ACAD_REACTORS
330
19
102
}
330
19
100
AcDbXrecord
280
     1
310
280000000001000091000000010008000000000000910000000000000000000000010000000000003028210000000000FFFFFF000000000000000000000000000000000000000000000000000000000000000000330000006600000099000000CC000000FF00000000330000333300006633000099330000CC330000FF3300
310
0000660000336600006666000099660000CC660000FF66000000990000339900006699000099990000CC990000FF99000000CC000033CC000066CC000099CC0000CCCC0000FFCC000000FF000033FF000066FF000099FF0000CCFF0000FFFF000000003300330033006600330099003300CC003300FF003300003333003333
310
33006633330099333300CC333300FF33330000663300336633006666330099663300CC663300FF66330000993300339933006699330099993300CC993300FF99330000CC330033CC330066CC330099CC3300CCCC3300FFCC330000FF330033FF330066FF330099FF3300CCFF3300FFFF330000006600330066006600660099
310
006600CC006600FF00660000336600333366006633660099336600CC336600FF33660000666600336666006666660099666600CC666600FF66660000996600339966006699660099996600CC996600FF99660000CC660033CC660066CC660099CC6600CCCC6600FFCC660000FF660033FF660066FF660099FF6600CCFF6600
310
FFFF660000009900330099006600990099009900CC009900FF00990000339900333399006633990099339900CC339900FF33990000669900336699006666990099669900CC669900FF66990000999900339999006699990099999900CC999900FF99990000CC990033CC990066CC990099CC9900CCCC9900FFCC990000FF99
310
0033FF990066FF990099FF9900CCFF9900FFFF99000000CC003300CC006600CC009900CC00CC00CC00FF00CC000033CC003333CC006633CC009933CC00CC33CC00FF33CC000066CC003366CC006666CC009966CC00CC66CC00FF66CC000099CC003399CC006699CC009999CC00CC99CC00FF99CC0000CCCC0033CCCC0066CC
310
CC0099CCCC00CCCCCC00FFCCCC0000FFCC0033FFCC0066FFCC0099FFCC00CCFFCC00FFFFCC000000FF003300FF006600FF009900FF00CC00FF00FF00FF000033FF003333FF006633FF009933FF00CC33FF00FF33FF000066FF003366FF006666FF009966FF00CC66FF00FF66FF000099FF003399FF006699FF009999FF00CC
310
99FF00FF99FF0000CCFF0033CCFF0066CCFF0099CCFF00CCCCFF00FFCCFF0000FFFF0033FFFF0066FFFF0099FFFF00CCFFFF00FFFFFF00000000000D0D0D001A1A1A00282828003535350043434300505050005D5D5D006B6B6B00787878008686860093939300A1A1A100AEAEAE00BBBBBB00C9C9C900D6D6D600E4E4E400
310
F1F1F100FFFFFF000000000000000000000000000000000000000000000000000000000000000000000000000000000000000000000000000000000000000000000000000000000000000000000000000000000000000000000000000000000000000000000000000000000000000000000000000000000000000000000000
310
00000000000000000000000000000000000000000000000000000000000000000000000000000000000000000000000000000000000000000000000000000000000000000000000000000000000000000000000000000000000000000000000000000000000000000000000000000000000000000000000000000000000000
310
00000000000000000000000000000000000000000000000000000000000000000000000000000000000000000000000000000000000000000000000000000000000000000000000000000000000000000000000000000000000000000000000000000000000000000000000000000000000000000000000000000000000000
310
00000000000000000000000000000000000000000000000000000000000000000000000000000000000000000000000000000000000000000000000000000000000000000000000000000000000000000000000000000000000000000000000000000000000000000000000000000000000000000000000000000000000000
310
00000000000000000000000000000000000000000000000000000000000000000000000000000000000000000000000000000000000000000000000000000000000000000000000000000000000000000000000000000000000000000000000000000000000000000000000000000000000000000000000000000000000000
310
00000000000000000000000000000000000000000000000000000000000000000000000000000000000000000000000000000000000000000000000000000000000000000000000000000000000000000000000000000000000000000000000000000000000000000000000000000000000000000000000000000000000000
310
00000000000000000000000000000000000000000000000000000000000000000000000000000000000000000000000000000000000000000000000000000000000000000000000000000000000000000000000000000000000000000000000000000000000000000000000000000000000000000000000000000000000000
310
00000000000000000000000000000000000000000000000000000000000000000000000000000000000000000000000000000000000000000000000000000000000000000000000000000000000000000000000000000000000000000000000000000000000000000000000000000000000000000000000000000000000000
310
00000000000000000000000000000000000000000000000000000000000000000000000000000000000000000000000000000000000000000000000000000000000000000000000000000000000000000000000000000000000000000000000000000000000000000000000000000000000000000000000000000000000000
310
00000000000000000000000000000000000000000000000000000000000000000000000000000000000000000000000000000000000000000000000000000000000000000000000000000000000000000000000000000000000000000000000000000000000000000000000000000000000000000000000000000000000000
310
00000000000000000000000000000000000000000000000000000000000000000000000000000000000000000000000000000000000000000000000000000000000000000000000000000000000000000000000000000000000000000000000000000000000000000000000000000000000000000000000000000000000000
310
00000000000000000000000000000000000000000000000000000000000000000000000000000000000000000000000000000000000000000000000000000000000000000000000000000000000000000000000000000000000000000000000000000000000000000000000000000000000000000000000000000000000000
310
00000000000000000000000000000000000000000000000000000000000000000000000000000000000000000000000000000000000000000000000000000000000000000000000000000000000000000000000000000000000000000000000000000000000000000000000000000000000000000000000000000000000000
310
00000000000000000000000000000000000000000000000000000000000000000000000000000000000000000000000000000000000000000000000000000000000000000000000000000000000000000000000000000000000000000000000000000000000000000000000000000000000000000000000000000000000000
310
00000000000000000000000000000000000000000000000000000000000000000000000000000000000000000000000000000000000000000000000000000000000000000000000000000000000000000000000000000000000000000000000000000000000000000000000000000000000000000000000000000000000000
310
00000000000000000000000000000000000000000000000000000000000000000000000000000000000000000000000000000000000000000000000000000000000000000000000000000000000000000000000000000000000000000000000000000000000000000000000000000000000000000000000000000000000000
310
00000000000000000000000000000000000000000000000000000000000000000000000000000000000000000000000000000000000000000000000000000000000000000000000000000000000000000000000000000000000000000000000000000000000000000000000000000000000000000000000000000000000000
310
00000000000000000000000000000000000000000000000000000000000000000000000000000000000000000000000000000000000000000000000000000000000000000000000000000000000000000000000000000000000000000000000000000000000000000000000000000000000000000000000000000000000000
310
00000000000000000000000000000000000000000000000000000000000000000000000000000000000000000000000000000000000000000000000000000000000000000000000000000000000000000000000000000000000000000000000000000000000000000000000000000000000000000000000000000000000000
310
00000000000000000000000000000000000000000000000000000000000000000000000000000000000000000000000000000000000000000000000000000000000000000000000000000000000000000000000000000000000000000000000000000000000000000000000000000000000000000000000000000000000000
310
00000000000000000000000000000000000000000000000000000000000000000000000000000000000000000000000000000000000000000000000000000000000000000000000000000000000000000000000000000000000000000000000000000000000000000000000000000000000000000000000000000000000000
310
00000000000000000000000000000000000000000000000000000000000000000000000000000000000000000000000000000000000000000000000000000000000000000000000000000000000000000000000000000000000000000000000000000000000000000000000000000000000000000000000000000000000000
310
00000000000000000000000000000000000000000000000000000000000000000000000000000000000000000000000000000000000000000000000000000000000000000000000000000000000000000000000000000000000000000000000000000000000000000000000000000000000000000000000000000000000000
310
00000000000000000000000000000000000000000000000000000000000000000000000000000000000000000000000000000000000000000000000000000000000000000000000000000000000000000000000000000000000000000000000000000000000000000000000000000000000000000000000000000000000000
310
00000000000000000000000000000000000000000000000000000000000000000000000000000000000000000000000000000000000000000000000000000000000000000000000000000000000000000000000000000000000000000000000000000000000000000000000000000000000000000000000000000000000000
310
00000000000000000000000000000000000000000000000000000000000000000000000000000000000000000000000000000000000000000000000000000000000000000000000000000000000000000000000000000000000000000000000000000000000000000000000000000000000000000000000000000000000000
310
00000000000000000000000000000000000000000000000000000000000000000000000000000000000000000000000000000000000000000000000000000000000000000000000000000000000000000000000000000000000000000000000000000000000000000000000000000000000000000000000000000000000000
310
00000000000000000000000000000000000000000000000000000000000000000000000000000000000000000000000000000000000000000000000000000000000000000000000000000000000000000000000000000000000000000000000000000000000000000000000000000000000000000000000000000000000000
310
00000000000000000000000000000000000000000000000000000000000000000000000000000000000000000000000000000000000000000000000000000000000000000000000000000000000000000000000000000000000000000000000000000000000000000000000000000000000000000000000000000000000000
310
00000000000000000000000000000000000000000000000000000000000000000000000000000000000000000000000000000000000000000000000000000000000000000000000000000000000000000000000000000000000000000000000000000000000000000000000000000000000000000000000000000000000000
310
00000000000000000000000000000000000000000000000000000000000000000000000000000000000000000000000000000000000000000000000000000000000000000000000000000000000000000000000000000000000000000000000000000000000000000000000000000000000000000000000000000000000000
310
00000000000000000000000000000000000000000000000000000000000000000000000000000000000000000000000000000000000000000000000000000000000000000000000000000000000000000000000000000000000000000000000000000000000000000000000000000000000000000000000000000000000000
310
00000000000000000000000000000000000000000000000000000000000000000000000000000000000000000000000000000000000000000000000000000000000000000000000000000000000000000000000000000000000000000000000000000000000000000000000000000000000000000000000000000000000000
310
00000000000000000000000000000000000000000000000000000000000000000000000000000000000000000000000000000000000000000000000000000000000000000000000000000000000000000000000000000000000000000000000000000000000000000000000000000000000000000000000000000000000000
310
00000000000000000000000000000000000000000000000000000000000000000000000000000000000000000000000000000000000000000000000000000000000000000000000000000000000000000000000000000000000000000000000000000000000000000000000000000000000000000000000000000000000000
310
00000000000000000000000000000000000000000000000000000000000000000000000000000000000000000000000000000000000000000000000000000000000000000000000000000000000000000000000000000000000000000000000000000000000000000000000000000000000000000000000000000000000000
310
00000000000000000000000000000000000000000000000000000000000000000000000000000000000000000000000000000000000000000000000000000000000000000000000000000000000000000000000000000000000000000000000000000000000000000000000000000000000000000000000000000000000000
310
00000000000000000000000000000000000000000000000000000000000000000000000000000000000000000000000000000000000000000000000000000000000000000000000000000000000000000000000000000000000000000000000000000000000000000000000000000000000000000000000000000000000000
310
0000000000000000000000000000000000000000000000000000000000000000000000000000000000000000000000000000000000000000000000000000000000000000000000000000000000000000000000000000000000000000000000000000000000000000BEBEBEBEBEBEBEBEBEBEBEBEBEBEBEBEBEBEBEBEBEBEBE
310
BEBEBEBEBEBEBEBEBEBEBEBEBEBEBEBEBEBEBEBEBEBEBEBEBEBEBEBEBEBEBEBEBEBEBEBEBEBEBEBEBEBEBEBEBEBEBEBEBEBEBEBEBEBEBEBEBEBEBEBEBEBEBEBEBEBEBEBEBEBEBEBEBEBEBEBEBEBEBEBEBEBEBEBEBEBEBEBEBEBEBEBEBEBEBEBEBEBEBEBEBEBEBEBEBEBEBEBEBEBEBEBEBEBEBEBEBEBEBEBEBEBEBEBEBEBEBE
310
BEBEBEBEBEBEBEBEBEBEBEBEBEBE0000000000000000000000000000000000000000000000000000000000000000000000000000000000000000000000000000000000000000000000000000000000000000000000000000000000000000000000000000000000000000BE0000000000000000000000000000000000000000
310
00000000000000000000000000000000000000000000000000000000000000000000000000000000000000000000000000000000000000000000000000000000000000000000000000000000000000000000000000000000000000000000000000000000000000000000000000000000000000000000000000000000000000
310
000000000000000000000000000000BE0000000000000000000000000000000000000000000000000000000000000000000000000000000000000000000000000000000000000000000000000000000000000000000000000000000000000000000000000000000000000000BE000000000000000000000000000000000000
310
00000000000000000000000000000000000000000000000000000000000000000000000000000000000000000000000000000000000000000000000000000000000000000000000000000000000000000000000000000000000000000000000000000000000000000000000000000000000000000000000000000000000000
310
0000000000000000000000000000000000BE0000000000000000000000000000000000000000000000000000000000000000000000000000000000000000000000000000000000000000000000000000000000000000000000000000000000000000000000000000000000000000BE0000DCDCDCDCDCDCDCDCDCDCDCDCDCDC
310
DCDCDCDCDCDCDCDCDCDCDCDCDCDCDCDCDCDCDCDCDCDCDCDCDCDCDCDCDCDCDCDCDCDCDCDCDCDCDCDCDCDCDCDCDCDCDCDCDCDCDCDCDCDCDCDCDCDCDCDCDCDCDCDCDCDCDCDCDCDCDCDCDCDCDCDCDCDCDCDCDCDCDCDCDCDCDCDCDCDCDCDCDCDCDCDCDCDCDCDCDCDCDCDCDCDCDCDCDCDCDCDCDCDCDCDCDCDCDCDCDCDCDCDCDCDCDC
310
DCDCDCDCDCDCDCDCDCDCDCDCDCDCDCDC000000BE0000000000000000000000000000000000000000000000000000000000000000000000000000000000000000000000000000000000000000000000000000000000000000000000000000000000000000000000000000000000000000BE0000DC0000000000000000000000
310
00000000000000000000000000000000000000000000000000000000000000000000000000000000000000DC00000000000000000000000000DC00000000000000000000000000DC0000000000000000BEBEBEBEBEBEBEBEBEBEBEBE000000DC00000000000000000000000000000000DC0000000000000000000000000000
310
0000DC00BEBEBEBEBEBEBEBEBE00000000DC000000BE0000000000000000000000000000000000000000000000000000000000000000000000000000000000000000000000000000000000000000000000000000000000000000000000000000000000000000000000000000000000000000BE0000DC000000000000000000
310
000000000000000000000000000000000000000000000000000000000000000000000000000000000000000000DCF5F5F5F5F5F5F5000000000000DCF5F5F5F5F5F5F5F50000000000DC00000000000000BEBEBEBEBEBEBEBEBEBEBEBEBE000000DC00000000000000000000000000000000DC000000000000000000000000
310
00000000DC00BEBEBEBEBEBEBEBEBE00000000DC000000BE0000000000000000000000000000000000000000000000000000000000000000000000000000000000000000000000000000000000000000000000000000000000000000000000000000000000000000000000000000000000000000BE0000DC00000000000000
310
0000000000000000000000000000000000000000000000000000000000000000000000000000000000000000000000DCDCDCDCDCDCF5DCDCDCDCDCDCDCDCDCDCDCDCDCDCDCDCDCDCDCDCDCDC00000000000000BEBEBEBEBE00BEBEBEBEBEBEBE000000DC00000000000000000000000000000000DC00000000000000000000
310
000000000000DCBEBEBEBEBEBEBEBEBEBEF5000000DC000000BE0000000000000000000000000000000000000000000000000000000000000000000000000000000000000000000000000000000000000000000000000000000000000000000000000000000000000000000000000000000000000000BE0000DC0000000000
310
000000000000000000F5F5F5F5F5F5F5F5F5F5F5F5F5F5F5F5F50000000000000000000000000000000000000000000000DC00000000DC00000000000000000000DC0000000000DC0000000000DC0000BEBEBEBEBEBEBEBEBEBEBEBEBEBEBEBEBEBE000000DCF5F5F5F5F5F5F5F5F5F5F50000000000F5F5F5F5F5F5F5F5F5
310
F5F5F5F5F5000000DC00F5F5F5F5F5F5F5F5F5F5000000DC000000BE0000000000000000000000000000000000000000000000000000000000000000000000000000000000000000000000000000000000000000000000000000000000000000000000000000000000000000000000000000000000000000BE0000DC000000
310
0000000000000000000000F5282800000000282828000000002800F50000000000000000000000000000000000000000000000DC00000000DC00000000000000000000DC0000000000DC0000000000DC00000000000000000000BEBEBEBEBEBEBEBEBEBE000000DCF5F5F5F5F5F5F500F5F5F50000000000DCF5F5F5F5F5F5
310
F5F5F5F5F5F5F5000000DC00F5F50000F50000F5F500000000DC000000BE0000000000000000000000000000000000000000000000000000000000000000000000000000000000000000000000000000000000000000000000000000000000000000000000000000000000000000000000000000000000000000BE0000DC00
310
00000000000000000000000000F528F5F5F5F528282828F5F5F5F5F500F50000000000000000000000000000000000000000000000DCDCDCDCDCDCDCDCDCDCDCDCDCDCDCDCDCDCDCDCDCDCDCDCDCDCDCDCDC000000000000BEBEBEBEBEBEBEBEBEBEBEBEBEBE000000DCDCDCDCDCDCDCDCDCDCDCDCDCDCDCDCDCDCDCDCDCDC
310
DCDCDCDCDCDCDCDCDCDCDCDCDCDCDCDCDCDCDCDCDCDCDCDCDCDCDCDC000000BE0000000000000000000000000000000000000000000000000000000000000000000000000000000000000000000000000000000000000000000000000000000000000000000000000000000000000000000000000000000000000000BE0000
310
DC0000000000000000000000000000F528F50000002828282828000000F500F50000000000000000000000000000000000000000000000DC00000000DC00000000000000000000DC0000000000DC0000000000DC000000000000BEBEBEBEBEBEBEBEBEBEBEBEBE00000000DC00000000000000000000000000000000000000
310
0000000000000000000000000000000000000000000000000000000000DC000000BE0000000000000000000000000000000000000000000000000000000000000000000000000000000000000000000000000000000000000000000000000000000000000000000000000000000000000000000000000000000000000000BE
310
0000DC0000000000000000000000000000F528F50000002828282800000000F500F50000000000000000000000000000000000000000000000DC00000000DC00000000000000000000DC0000000000DC0000000000DC0000000000BEBEBE00BEBEBEBEBEBEBEBEBEBE00000000DC0000000000000000000000000000000000
310
00000000000000000000000000000000000000000000000000000000000000DC000000BE00000000000000000000000000000000000000000000000000000000000000000000000000000000000000000000000000000000000000000000000000000000000000000000000000000000000000000000000000000000000000
310
00BE0000DC0000000000000000000000000000F528F50000000000BE0000000000F500F50000000000000000000000000000000000000000000000DCDCDCDCDCDCDCDCDCDCDCDCDCDCDCDCDCDCDCDCDCDCDCDCDCDCDCDCDCDCDCDCDCDCDCDCDCDCDCDCDCDCDCDCDCDCDCDCDCDCDCDCDC000000000000000000000000000000
310
000000000000000000000000000000000000000000000000000000000000000000DC000000BE0000000000000000000000000000000000000000000000000000000000000000000000000000000000000000000000000000000000000000000000000000000000000000000000000000000000000000000000000000000000
310
000000BE0000DC0000000000000000000000000000F528F50000000000000000000000F500F50000000000000000000000000000000000000000000000DC00000000DC00000000000000000000DC0000000000DC0000000000F5F5F5F5F500000000000000DC0000000000000000000000DC00000000000000000000000000
310
00000000000000BE000000000000000000000000000000000000000000000000000000DC000000BE000000000000000000000000000000000000000000000000000000000000000000000000000000000000000000000000000000000000000000000000000000000000000000000000000000000000000000000000000000
310
0000000000BE0000DC0000000000000000000000000000F528F50000000000000000000000F500F50000000000000000000000000000000000000000000000DCDCDCDCDCDCDCDCDCDCDCDCDCDCDCDCDCDCDCDCDCDCDCDCDCDCDCDCDCDCDCDCDCDCDCDCDCDCDCDCDCDCDCDCBEBEDCDCDCDCDCDCDCBEBEBEBEBEBEBEBEBE0000
310
BEBEBEBEBEBEBEBEBEBEBEBEBEBEBEBEBEBE0000BEBEBE0000BE00BEBEBEBE0000BE000000DC000000BE00000000000000000000000000000000000000000000000000000000000000000000000000000000000000000000000000000000000000000000000000000000000000000000000000000000000000000000000000
310
00000000000000BE0000DC0000000000000000000000000000F528F50000000000000000000000F500F50000000000000000000000000000000000000000000000DC00000000DC00000000000000000000DC0000000000DC0000000000F5F5F5F5DCBEBEBEBEBEBEBEBE00BEBEBEBEBEBE00000000DCBEBEBEBEBEBEBEBEBE
310
BEBEBEBEBEBEBEBEBEBEBEBEBEBEBEBEBEBEBEBE0000BEBEBEBE00BE00BEBEBEBEBEBEBE000000DC000000BE0000000000000000000000000000000000000000000000000000000000000000000000000000000000000000000000000000000000000000000000000000000000000000000000000000000000000000000000
310
000000000000000000BE0000DC0000000000000000000000000000F528F50000000000000000000000F500F50000000000000000000000000000000000000000000000DC00000000DC00000000000000000000DC0000000000DC0000000000F5F5F5F5DCBEBEBEBEBEBEBEBEBEBEBEBEBEBEBEBE000000DCBEBEBEBEBEBEBE
310
BEBEBE00BEBEBEBEBEBEBEBEBEBEBEBEBEBEBEBEBEBEBE00BEBEBEBE00BE00BEBEBEBE000000BE0000DC000000BE000000000000000000000000000000000000000000000000000000000000000000000000000000000000000000000000000000000000000000000000000000000000000000000000000000000000000000
310
0000000000000000000000BE0000DC0000000000000000000000000000F528F50000000000000000000000F500F50000000000000000000000000000000000000000000000DCDCDCDCDCDCDCDCDCDCDCDCDCDCDCDCDCDCDCDCDCDCDCDCDCDCDCDCDCDCDCDCDCDCDCDCDCDCDCDCDCDCDCDCDCDCDCDCDCDCDCDCDCBEBE000000
310
0000000000F5BEBE00BEBEBE000000000000000000BE00000000BEBEBEBE00BEBEBEBEBE000000BEBE0000DC000000BE00000000000000000000000000000000000000000000000000000000000000000000000000000000000000000000000000000000000000000000000000000000000000000000000000000000000000
310
00000000000000000000000000BE0000DC0000000000000000000000000000F528F50000000000000000000000F500F50000000000000000000000000000000000000000000000DCF5F5F5F5DCF5F5F5F5F5F5F5000000F5F5F5F5F5F5DCF5F5F5F5F5DCDCDCDCDCF5F5F5F5F5F5F5DCF5F5F5F5F5F5F500000000DCF5F5F5
310
F5F5F5F5F5F5F5F5F5F5F5F5F5F500000000000000000000000000000000000000000000000000000000000000DC000000BE0000000000000000000000000000000000000000000000000000000000000000000000000000000000000000000000000000000000000000000000000000000000000000000000000000000000
310
000000000000000000000000000000BE0000DC0000000000000000000000000000F528F50000000000000000000000F500F50000000000000000000000000000000000000000000000DCF5F5F5F5DCF5F5F5F5F5F5F5000000DCF5F5F5F5F5DCF5F5F5F5F5DCDCDCDCDCF5F5F5F5F5F5F5DCF5F5F5F5F5F5F500000000DC00
310
F5F5F5F5F5F5F5F5F5F5F500F5F5F5F5F5000000000000000000000000000000000000000000000000000000000000DC000000BE000000000000000000000000000000000000000000000000000000000000000000000000000000000000000000000000000000000000000000000000000000000000000000000000000000
310
0000000000000000000000000000000000BE0000DC0000000000000000000000000000F528F52800000000000000000028F500F50000000000000000000000000000000000000000000000DCDCDCDCDCDCDCDCDCDCDCDCDCDCDCDCDCDCDCDCDCDCDCDCDCDCDCDCDCDCDCDCDCDCDCDCDCDCDCDCDCDCBEBEBEBEBEBEBEBEBEBE
310
DCDCDCDCDCDCDCDCDCDCDCDCDCDCDCDCDCDCDCDCDCDCDCDCDCDCDCDCDCDCDCDCDCDCDCDCDCDCDCDCDCDCDCDCDCDCDCDCDCDC000000BE00000000000000000000000000000000000000000000000000000000000000000000000000000000000000000000000000000000000000000000000000000000000000000000000000
310
00000000000000000000000000000000000000BE0000DC000000000000000000000000000028282828000000000000000000282828F50000000000000000000000000000000000000000000000DC000000000000000000000000000000000000000000000000000000DC0000000000000000000000DC00BEBEBEBEBEBEBEBE
310
BEBEDC000000000000000000000000000000000000DC0000000000000000000000000000000000DC0000000000000000000000DC000000BE0000000000000000000000000000000000000000000000000000000000000000000000000000000000000000000000000000000000000000000000000000000000000000000000
310
000000000000000000000000000000000000000000BE0000DC000000000000000000000000000028282828282828282828282828282828F5F500000000000000000000000000000000000000000000DC000000000000000000000000000000000000000000000000000000DC0000000000000000000000BEBEBEBEBEBEBEBE
310
BEBEBEBEBE0000000000000000000000F5000000000000DC0000000000000000000000000000000000DC0000000000000000000000DC000000BE000000000000000000000000000000000000000000000000000000000000000000000000000000000000000000000000000000000000000000000000000000000000000000
310
0000000000000000000000000000000000000000000000BE0000DC0000000000000000002D2D2DF5F528F5F5F5F5F5F5F5F5F5F5F5F5F5F5F5F5F500000000000000000000000000000000000000000000DC000000000000000000000000000000000000000000000000000000DCDCDCDCDCDCDCDCDCDCDCDCBEBEBEBE00BE
310
BEBEBEBEBEBEBEF5F5F5F5F5F5F5F5F5F5F5F5F5F500000000F5F5F5F5F5F5F5F5F5F5F5F5F5F5F5000000DCF5F5F5F5F5F5F5F5F5F5F5DC000000BE00000000000000000000000000000000000000000000000000000000000000000000000000000000000000000000000000000000000000000000000000000000000000
310
00000000000000000000000000000000000000000000000000BE0000DC0000000000000000002D0000F5F528F5F5F5F5F5F5F5F5F5F5F5F5F5F5F5F5F500000000000000000000000000000000000000000000DC000000000000000000000000000000000000000000000000000000DC0000000000000000000000BEBEBEBE
310
DCBEBEBEBEBEDCBEBEF5F5DCDCF5DCF5F5DCF5F5DCDCDCDCDCDCDCDCF5DCDCF5DCF5F5F5F5DCDCF5DCDCDCDCDCDCF5F5DCDCF5DCF5F5F5BEDCDC000000BE0000000000000000000000000000000000000000000000000000000000000000000000000000000000000000000000000000000000000000000000000000000000
310
000000000000000000000000000000000000000000000000000000BE0000DC0000000000000000002D0000F5F528000000000000000000000000280000F5F500000000000000000000000000000000000000000000DC000000000000000000000000000000000000000000000000000000DC0000000000000000000000DC00
310
0000F5F5F5F5F5F50000DC00000000BEBEBEBEBEBEBEBEBE0000000000DC0000000000000000000000000000000000DC0000000000BEBEBEBEBEBEBE000000BE000000000000000000000000000000000000000000000000000000000000000000000000000000000000000000000000000000000000000000000000000000
310
0000000000000000000000000000000000000000000000000000000000BE0000DC00000000000000BEBE2D0000F5F528000000000000000000000000280000F5F500000000000000000000000000000000000000000000DC000000000000000000000000000000000000000000000000000000DCDCF5F5F5F5F5F5F5F5F5DC
310
DCDCDCDCBEBEBEBEBEDCDCDCDC00000000BE0000BE00BEBEBEBE0000000000DC0000000000000000000000000000000000DC00000000BEBEBEBEBE00BEBE000000BE00000000000000000000000000000000000000000000000000000000000000000000000000000000000000000000000000000000000000000000000000
310
00000000000000000000000000000000000000000000000000000000000000BE0000DC00000000000000BEBE2D0000F5F528000000000000000000000000280000F5F500000000000000000000000000000000000000000000DC000000000000000000000000000000000000000000000000000000DC0000F5F500F5F5F5F5
310
F500DC000000BEBEBEBEBE000000DC00000000BEF5F5BEBEBEBEF5BE0000000000DC000000F5F5F5F5F5F5F5F5F50000000000DC0000F5F5F5BEF5BEBEF5BEBE000000BE0000000000000000000000000000000000000000000000000000000000000000000000000000000000000000000000000000000000000000000000
310
000000000000000000000000000000000000000000000000000000000000000000BE0000DC00000000000000BEBE2D0000F5F528F5F5F5F5F5F5F5F5F5F5F5F5F5F5F5F5F500000000000000000000000000000000000000000000DCDCDCDCDCDCDCDCDCDCDCDCDCDCDCDCDCDCDCDCDCDCDCDCDCDCDCDCDCDCF5F5F5DCDCF5
310
F5DCDCDCDCDCDCDCF5F5F5F5F5DCDCDCDCDCDCDCDCF5F5F5F5DCF5F5F5DCDCDCDCDCDCDCDCDCDCF5F5F5F5F5F5F5F5F5F5DCDCDCDCDCDCDCF5F5F5F5F5F5F5F5DCDC000000BE000000000000000000000000000000000000000000000000000000000000000000000000000000000000000000000000000000000000000000
310
0000000000000000000000000000000000000000000000000000000000000000000000BE0000DC0000000000000000002D0000F5F5F5000000000000000000000000F50000F5F50000000000000000000000000000000000000000000000000000000000000000000000000000000000000000000000000000000000000000
310
00000000000000000000000000000000000000000000000000000000000000000000000000000000000000000000000000000000000000000000000000000000000000DC000000BE00000000000000000000000000000000000000000000000000000000000000000000000000000000000000000000000000000000000000
310
00000000000000000000000000000000000000000000000000000000000000000000000000BE0000DC0000000000000000002D0000F5F5F5000000000000000000000000F50000F5F5000000000000000000000000000000000000000000000000000000000000000000000000000000000000000000000000000000000000
310
000000000000000000000000000000000000000000000000000000000000000000000000000000000000000000000000000000000000000000000000000000000000000000DC000000BE0000000000000000000000000000000000000000000000000000000000000000000000000000000000000000000000000000000000
310
000000000000000000000000000000000000000000000000000000000000000000000000000000BE0000DC0000000000000000002D0000F5F5F5000000000000000000000000F50000F5F500000000000000000000000000000000000000000000000000000000000000000000000000000000000000000000000000000000
310
0000000000000000000000000000000000000000000000000000000000000000000000000000000000000000000000000000000000000000000000000000000000000000000000DC000000BE000000000000000000000000000000000000000000000000000000000000000000000000000000000000000000000000000000
310
0000000000000000000000000000000000000000000000000000000000000000000000000000000000BE0000DC0000000000000000002D0000F5F5F528F5F5F5F5F5F5F5F5F5F5F5F5F5F5F5F5F500000000000000000000000000000000000000000000000000000000000000000000000000000000000000000000000000
310
00000000000000000000000000000000000000000000000000000000000000000000000000000000000000000000000000000000000000000000000000000000000000000000000000DC000000BE00000000000000000000000000000000000000000000000000000000000000000000000000000000000000000000000000
310
00000000000000000000000000000000000000000000000000000000000000000000000000000000000000BE0000DC000000000000000000F52D2DF5F5F5F5F5F5F5F5F5F5F5F5F5F5F5F5F5F5F5F5F50000000000000000000000000000000000000000000000000000000000000000000000000000000000000000000000
310
000000000000000000000000000000000000000000000000000000000000000000000000000000000000000000000000000000000000000000000000000000000000000000000000000000DC000000BE0000000000000000000000000000000000000000000000000000000000000000000000000000000000000000000000
310
000000000000000000000000000000000000000000000000000000000000000000000000000000000000000000BE0000DC0000000000000000000000002D000000000000000000000000000000000000002D000000000000000000000000000000000000000000000000000000000000000000000000000000000000000000
310
0000000000000000000000000000000000000000000000000000000000000000000000000000000000000000000000000000000000000000000000000000000000000000000000000000000000DC000000BE000000000000000000000000000000000000000000000000000000000000000000000000000000000000000000
310
0000000000000000000000000000000000000000000000000000000000000000000000000000000000000000000000BE0000DC0000000000000000000000002D2D2D2D2D2D2D2D2DBEBE2D2D2D2D2D2D2D2D2DF500000000000000000000000000000000000000000000000000000000000000000000000000000000000000
310
00000000000000000000000000000000000000000000000000000000000000000000000000000000000000000000000000000000000000000000000000000000000000000000000000000000000000DC000000BE00000000000000000000000000000000000000000000000000000000000000000000000000000000000000
310
00000000000000000000000000000000000000000000000000000000000000000000000000000000000000000000000000BE0000DC0000000000000000000000002D2D2D000000000000BEBE000000000000002D2D2D0000000000000000000000000000000000000000000000000000000000000000000000000000000000
310
000000000000000000000000000000000000000000000000000000000000000000000000000000000000000000000000000000000000000000000000000000000000000000000000000000000000000000DC000000BE0000000000000000000000000000000000000000000000000000000000000000000000000000000000
310
000000000000000000000000000000000000000000000000000000000000000000000000000000000000000000000000000000BE0000DC000000000000000000000000000000000000000000000000000000000000000000000000000000000000000000000000000000000000000000000000000000000000000000000000
310
0000000000000000000000000000000000000000000000000000000000000000000000000000000000000000000000000000000000000000000000000000000000000000000000000000000000000000000000DC000000BE000000000000000000000000000000000000000000000000000000000000000000000000000000
310
0000000000000000000000000000000000000000000000000000000000000000000000000000000000000000000000000000000000BE0000DC00000000000000000000000000000000000000000000000000000000000000000000000000000000000000000000000000000000000000000000000000000000000000000000
310
00000000000000000000000000000000000000000000000000000000000000000000000000000000000000000000000000000000000000000000000000000000000000000000000000000000000000000000000000DC000000BE00000000000000000000000000000000000000000000000000000000000000000000000000
310
00000000000000000000000000000000000000000000000000000000000000000000000000000000000000000000000000000000000000BE0000DC0000000000000000000000000000000000000000000000000000000000000000000000000000000000000000000000000000000000000000000000000000000000000000
310
000000000000000000000000000000000000000000000000000000000000000000000000000000000000000000000000000000000000000000000000000000000000000000000000000000000000000000000000000000DC000000BE0000000000000000000000000000000000000000000000000000000000000000000000
310
000000000000000000000000000000000000000000000000000000000000000000000000000000000000000000000000000000000000000000BE0000DC0000000000000000000000002D0000000000000000000000000000000000000000000000000000000000000000000000000000000000000000002D00000000000000
310
0000000000000000000000000000000000000000000000000000000000000000000000000000000000000000000000000000000000000000000000000000000000000000000000000000000000000000000000000000000000DC000000BE000000000000000000000000000000000000000000000000000000000000000000
310
0000000000000000000000000000000000000000000000000000000000000000000000000000000000000000000000000000000000000000000000BE0000DC0000000000000000000000002D2D2D2D2D2D2D2D2D2D2D2D2D2D2D2D2D2D2D2D2DBEBEBEBE2D2D2D2D2D2D2D2D2D2D2D2D2D2D2D2D2D2D2D2D2DF50000000000
310
000000002D2D2D2D2D2D2D2D2D2D2D2D2D2D2D2D2D2D2D2D2D2D2DF5000000000000000000000000000000000000000000000000000000000000000000000000000000000000000000000000000000000000000000000000000000DC000000BE00000000000000000000000000000000000000000000000000000000000000
310
00000000000000000000000000000000000000000000000000000000000000000000000000000000000000000000000000000000000000000000000000BE0000DC0000000000000000000000002D0000000000000000002D0000000000000000002DBEBEBEBE0000000000000000000000000000000000000000002D000000
310
0000000000002D2D0000000000000000BEBEBE0000000000000000002D2D000000000000000000000000000000000000000000000000000000000000000000000000000000000000000000000000000000000000000000000000000000DC000000BE0000000000000000000000000000000000000000000000000000000000
310
000000000000000000000000000000000000000000000000000000000000000000000000000000000000000000000000000000000000000000000000000000BE0000DC0000000000000000000000002D2D2D2DBEBEBE2D2D2D2D2D2DBEBEBE2D2D2D2D2D000000000000000000000000000000000000000000000000002D00
310
00000000000000002D000000000000000000000000000000000000000000002D000000000000000000000000000000000000000000000000000000000000000000000000000000000000000000000000000000000000000000000000000000DC000000BE000000000000000000000000000000000000000000000000000000
310
0000000000000000000000000000000000000000000000000000000000000000000000000000000000000000000000000000000000000000000000000000000000BE0000DC0000000000000000000000002D000000BEBEBE0000002D0000BEBEBE000000002D00000000000000000000000000000000000000000000000000
310
2D0000000000000000002D000000000000000000000000000000000000000000002D000000000000000000000000000000000000000000000000000000000000000000000000000000000000000000000000000000000000000000000000000000DC000000BE00000000000000000000000000000000000000000000000000
310
00000000000000000000000000000000000000000000000000000000000000000000000000000000000000000000000000000000000000000000000000000000000000BE0000DC0000000000F52D2D2D2D2D2DF5F5F5F5F5F5F5F5F5F52DF5F5F5F5F5F5F5F52D2D2D2DF52D00000000000000000000000000000000000000
310
00002D000000002D2D2D2D2DF5F5F500000000000000000000000000000000000000002D000000000000000000000000000000000000000000000000000000000000000000000000000000000000000000000000000000000000000000000000000000DC000000BE0000000000000000000000000000000000000000000000
310
000000000000000000000000000000000000000000000000000000000000000000000000000000000000000000000000000000000000000000000000000000000000000000BE0000DC00000000002D2D002D000000F5F5000000000000BEBEBEBEBE000000000000F5F500002D2D0000000000000000000000000000000000
310
000000002D000000002D2D002D00F52800F5F5F5F50000F5F5F5F5000000000000000000002D000000000000000000000000000000000000000000000000000000000000000000000000000000000000000000000000000000000000000000000000000000DC000000BE000000000000000000000000000000000000000000
310
0000000000000000000000000000000000000000000000000000000000000000000000000000000000000000000000000000000000000000000000000000000000000000000000BE0000DC00000000002D00002D000000F5F500BEBEBEBEBEBE282D00BEBEBEBEBEBEBEF5BEBEBEBEBEBEBEBEBEBEBE2DBEBEBEBEBEBEBEBE
310
BEBEBEBEBEBEF500000000002D002D00F5280000000000F5F5F5F5F500000000000000000000002D000000000000000000000000000000000000000000000000000000000000000000000000000000000000000000000000000000000000000000000000000000DC000000BE00000000000000000000000000000000000000
310
00000000000000000000000000000000000000000000000000000000000000000000000000000000000000000000000000000000000000000000000000000000000000000000000000BE0000DC00000000002D00002D000000F5F500BEBEBEBEBEBEBEBEBEBEBEBEBEBEBEBEBEF500BE2D0000000000002D2D000000000000
310
000000000000BE000000000000002D002D00F5280000000000000000F5F500000000000000000000F528F5F500000000000000000000000000000000000000000000000000000000000000000000000000000000000000000000000000000000000000000000000000DC000000BE0000000000000000000000000000000000
310
000000000000000000000000000000000000000000000000000000000000000000000000000000000000000000000000000000000000000000000000000000000000000000000000000000BE0000DC00000000002D00002D000000F5F500BEBE000000F52828F5280000BEBEBE00BEBEBEBEBEBEBEBEBEBEBEBE2DBE000000
310
0000000000000000BE000000000000002D002D00F5280000000000F5F5F5F5F5F50000000000000000F5F528F5F500000000000000000000000000000000000000000000000000000000000000000000000000000000000000000000000000000000000000000000000000DC000000BE000000000000000000000000000000
310
0000000000000000000000000000000000000000000000000000000000000000000000000000000000000000000000000000000000000000000000000000000000000000000000000000000000BE0000DC00000000002D00002D000000F5F5002828F5F5F5F52828F528F5282828BE00BEF500BE2D0000000000002D00BEBE
310
BEBEBEBEBEBEBEBEBEBEBE000000000000002D002D00F52800F5F5F5F50000F500282828F5F5F5F5F5F5F5F5F528F5F528000000000000000000000000000000000000000000000000000000000000000000000000000000000000000000000000000000000000000000000000DC000000BE00000000000000000000000000
310
00000000000000000000000000000000000000000000000000000000000000000000000000000000000000000000000000000000000000000000000000000000000000000000000000000000000000BE0000DC00000000002D00002D000000F5F50028BE000000BE28BE28280028BE28BE00BEF500002D0000000000002D00
310
00000000000000000000000000000000000000002D002D00F52800F5000000000000F528F52800000000000000000000000028000000000000000000000000000000000000000000000000000000000000000000000000000000000000000000000000000000000000000000000000DC000000BE0000000000000000000000
310
000000000000000000000000000000000000000000000000000000000000000000000000000000000000000000000000000000000000000000000000000000000000000000000000000000000000000000BE0000DC00000000002D00002D000000F5F50028BE0000000028BE28280028BE28BE00BEF500002D0000000000F5
310
000000000000000000000000000000000000000000002D002D00F52800F5000000000000F528282800000000000000000000000028000000000000000000000000000000000000000000000000000000000000000000000000000000000000000000000000000000000000000000000000DC000000BE000000000000000000
310
0000000000000000000000000000000000000000000000000000000000000000000000000000000000000000000000000000000000000000000000000000000000000000000000000000000000000000000000BE0000DC00000000002D00002D000000F5F50028BE0000000028BE28280028BE28BE00BEF500002D2D000000
310
002D000000000000000000000000000000000000000000002D002D00F52800F5000000000000F528282800000000000000000000000028000000000000000000000000000000000000000000000000000000000000000000000000000000000000000000000000000000000000000000000000DC000000BE00000000000000
310
00000000000000000000000000000000000000000000000000000000000000000000000000000000000000000000000000000000000000000000000000000000000000000000000000000000000000000000000000BE0000DC00000000002D00002D000000F5F50028BE28282828282828282828BE28BE2DBE2D2D2D2D2D00
310
00002D00000000000000000000000000000000000000000000002D002D00BEBE00F5000000000000F528F52800002828282828282828282828000000000000000000000000000000000000000000000000000000000000000000000000000000000000000000000000000000000000000000000000DC000000BE0000000000
310
000000000000000000000000000000000000000000000000000000000000000000000000000000000000000000000000000000000000000000000000000000000000000000000000000000000000000000000000000000BE0000DC00000000002D00002D000000F5F50028BE28282828282828282828BE28BE00BEF500002D
310
2D00002D0000000000000000000000000000000000000000000000002D002D00F52800F5000000000000F528F52800282828282828282828282828000000000000000000000000000000000000000000000000000000000000000000000000000000000000000000000000000000000000000000000000DC000000BE000000
310
0000000000000000000000000000000000000000000000000000000000000000000000000000000000000000000000000000000000000000000000000000000000000000000000000000000000000000000000000000000000BE0000DC00000000002D00002D000000F5F50028BE00000000000000000000BE28BE00BEF500
310
002D002D2D000000000000000000000000000000000000000000000000002D002D00F52800F5000000000000F528F52800282800000000000000000028000000000000000000000000000000000000000000000000000000000000000000000000000000000000000000000000000000000000000000000000DC000000BE00
310
00000000000000000000000000000000000000000000000000000000000000000000000000000000000000000000000000000000000000000000000000000000000000000000000000000000000000000000000000000000000000BE0000DC00000000002D00002D000000F5F50028BE00000000000000000000BE28BE00BE
310
F5002D2D2D0000000000000000000000000000000000000000000000000000002D002D00F52800F5000000000000F528F52828280000000000000000000028000000000000000000000000000000000000000000000000000000000000000000000000000000000000000000000000000000000000000000000000DC000000
310
BE0000000000000000000000000000000000000000000000000000000000000000000000000000000000000000000000000000000000000000000000000000000000000000000000000000000000000000000000000000000000000000BE0000DC00000000002D00002D000000F5F50028BE00000000000000000000BE28BE
310
002D2D2D002D000000000000000000000000000000000000000000000000000000002D002D00F52800F5000000000000F528282828280000000000000000000028000000000000000000000000000000000000000000000000000000000000000000000000000000000000000000000000000000000000000000000000DC00
310
0000BE0000000000000000000000000000000000000000000000000000000000000000000000000000000000000000000000000000000000000000000000000000000000000000000000000000000000000000000000000000000000000000BE0000DC00000000002D00002D000000F5F50028BE00000000000000000000BE
310
28BE00BEF500002D000000000000000000000000000000000000000000000000000000002D002D00F52800F5000000000000F528282828000000000000000000000028000000000000000000000000000000000000000000000000000000000000000000000000000000000000000000000000000000000000000000000000
310
DC000000BE0000000000000000000000000000000000000000000000000000000000000000000000000000000000000000000000000000000000000000000000000000000000000000000000000000000000000000000000000000000000000000BE0000DC00000000002D00002D000000F5F50028BE282828282828282828
310
28BEBEBE00BEF500002D000000000000000000000000000000000000000000000000000000002D002D00F52800F5000000000000F5F528282800000000000000000000002800000000000000000000000000000000000000000000000000000000000000000000000000000000000000000000000000000000000000000000
310
0000DC000000BE0000000000000000000000000000000000000000000000000000000000000000000000000000000000000000000000000000000000000000000000000000000000000000000000000000000000000000000000000000000000000000BE0000DC00000000002D00002D000000F5F500BE2800000000000000
310
000000BE28F500BEF500002D000000000000000000000000000000000000000000000000000000002D002D00F52800F5000000000000F5F50028280000000000000000000000280000000000000000000000000000000000000000000000000000000000000000000000000000000000000000000000000000000000000000
310
00000000DC000000BE0000000000000000000000000000000000000000000000000000000000000000000000000000000000000000000000000000000000000000000000000000000000000000000000000000000000000000000000000000000000000000BE0000DC00000000002D00002D000000F5F500BE280000000000
310
0000000000BE28F500BEF500002D000000000000000000000000000000000000000000000000000000002D002D00F52800F5000000000000F5F5002800000000000000000000000028000000000000000000000000000000000000000000000000000000000000000000000000000000000000000000000000000000000000
310
000000000000DC000000BE0000000000000000000000000000000000000000000000000000000000000000000000000000000000000000000000000000000000000000000000000000000000000000000000000000000000000000000000000000000000000000BE0000DC00000000002DBEBE2D000000F5F500BE28000000
310
00000000000000BE28F500BEF500002D000000000000000000000000000000000000000000000000000000002DBE2D00F52800F5000000000000F5F500280000000000000000000000002800000000000000000000000000000000000000000000000000000000000000000000000000000000000000000000000000000000
310
0000000000000000DC000000BE0000000000000000000000000000000000000000000000000000000000000000000000000000000000000000000000000000000000000000000000000000000000000000000000000000000000000000000000000000000000000000BE0000DC00000000002DBEBE2D000000F5F500BE2800
310
000000000000000000BE28F500BEF500002D000000000000000000000000000000000000000000000000000000002DBE2D00F52800F5000000000000F5F50028000000000000000000000000280000000000000000000000000000000000000000000000000000000000000000000000000000000000000000000000000000
310
00000000000000000000DC000000BE0000000000000000000000000000000000000000000000000000000000000000000000000000000000000000000000000000000000000000000000000000000000000000000000000000000000000000000000000000000000000000BE0000DC00000000002DBEBE2D000000F5F50028
310
2800000000000000000028BE28F500BEF500002D000000000000000000000000000000000000000000000000000000002DBE2D00F52800F5000000000000F5F5002800000000000000000000000028000000000000000000000000000000000000000000000000000000000000000000000000000000000000000000000000
310
000000000000000000000000DC000000BE0000000000000000000000000000000000000000000000000000000000000000000000000000000000000000000000000000000000000000000000000000000000000000000000000000000000000000000000000000000000000000BE0000DC00000000002D00002D000000F5F5
310
00282800000000000000000028BE28F500BEF500002D000000000000000000000000000000000000000000000000000000002D002D00F52800F50000000000F5F50000280000000000000000000000002800000000000000000000000000000000000000000000000000000000000000000000000000000000000000000000
310
0000000000000000000000000000DC000000BE0000000000000000000000000000000000000000000000000000000000000000000000000000000000000000000000000000000000000000000000000000000000000000000000000000000000000000000000000000000000000000BE0000DC00000000002D00002D000000
310
F5F500282800000000000000000028BE28F500BEF500002D000000000000000000000000000000000000000000000000000000002D002D00F52800F50000000000F5F5000028000000000000000000000000280000000000000000000000000000000000000000000000000000000000000000000000000000000000000000
310
00000000000000000000000000000000DC000000BE0000000000000000000000000000000000000000000000000000000000000000000000000000000000000000000000000000000000000000000000000000000000000000000000000000000000000000000000000000000000000000BE0000DC00000000002D00002D00
310
0000F5F500282800000000000000000028BE28F500BEF500BE2D000000000000000000000000000000000000000000000000000000002D002D00F52800F50000000000F5F500002800000000000000000000000028000000000000000000000000000000000000000000000000000000000000000000000000000000000000
310
000000000000000000000000000000000000DC000000BE0000000000000000000000000000000000000000000000000000000000000000000000000000000000000000000000000000000000000000000000000000000000000000000000000000000000000000000000000000000000000000BE0000DC00000000002D0000
310
2D000000F5F500282828282828282828282828BE282800BEF500BE2D000000000000000000000000000000000000000000000000000000002D002D00F52800F500000000F5F500000028F5F5F5F5F5F5F5F5F5F5F5F52800000000000000000000000000000000000000000000000000000000000000000000000000000000
310
0000000000000000000000000000000000000000DC000000BE0000000000000000000000000000000000000000000000000000000000000000000000000000000000000000000000000000000000000000000000000000000000000000000000000000000000000000000000000000000000000000BE0000DC00000000002D
310
00002D000000F5F500282800000000000000000028BE28F500BEF500BE2D000000000000000000000000000000000000000000000000000000002D002D00F52800F500000000F5F500F52800000000000000000000000000280000000000000000000000000000000000000000000000000000000000000000000000000000
310
00000000000000000000000000000000000000000000DC000000BE0000000000000000000000000000000000000000000000000000000000000000000000000000000000000000000000000000000000000000000000000000000000000000000000000000000000000000000000000000000000000000BE0000DC00000000
310
BE2D00002D000000F5F5F5BEBEBEBEBEBEBEBEBEBEBEBEBEBEBEBEBEF500BE2D0000000000000000000000000000000000000000000000000000BE002D002D00F52800F5F5F5F5F5F5282828000000000000000000000000000028000000000000000000000000000000000000000000000000000000000000000000000000
310
000000000000000000000000000000000000000000000000DC000000BE0000000000000000000000000000000000000000000000000000000000000000000000000000000000000000000000000000000000000000000000000000000000000000000000000000000000000000000000000000000000000000BE0000DC0000
310
0000BE2D00002D000000F5F52828282828282828282828282828282800BEF500002D0000000000000000000000000000000000000000000000000000BE002D002D00F52800F50000F5282828F5F5F5F5F5F5F5F5F5F5F5F5F5F5F5F52800000000000000000000000000000000000000000000000000000000000000000000
310
0000000000000000000000000000000000000000000000000000DC000000BE0000000000000000000000000000000000000000000000000000000000000000000000000000000000000000000000000000000000000000000000000000000000000000000000000000000000000000000000000000000000000000BE0000DC
310
00000000BE2D00002D000000F5F5F528000000000000000000000000002800F5F500002D0000000000000000000000000000000000000000000000000000BE002D002D00F52800F5F5F52828000000000000000000000000000000000000280000000000000000000000000000000000000000000000000000000000000000
310
00000000000000000000000000000000000000000000000000000000DC000000BE0000000000000000000000000000000000000000000000000000000000000000000000000000000000000000000000000000000000000000000000000000000000000000000000000000000000000000000000000000000000000000BE00
310
00DC00000000002D00002D000000F5F5F52800000000000000000000000000280000F500002D000000000000000000000000000000000000000000000000000000002D002D00F52800F50000280000000000000000000000000000000000000028000000000000000000000000000000000000000000000000000000000000
310
000000000000000000000000000000000000000000000000000000000000DC000000BE0000000000000000000000000000000000000000000000000000000000000000000000000000000000000000000000000000000000000000000000000000000000000000000000000000000000000000000000000000000000000000
310
BE0000DC00000000002D00002DBEBE2D2D2D2D2D2D2D2D2D2DBEBE2D2D2D2D2D2D2D2D2DF52DBE2D000000000000000000000000000000000000000000000000000000002D002D00F52800F50000280000000000000000000000000000000000000028F5000000000000000000000000000000000000000000000000000000
310
0000000000000000000000000000000000000000000000000000000000000000DC000000BE000000000000000000000000000000000000000000000000000000000000000000000000000000000000000000000000000000000000000000000000000000000000000000000000000000000000000000000000000000000000
310
0000BE0000DC00000000002D00002DBEBEBEF5F5F52D0000000000BEBE0000000000002D0000F5BEBE2D000000000000000000000000000000000000000000000000000000002D002D00F52800F50000280000000000000000000000000000000000000028F500000000000000000000000000000000000000000000000000
310
00000000000000000000000000000000000000000000000000000000000000000000DC000000BE00000000000000000000000000000000000000000000000000000000000000000000000000000000000000000000000000000000000000000000000000000000000000000000000000000000000000000000000000000000
310
00000000BE0000DC00000000002D00002D000000F5F5F5F5280000002D0000000000000000F50000F500002D000000000000000000000000000000000000000000000000000000002D002D00F52800F50000280000000000000000000000000000000000000028F50000000000000000000000000000000000000000000000
310
000000000000000000000000000000000000000000000000000000000000000000000000DC000000BE0000000000000000000000000000000000000000000000000000000000000000000000000000000000000000000000000000000000000000000000000000000000000000000000000000000000000000000000000000
310
000000000000BE0000DC00000000002D00002D000000F5F5F5282828002D2D000000000000282828F500F500002D000000000000000000000000000000000000000000000000000000002D002D00F52800F50000280000000000000000000000000000000000000028F5000000000000000000000000000000000000000000
310
0000000000000000000000000000000000000000000000000000000000000000000000000000DC000000BE000000000000000000000000000000000000000000000000000000000000000000000000000000000000000000000000000000000000000000000000000000000000000000000000000000000000000000000000
310
0000000000000000BE0000DC00000000002D00002D000000F5F5F528BEF5BE2DF5000000000000F5BE28F500F500002D000000000000000000000000000000000000000000000000000000002D002D00F52800F50000280000000000000000000000000000000000000028F500000000000000000000000000000000000000
310
00000000000000000000000000000000000000000000000000000000000000000000000000000000DC000000BE00000000000000000000000000000000000000000000000000000000000000000000000000000000000000000000000000000000000000000000000000000000000000000000000000000000000000000000
310
00000000000000000000BE0000DC00000000002D00002D000000F5F5F5282800BE002D0000000000002D28282D00F500002D2D0000000000000000000000000000000000000000000000000000002D002D00F52800F50000280000000000000000000000000000000000000028F50000000000000000000000000000000000
310
000000000000000000000000000000000000000000000000000000000000000000000000000000000000DC000000BE0000000000000000000000000000000000000000000000000000000000000000000000000000000000000000000000000000000000000000000000000000000000000000000000000000000000000000
310
000000000000000000000000BE0000DC00000000002D00002D000000F5F5F5F5F52D2D2D2D0000000000002D28282D2D2D2D2D2D2D0000000000000000000000000000000000000000000000000000002D002D00BEBE00F50000280000000000000000000000000000000000000028F5000000000000000000000000000000
310
0000000000000000000000000000000000000000000000000000000000000000000000000000000000000000DC000000BE000000000000000000000000000000000000000000000000000000000000000000000000000000000000000000000000000000000000000000000000000000000000000000000000000000000000
310
0000000000000000000000000000BE0000DC00000000002D00002D000000F5F5F52D2D0000002D0000000000002D28282D00F500BEBE000000000000000000000000000000000000000000000000000000002D002D00F52800F50000280000000000000000000000000000000000000028F500000000000000000000000000
310
00000000000000000000000000000000000000000000000000000000000000000000000000000000000000000000DC000000BE00000000000000000000000000000000000000000000000000000000000000000000000000000000000000000000000000000000000000000000000000000000000000000000000000000000
310
00000000000000000000000000000000BE0000DC00000000002D0000F52D2D2DF5F5F52D2DBEBE2D2D2828282828282D28282D2D2D2D2D2D2D0000000000000000000000000000000000000000000000000000002D2DF52DF5F5F5000000280000000000000000000000000000000000000028F50000000000000000000000
310
000000000000000000000000000000000000000000000000000000000000000000000000000000000000000000000000DC000000BE0000000000000000000000000000000000000000000000000000000000000000000000000000000000000000000000000000000000000000000000000000000000000000000000000000
310
000000000000000000000000000000000000BE0000DC00000000002D000000000000002D2D2DF52DBE002D0000BEBEBE2D2D2D2DF52D2D00002D2D0000000000000000000000000000000000000000000000000000002D0000002D0000000000280000000000000000000000000000000000000028F5000000000000000000
310
0000000000000000000000000000000000000000000000000000000000000000000000000000000000000000000000000000DC000000BE000000000000000000000000000000000000000000000000000000000000000000000000000000000000000000000000000000000000000000000000000000000000000000000000
310
0000000000000000000000000000000000000000BE0000DC00000000002D0000000000000000F52D2DBEBE00000000BEBEBE002D00282D000000002D2D0000000000000000000000000000000000000000000000000000002D0000002D0000000000280000000000000000000000000000000000000028F500000000000000
310
00000000000000000000000000000000000000000000000000000000000000000000000000000000000000000000000000000000DC000000BE00000000000000000000000000000000000000000000000000000000000000000000000000000000000000000000000000000000000000000000000000000000000000000000
310
00000000000000000000000000000000000000000000BE0000DC00000000002D0000000000000000F528000000000000000000000000002800000000002D000000000000000000000000000000000000000000000000000000002D0000002D0000000000280000000000000000000000000000000000000028F50000000000
310
000000000000000000000000000000000000000000000000000000000000000000000000000000000000000000000000000000000000DC000000BE0000000000000000000000000000000000000000000000000000000000000000000000000000000000000000000000000000000000000000000000000000000000000000
310
000000000000000000000000000000000000000000000000BE0000DC00000000002D0000000000000000F5280000000000000000000000000028F50000000000000000000000000000000000000000000000000000000000000000002D0000002D0000000000280000000000000000000000000000000000000028F5000000
310
0000000000000000000000000000000000000000000000000000000000000000000000000000000000000000000000000000000000000000DC000000BE000000000000000000000000000000000000000000000000000000000000000000000000000000000000000000000000000000000000000000000000000000000000
310
0000000000000000000000000000000000000000000000000000BE0000DC00000000002D0000000000000000F5280000000000000000000000000028F50000000000000000000000000000000000000000000000000000000000000000002D0000002D0000000000280000000000000000000000000000000000000028F500
310
00000000000000000000000000000000000000000000000000000000000000000000000000000000000000000000000000000000000000000000DC000000BE00000000000000000000000000000000000000000000000000000000000000000000000000000000000000000000000000000000000000000000000000000000
310
00000000000000000000000000000000000000000000000000000000BE0000DC00000000002D0000000000000000F5280000000000000000000000000028F50000000000000000000000000000000000000000000000000000000000000000002D0000002D0000000000280000000000000000000000000000000000000028
310
F50000000000000000000000000000000000000000000000000000000000000000000000000000000000000000000000000000000000000000000000DC000000BE0000000000000000000000000000000000000000000000000000000000000000000000000000000000000000000000000000000000000000000000000000
310
000000000000000000000000000000000000000000000000000000000000BE0000DC00000000002D0000000000000000F5280000000000000000000000000028F50000000000000000000000000000000000000000000000000000000000000000002D0000002D000000000028000000000000000000000000000000000000
310
0028F50000000000000000000000000000000000000000000000000000000000000000000000000000000000000000000000000000000000000000000000DC000000BE000000000000000000000000000000000000000000000000000000000000000000000000000000000000000000000000000000000000000000000000
310
0000000000000000000000000000000000000000000000000000000000000000BE0000DC00000000002D0000000000000000F5280000000000000000000000000028F50000000000000000000000000000000000000000000000000000000000000000002D0000002D00000000002800000000000000000000000000000000
310
00000028F50000000000000000000000000000000000000000000000000000000000000000000000000000000000000000000000000000000000000000000000DC000000BE00000000000000000000000000000000000000000000000000000000000000000000000000000000000000000000000000000000000000000000
310
00000000000000000000000000000000000000000000000000000000000000000000BE0000DC00000000002D0000000000000000F5280000000000000000000000000028F50000000000000000000000000000000000000000000000000000000000000000002D0000002D0000000000280000000000000000000000000000
310
000000000028F50000000000000000000000000000000000000000000000000000000000000000000000000000000000000000000000000000000000000000000000DC000000BE0000000000000000000000000000000000000000000000000000000000000000000000000000000000000000000000000000000000000000
310
000000000000000000000000000000000000000000000000000000000000000000000000BE0000DC00000000002D0000000000000000F5280000000000000000000000000028F50000000000000000000000000000000000000000000000000000000000000000002D0000002D000000000028000000000000000000000000
310
0000000000000028F50000000000000000000000000000000000000000000000000000000000000000000000000000000000000000000000000000000000000000000000DC000000BE000000000000000000000000000000000000000000000000000000000000000000000000000000000000000000000000000000000000
310
0000000000000000000000000000000000000000000000000000000000000000000000000000BE0000DC00000000002D0000000000000000F5280000000000000000000000000028F50000000000000000000000000000000000000000000000000000000000000000002D0000002D00000000002800000000000000000000
310
00000000000000000028F50000000000000000000000000000000000000000000000000000000000000000000000000000000000000000000000000000000000000000000000DC000000BE00000000000000000000000000000000000000000000000000000000000000000000000000000000000000000000000000000000
310
00000000000000000000000000000000000000000000000000000000000000000000000000000000BE0000DC00000000002D0000000000000000F5280000000000000000000000000028F50000000000000000000000000000000000000000000000000000000000000000002D0000002D0000000000280000000000000000
310
000000000000000000000028F50000000000000000000000000000000000000000000000000000000000000000000000000000000000000000000000000000000000000000000000DC000000BE0000000000000000000000000000000000000000000000000000000000000000000000000000000000000000000000000000
310
000000000000000000000000000000000000000000000000000000000000000000000000000000000000BE0000DC00000000002D0000000000000000F5280000000000000000000000000028F50000000000000000000000000000000000000000000000000000000000000000002D0000002D00000000F528000000000000
310
0000000000000000000000000028F50000000000000000000000000000000000000000000000000000000000000000000000000000000000000000000000000000000000000000000000DC000000BE000000000000000000000000000000000000000000000000000000000000000000000000000000000000000000000000
310
0000000000000000000000000000000000000000000000000000000000000000000000000000000000000000BE0000DC00000000002D0000000000000000F5280000000000000000000000000028F50000000000000000000000000000000000000000000000000000000000000000002D0000002D00000000F52828282800
310
00000000000000000000000000000028F50000000000000000000000000000000000000000000000000000000000000000000000000000000000000000000000000000000000000000000000DC000000BE00000000000000000000000000000000000000000000000000000000000000000000000000000000000000000000
310
00000000000000000000000000000000000000000000000000000000000000000000000000000000000000000000BE0000DC00000000002D0000000000000000F5280000000000000000000000000028F50000000000000000000000000000000000000000000000000000000000000000002D0000002D00000000F5280000
310
282828282828282828282828282828282828F50000000000000000000000000000000000000000000000000000000000000000000000000000000000000000000000000000000000000000000000DC000000BE0000000000000000000000000000000000000000000000000000000000000000000000000000000000000000
310
000000000000000000000000000000000000000000000000000000000000000000000000000000000000000000000000BE0000DC00000000002D2D00000000000000F5F5F5F5F5F5F5F5F5F5F5F5F5F5F5F5F500000000000000000000000000000000000000000000000000000000000000002D2D0000002D00000000F5F5
310
F5F5F5F5F5F5F5F5F5F5F5F5F5F5F5F5F5F5F528F50000000000000000000000000000000000000000000000000000000000000000000000000000000000000000000000000000000000000000000000DC000000BE000000000000000000000000000000000000000000000000000000000000000000000000000000000000
310
0000000000000000000000000000000000000000000000000000000000000000000000000000000000000000000000000000BE0000DC00000000002D2D2D2D2D2D2D2D2D2D2DF5F5F5F5F5F5F5F5F5F5F5F5F5000000000000000000000000000000000000000000000000000000000000000000002DF52D2D2D2D2D2D2D2D
310
2D2D2D2D2D2DF5F5F5F5F5F5F5F5F5F5F5F5F5F5F5002D0000000000000000000000000000000000000000000000000000000000000000000000000000000000000000000000000000000000000000000000DC000000BE00000000000000000000000000000000000000000000000000000000000000000000000000000000
310
00000000000000000000000000000000000000000000000000000000000000000000000000000000000000000000000000000000BE0000DC00000000000000000000000000000000000000000000000000000000000000000000000000000000000000000000000000000000000000000000000000000000000000002D0000
310
0000000000000000000000000000000000000000000000002D0000000000000000000000000000000000000000000000000000000000000000000000000000000000000000000000000000000000000000000000DC000000BE0000000000000000000000000000000000000000000000000000000000000000000000000000
310
000000000000000000000000000000000000000000000000000000000000000000000000000000000000000000000000000000000000BE0000DC00000000000000000000000000000000000000000000000000000000000000000000000000000000000000000000000000000000000000000000000000000000000000002D
310
2D2D2D2D2D2D2D2D2D2D2DBEBEBE2D2D2D2D2D2D2D2D2D2D2D2DF50000000000000000000000000000000000000000000000000000000000000000000000000000000000000000000000000000000000000000000000DC000000BE000000000000000000000000000000000000000000000000000000000000000000000000
310
0000000000000000000000000000000000000000000000000000000000000000000000000000000000000000000000000000000000000000BE0000DC00000000000000000000000000000000000000000000000000000000000000000000000000000000000000000000000000000000000000000000000000000000000000
310
002D0000000000000000000000BEBEBE0000000000000000000000002D0000000000000000000000000000000000000000000000000000000000000000000000000000000000000000000000000000000000000000000000DC000000BE00000000000000000000000000000000000000000000000000000000000000000000
310
00000000000000000000000000000000000000000000000000000000000000000000000000000000000000000000000000000000000000000000BE0000DC0000000000000000000000000000000000000000000000000000000000000000000000000000000000000000000000000000000000000000000000000000000000
310
000000000000000000000000000000000000000000000000000000000000000000000000000000000000000000000000000000000000000000000000000000000000000000000000000000000000000000000000000000000000DC000000BE0000000000000000000000000000000000000000000000000000000000000000
310
000000000000000000000000000000000000000000000000000000000000000000000000000000000000000000000000000000000000000000000000BE0000DC000000000000000000000000000000000000000000000000000000000000000000000000000000000000000000000000000000000000000000000000000000
310
0000000000000000000000000000000000000000000000000000000000000000000000000000000000000000000000000000000000000000000000000000000000000000000000000000000000000000000000000000000000000000DC000000BE000000000000000000000000000000000000000000000000000000000000
310
0000000000000000000000000000000000000000000000000000000000000000000000000000000000000000000000000000000000000000000000000000BE0000DC00000000000000000000000000000000000000000000000000000000000000000000000000000000000000000000000000000000000000000000000000
310
00000000000000000000000000000000000000000000000000000000000000000000000000000000000000000000000000000000000000000000000000000000000000000000000000000000000000000000000000000000000000000000DC000000BE00000000000000000000000000000000000000000000000000000000
310
00000000000000000000000000000000000000000000000000000000000000000000000000000000000000000000000000000000000000000000000000000000BE0000DC0000000000000000000000000000000000000000000000000000000000000000000000000000000000000000000000000000000000000000000000
310
000000000000000000000000000000000000000000000000000000000000000000000000000000000000000000000000000000000000000000000000000000000000000000000000000000000000000000000000000000000000000000000000DC000000BE0000000000000000000000000000000000000000000000000000
310
000000000000000000000000000000000000000000000000000000000000000000000000000000000000000000000000000000000000000000000000000000000000BE0000DC000000000000000000000000000000000000000000000000000000000000000000000000000000000000000000000000000000000000000000
310
0000000000000000000000000000000000000000000000000000000000000000000000000000000000000000000000000000000000000000000000000000000000000000000000000000000000000000000000000000000000000000000000000000DC000000BE000000000000000000000000000000000000000000000000
310
0000000000000000000000000000000000000000000000000000000000000000000000000000000000000000000000000000000000000000000000000000000000000000BE0000DC00000000000000000000000000000000000000000000000000000000000000000000000000000000000000000000000000000000000000
310
00000000000000000000000000000000000000000000000000000000000000000000000000000000000000000000000000000000000000000000000000000000000000000000000000000000000000000000000000000000000000000000000000000000DC000000BE00000000000000000000000000000000000000000000
310
00000000000000000000000000000000000000000000000000000000000000000000000000000000000000000000000000000000000000000000000000000000000000000000BE0000DC0000000000000000000000000000000000000000000000000000000000000000000000000000000000000000000000000000000000
310
000000000000000000000000000000000000000000000000000000000000000000000000000000000000000000000000000000000000000000000000000000000000000000000000000000000000000000000000000000000000000000000000000000000000DC000000BE0000000000000000000000000000000000000000
310
000000000000000000000000000000000000000000000000000000000000000000000000000000000000000000000000000000000000000000000000000000000000000000000000BE0000DCDCDCDCDCDCDCDCDCDCDCDCDCDCDCDCDCDCDCDCDCDCDCDCDCDCDCDCDCDCDCDCDCDCDCDCDCDCDCDCDCDCDCDCDCDCDCDCDCDCDCDC
310
DCDCDCDCDCDCDCDCDCDCDCDCDCDCDCDCDCDCDCDCDCDCDCDCDCDCDCDCDCDCDCDCDCDCDCDCDCDCDCDCDCDCDCDCDCDCDCDCDCDCDCDCDCDCDCDCDCDCDCDCDCDCDCDCDCDCDCDCDCDCDCDCDCDCDCDCDCDCDCDCDCDCDCDCDCDCDCDCDCDCDCDCDCDCDCDCDCDCDCDCDCDCDCDCDC000000BE000000000000000000000000000000000000
310
0000000000000000000000000000000000000000000000000000000000000000000000000000000000000000000000000000000000000000000000000000000000000000000000000000BE00000000000000000000000000000000000000000000000000000000000000000000000000000000000000000000000000000000
310
0000000000000000000000000000000000000000000000000000000000000000000000000000000000000000000000000000000000000000000000000000000000000000000000000000000000000000000000000000000000000000000000000000000000000000000000000000BE00000000000000000000000000000000
310
00000000000000000000000000000000000000000000000000000000000000000000000000000000000000000000000000000000000000000000000000000000000000000000000000000000BE0000000000000000000000000000000000000000000000000000000000000000000000000000000000000000000000000000
310
00000000000000000000000000000000000000000000000000000000000000000000000000000000000000000000000000000000000000000000000000000000000000000000000000000000000000000000000000000000000000000000000000000000000000000000000000000000BE0000000000000000000000000000
310
000000000000000000000000000000000000000000000000000000000000000000000000000000000000000000000000000000000000000000000000000000000000000000000000000000000000BE000000000000000000000000000000000000000000000000000000000000000000000000000000000000000000000000
310
000000000000000000000000000000000000000000000000000000000000000000000000000000000000000000000000000000000000000000000000000000000000000000000000000000000000000000000000000000000000000000000000000000000000000000000000000000000000BE000000000000000000000000
310
0000000000000000000000000000000000000000000000000000000000000000000000000000000000000000000000000000000000000000000000000000000000000000000000000000000000000000BEBEBEBEBEBEBEBEBEBEBEBEBEBEBEBEBEBEBEBEBEBEBEBEBEBEBEBEBEBEBEBEBEBEBEBEBEBEBEBEBEBEBEBEBEBEBE
310
BEBEBEBEBEBEBEBEBEBEBEBEBEBEBEBEBEBEBEBEBEBEBEBEBEBEBEBEBEBEBEBEBEBEBEBEBEBEBEBEBEBEBEBEBEBEBEBEBEBEBEBEBEBEBEBEBEBEBEBEBEBEBEBEBEBEBEBEBEBEBEBEBEBEBEBEBEBEBEBEBEBEBEBEBEBEBEBEBEBEBEBEBEBEBEBEBEBEBEBEBEBEBEBEBEBEBEBEBEBEBEBEBEBEBEBEBE00000000000000000000
310
00000000000000000000000000000000000000000000000000000000000000000000000000000000000000000000000000000000000000000000000000000000000000000000000000000000000000000000000000000000000000000000000000000000000000000000000000000000000000000000000000000000000000
310
00000000000000000000000000000000000000000000000000000000000000000000000000000000000000000000000000000000000000000000000000000000000000000000000000000000000000000000000000000000000000000000000000000000000000000000000000000000000000000000000000000000000000
310
00000000000000000000000000000000000000000000000000000000000000000000000000000000000000000000000000000000000000000000000000000000000000000000000000000000000000000000000000000000000000000000000000000000000000000000000000000000000000000000000000000000000000
310
00000000000000000000000000000000000000000000000000000000000000000000000000000000000000000000000000000000000000000000000000000000000000000000000000000000000000000000000000000000000000000000000000000000000000000000000000000000000000000000000000000000000000
310
00000000000000000000000000000000000000000000000000000000000000000000000000000000000000000000000000000000000000000000000000000000000000000000000000000000000000000000000000000000000000000000000000000000000000000000000000000000000000000000000000000000000000
310
00000000000000000000000000000000000000000000000000000000000000000000000000000000000000000000000000000000000000000000000000000000000000000000000000000000000000000000000000000000000000000000000000000000000000000000000000000000000000000000000000000000000000
310
00000000000000000000000000000000000000000000000000000000000000000000000000000000000000000000000000000000000000000000000000000000000000000000000000000000000000000000000000000000000000000000000000000000000000000000000000000000000000000000000000000000000000
310
00000000000000000000000000000000000000000000000000000000000000000000000000000000000000000000000000000000000000000000000000000000000000000000000000000000000000000000000000000000000000000000000000000000000000000000000000000000000000000000000000000000000000
310
00000000000000000000000000000000000000000000000000000000000000000000000000000000000000000000000000000000000000000000000000000000000000000000000000000000000000000000000000000000000000000000000000000000000000000000000000000000000000000000000000000000000000
310
00000000000000000000000000000000000000000000000000000000000000000000000000000000000000000000000000000000000000000000000000000000000000000000000000000000000000000000000000000000000000000000000000000000000000000000000000000000000000000000000000000000000000
310
00000000000000000000000000000000000000000000000000000000000000000000000000000000000000000000000000000000000000000000000000000000000000000000000000000000000000000000000000000000000000000000000000000000000000000000000000000000000000000000000000000000000000
310
00000000000000000000000000000000000000000000000000000000000000000000000000000000000000000000000000000000000000000000000000000000000000000000000000000000000000000000000000000000000000000000000000000000000000000000000000000000000000000000000000000000000000
310
00000000000000000000000000000000000000000000000000000000000000000000000000000000000000000000000000000000000000000000000000000000000000000000000000000000000000000000000000000000000000000000000000000000000000000000000000000000000000000000000000000000000000
310
00000000000000000000000000000000000000000000000000000000000000000000000000000000000000000000000000000000000000000000000000000000000000000000000000000000000000000000000000000000000000000000000000000000000000000000000000000000000000000000000000000000000000
310
00000000000000000000000000000000000000000000000000000000000000000000000000000000000000000000000000000000000000000000000000000000000000000000000000000000000000000000000000000000000000000000000000000000000000000000000000000000000000000000000000000000000000
310
00000000000000000000000000000000000000000000000000000000000000000000000000000000000000000000000000000000000000000000000000000000000000000000000000000000000000000000000000000000000000000000000000000000000000000000000000000000000000000000000000000000000000
310
00000000000000000000000000000000000000000000000000000000000000000000000000000000000000000000000000000000000000000000000000000000000000000000000000000000000000000000000000000000000000000000000000000000000000000000000000000000000000000000000000000000000000
310
00000000000000000000000000000000000000000000000000000000000000000000000000000000000000000000000000000000000000000000000000000000000000000000000000000000000000000000000000000000000000000000000000000000000000000000000000000000000000000000000000000000000000
310
00000000000000000000000000000000000000000000000000000000000000000000000000000000000000000000000000000000000000000000000000000000000000000000000000000000000000000000000000000000000000000000000000000000000000000000000000000000000000000000000000000000000000
310
00000000000000000000000000000000000000000000000000000000000000000000000000000000000000000000000000000000000000000000000000000000000000000000000000000000000000000000000000000000000000000000000000000000000000000000000000000000000000000000000000000000000000
310
000000000000000000000000000000000000000000000000000000000000000000000000000000000000000000000000000000000000000000000000000000000000000000000000000000000000000000000000
  0
XRECORD
  5
47
102
{ACAD_REACTORS
330
46
102
}
330
46
100
AcDbXrecord
280
     1
270
     1
271
     1
  0
XRECORD
  5
48
102
{ACAD_REACTORS
330
46
102
}
330
46
100
AcDbXrecord
280
     1
270
     1
271
     1
  0
XRECORD
  5
49
102
{ACAD_REACTORS
330
46
102
}
330
46
100
AcDbXrecord
280
     1
270
     1
271
     1
  0
XRECORD
  5
4A
102
{ACAD_REACTORS
330
46
102
}
330
46
100
AcDbXrecord
280
     1
270
     1
271
     1
  0
XRECORD
  5
4B
102
{ACAD_REACTORS
330
46
102
}
330
46
100
AcDbXrecord
280
     1
270
     1
271
     1
  0
XRECORD
  5
4C
102
{ACAD_REACTORS
330
46
102
}
330
46
100
AcDbXrecord
280
     1
270
     1
271
     1
  0
XRECORD
  5
3F
102
{ACAD_REACTORS
330
3E
102
}
330
3E
100
AcDbXrecord
280
     1
270
     1
271
     1
  0
XRECORD
  5
40
102
{ACAD_REACTORS
330
3E
102
}
330
3E
100
AcDbXrecord
280
     1
270
     1
271
     1
  0
XRECORD
  5
41
102
{ACAD_REACTORS
330
3E
102
}
330
3E
100
AcDbXrecord
280
     1
270
     1
271
     1
  0
XRECORD
  5
42
102
{ACAD_REACTORS
330
3E
102
}
330
3E
100
AcDbXrecord
280
     1
270
     1
271
     1
  0
XRECORD
  5
43
102
{ACAD_REACTORS
330
3E
102
}
330
3E
100
AcDbXrecord
280
     1
270
     1
271
     1
  0
XRECORD
  5
44
102
{ACAD_REACTORS
330
3E
102
}
330
3E
100
AcDbXrecord
280
     1
270
     1
271
     1
  0
XRECORD
  5
F
102
{ACAD_REACTORS
330
E
102
}
330
E
100
AcDbXrecord
280
     1
270
     1
271
     1
  0
XRECORD
  5
10
102
{ACAD_REACTORS
330
E
102
}
330
E
100
AcDbXrecord
280
     1
270
     1
271
     1
  0
XRECORD
  5
11
102
{ACAD_REACTORS
330
E
102
}
330
E
100
AcDbXrecord
280
     1
270
     1
271
     1
  0
XRECORD
  5
12
102
{ACAD_REACTORS
330
E
102
}
330
E
100
AcDbXrecord
280
     1
270
     1
271
     1
  0
XRECORD
  5
13
102
{ACAD_REACTORS
330
E
102
}
330
E
100
AcDbXrecord
280
     1
270
     1
271
     1
  0
XRECORD
  5
14
102
{ACAD_REACTORS
330
E
102
}
330
E
100
AcDbXrecord
280
     1
270
     1
271
     1
  0
CELLSTYLEMAP
  5
3F0
102
{ACAD_REACTORS
330
53
102
}
330
53
100
AcDbCellStyleMap
 90
        3
300
CELLSTYLE
  1
TABLEFORMAT_BEGIN
 90
        5
170
     1
 91
        0
 92
    32768
 62
   257
 93
        1
300
CONTENTFORMAT
  1
CONTENTFORMAT_BEGIN
 90
        0
 91
        0
 92
      512
 93
        0
300

 40
0.0
140
1.0
 94
        5
 62
     0
340
27
144
6.0
309
CONTENTFORMAT_END
171
     1
301
MARGIN
  1
CELLMARGIN_BEGIN
 40
1.5
 40
1.5
 40
1.5
 40
1.5
 40
4.5
 40
4.5
309
CELLMARGIN_END
 94
        6
 95
        1
302
GRIDFORMAT
  1
GRIDFORMAT_BEGIN
 90
        0
 91
        1
 62
     0
 92
       -2
340
0
 93
        0
 40
1.125
309
GRIDFORMAT_END
 95
        2
302
GRIDFORMAT
  1
GRIDFORMAT_BEGIN
 90
        0
 91
        1
 62
     0
 92
       -2
340
0
 93
        0
 40
1.125
309
GRIDFORMAT_END
 95
        4
302
GRIDFORMAT
  1
GRIDFORMAT_BEGIN
 90
        0
 91
        1
 62
     0
 92
       -2
340
0
 93
        0
 40
1.125
309
GRIDFORMAT_END
 95
        8
302
GRIDFORMAT
  1
GRIDFORMAT_BEGIN
 90
        0
 91
        1
 62
     0
 92
       -2
340
0
 93
        0
 40
1.125
309
GRIDFORMAT_END
 95
       16
302
GRIDFORMAT
  1
GRIDFORMAT_BEGIN
 90
        0
 91
        1
 62
     0
 92
       -2
340
0
 93
        0
 40
1.125
309
GRIDFORMAT_END
 95
       32
302
GRIDFORMAT
  1
GRIDFORMAT_BEGIN
 90
        0
 91
        1
 62
     0
 92
       -2
340
0
 93
        0
 40
1.125
309
GRIDFORMAT_END
309
TABLEFORMAT_END
  1
CELLSTYLE_BEGIN
 90
        1
 91
        1
300
_TITLE
309
CELLSTYLE_END
300
CELLSTYLE
  1
TABLEFORMAT_BEGIN
 90
        5
170
     1
 91
        0
 92
        0
 62
   257
 93
        1
300
CONTENTFORMAT
  1
CONTENTFORMAT_BEGIN
 90
        0
 91
        0
 92
      512
 93
        0
300

 40
0.0
140
1.0
 94
        5
 62
     0
340
27
144
4.5
309
CONTENTFORMAT_END
171
     1
301
MARGIN
  1
CELLMARGIN_BEGIN
 40
1.5
 40
1.5
 40
1.5
 40
1.5
 40
4.5
 40
4.5
309
CELLMARGIN_END
 94
        6
 95
        1
302
GRIDFORMAT
  1
GRIDFORMAT_BEGIN
 90
        0
 91
        1
 62
     0
 92
       -2
340
0
 93
        0
 40
1.125
309
GRIDFORMAT_END
 95
        2
302
GRIDFORMAT
  1
GRIDFORMAT_BEGIN
 90
        0
 91
        1
 62
     0
 92
       -2
340
0
 93
        0
 40
1.125
309
GRIDFORMAT_END
 95
        4
302
GRIDFORMAT
  1
GRIDFORMAT_BEGIN
 90
        0
 91
        1
 62
     0
 92
       -2
340
0
 93
        0
 40
1.125
309
GRIDFORMAT_END
 95
        8
302
GRIDFORMAT
  1
GRIDFORMAT_BEGIN
 90
        0
 91
        1
 62
     0
 92
       -2
340
0
 93
        0
 40
1.125
309
GRIDFORMAT_END
 95
       16
302
GRIDFORMAT
  1
GRIDFORMAT_BEGIN
 90
        0
 91
        1
 62
     0
 92
       -2
340
0
 93
        0
 40
1.125
309
GRIDFORMAT_END
 95
       32
302
GRIDFORMAT
  1
GRIDFORMAT_BEGIN
 90
        0
 91
        1
 62
     0
 92
       -2
340
0
 93
        0
 40
1.125
309
GRIDFORMAT_END
309
TABLEFORMAT_END
  1
CELLSTYLE_BEGIN
 90
        2
 91
        1
300
_HEADER
309
CELLSTYLE_END
300
CELLSTYLE
  1
TABLEFORMAT_BEGIN
 90
        5
170
     1
 91
        0
 92
        0
 62
   257
 93
        1
300
CONTENTFORMAT
  1
CONTENTFORMAT_BEGIN
 90
        0
 91
        0
 92
      512
 93
        0
300

 40
0.0
140
1.0
 94
        2
 62
     0
340
27
144
4.5
309
CONTENTFORMAT_END
171
     1
301
MARGIN
  1
CELLMARGIN_BEGIN
 40
1.5
 40
1.5
 40
1.5
 40
1.5
 40
4.5
 40
4.5
309
CELLMARGIN_END
 94
        6
 95
        1
302
GRIDFORMAT
  1
GRIDFORMAT_BEGIN
 90
        0
 91
        1
 62
     0
 92
       -2
340
0
 93
        0
 40
1.125
309
GRIDFORMAT_END
 95
        2
302
GRIDFORMAT
  1
GRIDFORMAT_BEGIN
 90
        0
 91
        1
 62
     0
 92
       -2
340
0
 93
        0
 40
1.125
309
GRIDFORMAT_END
 95
        4
302
GRIDFORMAT
  1
GRIDFORMAT_BEGIN
 90
        0
 91
        1
 62
     0
 92
       -2
340
0
 93
        0
 40
1.125
309
GRIDFORMAT_END
 95
        8
302
GRIDFORMAT
  1
GRIDFORMAT_BEGIN
 90
        0
 91
        1
 62
     0
 92
       -2
340
0
 93
        0
 40
1.125
309
GRIDFORMAT_END
 95
       16
302
GRIDFORMAT
  1
GRIDFORMAT_BEGIN
 90
        0
 91
        1
 62
     0
 92
       -2
340
0
 93
        0
 40
1.125
309
GRIDFORMAT_END
 95
       32
302
GRIDFORMAT
  1
GRIDFORMAT_BEGIN
 90
        0
 91
        1
 62
     0
 92
       -2
340
0
 93
        0
 40
1.125
309
GRIDFORMAT_END
309
TABLEFORMAT_END
  1
CELLSTYLE_BEGIN
 90
        3
 91
        2
300
_DATA
309
CELLSTYLE_END
  0
ENDSEC
  0
EOF
