  0
SECTION
  2
HEADER
  9
$ACADVER
  1
AC1024
  9
$ACADMAINTVER
 70
     6
  9
$DWGCODEPAGE
  3
ANSI_1252
  9
$INSBASE
 10
0.0
 20
0.0
 30
0.0
  9
$EXTMIN
 10
0.0
 20
-0.0000000000000568
 30
0.0
  9
$EXTMAX
 10
525.0
 20
742.4999999999999
 30
0.0
  9
$LIMMIN
 10
0.0
 20
0.0
  9
$LIMMAX
 10
420.0
 20
594.0000000000002
  9
$ORTHOMODE
 70
     1
  9
$REGENMODE
 70
     1
  9
$FILLMODE
 70
     1
  9
$QTEXTMODE
 70
     0
  9
$MIRRTEXT
 70
     1
  9
$LTSCALE
 40
15.0
  9
$ATTMODE
 70
     1
  9
$TEXTSIZE
 40
5.0
  9
$TRACEWID
 40
1.0
  9
$TEXTSTYLE
  7
STANDARD
  9
$CLAYER
  8
09-01
  9
$CELTYPE
  6
BYLAYER
  9
$CECOLOR
 62
   256
  9
$CELTSCALE
 40
1.0
  9
$DISPSILH
 70
     0
  9
$DIMSCALE
 40
2.0
  9
$DIMASZ
 40
2.5
  9
$DIMEXO
 40
1.0
  9
$DIMDLI
 40
10.0
  9
$DIMRND
 40
0.0
  9
$DIMDLE
 40
0.0
  9
$DIMEXE
 40
1.0
  9
$DIMTP
 40
0.0
  9
$DIMTM
 40
0.0
  9
$DIMTXT
 40
2.5
  9
$DIMCEN
 40
0.0
  9
$DIMTSZ
 40
0.0
  9
$DIMTOL
 70
     0
  9
$DIMLIM
 70
     0
  9
$DIMTIH
 70
     0
  9
$DIMTOH
 70
     0
  9
$DIMSE1
 70
     0
  9
$DIMSE2
 70
     0
  9
$DIMTAD
 70
     1
  9
$DIMZIN
 70
     8
  9
$DIMBLK
  1

  9
$DIMASO
 70
     1
  9
$DIMSHO
 70
     1
  9
$DIMPOST
  1

  9
$DIMAPOST
  1

  9
$DIMALT
 70
     0
  9
$DIMALTD
 70
     3
  9
$DIMALTF
 40
0.03937007874016
  9
$DIMLFAC
 40
1.0
  9
$DIMTOFL
 70
     1
  9
$DIMTVP
 40
0.0
  9
$DIMTIX
 70
     0
  9
$DIMSOXD
 70
     0
  9
$DIMSAH
 70
     0
  9
$DIMBLK1
  1

  9
$DIMBLK2
  1

  9
$DIMSTYLE
  2
Wagner
  9
$DIMCLRD
 70
     4
  9
$DIMCLRE
 70
     4
  9
$DIMCLRT
 70
     1
  9
$DIMTFAC
 40
1.0
  9
$DIMGAP
 40
1.0
  9
$DIMJUST
 70
     0
  9
$DIMSD1
 70
     0
  9
$DIMSD2
 70
     0
  9
$DIMTOLJ
 70
     0
  9
$DIMTZIN
 70
     8
  9
$DIMALTZ
 70
     0
  9
$DIMALTTZ
 70
     0
  9
$DIMUPT
 70
     0
  9
$DIMDEC
 70
     8
  9
$DIMTDEC
 70
     8
  9
$DIMALTU
 70
     2
  9
$DIMALTTD
 70
     3
  9
$DIMTXSTY
  7
STANDARD
  9
$DIMAUNIT
 70
     0
  9
$DIMADEC
 70
     8
  9
$DIMALTRND
 40
0.0
  9
$DIMAZIN
 70
     2
  9
$DIMDSEP
 70
    46
  9
$DIMATFIT
 70
     3
  9
$DIMFRAC
 70
     0
  9
$DIMLDRBLK
  1

  9
$DIMLUNIT
 70
     2
  9
$DIMLWD
 70
    -2
  9
$DIMLWE
 70
    -2
  9
$DIMTMOVE
 70
     0
  9
$DIMFXL
 40
1.0
  9
$DIMFXLON
 70
     0
  9
$DIMJOGANG
 40
0.7853981633974483
  9
$DIMTFILL
 70
     0
  9
$DIMTFILLCLR
 70
     0
  9
$DIMARCSYM
 70
     0
  9
$DIMLTYPE
  6

  9
$DIMLTEX1
  6

  9
$DIMLTEX2
  6

  9
$DIMTXTDIRECTION
 70
     0
  9
$LUNITS
 70
     2
  9
$LUPREC
 70
     1
  9
$SKETCHINC
 40
1.0
  9
$FILLETRAD
 40
0.0
  9
$AUNITS
 70
     0
  9
$AUPREC
 70
     0
  9
$MENU
  1
.
  9
$ELEVATION
 40
0.0
  9
$PELEVATION
 40
0.0
  9
$THICKNESS
 40
0.0
  9
$LIMCHECK
 70
     0
  9
$CHAMFERA
 40
0.0
  9
$CHAMFERB
 40
0.0
  9
$CHAMFERC
 40
20.0
  9
$CHAMFERD
 40
0.0
  9
$SKPOLY
 70
     0
  9
$TDCREATE
 40
2451661.659095602
  9
$TDUCREATE
 40
2451661.575762269
  9
$TDUPDATE
 40
2456855.530998322
  9
$TDUUPDATE
 40
2456855.447664988
  9
$TDINDWG
 40
9.3965688426
  9
$TDUSRTIMER
 40
9.3965687269
  9
$USRTIMER
 70
     1
  9
$ANGBASE
 50
0.0
  9
$ANGDIR
 70
     0
  9
$PDMODE
 70
     0
  9
$PDSIZE
 40
0.0
  9
$PLINEWID
 40
0.0
  9
$SPLFRAME
 70
     0
  9
$SPLINETYPE
 70
     6
  9
$SPLINESEGS
 70
     8
  9
$HANDSEED
  5
347
  9
$SURFTAB1
 70
     6
  9
$SURFTAB2
 70
     6
  9
$SURFTYPE
 70
     6
  9
$SURFU
 70
     6
  9
$SURFV
 70
     6
  9
$UCSBASE
  2

  9
$UCSNAME
  2

  9
$UCSORG
 10
0.0
 20
0.0
 30
0.0
  9
$UCSXDIR
 10
1.0
 20
0.0
 30
0.0
  9
$UCSYDIR
 10
0.0
 20
1.0
 30
0.0
  9
$UCSORTHOREF
  2

  9
$UCSORTHOVIEW
 70
     0
  9
$UCSORGTOP
 10
0.0
 20
0.0
 30
0.0
  9
$UCSORGBOTTOM
 10
0.0
 20
0.0
 30
0.0
  9
$UCSORGLEFT
 10
0.0
 20
0.0
 30
0.0
  9
$UCSORGRIGHT
 10
0.0
 20
0.0
 30
0.0
  9
$UCSORGFRONT
 10
0.0
 20
0.0
 30
0.0
  9
$UCSORGBACK
 10
0.0
 20
0.0
 30
0.0
  9
$PUCSBASE
  2

  9
$PUCSNAME
  2

  9
$PUCSORG
 10
0.0
 20
0.0
 30
0.0
  9
$PUCSXDIR
 10
1.0
 20
0.0
 30
0.0
  9
$PUCSYDIR
 10
0.0
 20
1.0
 30
0.0
  9
$PUCSORTHOREF
  2

  9
$PUCSORTHOVIEW
 70
     0
  9
$PUCSORGTOP
 10
0.0
 20
0.0
 30
0.0
  9
$PUCSORGBOTTOM
 10
0.0
 20
0.0
 30
0.0
  9
$PUCSORGLEFT
 10
0.0
 20
0.0
 30
0.0
  9
$PUCSORGRIGHT
 10
0.0
 20
0.0
 30
0.0
  9
$PUCSORGFRONT
 10
0.0
 20
0.0
 30
0.0
  9
$PUCSORGBACK
 10
0.0
 20
0.0
 30
0.0
  9
$USERI1
 70
     0
  9
$USERI2
 70
     0
  9
$USERI3
 70
     0
  9
$USERI4
 70
     0
  9
$USERI5
 70
     0
  9
$USERR1
 40
0.0
  9
$USERR2
 40
0.0
  9
$USERR3
 40
0.0
  9
$USERR4
 40
0.0
  9
$USERR5
 40
0.0
  9
$WORLDVIEW
 70
     1
  9
$SHADEDGE
 70
     3
  9
$SHADEDIF
 70
    70
  9
$TILEMODE
 70
     1
  9
$MAXACTVP
 70
    48
  9
$PINSBASE
 10
0.0
 20
0.0
 30
0.0
  9
$PLIMCHECK
 70
     0
  9
$PEXTMIN
 10
1.000000000000000E+20
 20
1.000000000000000E+20
 30
1.000000000000000E+20
  9
$PEXTMAX
 10
-1.000000000000000E+20
 20
-1.000000000000000E+20
 30
-1.000000000000000E+20
  9
$PLIMMIN
 10
0.0
 20
0.0
  9
$PLIMMAX
 10
420.0
 20
297.0
  9
$UNITMODE
 70
     0
  9
$VISRETAIN
 70
     1
  9
$PLINEGEN
 70
     0
  9
$PSLTSCALE
 70
     1
  9
$TREEDEPTH
 70
  3020
  9
$CMLSTYLE
  2
STANDARD
  9
$CMLJUST
 70
     0
  9
$CMLSCALE
 40
20.0
  9
$PROXYGRAPHICS
 70
     1
  9
$MEASUREMENT
 70
     1
  9
$CELWEIGHT
370
    -1
  9
$ENDCAPS
280
     0
  9
$JOINSTYLE
280
     0
  9
$LWDISPLAY
290
     0
  9
$INSUNITS
 70
     0
  9
$HYPERLINKBASE
  1

  9
$STYLESHEET
  1

  9
$XEDIT
290
     1
  9
$CEPSNTYPE
380
     0
  9
$PSTYLEMODE
290
     1
  9
$FINGERPRINTGUID
  2
{CAF9C43C-FEC8-437C-AE70-62492768A91C}
  9
$VERSIONGUID
  2
{F1C49306-F157-4561-AB50-5E7604E52658}
  9
$EXTNAMES
290
     1
  9
$PSVPSCALE
 40
0.0
  9
$OLESTARTUP
290
     0
  9
$SORTENTS
280
   127
  9
$INDEXCTL
280
     0
  9
$HIDETEXT
280
     1
  9
$XCLIPFRAME
280
     0
  9
$HALOGAP
280
     0
  9
$OBSCOLOR
 70
   257
  9
$OBSLTYPE
280
     0
  9
$INTERSECTIONDISPLAY
280
     0
  9
$INTERSECTIONCOLOR
 70
   257
  9
$DIMASSOC
280
     1
  9
$PROJECTNAME
  1

  9
$CAMERADISPLAY
290
     0
  9
$LENSLENGTH
 40
50.0
  9
$CAMERAHEIGHT
 40
0.0
  9
$STEPSPERSEC
 40
2.0
  9
$STEPSIZE
 40
6.0
  9
$3DDWFPREC
 40
2.0
  9
$PSOLWIDTH
 40
0.25
  9
$PSOLHEIGHT
 40
4.0
  9
$LOFTANG1
 40
1.570796326794896
  9
$LOFTANG2
 40
1.570796326794896
  9
$LOFTMAG1
 40
0.0
  9
$LOFTMAG2
 40
0.0
  9
$LOFTPARAM
 70
     7
  9
$LOFTNORMALS
280
     1
  9
$LATITUDE
 40
37.795
  9
$LONGITUDE
 40
-122.394
  9
$NORTHDIRECTION
 40
0.0
  9
$TIMEZONE
 70
 -8000
  9
$LIGHTGLYPHDISPLAY
280
     1
  9
$TILEMODELIGHTSYNCH
280
     1
  9
$CMATERIAL
347
3D
  9
$SOLIDHIST
280
     1
  9
$SHOWHIST
280
     1
  9
$DWFFRAME
280
     2
  9
$DGNFRAME
280
     0
  9
$REALWORLDSCALE
290
     1
  9
$INTERFERECOLOR
 62
     1
  9
$INTERFEREOBJVS
345
57
  9
$INTERFEREVPVS
346
58
  9
$CSHADOW
280
     0
  9
$SHADOWPLANELOCATION
 40
0.0
  0
ENDSEC
  0
SECTION
  2
CLASSES
  0
CLASS
  1
ACDBDICTIONARYWDFLT
  2
AcDbDictionaryWithDefault
  3
ObjectDBX Classes
 90
        0
 91
        1
280
     0
281
     0
  0
CLASS
  1
MATERIAL
  2
AcDbMaterial
  3
ObjectDBX Classes
 90
     1153
 91
        3
280
     0
281
     0
  0
CLASS
  1
VISUALSTYLE
  2
AcDbVisualStyle
  3
ObjectDBX Classes
 90
     4095
 91
        3
280
     0
281
     0
  0
CLASS
  1
TABLESTYLE
  2
AcDbTableStyle
  3
ObjectDBX Classes
 90
     4095
 91
        1
280
     0
281
     0
  0
CLASS
  1
SCALE
  2
AcDbScale
  3
ObjectDBX Classes
 90
     1153
 91
       33
280
     0
281
     0
  0
CLASS
  1
MLEADERSTYLE
  2
AcDbMLeaderStyle
  3
ACDB_MLEADERSTYLE_CLASS
 90
     4095
 91
        0
280
     0
281
     0
  0
CLASS
  1
CELLSTYLEMAP
  2
AcDbCellStyleMap
  3
ObjectDBX Classes
 90
     1152
 91
        1
280
     0
281
     0
  0
CLASS
  1
DICTIONARYVAR
  2
AcDbDictionaryVar
  3
ObjectDBX Classes
 90
        0
 91
        7
280
     0
281
     0
  0
CLASS
  1
SORTENTSTABLE
  2
AcDbSortentsTable
  3
ObjectDBX Classes
 90
        0
 91
        6
280
     0
281
     0
  0
CLASS
  1
SOLID_BACKGROUND
  2
AcDbSolidBackground
  3
SCENEOE
 90
     4095
 91
        0
280
     0
281
     0
  0
CLASS
  1
NPOCOLLECTION
  2
AcDbImpNonPersistentObjectsCollection
  3
ObjectDBX Classes
 90
     1153
 91
        0
280
     0
281
     0
  0
CLASS
  1
DIMASSOC
  2
AcDbDimAssoc
  3
"AcDbDimAssoc|Product Desc:     AcDim ARX App For Dimension|Company:          Autodesk, Inc.|WEB Address:      www.autodesk.com"
 90
        0
 91
        0
280
     0
281
     0
  0
CLASS
  1
ACAD_TABLE
  2
AcDbTable
  3
ObjectDBX Classes
 90
     1025
 91
        0
280
     0
281
     1
  0
CLASS
  1
TABLECONTENT
  2
AcDbTableContent
  3
ObjectDBX Classes
 90
     1152
 91
        0
280
     0
281
     0
  0
CLASS
  1
TABLEGEOMETRY
  2
AcDbTableGeometry
  3
ObjectDBX Classes
 90
     1152
 91
        0
280
     0
281
     0
  0
CLASS
  1
ACAD_EVALUATION_GRAPH
  2
AcDbEvalGraph
  3
ObjectDBX Classes
 90
     1153
 91
        0
280
     0
281
     0
  0
CLASS
  1
BLOCKBASEPOINTPARAMETER
  2
AcDbBlockBasepointParameter
  3
ObjectDBX Classes
 90
     1153
 91
        0
280
     0
281
     0
  0
CLASS
  1
ACDB_DYNAMICBLOCKPURGEPREVENTER_VERSION
  2
AcDbDynamicBlockPurgePreventer
  3
ObjectDBX Classes
 90
     1153
 91
        0
280
     0
281
     0
  0
CLASS
  1
ACDB_BLOCKREPRESENTATION_DATA
  2
AcDbBlockRepresentationData
  3
ObjectDBX Classes
 90
     1153
 91
        0
280
     0
281
     0
  0
CLASS
  1
IMAGEDEF
  2
AcDbRasterImageDef
  3
ISM
 90
        0
 91
        0
280
     0
281
     0
  0
CLASS
  1
EXACXREFPANELOBJECT
  2
ExAcXREFPanelObject
  3
EXAC_ESW
 90
     1025
 91
        0
280
     1
281
     0
  0
CLASS
  1
AEC_REFEDIT_STATUS_TRACKER
  2
AecDbRefEditStatusTracker
  3
AecArchBase60|Product Desc: Autodesk Architectural Desktop 2007 |Company: Autodesk,Inc. |WEB Address: www.autodesk.com
 90
      129
 91
        0
280
     0
281
     0
  0
CLASS
  1
ACDBASSOCNETWORK
  2
AcDbAssocNetwork
  3
ObjectDBX Classes
 90
     1025
 91
        0
280
     0
281
     0
  0
CLASS
  1
ACDBASSOC2DCONSTRAINTGROUP
  2
AcDbAssoc2dConstraintGroup
  3
ObjectDBX Classes
 90
     1025
 91
        0
280
     0
281
     0
  0
CLASS
  1
ACDBASSOCGEOMDEPENDENCY
  2
AcDbAssocGeomDependency
  3
ObjectDBX Classes
 90
     1025
 91
        0
280
     0
281
     0
  0
ENDSEC
  0
SECTION
  2
TABLES
  0
TABLE
  2
VPORT
  5
2E
102
{ACAD_XDICTIONARY
360
32
102
}
330
0
100
AcDbSymbolTable
 70
     1
  0
VPORT
  5
2F
330
2E
100
AcDbSymbolTableRecord
100
AcDbViewportTableRecord
  2
*Active
 70
     0
 10
0.0
 20
0.0
 11
1.0
 21
1.0
 12
298.5385117417891
 22
340.2597544074241
 13
0.0
 23
0.0
 14
10.0
 24
10.0
 15
100.0
 25
100.0
 16
0.0
 26
0.0
 36
1.0
 17
0.0
 27
0.0
 37
0.0
 40
1196.934509914807
 41
1.937738246505718
 42
50.0
 43
0.0
 44
0.0
 50
0.0
 51
0.0
 71
     0
 72
  1000
 73
     1
 74
     0
 75
     0
 76
     0
 77
     0
 78
     0
281
     0
 65
     1
110
0.0
120
0.0
130
0.0
111
1.0
121
0.0
131
0.0
112
0.0
122
1.0
132
0.0
 79
     0
146
0.0
348
30
 60
     3
 61
     5
292
     1
282
     1
141
0.0
142
0.0
 63
   250
421
  3355443
  0
ENDTAB
  0
TABLE
  2
LTYPE
  5
29
330
0
100
AcDbSymbolTable
 70
     4
  0
LTYPE
  5
2A
330
29
100
AcDbSymbolTableRecord
100
AcDbLinetypeTableRecord
  2
BYBLOCK
 70
     0
  3

 72
    65
 73
     0
 40
0.0
  0
LTYPE
  5
2B
330
29
100
AcDbSymbolTableRecord
100
AcDbLinetypeTableRecord
  2
BYLAYER
 70
     0
  3

 72
    65
 73
     0
 40
0.0
  0
LTYPE
  5
15
330
29
100
AcDbSymbolTableRecord
100
AcDbLinetypeTableRecord
  2
CONTINUOUS
 70
     0
  3
Solid line
 72
    65
 73
     0
 40
0.0
  0
LTYPE
  5
2BB
330
29
100
AcDbSymbolTableRecord
100
AcDbLinetypeTableRecord
  2
AUSGEZOGEN
 70
     0
  3
Ausgezogene Linie
 72
    65
 73
     0
 40
0.0
  0
LTYPE
  5
188
330
29
100
AcDbSymbolTableRecord
100
AcDbLinetypeTableRecord
  2
VERDECKT
 70
     0
  3
__ __ __ __ __ __ __ __ __ __ __ __ __ __ __ __
 72
    65
 73
     2
 40
0.375
 49
0.25
 74
     0
 49
-0.125
 74
     0
  0
LTYPE
  5
AA
330
29
100
AcDbSymbolTableRecord
100
AcDbLinetypeTableRecord
  2
STRICHPUNKT
 70
     0
  3
__ . __ . __ . __ . __ . __ . __ . __ . __ . __
 72
    65
 73
     4
 40
1.0
 49
0.5
 74
     0
 49
-0.25
 74
     0
 49
0.0
 74
     0
 49
-0.25
 74
     0
  0
ENDTAB
  0
TABLE
  2
LAYER
  5
20
102
{ACAD_XDICTIONARY
360
21
102
}
330
0
100
AcDbSymbolTable
 70
     9
  0
LAYER
  5
6
102
{ACAD_XDICTIONARY
360
7
102
}
330
20
100
AcDbSymbolTableRecord
100
AcDbLayerTableRecord
  2
0
 70
     0
 62
     7
  6
CONTINUOUS
370
    -3
390
9
347
C
  0
LAYER
  5
2B2
102
{ACAD_XDICTIONARY
360
2B3
102
}
330
20
100
AcDbSymbolTableRecord
100
AcDbLayerTableRecord
  2
01-99
 70
     0
 62
     2
  6
CONTINUOUS
370
    -3
390
9
347
C
  0
LAYER
  5
2B8
102
{ACAD_XDICTIONARY
360
2B9
102
}
330
20
100
AcDbSymbolTableRecord
100
AcDbLayerTableRecord
  2
02-99
 70
     0
 62
     1
  6
AUSGEZOGEN
370
    -3
390
9
347
C
  0
LAYER
  5
2F0
102
{ACAD_XDICTIONARY
360
2F1
102
}
330
20
100
AcDbSymbolTableRecord
100
AcDbLayerTableRecord
  2
06-99
 70
     0
 62
     1
  6
AUSGEZOGEN
370
    -3
390
9
347
C
  0
LAYER
  5
2DA
102
{ACAD_XDICTIONARY
360
2DB
102
}
330
20
100
AcDbSymbolTableRecord
100
AcDbLayerTableRecord
  2
08-99
 70
     0
 62
     7
  6
CONTINUOUS
370
    -3
390
9
347
C
  0
LAYER
  5
185
102
{ACAD_XDICTIONARY
360
186
102
}
330
20
100
AcDbSymbolTableRecord
100
AcDbLayerTableRecord
  2
03-01
 70
     0
 62
     3
  6
VERDECKT
370
    -3
390
9
347
C
  0
LAYER
  5
A7
102
{ACAD_XDICTIONARY
360
A8
102
}
330
20
100
AcDbSymbolTableRecord
100
AcDbLayerTableRecord
  2
05-01
 70
     0
 62
     1
  6
STRICHPUNKT
370
    -3
390
9
347
C
  0
LAYER
  5
51
102
{ACAD_XDICTIONARY
360
52
102
}
330
20
100
AcDbSymbolTableRecord
100
AcDbLayerTableRecord
  2
09-01
 70
     0
 62
     7
  6
CONTINUOUS
370
    -3
390
9
347
C
  0
LAYER
  5
86
330
20
100
AcDbSymbolTableRecord
100
AcDbLayerTableRecord
  2
DEFPOINTS
 70
     0
 62
     7
  6
CONTINUOUS
290
     0
370
    -3
390
9
347
C
  0
ENDTAB
  0
TABLE
  2
STYLE
  5
26
330
0
100
AcDbSymbolTable
 70
     3
  0
STYLE
  5
27
330
26
100
AcDbSymbolTableRecord
100
AcDbTextStyleTableRecord
  2
STANDARD
 70
     0
 40
0.0
 41
1.0
 50
0.0
 71
     0
 42
5.0
  3
arial.ttf
  4

1001
ACAD
1000
Arial
1071
       34
  0
STYLE
  5
2DD
330
26
100
AcDbSymbolTableRecord
100
AcDbTextStyleTableRecord
  2
ROMANS8
 70
     0
 40
0.0
 41
1.0
 50
0.0
 71
     0
 42
2.5
  3
ROMANS8
  4

  0
STYLE
  5
303
330
26
100
AcDbSymbolTableRecord
100
AcDbTextStyleTableRecord
  2
ROMAND8
 70
     0
 40
0.0
 41
1.0
 50
0.0
 71
     0
 42
3.5
  3
ROMAND8
  4

  0
ENDTAB
  0
TABLE
  2
VIEW
  5
2C
330
0
100
AcDbSymbolTable
 70
     0
  0
ENDTAB
  0
TABLE
  2
UCS
  5
2D
330
0
100
AcDbSymbolTable
 70
     0
  0
ENDTAB
  0
TABLE
  2
APPID
  5
33
330
0
100
AcDbSymbolTable
 70
     5
  0
APPID
  5
25
330
33
100
AcDbSymbolTableRecord
100
AcDbRegAppTableRecord
  2
ACAD
 70
     0
  0
APPID
  5
36
330
33
100
AcDbSymbolTableRecord
100
AcDbRegAppTableRecord
  2
ACAD_DSTYLE_DIMJOGGED_JOGANGLE_SYMBOL
 70
     0
  0
APPID
  5
1B
330
33
100
AcDbSymbolTableRecord
100
AcDbRegAppTableRecord
  2
ACAD_PSEXT
 70
     0
  0
APPID
  5
37
330
33
100
AcDbSymbolTableRecord
100
AcDbRegAppTableRecord
  2
ACAD_DSTYLE_DIMJAG
 70
     0
  0
APPID
  5
38
330
33
100
AcDbSymbolTableRecord
100
AcDbRegAppTableRecord
  2
ACAD_DSTYLE_DIMTALN
 70
     0
  0
ENDTAB
  0
TABLE
  2
DIMSTYLE
  5
34
330
0
100
AcDbSymbolTable
 70
     2
100
AcDbDimStyleTable
 71
     1
340
35
  0
DIMSTYLE
105
35
330
34
100
AcDbSymbolTableRecord
100
AcDbDimStyleTableRecord
  2
Wagner
 70
     0
 41
2.5
 42
1.0
 43
10.0
 44
1.0
 73
     0
 74
     0
 77
     1
 78
     8
 79
     2
140
2.5
141
0.0
143
0.03937007874016
147
1.0
171
     3
172
     1
176
     4
177
     4
178
     1
179
     1
271
     1
272
     1
274
     3
283
     0
284
     8
340
27
1001
ACAD_DSTYLE_DIMJOGGED_JOGANGLE_SYMBOL
1070
   384
1040
0.7853981633974483
1001
ACAD_DSTYLE_DIMJAG
1070
   388
1040
1.5
1001
ACAD_DSTYLE_DIMTALN
1070
   392
1070
     0
  0
DIMSTYLE
105
8A
102
{ACAD_REACTORS
330
203
330
287
330
228
330
214
330
198
330
175
330
168
330
15B
330
14E
330
141
330
132
330
125
330
116
330
106
330
F7
330
E8
330
98
330
8B
330
7C
102
}
330
34
100
AcDbSymbolTableRecord
100
AcDbDimStyleTableRecord
  2
Wagner$0
 70
     0
 41
2.5
 42
1.0
 43
10.0
 44
1.0
 73
     0
 74
     0
 77
     1
 78
     8
 79
     2
140
2.5
141
0.0
143
0.03937007874016
147
1.0
171
     3
172
     1
174
     1
176
     4
177
     4
178
     1
179
     1
271
     1
272
     1
274
     3
279
     2
283
     0
284
     8
340
27
1001
ACAD_DSTYLE_DIMJOGGED_JOGANGLE_SYMBOL
1070
   384
1040
0.7853981633974483
1001
ACAD_DSTYLE_DIMJAG
1070
   388
1040
1.5
1001
ACAD_DSTYLE_DIMTALN
1070
   392
1070
     0
  0
ENDTAB
  0
TABLE
  2
BLOCK_RECORD
  5
1
330
0
100
AcDbSymbolTable
 70
    21
  0
BLOCK_RECORD
  5
2
102
{ACAD_XDICTIONARY
360
3
102
}
330
1
100
AcDbSymbolTableRecord
100
AcDbBlockTableRecord
  2
*MODEL_SPACE
340
17
 70
     0
280
     1
281
     0
  0
BLOCK_RECORD
  5
1C
330
1
100
AcDbSymbolTableRecord
100
AcDbBlockTableRecord
  2
*PAPER_SPACE
340
1F
 70
     0
280
     1
281
     0
  0
BLOCK_RECORD
  5
2AD
102
{ACAD_XDICTIONARY
360
2AE
102
}
330
1
100
AcDbSymbolTableRecord
100
AcDbBlockTableRecord
  2
DIN A4
340
0
102
{BLKREFS
331
2AC
102
}
 70
     4
280
     1
281
     0
  0
BLOCK_RECORD
  5
1D8
102
{ACAD_XDICTIONARY
360
1D9
102
}
330
1
100
AcDbSymbolTableRecord
100
AcDbBlockTableRecord
  2
pumpe draufsicht
340
0
102
{BLKREFS
331
1D7
102
}
 70
     0
280
     1
281
     0
  0
BLOCK_RECORD
  5
288
330
1
100
AcDbSymbolTableRecord
100
AcDbBlockTableRecord
  2
*D2
340
0
 70
     0
280
     1
281
     0
  0
BLOCK_RECORD
  5
229
330
1
100
AcDbSymbolTableRecord
100
AcDbBlockTableRecord
  2
*D3
340
0
 70
     0
280
     1
281
     0
  0
BLOCK_RECORD
  5
215
330
1
100
AcDbSymbolTableRecord
100
AcDbBlockTableRecord
  2
*D4
340
0
 70
     0
280
     1
281
     0
  0
BLOCK_RECORD
  5
204
330
1
100
AcDbSymbolTableRecord
100
AcDbBlockTableRecord
  2
*D5
340
0
 70
     0
280
     1
281
     0
  0
BLOCK_RECORD
  5
199
330
1
100
AcDbSymbolTableRecord
100
AcDbBlockTableRecord
  2
*D6
340
0
 70
     0
280
     1
281
     0
  0
BLOCK_RECORD
  5
176
330
1
100
AcDbSymbolTableRecord
100
AcDbBlockTableRecord
  2
*D7
340
0
 70
     0
280
     1
281
     0
  0
BLOCK_RECORD
  5
169
330
1
100
AcDbSymbolTableRecord
100
AcDbBlockTableRecord
  2
*D8
340
0
 70
     0
280
     1
281
     0
  0
BLOCK_RECORD
  5
15C
330
1
100
AcDbSymbolTableRecord
100
AcDbBlockTableRecord
  2
*D9
340
0
 70
     0
280
     1
281
     0
  0
BLOCK_RECORD
  5
14F
330
1
100
AcDbSymbolTableRecord
100
AcDbBlockTableRecord
  2
*D10
340
0
 70
     0
280
     1
281
     0
  0
BLOCK_RECORD
  5
142
330
1
100
AcDbSymbolTableRecord
100
AcDbBlockTableRecord
  2
*D11
340
0
 70
     0
280
     1
281
     0
  0
BLOCK_RECORD
  5
133
330
1
100
AcDbSymbolTableRecord
100
AcDbBlockTableRecord
  2
*D12
340
0
 70
     0
280
     1
281
     0
  0
BLOCK_RECORD
  5
126
330
1
100
AcDbSymbolTableRecord
100
AcDbBlockTableRecord
  2
*D13
340
0
 70
     0
280
     1
281
     0
  0
BLOCK_RECORD
  5
117
330
1
100
AcDbSymbolTableRecord
100
AcDbBlockTableRecord
  2
*D14
340
0
 70
     0
280
     1
281
     0
  0
BLOCK_RECORD
  5
107
330
1
100
AcDbSymbolTableRecord
100
AcDbBlockTableRecord
  2
*D15
340
0
 70
     0
280
     1
281
     0
  0
BLOCK_RECORD
  5
F8
330
1
100
AcDbSymbolTableRecord
100
AcDbBlockTableRecord
  2
*D16
340
0
 70
     0
280
     1
281
     0
  0
BLOCK_RECORD
  5
E9
330
1
100
AcDbSymbolTableRecord
100
AcDbBlockTableRecord
  2
*D17
340
0
 70
     0
280
     1
281
     0
  0
BLOCK_RECORD
  5
99
330
1
100
AcDbSymbolTableRecord
100
AcDbBlockTableRecord
  2
*D18
340
0
 70
     0
280
     1
281
     0
  0
BLOCK_RECORD
  5
8C
330
1
100
AcDbSymbolTableRecord
100
AcDbBlockTableRecord
  2
*D19
340
0
 70
     0
280
     1
281
     0
  0
BLOCK_RECORD
  5
7D
330
1
100
AcDbSymbolTableRecord
100
AcDbBlockTableRecord
  2
*D20
340
0
 70
     0
280
     1
281
     0
  0
ENDTAB
  0
ENDSEC
  0
SECTION
  2
BLOCKS
  0
BLOCK
  5
5
330
2
100
AcDbEntity
  8
0
100
AcDbBlockBegin
  2
*MODEL_SPACE
 70
     0
 10
0.0
 20
0.0
 30
0.0
  3
*MODEL_SPACE
  1

  0
ENDBLK
  5
16
330
2
100
AcDbEntity
  8
0
100
AcDbBlockEnd
  0
BLOCK
  5
1D
330
1C
100
AcDbEntity
 67
     1
  8
0
100
AcDbBlockBegin
  2
*PAPER_SPACE
 70
     0
 10
0.0
 20
0.0
 30
0.0
  3
*PAPER_SPACE
  1

  0
ENDBLK
  5
1E
330
1C
100
AcDbEntity
 67
     1
  8
0
100
AcDbBlockEnd
  0
BLOCK
  5
2B0
330
2AD
100
AcDbEntity
  8
0
100
AcDbBlockBegin
  2
DIN A4
 70
     2
 10
0.0
 20
0.0
 30
0.0
  3
DIN A4
  1

  0
LINE
  5
2B1
330
2AD
100
AcDbEntity
  8
01-99
100
AcDbLine
 10
204.0000075739527
 20
290.9999979434973
 30
0.0
 11
20.0000075739529
 21
290.9999979434973
 31
0.0
  0
LINE
  5
2B5
330
2AD
100
AcDbEntity
  8
01-99
100
AcDbLine
 10
204.0000075122353
 20
290.9999979871026
 30
0.0
 11
204.0000075122355
 21
5.999997987102574
 31
0.0
  0
LINE
  5
2B6
330
2AD
100
AcDbEntity
  8
01-99
100
AcDbLine
 10
20.0000075122355
 20
5.99999798710246
 30
0.0
 11
20.0000075122355
 21
290.9999979871026
 31
0.0
  0
LWPOLYLINE
  5
2B7
330
2AD
100
AcDbEntity
  8
02-99
100
AcDbPolyline
 90
        4
 70
     1
 43
0.0
 10
0.0000075122354986
 20
-0.0000020128974256
 10
210.0000075122355
 20
-0.0000020128974256
 10
210.0000075122355
 20
296.9999979871026
 10
0.0000075122354986
 20
296.9999979871026
  0
LINE
  5
2BC
330
2AD
100
AcDbEntity
  8
01-99
100
AcDbLine
 10
20.0000075122355
 20
5.99999798710246
 30
0.0
 11
204.0000075122355
 21
5.999997987102631
 31
0.0
  0
LINE
  5
2BD
330
2AD
100
AcDbEntity
  8
01-99
100
AcDbLine
 10
70.0000075122355
 20
11.11110909810247
 30
0.0
 11
20.0000075122355
 21
11.11110909810247
 31
0.0
  0
LINE
  5
2BE
330
2AD
100
AcDbEntity
  8
01-99
100
AcDbLine
 10
70.0000075122355
 20
16.22222020910249
 30
0.0
 11
20.0000075122355
 21
16.22222020910249
 31
0.0
  0
LINE
  5
2BF
330
2AD
100
AcDbEntity
  8
01-99
100
AcDbLine
 10
70.0000075122355
 20
21.3333313201025
 30
0.0
 11
20.0000075122355
 21
21.33333132010244
 31
0.0
  0
LINE
  5
2C0
330
2AD
100
AcDbEntity
  8
01-99
100
AcDbLine
 10
115.0000075122355
 20
26.44444243110252
 30
0.0
 11
20.0000075122355
 21
26.44444243110246
 31
0.0
  0
LINE
  5
2C1
330
2AD
100
AcDbEntity
  8
01-99
100
AcDbLine
 10
115.0000075122355
 20
31.55555354210253
 30
0.0
 11
20.0000075122355
 21
31.55555354210247
 31
0.0
  0
LINE
  5
2C2
330
2AD
100
AcDbEntity
  8
01-99
100
AcDbLine
 10
45.0000075122355
 20
5.99999798710246
 30
0.0
 11
45.0000075122355
 21
11.11110909810247
 31
0.0
  0
LINE
  5
2C3
330
2AD
100
AcDbEntity
  8
01-99
100
AcDbLine
 10
28.0000075122355
 20
11.11110909810247
 30
0.0
 11
28.0000075122355
 21
36.66666465376915
 31
0.0
  0
LINE
  5
2C4
330
2AD
100
AcDbEntity
  8
01-99
100
AcDbLine
 10
70.0000075122355
 20
5.99999798710246
 30
0.0
 11
70.0000075122355
 21
51.99999798710246
 31
0.0
  0
LINE
  5
2C5
330
2AD
100
AcDbEntity
  8
01-99
100
AcDbLine
 10
115.0000075122355
 20
5.99999798710246
 30
0.0
 11
115.0000075122355
 21
51.99999798710246
 31
0.0
  0
LINE
  5
2C6
330
2AD
100
AcDbEntity
  8
01-99
100
AcDbLine
 10
144.5000075122355
 20
5.99999798710246
 30
0.0
 11
144.5000075122355
 21
16.22222020910254
 31
0.0
  0
LINE
  5
2C7
330
2AD
100
AcDbEntity
  8
01-99
100
AcDbLine
 10
177.0000075122355
 20
5.99999798710246
 30
0.0
 11
177.0000075122355
 21
16.2222202091026
 31
0.0
  0
LINE
  5
2C8
330
2AD
100
AcDbEntity
  8
01-99
100
AcDbLine
 10
148.5000075122355
 20
36.6666646537692
 30
0.0
 11
148.5000075122355
 21
51.99999798710257
 31
0.0
  0
LINE
  5
2C9
330
2AD
100
AcDbEntity
  8
01-99
100
AcDbLine
 10
182.0000075122355
 20
36.6666646537692
 30
0.0
 11
182.0000075122355
 21
51.99999798710257
 31
0.0
  0
LINE
  5
2CA
330
2AD
100
AcDbEntity
  8
01-99
100
AcDbLine
 10
78.00000751223549
 20
21.33333132043583
 30
0.0
 11
78.00000751223549
 21
36.6666646537692
 31
0.0
  0
LINE
  5
2CB
330
2AD
100
AcDbEntity
  8
01-99
100
AcDbLine
 10
60.00319585166497
 20
11.11110909810247
 30
0.0
 11
60.00319585166497
 21
36.66666465376915
 31
0.0
  0
LINE
  5
2CC
330
2AD
100
AcDbEntity
  8
01-99
100
AcDbLine
 10
48.00319585166497
 20
11.11110909810247
 30
0.0
 11
48.00319585166497
 21
36.66666465376915
 31
0.0
  0
LINE
  5
2CD
330
2AD
100
AcDbEntity
  8
01-99
100
AcDbLine
 10
204.0000075122355
 20
51.99999798710257
 30
0.0
 11
20.00000751223368
 21
51.99999798710246
 31
0.0
  0
LINE
  5
2CE
330
2AD
100
AcDbEntity
  8
01-99
100
AcDbLine
 10
115.0000075122355
 20
21.33333132043583
 30
0.0
 11
70.0000075122355
 21
21.33333132043583
 31
0.0
  0
LINE
  5
2CF
330
2AD
100
AcDbEntity
  8
01-99
100
AcDbLine
 10
115.0000075122355
 20
36.6666646537692
 30
0.0
 11
20.0000075122355
 21
36.66666465376909
 31
0.0
  0
LINE
  5
2D0
330
2AD
100
AcDbEntity
  8
01-99
100
AcDbLine
 10
92.0000075122355
 20
21.33333132043583
 30
0.0
 11
92.0000075122355
 21
51.99999798710251
 31
0.0
  0
LINE
  5
2D1
330
2AD
100
AcDbEntity
  8
01-99
100
AcDbLine
 10
70.0000075122355
 20
36.66666465376915
 30
0.0
 11
78.00000751223549
 21
31.55555355376919
 31
0.0
  0
LINE
  5
2D2
330
2AD
100
AcDbEntity
  8
01-99
100
AcDbLine
 10
70.0000075122355
 20
31.55555355376919
 30
0.0
 11
78.00000751223549
 21
36.6666646537692
 31
0.0
  0
LINE
  5
2D3
330
2AD
100
AcDbEntity
  8
01-99
100
AcDbLine
 10
204.0000075122355
 20
44.33333132043583
 30
0.0
 11
115.0000075122355
 21
44.33333132043578
 31
0.0
  0
LINE
  5
2D4
330
2AD
100
AcDbEntity
  8
01-99
100
AcDbLine
 10
115.0000075122355
 20
16.22222020910249
 30
0.0
 11
204.0000075122355
 21
16.2222202091026
 31
0.0
  0
LINE
  5
2D5
330
2AD
100
AcDbEntity
  8
01-99
100
AcDbLine
 10
115.0000075122355
 20
36.6666646537692
 30
0.0
 11
204.0000075122355
 21
36.66666465376926
 31
0.0
  0
LINE
  5
2D6
330
2AD
100
AcDbEntity
  8
01-99
100
AcDbLine
 10
92.0000075122355
 20
41.77777576510249
 30
0.0
 11
70.0000075122355
 21
41.77777576510249
 31
0.0
  0
LINE
  5
2D7
330
2AD
100
AcDbEntity
  8
01-99
100
AcDbLine
 10
92.0000075122355
 20
46.8888868761025
 30
0.0
 11
70.0000075122355
 21
46.88888687610244
 31
0.0
  0
LINE
  5
2D8
330
2AD
100
AcDbEntity
  8
01-99
100
AcDbLine
 10
20.00000751223368
 20
51.99999798710246
 30
0.0
 11
20.00000751223368
 21
5.99999798710246
 31
0.0
  0
TEXT
  5
2D9
330
2AD
100
AcDbEntity
  8
08-99
100
AcDbText
 10
116.4997086805418
 20
32.66987169496042
 30
0.0
 40
2.5
  1
Benennung/Teil:
 51
15.0
  7
ROMANS8
100
AcDbText
  0
TEXT
  5
2DE
330
2AD
100
AcDbEntity
  8
08-99
100
AcDbText
 10
178.5028349598029
 20
12.01760068133313
 30
0.0
 40
2.7
  1
Ident-Nr.
 51
15.0
  7
ROMANS8
100
AcDbText
  0
TEXT
  5
2DF
330
2AD
100
AcDbEntity
  8
08-99
100
AcDbText
 10
93.50002924540357
 20
33.0555749488849
 30
0.0
 40
2.5
  1
Name:
 51
15.0
  7
ROMANS8
100
AcDbText
  0
TEXT
  5
2E0
330
2AD
100
AcDbEntity
  8
08-99
100
AcDbText
 10
79.50777665478042
 20
33.04841594810694
 30
0.0
 40
2.5
  1
Datum:
 50
0.102528160689452
 41
0.8933771909280748
 51
15.0
  7
ROMANS8
 72
     5
 11
90.67497366186243
 21
33.06839915456692
 31
0.0
100
AcDbText
  0
TEXT
  5
2E1
330
2AD
100
AcDbEntity
  8
08-99
100
AcDbText
 10
29.50001559397086
 20
33.05597508608236
 30
0.0
 40
1.6
  1
Änderung:
 51
15.0
  7
ROMANS8
100
AcDbText
  0
TEXT
  5
2E2
330
2AD
100
AcDbEntity
  8
08-99
100
AcDbText
 10
46.49994558798837
 20
9.111117286264914
 30
0.0
 40
1.0
  1
ERSETZT.DURCH:
 51
15.0
  7
ROMANS8
100
AcDbText
  0
TEXT
  5
2E3
330
2AD
100
AcDbEntity
  8
08-99
100
AcDbText
 10
21.49936832790721
 20
9.110852190038713
 30
0.0
 40
1.0
  1
ERSETZT.FÜR:
 51
15.0
  7
ROMANS8
100
AcDbText
  0
TEXT
  5
2E4
330
2AD
100
AcDbEntity
  8
08-99
100
AcDbText
 10
145.9909143543897
 20
12.61295485116625
 30
0.0
 40
2.112
  1
AUFTRAGS.NR.:
 51
15.0
  7
ROMANS8
100
AcDbText
  0
TEXT
  5
2E5
330
2AD
100
AcDbEntity
  8
08-99
100
AcDbText
 10
116.5034717172479
 20
12.61092664313281
 30
0.0
 40
2.112
  1
Sonder-Nr:
 51
15.0
  7
ROMANS8
100
AcDbText
  0
TEXT
  5
2E6
330
2AD
100
AcDbEntity
  8
08-99
100
AcDbText
 10
99.69631500731376
 20
49.92370649414477
 30
0.0
 40
1.349999999999999
  1
Format
 51
15.0
  7
ROMANS8
100
AcDbText
  0
TEXT
  5
2E7
330
2AD
100
AcDbEntity
  8
08-99
100
AcDbText
 10
98.30438725900334
 20
44.6416167802032
 30
0.0
 40
1.822499999999999
  1
Normen
 51
15.0
  7
ROMANS8
100
AcDbText
  0
TEXT
  5
2E8
330
2AD
100
AcDbEntity
  8
08-99
100
AcDbText
 10
21.50003711613706
 20
33.05556582266059
 30
0.0
 40
1.6
  1
Zust.
 51
15.0
  7
ROMANS8
100
AcDbText
  0
TEXT
  5
2E9
330
2AD
100
AcDbEntity
  8
08-99
100
AcDbText
 10
49.50318821340468
 20
33.05555723859902
 30
0.0
 40
1.6
  1
Datum:
 51
15.0
  7
ROMANS8
100
AcDbText
  0
TEXT
  5
2EA
330
2AD
100
AcDbEntity
  8
08-99
100
AcDbText
 10
61.50322112916754
 20
33.05556204504791
 30
0.0
 40
1.6
  1
Name:
 51
15.0
  7
ROMANS8
100
AcDbText
  0
TEXT
  5
2EB
330
2AD
100
AcDbEntity
  8
08-99
100
AcDbText
 10
71.1545619578267
 20
28.03813755505132
 30
0.0
 40
1.6
  1
Erst.
 51
15.0
  7
ROMANS8
100
AcDbText
  0
TEXT
  5
2EC
330
2AD
100
AcDbEntity
  8
08-99
100
AcDbText
 10
70.51718787454618
 20
23.1974490465235
 30
0.0
 40
1.6
  1
Bearb.
 51
15.0
  7
ROMANS8
100
AcDbText
  0
TEXT
  5
2ED
330
2AD
100
AcDbEntity
  8
08-99
100
AcDbText
 10
149.4308124240035
 20
41.61949547980938
 30
0.0
 40
2.0
  1
Zuschnittsbreite:
 51
15.0
  7
ROMANS8
100
AcDbText
  0
TEXT
  5
2EE
330
2AD
100
AcDbEntity
  8
08-99
100
AcDbText
 10
115.9850022862677
 20
41.73762161521608
 30
0.0
 40
2.0
  1
Zuschnittslänge:
 51
15.0
  7
ROMANS8
100
AcDbText
  0
LWPOLYLINE
  5
2EF
330
2AD
100
AcDbEntity
  8
06-99
100
AcDbPolyline
 90
      133
 70
     1
 43
0.010692
 10
93.76754732423549
 20
18.87656283643588
 10
94.00905465623557
 20
19.08724513243589
 10
93.92285931623556
 20
19.22625538843579
 10
93.82427194823552
 20
19.35180441643592
 10
93.71363469623569
 20
19.46393854843592
 10
93.59130396023548
 20
19.56271124443577
 10
93.45762188423558
 20
19.64816170843585
 10
93.31293417623559
 20
19.72033627243581
 10
93.15759367223554
 20
19.77928839643584
 10
92.99194251623569
 20
19.82505728443584
 10
92.81632998023557
 20
19.85768926843593
 10
92.63110533623573
 20
19.87723780843589
 10
92.43661429223564
 20
19.88374210843585
 10
92.27568900023554
 20
19.87767974443585
 10
92.11994932823543
 20
19.85975638843581
 10
91.96972672823566
 20
19.83036051643597
 10
91.82535621623562
 20
19.78988773243583
 10
91.68716924423554
 20
19.73873364043595
 10
91.55549013623559
 20
19.67729028043584
 10
91.43066103623565
 20
19.60594969243584
 10
91.31300626823557
 20
19.52510391643579
 10
91.20285728423553
 20
19.43514499243588
 10
91.10055266423561
 20
19.33647208843587
 10
91.00641316823569
 20
19.22947011643589
 10
90.92077737623563
 20
19.11454180843589
 10
90.84397674023561
 20
18.99207207643587
 10
90.77633914823563
 20
18.86245652443591
 10
90.71819961623559
 20
18.72608719243584
 10
90.66988603223562
 20
18.58336324843583
 10
90.63172984823566
 20
18.43466960443584
 10
90.60406964423547
 20
18.28040542843581
 10
90.5872261802356
 20
18.12095919643588
 10
90.58154160023562
 20
17.95672651243586
 10
90.58715490023557
 20
17.78762184043592
 10
90.60380590823573
 20
17.62428728443586
 10
90.63119524823539
 20
17.46704004043585
 10
90.66902354423545
 20
17.31619374043578
 10
90.71699498423553
 20
17.17206201643586
 10
90.77481375623566
 20
17.03495850043589
 10
90.84218404823563
 20
16.90519326043585
 10
90.91880648423559
 20
16.78308349243582
 10
91.00438525223561
 20
16.66893926443583
 10
91.09862810423559
 20
16.56307777243586
 10
91.2012285362355
 20
16.46580908443587
 10
91.31190142823554
 20
16.37745039643579
 10
91.43034027623562
 20
16.29831177643592
 10
91.55625283223551
 20
16.2287068564359
 10
91.6893397202355
 20
16.16895283243582
 10
91.82930869223552
 20
16.11935977243587
 10
91.9758568082357
 20
16.08024130843591
 10
92.1286953842355
 20
16.05191107243593
 10
92.28751791623555
 20
16.03468269643588
 10
92.45203572023561
 20
16.02886981243591
 10
92.61603318023563
 20
16.03412314843587
 10
92.77336596023557
 20
16.0497619804359
 10
92.92384516823554
 20
16.07559385243587
 10
93.06728191223546
 20
16.11142630843591
 10
93.20349086423565
 20
16.15707045643586
 10
93.33227956823547
 20
16.21233740443585
 10
93.45346269623556
 20
16.27703469643586
 10
93.56684422823562
 20
16.35097700443589
 10
93.67224596423559
 20
16.43397187243585
 10
93.76946832023557
 20
16.52582328043587
 10
93.85832953223555
 20
16.62635302843586
 10
93.93864070823568
 20
16.73535796843583
 10
94.01020939223556
 20
16.85265990043587
 10
94.07284669223557
 20
16.97805924043587
 10
94.12636728023565
 20
17.11137066043579
 10
94.17058226423549
 20
17.25240170443584
 10
94.20529562423556
 20
17.40096348043585
 10
94.23032916023558
 20
17.55686709643589
 10
94.2454868522357
 20
17.71992366043582
 10
94.25057980823547
 20
17.88993715243583
 10
94.25057980823547
 20
17.88993715243583
 10
94.25057980823547
 20
17.94131934043588
 10
92.6164715522356
 20
17.94131934043588
 10
92.6164715522356
 20
17.65354772443584
 10
93.88573312823544
 20
17.65354772443584
 10
93.87499479623548
 20
17.49100437643585
 10
93.84766248023552
 20
17.33635885243586
 10
93.80444185223566
 20
17.19027405643589
 10
93.74603858423554
 20
17.05341645643585
 10
93.67316547623572
 20
16.92644182843588
 10
93.58653176423562
 20
16.81002376843588
 10
93.4868359922356
 20
16.70481448843588
 10
93.37479452423556
 20
16.61148758443585
 10
93.2511130322355
 20
16.53069526843586
 10
93.11649718823563
 20
16.46310757243589
 10
92.9716562282355
 20
16.40938383643583
 10
92.81729938823563
 20
16.37019052843595
 10
92.65413234023563
 20
16.34618698843581
 10
92.48286432023567
 20
16.3380396844359
 10
92.31820395623563
 20
16.34599096843584
 10
92.15990889623553
 20
16.3693743724358
 10
92.00857076423554
 20
16.40748066043585
 10
91.86477762023541
 20
16.45960416043584
 10
91.7291103962356
 20
16.52503563643586
 10
91.60216071623555
 20
16.60306585243592
 10
91.48451307623558
 20
16.69299270043586
 10
91.37675910023554
 20
16.79410338043595
 10
91.27948328423569
 20
16.90569222043587
 10
91.19327012423552
 20
17.02705354843584
 10
91.11871124423558
 20
17.15747456443586
 10
91.05639114023555
 20
17.29625316043587
 10
91.00689787223556
 20
17.44268010043583
 10
90.97081950023541
 20
17.5960425844359
 10
90.94874052023547
 20
17.75564206843597
 10
90.94125255623557
 20
17.92076575243578
 10
90.94763924423572
 20
18.08913980443589
 10
90.96654270023558
 20
18.25115211643583
 10
90.99756375623568
 20
18.40630372843583
 10
91.04030680823555
 20
18.55409924443586
 10
91.09437981623548
 20
18.69404326843585
 10
91.15938361223554
 20
18.82564396843588
 10
91.23492259223556
 20
18.9483988204359
 10
91.32060471623564
 20
19.06181955643586
 10
91.41603081623546
 20
19.16540365243594
 10
91.52081241623548
 20
19.25865927643582
 10
91.63454322023566
 20
19.34108746843589
 10
91.75683831623567
 20
19.41219639643589
 10
91.88729497223542
 20
19.47148710043586
 10
92.02552114823564
 20
19.51846418443586
 10
92.17112480423569
 20
19.55263225243584
 10
92.32370320823568
 20
19.57349947243585
 10
92.48286432023567
 20
19.58056332043588
 10
92.66056892423561
 20
19.57164619243588
 10
92.83032224423564
 20
19.54500885643586
 10
92.99178570023562
 20
19.50081882043588
 10
93.14462071223559
 20
19.43924359243584
 10
93.28848870023561
 20
19.36045780843585
 10
93.42305464823565
 20
19.26462541243592
 10
93.54797997623554
 20
19.15192104043586
 10
93.66292254023566
 20
19.02250863643593
  0
LWPOLYLINE
  5
2F3
330
2AD
100
AcDbEntity
  8
06-99
100
AcDbPolyline
 90
       12
 70
     1
 43
0.010692
 10
90.43900298423549
 20
12.25281181243593
 10
92.32227048023563
 20
12.25281181243593
 10
92.46760683623554
 20
13.00767770443588
 10
91.56487771223558
 20
13.00767770443588
 10
91.62106060823546
 20
13.29950515243581
 10
92.41872301223557
 20
13.29950515243581
 10
92.55580870823544
 20
14.01156027643583
 10
91.75814630423545
 20
14.01156027643583
 10
91.80985281623547
 20
14.28005421643581
 10
92.68923417623549
 20
14.28005421643581
 10
92.83455984023559
 20
15.03490585243588
 10
90.97464010823561
 20
15.03490585243588
  0
LWPOLYLINE
  5
2F4
330
2AD
100
AcDbEntity
  8
06-99
100
AcDbPolyline
 90
        4
 70
     1
 43
0.010692
 10
76.60861942823558
 20
12.88042508443584
 10
89.06586862823544
 20
12.88042508443584
 10
88.94229049223557
 20
12.25209544843585
 10
76.48504485623553
 20
12.25209544843585
  0
SOLID
  5
2F5
330
2AD
100
AcDbEntity
  8
06-99
100
AcDbTrace
 10
76.60861942823558
 20
12.88042508443584
 30
0.0
 11
89.06586862823544
 21
12.88042508443584
 31
0.0
 12
76.48504485623553
 22
12.25209544843585
 32
0.0
 13
88.94229049223557
 23
12.25209544843585
 33
0.0
  0
LWPOLYLINE
  5
2F6
330
2AD
100
AcDbEntity
  8
06-99
100
AcDbPolyline
 90
       10
 70
     1
 43
0.010692
 10
82.3458504002356
 20
16.02886981243591
 10
83.32219038023552
 20
19.10266656043586
 10
84.33965535623546
 20
16.02886981243591
 10
85.56780619223562
 20
19.80153132043585
 10
85.22351666423551
 20
19.80153132043585
 10
84.33965535623546
 20
16.89302932843583
 10
83.32219038023552
 20
19.9454100004358
 10
82.3458504002356
 20
16.86733645243589
 10
81.42601764023565
 20
19.80153132043585
 10
81.07658882423564
 20
19.80153132043585
  0
LWPOLYLINE
  5
2F7
330
2AD
100
AcDbEntity
  8
06-99
100
AcDbPolyline
 90
        3
 70
     1
 43
0.010692
 10
87.32442338423565
 20
17.65868344843591
 10
87.97704168023555
 20
19.25683094443582
 10
88.6039706642355
 20
17.65868344843591
  0
LWPOLYLINE
  5
2F8
330
2AD
100
AcDbEntity
  8
06-99
100
AcDbPolyline
 90
        7
 70
     1
 43
0.010692
 10
86.38318880423563
 20
16.12735738843582
 10
86.72320153223555
 20
16.12735738843582
 10
87.21136974023549
 20
17.37092608843585
 10
88.71187076423566
 20
17.37092608843585
 10
89.17949964023549
 20
16.12735738843582
 10
89.54434632023552
 20
16.12735738843582
 10
87.99759883223558
 20
19.9454100004358
  0
LWPOLYLINE
  5
2F9
330
2AD
100
AcDbEntity
  8
06-99
100
AcDbPolyline
 90
        8
 70
     1
 43
0.010692
 10
98.92981243223543
 20
12.25281181243593
 10
100.0043869442354
 20
12.25281181243593
 10
100.1574144122356
 20
12.60301045243585
 10
100.9122803042355
 20
12.60301045243585
 10
100.9343521562355
 20
12.25281181243593
 10
102.0082815842354
 20
12.25281181243593
 10
101.5711569842355
 20
15.03490585243588
 10
100.4583193682355
 20
15.03490585243588
  0
LWPOLYLINE
  5
2FA
330
2AD
100
AcDbEntity
  8
06-99
100
AcDbPolyline
 90
       34
 70
     1
 43
0.010692
 10
96.0434642642356
 20
13.66137589243584
 10
96.07848769223544
 20
13.66137589243584
 10
96.0642316922356
 20
13.48699650043591
 10
96.06380757623552
 20
13.33509882043586
 10
96.06790617623554
 20
13.20222577243589
 10
96.09523849223561
 20
12.25281181243593
 10
96.9668360762354
 20
12.25281181243593
 10
98.31569602823542
 20
15.03490585243588
 10
97.31181345623557
 20
15.03490585243588
 10
96.85792023623552
 20
13.80922843243581
 10
96.80781752423563
 20
13.66872486043581
 10
96.74884758023544
 20
13.48671138043579
 10
96.69003445223545
 20
13.26059696443593
 10
96.66670094423549
 20
13.26059696443593
 10
96.6884270882355
 20
13.45803187243587
 10
96.69298544423558
 20
13.61569254043581
 10
96.69194475623548
 20
13.73531107243588
 10
96.67756045223544
 20
15.03490585243588
 10
95.97329266823548
 20
15.03490585243588
 10
95.45849068823557
 20
13.73531107243588
 10
95.41138886423542
 20
13.61569254043581
 10
95.35523448023562
 20
13.45803187243587
 10
95.30092981223551
 20
13.26059696443593
 10
95.27759630423545
 20
13.26059696443593
 10
95.30585169623558
 20
13.48671138043579
 10
95.31697137623556
 20
13.66872486043581
 10
95.32096662023551
 20
13.80922843243581
 10
95.33903966423546
 20
15.03490585243588
 10
94.33451200823553
 20
15.03490585243588
 10
94.61274279623561
 20
12.25281181243593
 10
95.48433681623547
 20
12.25281181243593
 10
95.87724643223557
 20
13.20222577243589
 10
95.93252050823551
 20
13.33509882043586
 10
95.99058519623557
 20
13.48699650043591
  0
LWPOLYLINE
  5
2FB
330
2AD
100
AcDbEntity
  8
06-99
100
AcDbPolyline
 90
       10
 70
     1
 43
0.010692
 10
100.4520752402354
 20
13.26448172443588
 10
100.5983667482354
 20
13.57965693643587
 10
100.6731180842355
 20
13.74409276843596
 10
100.7541598802355
 20
13.94570824843589
 10
100.8288363722355
 20
14.19056217643595
 10
100.8482958122355
 20
14.19056217643595
 10
100.8286724282354
 20
13.94570824843589
 10
100.8320796122355
 20
13.74409276843596
 10
100.8435129242355
 20
13.57965693643587
 10
100.8684181562356
 20
13.26448172443588
  0
LWPOLYLINE
  5
2FC
330
2AD
100
AcDbEntity
  8
06-99
100
AcDbPolyline
 90
       23
 70
     1
 43
0.010692
 10
103.5867130322356
 20
12.25281181243593
 10
104.5672478402354
 20
12.25281181243593
 10
104.7440436242355
 20
13.17110136043584
 10
105.0536340482356
 20
12.25281181243593
 10
106.1742447482354
 20
12.25281181243593
 10
105.6490750922355
 20
13.38511243243585
 10
105.8084357882355
 20
13.42380678043588
 10
105.9537079922354
 20
13.49881472443587
 10
106.0813562162355
 20
13.60690015243585
 10
106.1878378442354
 20
13.74481626043587
 10
106.2696066962354
 20
13.90931980843584
 10
106.3231201562354
 20
14.09716755643586
 10
106.3446075122355
 20
14.26808986843588
 10
106.3403093282354
 20
14.42329850443593
 10
106.3102362962355
 20
14.56225886443587
 10
106.2543991082354
 20
14.68443278443578
 10
106.1728155842354
 20
14.78928566443591
 10
106.0654999802355
 20
14.87627577643587
 10
105.9324594242355
 20
14.94487208443587
 10
105.7737153002354
 20
14.99453286043592
 10
105.5892711722355
 20
15.02472350443588
 10
105.3791519882354
 20
15.03490585243588
 10
104.1223501562355
 20
15.03490585243588
  0
LWPOLYLINE
  5
2FD
330
2AD
100
AcDbEntity
  8
06-99
100
AcDbPolyline
 90
        9
 70
     1
 43
0.010692
 10
104.9650401362355
 20
14.31896240443586
 10
105.1206907082355
 20
14.31896240443586
 10
105.2773605842356
 20
14.28538239643581
 10
105.3582277442354
 20
14.19040892443593
 10
105.3632244722355
 20
14.04269894443587
 10
105.3008722922355
 20
13.89699906043591
 10
105.1832994962355
 20
13.80577848043589
 10
105.0158200082354
 20
13.77421926043581
 10
104.8601694362355
 20
13.77421926043581
  0
LWPOLYLINE
  5
2FE
330
2AD
100
AcDbEntity
  8
06-99
100
AcDbPolyline
 90
       12
 70
     1
 43
0.010692
 10
100.5798090002356
 20
16.12735738843582
 10
102.3989066762356
 20
16.12735738843582
 10
102.3989066762356
 20
16.4408218804358
 10
100.9138270802356
 20
16.4408218804358
 10
100.9138270802356
 20
18.02353012843594
 10
102.3989066762356
 20
18.02353012843594
 10
102.3989066762356
 20
18.33699462043592
 10
100.9138270802356
 20
18.33699462043592
 10
100.9138270802356
 20
19.48806682843587
 10
102.3989066762356
 20
19.48806682843587
 10
102.3989066762356
 20
19.80153132043585
 10
100.5798090002356
 20
19.80153132043585
  0
LWPOLYLINE
  5
2FF
330
2AD
100
AcDbEntity
  8
06-99
100
AcDbPolyline
 90
        8
 70
     1
 43
0.010692
 10
95.85303261623565
 20
16.12735738843582
 10
96.18705426023556
 20
16.12735738843582
 10
96.18705426023556
 20
19.09753083643585
 10
98.76667389623552
 20
16.01858410843584
 10
98.76667389623552
 20
19.80153132043585
 10
98.4326665082356
 20
19.80153132043585
 10
98.4326665082356
 20
16.88274362443587
 10
95.85303261623565
 20
19.95568144843582
  0
LWPOLYLINE
  5
300
330
2AD
100
AcDbEntity
  8
06-99
100
AcDbPolyline
 90
       19
 70
     1
 43
0.010692
 10
104.4484312082357
 20
19.5086239804358
 10
104.7824385962356
 20
19.5086239804358
 10
104.9866237202355
 20
19.50030560443588
 10
105.1604542562355
 20
19.47385716043584
 10
105.3049031762356
 20
19.42705471243579
 10
105.4209256322356
 20
19.35767076043584
 10
105.5094874682356
 20
19.26347780443581
 10
105.5715509642355
 20
19.14224834443593
 10
105.6080855282355
 20
18.9917477524358
 10
105.6200498762355
 20
18.80975922043586
 10
105.6074547002355
 20
18.63100680043584
 10
105.5693840522356
 20
18.48585933643585
 10
105.5054245082356
 20
18.37130168443593
 10
105.4151448242355
 20
18.28432582843589
 10
105.2981315762356
 20
18.22192018843589
 10
105.1539570842356
 20
18.18106962043583
 10
104.9821972322354
 20
18.15876967243594
 10
104.7824385962356
 20
18.15200520043589
 10
104.4484312082357
 20
18.15200520043589
  0
LWPOLYLINE
  5
301
330
2AD
100
AcDbEntity
  8
06-99
100
AcDbPolyline
 90
       29
 70
     1
 43
0.010692
 10
106.3446075122355
 20
16.12735738843582
 10
105.0239637482355
 20
17.87965144843588
 10
105.2123817362357
 20
17.89225018843592
 10
105.3829084442356
 20
17.92941914443582
 10
105.5344069562356
 20
17.99022811243594
 10
105.6657296642355
 20
18.07375401643588
 10
105.7757360882356
 20
18.17905596043584
 10
105.8632821842355
 20
18.30521443243589
 10
105.9272310362355
 20
18.45129210043592
 10
105.9664386002355
 20
18.6163587604359
 10
105.9797608322353
 20
18.79948777243589
 10
105.9699455762357
 20
18.97455145243589
 10
105.9404891162357
 20
19.13261485243589
 10
105.8913629402356
 20
19.27374568843589
 10
105.8225492282356
 20
19.39801167643577
 10
105.7340230322356
 20
19.50548409643591
 10
105.6257594042356
 20
19.59623422843589
 10
105.4977369602356
 20
19.67032622443582
 10
105.3499307522354
 20
19.72783136443587
 10
105.1823193962355
 20
19.76882449243589
 10
104.9948815082355
 20
19.79336619643589
 10
104.7875885762355
 20
19.80153132043585
 10
104.7875885762355
 20
19.80153132043585
 10
104.1144131282356
 20
19.80153132043585
 10
104.1144131282356
 20
16.12735738843582
 10
104.4484312082357
 20
16.12735738843582
 10
104.4484312082357
 20
17.87965144843588
 10
104.6488456202355
 20
17.87965144843588
 10
105.9386465282355
 20
16.12735738843582
  0
TEXT
  5
302
330
2AD
100
AcDbEntity
  8
06-99
100
AcDbText
 10
85.6083656112951
 20
9.63320697282171
 30
0.0
 40
1.4256
  1
GmbH & Co KG
 41
1.199203187251
 51
15.0
  7
ROMAND8
 72
     5
 11
106.0419656112951
 21
9.63320697282171
 31
0.0
100
AcDbText
  0
TEXT
  5
304
330
2AD
100
AcDbEntity
  8
06-99
100
AcDbText
 10
85.70982236587898
 20
7.391013700398161
 30
0.0
 40
1.4256
  1
72774 Reutlingen
 50
0.5663244663116128
 41
1.087840993687879
 51
15.0
  7
ROMAND8
 72
     5
 11
105.943422365879
 21
7.59101370039815
 31
0.0
100
AcDbText
  0
TEXT
  5
305
330
2AD
100
AcDbEntity
  8
08-99
100
AcDbText
 10
73.414125712073
 20
48.45008961754581
 30
0.0
 40
2.25
  1
Zul. Abw.
 51
15.0
  7
ROMANS8
100
AcDbText
  0
TEXT
  5
306
330
2AD
100
AcDbEntity
  8
08-99
100
AcDbText
 10
123.2099338325191
 20
49.28616214647601
 30
0.0
 40
2.0
  1
Mat. Art.
 51
15.0
  7
ROMANS8
100
AcDbText
  0
TEXT
  5
307
330
2AD
100
AcDbEntity
  8
08-99
100
AcDbText
 10
155.4865384826082
 20
49.4043113704472
 30
0.0
 40
2.0
  1
Oberfläche:
 51
15.0
  7
ROMANS8
100
AcDbText
  0
TEXT
  5
308
330
2AD
100
AcDbEntity
  8
08-99
100
AcDbText
 10
184.762545350816
 20
41.73764470378046
 30
0.0
 40
2.0
  1
Blech Dicke:
 51
15.0
  7
ROMANS8
100
AcDbText
  0
TEXT
  5
309
330
2AD
100
AcDbEntity
  8
08-99
100
AcDbText
 10
187.4380355407932
 20
49.28616214647604
 30
0.0
 40
2.0
  1
Maßstab:
 51
15.0
  7
ROMANS8
100
AcDbText
  0
LINE
  5
30A
330
2AD
100
AcDbEntity
  8
01-99
100
AcDbLine
 10
115.0000075122355
 20
46.8888868761025
 30
0.0
 11
92.0000075122355
 21
46.8888868761025
 31
0.0
  0
LINE
  5
30B
330
2AD
100
AcDbEntity
  8
01-99
100
AcDbLine
 10
115.0000075122355
 20
44.33333132043578
 30
0.0
 11
92.0000075122355
 21
44.33333132043578
 31
0.0
  0
LINE
  5
30C
330
2AD
100
AcDbEntity
  8
01-99
100
AcDbLine
 10
115.0000075122355
 20
40.49999798710246
 30
0.0
 11
92.00000751223544
 21
40.49999798710246
 31
0.0
  0
ATTDEF
  5
30D
330
2AD
100
AcDbEntity
  8
06-99
100
AcDbText
 10
116.4954542514127
 20
26.18783668438471
 30
0.0
 40
4.0
  1

 41
0.9
  7
ROMANS8
100
AcDbAttributeDefinition
280
     0
  3
Benennung/Teil
  2
TEILE
 70
     0
280
     0
  0
ATTDEF
  5
30E
330
2AD
100
AcDbEntity
  8
06-99
100
AcDbText
 10
116.4954542514127
 20
19.29547648609889
 30
0.0
 40
4.0
  1

 41
0.9
  7
ROMANS8
100
AcDbAttributeDefinition
280
     0
  3
Benennung/Teil2
  2
TEILE2
 70
     0
280
     0
  0
ATTDEF
  5
30F
330
2AD
100
AcDbEntity
  8
06-99
100
AcDbText
 10
191.3473937239501
 20
45.33333132043583
 30
0.0
 40
3.375
  1

  7
ROMANS8
100
AcDbAttributeDefinition
280
     0
  3
Maßstab
  2
:
 70
     0
280
     0
  0
ATTDEF
  5
310
330
2AD
100
AcDbEntity
  8
06-99
100
AcDbText
 10
92.99707531160292
 20
27.44168345513378
 30
0.0
 40
2.5
  1

 41
0.9
  7
ROMANS8
100
AcDbAttributeDefinition
280
     0
  3
Name
  2
NAME
 70
     0
280
     0
  0
ATTDEF
  5
311
330
2AD
100
AcDbEntity
  8
06-99
100
AcDbText
 10
79.49315396412956
 20
27.46123316121373
 30
0.0
 40
2.5
  1

 50
359.9144597696142
 41
0.9542572414211148
  7
ROMANS8
 72
     5
 11
90.73974463267431
 21
27.44444245376917
 31
0.0
100
AcDbAttributeDefinition
280
     0
  3
Datum
  2
DATUM
 70
     0
280
     0
  0
ATTDEF
  5
312
330
2AD
100
AcDbEntity
  8
06-99
100
AcDbText
 10
178.5063514793938
 20
7.4928977873912
 30
0.0
 40
2.99376
  1

  7
ROMANS8
100
AcDbAttributeDefinition
280
     0
  3
Ident-Nummer
  2
ID.NR
 70
     0
280
     0
  0
ATTDEF
  5
313
330
2AD
100
AcDbEntity
  8
06-99
100
AcDbText
 10
116.731273767946
 20
37.66666463154695
 30
0.0
 40
3.0
  1

 41
0.9
  7
ROMANS8
100
AcDbAttributeDefinition
280
     0
  3
Zuschnitts.Länge
  2
LÄNGE
 70
     0
280
     0
  0
ATTDEF
  5
314
330
2AD
100
AcDbEntity
  8
06-99
100
AcDbText
 10
150.1808124240052
 20
37.67810185754732
 30
0.0
 40
3.0
  1

 41
0.9
  7
ROMANS8
100
AcDbAttributeDefinition
280
     0
  3
Zuschnitts Breite
  2
BREITE
 70
     0
280
     0
  0
ATTDEF
  5
315
330
2AD
100
AcDbEntity
  8
06-99
100
AcDbText
 10
190.6090996389673
 20
37.66666465376926
 30
0.0
 40
3.09375
  1

  7
ROMANS8
100
AcDbAttributeDefinition
280
     0
  3
Blech.Dicke
  2
1.0
 70
     0
280
     0
  0
ATTDEF
  5
316
330
2AD
100
AcDbEntity
  8
06-99
100
AcDbText
 10
164.1277931136382
 20
45.33333132043594
 30
0.0
 40
3.0
  1

  7
ROMANS8
 72
     1
 11
164.1277931136382
 21
45.33333132043594
 31
0.0
100
AcDbAttributeDefinition
280
     0
  3
Oberfläche
  2
IV
 70
     0
280
     0
  0
ATTDEF
  5
317
330
2AD
100
AcDbEntity
  8
06-99
100
AcDbText
 10
123.2747480483513
 20
45.3333313204358
 30
0.0
 40
3.375
  1
1.4301
  7
ROMANS8
100
AcDbAttributeDefinition
280
     0
  3
Mat.Art
  2
1.4301
 70
     0
280
     0
  0
ATTDEF
  5
318
330
2AD
100
AcDbEntity
  8
06-99
100
AcDbText
 10
146.0006413991156
 20
7.504394591457128
 30
0.0
 40
3.168
  1

 41
0.9
  7
ROMANS8
100
AcDbAttributeDefinition
280
     0
  3
Auftrags Nr.
  2
AUFTRAGS.NR.
 70
     0
280
     0
  0
ATTDEF
  5
319
330
2AD
100
AcDbEntity
  8
06-99
100
AcDbText
 10
116.5000075122355
 20
7.499997987102517
 30
0.0
 40
3.168
  1

 41
0.9
  7
ROMANS8
100
AcDbAttributeDefinition
280
     0
  3
Sonder-NR,WPS
  2
SONDER-NR
 70
     0
280
     0
  0
ATTDEF
  5
31A
330
2AD
100
AcDbEntity
  8
06-99
100
AcDbText
 10
46.4997585072438
 20
6.601808056362358
 30
0.0
 40
1.5
  1

 41
0.9
  7
ROMANS8
100
AcDbAttributeDefinition
280
     0
  3
ERSETZT.Durch
  2
ERSETZT.DURCH
 70
     0
280
     0
  0
ATTDEF
  5
31B
330
2AD
100
AcDbEntity
  8
06-99
100
AcDbText
 10
21.49947529243403
 20
6.597454384974923
 30
0.0
 40
1.5
  1

 41
0.9
  7
ROMANS8
100
AcDbAttributeDefinition
280
     0
  3
ERSETZT.Für
  2
ERSETZT.FÜR
 70
     0
280
     0
  0
ATTDEF
  5
31C
330
2AD
100
AcDbEntity
  8
06-99
100
AcDbText
 10
99.97308015867309
 20
47.66850912711049
 30
0.0
 40
1.287
  1
DIN A4
  7
ROMANS8
 72
     1
 11
103.2518658729588
 21
47.66850912711049
 31
0.0
100
AcDbAttributeDefinition
280
     0
  3
Format
  2
FORMAT
 70
     0
280
     0
  0
ATTDEF
  5
31D
330
2AD
100
AcDbEntity
  8
06-99
100
AcDbText
 10
95.9874465096418
 20
37.19696532096725
 30
0.0
 40
2.34
  1
DIN 2768
  7
ROMANS8
 72
     1
 11
104.0103036524989
 21
37.19696532096725
 31
0.0
100
AcDbAttributeDefinition
280
     0
  3
Norm / Kanten
  2
NORM2
 70
     0
280
     0
  0
ATTDEF
  5
31E
330
2AD
100
AcDbEntity
  8
06-99
100
AcDbText
 10
92.81173222392748
 20
41.03029865430056
 30
0.0
 40
2.34
  1
DIN 6930-M
  7
ROMANS8
 72
     1
 11
103.5088750810703
 21
41.03029865430056
 31
0.0
100
AcDbAttributeDefinition
280
     0
  3
Norm / Fräsen
  2
NORM1
 70
     0
280
     0
  0
ENDBLK
  5
31F
330
2AD
100
AcDbEntity
  8
0
100
AcDbBlockEnd
  0
BLOCK
  5
1DB
330
1D8
100
AcDbEntity
  8
0
100
AcDbBlockBegin
  2
pumpe draufsicht
 70
     0
 10
0.0
 20
0.0
 30
0.0
  3
pumpe draufsicht
  1

  0
LINE
  5
1DC
330
1D8
100
AcDbEntity
  8
0
100
AcDbLine
 10
132.8474353286315
 20
-442.431484921468
 30
0.0
 11
152.8474353286315
 21
-442.431484921468
 31
0.0
  0
LINE
  5
1DD
330
1D8
100
AcDbEntity
  8
0
100
AcDbLine
 10
172.8474353286315
 20
-422.4314849214681
 30
0.0
 11
172.8474353286315
 21
-372.4314849214681
 31
0.0
  0
LINE
  5
1DE
330
1D8
100
AcDbEntity
  8
0
100
AcDbLine
 10
172.8474353286315
 20
-372.4314849214681
 30
0.0
 11
170.3474353286312
 21
-372.4314849214681
 31
0.0
  0
LINE
  5
1DF
330
1D8
100
AcDbEntity
  8
0
100
AcDbLine
 10
167.8474353286315
 20
-372.4314849214681
 30
0.0
 11
117.8474353286315
 21
-372.4314849214681
 31
0.0
  0
LINE
  5
1E0
330
1D8
100
AcDbEntity
  8
0
100
AcDbLine
 10
115.3474353286315
 20
-372.4314849214681
 30
0.0
 11
112.8474353286315
 21
-372.4314849214681
 31
0.0
  0
LINE
  5
1E1
330
1D8
100
AcDbEntity
  8
0
100
AcDbLine
 10
172.8474353286315
 20
-382.4314849214681
 30
0.0
 11
112.8474353286315
 21
-382.4314849214681
 31
0.0
  0
LINE
  5
1E2
330
1D8
100
AcDbEntity
  8
0
100
AcDbLine
 10
112.8474353286315
 20
-372.4314849214681
 30
0.0
 11
112.8474353286315
 21
-422.4314849214681
 31
0.0
  0
ARC
  5
1E3
330
1D8
100
AcDbEntity
  8
0
100
AcDbCircle
 10
132.8474353286315
 20
-422.4314849214681
 30
0.0
 40
20.0
100
AcDbArc
 50
180.0
 51
270.0
  0
ARC
  5
1E4
330
1D8
100
AcDbEntity
  8
0
100
AcDbCircle
 10
152.8474353286315
 20
-422.4314849214681
 30
0.0
 40
20.0
100
AcDbArc
 50
270.0
 51
0.0
  0
CIRCLE
  5
1E5
330
1D8
100
AcDbEntity
  8
0
100
AcDbCircle
 10
142.8474353286315
 20
-407.5314849214682
 30
0.0
 40
13.90000000000003
  0
CIRCLE
  5
1E6
330
1D8
100
AcDbEntity
  8
0
100
AcDbCircle
 10
142.8474353286315
 20
-407.5314849214682
 30
0.0
 40
7.5
  0
LINE
  5
1E7
330
1D8
100
AcDbEntity
  8
0
100
AcDbLine
 10
115.3474353286315
 20
-372.4314849214681
 30
0.0
 11
115.3474353286315
 21
-374.8314849214681
 31
0.0
  0
LINE
  5
1E8
330
1D8
100
AcDbEntity
  8
0
100
AcDbLine
 10
115.3474353286315
 20
-374.8314849214681
 30
0.0
 11
117.8474353286315
 21
-374.8314849214681
 31
0.0
  0
LINE
  5
1E9
330
1D8
100
AcDbEntity
  8
0
100
AcDbLine
 10
117.8474353286315
 20
-374.8314849214681
 30
0.0
 11
117.8474353286315
 21
-372.4314849214681
 31
0.0
  0
LINE
  5
1EA
330
1D8
100
AcDbEntity
  8
0
100
AcDbLine
 10
167.8474353286315
 20
-372.4314849214681
 30
0.0
 11
167.8474353286315
 21
-374.8314849214681
 31
0.0
  0
LINE
  5
1EB
330
1D8
100
AcDbEntity
  8
0
100
AcDbLine
 10
167.8474353286315
 20
-374.8314849214681
 30
0.0
 11
170.3474353286315
 21
-374.8314849214681
 31
0.0
  0
LINE
  5
1EC
330
1D8
100
AcDbEntity
  8
0
100
AcDbLine
 10
170.3474353286315
 20
-374.8314849214681
 30
0.0
 11
170.3474353286315
 21
-372.4314849214681
 31
0.0
  0
LINE
  5
1ED
330
1D8
100
AcDbEntity
  8
0
100
AcDbLine
 10
123.8474353286315
 20
-381.8314849214681
 30
0.0
 11
123.8474353286315
 21
-376.8314849214681
 31
0.0
  0
LINE
  5
1EE
330
1D8
100
AcDbEntity
  8
0
100
AcDbLine
 10
123.8474353286315
 20
-376.8314849214681
 30
0.0
 11
131.8474353286315
 21
-376.8314849214681
 31
0.0
  0
LINE
  5
1EF
330
1D8
100
AcDbEntity
  8
0
100
AcDbLine
 10
123.8474353286315
 20
-381.8314849214681
 30
0.0
 11
131.8474353286315
 21
-381.8314849214681
 31
0.0
  0
LINE
  5
1F0
330
1D8
100
AcDbEntity
  8
0
100
AcDbLine
 10
131.8474353286315
 20
-376.8314849214681
 30
0.0
 11
131.8474353286315
 21
-381.8314849214681
 31
0.0
  0
LINE
  5
1F1
330
1D8
100
AcDbEntity
  8
0
100
AcDbLine
 10
153.8474353286315
 20
-381.8314849214681
 30
0.0
 11
153.8474353286315
 21
-376.8314849214681
 31
0.0
  0
LINE
  5
1F2
330
1D8
100
AcDbEntity
  8
0
100
AcDbLine
 10
153.8474353286315
 20
-376.8314849214681
 30
0.0
 11
161.8474353286315
 21
-376.8314849214681
 31
0.0
  0
LINE
  5
1F3
330
1D8
100
AcDbEntity
  8
0
100
AcDbLine
 10
153.8474353286315
 20
-381.8314849214681
 30
0.0
 11
161.8474353286315
 21
-381.8314849214681
 31
0.0
  0
LINE
  5
1F4
330
1D8
100
AcDbEntity
  8
0
100
AcDbLine
 10
161.8474353286315
 20
-376.8314849214681
 30
0.0
 11
161.8474353286315
 21
-381.8314849214681
 31
0.0
  0
LINE
  5
1F5
330
1D8
100
AcDbEntity
  8
03-01
100
AcDbLine
 10
117.8474353286315
 20
-376.4314849214681
 30
0.0
 11
112.8474353286315
 21
-376.4314849214681
 31
0.0
  0
LINE
  5
1F6
330
1D8
100
AcDbEntity
  8
03-01
100
AcDbLine
 10
117.8474353286315
 20
-379.4314849214681
 30
0.0
 11
112.8474353286315
 21
-379.4314849214681
 31
0.0
  0
LINE
  5
1F7
330
1D8
100
AcDbEntity
  8
03-01
100
AcDbLine
 10
117.8474353286315
 20
-376.4314849214681
 30
0.0
 11
117.8474353286315
 21
-379.4314849214681
 31
0.0
  0
LINE
  5
1F8
330
1D8
100
AcDbEntity
  8
03-01
100
AcDbLine
 10
167.8474353286315
 20
-376.4314849214681
 30
0.0
 11
172.8474353286315
 21
-376.4314849214681
 31
0.0
  0
LINE
  5
1F9
330
1D8
100
AcDbEntity
  8
03-01
100
AcDbLine
 10
167.8474353286315
 20
-379.4314849214681
 30
0.0
 11
172.8474353286315
 21
-379.4314849214681
 31
0.0
  0
LINE
  5
1FA
330
1D8
100
AcDbEntity
  8
03-01
100
AcDbLine
 10
167.8474353286315
 20
-376.4314849214681
 30
0.0
 11
167.8474353286315
 21
-379.4314849214681
 31
0.0
  0
ENDBLK
  5
1FB
330
1D8
100
AcDbEntity
  8
0
100
AcDbBlockEnd
  0
BLOCK
  5
289
330
288
100
AcDbEntity
  8
0
100
AcDbBlockBegin
  2
*D2
 70
     1
 10
0.0
 20
0.0
 30
0.0
  3
*D2
  1

  0
LINE
  5
28A
330
288
100
AcDbEntity
  8
09-01
 62
     4
370
    -2
100
AcDbLine
 10
109.6468339670359
 20
395.2083853559848
 30
0.0
 11
94.5729729608878
 21
395.2083853559848
 31
0.0
  0
LINE
  5
28B
330
288
100
AcDbEntity
  8
09-01
 62
     4
370
    -2
100
AcDbLine
 10
111.0902232923217
 20
569.2083853559847
 30
0.0
 11
94.57297296088785
 21
569.2083853559847
 31
0.0
  0
LINE
  5
28C
330
288
100
AcDbEntity
  8
09-01
 62
     4
370
    -2
100
AcDbLine
 10
96.57297296088781
 20
400.2083853559847
 30
0.0
 11
96.57297296088785
 21
564.2083853559848
 31
0.0
  0
SOLID
  5
28D
330
288
100
AcDbEntity
  8
09-01
 62
     4
100
AcDbTrace
 10
95.73963962755447
 20
400.2083853559847
 30
0.0
 11
97.40630629422113
 21
400.2083853559847
 31
0.0
 12
96.57297296088781
 22
395.2083853559848
 32
0.0
 13
96.57297296088781
 23
395.2083853559848
 33
0.0
  0
SOLID
  5
28E
330
288
100
AcDbEntity
  8
09-01
 62
     4
100
AcDbTrace
 10
95.73963962755453
 20
564.2083853559848
 30
0.0
 11
97.40630629422119
 21
564.2083853559848
 31
0.0
 12
96.57297296088785
 22
569.2083853559847
 32
0.0
 13
96.57297296088785
 23
569.2083853559847
 33
0.0
  0
MTEXT
  5
28F
330
288
100
AcDbEntity
  8
09-01
 62
     1
100
AcDbMText
 10
92.06274103728611
 20
482.2083853559847
 30
0.0
 40
5.0
 41
0.0
 46
0.0
 71
     5
 72
     1
  1
174
 11
0.0000000000000001
 21
1.0
 31
0.0
 73
     1
 44
1.0
  0
POINT
  5
290
330
288
100
AcDbEntity
  8
DEFPOINTS
 62
     0
100
AcDbPoint
 10
111.6468339670359
 20
395.2083853559848
 30
0.0
  0
POINT
  5
291
330
288
100
AcDbEntity
  8
DEFPOINTS
 62
     0
100
AcDbPoint
 10
113.0902232923217
 20
569.2083853559847
 30
0.0
  0
POINT
  5
292
330
288
100
AcDbEntity
  8
DEFPOINTS
 62
     0
100
AcDbPoint
 10
96.57297296088785
 20
569.2083853559847
 30
0.0
  0
ENDBLK
  5
293
330
288
100
AcDbEntity
  8
0
100
AcDbBlockEnd
  0
BLOCK
  5
22A
330
229
100
AcDbEntity
  8
0
100
AcDbBlockBegin
  2
*D3
 70
     1
 10
0.0
 20
0.0
 30
0.0
  3
*D3
  1

  0
LINE
  5
22B
330
229
100
AcDbEntity
  8
09-01
 62
     4
370
    -2
100
AcDbLine
 10
109.6468339670356
 20
264.8326315422508
 30
0.0
 11
95.16281183932726
 21
264.8326315422508
 31
0.0
  0
LINE
  5
22C
330
229
100
AcDbEntity
  8
09-01
 62
     4
370
    -2
100
AcDbLine
 10
109.6468339670354
 20
309.3326315422507
 30
0.0
 11
95.16281183932727
 21
309.3326315422507
 31
0.0
  0
LINE
  5
22D
330
229
100
AcDbEntity
  8
09-01
 62
     4
370
    -2
100
AcDbLine
 10
97.16281183932727
 20
269.8326315422507
 30
0.0
 11
97.16281183932728
 21
304.3326315422508
 31
0.0
  0
SOLID
  5
22E
330
229
100
AcDbEntity
  8
09-01
 62
     4
100
AcDbTrace
 10
96.32947850599393
 20
269.8326315422507
 30
0.0
 11
97.99614517266059
 21
269.8326315422507
 31
0.0
 12
97.16281183932727
 22
264.8326315422508
 32
0.0
 13
97.16281183932727
 23
264.8326315422508
 33
0.0
  0
SOLID
  5
22F
330
229
100
AcDbEntity
  8
09-01
 62
     4
100
AcDbTrace
 10
96.32947850599395
 20
304.3326315422508
 30
0.0
 11
97.99614517266061
 21
304.3326315422508
 31
0.0
 12
97.16281183932728
 22
309.3326315422507
 32
0.0
 13
97.16281183932728
 23
309.3326315422507
 33
0.0
  0
MTEXT
  5
230
330
229
100
AcDbEntity
  8
09-01
 62
     1
100
AcDbMText
 10
92.6201788243204
 20
287.0826315422507
 30
0.0
 40
5.0
 41
0.0
 46
0.0
 71
     5
 72
     1
  1
44.5
 11
0.0000000000000001
 21
1.0
 31
0.0
 73
     1
 44
1.0
  0
POINT
  5
231
330
229
100
AcDbEntity
  8
DEFPOINTS
 62
     0
100
AcDbPoint
 10
111.6468339670356
 20
264.8326315422508
 30
0.0
  0
POINT
  5
232
330
229
100
AcDbEntity
  8
DEFPOINTS
 62
     0
100
AcDbPoint
 10
111.6468339670354
 20
309.3326315422507
 30
0.0
  0
POINT
  5
233
330
229
100
AcDbEntity
  8
DEFPOINTS
 62
     0
100
AcDbPoint
 10
97.16281183932728
 20
309.3326315422507
 30
0.0
  0
ENDBLK
  5
234
330
229
100
AcDbEntity
  8
0
100
AcDbBlockEnd
  0
BLOCK
  5
216
330
215
100
AcDbEntity
  8
0
100
AcDbBlockBegin
  2
*D4
 70
     1
 10
0.0
 20
0.0
 30
0.0
  3
*D4
  1

  0
LINE
  5
217
330
215
100
AcDbEntity
  8
09-01
 62
     4
370
    -2
100
AcDbLine
 10
111.6468339670354
 20
311.3326315422507
 30
0.0
 11
111.6468339670354
 21
323.6377764849803
 31
0.0
  0
LINE
  5
218
330
215
100
AcDbEntity
  8
09-01
 62
     4
370
    -2
100
AcDbLine
 10
198.6468339670354
 20
311.3326315422507
 30
0.0
 11
198.6468339670354
 21
323.6377764849803
 31
0.0
  0
LINE
  5
219
330
215
100
AcDbEntity
  8
09-01
 62
     4
370
    -2
100
AcDbLine
 10
116.6468339670354
 20
321.6377764849803
 30
0.0
 11
193.6468339670354
 21
321.6377764849803
 31
0.0
  0
SOLID
  5
21A
330
215
100
AcDbEntity
  8
09-01
 62
     4
100
AcDbTrace
 10
116.6468339670354
 20
322.4711098183137
 30
0.0
 11
116.6468339670354
 21
320.804443151647
 31
0.0
 12
111.6468339670354
 22
321.6377764849803
 32
0.0
 13
111.6468339670354
 23
321.6377764849803
 33
0.0
  0
SOLID
  5
21B
330
215
100
AcDbEntity
  8
09-01
 62
     4
100
AcDbTrace
 10
193.6468339670354
 20
322.4711098183137
 30
0.0
 11
193.6468339670354
 21
320.804443151647
 31
0.0
 12
198.6468339670354
 22
321.6377764849803
 32
0.0
 13
198.6468339670354
 23
321.6377764849803
 33
0.0
  0
MTEXT
  5
21C
330
215
100
AcDbEntity
  8
09-01
 62
     1
100
AcDbMText
 10
155.1468339670354
 20
326.1906414235888
 30
0.0
 40
5.0
 41
0.0
 46
0.0
 71
     5
 72
     1
  1
87
 73
     1
 44
1.0
  0
POINT
  5
21D
330
215
100
AcDbEntity
  8
DEFPOINTS
 62
     0
100
AcDbPoint
 10
111.6468339670354
 20
309.3326315422507
 30
0.0
  0
POINT
  5
21E
330
215
100
AcDbEntity
  8
DEFPOINTS
 62
     0
100
AcDbPoint
 10
198.6468339670354
 20
309.3326315422507
 30
0.0
  0
POINT
  5
21F
330
215
100
AcDbEntity
  8
DEFPOINTS
 62
     0
100
AcDbPoint
 10
198.6468339670354
 20
321.6377764849803
 30
0.0
  0
ENDBLK
  5
220
330
215
100
AcDbEntity
  8
0
100
AcDbBlockEnd
  0
BLOCK
  5
205
330
204
100
AcDbEntity
  8
0
100
AcDbBlockBegin
  2
*D5
 70
     1
 10
0.0
 20
0.0
 30
0.0
  3
*D5
  1

  0
LINE
  5
206
330
204
100
AcDbEntity
  8
0
 62
     4
370
    -2
100
AcDbLine
 10
355.7364041050809
 20
392.0016848037337
 30
0.0
 11
355.7364041050809
 21
363.8865237995615
 31
0.0
  0
LINE
  5
207
330
204
100
AcDbEntity
  8
0
 62
     4
370
    -2
100
AcDbLine
 10
474.1324637729346
 20
412.2083923893324
 30
0.0
 11
474.1324637729346
 21
363.8865237995615
 31
0.0
  0
LINE
  5
208
330
204
100
AcDbEntity
  8
0
 62
     4
370
    -2
100
AcDbLine
 10
360.7364041050809
 20
365.8865237995615
 30
0.0
 11
469.1324637729346
 21
365.8865237995615
 31
0.0
  0
SOLID
  5
209
330
204
100
AcDbEntity
  8
0
 62
     4
100
AcDbTrace
 10
360.7364041050809
 20
366.7198571328948
 30
0.0
 11
360.7364041050809
 21
365.0531904662281
 31
0.0
 12
355.7364041050809
 22
365.8865237995615
 32
0.0
 13
355.7364041050809
 23
365.8865237995615
 33
0.0
  0
SOLID
  5
20A
330
204
100
AcDbEntity
  8
0
 62
     4
100
AcDbTrace
 10
469.1324637729346
 20
366.7198571328948
 30
0.0
 11
469.1324637729346
 21
365.0531904662281
 31
0.0
 12
474.1324637729346
 22
365.8865237995615
 32
0.0
 13
474.1324637729346
 23
365.8865237995615
 33
0.0
  0
MTEXT
  5
20B
330
204
100
AcDbEntity
  8
0
 62
     1
100
AcDbMText
 10
414.9344339390077
 20
370.43938873817
 30
0.0
 40
5.0
 41
0.0
 46
0.0
 71
     5
 72
     1
  1
118
 73
     1
 44
1.0
  0
POINT
  5
20C
330
204
100
AcDbEntity
  8
DEFPOINTS
 62
     0
100
AcDbPoint
 10
355.7364041050809
 20
394.0016848037337
 30
0.0
  0
POINT
  5
20D
330
204
100
AcDbEntity
  8
DEFPOINTS
 62
     0
100
AcDbPoint
 10
474.1324637729346
 20
414.2083923893324
 30
0.0
  0
POINT
  5
20E
330
204
100
AcDbEntity
  8
DEFPOINTS
 62
     0
100
AcDbPoint
 10
474.1324637729346
 20
365.8865237995615
 30
0.0
  0
ENDBLK
  5
20F
330
204
100
AcDbEntity
  8
0
100
AcDbBlockEnd
  0
BLOCK
  5
19A
330
199
100
AcDbEntity
  8
0
100
AcDbBlockBegin
  2
*D6
 70
     1
 10
0.0
 20
0.0
 30
0.0
  3
*D6
  1

  0
LINE
  5
19B
330
199
100
AcDbEntity
  8
0
 62
     4
370
    -2
100
AcDbLine
 10
355.7364041050809
 20
390.0016848037337
 30
0.0
 11
355.7364041050809
 21
375.2420955978778
 31
0.0
  0
LINE
  5
19C
330
199
100
AcDbEntity
  8
0
 62
     4
370
    -2
100
AcDbLine
 10
460.2759708363234
 20
407.1983835773817
 30
0.0
 11
460.2759708363234
 21
375.2420955978778
 31
0.0
  0
LINE
  5
19D
330
199
100
AcDbEntity
  8
0
 62
     4
370
    -2
100
AcDbLine
 10
360.7364041050809
 20
377.2420955978778
 30
0.0
 11
455.2759708363234
 21
377.2420955978778
 31
0.0
  0
SOLID
  5
19E
330
199
100
AcDbEntity
  8
0
 62
     4
100
AcDbTrace
 10
360.7364041050809
 20
378.0754289312111
 30
0.0
 11
360.7364041050809
 21
376.4087622645444
 31
0.0
 12
355.7364041050809
 22
377.2420955978778
 32
0.0
 13
355.7364041050809
 23
377.2420955978778
 33
0.0
  0
SOLID
  5
19F
330
199
100
AcDbEntity
  8
0
 62
     4
100
AcDbTrace
 10
455.2759708363234
 20
378.0754289312111
 30
0.0
 11
455.2759708363234
 21
376.4087622645444
 31
0.0
 12
460.2759708363234
 22
377.2420955978778
 32
0.0
 13
460.2759708363234
 23
377.2420955978778
 33
0.0
  0
MTEXT
  5
1A0
330
199
100
AcDbEntity
  8
0
 62
     1
100
AcDbMText
 10
408.0061874707022
 20
381.7949605364863
 30
0.0
 40
5.0
 41
0.0
 46
0.0
 71
     5
 72
     1
  1
105
 73
     1
 44
1.0
  0
POINT
  5
1A1
330
199
100
AcDbEntity
  8
DEFPOINTS
 62
     0
100
AcDbPoint
 10
355.7364041050809
 20
392.0016848037337
 30
0.0
  0
POINT
  5
1A2
330
199
100
AcDbEntity
  8
DEFPOINTS
 62
     0
100
AcDbPoint
 10
460.2759708363234
 20
409.1983835773817
 30
0.0
  0
POINT
  5
1A3
330
199
100
AcDbEntity
  8
DEFPOINTS
 62
     0
100
AcDbPoint
 10
460.2759708363234
 20
377.2420955978778
 30
0.0
  0
ENDBLK
  5
1A4
330
199
100
AcDbEntity
  8
0
100
AcDbBlockEnd
  0
BLOCK
  5
177
330
176
100
AcDbEntity
  8
0
100
AcDbBlockBegin
  2
*D7
 70
     1
 10
0.0
 20
0.0
 30
0.0
  3
*D7
  1

  0
LINE
  5
178
330
176
100
AcDbEntity
  8
09-01
 62
     4
370
    -2
100
AcDbLine
 10
195.6468339670353
 20
569.2083853559847
 30
0.0
 11
218.2681663226958
 21
569.2083853559847
 31
0.0
  0
LINE
  5
179
330
176
100
AcDbEntity
  8
09-01
 62
     4
370
    -2
100
AcDbLine
 10
190.6468339670359
 20
560.2083853559839
 30
0.0
 11
218.2681663226958
 21
560.2083853559839
 31
0.0
  0
LINE
  5
17A
330
176
100
AcDbEntity
  8
09-01
 62
     4
370
    -2
100
AcDbLine
 10
216.2681663226958
 20
574.2083853559847
 30
0.0
 11
216.2681663226958
 21
579.2083853559847
 31
0.0
  0
LINE
  5
17B
330
176
100
AcDbEntity
  8
09-01
 62
     4
370
    -2
100
AcDbLine
 10
216.2681663226958
 20
555.2083853559838
 30
0.0
 11
216.2681663226958
 21
550.2083853559838
 31
0.0
  0
LINE
  5
17C
330
176
100
AcDbEntity
  8
09-01
 62
     4
370
    -2
100
AcDbLine
 10
216.2681663226958
 20
569.2083853559847
 30
0.0
 11
216.2681663226958
 21
560.2083853559839
 31
0.0
  0
SOLID
  5
17D
330
176
100
AcDbEntity
  8
09-01
 62
     4
100
AcDbTrace
 10
215.4348329893625
 20
574.2083853559847
 30
0.0
 11
217.1014996560291
 21
574.2083853559847
 31
0.0
 12
216.2681663226958
 22
569.2083853559847
 32
0.0
 13
216.2681663226958
 23
569.2083853559847
 33
0.0
  0
SOLID
  5
17E
330
176
100
AcDbEntity
  8
09-01
 62
     4
100
AcDbTrace
 10
215.4348329893625
 20
555.2083853559838
 30
0.0
 11
217.1014996560291
 21
555.2083853559838
 31
0.0
 12
216.2681663226958
 22
560.2083853559839
 32
0.0
 13
216.2681663226958
 23
560.2083853559839
 33
0.0
  0
MTEXT
  5
17F
330
176
100
AcDbEntity
  8
09-01
 62
     1
100
AcDbMText
 10
211.7153013840872
 20
564.7083853559843
 30
0.0
 40
5.0
 41
0.0
 46
0.0
 71
     5
 72
     1
  1
9
 11
0.0000000000000001
 21
1.0
 31
0.0
 73
     1
 44
1.0
  0
POINT
  5
180
330
176
100
AcDbEntity
  8
DEFPOINTS
 62
     0
100
AcDbPoint
 10
193.6468339670353
 20
569.2083853559847
 30
0.0
  0
POINT
  5
181
330
176
100
AcDbEntity
  8
DEFPOINTS
 62
     0
100
AcDbPoint
 10
188.6468339670359
 20
560.2083853559839
 30
0.0
  0
POINT
  5
182
330
176
100
AcDbEntity
  8
DEFPOINTS
 62
     0
100
AcDbPoint
 10
216.2681663226958
 20
560.2083853559839
 30
0.0
  0
ENDBLK
  5
183
330
176
100
AcDbEntity
  8
0
100
AcDbBlockEnd
  0
BLOCK
  5
16A
330
169
100
AcDbEntity
  8
0
100
AcDbBlockBegin
  2
*D8
 70
     1
 10
0.0
 20
0.0
 30
0.0
  3
*D8
  1

  0
LINE
  5
16B
330
169
100
AcDbEntity
  8
09-01
 62
     4
370
    -2
100
AcDbLine
 10
190.6468339670359
 20
560.2083853559839
 30
0.0
 11
218.2681663226958
 21
560.2083853559839
 31
0.0
  0
LINE
  5
16C
330
169
100
AcDbEntity
  8
09-01
 62
     4
370
    -2
100
AcDbLine
 10
160.6468339670359
 20
433.7083853560357
 30
0.0
 11
218.2681663226957
 21
433.7083853560357
 31
0.0
  0
LINE
  5
16D
330
169
100
AcDbEntity
  8
09-01
 62
     4
370
    -2
100
AcDbLine
 10
216.2681663226958
 20
555.2083853559838
 30
0.0
 11
216.2681663226957
 21
438.7083853560357
 31
0.0
  0
MTEXT
  5
16E
330
169
100
AcDbEntity
  8
09-01
 62
     1
100
AcDbMText
 10
211.7153013840871
 20
509.3892158221369
 30
0.0
 40
5.0
 41
0.0
 46
0.0
 71
     5
 72
     1
  1
126.5
 11
0.0000000000000001
 21
1.0
 31
0.0
 73
     1
 44
1.0
  0
SOLID
  5
16F
330
169
100
AcDbEntity
  8
09-01
 62
     4
100
AcDbTrace
 10
215.4348329893625
 20
555.2083853559838
 30
0.0
 11
217.1014996560291
 21
555.2083853559838
 31
0.0
 12
216.2681663226958
 22
560.2083853559839
 32
0.0
 13
216.2681663226958
 23
560.2083853559839
 33
0.0
  0
SOLID
  5
170
330
169
100
AcDbEntity
  8
09-01
 62
     4
100
AcDbTrace
 10
215.4348329893624
 20
438.7083853560357
 30
0.0
 11
217.1014996560291
 21
438.7083853560357
 31
0.0
 12
216.2681663226957
 22
433.7083853560357
 32
0.0
 13
216.2681663226957
 23
433.7083853560357
 33
0.0
  0
POINT
  5
171
330
169
100
AcDbEntity
  8
DEFPOINTS
 62
     0
100
AcDbPoint
 10
188.6468339670359
 20
560.2083853559839
 30
0.0
  0
POINT
  5
172
330
169
100
AcDbEntity
  8
DEFPOINTS
 62
     0
100
AcDbPoint
 10
158.6468339670359
 20
433.7083853560357
 30
0.0
  0
POINT
  5
173
330
169
100
AcDbEntity
  8
DEFPOINTS
 62
     0
100
AcDbPoint
 10
216.2681663226957
 20
433.7083853560357
 30
0.0
  0
ENDBLK
  5
174
330
169
100
AcDbEntity
  8
0
100
AcDbBlockEnd
  0
BLOCK
  5
15D
330
15C
100
AcDbEntity
  8
0
100
AcDbBlockBegin
  2
*D9
 70
     1
 10
0.0
 20
0.0
 30
0.0
  3
*D9
  1

  0
LINE
  5
15E
330
15C
100
AcDbEntity
  8
09-01
 62
     4
370
    -2
100
AcDbLine
 10
160.6468339670359
 20
433.7083853560357
 30
0.0
 11
218.2681663226957
 21
433.7083853560357
 31
0.0
  0
LINE
  5
15F
330
15C
100
AcDbEntity
  8
09-01
 62
     4
370
    -2
100
AcDbLine
 10
193.0066724661864
 20
395.2083853559848
 30
0.0
 11
218.2681663226957
 21
395.2083853559848
 31
0.0
  0
LINE
  5
160
330
15C
100
AcDbEntity
  8
09-01
 62
     4
370
    -2
100
AcDbLine
 10
216.2681663226957
 20
428.7083853560357
 30
0.0
 11
216.2681663226957
 21
400.2083853559847
 31
0.0
  0
SOLID
  5
161
330
15C
100
AcDbEntity
  8
09-01
 62
     4
100
AcDbTrace
 10
215.4348329893624
 20
428.7083853560357
 30
0.0
 11
217.1014996560291
 21
428.7083853560357
 31
0.0
 12
216.2681663226957
 22
433.7083853560357
 32
0.0
 13
216.2681663226957
 23
433.7083853560357
 33
0.0
  0
SOLID
  5
162
330
15C
100
AcDbEntity
  8
09-01
 62
     4
100
AcDbTrace
 10
215.4348329893624
 20
400.2083853559847
 30
0.0
 11
217.1014996560291
 21
400.2083853559847
 31
0.0
 12
216.2681663226957
 22
395.2083853559848
 32
0.0
 13
216.2681663226957
 23
395.2083853559848
 33
0.0
  0
MTEXT
  5
163
330
15C
100
AcDbEntity
  8
09-01
 62
     1
100
AcDbMText
 10
211.7135960634869
 20
414.4583853560103
 30
0.0
 40
5.0
 41
0.0
 46
0.0
 71
     5
 72
     1
  1
38.5
 11
0.0000000000000001
 21
1.0
 31
0.0
 73
     1
 44
1.0
  0
POINT
  5
164
330
15C
100
AcDbEntity
  8
DEFPOINTS
 62
     0
100
AcDbPoint
 10
158.6468339670359
 20
433.7083853560357
 30
0.0
  0
POINT
  5
165
330
15C
100
AcDbEntity
  8
DEFPOINTS
 62
     0
100
AcDbPoint
 10
191.0066724661864
 20
395.2083853559848
 30
0.0
  0
POINT
  5
166
330
15C
100
AcDbEntity
  8
DEFPOINTS
 62
     0
100
AcDbPoint
 10
216.2681663226957
 20
395.2083853559848
 30
0.0
  0
ENDBLK
  5
167
330
15C
100
AcDbEntity
  8
0
100
AcDbBlockEnd
  0
BLOCK
  5
150
330
14F
100
AcDbEntity
  8
0
100
AcDbBlockBegin
  2
*D10
 70
     1
 10
0.0
 20
0.0
 30
0.0
  3
*D10
  1

  0
LINE
  5
151
330
14F
100
AcDbEntity
  8
09-01
 62
     4
370
    -2
100
AcDbLine
 10
198.6468339670354
 20
398.2083853559848
 30
0.0
 11
198.6468339670354
 21
375.2420955978778
 31
0.0
  0
LINE
  5
152
330
14F
100
AcDbEntity
  8
09-01
 62
     4
370
    -2
100
AcDbLine
 10
155.1468339670359
 20
413.4583853560356
 30
0.0
 11
155.1468339670359
 21
375.2420955978778
 31
0.0
  0
LINE
  5
153
330
14F
100
AcDbEntity
  8
09-01
 62
     4
370
    -2
100
AcDbLine
 10
193.6468339670354
 20
377.2420955978778
 30
0.0
 11
160.1468339670359
 21
377.2420955978778
 31
0.0
  0
SOLID
  5
154
330
14F
100
AcDbEntity
  8
09-01
 62
     4
100
AcDbTrace
 10
193.6468339670354
 20
378.0754289312111
 30
0.0
 11
193.6468339670354
 21
376.4087622645444
 31
0.0
 12
198.6468339670354
 22
377.2420955978778
 32
0.0
 13
198.6468339670354
 23
377.2420955978778
 33
0.0
  0
SOLID
  5
155
330
14F
100
AcDbEntity
  8
09-01
 62
     4
100
AcDbTrace
 10
160.1468339670359
 20
378.0754289312111
 30
0.0
 11
160.1468339670359
 21
376.4087622645444
 31
0.0
 12
155.1468339670359
 22
377.2420955978778
 32
0.0
 13
155.1468339670359
 23
377.2420955978778
 33
0.0
  0
MTEXT
  5
156
330
14F
100
AcDbEntity
  8
09-01
 62
     1
100
AcDbMText
 10
176.8968339670356
 20
381.7966658570865
 30
0.0
 40
5.0
 41
0.0
 46
0.0
 71
     5
 72
     1
  1
43.5
 73
     1
 44
1.0
  0
POINT
  5
157
330
14F
100
AcDbEntity
  8
DEFPOINTS
 62
     0
100
AcDbPoint
 10
198.6468339670354
 20
400.2083853559847
 30
0.0
  0
POINT
  5
158
330
14F
100
AcDbEntity
  8
DEFPOINTS
 62
     0
100
AcDbPoint
 10
155.1468339670359
 20
415.4583853560357
 30
0.0
  0
POINT
  5
159
330
14F
100
AcDbEntity
  8
DEFPOINTS
 62
     0
100
AcDbPoint
 10
155.1468339670359
 20
377.2420955978778
 30
0.0
  0
ENDBLK
  5
15A
330
14F
100
AcDbEntity
  8
0
100
AcDbBlockEnd
  0
BLOCK
  5
143
330
142
100
AcDbEntity
  8
0
100
AcDbBlockBegin
  2
*D11
 70
     1
 10
0.0
 20
0.0
 30
0.0
  3
*D11
  1

  0
LINE
  5
144
330
142
100
AcDbEntity
  8
09-01
 62
     4
370
    -2
100
AcDbLine
 10
155.1468339670359
 20
413.4583853560356
 30
0.0
 11
155.1468339670359
 21
375.2420955978778
 31
0.0
  0
LINE
  5
145
330
142
100
AcDbEntity
  8
09-01
 62
     4
370
    -2
100
AcDbLine
 10
111.6468339670359
 20
393.2083853559848
 30
0.0
 11
111.6468339670359
 21
375.2420955978778
 31
0.0
  0
LINE
  5
146
330
142
100
AcDbEntity
  8
09-01
 62
     4
370
    -2
100
AcDbLine
 10
150.1468339670359
 20
377.2420955978778
 30
0.0
 11
116.6468339670359
 21
377.2420955978778
 31
0.0
  0
SOLID
  5
147
330
142
100
AcDbEntity
  8
09-01
 62
     4
100
AcDbTrace
 10
150.1468339670359
 20
378.0754289312111
 30
0.0
 11
150.1468339670359
 21
376.4087622645444
 31
0.0
 12
155.1468339670359
 22
377.2420955978778
 32
0.0
 13
155.1468339670359
 23
377.2420955978778
 33
0.0
  0
SOLID
  5
148
330
142
100
AcDbEntity
  8
09-01
 62
     4
100
AcDbTrace
 10
116.6468339670359
 20
378.0754289312111
 30
0.0
 11
116.6468339670359
 21
376.4087622645444
 31
0.0
 12
111.6468339670359
 22
377.2420955978778
 32
0.0
 13
111.6468339670359
 23
377.2420955978778
 33
0.0
  0
MTEXT
  5
149
330
142
100
AcDbEntity
  8
09-01
 62
     1
100
AcDbMText
 10
133.3968339670359
 20
381.7966658570865
 30
0.0
 40
5.0
 41
0.0
 46
0.0
 71
     5
 72
     1
  1
43.5
 73
     1
 44
1.0
  0
POINT
  5
14A
330
142
100
AcDbEntity
  8
DEFPOINTS
 62
     0
100
AcDbPoint
 10
155.1468339670359
 20
415.4583853560357
 30
0.0
  0
POINT
  5
14B
330
142
100
AcDbEntity
  8
DEFPOINTS
 62
     0
100
AcDbPoint
 10
111.6468339670359
 20
395.2083853559848
 30
0.0
  0
POINT
  5
14C
330
142
100
AcDbEntity
  8
DEFPOINTS
 62
     0
100
AcDbPoint
 10
111.6468339670359
 20
377.2420955978778
 30
0.0
  0
ENDBLK
  5
14D
330
142
100
AcDbEntity
  8
0
100
AcDbBlockEnd
  0
BLOCK
  5
134
330
133
100
AcDbEntity
  8
0
100
AcDbBlockBegin
  2
*D12
 70
     1
 10
0.0
 20
0.0
 30
0.0
  3
*D12
  1

  0
LINE
  5
135
330
133
100
AcDbEntity
  8
09-01
 62
     4
370
    -2
100
AcDbLine
 10
111.6468339670354
 20
571.2083853559847
 30
0.0
 11
111.6468339670354
 21
598.8411462529966
 31
0.0
  0
LINE
  5
136
330
133
100
AcDbEntity
  8
09-01
 62
     4
370
    -2
100
AcDbLine
 10
125.1468339670359
 20
565.7083853559838
 30
0.0
 11
125.1468339670359
 21
598.8411462529966
 31
0.0
  0
LINE
  5
137
330
133
100
AcDbEntity
  8
09-01
 62
     4
370
    -2
100
AcDbLine
 10
106.6468339670354
 20
596.8411462529966
 30
0.0
 11
101.6468339670354
 21
596.8411462529966
 31
0.0
  0
LINE
  5
138
330
133
100
AcDbEntity
  8
09-01
 62
     4
370
    -2
100
AcDbLine
 10
130.1468339670359
 20
596.8411462529966
 30
0.0
 11
135.1468339670359
 21
596.8411462529966
 31
0.0
  0
LINE
  5
139
330
133
100
AcDbEntity
  8
09-01
 62
     4
370
    -2
100
AcDbLine
 10
111.6468339670354
 20
596.8411462529966
 30
0.0
 11
125.1468339670359
 21
596.8411462529966
 31
0.0
  0
SOLID
  5
13A
330
133
100
AcDbEntity
  8
09-01
 62
     4
100
AcDbTrace
 10
106.6468339670354
 20
597.6744795863299
 30
0.0
 11
106.6468339670354
 21
596.0078129196632
 31
0.0
 12
111.6468339670354
 22
596.8411462529966
 32
0.0
 13
111.6468339670354
 23
596.8411462529966
 33
0.0
  0
SOLID
  5
13B
330
133
100
AcDbEntity
  8
09-01
 62
     4
100
AcDbTrace
 10
130.1468339670359
 20
597.6744795863299
 30
0.0
 11
130.1468339670359
 21
596.0078129196632
 31
0.0
 12
125.1468339670359
 22
596.8411462529966
 32
0.0
 13
125.1468339670359
 23
596.8411462529966
 33
0.0
  0
MTEXT
  5
13C
330
133
100
AcDbEntity
  8
09-01
 62
     1
100
AcDbMText
 10
118.3968339670356
 20
601.3957165122053
 30
0.0
 40
5.0
 41
0.0
 46
0.0
 71
     5
 72
     1
  1
13.5
 73
     1
 44
1.0
  0
POINT
  5
13D
330
133
100
AcDbEntity
  8
DEFPOINTS
 62
     0
100
AcDbPoint
 10
111.6468339670354
 20
569.2083853559847
 30
0.0
  0
POINT
  5
13E
330
133
100
AcDbEntity
  8
DEFPOINTS
 62
     0
100
AcDbPoint
 10
125.1468339670359
 20
563.7083853559838
 30
0.0
  0
POINT
  5
13F
330
133
100
AcDbEntity
  8
DEFPOINTS
 62
     0
100
AcDbPoint
 10
125.1468339670359
 20
596.8411462529966
 30
0.0
  0
ENDBLK
  5
140
330
133
100
AcDbEntity
  8
0
100
AcDbBlockEnd
  0
BLOCK
  5
127
330
126
100
AcDbEntity
  8
0
100
AcDbBlockBegin
  2
*D13
 70
     1
 10
0.0
 20
0.0
 30
0.0
  3
*D13
  1

  0
LINE
  5
128
330
126
100
AcDbEntity
  8
09-01
 62
     4
370
    -2
100
AcDbLine
 10
125.1468339670359
 20
565.7083853559838
 30
0.0
 11
125.1468339670359
 21
598.8411462529966
 31
0.0
  0
LINE
  5
129
330
126
100
AcDbEntity
  8
09-01
 62
     4
370
    -2
100
AcDbLine
 10
185.1468339670359
 20
565.7083853559838
 30
0.0
 11
185.1468339670359
 21
598.8411462529966
 31
0.0
  0
LINE
  5
12A
330
126
100
AcDbEntity
  8
09-01
 62
     4
370
    -2
100
AcDbLine
 10
130.1468339670359
 20
596.8411462529966
 30
0.0
 11
180.1468339670359
 21
596.8411462529966
 31
0.0
  0
SOLID
  5
12B
330
126
100
AcDbEntity
  8
09-01
 62
     4
100
AcDbTrace
 10
130.1468339670359
 20
597.6744795863299
 30
0.0
 11
130.1468339670359
 21
596.0078129196632
 31
0.0
 12
125.1468339670359
 22
596.8411462529966
 32
0.0
 13
125.1468339670359
 23
596.8411462529966
 33
0.0
  0
SOLID
  5
12C
330
126
100
AcDbEntity
  8
09-01
 62
     4
100
AcDbTrace
 10
180.1468339670359
 20
597.6744795863299
 30
0.0
 11
180.1468339670359
 21
596.0078129196632
 31
0.0
 12
185.1468339670359
 22
596.8411462529966
 32
0.0
 13
185.1468339670359
 23
596.8411462529966
 33
0.0
  0
MTEXT
  5
12D
330
126
100
AcDbEntity
  8
09-01
 62
     1
100
AcDbMText
 10
155.1468339670359
 20
601.394011191605
 30
0.0
 40
5.0
 41
0.0
 46
0.0
 71
     5
 72
     1
  1
60
 73
     1
 44
1.0
  0
POINT
  5
12E
330
126
100
AcDbEntity
  8
DEFPOINTS
 62
     0
100
AcDbPoint
 10
125.1468339670359
 20
563.7083853559838
 30
0.0
  0
POINT
  5
12F
330
126
100
AcDbEntity
  8
DEFPOINTS
 62
     0
100
AcDbPoint
 10
185.1468339670359
 20
563.7083853559838
 30
0.0
  0
POINT
  5
130
330
126
100
AcDbEntity
  8
DEFPOINTS
 62
     0
100
AcDbPoint
 10
185.1468339670359
 20
596.8411462529966
 30
0.0
  0
ENDBLK
  5
131
330
126
100
AcDbEntity
  8
0
100
AcDbBlockEnd
  0
BLOCK
  5
118
330
117
100
AcDbEntity
  8
0
100
AcDbBlockBegin
  2
*D14
 70
     1
 10
0.0
 20
0.0
 30
0.0
  3
*D14
  1

  0
LINE
  5
119
330
117
100
AcDbEntity
  8
09-01
 62
     4
370
    -2
100
AcDbLine
 10
185.1468339670359
 20
565.7083853559838
 30
0.0
 11
185.1468339670359
 21
598.8411462529966
 31
0.0
  0
LINE
  5
11A
330
117
100
AcDbEntity
  8
09-01
 62
     4
370
    -2
100
AcDbLine
 10
198.6468339670354
 20
566.2083853559847
 30
0.0
 11
198.6468339670354
 21
598.8411462529966
 31
0.0
  0
LINE
  5
11B
330
117
100
AcDbEntity
  8
09-01
 62
     4
370
    -2
100
AcDbLine
 10
180.1468339670359
 20
596.8411462529966
 30
0.0
 11
175.1468339670359
 21
596.8411462529966
 31
0.0
  0
LINE
  5
11C
330
117
100
AcDbEntity
  8
09-01
 62
     4
370
    -2
100
AcDbLine
 10
203.6468339670354
 20
596.8411462529966
 30
0.0
 11
208.6468339670354
 21
596.8411462529966
 31
0.0
  0
LINE
  5
11D
330
117
100
AcDbEntity
  8
09-01
 62
     4
370
    -2
100
AcDbLine
 10
185.1468339670359
 20
596.8411462529966
 30
0.0
 11
198.6468339670354
 21
596.8411462529966
 31
0.0
  0
SOLID
  5
11E
330
117
100
AcDbEntity
  8
09-01
 62
     4
100
AcDbTrace
 10
180.1468339670359
 20
597.6744795863299
 30
0.0
 11
180.1468339670359
 21
596.0078129196632
 31
0.0
 12
185.1468339670359
 22
596.8411462529966
 32
0.0
 13
185.1468339670359
 23
596.8411462529966
 33
0.0
  0
SOLID
  5
11F
330
117
100
AcDbEntity
  8
09-01
 62
     4
100
AcDbTrace
 10
203.6468339670354
 20
597.6744795863299
 30
0.0
 11
203.6468339670354
 21
596.0078129196632
 31
0.0
 12
198.6468339670354
 22
596.8411462529966
 32
0.0
 13
198.6468339670354
 23
596.8411462529966
 33
0.0
  0
MTEXT
  5
120
330
117
100
AcDbEntity
  8
09-01
 62
     1
100
AcDbMText
 10
191.8968339670357
 20
601.3957165122053
 30
0.0
 40
5.0
 41
0.0
 46
0.0
 71
     5
 72
     1
  1
13.5
 73
     1
 44
1.0
  0
POINT
  5
121
330
117
100
AcDbEntity
  8
DEFPOINTS
 62
     0
100
AcDbPoint
 10
185.1468339670359
 20
563.7083853559838
 30
0.0
  0
POINT
  5
122
330
117
100
AcDbEntity
  8
DEFPOINTS
 62
     0
100
AcDbPoint
 10
198.6468339670354
 20
564.2083853559848
 30
0.0
  0
POINT
  5
123
330
117
100
AcDbEntity
  8
DEFPOINTS
 62
     0
100
AcDbPoint
 10
198.6468339670354
 20
596.8411462529966
 30
0.0
  0
ENDBLK
  5
124
330
117
100
AcDbEntity
  8
0
100
AcDbBlockEnd
  0
BLOCK
  5
108
330
107
100
AcDbEntity
  8
0
100
AcDbBlockBegin
  2
*D15
 70
     1
 10
0.0
 20
0.0
 30
0.0
  3
*D15
  1

  0
LINE
  5
109
330
107
100
AcDbEntity
  8
09-01
 62
     4
370
    -2
100
AcDbLine
 10
152.6468339670359
 20
435.7083853560356
 30
0.0
 11
152.6468339670359
 21
455.8431210231047
 31
0.0
  0
LINE
  5
10A
330
107
100
AcDbEntity
  8
09-01
 62
     4
370
    -2
100
AcDbLine
 10
157.6468339670359
 20
435.7083853560356
 30
0.0
 11
157.6468339670359
 21
455.8431210231047
 31
0.0
  0
LINE
  5
10B
330
107
100
AcDbEntity
  8
09-01
 62
     4
370
    -2
100
AcDbLine
 10
147.6468339670359
 20
453.8431210231046
 30
0.0
 11
142.6468339670359
 21
453.8431210231046
 31
0.0
  0
LINE
  5
10C
330
107
100
AcDbEntity
  8
09-01
 62
     4
370
    -2
100
AcDbLine
 10
162.6468339670359
 20
453.8431210231046
 30
0.0
 11
167.6468339670359
 21
453.8431210231046
 31
0.0
  0
MTEXT
  5
10D
330
107
100
AcDbEntity
  8
09-01
 62
     1
100
AcDbMText
 10
155.3443365459752
 20
458.3857540381115
 30
0.0
 40
5.0
 41
0.0
 46
0.0
 71
     5
 72
     1
  1
5
 73
     1
 44
1.0
  0
LINE
  5
10E
330
107
100
AcDbEntity
  8
09-01
 62
     4
370
    -2
100
AcDbLine
 10
152.6468339670359
 20
453.8431210231046
 30
0.0
 11
157.6468339670359
 21
453.8431210231046
 31
0.0
  0
SOLID
  5
10F
330
107
100
AcDbEntity
  8
09-01
 62
     4
100
AcDbTrace
 10
147.6468339670359
 20
454.6764543564379
 30
0.0
 11
147.6468339670359
 21
453.0097876897714
 31
0.0
 12
152.6468339670359
 22
453.8431210231046
 32
0.0
 13
152.6468339670359
 23
453.8431210231046
 33
0.0
  0
SOLID
  5
110
330
107
100
AcDbEntity
  8
09-01
 62
     4
100
AcDbTrace
 10
162.6468339670359
 20
454.6764543564379
 30
0.0
 11
162.6468339670359
 21
453.0097876897714
 31
0.0
 12
157.6468339670359
 22
453.8431210231046
 32
0.0
 13
157.6468339670359
 23
453.8431210231046
 33
0.0
  0
POINT
  5
111
330
107
100
AcDbEntity
  8
DEFPOINTS
 62
     0
100
AcDbPoint
 10
152.6468339670359
 20
433.7083853560357
 30
0.0
  0
POINT
  5
112
330
107
100
AcDbEntity
  8
DEFPOINTS
 62
     0
100
AcDbPoint
 10
157.6468339670359
 20
433.7083853560357
 30
0.0
  0
POINT
  5
113
330
107
100
AcDbEntity
  8
DEFPOINTS
 62
     0
100
AcDbPoint
 10
157.6468339670359
 20
453.8431210231046
 30
0.0
  0
ENDBLK
  5
114
330
107
100
AcDbEntity
  8
0
100
AcDbBlockEnd
  0
BLOCK
  5
F9
330
F8
100
AcDbEntity
  8
0
100
AcDbBlockBegin
  2
*D16
 70
     1
 10
0.0
 20
0.0
 30
0.0
  3
*D16
  1

  0
LINE
  5
FA
330
F8
100
AcDbEntity
  8
09-01
 62
     4
370
    -2
100
AcDbLine
 10
149.6468339670359
 20
433.7083853560357
 30
0.0
 11
138.3603230312091
 21
433.7083853560357
 31
0.0
  0
LINE
  5
FB
330
F8
100
AcDbEntity
  8
09-01
 62
     4
370
    -2
100
AcDbLine
 10
145.8968339670359
 20
421.7083853560357
 30
0.0
 11
138.3603230312091
 21
421.7083853560357
 31
0.0
  0
LINE
  5
FC
330
F8
100
AcDbEntity
  8
09-01
 62
     4
370
    -2
100
AcDbLine
 10
140.3603230312091
 20
438.7083853560357
 30
0.0
 11
140.3603230312091
 21
443.7083853560356
 31
0.0
  0
LINE
  5
FD
330
F8
100
AcDbEntity
  8
09-01
 62
     4
370
    -2
100
AcDbLine
 10
140.3603230312091
 20
416.7083853560357
 30
0.0
 11
140.3603230312091
 21
411.7083853560357
 31
0.0
  0
LINE
  5
FE
330
F8
100
AcDbEntity
  8
09-01
 62
     4
370
    -2
100
AcDbLine
 10
140.3603230312091
 20
433.7083853560357
 30
0.0
 11
140.3603230312091
 21
421.7083853560357
 31
0.0
  0
SOLID
  5
FF
330
F8
100
AcDbEntity
  8
09-01
 62
     4
100
AcDbTrace
 10
139.5269896978758
 20
438.7083853560357
 30
0.0
 11
141.1936563645425
 21
438.7083853560357
 31
0.0
 12
140.3603230312091
 22
433.7083853560357
 32
0.0
 13
140.3603230312091
 23
433.7083853560357
 33
0.0
  0
SOLID
  5
100
330
F8
100
AcDbEntity
  8
09-01
 62
     4
100
AcDbTrace
 10
139.5269896978758
 20
416.7083853560357
 30
0.0
 11
141.1936563645425
 21
416.7083853560357
 31
0.0
 12
140.3603230312091
 22
421.7083853560357
 32
0.0
 13
140.3603230312091
 23
421.7083853560357
 33
0.0
  0
MTEXT
  5
101
330
F8
100
AcDbEntity
  8
09-01
 62
     1
100
AcDbMText
 10
135.8500911076074
 20
427.7083853560357
 30
0.0
 40
5.0
 41
0.0
 46
0.0
 71
     5
 72
     1
  1
12
 11
0.0000000000000001
 21
1.0
 31
0.0
 73
     1
 44
1.0
  0
POINT
  5
102
330
F8
100
AcDbEntity
  8
DEFPOINTS
 62
     0
100
AcDbPoint
 10
151.6468339670359
 20
433.7083853560357
 30
0.0
  0
POINT
  5
103
330
F8
100
AcDbEntity
  8
DEFPOINTS
 62
     0
100
AcDbPoint
 10
147.8968339670359
 20
421.7083853560357
 30
0.0
  0
POINT
  5
104
330
F8
100
AcDbEntity
  8
DEFPOINTS
 62
     0
100
AcDbPoint
 10
140.3603230312091
 20
421.7083853560357
 30
0.0
  0
ENDBLK
  5
105
330
F8
100
AcDbEntity
  8
0
100
AcDbBlockEnd
  0
BLOCK
  5
EA
330
E9
100
AcDbEntity
  8
0
100
AcDbBlockBegin
  2
*D17
 70
     1
 10
0.0
 20
0.0
 30
0.0
  3
*D17
  1

  0
LINE
  5
EB
330
E9
100
AcDbEntity
  8
09-01
 62
     4
370
    -2
100
AcDbLine
 10
148.8968339670359
 20
419.7083853560356
 30
0.0
 11
148.8968339670359
 21
402.4490683762333
 31
0.0
  0
LINE
  5
EC
330
E9
100
AcDbEntity
  8
09-01
 62
     4
370
    -2
100
AcDbLine
 10
161.3968339670359
 20
419.7083853560356
 30
0.0
 11
161.3968339670359
 21
402.4490683762333
 31
0.0
  0
LINE
  5
ED
330
E9
100
AcDbEntity
  8
09-01
 62
     4
370
    -2
100
AcDbLine
 10
143.8968339670359
 20
404.4490683762332
 30
0.0
 11
138.8968339670359
 21
404.4490683762332
 31
0.0
  0
LINE
  5
EE
330
E9
100
AcDbEntity
  8
09-01
 62
     4
370
    -2
100
AcDbLine
 10
166.3968339670359
 20
404.4490683762332
 30
0.0
 11
171.3968339670359
 21
404.4490683762332
 31
0.0
  0
MTEXT
  5
EF
330
E9
100
AcDbEntity
  8
09-01
 62
     1
100
AcDbMText
 10
168.6521309220224
 20
409.0019333148418
 30
0.0
 40
5.0
 41
0.0
 46
0.0
 71
     5
 72
     1
  1
12.5
 73
     1
 44
1.0
  0
LINE
  5
F0
330
E9
100
AcDbEntity
  8
09-01
 62
     4
370
    -2
100
AcDbLine
 10
148.8968339670359
 20
404.4490683762332
 30
0.0
 11
161.3968339670359
 21
404.4490683762332
 31
0.0
  0
SOLID
  5
F1
330
E9
100
AcDbEntity
  8
09-01
 62
     4
100
AcDbTrace
 10
143.8968339670359
 20
405.2824017095666
 30
0.0
 11
143.8968339670359
 21
403.6157350428999
 31
0.0
 12
148.8968339670359
 22
404.4490683762332
 32
0.0
 13
148.8968339670359
 23
404.4490683762332
 33
0.0
  0
SOLID
  5
F2
330
E9
100
AcDbEntity
  8
09-01
 62
     4
100
AcDbTrace
 10
166.3968339670359
 20
405.2824017095666
 30
0.0
 11
166.3968339670359
 21
403.6157350428999
 31
0.0
 12
161.3968339670359
 22
404.4490683762332
 32
0.0
 13
161.3968339670359
 23
404.4490683762332
 33
0.0
  0
POINT
  5
F3
330
E9
100
AcDbEntity
  8
DEFPOINTS
 62
     0
100
AcDbPoint
 10
148.8968339670359
 20
421.7083853560357
 30
0.0
  0
POINT
  5
F4
330
E9
100
AcDbEntity
  8
DEFPOINTS
 62
     0
100
AcDbPoint
 10
161.3968339670359
 20
421.7083853560357
 30
0.0
  0
POINT
  5
F5
330
E9
100
AcDbEntity
  8
DEFPOINTS
 62
     0
100
AcDbPoint
 10
161.3968339670359
 20
404.4490683762332
 30
0.0
  0
ENDBLK
  5
F6
330
E9
100
AcDbEntity
  8
0
100
AcDbBlockEnd
  0
BLOCK
  5
9A
330
99
100
AcDbEntity
  8
0
100
AcDbBlockBegin
  2
*D18
 70
     1
 10
0.0
 20
0.0
 30
0.0
  3
*D18
  1

  0
LINE
  5
9B
330
99
100
AcDbEntity
  8
09-01
 62
     4
370
    -2
100
AcDbLine
 10
355.7364041050809
 20
571.2083853559847
 30
0.0
 11
355.7364041050809
 21
694.8861950409877
 31
0.0
  0
LINE
  5
9C
330
99
100
AcDbEntity
  8
09-01
 62
     4
370
    -2
100
AcDbLine
 10
484.632463772934
 20
681.2083923893323
 30
0.0
 11
484.632463772934
 21
694.8861950409877
 31
0.0
  0
LINE
  5
9D
330
99
100
AcDbEntity
  8
09-01
 62
     4
370
    -2
100
AcDbLine
 10
360.7364041050809
 20
692.8861950409878
 30
0.0
 11
479.632463772934
 21
692.8861950409878
 31
0.0
  0
SOLID
  5
9E
330
99
100
AcDbEntity
  8
09-01
 62
     4
100
AcDbTrace
 10
360.7364041050809
 20
693.7195283743212
 30
0.0
 11
360.7364041050809
 21
692.0528617076544
 31
0.0
 12
355.7364041050809
 22
692.8861950409878
 32
0.0
 13
355.7364041050809
 23
692.8861950409878
 33
0.0
  0
SOLID
  5
9F
330
99
100
AcDbEntity
  8
09-01
 62
     4
100
AcDbTrace
 10
479.632463772934
 20
693.7195283743212
 30
0.0
 11
479.632463772934
 21
692.0528617076544
 31
0.0
 12
484.632463772934
 22
692.8861950409878
 32
0.0
 13
484.632463772934
 23
692.8861950409878
 33
0.0
  0
MTEXT
  5
A0
330
99
100
AcDbEntity
  8
09-01
 62
     1
100
AcDbMText
 10
420.1844339390074
 20
697.4390599795961
 30
0.0
 40
5.0
 41
0.0
 46
0.0
 71
     5
 72
     1
  1
129
 73
     1
 44
1.0
  0
POINT
  5
A1
330
99
100
AcDbEntity
  8
DEFPOINTS
 62
     0
100
AcDbPoint
 10
355.7364041050809
 20
569.2083853559847
 30
0.0
  0
POINT
  5
A2
330
99
100
AcDbEntity
  8
DEFPOINTS
 62
     0
100
AcDbPoint
 10
484.632463772934
 20
679.2083923893324
 30
0.0
  0
POINT
  5
A3
330
99
100
AcDbEntity
  8
DEFPOINTS
 62
     0
100
AcDbPoint
 10
484.632463772934
 20
692.8861950409878
 30
0.0
  0
ENDBLK
  5
A4
330
99
100
AcDbEntity
  8
0
100
AcDbBlockEnd
  0
BLOCK
  5
8D
330
8C
100
AcDbEntity
  8
0
100
AcDbBlockBegin
  2
*D19
 70
     1
 10
0.0
 20
0.0
 30
0.0
  3
*D19
  1

  0
LINE
  5
8E
330
8C
100
AcDbEntity
  8
09-01
 62
     4
370
    -2
100
AcDbLine
 10
123.1468339670359
 20
684.2083923893324
 30
0.0
 11
68.49718737139575
 21
684.2083923893324
 31
0.0
  0
LINE
  5
8F
330
8C
100
AcDbEntity
  8
09-01
 62
     4
370
    -2
100
AcDbLine
 10
105.6468339670359
 20
395.2083853559848
 30
0.0
 11
68.49718737139568
 21
395.2083853559848
 31
0.0
  0
LINE
  5
90
330
8C
100
AcDbEntity
  8
09-01
 62
     4
370
    -2
100
AcDbLine
 10
70.49718737139575
 20
679.2083923893324
 30
0.0
 11
70.49718737139568
 21
400.2083853559847
 31
0.0
  0
SOLID
  5
91
330
8C
100
AcDbEntity
  8
09-01
 62
     4
100
AcDbTrace
 10
69.66385403806242
 20
679.2083923893324
 30
0.0
 11
71.33052070472908
 21
679.2083923893324
 31
0.0
 12
70.49718737139575
 22
684.2083923893324
 32
0.0
 13
70.49718737139575
 23
684.2083923893324
 33
0.0
  0
SOLID
  5
92
330
8C
100
AcDbEntity
  8
09-01
 62
     4
100
AcDbTrace
 10
69.66385403806235
 20
400.2083853559847
 30
0.0
 11
71.33052070472901
 21
400.2083853559847
 31
0.0
 12
70.49718737139568
 22
395.2083853559848
 32
0.0
 13
70.49718737139568
 23
395.2083853559848
 33
0.0
  0
MTEXT
  5
93
330
8C
100
AcDbEntity
  8
09-01
 62
     1
100
AcDbMText
 10
65.94432243278717
 20
539.7083888726585
 30
0.0
 40
5.0
 41
0.0
 46
0.0
 71
     5
 72
     1
  1
289
 11
0.0000000000000001
 21
1.0
 31
0.0
 73
     1
 44
1.0
  0
POINT
  5
94
330
8C
100
AcDbEntity
  8
DEFPOINTS
 62
     0
100
AcDbPoint
 10
125.1468339670359
 20
684.2083923893324
 30
0.0
  0
POINT
  5
95
330
8C
100
AcDbEntity
  8
DEFPOINTS
 62
     0
100
AcDbPoint
 10
107.6468339670359
 20
395.2083853559848
 30
0.0
  0
POINT
  5
96
330
8C
100
AcDbEntity
  8
DEFPOINTS
 62
     0
100
AcDbPoint
 10
70.49718737139568
 20
395.2083853559848
 30
0.0
  0
ENDBLK
  5
97
330
8C
100
AcDbEntity
  8
0
100
AcDbBlockEnd
  0
BLOCK
  5
7E
330
7D
100
AcDbEntity
  8
0
100
AcDbBlockBegin
  2
*D20
 70
     1
 10
0.0
 20
0.0
 30
0.0
  3
*D20
  1

  0
LINE
  5
7F
330
7D
100
AcDbEntity
  8
09-01
 62
     4
370
    -2
100
AcDbLine
 10
393.6324637729338
 20
666.4341628790435
 30
0.0
 11
393.6324637729338
 21
669.9918149058516
 31
0.0
  0
LINE
  5
80
330
7D
100
AcDbEntity
  8
09-01
 62
     4
370
    -2
100
AcDbLine
 10
484.6324637729337
 20
665.2036707549632
 30
0.0
 11
484.6324637729337
 21
669.9918149058516
 31
0.0
  0
LINE
  5
81
330
7D
100
AcDbEntity
  8
09-01
 62
     4
370
    -2
100
AcDbLine
 10
398.6324637729338
 20
667.9918149058517
 30
0.0
 11
479.6324637729338
 21
667.9918149058517
 31
0.0
  0
SOLID
  5
82
330
7D
100
AcDbEntity
  8
09-01
 62
     4
100
AcDbTrace
 10
398.6324637729338
 20
668.8251482391851
 30
0.0
 11
398.6324637729338
 21
667.1584815725183
 31
0.0
 12
393.6324637729338
 22
667.9918149058517
 32
0.0
 13
393.6324637729338
 23
667.9918149058517
 33
0.0
  0
SOLID
  5
83
330
7D
100
AcDbEntity
  8
09-01
 62
     4
100
AcDbTrace
 10
479.6324637729338
 20
668.8251482391851
 30
0.0
 11
479.6324637729338
 21
667.1584815725183
 31
0.0
 12
484.6324637729337
 22
667.9918149058517
 32
0.0
 13
484.6324637729337
 23
667.9918149058517
 33
0.0
  0
MTEXT
  5
84
330
7D
100
AcDbEntity
  8
09-01
 62
     1
100
AcDbMText
 10
439.1324637729338
 20
672.54467984446
 30
0.0
 40
5.0
 41
0.0
 46
0.0
 71
     5
 72
     1
  1
91
 73
     1
 44
1.0
  0
POINT
  5
85
330
7D
100
AcDbEntity
  8
DEFPOINTS
 62
     0
100
AcDbPoint
 10
393.6324637729338
 20
664.4341628790434
 30
0.0
  0
POINT
  5
87
330
7D
100
AcDbEntity
  8
DEFPOINTS
 62
     0
100
AcDbPoint
 10
484.6324637729337
 20
663.2036707549632
 30
0.0
  0
POINT
  5
88
330
7D
100
AcDbEntity
  8
DEFPOINTS
 62
     0
100
AcDbPoint
 10
484.6324637729337
 20
667.9918149058517
 30
0.0
  0
ENDBLK
  5
89
330
7D
100
AcDbEntity
  8
0
100
AcDbBlockEnd
  0
ENDSEC
  0
SECTION
  2
ENTITIES
  0
TEXT
  5
7A
330
2
100
AcDbEntity
  8
09-01
100
AcDbText
 10
430.0715932580059
 20
677.1443917565484
 30
0.0
 40
5.0
  1
950 ml
100
AcDbText
  0
TEXT
  5
7B
330
2
100
AcDbEntity
  8
09-01
100
AcDbText
 10
139.7521288311144
 20
677.1443917565484
 30
0.0
 40
5.0
  1
950 ml
100
AcDbText
  0
DIMENSION
  5
7C
330
2
100
AcDbEntity
  8
09-01
100
AcDbDimension
280
     0
  2
*D20
 10
484.6324637729337
 20
667.9918149058517
 30
0.0
 11
439.1324637729338
 21
672.54467984446
 31
0.0
 71
     5
 42
91.0
 73
     0
 74
     0
 75
     0
  3
Wagner$0
100
AcDbAlignedDimension
 13
393.6324637729338
 23
664.4341628790434
 33
0.0
 14
484.6324637729337
 24
663.2036707549632
 34
0.0
100
AcDbRotatedDimension
1001
ACAD
1000
DSTYLE
1002
{
1070
    40
1040
2.0
1070
   179
1070
     8
1070
   271
1070
     8
1070
   272
1070
     8
1002
}
  0
DIMENSION
  5
8B
330
2
100
AcDbEntity
  8
09-01
100
AcDbDimension
280
     0
  2
*D19
 10
70.49718737139568
 20
395.2083853559848
 30
0.0
 11
65.94432243278717
 21
539.7083888726585
 31
0.0
 71
     5
 42
289.0000070333476
 73
     0
 74
     0
 75
     0
  3
Wagner$0
100
AcDbAlignedDimension
 13
125.1468339670359
 23
684.2083923893324
 33
0.0
 14
107.6468339670359
 24
395.2083853559848
 34
0.0
 50
90.0
100
AcDbRotatedDimension
1001
ACAD
1000
DSTYLE
1002
{
1070
    40
1040
2.0
1070
   179
1070
     8
1070
   271
1070
     0
1070
   272
1070
     8
1002
}
  0
DIMENSION
  5
98
330
2
100
AcDbEntity
  8
09-01
100
AcDbDimension
280
     0
  2
*D18
 10
484.632463772934
 20
692.8861950409878
 30
0.0
 11
420.1844339390074
 21
697.4390599795961
 31
0.0
 71
     5
 42
128.8960596678531
 73
     0
 74
     0
 75
     0
  3
Wagner$0
100
AcDbAlignedDimension
 13
355.7364041050809
 23
569.2083853559847
 33
0.0
 14
484.632463772934
 24
679.2083923893324
 34
0.0
100
AcDbRotatedDimension
1001
ACAD
1000
DSTYLE
1002
{
1070
    40
1040
2.0
1070
   179
1070
     8
1070
   271
1070
     0
1070
   272
1070
     8
1002
}
  0
TEXT
  5
A5
330
2
100
AcDbEntity
  8
09-01
100
AcDbText
 10
229.6999711193529
 20
407.2972137786373
 30
0.0
 40
5.0
  1
Batteriefachdeckel
100
AcDbText
  0
LINE
  5
A6
330
2
100
AcDbEntity
  8
05-01
100
AcDbLine
 10
196.5468339670348
 20
496.7287988048058
 30
0.0
 11
204.9609262802514
 21
492.1878752712977
 31
0.0
  0
LINE
  5
AB
330
2
100
AcDbEntity
  8
05-01
100
AcDbLine
 10
205.4714735776544
 20
500.1592133297654
 30
0.0
 11
204.9609262802514
 21
492.1878752712977
 31
0.0
  0
LINE
  5
AC
330
2
100
AcDbEntity
  8
05-01
100
AcDbLine
 10
196.5468339670348
 20
496.7287988048058
 30
0.0
 11
205.4714735776544
 21
500.1592133297654
 31
0.0
  0
LINE
  5
AD
330
2
100
AcDbEntity
  8
05-01
100
AcDbLine
 10
291.2911537421098
 20
418.2083853559845
 30
0.0
 11
285.2671289224306
 21
425.6332126916459
 31
0.0
  0
LINE
  5
AE
330
2
100
AcDbEntity
  8
05-01
100
AcDbLine
 10
293.0051190298802
 20
427.6147267799817
 30
0.0
 11
285.2671289224306
 21
425.6332126916459
 31
0.0
  0
LINE
  5
AF
330
2
100
AcDbEntity
  8
05-01
100
AcDbLine
 10
291.2911537421098
 20
418.2083853559845
 30
0.0
 11
293.0051190298802
 21
427.6147267799817
 31
0.0
  0
ARC
  5
B0
330
2
100
AcDbEntity
  8
05-01
100
AcDbCircle
 10
196.5468339670355
 20
400.3083853559848
 30
0.0
 40
96.42041344882045
100
AcDbArc
 50
10.6987591782072
 51
90.0
  0
LINE
  5
B1
330
2
100
AcDbEntity
  8
05-01
100
AcDbLine
 10
310.5468339670355
 20
418.2083853559845
 30
0.0
 11
198.5468339670355
 21
418.2083853559845
 31
0.0
  0
LINE
  5
B2
330
2
100
AcDbEntity
  8
05-01
100
AcDbLine
 10
318.0468339670355
 20
403.3083853559848
 30
0.0
 11
310.5468339670355
 21
403.3083853559848
 31
0.0
  0
LINE
  5
B3
330
2
100
AcDbEntity
  8
05-01
100
AcDbLine
 10
318.0468339670355
 20
400.3083853559848
 30
0.0
 11
318.0468339670355
 21
403.3083853559848
 31
0.0
  0
LINE
  5
B4
330
2
100
AcDbEntity
  8
05-01
100
AcDbLine
 10
310.5468339670355
 20
418.2083853559845
 30
0.0
 11
310.5468339670355
 21
400.3083853559848
 31
0.0
  0
LINE
  5
B5
330
2
100
AcDbEntity
  8
05-01
100
AcDbLine
 10
198.5468339670355
 20
418.2083853559845
 30
0.0
 11
198.5468339670355
 21
400.3083853559848
 31
0.0
  0
LINE
  5
B6
330
2
100
AcDbEntity
  8
05-01
100
AcDbLine
 10
318.0468339670355
 20
400.3083853559848
 30
0.0
 11
198.5468339670355
 21
400.3083853559848
 31
0.0
  0
LINE
  5
B7
330
2
100
AcDbEntity
  8
05-01
100
AcDbLine
 10
130.6468339670359
 20
264.0326315422495
 30
0.0
 11
178.6468339670359
 21
264.0326315422504
 31
0.0
  0
ARC
  5
B8
330
2
100
AcDbEntity
  8
05-01
100
AcDbCircle
 10
178.6468339670359
 20
195.03263154225
 30
0.0
 40
5.0
100
AcDbArc
 50
270.0
 51
0.0
  0
ARC
  5
B9
330
2
100
AcDbEntity
  8
05-01
100
AcDbCircle
 10
166.6468339670397
 20
195.0326315422495
 30
0.0
 40
5.0
100
AcDbArc
 50
270.0
 51
0.0
  0
LINE
  5
BA
330
2
100
AcDbEntity
  8
05-01
100
AcDbLine
 10
130.6468339670359
 20
190.0326315422497
 30
0.0
 11
178.6468339670359
 21
190.03263154225
 31
0.0
  0
LINE
  5
BB
330
2
100
AcDbEntity
  8
05-01
100
AcDbLine
 10
138.1468339670359
 20
264.03263154225
 30
0.0
 11
171.1468339670359
 21
264.03263154225
 31
0.0
  0
LINE
  5
BC
330
2
100
AcDbEntity
  8
05-01
100
AcDbLine
 10
138.1468339670359
 20
190.03263154225
 30
0.0
 11
171.1468339670359
 21
190.03263154225
 31
0.0
  0
ARC
  5
BD
330
2
100
AcDbEntity
  8
05-01
100
AcDbCircle
 10
178.6468339670359
 20
259.0326315422505
 30
0.0
 40
5.0
100
AcDbArc
 50
0.0
 51
90.0
  0
LINE
  5
BE
330
2
100
AcDbEntity
  8
05-01
100
AcDbLine
 10
183.6468339670361
 20
259.0326315422505
 30
0.0
 11
183.6468339670359
 21
195.03263154225
 31
0.0
  0
ARC
  5
BF
330
2
100
AcDbEntity
  8
05-01
100
AcDbCircle
 10
166.6468339670397
 20
259.0326315422505
 30
0.0
 40
5.0
100
AcDbArc
 50
0.0
 51
90.0
  0
LINE
  5
C0
330
2
100
AcDbEntity
  8
05-01
100
AcDbLine
 10
171.64683396704
 20
259.0326315422505
 30
0.0
 11
171.6468339670397
 21
195.03263154225
 31
0.0
  0
ARC
  5
C1
330
2
100
AcDbEntity
  8
05-01
100
AcDbCircle
 10
130.6468339670359
 20
259.0326315422505
 30
0.0
 40
5.0
100
AcDbArc
 50
90.0
 51
180.0
  0
ARC
  5
C2
330
2
100
AcDbEntity
  8
05-01
100
AcDbCircle
 10
130.6468339670359
 20
195.0326315422497
 30
0.0
 40
5.0
100
AcDbArc
 50
180.0
 51
270.0
  0
LINE
  5
C3
330
2
100
AcDbEntity
  8
05-01
100
AcDbLine
 10
183.6468339670359
 20
243.53263154225
 30
0.0
 11
183.6468339670359
 21
210.53263154225
 31
0.0
  0
LINE
  5
C4
330
2
100
AcDbEntity
  8
05-01
100
AcDbLine
 10
125.6468339670359
 20
259.0326315422505
 30
0.0
 11
125.6468339670359
 21
195.0326315422497
 31
0.0
  0
LINE
  5
C5
330
2
100
AcDbEntity
  8
05-01
100
AcDbLine
 10
173.1468339670359
 20
272.53263154225
 30
0.0
 11
184.1468339670322
 21
272.53263154225
 31
0.0
  0
ARC
  5
C6
330
2
100
AcDbEntity
  8
05-01
100
AcDbCircle
 10
184.1468339670322
 20
186.5326315422502
 30
0.0
 40
5.0
100
AcDbArc
 50
270.0
 51
0.0
  0
ARC
  5
C7
330
2
100
AcDbEntity
  8
05-01
100
AcDbCircle
 10
173.1468339670359
 20
186.5326315422502
 30
0.0
 40
5.0
100
AcDbArc
 50
270.0
 51
0.0
  0
LINE
  5
C8
330
2
100
AcDbEntity
  8
05-01
100
AcDbLine
 10
125.1468339670359
 20
181.53263154225
 30
0.0
 11
184.1468339670322
 21
181.5326315422502
 31
0.0
  0
LINE
  5
C9
330
2
100
AcDbEntity
  8
05-01
100
AcDbLine
 10
125.1468339670359
 20
181.53263154225
 30
0.0
 11
173.1468339670359
 21
181.53263154225
 31
0.0
  0
LINE
  5
CA
330
2
100
AcDbEntity
  8
05-01
100
AcDbLine
 10
125.1468339670359
 20
272.53263154225
 30
0.0
 11
173.1468339670359
 21
272.53263154225
 31
0.0
  0
ARC
  5
CB
330
2
100
AcDbEntity
  8
05-01
100
AcDbCircle
 10
184.1468339670322
 20
267.53263154225
 30
0.0
 40
5.0
100
AcDbArc
 50
0.0
 51
90.0
  0
LINE
  5
CC
330
2
100
AcDbEntity
  8
05-01
100
AcDbLine
 10
189.1468339670322
 20
267.53263154225
 30
0.0
 11
189.1468339670322
 21
186.5326315422502
 31
0.0
  0
ARC
  5
CD
330
2
100
AcDbEntity
  8
05-01
100
AcDbCircle
 10
173.1468339670359
 20
267.53263154225
 30
0.0
 40
5.0
100
AcDbArc
 50
0.0
 51
90.0
  0
LINE
  5
CE
330
2
100
AcDbEntity
  8
05-01
100
AcDbLine
 10
178.1468339670359
 20
267.53263154225
 30
0.0
 11
178.1468339670359
 21
186.5326315422502
 31
0.0
  0
ARC
  5
CF
330
2
100
AcDbEntity
  8
05-01
100
AcDbCircle
 10
125.1468339670359
 20
267.53263154225
 30
0.0
 40
5.0
100
AcDbArc
 50
90.0
 51
180.0
  0
ARC
  5
D0
330
2
100
AcDbEntity
  8
05-01
100
AcDbCircle
 10
125.1468339670359
 20
186.53263154225
 30
0.0
 40
5.0
100
AcDbArc
 50
180.0
 51
270.0
  0
LINE
  5
D1
330
2
100
AcDbEntity
  8
05-01
100
AcDbLine
 10
120.1468339670359
 20
267.53263154225
 30
0.0
 11
120.1468339670359
 21
186.53263154225
 31
0.0
  0
LINE
  5
D2
330
2
100
AcDbEntity
  8
05-01
100
AcDbLine
 10
398.6324637729338
 20
684.2083923893324
 30
0.0
 11
479.632463772934
 21
684.2083923893326
 31
0.0
  0
LINE
  5
D3
330
2
100
AcDbEntity
  8
05-01
100
AcDbLine
 10
480.5007046612677
 20
507.4031271009212
 30
0.0
 11
452.382463772934
 21
504.2083923893324
 31
0.0
  0
ARC
  5
D4
330
2
100
AcDbEntity
  8
05-01
100
AcDbCircle
 10
398.6324637729338
 20
512.3271658659819
 30
0.0
 40
5.0
100
AcDbArc
 50
180.0
 51
260.0000000000077
  0
LINE
  5
D5
330
2
100
AcDbEntity
  8
05-01
100
AcDbLine
 10
397.7642228845999
 20
507.4031271009207
 30
0.0
 11
425.8824637729326
 21
504.2083923893324
 31
0.0
  0
ARC
  5
D6
330
2
100
AcDbEntity
  8
05-01
100
AcDbCircle
 10
479.6324637729338
 20
512.3271658659823
 30
0.0
 40
5.0
100
AcDbArc
 50
279.9999999999922
 51
0.0
  0
LINE
  5
D7
330
2
100
AcDbEntity
  8
05-01
100
AcDbLine
 10
484.632463772934
 20
679.2083923893324
 30
0.0
 11
484.6324637729337
 21
512.3271658659823
 31
0.0
  0
ARC
  5
D8
330
2
100
AcDbEntity
  8
05-01
100
AcDbCircle
 10
479.632463772934
 20
679.2083923893324
 30
0.0
 40
5.0
100
AcDbArc
 50
0.0
 51
90.0
  0
ARC
  5
D9
330
2
100
AcDbEntity
  8
05-01
100
AcDbCircle
 10
398.6324637729338
 20
679.2083923893324
 30
0.0
 40
5.0
100
AcDbArc
 50
90.0
 51
180.0
  0
LINE
  5
DA
330
2
100
AcDbEntity
  8
05-01
100
AcDbLine
 10
393.6324637729338
 20
679.2083923893324
 30
0.0
 11
393.6324637729338
 21
512.3271658659819
 31
0.0
  0
LINE
  5
DB
330
2
100
AcDbEntity
  8
05-01
100
AcDbLine
 10
183.1468339670358
 20
655.8083923893323
 30
0.0
 11
184.1468339670359
 21
655.8083923893323
 31
0.0
  0
LINE
  5
DC
330
2
100
AcDbEntity
  8
05-01
100
AcDbLine
 10
125.1468339670359
 20
684.2083923893324
 30
0.0
 11
173.1468339670359
 21
684.2083923893324
 31
0.0
  0
LINE
  5
DD
330
2
100
AcDbEntity
  8
05-01
100
AcDbLine
 10
185.0150748553705
 20
507.4031271009212
 30
0.0
 11
167.8968339670372
 21
504.2083923893324
 31
0.0
  0
ARC
  5
DE
330
2
100
AcDbEntity
  8
05-01
100
AcDbCircle
 10
125.1468339670359
 20
512.3271658659819
 30
0.0
 40
5.0
100
AcDbArc
 50
180.0
 51
260.0000000000077
  0
LINE
  5
DF
330
2
100
AcDbEntity
  8
05-01
100
AcDbLine
 10
124.2785930787012
 20
507.4031271009207
 30
0.0
 11
141.3968339670359
 21
504.2083923893324
 31
0.0
  0
ARC
  5
E0
330
2
100
AcDbEntity
  8
05-01
100
AcDbCircle
 10
184.1468339670359
 20
512.3271658659823
 30
0.0
 40
5.0
100
AcDbArc
 50
279.9999999999922
 51
0.0
  0
ARC
  5
E1
330
2
100
AcDbEntity
  8
05-01
100
AcDbCircle
 10
184.1468339670359
 20
650.8083923893323
 30
0.0
 40
5.0
100
AcDbArc
 50
0.0
 51
90.0
  0
LINE
  5
E2
330
2
100
AcDbEntity
  8
05-01
100
AcDbLine
 10
189.1468339670359
 20
650.8083923893323
 30
0.0
 11
189.1468339670359
 21
512.3271658659823
 31
0.0
  0
ARC
  5
E3
330
2
100
AcDbEntity
  8
05-01
100
AcDbCircle
 10
173.1468339670359
 20
679.2083923893324
 30
0.0
 40
5.0
100
AcDbArc
 50
0.0
 51
90.0
  0
ARC
  5
E4
330
2
100
AcDbEntity
  8
05-01
100
AcDbCircle
 10
183.1468339670358
 20
660.8083923893323
 30
0.0
 40
5.0
100
AcDbArc
 50
180.0
 51
270.0
  0
LINE
  5
E5
330
2
100
AcDbEntity
  8
05-01
100
AcDbLine
 10
178.1468339670359
 20
679.2083923893324
 30
0.0
 11
178.1468339670359
 21
660.8083923893323
 31
0.0
  0
ARC
  5
E6
330
2
100
AcDbEntity
  8
05-01
100
AcDbCircle
 10
125.1468339670359
 20
679.2083923893324
 30
0.0
 40
5.0
100
AcDbArc
 50
90.0
 51
180.0
  0
LINE
  5
E7
330
2
100
AcDbEntity
  8
05-01
100
AcDbLine
 10
120.1468339670359
 20
679.2083923893324
 30
0.0
 11
120.1468339670359
 21
512.3271658659819
 31
0.0
  0
DIMENSION
  5
E8
330
2
100
AcDbEntity
  8
09-01
100
AcDbDimension
280
     0
  2
*D17
 10
161.3968339670359
 20
404.4490683762332
 30
0.0
 11
168.6521309220224
 21
409.0019333148418
 31
0.0
 70
   128
 71
     5
 42
12.5
 73
     0
 74
     0
 75
     0
  3
Wagner$0
100
AcDbAlignedDimension
 13
148.8968339670359
 23
421.7083853560357
 33
0.0
 14
161.3968339670359
 24
421.7083853560357
 34
0.0
100
AcDbRotatedDimension
1001
ACAD
1000
DSTYLE
1002
{
1070
    40
1040
2.0
1070
   179
1070
     8
1070
   271
1070
     8
1070
   272
1070
     8
1002
}
  0
DIMENSION
  5
F7
330
2
100
AcDbEntity
  8
09-01
100
AcDbDimension
280
     0
  2
*D16
 10
140.3603230312091
 20
421.7083853560357
 30
0.0
 11
135.8500911076074
 21
427.7083853560357
 31
0.0
 71
     5
 42
12.0
 73
     0
 74
     0
 75
     0
  3
Wagner$0
100
AcDbAlignedDimension
 13
151.6468339670359
 23
433.7083853560357
 33
0.0
 14
147.8968339670359
 24
421.7083853560357
 34
0.0
 50
90.0
100
AcDbRotatedDimension
1001
ACAD
1000
DSTYLE
1002
{
1070
    40
1040
2.0
1070
   179
1070
     8
1070
   271
1070
     8
1070
   272
1070
     8
1002
}
  0
DIMENSION
  5
106
330
2
100
AcDbEntity
  8
09-01
100
AcDbDimension
280
     0
  2
*D15
 10
157.6468339670359
 20
453.8431210231046
 30
0.0
 11
155.3443365459752
 21
458.3857540381115
 31
0.0
 70
   128
 71
     5
 42
5.0
 73
     0
 74
     0
 75
     0
  3
Wagner$0
100
AcDbAlignedDimension
 13
152.6468339670359
 23
433.7083853560357
 33
0.0
 14
157.6468339670359
 24
433.7083853560357
 34
0.0
100
AcDbRotatedDimension
1001
ACAD
1000
DSTYLE
1002
{
1070
    40
1040
2.0
1070
   179
1070
     8
1070
   271
1070
     8
1070
   272
1070
     8
1002
}
  0
LINE
  5
115
330
2
100
AcDbEntity
  8
05-01
100
AcDbLine
 10
359.236404105081
 20
433.7083853560368
 30
0.0
 11
352.236404105081
 21
433.7083853560368
 31
0.0
  0
DIMENSION
  5
116
330
2
100
AcDbEntity
  8
09-01
100
AcDbDimension
280
     0
  2
*D14
 10
198.6468339670354
 20
596.8411462529966
 30
0.0
 11
191.8968339670357
 21
601.3957165122053
 31
0.0
 71
     5
 42
13.49999999999954
 73
     0
 74
     0
 75
     0
  3
Wagner$0
100
AcDbAlignedDimension
 13
185.1468339670359
 23
563.7083853559838
 33
0.0
 14
198.6468339670354
 24
564.2083853559848
 34
0.0
100
AcDbRotatedDimension
1001
ACAD
1000
DSTYLE
1002
{
1070
    40
1040
2.0
1070
   179
1070
     8
1070
   271
1070
     8
1070
   272
1070
     8
1002
}
  0
DIMENSION
  5
125
330
2
100
AcDbEntity
  8
09-01
100
AcDbDimension
280
     0
  2
*D13
 10
185.1468339670359
 20
596.8411462529966
 30
0.0
 11
155.1468339670359
 21
601.394011191605
 31
0.0
 71
     5
 42
60.0
 73
     0
 74
     0
 75
     0
  3
Wagner$0
100
AcDbAlignedDimension
 13
125.1468339670359
 23
563.7083853559838
 33
0.0
 14
185.1468339670359
 24
563.7083853559838
 34
0.0
100
AcDbRotatedDimension
1001
ACAD
1000
DSTYLE
1002
{
1070
    40
1040
2.0
1070
   179
1070
     8
1070
   271
1070
     8
1070
   272
1070
     8
1002
}
  0
DIMENSION
  5
132
330
2
100
AcDbEntity
  8
09-01
100
AcDbDimension
280
     0
  2
*D12
 10
125.1468339670359
 20
596.8411462529966
 30
0.0
 11
118.3968339670356
 21
601.3957165122053
 31
0.0
 71
     5
 42
13.50000000000045
 73
     0
 74
     0
 75
     0
  3
Wagner$0
100
AcDbAlignedDimension
 13
111.6468339670354
 23
569.2083853559847
 33
0.0
 14
125.1468339670359
 24
563.7083853559838
 34
0.0
100
AcDbRotatedDimension
1001
ACAD
1000
DSTYLE
1002
{
1070
    40
1040
2.0
1070
   179
1070
     8
1070
   271
1070
     8
1070
   272
1070
     8
1002
}
  0
DIMENSION
  5
141
330
2
100
AcDbEntity
  8
09-01
100
AcDbDimension
280
     0
  2
*D11
 10
111.6468339670359
 20
377.2420955978778
 30
0.0
 11
133.3968339670359
 21
381.7966658570865
 31
0.0
 71
     5
 42
43.5
 73
     0
 74
     0
 75
     0
  3
Wagner$0
100
AcDbAlignedDimension
 13
155.1468339670359
 23
415.4583853560357
 33
0.0
 14
111.6468339670359
 24
395.2083853559848
 34
0.0
100
AcDbRotatedDimension
1001
ACAD
1000
DSTYLE
1002
{
1070
    40
1040
2.0
1070
   179
1070
     8
1070
   271
1070
     8
1070
   272
1070
     8
1002
}
  0
DIMENSION
  5
14E
330
2
100
AcDbEntity
  8
09-01
100
AcDbDimension
280
     0
  2
*D10
 10
155.1468339670359
 20
377.2420955978778
 30
0.0
 11
176.8968339670356
 21
381.7966658570865
 31
0.0
 71
     5
 42
43.49999999999954
 73
     0
 74
     0
 75
     0
  3
Wagner$0
100
AcDbAlignedDimension
 13
198.6468339670354
 23
400.2083853559847
 33
0.0
 14
155.1468339670359
 24
415.4583853560357
 34
0.0
100
AcDbRotatedDimension
1001
ACAD
1000
DSTYLE
1002
{
1070
    40
1040
2.0
1070
   179
1070
     8
1070
   271
1070
     8
1070
   272
1070
     8
1002
}
  0
DIMENSION
  5
15B
330
2
100
AcDbEntity
  8
09-01
100
AcDbDimension
280
     0
  2
*D9
 10
216.2681663226957
 20
395.2083853559848
 30
0.0
 11
211.7135960634869
 21
414.4583853560103
 31
0.0
 71
     5
 42
38.50000000005093
 73
     0
 74
     0
 75
     0
  3
Wagner$0
100
AcDbAlignedDimension
 13
158.6468339670359
 23
433.7083853560357
 33
0.0
 14
191.0066724661864
 24
395.2083853559848
 34
0.0
 50
90.0
100
AcDbRotatedDimension
1001
ACAD
1000
DSTYLE
1002
{
1070
    40
1040
2.0
1070
   179
1070
     8
1070
   271
1070
     8
1070
   272
1070
     8
1002
}
  0
DIMENSION
  5
168
330
2
100
AcDbEntity
  8
09-01
100
AcDbDimension
280
     0
  2
*D8
 10
216.2681663226957
 20
433.7083853560357
 30
0.0
 11
211.7153013840871
 21
509.3892158221369
 31
0.0
 70
   128
 71
     5
 42
126.4999999999481
 73
     0
 74
     0
 75
     0
  3
Wagner$0
100
AcDbAlignedDimension
 13
188.6468339670359
 23
560.2083853559839
 33
0.0
 14
158.6468339670359
 24
433.7083853560357
 34
0.0
 50
90.0
100
AcDbRotatedDimension
1001
ACAD
1000
DSTYLE
1002
{
1070
    40
1040
2.0
1070
   179
1070
     8
1070
   271
1070
     8
1070
   272
1070
     8
1002
}
  0
DIMENSION
  5
175
330
2
100
AcDbEntity
  8
09-01
100
AcDbDimension
280
     0
  2
*D7
 10
216.2681663226958
 20
560.2083853559839
 30
0.0
 11
211.7153013840872
 21
564.7083853559843
 31
0.0
 71
     5
 42
9.000000000000909
 73
     0
 74
     0
 75
     0
  3
Wagner$0
100
AcDbAlignedDimension
 13
193.6468339670353
 23
569.2083853559847
 33
0.0
 14
188.6468339670359
 24
560.2083853559839
 34
0.0
 50
90.0
100
AcDbRotatedDimension
1001
ACAD
1000
DSTYLE
1002
{
1070
    40
1040
2.0
1070
   179
1070
     8
1070
   271
1070
     8
1070
   272
1070
     8
1002
}
  0
ARC
  5
184
330
2
100
AcDbEntity
  8
03-01
100
AcDbCircle
 10
185.1468339670359
 20
548.2083853559839
 30
0.0
 40
6.25
100
AcDbArc
 50
113.578178478207
 51
256.1134596373707
  0
ARC
  5
189
330
2
100
AcDbEntity
  8
03-01
100
AcDbCircle
 10
185.1468339670359
 20
560.2083853559839
 30
0.0
 40
2.5
100
AcDbArc
 50
126.8698976458456
 51
180.0
  0
LINE
  5
18A
330
2
100
AcDbEntity
  8
03-01
100
AcDbLine
 10
182.6468339670359
 20
553.936604974679
 30
0.0
 11
182.6468339670359
 21
560.2083853559839
 31
0.0
  0
ARC
  5
18B
330
2
100
AcDbEntity
  8
03-01
100
AcDbCircle
 10
125.1468339670359
 20
548.2083853559839
 30
0.0
 40
6.25
100
AcDbArc
 50
274.5885657357851
 51
66.42182152179287
  0
ARC
  5
18C
330
2
100
AcDbEntity
  8
03-01
100
AcDbCircle
 10
125.1468339670359
 20
560.2083853559839
 30
0.0
 40
2.5
100
AcDbArc
 50
0.0
 51
78.46304096718506
  0
LINE
  5
18D
330
2
100
AcDbEntity
  8
03-01
100
AcDbLine
 10
127.6468339670359
 20
553.936604974679
 30
0.0
 11
127.6468339670359
 21
560.2083853559839
 31
0.0
  0
LINE
  5
18E
330
2
100
AcDbEntity
  8
03-01
100
AcDbLine
 10
125.6468339670358
 20
569.2083853559847
 30
0.0
 11
183.6468339670359
 21
569.2083853559845
 31
0.0
  0
ARC
  5
18F
330
2
100
AcDbEntity
  8
0
100
AcDbCircle
 10
116.2468339670358
 20
403.6165809946409
 30
0.0
 40
0.2
100
AcDbArc
 50
270.0
 51
0.0
  0
LINE
  5
190
330
2
100
AcDbEntity
  8
0
100
AcDbLine
 10
112.6468339670356
 20
403.4165809946411
 30
0.0
 11
116.2468339670358
 21
403.4165809946411
 31
0.0
  0
LINE
  5
191
330
2
100
AcDbEntity
  8
0
100
AcDbLine
 10
112.6468339670356
 20
411.4165809946412
 30
0.0
 11
116.2468339670358
 21
411.4165809946412
 31
0.0
  0
ARC
  5
192
330
2
100
AcDbEntity
  8
0
100
AcDbCircle
 10
116.2468339670358
 20
411.2165809946414
 30
0.0
 40
0.2
100
AcDbArc
 50
0.0
 51
90.0
  0
LINE
  5
193
330
2
100
AcDbEntity
  8
0
100
AcDbLine
 10
116.4468339670356
 20
411.2165809946414
 30
0.0
 11
116.4468339670356
 21
403.6165809946409
 31
0.0
  0
LINE
  5
194
330
2
100
AcDbEntity
  8
03-01
100
AcDbLine
 10
112.6468339670356
 20
403.4165809946411
 30
0.0
 11
112.6468339670356
 21
411.4165809946412
 31
0.0
  0
LINE
  5
195
330
2
100
AcDbEntity
  8
09-01
100
AcDbLine
 10
149.5468339670355
 20
304.63263154225
 30
0.0
 11
149.5468339670355
 21
262.1326315422501
 31
0.0
  0
LINE
  5
196
330
2
100
AcDbEntity
  8
09-01
100
AcDbLine
 10
178.6468339670359
 20
304.63263154225
 30
0.0
 11
178.6468339670359
 21
262.1326315422501
 31
0.0
  0
LINE
  5
197
330
2
100
AcDbEntity
  8
05-01
100
AcDbLine
 10
149.5468339670355
 20
512.3083853559848
 30
0.0
 11
149.5468339670355
 21
400.3083853559848
 31
0.0
  0
DIMENSION
  5
198
330
2
100
AcDbEntity
  8
0
100
AcDbDimension
280
     0
  2
*D6
 10
460.2759708363234
 20
377.2420955978778
 30
0.0
 11
408.0061874707022
 21
381.7949605364863
 31
0.0
 71
     5
 42
104.5395667312425
 73
     0
 74
     0
 75
     0
  3
Wagner$0
100
AcDbAlignedDimension
 13
355.7364041050809
 23
392.0016848037337
 33
0.0
 14
460.2759708363234
 24
409.1983835773817
 34
0.0
100
AcDbRotatedDimension
1001
ACAD
1000
DSTYLE
1002
{
1070
    40
1040
2.0
1070
   179
1070
     8
1070
   271
1070
     0
1070
   272
1070
     8
1002
}
  0
LINE
  5
1A5
330
2
100
AcDbEntity
  8
09-01
100
AcDbLine
 10
140.7468339670358
 20
470.7083923893324
 30
0.0
 11
168.546833967036
 21
470.7083923893324
 31
0.0
  0
LINE
  5
1A6
330
2
100
AcDbEntity
  8
09-01
100
AcDbLine
 10
140.7468339670358
 20
466.2083923893324
 30
0.0
 11
140.7468339670358
 21
470.7083923893324
 31
0.0
  0
LINE
  5
1A7
330
2
100
AcDbEntity
  8
09-01
100
AcDbLine
 10
168.546833967036
 20
466.2083923893324
 30
0.0
 11
168.546833967036
 21
470.7083923893324
 31
0.0
  0
LINE
  5
1A8
330
2
100
AcDbEntity
  8
09-01
100
AcDbLine
 10
184.6468339670359
 20
466.2083923893324
 30
0.0
 11
124.6468339670359
 21
466.2083923893324
 31
0.0
  0
LINE
  5
1A9
330
2
100
AcDbEntity
  8
09-01
100
AcDbLine
 10
184.6468339670359
 20
414.2083923893324
 30
0.0
 11
124.6468339670359
 21
414.2083923893324
 31
0.0
  0
LINE
  5
1AA
330
2
100
AcDbEntity
  8
09-01
100
AcDbLine
 10
184.6468339670359
 20
466.2083923893324
 30
0.0
 11
184.6468339670359
 21
414.2083923893324
 31
0.0
  0
LINE
  5
1AB
330
2
100
AcDbEntity
  8
09-01
100
AcDbLine
 10
124.6468339670359
 20
414.2083923893324
 30
0.0
 11
124.6468339670359
 21
466.2083923893324
 31
0.0
  0
LINE
  5
1AC
330
2
100
AcDbEntity
  8
09-01
100
AcDbLine
 10
156.7969841109893
 20
411.6661097283704
 30
0.0
 11
157.6465315006061
 21
414.1661423072369
 31
0.0
  0
LINE
  5
1AD
330
2
100
AcDbEntity
  8
09-01
100
AcDbLine
 10
156.1600700242979
 20
409.2168968154064
 30
0.0
 11
156.7969841109893
 21
411.6661097283704
 31
0.0
  0
LINE
  5
1AE
330
2
100
AcDbEntity
  8
09-01
100
AcDbLine
 10
153.1335979097741
 20
409.2168968154064
 30
0.0
 11
156.1600700242979
 21
409.2168968154064
 31
0.0
  0
LINE
  5
1AF
330
2
100
AcDbEntity
  8
09-01
100
AcDbLine
 10
152.4965111571436
 20
411.665920616942
 30
0.0
 11
153.1335979097741
 21
409.2168968154064
 31
0.0
  0
LINE
  5
1B0
330
2
100
AcDbEntity
  8
09-01
100
AcDbLine
 10
151.6467516172524
 20
414.1658733884719
 30
0.0
 11
152.4965111571436
 21
411.665920616942
 31
0.0
  0
LINE
  5
1B1
330
2
100
AcDbEntity
  8
0
100
AcDbLine
 10
450.6324637729345
 20
497.2083923893319
 30
0.0
 11
450.6324637729345
 21
498.2083923893319
 31
0.0
  0
LINE
  5
1B2
330
2
100
AcDbEntity
  8
0
100
AcDbLine
 10
427.6324637729346
 20
497.2083923893319
 30
0.0
 11
427.6324637729346
 21
498.2083923893319
 31
0.0
  0
LINE
  5
1B3
330
2
100
AcDbEntity
  8
0
100
AcDbLine
 10
452.3824637729346
 20
500.2083923893319
 30
0.0
 11
425.8824637729346
 21
500.2083923893319
 31
0.0
  0
LINE
  5
1B4
330
2
100
AcDbEntity
  8
0
100
AcDbLine
 10
445.4824674565185
 20
482.2083923893323
 30
0.0
 11
416.4824674565185
 21
482.2083923893319
 31
0.0
  0
LINE
  5
1B5
330
2
100
AcDbEntity
  8
0
100
AcDbLine
 10
453.6324637729345
 20
497.2083923893319
 30
0.0
 11
424.6324637729345
 21
497.2083923893319
 31
0.0
  0
LINE
  5
1B6
330
2
100
AcDbEntity
  8
0
100
AcDbLine
 10
452.3824637729346
 20
498.2083923893319
 30
0.0
 11
425.8824637729346
 21
498.2083923893319
 31
0.0
  0
LINE
  5
1B7
330
2
100
AcDbEntity
  8
0
100
AcDbLine
 10
452.3824637729346
 20
504.2083923893324
 30
0.0
 11
425.8824637729332
 21
504.2083923893324
 31
0.0
  0
LINE
  5
1B8
330
2
100
AcDbEntity
  8
0
100
AcDbLine
 10
452.3824637729346
 20
500.2083923893319
 30
0.0
 11
452.3824637729346
 21
498.2083923893319
 31
0.0
  0
LINE
  5
1B9
330
2
100
AcDbEntity
  8
0
100
AcDbLine
 10
425.8824637729346
 20
500.2083923893319
 30
0.0
 11
425.8824637729346
 21
498.2083923893319
 31
0.0
  0
LINE
  5
1BA
330
2
100
AcDbEntity
  8
0
100
AcDbLine
 10
450.6324637729345
 20
504.2083923893324
 30
0.0
 11
450.6324637729345
 21
500.2083923893324
 31
0.0
  0
LINE
  5
1BB
330
2
100
AcDbEntity
  8
0
100
AcDbLine
 10
427.6324637729345
 20
504.2083923893324
 30
0.0
 11
427.6324637729346
 21
500.2083923893324
 31
0.0
  0
LINE
  5
1BC
330
2
100
AcDbEntity
  8
0
100
AcDbLine
 10
453.6324637729345
 20
497.2083923893319
 30
0.0
 11
453.6324637729345
 21
482.2083923893323
 31
0.0
  0
LINE
  5
1BD
330
2
100
AcDbEntity
  8
0
100
AcDbLine
 10
424.6324637729345
 20
497.2083923893319
 30
0.0
 11
424.6324637729345
 21
482.2083923893319
 31
0.0
  0
LINE
  5
1BE
330
2
100
AcDbEntity
  8
09-01
100
AcDbLine
 10
193.5468339670355
 20
304.63263154225
 30
0.0
 11
193.5468339670355
 21
262.13263154225
 31
0.0
  0
LINE
  5
1BF
330
2
100
AcDbEntity
  8
09-01
100
AcDbLine
 10
180.1468339670359
 20
256.63263154225
 30
0.0
 11
184.6468339670359
 21
256.63263154225
 31
0.0
  0
LINE
  5
1C0
330
2
100
AcDbEntity
  8
09-01
100
AcDbLine
 10
124.6468339670359
 20
256.63263154225
 30
0.0
 11
129.1468339670359
 21
256.63263154225
 31
0.0
  0
LINE
  5
1C1
330
2
100
AcDbEntity
  8
09-01
100
AcDbLine
 10
180.1468339670359
 20
255.13263154225
 30
0.0
 11
187.6468339670359
 21
255.13263154225
 31
0.0
  0
LINE
  5
1C2
330
2
100
AcDbEntity
  8
09-01
100
AcDbLine
 10
180.1468339670359
 20
262.13263154225
 30
0.0
 11
180.1468339670359
 21
255.13263154225
 31
0.0
  0
LINE
  5
1C3
330
2
100
AcDbEntity
  8
09-01
100
AcDbLine
 10
184.6468339670359
 20
262.13263154225
 30
0.0
 11
184.6468339670359
 21
256.63263154225
 31
0.0
  0
LINE
  5
1C4
330
2
100
AcDbEntity
  8
09-01
100
AcDbLine
 10
187.6468339670359
 20
262.13263154225
 30
0.0
 11
187.6468339670359
 21
255.13263154225
 31
0.0
  0
LINE
  5
1C5
330
2
100
AcDbEntity
  8
09-01
100
AcDbLine
 10
129.1468339670359
 20
255.13263154225
 30
0.0
 11
129.1468339670359
 21
262.13263154225
 31
0.0
  0
LINE
  5
1C6
330
2
100
AcDbEntity
  8
09-01
100
AcDbLine
 10
121.6468339670359
 20
255.13263154225
 30
0.0
 11
129.1468339670359
 21
255.13263154225
 31
0.0
  0
LINE
  5
1C7
330
2
100
AcDbEntity
  8
09-01
100
AcDbLine
 10
124.6468339670359
 20
262.13263154225
 30
0.0
 11
124.6468339670359
 21
256.63263154225
 31
0.0
  0
LINE
  5
1C8
330
2
100
AcDbEntity
  8
09-01
100
AcDbLine
 10
121.6468339670359
 20
262.13263154225
 30
0.0
 11
121.6468339670359
 21
255.13263154225
 31
0.0
  0
LINE
  5
1C9
330
2
100
AcDbEntity
  8
09-01
100
AcDbLine
 10
176.1468339670359
 20
305.7326315422504
 30
0.0
 11
176.1468339670359
 21
304.63263154225
 31
0.0
  0
LINE
  5
1CA
330
2
100
AcDbEntity
  8
09-01
100
AcDbLine
 10
173.6468339670359
 20
307.8326315422507
 30
0.0
 11
173.6468339670359
 21
304.63263154225
 31
0.0
  0
LINE
  5
1CB
330
2
100
AcDbEntity
  8
09-01
100
AcDbLine
 10
178.6468339670359
 20
307.8326315422507
 30
0.0
 11
178.6468339670359
 21
304.63263154225
 31
0.0
  0
LINE
  5
1CC
330
2
100
AcDbEntity
  8
09-01
100
AcDbLine
 10
173.6468339670359
 20
305.7326315422504
 30
0.0
 11
176.1468339670359
 21
305.7326315422504
 31
0.0
  0
LINE
  5
1CD
330
2
100
AcDbEntity
  8
09-01
100
AcDbLine
 10
173.6468339670359
 20
307.8326315422507
 30
0.0
 11
178.6468339670359
 21
307.8326315422507
 31
0.0
  0
LINE
  5
1CE
330
2
100
AcDbEntity
  8
09-01
100
AcDbLine
 10
124.1468339670359
 20
305.7326315422504
 30
0.0
 11
124.1468339670359
 21
304.63263154225
 31
0.0
  0
LINE
  5
1CF
330
2
100
AcDbEntity
  8
09-01
100
AcDbLine
 10
126.6468339670359
 20
307.8326315422507
 30
0.0
 11
126.6468339670359
 21
304.63263154225
 31
0.0
  0
LINE
  5
1D0
330
2
100
AcDbEntity
  8
09-01
100
AcDbLine
 10
121.6468339670359
 20
307.8326315422507
 30
0.0
 11
121.6468339670359
 21
304.63263154225
 31
0.0
  0
LINE
  5
1D1
330
2
100
AcDbEntity
  8
09-01
100
AcDbLine
 10
198.1468339670354
 20
304.63263154225
 30
0.0
 11
198.1468339670354
 21
262.13263154225
 31
0.0
  0
LINE
  5
1D2
330
2
100
AcDbEntity
  8
09-01
100
AcDbLine
 10
121.6468339670359
 20
304.63263154225
 30
0.0
 11
121.6468339670359
 21
262.13263154225
 31
0.0
  0
LINE
  5
1D3
330
2
100
AcDbEntity
  8
09-01
100
AcDbLine
 10
126.6468339670359
 20
305.7326315422504
 30
0.0
 11
124.1468339670359
 21
305.7326315422504
 31
0.0
  0
LINE
  5
1D4
330
2
100
AcDbEntity
  8
09-01
100
AcDbLine
 10
198.1468339670354
 20
262.13263154225
 30
0.0
 11
121.6468339670359
 21
262.13263154225
 31
0.0
  0
LINE
  5
1D5
330
2
100
AcDbEntity
  8
09-01
100
AcDbLine
 10
198.1468339670354
 20
304.63263154225
 30
0.0
 11
121.6468339670359
 21
304.63263154225
 31
0.0
  0
LINE
  5
1D6
330
2
100
AcDbEntity
  8
09-01
100
AcDbLine
 10
126.6468339670359
 20
307.8326315422507
 30
0.0
 11
121.6468339670359
 21
307.8326315422507
 31
0.0
  0
INSERT
  5
1D7
330
2
100
AcDbEntity
  8
09-01
100
AcDbBlockReference
  2
pumpe draufsicht
 10
11.7993986384044
 20
634.5641164637181
 30
0.0
  0
LINE
  5
1FC
330
2
100
AcDbEntity
  8
05-01
100
AcDbLine
 10
193.5468339670355
 20
519.8083853559849
 30
0.0
 11
193.5468339670355
 21
512.3083853559848
 31
0.0
  0
LINE
  5
1FD
330
2
100
AcDbEntity
  8
05-01
100
AcDbLine
 10
196.5468339670355
 20
519.8083853559849
 30
0.0
 11
193.5468339670355
 21
519.8083853559849
 31
0.0
  0
LINE
  5
1FE
330
2
100
AcDbEntity
  8
05-01
100
AcDbLine
 10
178.6468339670359
 20
512.3083853559848
 30
0.0
 11
178.6468339670359
 21
400.3083853559848
 31
0.0
  0
LINE
  5
1FF
330
2
100
AcDbEntity
  8
05-01
100
AcDbLine
 10
121.0468339670359
 20
512.3083853559848
 30
0.0
 11
196.5468339670355
 21
512.3083853559848
 31
0.0
  0
LINE
  5
200
330
2
100
AcDbEntity
  8
05-01
100
AcDbLine
 10
121.0468339670359
 20
400.3083853559848
 30
0.0
 11
196.5468339670355
 21
400.3083853559848
 31
0.0
  0
LINE
  5
201
330
2
100
AcDbEntity
  8
05-01
100
AcDbLine
 10
121.0468339670359
 20
512.3083853559848
 30
0.0
 11
121.0468339670359
 21
400.3083853559848
 31
0.0
  0
LINE
  5
202
330
2
100
AcDbEntity
  8
05-01
100
AcDbLine
 10
196.5468339670355
 20
519.8083853559849
 30
0.0
 11
196.5468339670355
 21
400.3083853559848
 31
0.0
  0
DIMENSION
  5
203
330
2
100
AcDbEntity
  8
0
100
AcDbDimension
280
     0
  2
*D5
 10
474.1324637729346
 20
365.8865237995615
 30
0.0
 11
414.9344339390077
 21
370.43938873817
 31
0.0
 71
     5
 42
118.3960596678537
 73
     0
 74
     0
 75
     0
  3
Wagner$0
100
AcDbAlignedDimension
 13
355.7364041050809
 23
394.0016848037337
 33
0.0
 14
474.1324637729346
 24
414.2083923893324
 34
0.0
100
AcDbRotatedDimension
1001
ACAD
1000
DSTYLE
1002
{
1070
    40
1040
2.0
1070
   179
1070
     8
1070
   271
1070
     0
1070
   272
1070
     8
1002
}
  0
ARC
  5
210
330
2
100
AcDbEntity
  8
0
100
AcDbCircle
 10
371.7364041050802
 20
420.40858533011
 30
0.0
 40
3.0
100
AcDbArc
 50
180.0
 51
261.4701831348373
  0
LINE
  5
211
330
2
100
AcDbEntity
  8
0
100
AcDbLine
 10
371.2914318729117
 20
417.4417689029278
 30
0.0
 11
394.6153430158513
 21
413.9435771344426
 31
0.0
  0
LINE
  5
212
330
2
100
AcDbEntity
  8
0
100
AcDbLine
 10
356.7364041050807
 20
395.2083853559848
 30
0.0
 11
394.6153430158513
 21
400.8895848548397
 31
0.0
  0
LINE
  5
213
330
2
100
AcDbEntity
  8
05-01
100
AcDbLine
 10
155.1468339670359
 20
437.2083853560357
 30
0.0
 11
155.1468339670359
 21
414.4583853560357
 31
0.0
  0
DIMENSION
  5
214
330
2
100
AcDbEntity
  8
09-01
100
AcDbDimension
280
     0
  2
*D4
 10
198.6468339670354
 20
321.6377764849803
 30
0.0
 11
155.1468339670354
 21
326.1906414235888
 31
0.0
 71
     5
 42
87.0
 73
     0
 74
     0
 75
     0
  3
Wagner$0
100
AcDbAlignedDimension
 13
111.6468339670354
 23
309.3326315422507
 33
0.0
 14
198.6468339670354
 24
309.3326315422507
 34
0.0
100
AcDbRotatedDimension
1001
ACAD
1000
DSTYLE
1002
{
1070
    40
1040
2.0
1070
   179
1070
     8
1070
   271
1070
     8
1070
   272
1070
     8
1002
}
  0
ARC
  5
221
330
2
100
AcDbEntity
  8
09-01
100
AcDbCircle
 10
116.2468339670358
 20
267.6326315422506
 30
0.0
 40
0.2
100
AcDbArc
 50
270.0
 51
0.0
  0
LINE
  5
222
330
2
100
AcDbEntity
  8
09-01
100
AcDbLine
 10
112.6468339670356
 20
267.4326315422508
 30
0.0
 11
116.2468339670358
 21
267.4326315422508
 31
0.0
  0
LINE
  5
223
330
2
100
AcDbEntity
  8
09-01
100
AcDbLine
 10
112.6468339670356
 20
275.4326315422507
 30
0.0
 11
116.2468339670358
 21
275.4326315422507
 31
0.0
  0
LINE
  5
224
330
2
100
AcDbEntity
  8
09-01
100
AcDbLine
 10
112.810122594943
 20
271.4326315422507
 30
0.0
 11
117.8098040611439
 21
271.4326315422507
 31
0.0
  0
ARC
  5
225
330
2
100
AcDbEntity
  8
09-01
100
AcDbCircle
 10
116.2468339670358
 20
275.2326315422509
 30
0.0
 40
0.2
100
AcDbArc
 50
0.0
 51
90.0
  0
LINE
  5
226
330
2
100
AcDbEntity
  8
09-01
100
AcDbLine
 10
116.4468339670356
 20
275.2326315422509
 30
0.0
 11
116.4468339670356
 21
267.6326315422506
 31
0.0
  0
LINE
  5
227
330
2
100
AcDbEntity
  8
09-01
100
AcDbLine
 10
112.6468339670356
 20
267.4326315422508
 30
0.0
 11
112.6468339670356
 21
275.4326315422507
 31
0.0
  0
DIMENSION
  5
228
330
2
100
AcDbEntity
  8
09-01
100
AcDbDimension
280
     0
  2
*D3
 10
97.16281183932728
 20
309.3326315422507
 30
0.0
 11
92.6201788243204
 21
287.0826315422507
 31
0.0
 71
     5
 42
44.5
 73
     0
 74
     0
 75
     0
  3
Wagner$0
100
AcDbAlignedDimension
 13
111.6468339670356
 23
264.8326315422508
 33
0.0
 14
111.6468339670354
 24
309.3326315422507
 34
0.0
 50
90.0
100
AcDbRotatedDimension
1001
ACAD
1000
DSTYLE
1002
{
1070
    40
1040
2.0
1070
   179
1070
     8
1070
   271
1070
     8
1070
   272
1070
     8
1002
}
  0
LINE
  5
235
330
2
100
AcDbEntity
  8
09-01
100
AcDbLine
 10
112.6468339670354
 20
308.3326315422507
 30
0.0
 11
112.6468339670356
 21
264.8326315422508
 31
0.0
  0
LINE
  5
236
330
2
100
AcDbEntity
  8
0
100
AcDbLine
 10
112.6468339670356
 20
264.8326315422508
 30
0.0
 11
111.6468339670356
 21
264.8326315422508
 31
0.0
  0
LINE
  5
237
330
2
100
AcDbEntity
  8
09-01
100
AcDbLine
 10
111.6468339670354
 20
309.3326315422507
 30
0.0
 11
111.6468339670356
 21
264.8326315422508
 31
0.0
  0
LINE
  5
238
330
2
100
AcDbEntity
  8
0
100
AcDbLine
 10
198.6468339670354
 20
309.3326315422507
 30
0.0
 11
198.6468339670354
 21
308.3326315422507
 31
0.0
  0
LINE
  5
239
330
2
100
AcDbEntity
  8
09-01
100
AcDbLine
 10
166.9093904936264
 20
308.3326315422507
 30
0.0
 11
198.6468339670354
 21
308.3326315422507
 31
0.0
  0
LINE
  5
23A
330
2
100
AcDbEntity
  8
09-01
100
AcDbLine
 10
112.6468339670354
 20
308.3326315422507
 30
0.0
 11
133.3842774404454
 21
308.3326315422507
 31
0.0
  0
LINE
  5
23B
330
2
100
AcDbEntity
  8
09-01
100
AcDbLine
 10
170.8282110003258
 20
305.63263154225
 30
0.0
 11
165.4579754911455
 21
309.3326315422507
 31
0.0
  0
LINE
  5
23C
330
2
100
AcDbEntity
  8
09-01
100
AcDbLine
 10
170.5170694762161
 20
304.63263154225
 30
0.0
 11
165.1468339670359
 21
308.3326315422507
 31
0.0
  0
LINE
  5
23D
330
2
100
AcDbEntity
  8
09-01
100
AcDbLine
 10
129.465456933746
 20
305.63263154225
 30
0.0
 11
134.835692442926
 21
309.3326315422507
 31
0.0
  0
LINE
  5
23E
330
2
100
AcDbEntity
  8
09-01
100
AcDbLine
 10
129.7765984578556
 20
304.63263154225
 30
0.0
 11
135.1468339670359
 21
308.3326315422507
 31
0.0
  0
LINE
  5
23F
330
2
100
AcDbEntity
  8
09-01
100
AcDbLine
 10
175.8468339670361
 20
305.63263154225
 30
0.0
 11
170.8282110003258
 21
305.63263154225
 31
0.0
  0
LINE
  5
240
330
2
100
AcDbEntity
  8
09-01
100
AcDbLine
 10
175.8468339670361
 20
304.63263154225
 30
0.0
 11
170.5170694762161
 21
304.63263154225
 31
0.0
  0
LINE
  5
241
330
2
100
AcDbEntity
  8
09-01
100
AcDbLine
 10
175.8468339670361
 20
305.63263154225
 30
0.0
 11
175.8468339670361
 21
304.63263154225
 31
0.0
  0
LINE
  5
242
330
2
100
AcDbEntity
  8
09-01
100
AcDbLine
 10
124.4468339670356
 20
305.63263154225
 30
0.0
 11
129.465456933746
 21
305.63263154225
 31
0.0
  0
LINE
  5
243
330
2
100
AcDbEntity
  8
09-01
100
AcDbLine
 10
124.4468339670356
 20
304.63263154225
 30
0.0
 11
129.7765984578556
 21
304.63263154225
 31
0.0
  0
LINE
  5
244
330
2
100
AcDbEntity
  8
09-01
100
AcDbLine
 10
124.4468339670356
 20
305.63263154225
 30
0.0
 11
124.4468339670356
 21
304.63263154225
 31
0.0
  0
LINE
  5
245
330
2
100
AcDbEntity
  8
09-01
100
AcDbLine
 10
111.6468339670354
 20
309.3326315422507
 30
0.0
 11
198.6468339670354
 21
309.3326315422507
 31
0.0
  0
LINE
  5
246
330
2
100
AcDbEntity
  8
09-01
100
AcDbLine
 10
135.1468339670359
 20
308.3326315422507
 30
0.0
 11
165.1468339670359
 21
308.3326315422507
 31
0.0
  0
ARC
  5
247
330
2
100
AcDbEntity
  8
0
100
AcDbCircle
 10
406.4148081107258
 20
400.2040217452552
 30
0.0
 40
0.3
100
AcDbArc
 50
280.0000769541884
 51
34.99999999999741
  0
LINE
  5
248
330
2
100
AcDbEntity
  8
0
100
AcDbLine
 10
402.0456637273204
 20
406.9668406262701
 30
0.0
 11
406.6605537240124
 21
400.3760946761603
 31
0.0
  0
LINE
  5
249
330
2
100
AcDbEntity
  8
0
100
AcDbLine
 10
393.03492224436
 20
400.6575983625962
 30
0.0
 11
394.8682749088285
 21
398.0392994091803
 31
0.0
  0
ARC
  5
24A
330
2
100
AcDbEntity
  8
0
100
AcDbCircle
 10
401.536404105081
 20
409.051802377395
 30
0.0
 40
2.0
100
AcDbArc
 50
304.9999999999974
 51
0.0
  0
LINE
  5
24B
330
2
100
AcDbEntity
  8
0
100
AcDbLine
 10
399.9523207095857
 20
405.5010660651933
 30
0.0
 11
402.6835569777832
 21
407.4134982888172
 31
0.0
  0
LWPOLYLINE
  5
24C
330
2
100
AcDbEntity
  8
0
100
AcDbPolyline
 90
        9
 70
     0
 43
0.0
 10
404.0581692520048
 20
399.4838514113451
 10
404.3537449601557
 20
399.5359458708788
 10
404.6379585328963
 20
399.5860733771349
 10
404.8998911443617
 20
399.6322669768358
 10
405.129469609585
 20
399.6727385306383
 10
405.3178836170103
 20
399.7059681201006
 10
405.4578837517168
 20
399.7306444430376
 10
405.5440981450941
 20
399.7458436274553
 10
405.5732075634863
 20
399.750969626906
  0
ARC
  5
24D
330
2
100
AcDbEntity
  8
0
100
AcDbCircle
 10
395.1140205221151
 20
398.2113723400857
 30
0.0
 40
0.3
100
AcDbArc
 50
214.9999999999974
 51
280.0000769541884
  0
LINE
  5
24E
330
2
100
AcDbEntity
  8
0
100
AcDbLine
 10
395.166115372225
 20
397.9159300841504
 30
0.0
 11
406.4669029608356
 21
399.9085794893199
 31
0.0
  0
LINE
  5
24F
330
2
100
AcDbEntity
  8
0
100
AcDbLine
 10
394.2882136958513
 20
413.9843160880645
 30
0.0
 11
401.7234790202842
 21
419.376387655004
 31
0.0
  0
LINE
  5
250
330
2
100
AcDbEntity
  8
0
100
AcDbLine
 10
402.1364041050812
 20
420.1859202633277
 30
0.0
 11
402.1364041050812
 21
477.9263633893324
 31
0.0
  0
ARC
  5
251
330
2
100
AcDbEntity
  8
0
100
AcDbCircle
 10
393.8964041050812
 20
477.9263633893324
 30
0.0
 40
9.639999999999981
100
AcDbArc
 50
0.0
 51
20.00000000001737
  0
ARC
  5
252
330
2
100
AcDbEntity
  8
0
100
AcDbCircle
 10
393.8964041050812
 20
477.9263633893324
 30
0.0
 40
8.23999999999998
100
AcDbArc
 50
0.0
 51
20.00000000001737
  0
ARC
  5
253
330
2
100
AcDbEntity
  8
0
100
AcDbCircle
 10
384.7100232557462
 20
513.8083853559849
 30
0.0
 40
6.0
100
AcDbArc
 50
20.0000000000035
 51
90.0
  0
LINE
  5
254
330
2
100
AcDbEntity
  8
0
100
AcDbLine
 10
402.9550409694573
 20
481.2234375709918
 30
0.0
 11
390.3481789804617
 21
515.860506215939
 31
0.0
  0
LINE
  5
255
330
2
100
AcDbEntity
  8
0
100
AcDbLine
 10
401.639471300357
 20
480.7446093703358
 30
0.0
 11
392.3840987609755
 21
506.1735364309274
 31
0.0
  0
ARC
  5
256
330
2
100
AcDbEntity
  8
0
100
AcDbCircle
 10
385.3364041050813
 20
503.6083853559849
 30
0.0
 40
7.500000000000028
100
AcDbArc
 50
20.00000000001737
 51
90.0
  0
LINE
  5
257
330
2
100
AcDbEntity
  8
0
100
AcDbLine
 10
385.3364041050813
 20
511.1083853559848
 30
0.0
 11
368.7364041050809
 21
511.1083853559851
 31
0.0
  0
ARC
  5
258
330
2
100
AcDbEntity
  8
0
100
AcDbCircle
 10
401.1364041050812
 20
420.1859202633277
 30
0.0
 40
1.000000000000005
100
AcDbArc
 50
305.9497089065563
 51
0.0
  0
LINE
  5
259
330
2
100
AcDbEntity
  8
0
100
AcDbLine
 10
410.5364041050812
 20
412.2083853559847
 30
0.0
 11
403.536404105081
 21
412.2083853559847
 31
0.0
  0
LINE
  5
25A
330
2
100
AcDbEntity
  8
0
100
AcDbLine
 10
410.536404105081
 20
460.2083853559848
 30
0.0
 11
403.5364041050811
 21
460.2083853559848
 31
0.0
  0
ARC
  5
25B
330
2
100
AcDbEntity
  8
0
100
AcDbCircle
 10
385.5436930735119
 20
504.2083853559847
 30
0.0
 40
8.5
100
AcDbArc
 50
20.0000000000035
 51
90.0
  0
LINE
  5
25C
330
2
100
AcDbEntity
  8
0
100
AcDbLine
 10
385.5436930735119
 20
512.7083853559847
 30
0.0
 11
368.7364041050809
 21
512.7083853559847
 31
0.0
  0
LINE
  5
25D
330
2
100
AcDbEntity
  8
0
100
AcDbLine
 10
384.7100232557462
 20
519.8083853559849
 30
0.0
 11
368.7364041050809
 21
519.8083853559851
 31
0.0
  0
LINE
  5
25E
330
2
100
AcDbEntity
  8
0
100
AcDbLine
 10
410.536404105081
 20
460.2083853559848
 30
0.0
 11
410.5364041050812
 21
412.2083853559847
 31
0.0
  0
LINE
  5
25F
330
2
100
AcDbEntity
  8
0
100
AcDbLine
 10
403.536404105081
 20
412.2083853559847
 30
0.0
 11
403.5364041050811
 21
409.0518023773952
 31
0.0
  0
LINE
  5
260
330
2
100
AcDbEntity
  8
0
100
AcDbLine
 10
403.5364041050812
 20
477.9263633893324
 30
0.0
 11
403.5364041050811
 21
460.2083853559848
 31
0.0
  0
LINE
  5
261
330
2
100
AcDbEntity
  8
0
100
AcDbLine
 10
411.1364041050804
 20
460.2083853559843
 30
0.0
 11
411.2327093782418
 21
414.2083853559843
 31
0.0
  0
LINE
  5
262
330
2
100
AcDbEntity
  8
0
100
AcDbLine
 10
411.1364041050804
 20
460.2083853559843
 30
0.0
 11
408.7074672002016
 21
460.2083853559843
 31
0.0
  0
LWPOLYLINE
  5
263
330
2
100
AcDbEntity
  8
0
100
AcDbPolyline
 90
       17
 70
     0
 43
0.0
 10
460.1324652034461
 20
409.2231195049635
 10
460.4194764692008
 20
409.2221360283247
 10
460.6627975303351
 20
409.2194240169874
 10
460.8253766495406
 20
409.2153410988203
 10
460.8824704486548
 20
409.2105131225935
 10
460.8253766495406
 20
409.2056851463667
 10
460.6627975303351
 20
409.2016022281995
 10
460.4194764692008
 20
409.1988604145399
 10
460.1324652034461
 20
409.1979067402235
 10
459.8454539376914
 20
409.1988604145399
 10
459.6021403271376
 20
409.2016022281995
 10
459.4395612079321
 20
409.2056851463667
 10
459.3824674088179
 20
409.2105131225935
 10
459.4395612079321
 20
409.2153410988203
 10
459.6021403271376
 20
409.2194240169874
 10
459.8454539376914
 20
409.2221360283247
 10
460.1324652034461
 20
409.2231195049635
  0
LWPOLYLINE
  5
264
330
2
100
AcDbEntity
  8
0
100
AcDbPolyline
 90
       17
 70
     0
 43
0.0
 10
460.1324652034461
 20
409.2356960850111
 10
460.7084174353301
 20
409.233848341023
 10
461.1931298572241
 20
409.2283349113813
 10
461.5224231678664
 20
409.2201988773695
 10
461.6324682432829
 20
409.2105131225935
 10
461.5228404003798
 20
409.2008571701398
 10
461.1931298572241
 20
409.1926913338056
 10
460.7087899643599
 20
409.1871481018415
 10
460.1324652034461
 20
409.1853003578535
 10
459.5571388203322
 20
409.1871481018415
 10
459.0718080002486
 20
409.1926913338056
 10
458.7425072390257
 20
409.2008273678175
 10
458.6324696141898
 20
409.2105131225935
 10
458.7420974570929
 20
409.2201690750471
 10
459.0718080002486
 20
409.2283349113813
 10
459.5567662913023
 20
409.2338781433454
 10
460.1324652034461
 20
409.2356960850111
  0
LINE
  5
265
330
2
100
AcDbEntity
  8
0
100
AcDbLine
 10
414.1324688393294
 20
464.2083894091001
 30
0.0
 11
414.1324688393294
 21
462.2083853559843
 31
0.0
  0
LINE
  5
266
330
2
100
AcDbEntity
  8
0
100
AcDbLine
 10
404.1324672002017
 20
462.2083853559843
 30
0.0
 11
404.1324672002017
 21
414.2083923893324
 31
0.0
  0
LINE
  5
267
330
2
100
AcDbEntity
  8
0
100
AcDbLine
 10
454.1324679452597
 20
414.2083923893324
 30
0.0
 11
404.1324672002017
 21
414.2083923893324
 31
0.0
  0
LINE
  5
268
330
2
100
AcDbEntity
  8
0
100
AcDbLine
 10
417.4824659425437
 20
462.2083853559843
 30
0.0
 11
404.1324672002017
 21
462.2083853559843
 31
0.0
  0
LINE
  5
269
330
2
100
AcDbEntity
  8
0
100
AcDbLine
 10
417.4824659425437
 20
462.2083853559843
 30
0.0
 11
417.4824659425437
 21
464.2083894091001
 31
0.0
  0
LINE
  5
26A
330
2
100
AcDbEntity
  8
0
100
AcDbLine
 10
474.1324637729346
 20
414.2083923893324
 30
0.0
 11
474.1324637729346
 21
464.2083894091001
 31
0.0
  0
LINE
  5
26B
330
2
100
AcDbEntity
  8
0
100
AcDbLine
 10
454.1324679452597
 20
414.2083923893324
 30
0.0
 11
474.1324637729346
 21
414.2083923893324
 31
0.0
  0
ARC
  5
26C
330
2
100
AcDbEntity
  8
0
100
AcDbCircle
 10
417.2707045198833
 20
480.7083914152953
 30
0.0
 40
1.500000000000056
100
AcDbArc
 50
90.0
 51
178.9999999999982
  0
ARC
  5
26D
330
2
100
AcDbEntity
  8
0
100
AcDbCircle
 10
470.9942303931201
 20
480.7083914152953
 30
0.0
 40
1.500000000000056
100
AcDbArc
 50
1.000000000001775
 51
90.0
  0
LINE
  5
26E
330
2
100
AcDbEntity
  8
0
100
AcDbLine
 10
470.9942270714461
 20
482.2083960848203
 30
0.0
 11
454.1324679452597
 21
482.2083960848203
 31
0.0
  0
LINE
  5
26F
330
2
100
AcDbEntity
  8
0
100
AcDbLine
 10
454.1324679452597
 20
482.2083960848203
 30
0.0
 11
417.4824659425437
 21
482.2083960848203
 31
0.0
  0
LINE
  5
270
330
2
100
AcDbEntity
  8
0
100
AcDbLine
 10
415.7709334689795
 20
480.7345669346204
 30
0.0
 11
415.508650680226
 21
465.7083849983564
 31
0.0
  0
LINE
  5
271
330
2
100
AcDbEntity
  8
0
100
AcDbLine
 10
415.7709334689795
 20
480.7345669346204
 30
0.0
 11
417.4824659425437
 21
480.7345669346204
 31
0.0
  0
LINE
  5
272
330
2
100
AcDbEntity
  8
0
100
AcDbLine
 10
454.1324679452597
 20
480.7345669346204
 30
0.0
 11
472.4939991432845
 21
480.7345669346204
 31
0.0
  0
LINE
  5
273
330
2
100
AcDbEntity
  8
0
100
AcDbLine
 10
472.4939991432845
 20
480.7345669346204
 30
0.0
 11
472.756281932038
 21
465.7083849983564
 31
0.0
  0
LINE
  5
274
330
2
100
AcDbEntity
  8
0
100
AcDbLine
 10
417.4824659425437
 20
480.7345669346204
 30
0.0
 11
454.1324679452597
 21
480.7345669346204
 31
0.0
  0
LINE
  5
275
330
2
100
AcDbEntity
  8
0
100
AcDbLine
 10
454.1324679452597
 20
464.2083894091001
 30
0.0
 11
474.1324637729346
 21
464.2083894091001
 31
0.0
  0
LINE
  5
276
330
2
100
AcDbEntity
  8
0
100
AcDbLine
 10
454.1324679452597
 20
465.7083849983564
 30
0.0
 11
474.1324637729346
 21
465.7083849983564
 31
0.0
  0
LINE
  5
277
330
2
100
AcDbEntity
  8
0
100
AcDbLine
 10
474.1324637729346
 20
465.7083849983564
 30
0.0
 11
474.1324637729346
 21
464.2083894091001
 31
0.0
  0
LINE
  5
278
330
2
100
AcDbEntity
  8
0
100
AcDbLine
 10
414.1324688393294
 20
464.2083894091001
 30
0.0
 11
417.4824659425437
 21
464.2083894091001
 31
0.0
  0
LINE
  5
279
330
2
100
AcDbEntity
  8
0
100
AcDbLine
 10
414.1324688393294
 20
465.7083849983564
 30
0.0
 11
417.4824659425437
 21
465.7083849983564
 31
0.0
  0
LINE
  5
27A
330
2
100
AcDbEntity
  8
0
100
AcDbLine
 10
414.1324688393294
 20
465.7083849983564
 30
0.0
 11
414.1324688393294
 21
464.2083894091001
 31
0.0
  0
LINE
  5
27B
330
2
100
AcDbEntity
  8
0
100
AcDbLine
 10
417.4824659425437
 20
464.2083894091001
 30
0.0
 11
454.1324679452597
 21
464.2083894091001
 31
0.0
  0
LINE
  5
27C
330
2
100
AcDbEntity
  8
0
100
AcDbLine
 10
417.4824659425437
 20
465.7083849983564
 30
0.0
 11
454.1324679452597
 21
465.7083849983564
 31
0.0
  0
LINE
  5
27D
330
2
100
AcDbEntity
  8
0
100
AcDbLine
 10
417.4824659425437
 20
465.7083849983564
 30
0.0
 11
417.4824659425437
 21
464.2083894091001
 31
0.0
  0
SPLINE
  5
27E
330
2
100
AcDbEntity
  8
0
100
AcDbSpline
210
0.0
220
0.0
230
1.0
 70
     8
 71
     3
 72
     9
 73
     5
 74
     0
 42
0.0000000001
 43
0.0000000001
 40
0.0
 40
0.0
 40
0.0
 40
0.0
 40
0.4955569444815929
 40
1.0
 40
1.0
 40
1.0
 40
1.0
 10
458.6324696141898
 20
409.2105131225935
 30
0.0
 10
458.4221352461965
 20
410.0458446984762
 30
0.0
 10
457.9976948860414
 20
411.731486651807
 30
0.0
 10
457.4225844769541
 20
413.3787520837688
 30
0.0
 10
457.1324740249335
 20
414.2097036915174
 30
0.0
  0
SPLINE
  5
27F
330
2
100
AcDbEntity
  8
0
100
AcDbSpline
210
0.0
220
0.0
230
1.0
 70
     8
 71
     3
 72
     9
 73
     5
 74
     0
 42
0.0000000001
 43
0.0000000001
 40
0.0
 40
0.0
 40
0.0
 40
0.0
 40
0.5044956677141813
 40
1.0
 40
1.0
 40
1.0
 40
1.0
 10
463.1323446232497
 20
414.2093460636488
 30
0.0
 10
462.8431192329978
 20
413.3815302138173
 30
0.0
 10
462.2698231498765
 20
411.7406521987843
 30
0.0
 10
461.8436126760474
 20
410.0486827154327
 30
0.0
 10
461.6324235397994
 20
409.2103045063367
 30
0.0
  0
LINE
  5
280
330
2
100
AcDbEntity
  8
09-01
100
AcDbLine
 10
112.6468339670354
 20
563.4131521532035
 30
0.0
 11
111.6468339670354
 21
563.4131521532035
 31
0.0
  0
ARC
  5
281
330
2
100
AcDbEntity
  8
0
100
AcDbCircle
 10
193.6468339670354
 20
400.2083853559847
 30
0.0
 40
5.0
100
AcDbArc
 50
270.0
 51
0.0
  0
LINE
  5
282
330
2
100
AcDbEntity
  8
05-01
100
AcDbLine
 10
359.2364041050814
 20
560.2083853559836
 30
0.0
 11
352.2364041050814
 21
560.2083853559836
 31
0.0
  0
LINE
  5
283
330
2
100
AcDbEntity
  8
09-01
100
AcDbLine
 10
111.6468339670359
 20
429.5087568594335
 30
0.0
 11
112.6468339670359
 21
429.5087568594335
 31
0.0
  0
LINE
  5
284
330
2
100
AcDbEntity
  8
0
100
AcDbLine
 10
111.6468339670354
 20
569.2083853559847
 30
0.0
 11
111.6468339670359
 21
395.2083853559848
 31
0.0
  0
LINE
  5
285
330
2
100
AcDbEntity
  8
0
100
AcDbLine
 10
356.7364041050807
 20
395.2083853559848
 30
0.0
 11
355.7364041050809
 21
395.2083853559848
 31
0.0
  0
ARC
  5
286
330
2
100
AcDbEntity
  8
0
100
AcDbCircle
 10
393.6364041050803
 20
407.4165809946411
 30
0.0
 40
6.600000000000363
100
AcDbArc
 50
278.5298168651627
 51
84.33228567004404
  0
DIMENSION
  5
287
330
2
100
AcDbEntity
  8
09-01
100
AcDbDimension
280
     0
  2
*D2
 10
96.57297296088785
 20
569.2083853559847
 30
0.0
 11
92.06274103728611
 21
482.2083853559847
 31
0.0
 71
     5
 42
174.0
 73
     0
 74
     0
 75
     0
  3
Wagner$0
100
AcDbAlignedDimension
 13
111.6468339670359
 23
395.2083853559848
 33
0.0
 14
113.0902232923217
 24
569.2083853559847
 34
0.0
 50
90.0
100
AcDbRotatedDimension
1001
ACAD
1000
DSTYLE
1002
{
1070
    40
1040
2.0
1070
   179
1070
     8
1070
   271
1070
     8
1070
   272
1070
     8
1002
}
  0
ARC
  5
294
330
2
100
AcDbEntity
  8
0
100
AcDbCircle
 10
185.1468339670359
 20
548.2083853559839
 30
0.0
 40
6.25
100
AcDbArc
 50
256.1134596373712
 51
66.4218215217932
  0
LINE
  5
295
330
2
100
AcDbEntity
  8
05-01
100
AcDbLine
 10
192.3968339670359
 20
548.2083853559839
 30
0.0
 11
177.8968339670359
 21
548.2083853559839
 31
0.0
  0
LINE
  5
296
330
2
100
AcDbEntity
  8
05-01
100
AcDbLine
 10
188.6468339670359
 20
560.2083853559839
 30
0.0
 11
181.6468339670359
 21
560.2083853559839
 31
0.0
  0
LINE
  5
297
330
2
100
AcDbEntity
  8
0
100
AcDbLine
 10
187.6468339670359
 20
560.2083853559839
 30
0.0
 11
187.6468339670359
 21
553.936604974679
 31
0.0
  0
ARC
  5
298
330
2
100
AcDbEntity
  8
0
100
AcDbCircle
 10
185.1468339670359
 20
560.2083853559839
 30
0.0
 40
2.5
100
AcDbArc
 50
0.0
 51
126.8698976458456
  0
LINE
  5
299
330
2
100
AcDbEntity
  8
05-01
100
AcDbLine
 10
185.1468339670359
 20
563.7083853559838
 30
0.0
 11
185.1468339670359
 21
540.9583853559838
 31
0.0
  0
LINE
  5
29A
330
2
100
AcDbEntity
  8
05-01
100
AcDbLine
 10
151.6468339670359
 20
433.7083853560357
 30
0.0
 11
158.6468339670359
 21
433.7083853560357
 31
0.0
  0
ARC
  5
29B
330
2
100
AcDbEntity
  8
03-01
100
AcDbCircle
 10
155.1468339670359
 20
421.7083853560357
 30
0.0
 40
6.25
100
AcDbArc
 50
113.5781784782067
 51
66.4218215217932
  0
LINE
  5
29C
330
2
100
AcDbEntity
  8
05-01
100
AcDbLine
 10
147.8968339670359
 20
421.7083853560357
 30
0.0
 11
162.3968339670359
 21
421.7083853560357
 31
0.0
  0
LINE
  5
29D
330
2
100
AcDbEntity
  8
03-01
100
AcDbLine
 10
152.6468339670359
 20
433.7083853560357
 30
0.0
 11
152.6468339670359
 21
427.43660497473
 31
0.0
  0
ARC
  5
29E
330
2
100
AcDbEntity
  8
03-01
100
AcDbCircle
 10
155.1468339670359
 20
433.7083853560357
 30
0.0
 40
2.5
100
AcDbArc
 50
0.0
 51
180.0
  0
LINE
  5
29F
330
2
100
AcDbEntity
  8
03-01
100
AcDbLine
 10
157.6468339670359
 20
427.43660497473
 30
0.0
 11
157.6468339670359
 21
433.7083853560357
 31
0.0
  0
ARC
  5
2A0
330
2
100
AcDbEntity
  8
0
100
AcDbCircle
 10
125.1468339670359
 20
548.2083853559839
 30
0.0
 40
6.25
100
AcDbArc
 50
113.5781784782067
 51
274.5885657357857
  0
LINE
  5
2A1
330
2
100
AcDbEntity
  8
05-01
100
AcDbLine
 10
117.8968339670359
 20
548.2083853559839
 30
0.0
 11
132.3968339670359
 21
548.2083853559839
 31
0.0
  0
LINE
  5
2A2
330
2
100
AcDbEntity
  8
05-01
100
AcDbLine
 10
121.6468339670359
 20
560.2083853559839
 30
0.0
 11
128.6468339670359
 21
560.2083853559839
 31
0.0
  0
LINE
  5
2A3
330
2
100
AcDbEntity
  8
0
100
AcDbLine
 10
122.6468339670359
 20
560.2083853559839
 30
0.0
 11
122.6468339670359
 21
553.936604974679
 31
0.0
  0
ARC
  5
2A4
330
2
100
AcDbEntity
  8
0
100
AcDbCircle
 10
125.1468339670359
 20
560.2083853559839
 30
0.0
 40
2.5
100
AcDbArc
 50
78.46304096718545
 51
180.0
  0
LINE
  5
2A5
330
2
100
AcDbEntity
  8
05-01
100
AcDbLine
 10
125.1468339670359
 20
563.7083853559838
 30
0.0
 11
125.1468339670359
 21
540.9583853559838
 31
0.0
  0
ARC
  5
2A6
330
2
100
AcDbEntity
  8
0
100
AcDbCircle
 10
356.7930147797956
 20
567.2083853559847
 30
0.0
 40
2.0
100
AcDbArc
 50
65.00000000002039
 51
90.0
  0
ARC
  5
2A7
330
2
100
AcDbEntity
  8
0
100
AcDbCircle
 10
366.7364041050809
 20
562.5717067655873
 30
0.0
 40
2.0
100
AcDbArc
 50
0.0
 51
65.00000000002039
  0
LINE
  5
2A8
330
2
100
AcDbEntity
  8
0
100
AcDbLine
 10
357.6382513032767
 20
569.0210009300585
 30
0.0
 11
367.5816406285625
 21
564.3843223396611
 31
0.0
  0
LINE
  5
2A9
330
2
100
AcDbEntity
  8
0
100
AcDbLine
 10
355.7364041050809
 20
569.2083853559847
 30
0.0
 11
356.7930147797956
 21
569.2083853559847
 31
0.0
  0
LINE
  5
2AA
330
2
100
AcDbEntity
  8
0
100
AcDbLine
 10
355.7364041050814
 20
569.2083853559847
 30
0.0
 11
355.7364041050809
 21
395.2083853559848
 31
0.0
  0
LINE
  5
2AB
330
2
100
AcDbEntity
  8
0
100
AcDbLine
 10
368.7364041050802
 20
420.40858533011
 30
0.0
 11
368.7364041050813
 21
562.5717067655873
 31
0.0
  0
INSERT
  5
2AC
330
2
100
AcDbEntity
  8
09-01
100
AcDbBlockReference
 66
     1
  2
DIN A4
 10
-0.0000187805887464
 20
0.0000050322435072
 30
0.0
 41
2.5
 42
2.5
 43
2.5
  0
ATTRIB
  5
320
330
2AC
100
AcDbEntity
  8
06-99
100
AcDbText
 10
291.2386168479429
 20
65.46959674320556
 30
0.0
 40
10.0
  1
WP 173e 
 41
0.9
  7
ROMANS8
100
AcDbAttribute
280
     0
  2
TEILE
 70
     0
280
     0
  0
ATTRIB
  5
321
330
2AC
100
AcDbEntity
  8
06-99
100
AcDbText
 10
291.2386168479429
 20
48.23869624749045
 30
0.0
 40
10.0
  1
Sensorseifenspender 950 ml
 41
0.75
  7
ROMANS8
100
AcDbAttribute
280
     0
  2
TEILE2
 70
     0
280
     0
  0
ATTRIB
  5
322
330
2AC
100
AcDbEntity
  8
06-99
100
AcDbText
 10
478.3684655292864
 20
113.3333333333328
 30
0.0
 40
8.4375
  1
1:2,5
  7
ROMANS8
100
AcDbAttribute
280
     0
  2
:
 70
     0
280
     0
  0
ATTRIB
  5
323
330
2AC
100
AcDbEntity
  8
06-99
100
AcDbText
 10
232.4926694984185
 20
68.60421367007825
 30
0.0
 40
6.25
  1
Häberle
 41
0.9
  7
ROMANS8
100
AcDbAttribute
280
     0
  2
NAME
 70
     0
280
     0
  0
ATTRIB
  5
324
330
2AC
100
AcDbEntity
  8
06-99
100
AcDbText
 10
198.7328661297351
 20
68.65308793527811
 30
0.0
 40
6.25
  1
30.06.2014
 50
359.9144597696159
 41
0.5524647187174877
  7
ROMANS8
 72
     5
 11
226.849342801097
 21
68.61111116666757
 31
0.0
100
AcDbAttribute
280
     0
  2
DATUM
 70
     0
280
     0
  0
ATTRIB
  5
325
330
2AC
100
AcDbEntity
  8
06-99
100
AcDbText
 10
446.2658599178956
 20
18.73224950072222
 30
0.0
 40
7.4844
  1
727183
  7
ROMANS8
100
AcDbAttribute
280
     0
  2
ID.NR
 70
     0
280
     0
  0
ATTRIB
  5
326
330
2AC
100
AcDbEntity
  8
06-99
100
AcDbText
 10
291.8281656392764
 20
94.16666661111117
 30
0.0
 40
7.5
  1

 41
0.9
  7
ROMANS8
100
AcDbAttribute
280
     0
  2
LÄNGE
 70
     0
280
     0
  0
ATTRIB
  5
327
330
2AC
100
AcDbEntity
  8
06-99
100
AcDbText
 10
375.4520122794247
 20
94.1952596761123
 30
0.0
 40
7.5
  1

 41
0.9
  7
ROMANS8
100
AcDbAttribute
280
     0
  2
BREITE
 70
     0
280
     0
  0
ATTRIB
  5
328
330
2AC
100
AcDbEntity
  8
06-99
100
AcDbText
 10
476.5227303168296
 20
94.16666666666765
 30
0.0
 40
7.734375000000001
  1

  7
ROMANS8
100
AcDbAttribute
280
     0
  2
1.0
 70
     0
280
     0
  0
ATTRIB
  5
329
330
2AC
100
AcDbEntity
  8
06-99
100
AcDbText
 10
410.3194640035064
 20
113.3333333333339
 30
0.0
 40
7.5
  1

  7
ROMANS8
 72
     1
 11
410.3194640035064
 21
113.3333333333339
 31
0.0
100
AcDbAttribute
280
     0
  2
IV
 70
     0
280
     0
  0
ATTRIB
  5
32A
330
2AC
100
AcDbEntity
  8
06-99
100
AcDbText
 10
308.1868513402895
 20
113.3333333333328
 30
0.0
 40
8.4375
  1
1.4301
  7
ROMANS8
100
AcDbAttribute
280
     0
  2
1.4301
 70
     0
280
     0
  0
ATTRIB
  5
32B
330
2AC
100
AcDbEntity
  8
06-99
100
AcDbText
 10
365.0015847172005
 20
18.76099151088761
 30
0.0
 40
7.919999999999999
  1

 41
0.9000000000000001
  7
ROMANS8
100
AcDbAttribute
280
     0
  2
AUFTRAGS.NR.
 70
     0
280
     0
  0
ATTRIB
  5
32C
330
2AC
100
AcDbEntity
  8
06-99
100
AcDbText
 10
291.25
 20
18.75000000000023
 30
0.0
 40
7.919999999999999
  1

 41
0.9000000000000001
  7
ROMANS8
100
AcDbAttribute
280
     0
  2
SONDER-NR
 70
     0
280
     0
  0
ATTRIB
  5
32D
330
2AC
100
AcDbEntity
  8
06-99
100
AcDbText
 10
116.2493774875207
 20
16.50452517315011
 30
0.0
 40
3.75
  1

 41
0.9
  7
ROMANS8
100
AcDbAttribute
280
     0
  2
ERSETZT.DURCH
 70
     0
280
     0
  0
ATTRIB
  5
32E
330
2AC
100
AcDbEntity
  8
06-99
100
AcDbText
 10
53.74866945049625
 20
16.49364099468153
 30
0.0
 40
3.75
  1

 41
0.9
  7
ROMANS8
100
AcDbAttribute
280
     0
  2
ERSETZT.FÜR
 70
     0
280
     0
  0
ATTRIB
  5
32F
330
2AC
100
AcDbEntity
  8
06-99
100
AcDbText
 10
249.9326816160942
 20
119.17127785002
 30
0.0
 40
3.2175
  1
DIN A4
  7
ROMANS8
 72
     1
 11
258.1296459018085
 21
119.17127785002
 31
0.0
100
AcDbAttribute
280
     0
  2
FORMAT
 70
     0
280
     0
  0
ATTRIB
  5
330
330
2AC
100
AcDbEntity
  8
06-99
100
AcDbText
 10
239.968597493516
 20
92.99241833466135
 30
0.0
 40
5.85
  1
DIN 2768
  7
ROMANS8
 72
     1
 11
260.0257403506589
 21
92.99241833466135
 31
0.0
100
AcDbAttribute
280
     0
  2
NORM2
 70
     0
280
     0
  0
ATTRIB
  5
331
330
2AC
100
AcDbEntity
  8
06-99
100
AcDbText
 10
232.0293117792299
 20
102.5757516679962
 30
0.0
 40
5.85
  1
DIN 6930-M
  7
ROMANS8
 72
     1
 11
258.772168922087
 21
102.5757516679962
 31
0.0
100
AcDbAttribute
280
     0
  2
NORM1
 70
     0
280
     0
  0
SEQEND
  5
332
330
2AC
100
AcDbEntity
  8
09-01
  0
ARC
  5
333
330
2
100
AcDbEntity
  8
0
100
AcDbCircle
 10
193.6468339670354
 20
564.2083853559848
 30
0.0
 40
5.0
100
AcDbArc
 50
0.0
 51
90.0
  0
LINE
  5
334
330
2
100
AcDbEntity
  8
0
100
AcDbLine
 10
198.6468339670354
 20
564.2083853559848
 30
0.0
 11
198.6468339670354
 21
400.2083853559847
 31
0.0
  0
LINE
  5
335
330
2
100
AcDbEntity
  8
0
100
AcDbLine
 10
112.6468339670354
 20
569.2083853559847
 30
0.0
 11
112.6468339670359
 21
395.2083853559848
 31
0.0
  0
LINE
  5
336
330
2
100
AcDbEntity
  8
0
100
AcDbLine
 10
111.6468339670359
 20
395.2083853559848
 30
0.0
 11
193.6468339670354
 21
395.2083853559848
 31
0.0
  0
LINE
  5
337
330
2
100
AcDbEntity
  8
0
100
AcDbLine
 10
183.6468339670358
 20
569.2083853559845
 30
0.0
 11
193.6468339670354
 21
569.2083853559847
 31
0.0
  0
LINE
  5
338
330
2
100
AcDbEntity
  8
0
100
AcDbLine
 10
111.6468339670354
 20
569.2083853559847
 30
0.0
 11
125.6468339670358
 21
569.2083853559847
 31
0.0
  0
ENDSEC
  0
SECTION
  2
OBJECTS
  0
DICTIONARY
  5
B
330
0
100
AcDbDictionary
281
     1
  3
ACAD_COLOR
350
4D
  3
ACAD_GROUP
350
3A
  3
ACAD_LAYOUT
350
18
  3
ACAD_MATERIAL
350
D
  3
ACAD_MLEADERSTYLE
350
50
  3
ACAD_MLINESTYLE
350
3B
  3
ACAD_PLOTSETTINGS
350
3C
  3
ACAD_PLOTSTYLENAME
350
A
  3
ACAD_SCALELIST
350
4E
  3
ACAD_TABLESTYLE
350
4F
  3
ACAD_VISUALSTYLE
350
31
  3
ACDB_RECOMPOSE_DATA
350
346
  3
AcDbVariableDictionary
350
33C
  0
DICTIONARY
  5
32
330
2E
100
AcDbDictionary
280
     1
281
     1
  0
DICTIONARY
  5
21
330
20
100
AcDbDictionary
280
     1
281
     1
  3
ACAD_LAYERFILTERS
360
22
  3
ACAD_LAYERSTATES
360
23
  3
ACLYDICTIONARY
360
24
  0
DICTIONARY
  5
7
330
6
100
AcDbDictionary
280
     1
281
     1
  3
ADSK_XREC_LAYER_RECONCILED
360
8
  0
DICTIONARY
  5
2B3
330
2B2
100
AcDbDictionary
280
     1
281
     1
  3
ADSK_XREC_LAYER_RECONCILED
360
2B4
  0
DICTIONARY
  5
2B9
330
2B8
100
AcDbDictionary
280
     1
281
     1
  3
ADSK_XREC_LAYER_RECONCILED
360
2BA
  0
DICTIONARY
  5
2F1
330
2F0
100
AcDbDictionary
280
     1
281
     1
  3
ADSK_XREC_LAYER_RECONCILED
360
2F2
  0
DICTIONARY
  5
2DB
330
2DA
100
AcDbDictionary
280
     1
281
     1
  3
ADSK_XREC_LAYER_RECONCILED
360
2DC
  0
DICTIONARY
  5
186
330
185
100
AcDbDictionary
280
     1
281
     1
  3
ADSK_XREC_LAYER_RECONCILED
360
187
  0
DICTIONARY
  5
A8
330
A7
100
AcDbDictionary
280
     1
281
     1
  3
ADSK_XREC_LAYER_RECONCILED
360
A9
  0
DICTIONARY
  5
52
330
51
100
AcDbDictionary
280
     1
281
     1
  3
ADSK_XREC_LAYER_RECONCILED
360
53
  0
DICTIONARY
  5
3
330
2
100
AcDbDictionary
280
     1
281
     1
  3
ACAD_SORTENTS
360
33B
  0
DICTIONARY
  5
2AE
330
2AD
100
AcDbDictionary
280
     1
281
     1
  3
ACAD_SORTENTS
360
339
  0
DICTIONARY
  5
1D9
330
1D8
100
AcDbDictionary
280
     1
281
     1
  3
ACAD_SORTENTS
360
33A
  0
DICTIONARY
  5
4D
102
{ACAD_REACTORS
330
B
102
}
330
B
100
AcDbDictionary
281
     1
  0
DICTIONARY
  5
3A
102
{ACAD_REACTORS
330
B
102
}
330
B
100
AcDbDictionary
281
     1
  0
DICTIONARY
  5
18
102
{ACAD_REACTORS
330
B
102
}
330
B
100
AcDbDictionary
281
     1
  3
Layout1
350
1F
  3
Model
350
17
  0
DICTIONARY
  5
D
102
{ACAD_REACTORS
330
B
102
}
330
B
100
AcDbDictionary
281
     1
  3
ByBlock
350
45
  3
ByLayer
350
3D
  3
Global
350
C
  0
DICTIONARY
  5
50
102
{ACAD_REACTORS
330
B
102
}
330
B
100
AcDbDictionary
281
     1
  0
DICTIONARY
  5
3B
102
{ACAD_REACTORS
330
B
102
}
330
B
100
AcDbDictionary
281
     1
  3
STANDARD
350
54
  0
DICTIONARY
  5
3C
102
{ACAD_REACTORS
330
B
102
}
330
B
100
AcDbDictionary
281
     1
  0
ACDBDICTIONARYWDFLT
  5
A
102
{ACAD_REACTORS
330
B
102
}
330
B
100
AcDbDictionary
281
     1
  3
Normal
350
9
100
AcDbDictionaryWithDefault
340
9
  0
DICTIONARY
  5
4E
102
{ACAD_REACTORS
330
B
102
}
330
B
100
AcDbDictionary
281
     1
  3
A0
350
59
  3
A1
350
5A
  3
A2
350
5B
  3
A3
350
5C
  3
A4
350
5D
  3
A5
350
5E
  3
A6
350
5F
  3
A7
350
60
  3
A8
350
61
  3
A9
350
62
  3
B0
350
63
  3
B1
350
64
  3
B2
350
65
  3
B3
350
66
  3
B4
350
67
  3
B5
350
68
  3
B6
350
69
  3
B7
350
6A
  3
B8
350
6B
  3
B9
350
6C
  3
C0
350
6D
  3
C1
350
6E
  3
C2
350
6F
  3
C3
350
70
  3
C4
350
71
  3
C5
350
72
  3
C6
350
73
  3
C7
350
74
  3
C8
350
75
  3
C9
350
76
  3
D0
350
77
  3
D1
350
78
  3
D2
350
79
  0
DICTIONARY
  5
4F
102
{ACAD_REACTORS
330
B
102
}
330
B
100
AcDbDictionary
281
     1
  3
Standard
350
55
  0
DICTIONARY
  5
31
102
{ACAD_REACTORS
330
B
102
}
330
B
100
AcDbDictionary
281
     1
  3
2dWireframe
350
30
  3
3dWireframe
350
58
  3
Realistic
350
57
  0
XRECORD
  5
346
102
{ACAD_REACTORS
330
B
102
}
330
B
100
AcDbXrecord
280
     1
 90
        1
330
55
  0
DICTIONARY
  5
33C
102
{ACAD_REACTORS
330
B
102
}
330
B
100
AcDbDictionary
281
     1
  3
CANNOSCALE
350
340
  3
CMLEADERSTYLE
350
33E
  3
CTABLESTYLE
350
33D
  3
LAYEREVAL
350
342
  3
LAYERNOTIFY
350
343
  3
LIGHTINGUNITS
350
341
  3
MSLTSCALE
350
33F
  0
DICTIONARY
  5
22
102
{ACAD_REACTORS
330
21
102
}
330
21
100
AcDbDictionary
281
     1
  0
DICTIONARY
  5
23
102
{ACAD_REACTORS
330
21
102
}
330
21
100
AcDbDictionary
281
     1
  0
DICTIONARY
  5
24
102
{ACAD_REACTORS
330
21
102
}
330
21
100
AcDbDictionary
281
     1
1001
ACAD
1000
<All
  0
XRECORD
  5
8
102
{ACAD_REACTORS
330
7
102
}
330
7
100
AcDbXrecord
280
     1
290
     1
  0
XRECORD
  5
2B4
102
{ACAD_REACTORS
330
2B3
102
}
330
2B3
100
AcDbXrecord
280
     1
290
     1
  0
XRECORD
  5
2BA
102
{ACAD_REACTORS
330
2B9
102
}
330
2B9
100
AcDbXrecord
280
     1
290
     1
  0
XRECORD
  5
2F2
102
{ACAD_REACTORS
330
2F1
102
}
330
2F1
100
AcDbXrecord
280
     1
290
     1
  0
XRECORD
  5
2DC
102
{ACAD_REACTORS
330
2DB
102
}
330
2DB
100
AcDbXrecord
280
     1
290
     1
  0
XRECORD
  5
187
102
{ACAD_REACTORS
330
186
102
}
330
186
100
AcDbXrecord
280
     1
290
     1
  0
XRECORD
  5
A9
102
{ACAD_REACTORS
330
A8
102
}
330
A8
100
AcDbXrecord
280
     1
290
     1
  0
XRECORD
  5
53
102
{ACAD_REACTORS
330
52
102
}
330
52
100
AcDbXrecord
280
     1
290
     1
  0
SORTENTSTABLE
  5
33B
102
{ACAD_REACTORS
330
3
102
}
330
3
100
AcDbSortentsTable
330
2
331
296
  5
C0
331
B6
  5
2A0
331
B2
  5
2A4
331
AE
  5
2A8
331
1A7
  5
243
331
254
  5
18A
331
211
  5
1C1
331
250
  5
18E
331
286
  5
C4
331
282
  5
C8
331
27E
  5
CC
331
337
  5
7B
331
333
  5
A5
331
27A
  5
D0
331
E5
  5
265
331
A6
  5
2AC
331
E1
  5
269
331
15B
  5
259
331
DD
  5
26D
331
D9
  5
271
331
197
  5
247
331
1D6
  5
1CC
331
24C
  5
192
331
193
  5
24B
331
1D2
  5
1D0
331
248
  5
196
331
18F
  5
24F
331
1CE
  5
1D4
331
1CA
  5
1FC
331
244
  5
1A6
331
18B
  5
253
331
201
  5
1C5
331
240
  5
1AA
331
276
  5
D4
331
272
  5
D8
331
26E
  5
DC
331
26A
  5
E0
331
2A9
  5
AD
331
D5
  5
275
331
D1
  5
279
331
CD
  5
27D
331
C9
  5
281
331
1C6
  5
200
331
23C
  5
1AE
331
1C2
  5
210
331
1FD
  5
1C9
331
238
  5
1B2
331
1BE
  5
214
331
1BA
  5
224
331
266
  5
E4
331
2A5
  5
B1
331
2A1
  5
B5
331
262
  5
E8
331
25E
  5
116
331
29D
  5
B9
331
25A
  5
14E
331
299
  5
BD
331
C5
  5
285
331
C1
  5
295
331
BD
  5
299
331
7A
  5
338
331
B9
  5
29D
331
1B6
  5
228
331
1B2
  5
238
331
228
  5
1B6
331
1AE
  5
23C
331
1AA
  5
240
331
224
  5
1BA
331
295
  5
C1
331
B5
  5
2A1
331
B1
  5
2A5
331
AD
  5
2A9
331
E8
  5
262
331
1A6
  5
244
331
257
  5
175
331
214
  5
1BE
331
253
  5
18B
331
210
  5
1C2
331
285
  5
C5
331
281
  5
C9
331
336
  5
7C
331
27D
  5
CD
331
279
  5
D1
331
E4
  5
266
331
A5
  5
333
331
E0
  5
26A
331
DC
  5
26E
331
D8
  5
272
331
196
  5
248
331
1D5
  5
1CD
331
24F
  5
18F
331
24B
  5
193
331
192
  5
24C
331
1CD
  5
1D5
331
247
  5
197
331
18E
  5
250
331
1C9
  5
1FD
331
243
  5
1A7
331
18A
  5
254
331
200
  5
1C6
331
275
  5
D5
331
271
  5
D9
331
26D
  5
DD
331
2AC
  5
A6
331
269
  5
E1
331
2A8
  5
AE
331
D4
  5
276
331
14E
  5
25A
331
D0
  5
27A
331
CC
  5
27E
331
C8
  5
282
331
1C5
  5
201
331
23F
  5
1AB
331
23B
  5
1AF
331
1C1
  5
211
331
1FC
  5
1CA
331
237
  5
1B3
331
1BD
  5
221
331
1B9
  5
225
331
2A4
  5
B2
331
265
  5
E5
331
2A0
  5
B6
331
261
  5
F7
331
25D
  5
125
331
29C
  5
BA
331
259
  5
15B
331
298
  5
BE
331
C4
  5
286
331
C0
  5
296
331
BC
  5
29A
331
F7
  5
261
331
132
  5
25C
331
B8
  5
29E
331
1B5
  5
235
331
1B1
  5
239
331
227
  5
1B7
331
1AD
  5
23D
331
1A9
  5
241
331
223
  5
1BB
331
294
  5
C2
331
B4
  5
2A2
331
B0
  5
2A6
331
AC
  5
2AA
331
1A5
  5
245
331
256
  5
184
331
213
  5
1BF
331
252
  5
18C
331
284
  5
C6
331
280
  5
CA
331
335
  5
8B
331
27C
  5
CE
331
E7
  5
263
331
278
  5
D2
331
E3
  5
267
331
DF
  5
26B
331
DB
  5
26F
331
116
  5
25E
331
98
  5
334
331
24E
  5
190
331
195
  5
249
331
1D4
  5
1CE
331
24A
  5
194
331
191
  5
24D
331
1D0
  5
1D2
331
1CC
  5
1D6
331
246
  5
198
331
18D
  5
251
331
189
  5
255
331
1C8
  5
1FE
331
203
  5
1C3
331
242
  5
1A8
331
274
  5
D6
331
270
  5
DA
331
26C
  5
DE
331
2AB
  5
AB
331
D7
  5
273
331
268
  5
E2
331
D3
  5
277
331
CF
  5
27B
331
CB
  5
27F
331
106
  5
260
331
141
  5
25B
331
1C4
  5
202
331
1FF
  5
1C7
331
23E
  5
1AC
331
23A
  5
1B0
331
1C0
  5
212
331
1BC
  5
222
331
236
  5
1B4
331
1B8
  5
226
331
2A7
  5
AF
331
2A3
  5
B3
331
264
  5
E6
331
260
  5
106
331
29F
  5
B7
331
25C
  5
132
331
29B
  5
BB
331
258
  5
168
331
C7
  5
283
331
C3
  5
287
331
BF
  5
297
331
7C
  5
336
331
BB
  5
29B
331
175
  5
257
331
1B4
  5
236
331
1B0
  5
23A
331
226
  5
1B8
331
1AC
  5
23E
331
1A8
  5
242
331
222
  5
1BC
331
297
  5
BF
331
B7
  5
29F
331
B3
  5
2A3
331
AF
  5
2A7
331
125
  5
25D
331
AB
  5
2AB
331
255
  5
189
331
198
  5
246
331
212
  5
1C0
331
251
  5
18D
331
287
  5
C3
331
283
  5
C7
331
27F
  5
CB
331
338
  5
7A
331
334
  5
98
331
27B
  5
CF
331
E6
  5
264
331
E2
  5
268
331
DE
  5
26C
331
DA
  5
270
331
115
  5
25F
331
1D7
  5
1CB
331
24D
  5
191
331
194
  5
24A
331
1D3
  5
1CF
331
249
  5
195
331
190
  5
24E
331
1CF
  5
1D3
331
1CB
  5
1D7
331
245
  5
1A5
331
18C
  5
252
331
202
  5
1C4
331
241
  5
1A9
331
277
  5
D3
331
273
  5
D7
331
26F
  5
DB
331
26B
  5
DF
331
2AA
  5
AC
331
D6
  5
274
331
D2
  5
278
331
CE
  5
27C
331
8B
  5
335
331
CA
  5
280
331
1C7
  5
1FF
331
23D
  5
1AD
331
184
  5
256
331
1C3
  5
203
331
1FE
  5
1C8
331
239
  5
1B1
331
1BF
  5
213
331
1BB
  5
223
331
235
  5
1B5
331
267
  5
E3
331
2A6
  5
B0
331
2A2
  5
B4
331
263
  5
E7
331
25F
  5
115
331
29E
  5
B8
331
25B
  5
141
331
29A
  5
BC
331
C6
  5
284
331
C2
  5
294
331
BE
  5
298
331
7B
  5
337
331
BA
  5
29C
331
1B7
  5
227
331
1B3
  5
237
331
1AF
  5
23B
331
1AB
  5
23F
331
225
  5
1B9
331
221
  5
1BD
331
168
  5
258
  0
SORTENTSTABLE
  5
339
102
{ACAD_REACTORS
330
2AE
102
}
330
2AE
100
AcDbSortentsTable
330
2AD
  0
SORTENTSTABLE
  5
33A
102
{ACAD_REACTORS
330
1D9
102
}
330
1D9
100
AcDbSortentsTable
330
1D8
  0
LAYOUT
  5
1F
102
{ACAD_REACTORS
330
18
102
}
330
18
100
AcDbPlotSettings
  1

  2
HP LaserJet 4 Plus
  4

  6

 40
0.0
 41
0.0
 42
0.0
 43
0.0
 44
0.0
 45
0.0
 46
0.0
 47
0.0
 48
0.0
 49
0.0
140
0.0
141
0.0
142
1.0
143
1.0
 70
   688
 72
     0
 73
     0
 74
     5
  7
CNC-Soft.ctb
 75
    16
147
1.0
 76
     0
 77
     2
 78
   300
148
0.0
149
0.0
100
AcDbLayout
  1
Layout1
 70
     1
 71
     1
 10
0.0
 20
0.0
 11
420.0
 21
297.0
 12
0.0
 22
0.0
 32
0.0
 14
1.000000000000000E+20
 24
1.000000000000000E+20
 34
1.000000000000000E+20
 15
-1.000000000000000E+20
 25
-1.000000000000000E+20
 35
-1.000000000000000E+20
146
0.0
 13
0.0
 23
0.0
 33
0.0
 16
1.0
 26
0.0
 36
0.0
 17
0.0
 27
1.0
 37
0.0
 76
     0
330
1C
  0
LAYOUT
  5
17
102
{ACAD_XDICTIONARY
360
19
102
}
102
{ACAD_REACTORS
330
18
102
}
330
18
100
AcDbPlotSettings
  1

  2
\\SBS01\KMC364e s/w
  4
A4
  6

 40
5.027082920074462
 41
5.027099609375
 42
5.027069091796875
 43
5.027069091796875
 44
209.9733276367187
 45
296.9259948730469
 46
0.0
 47
0.0
 48
-1524.36259419634
 49
-3374.216867175878
140
-1104.36259419634
141
-2780.216867175878
142
1.0
143
2.100848999038186
 70
  3760
 72
     1
 73
     0
 74
     4
  7
monochrome.ctb
 75
     0
147
0.4759980372020177
 76
     1
 77
     2
 78
   300
148
1524.36259419634
149
3374.216867175878
100
AcDbLayout
  1
Model
 70
     1
 71
     0
 10
0.0
 20
0.0
 11
12.0
 21
9.0
 12
0.0
 22
0.0
 32
0.0
 14
0.0
 24
0.0
 34
0.0
 15
0.0
 25
0.0
 35
0.0
146
0.0
 13
0.0
 23
0.0
 33
0.0
 16
1.0
 26
0.0
 36
0.0
 17
0.0
 27
1.0
 37
0.0
 76
     0
330
2
331
2F
1001
ACAD_PSEXT
1000
\\SBS01\KMC364e s/w
1000
KONICA MINOLTA C364SeriesPCL
1000
2.Stock
1000
schwarzweiss
1070
     0
  0
MATERIAL
  5
45
102
{ACAD_XDICTIONARY
360
46
102
}
102
{ACAD_REACTORS
330
D
102
}
330
D
100
AcDbMaterial
  1
ByBlock
 72
     0
 43
0.0208333333333333
 43
0.0
 43
0.0
 43
0.0
 43
0.0
 43
0.0208333333333333
 43
0.0
 43
0.0
 43
0.0
 43
0.0
 43
1.0
 43
0.0
 43
0.0
 43
0.0
 43
0.0
 43
1.0
 77
     0
 47
0.0208333333333333
 47
0.0
 47
0.0
 47
0.0
 47
0.0
 47
0.0208333333333333
 47
0.0
 47
0.0
 47
0.0
 47
0.0
 47
1.0
 47
0.0
 47
0.0
 47
0.0
 47
0.0
 47
1.0
171
     0
 49
0.0208333333333333
 49
0.0
 49
0.0
 49
0.0
 49
0.0
 49
0.0208333333333333
 49
0.0
 49
0.0
 49
0.0
 49
0.0
 49
1.0
 49
0.0
 49
0.0
 49
0.0
 49
0.0
 49
1.0
175
     0
142
0.0208333333333333
142
0.0
142
0.0
142
0.0
142
0.0
142
0.0208333333333333
142
0.0
142
0.0
142
0.0
142
0.0
142
1.0
142
0.0
142
0.0
142
0.0
142
0.0
142
1.0
179
     0
144
0.0208333333333333
144
0.0
144
0.0
144
0.0
144
0.0
144
0.0208333333333333
144
0.0
144
0.0
144
0.0
144
0.0
144
1.0
144
0.0
144
0.0
144
0.0
144
0.0
144
1.0
147
0.0208333333333333
147
0.0
147
0.0
147
0.0
147
0.0
147
0.0208333333333333
147
0.0
147
0.0
147
0.0
147
0.0
147
1.0
147
0.0
147
0.0
147
0.0
147
0.0
147
1.0
  0
MATERIAL
  5
3D
102
{ACAD_XDICTIONARY
360
3E
102
}
102
{ACAD_REACTORS
330
D
102
}
330
D
100
AcDbMaterial
  1
ByLayer
 72
     0
 43
0.0208333333333333
 43
0.0
 43
0.0
 43
0.0
 43
0.0
 43
0.0208333333333333
 43
0.0
 43
0.0
 43
0.0
 43
0.0
 43
1.0
 43
0.0
 43
0.0
 43
0.0
 43
0.0
 43
1.0
 77
     0
 47
0.0208333333333333
 47
0.0
 47
0.0
 47
0.0
 47
0.0
 47
0.0208333333333333
 47
0.0
 47
0.0
 47
0.0
 47
0.0
 47
1.0
 47
0.0
 47
0.0
 47
0.0
 47
0.0
 47
1.0
171
     0
 49
0.0208333333333333
 49
0.0
 49
0.0
 49
0.0
 49
0.0
 49
0.0208333333333333
 49
0.0
 49
0.0
 49
0.0
 49
0.0
 49
1.0
 49
0.0
 49
0.0
 49
0.0
 49
0.0
 49
1.0
175
     0
142
0.0208333333333333
142
0.0
142
0.0
142
0.0
142
0.0
142
0.0208333333333333
142
0.0
142
0.0
142
0.0
142
0.0
142
1.0
142
0.0
142
0.0
142
0.0
142
0.0
142
1.0
179
     0
144
0.0208333333333333
144
0.0
144
0.0
144
0.0
144
0.0
144
0.0208333333333333
144
0.0
144
0.0
144
0.0
144
0.0
144
1.0
144
0.0
144
0.0
144
0.0
144
0.0
144
1.0
147
0.0208333333333333
147
0.0
147
0.0
147
0.0
147
0.0
147
0.0208333333333333
147
0.0
147
0.0
147
0.0
147
0.0
147
1.0
147
0.0
147
0.0
147
0.0
147
0.0
147
1.0
  0
MATERIAL
  5
C
102
{ACAD_XDICTIONARY
360
E
102
}
102
{ACAD_REACTORS
330
D
102
}
330
D
100
AcDbMaterial
  1
Global
 72
     0
 43
0.0208333333333333
 43
0.0
 43
0.0
 43
0.0
 43
0.0
 43
0.0208333333333333
 43
0.0
 43
0.0
 43
0.0
 43
0.0
 43
1.0
 43
0.0
 43
0.0
 43
0.0
 43
0.0
 43
1.0
 77
     0
 47
0.0208333333333333
 47
0.0
 47
0.0
 47
0.0
 47
0.0
 47
0.0208333333333333
 47
0.0
 47
0.0
 47
0.0
 47
0.0
 47
1.0
 47
0.0
 47
0.0
 47
0.0
 47
0.0
 47
1.0
171
     0
 49
0.0208333333333333
 49
0.0
 49
0.0
 49
0.0
 49
0.0
 49
0.0208333333333333
 49
0.0
 49
0.0
 49
0.0
 49
0.0
 49
1.0
 49
0.0
 49
0.0
 49
0.0
 49
0.0
 49
1.0
175
     0
142
0.0208333333333333
142
0.0
142
0.0
142
0.0
142
0.0
142
0.0208333333333333
142
0.0
142
0.0
142
0.0
142
0.0
142
1.0
142
0.0
142
0.0
142
0.0
142
0.0
142
1.0
179
     0
144
0.0208333333333333
144
0.0
144
0.0
144
0.0
144
0.0
144
0.0208333333333333
144
0.0
144
0.0
144
0.0
144
0.0
144
1.0
144
0.0
144
0.0
144
0.0
144
0.0
144
1.0
147
0.0208333333333333
147
0.0
147
0.0
147
0.0
147
0.0
147
0.0208333333333333
147
0.0
147
0.0
147
0.0
147
0.0
147
1.0
147
0.0
147
0.0
147
0.0
147
0.0
147
1.0
  0
MLINESTYLE
  5
54
102
{ACAD_REACTORS
330
3B
102
}
330
3B
100
AcDbMlineStyle
  2
STANDARD
 70
     0
  3

 62
   256
 51
90.0
 52
90.0
 71
     2
 49
0.5
 62
   256
  6
BYLAYER
 49
-0.5
 62
   256
  6
BYLAYER
  0
ACDBPLACEHOLDER
  5
9
102
{ACAD_REACTORS
330
A
102
}
330
A
  0
SCALE
  5
59
102
{ACAD_REACTORS
330
4E
102
}
330
4E
100
AcDbScale
 70
     0
300
1:1
140
1.0
141
1.0
290
     1
  0
SCALE
  5
5A
102
{ACAD_REACTORS
330
4E
102
}
330
4E
100
AcDbScale
 70
     0
300
1:2
140
1.0
141
2.0
290
     0
  0
SCALE
  5
5B
102
{ACAD_REACTORS
330
4E
102
}
330
4E
100
AcDbScale
 70
     0
300
1:4
140
1.0
141
4.0
290
     0
  0
SCALE
  5
5C
102
{ACAD_REACTORS
330
4E
102
}
330
4E
100
AcDbScale
 70
     0
300
1:5
140
1.0
141
5.0
290
     0
  0
SCALE
  5
5D
102
{ACAD_REACTORS
330
4E
102
}
330
4E
100
AcDbScale
 70
     0
300
1:8
140
1.0
141
8.0
290
     0
  0
SCALE
  5
5E
102
{ACAD_REACTORS
330
4E
102
}
330
4E
100
AcDbScale
 70
     0
300
1:10
140
1.0
141
10.0
290
     0
  0
SCALE
  5
5F
102
{ACAD_REACTORS
330
4E
102
}
330
4E
100
AcDbScale
 70
     0
300
1:16
140
1.0
141
16.0
290
     0
  0
SCALE
  5
60
102
{ACAD_REACTORS
330
4E
102
}
330
4E
100
AcDbScale
 70
     0
300
1:20
140
1.0
141
20.0
290
     0
  0
SCALE
  5
61
102
{ACAD_REACTORS
330
4E
102
}
330
4E
100
AcDbScale
 70
     0
300
1:30
140
1.0
141
30.0
290
     0
  0
SCALE
  5
62
102
{ACAD_REACTORS
330
4E
102
}
330
4E
100
AcDbScale
 70
     0
300
1:40
140
1.0
141
40.0
290
     0
  0
SCALE
  5
63
102
{ACAD_REACTORS
330
4E
102
}
330
4E
100
AcDbScale
 70
     0
300
1:50
140
1.0
141
50.0
290
     0
  0
SCALE
  5
64
102
{ACAD_REACTORS
330
4E
102
}
330
4E
100
AcDbScale
 70
     0
300
1:100
140
1.0
141
100.0
290
     0
  0
SCALE
  5
65
102
{ACAD_REACTORS
330
4E
102
}
330
4E
100
AcDbScale
 70
     0
300
2:1
140
2.0
141
1.0
290
     0
  0
SCALE
  5
66
102
{ACAD_REACTORS
330
4E
102
}
330
4E
100
AcDbScale
 70
     0
300
4:1
140
4.0
141
1.0
290
     0
  0
SCALE
  5
67
102
{ACAD_REACTORS
330
4E
102
}
330
4E
100
AcDbScale
 70
     0
300
8:1
140
8.0
141
1.0
290
     0
  0
SCALE
  5
68
102
{ACAD_REACTORS
330
4E
102
}
330
4E
100
AcDbScale
 70
     0
300
10:1
140
10.0
141
1.0
290
     0
  0
SCALE
  5
69
102
{ACAD_REACTORS
330
4E
102
}
330
4E
100
AcDbScale
 70
     0
300
100:1
140
100.0
141
1.0
290
     0
  0
SCALE
  5
6A
102
{ACAD_REACTORS
330
4E
102
}
330
4E
100
AcDbScale
 70
     0
300
1/128" = 1'-0"
140
0.0078125
141
12.0
290
     0
  0
SCALE
  5
6B
102
{ACAD_REACTORS
330
4E
102
}
330
4E
100
AcDbScale
 70
     0
300
1/64" = 1'-0"
140
0.015625
141
12.0
290
     0
  0
SCALE
  5
6C
102
{ACAD_REACTORS
330
4E
102
}
330
4E
100
AcDbScale
 70
     0
300
1/32" = 1'-0"
140
0.03125
141
12.0
290
     0
  0
SCALE
  5
6D
102
{ACAD_REACTORS
330
4E
102
}
330
4E
100
AcDbScale
 70
     0
300
1/16" = 1'-0"
140
0.0625
141
12.0
290
     0
  0
SCALE
  5
6E
102
{ACAD_REACTORS
330
4E
102
}
330
4E
100
AcDbScale
 70
     0
300
3/32" = 1'-0"
140
0.09375
141
12.0
290
     0
  0
SCALE
  5
6F
102
{ACAD_REACTORS
330
4E
102
}
330
4E
100
AcDbScale
 70
     0
300
1/8" = 1'-0"
140
0.125
141
12.0
290
     0
  0
SCALE
  5
70
102
{ACAD_REACTORS
330
4E
102
}
330
4E
100
AcDbScale
 70
     0
300
3/16" = 1'-0"
140
0.1875
141
12.0
290
     0
  0
SCALE
  5
71
102
{ACAD_REACTORS
330
4E
102
}
330
4E
100
AcDbScale
 70
     0
300
1/4" = 1'-0"
140
0.25
141
12.0
290
     0
  0
SCALE
  5
72
102
{ACAD_REACTORS
330
4E
102
}
330
4E
100
AcDbScale
 70
     0
300
3/8" = 1'-0"
140
0.375
141
12.0
290
     0
  0
SCALE
  5
73
102
{ACAD_REACTORS
330
4E
102
}
330
4E
100
AcDbScale
 70
     0
300
1/2" = 1'-0"
140
0.5
141
12.0
290
     0
  0
SCALE
  5
74
102
{ACAD_REACTORS
330
4E
102
}
330
4E
100
AcDbScale
 70
     0
300
3/4" = 1'-0"
140
0.75
141
12.0
290
     0
  0
SCALE
  5
75
102
{ACAD_REACTORS
330
4E
102
}
330
4E
100
AcDbScale
 70
     0
300
1" = 1'-0"
140
1.0
141
12.0
290
     0
  0
SCALE
  5
76
102
{ACAD_REACTORS
330
4E
102
}
330
4E
100
AcDbScale
 70
     0
300
1-1/2" = 1'-0"
140
1.5
141
12.0
290
     0
  0
SCALE
  5
77
102
{ACAD_REACTORS
330
4E
102
}
330
4E
100
AcDbScale
 70
     0
300
3" = 1'-0"
140
3.0
141
12.0
290
     0
  0
SCALE
  5
78
102
{ACAD_REACTORS
330
4E
102
}
330
4E
100
AcDbScale
 70
     0
300
6" = 1'-0"
140
6.0
141
12.0
290
     0
  0
SCALE
  5
79
102
{ACAD_REACTORS
330
4E
102
}
330
4E
100
AcDbScale
 70
     0
300
1'-0" = 1'-0"
140
12.0
141
12.0
290
     0
  0
TABLESTYLE
  5
55
102
{ACAD_XDICTIONARY
360
56
102
}
102
{ACAD_REACTORS
330
4F
102
}
330
4F
100
AcDbTableStyle
280
     0
  3
Standard
 70
     0
 71
     0
 40
1.5
 41
1.5
280
     0
281
     0
  7
STANDARD
140
4.5
170
     2
 62
     0
 63
     7
283
     0
 90
      512
 91
        0
  1

274
    -2
284
     1
 64
     0
275
    -2
285
     1
 65
     0
276
    -2
286
     1
 66
     0
277
    -2
287
     1
 67
     0
278
    -2
288
     1
 68
     0
279
    -2
289
     1
 69
     0
  7
STANDARD
140
6.0
170
     5
 62
     0
 63
     7
283
     0
 90
      512
 91
        0
  1

274
    -2
284
     1
 64
     0
275
    -2
285
     1
 65
     0
276
    -2
286
     1
 66
     0
277
    -2
287
     1
 67
     0
278
    -2
288
     1
 68
     0
279
    -2
289
     1
 69
     0
  7
STANDARD
140
4.5
170
     5
 62
     0
 63
     7
283
     0
 90
      512
 91
        0
  1

274
    -2
284
     1
 64
     0
275
    -2
285
     1
 65
     0
276
    -2
286
     1
 66
     0
277
    -2
287
     1
 67
     0
278
    -2
288
     1
 68
     0
279
    -2
289
     1
 69
     0
  0
VISUALSTYLE
  5
30
102
{ACAD_REACTORS
330
31
102
}
330
31
100
AcDbVisualStyle
  2
2dWireframe
 70
     4
177
     2
291
     0
 71
     0
176
     1
 72
     2
176
     1
 73
     0
176
     1
 90
        0
176
     1
 40
0.6
176
     1
 41
30.0
176
     1
 63
     7
176
     1
 74
     1
176
     1
 91
        4
176
     1
 64
     7
176
     1
 65
   257
176
     1
 75
     1
176
     1
175
     1
176
     1
 42
1.0
176
     1
 92
        0
176
     1
 66
   257
176
     1
 43
1.0
176
     1
 76
     1
176
     1
 77
     6
176
     1
 78
     2
176
     1
 67
     7
176
     1
 79
     5
176
     1
170
     0
176
     1
171
     0
176
     1
290
     0
176
     1
 93
        1
176
     1
 44
0.0
176
     1
173
     0
176
     1
  0
VISUALSTYLE
  5
58
102
{ACAD_REACTORS
330
31
102
}
330
31
100
AcDbVisualStyle
  2
3dWireframe
 70
     5
177
     2
291
     0
 71
     0
176
     1
 72
     2
176
     1
 73
     0
176
     1
 90
        0
176
     1
 40
0.6
176
     1
 41
30.0
176
     1
 63
     7
176
     1
 74
     1
176
     1
 91
        4
176
     1
 64
     7
176
     1
 65
   257
176
     1
 75
     1
176
     1
175
     1
176
     1
 42
1.0
176
     1
 92
        0
176
     1
 66
   257
176
     1
 43
1.0
176
     1
 76
     1
176
     1
 77
     6
176
     1
 78
     2
176
     1
 67
     7
176
     1
 79
     5
176
     1
170
     0
176
     1
171
     0
176
     1
290
     0
176
     1
 93
        1
176
     1
 44
0.0
176
     1
173
     0
176
     1
  0
VISUALSTYLE
  5
57
102
{ACAD_REACTORS
330
31
102
}
330
31
100
AcDbVisualStyle
  2
Realistic
 70
     8
177
     2
291
     0
 71
     2
176
     1
 72
     2
176
     1
 73
     0
176
     1
 90
        0
176
     1
 40
0.6
176
     1
 41
30.0
176
     1
 63
     7
176
     1
 74
     1
176
     1
 91
        0
176
     1
 64
     7
176
     1
 65
   257
176
     1
 75
     1
176
     1
175
     1
176
     1
 42
1.0
176
     1
 92
        8
176
     1
 66
     8
176
     1
 43
1.0
176
     1
 76
     1
176
     1
 77
     6
176
     1
 78
     2
176
     1
 67
     7
176
     1
 79
     5
176
     1
170
     0
176
     1
171
     0
176
     1
290
     0
176
     1
 93
       13
176
     1
 44
0.0
176
     1
173
     0
176
     1
  0
DICTIONARYVAR
  5
340
102
{ACAD_REACTORS
330
33C
102
}
330
33C
100
DictionaryVariables
280
     0
  1
1:1
  0
DICTIONARYVAR
  5
33E
102
{ACAD_REACTORS
330
33C
102
}
330
33C
100
DictionaryVariables
280
     0
  1
STANDARD
  0
DICTIONARYVAR
  5
33D
102
{ACAD_REACTORS
330
33C
102
}
330
33C
100
DictionaryVariables
280
     0
  1
STANDARD
  0
DICTIONARYVAR
  5
342
102
{ACAD_REACTORS
330
33C
102
}
330
33C
100
DictionaryVariables
280
     0
  1
1
  0
DICTIONARYVAR
  5
343
102
{ACAD_REACTORS
330
33C
102
}
330
33C
100
DictionaryVariables
280
     0
  1
15
  0
DICTIONARYVAR
  5
341
102
{ACAD_REACTORS
330
33C
102
}
330
33C
100
DictionaryVariables
280
     0
  1
0
  0
DICTIONARYVAR
  5
33F
102
{ACAD_REACTORS
330
33C
102
}
330
33C
100
DictionaryVariables
280
     0
  1
0
  0
DICTIONARY
  5
19
330
17
100
AcDbDictionary
280
     1
281
     1
  3
ADSK_XREC_LAYOUTTHUMBNAIL
360
1A
  0
DICTIONARY
  5
46
330
45
100
AcDbDictionary
280
     1
281
     1
  3
BUMPTILE
360
47
  3
DIFFUSETILE
360
48
  3
OPACITYTILE
360
49
  3
REFLECTIONTILE
360
4A
  3
REFRACTIONTILE
360
4B
  3
SPECULARTILE
360
4C
  0
DICTIONARY
  5
3E
330
3D
100
AcDbDictionary
280
     1
281
     1
  3
BUMPTILE
360
3F
  3
DIFFUSETILE
360
40
  3
OPACITYTILE
360
41
  3
REFLECTIONTILE
360
42
  3
REFRACTIONTILE
360
43
  3
SPECULARTILE
360
44
  0
DICTIONARY
  5
E
330
C
100
AcDbDictionary
280
     1
281
     1
  3
BUMPTILE
360
F
  3
DIFFUSETILE
360
10
  3
OPACITYTILE
360
11
  3
REFLECTIONTILE
360
12
  3
REFRACTIONTILE
360
13
  3
SPECULARTILE
360
14
  0
DICTIONARY
  5
56
330
55
100
AcDbDictionary
280
     1
281
     1
  3
ACAD_ROUNDTRIP_2008_TABLESTYLE_CELLSTYLEMAP
360
344
  0
XRECORD
  5
1A
102
{ACAD_REACTORS
330
19
102
}
330
19
100
AcDbXrecord
280
     1
310
280000000001000084000000010008000000000000840000000000000000000000010000000000000000000000000000FFFFFF000000000000000000000000000000000000000000000000000000000000000000330000006600000099000000CC000000FF00000000330000333300006633000099330000CC330000FF3300
310
0000660000336600006666000099660000CC660000FF66000000990000339900006699000099990000CC990000FF99000000CC000033CC000066CC000099CC0000CCCC0000FFCC000000FF000033FF000066FF000099FF0000CCFF0000FFFF000000003300330033006600330099003300CC003300FF003300003333003333
310
33006633330099333300CC333300FF33330000663300336633006666330099663300CC663300FF66330000993300339933006699330099993300CC993300FF99330000CC330033CC330066CC330099CC3300CCCC3300FFCC330000FF330033FF330066FF330099FF3300CCFF3300FFFF330000006600330066006600660099
310
006600CC006600FF00660000336600333366006633660099336600CC336600FF33660000666600336666006666660099666600CC666600FF66660000996600339966006699660099996600CC996600FF99660000CC660033CC660066CC660099CC6600CCCC6600FFCC660000FF660033FF660066FF660099FF6600CCFF6600
310
FFFF660000009900330099006600990099009900CC009900FF00990000339900333399006633990099339900CC339900FF33990000669900336699006666990099669900CC669900FF66990000999900339999006699990099999900CC999900FF99990000CC990033CC990066CC990099CC9900CCCC9900FFCC990000FF99
310
0033FF990066FF990099FF9900CCFF9900FFFF99000000CC003300CC006600CC009900CC00CC00CC00FF00CC000033CC003333CC006633CC009933CC00CC33CC00FF33CC000066CC003366CC006666CC009966CC00CC66CC00FF66CC000099CC003399CC006699CC009999CC00CC99CC00FF99CC0000CCCC0033CCCC0066CC
310
CC0099CCCC00CCCCCC00FFCCCC0000FFCC0033FFCC0066FFCC0099FFCC00CCFFCC00FFFFCC000000FF003300FF006600FF009900FF00CC00FF00FF00FF000033FF003333FF006633FF009933FF00CC33FF00FF33FF000066FF003366FF006666FF009966FF00CC66FF00FF66FF000099FF003399FF006699FF009999FF00CC
310
99FF00FF99FF0000CCFF0033CCFF0066CCFF0099CCFF00CCCCFF00FFCCFF0000FFFF0033FFFF0066FFFF0099FFFF00CCFFFF00FFFFFF00000000000D0D0D001A1A1A00282828003535350043434300505050005D5D5D006B6B6B00787878008686860093939300A1A1A100AEAEAE00BBBBBB00C9C9C900D6D6D600E4E4E400
310
F1F1F100FFFFFF0000000000000000000000000000000000000000000000000000000000000000000000000000000000E2E2E2E2E2E2E2E2E2E2E2E2E2E2E2E2E2E2E2E2E2E2E2E2E2E2E2E2E2E2E2E2E2E2E2E2E2E2E2E2E2E2E2E2E2E2E2E2E2E2E2E2E2E2E2E2E2E2E2E2E2E2E2E2E2E2E2E2E2E2E2E2E2E2E2E2E2E2E2
310
E2E2BEBEBEBEBEBEBEBEBEBEBEBEBEBEBEBEBEBEBEBEBEBEBEBEBEBEBEBEBEBEBEBEBEBEBEBEBEBEBEBEBEBEBEBEBEBEBEBEBEBEBEBEBEBEBEBEBEBEBEBEBEBEBEBEBEBEBEBEBEBEBEBEBEBEBEBEBEBEBEBEBEBEBEBEBEBEBEBEBEBEBEBEBEBEE2E2E2E2E2E2E2E2E2E2E2E2E2E2E2E2E2E2E2E2E2E2E2E2E2E2E2E2E2E2E2
310
E2E2E2E2E2E2E2E2E2E2E2E2E2E2E2E2E2E2E2E2E2E2E2E2E2E2E2E2E2E2E2E2E2E2E2E2E2E2E2E2E2E2E2E2E2E2E2E2E2E2E2E2E2E2E2E2E2E2E2E2E2E2E2E2E2E2E2E2E2E2E2E2E2E2E2E2E2E2E2E2E2E2E2E2E2E2E2E2E2E2E2E2E2E2E2E2E2E2E2E2E2E2E2E2E2E2E2E2E2E2E2E2E2E2E2E2E2E2E2E2E2E2E2E2E2E2E2
310
E2E2E2E2BEE2E2E2E2E2E2E2E2E2E2E2E2E2E2E2E2E2E2E2E2E2E2E2E2E2E2E2E2E2E2E2E2E2E2E2E2E2E2E2E2E2E2E2E2E2E2E2E2E2E2E2E2E2E2E2E2E2E2E2E2E2E2E2E2E2E2E2E2E2E2E2E2E2E2E2E2E2E2E2E2E2E2E2E2E2E2E2E2E2E2E2E2BEE2E2E2E2E2E2E2E2E2E2E2E2E2E2E2E2E2E2E2E2E2E2E2E2E2E2E2E2E2
310
E2E2E2E2E2E2E2E2E2E2E2E2E2E2E2E2E2E2E2E2E2E2E2E2E2E2E2E2E2E2E2E2E2E2E2E2E2E2E2E2E2E2E2E2E2E2E2E2E2E2E2E2E2E2E2E2E2E2E2E2E2E2E2E2E2E2E2E2E2E2E2E2E2E2E2E2E2E2E2E2E2E2E2E2E2E2E2E2E2E2E2E2E2E2E2E2E2E2E2E2E2E2E2E2E2E2E2E2E2E2E2E2E2E2E2E2E2E2E2E2E2E2E2E2E2E2E2
310
E2E2E2E2E2E2BEE2E2E2E2E2E2E2E2E2E2E2E2E2E2E2E2E2E2E2E2E2E2E2E2E2E2E2E2E2E2E2E2E2E2E2E2E2E2E2E2E2E2E2E2E2E2E2E2E2E2E2E2E2E2E2E2E2E2E2E2E2E2E2E2E2E2E2E2E2E2E2E2E2E2E2E2E2E2E2E2E2E2E2E2E2E2E2E2E2E2E2E2BEE2E2E2E2E2E2E2E2E2E2E2E2E2E2E2E2E2E2E2E2E2E2E2E2E2E2E2
310
E2E2E2E2E2E2E2E2E2E2E2E2E2E2E2E2E2E2E2E2E2E2E2E2E2E2E2E2E2E2E2E2E2E2E2E2E2E2E2E2E2E2E2E2E2E2E2E2E2E2E2E2E2E2E2E2E2E2E2E2E2E2E2E2E2E2E2E2E2E2E2E2E2E2E2E2E2E2E2E2E2E2E2E2E2E2E2E2E2E2E2E2E2E2E2E2E2E2E2E2E2E2E2E2E2E2E2E2E2E2E2E2E2E2E2E2E2E2E2E2E2E2E2E2E2E2E2
310
E2E2E2E2E2E2E2E2BEE2E2E2E2E2E2E2E2DCDCDCDCDCDCDCDCDCDCDCDCDCDCDCDCDCDCDCDCDCDCDCDCDCDCDCDCDCDCDCDCDCDCDCDCDCDCDCDCDCDCDCDCDCDCDCDCDCDCDCDCDCDCDCDCDCDCDCDCDCDCDCDCDCDCDCDCDCDCDCDCDCDCDCDCDCDCDCDCDCDCE2E2BEE2E2E2E2E2E2E2E2E2E2E2E2E2E2E2E2E2E2E2E2E2E2E2E2E2
310
E2E2E2E2E2E2E2E2E2E2E2E2E2E2E2E2E2E2E2E2E2E2E2E2E2E2E2E2E2E2E2E2E2E2E2E2E2E2E2E2E2E2E2E2E2E2E2E2E2E2E2E2E2E2E2E2E2E2E2E2E2E2E2E2E2E2E2E2E2E2E2E2E2E2E2E2E2E2E2E2E2E2E2E2E2E2E2E2E2E2E2E2E2E2E2E2E2E2E2E2E2E2E2E2E2E2E2E2E2E2E2E2E2E2E2E2E2E2E2E2E2E2E2E2E2E2E2
310
E2E2E2E2E2E2E2E2E2E2BEE2E2E2E2E2E2E2E2DCF5F5F5F5F5E2E2E2E2E2DCF5F5F5F5F5F5E2E2E2E2DCE2E2E2E2E2E2BEBEBEBEBEBEBEBEBEBEE2E2E2DCE2E2E2E2E2E2E2E2E2E2E2E2DCE2E2E2E2E2E2E2E2E2E2E2E2E2DCBEBEBEBEBEBEBEBEE2E2E2DCE2E2BEE2E2E2E2E2E2E2E2E2E2E2E2E2E2E2E2E2E2E2E2E2E2E2
310
E2E2E2E2E2E2E2E2E2E2E2E2E2E2E2E2E2E2E2E2E2E2E2E2E2E2E2E2E2E2E2E2E2E2E2E2E2E2E2E2E2E2E2E2E2E2E2E2E2E2E2E2E2E2E2E2E2E2E2E2E2E2E2E2E2E2E2E2E2E2E2E2E2E2E2E2E2E2E2E2E2E2E2E2E2E2E2E2E2E2E2E2E2E2E2E2E2E2E2E2E2E2E2E2E2E2E2E2E2E2E2E2E2E2E2E2E2E2E2E2E2E2E2E2E2E2E2
310
E2E2E2E2E2E2E2E2E2E2E2E2BEE2E2E2E2E2E2E2E2DCF5F5F5F5F5DCDCDCDCDCDCF5F5F5F5F5F5DCDCDCDCDCE2E2E2E2E2E2BEBEBEBEBEBEBEBEBEBEE2E2E2DCE2E2E2E2E2E2E2E2E2E2E2E2DCE2E2E2E2E2E2E2E2E2E2E2E2E2DCBEBEBEBEBEBEBEBEE2E2E2DCE2E2BEE2E2E2E2E2E2E2E2E2E2E2E2E2E2E2E2E2E2E2E2E2
310
E2E2E2E2E2E2E2E2E2E2E2E2E2E2E2E2E2E2E2E2E2E2E2E2E2E2E2E2E2E2E2E2E2E2E2E2E2E2E2E2E2E2E2E2E2E2E2E2E2E2E2E2E2E2E2E2E2E2E2E2E2E2E2E2E2E2E2E2E2E2E2E2E2E2E2E2E2E2E2E2E2E2E2E2E2E2E2E2E2E2E2E2E2E2E2E2E2E2E2E2E2E2E2E2E2E2E2E2E2E2E2E2E2E2E2E2E2E2E2E2E2E2E2E2E2E2E2
310
E2E2E2E2E2E2E2E2E2E2E2E2E2E2BEE2E2E2E2E2E2E2E2DCE2E2E2DCE2E2E2E2E2E2E2DCE2E2E2E2E2DCE2E2E2DCE2E2BEBEBEBEBEBEBEBEBEBEBEBEBEBEE2E2E2DCF5F5F5F5F5F5F5F5E2E2E2E2DCF5F5E2F5F5F5F5F5F5F5F5E2E2DCF5F5F5F5F5F5F5F5F5E2E2DCE2E2BEE2E2E2E2E2E2E2E2E2E2E2E2E2E2E2E2E2E2E2
310
E2E2E2E2E2E2E2E2E2E2E2E2E2E2E2E2E2E2E2E2E2E2E2E2E2E2E2E2E2E2E2E2E2E2E2E2E2E2E2E2E2E2E2E2E2E2E2E2E2E2E2E2E2E2E2E2E2E2E2E2E2E2E2E2E2E2E2E2E2E2E2E2E2E2E2E2E2E2E2E2E2E2E2E2E2E2E2E2E2E2E2E2E2E2E2E2E2E2E2E2E2E2E2E2E2E2E2E2E2E2E2E2E2E2E2E2E2E2E2E2E2E2E2E2E2E2E2
310
E2E2E2E2E2E2E2E2E2E2E2E2E2E2E2E2BEE2E2E2E2E2E2E2E2DCE2E2E2DCE2E2E2E2E2E2E2DCE2E2E2E2E2DCE2E2E2DCE2E2E2E2E2E2E2E2BEBEBEBEBEBEBEBEE2E2E2DCF5F5F5F5F5E2F5F5E2E2E2E2DCF5F5F5F5F5F5F5F5F5F5F5E2E2DCF5F5F5F5F5E2F5F5F5E2E2DCE2E2BEE2E2E2E2E2E2E2E2E2E2E2E2E2E2E2E2E2
310
E2E2E2E2E2E2E2E2E2E2E2E2E2E2E2E2E2E2E2E2E2E2E2E2E2E2E2E2E2E2E2E2E2E2E2E2E2E2E2E2E2E2E2E2E2E2E2E2E2E2E2E2E2E2E2E2E2E2E2E2E2E2E2E2E2E2E2E2E2E2E2E2E2E2E2E2E2E2E2E2E2E2E2E2E2E2E2E2E2E2E2E2E2E2E2E2E2E2E2E2E2E2E2E2E2E2E2E2E2E2E2E2E2E2E2E2E2E2E2E2E2E2E2E2E2E2E2
310
E2E2E2E2E2E2E2E2E2E2E2E2E2E2E2E2E2E2BEE2E2E2E2E2E2E2E2DCDCDCDCDCDCDCDCDCDCDCDCDCDCDCDCDCDCDCDCDCDCDCE2E2E2E2E2BEBEBEBEBEBEBEBEBEBEBEE2E2E2DCDCDCDCDCDCDCDCDCDCDCDCDCDCBEDCDCDCDCDCDCDCDCDCDCDCDCDCDCDCDCDCDCDCDCDCDCDCDCDCE2E2BEE2E2E2E2E2E2E2E2E2E2E2E2E2E2E2
310
E2E2E2E2E2E2E2E2E2E2E2E2E2E2E2E2E2E2E2E2E2E2E2E2E2E2E2E2E2E2E2E2E2E2E2E2E2E2E2E2E2E2E2E2E2E2E2E2E2E2E2E2E2E2E2E2E2E2E2E2E2E2E2E2E2E2E2E2E2E2E2E2E2E2E2E2E2E2E2E2E2E2E2E2E2E2E2E2E2E2E2E2E2E2E2E2E2E2E2E2E2E2E2E2E2E2E2E2E2E2E2E2E2E2E2E2E2E2E2E2E2E2E2E2E2E2E2
310
E2E2E2E2E2E2E2E2E2E2E2E2E2E2E2E2E2E2E2E2BEE2E2E2E2E2E2E2E2DCE2E2E2DCE2E2E2E2E2E2E2DCE2E2E2E2E2DCE2E2E2DCE2E2E2E2BEBEBEBEBEBEBEBEBEBEBEBEE2E2E2DCBEBEBEBEBEBEBEBEBEBEBEBEBEBEBEBEBEBEBEBEE2BEBEBEBEE2BEBEBEE2E2E2E2E2E2E2E2E2DCE2E2BEE2E2E2E2E2E2E2E2E2E2E2E2E2
310
E2E2E2E2E2E2E2E2E2E2E2E2E2E2E2E2E2E2E2E2E2E2E2E2E2E2E2E2E2E2E2E2E2E2E2E2E2E2E2E2E2E2E2E2E2E2E2E2E2E2E2E2E2E2E2E2E2E2E2E2E2E2E2E2E2E2E2E2E2E2E2E2E2E2E2E2E2E2E2E2E2E2E2E2E2E2E2E2E2E2E2E2E2E2E2E2E2E2E2E2E2E2E2E2E2E2E2E2E2E2E2E2E2E2E2E2E2E2E2E2E2E2E2E2E2E2E2
310
E2E2E2E2E2E2E2E2E2E2E2E2E2E2E2E2E2E2E2E2E2E2BEE2E2E2E2E2E2E2E2DCDCDCDCDCDCDCDCDCDCDCDCDCDCDCDCDCDCDCDCDCDCDCDCDCDCDCDCDCDCDCDCDCDCDCDCDCDCDCDCDCDCDCBEBEBEBEBEBEBEBEBEBEBEBEBEBEBEBEBEBEBEBEE2BEBEBEBEE2BEBEBEE2E2E2E2E2E2E2E2E2DCE2E2BEE2E2E2E2E2E2E2E2E2E2E2
310
E2E2E2E2E2E2E2E2E2E2E2E2E2E2E2E2E2E2E2E2E2E2E2E2E2E2E2E2E2E2E2E2E2E2E2E2E2E2E2E2E2E2E2E2E2E2E2E2E2E2E2E2E2E2E2E2E2E2E2E2E2E2E2E2E2E2E2E2E2E2E2E2E2E2E2E2E2E2E2E2E2E2E2E2E2E2E2E2E2E2E2E2E2E2E2E2E2E2E2E2E2E2E2E2E2E2E2E2E2E2E2E2E2E2E2E2E2E2E2E2E2E2E2E2E2E2E2
310
E2E2E2E2E2E2E2E2E2E2E2E2E2E2E2E2E2E2E2E2E2E2E2E2BEE2E2E2E2E2E2E2E2DCE2E2E2DCE2E2E2E2E2E2E2DCE2E2E2E2E2DCE2E2E2F5F5F5F5DCE2E2E2E2E2DCE2E2E2E2E2E2E2E2E2DCBEE2E2E2E2E2E2E2BEBEE2E2E2E2E2E2E2BEE2E2E2BEBEBEBEE2E2E2BEE2E2E2E2E2E2E2E2E2DCE2E2BEE2E2E2E2E2E2E2E2E2
310
E2E2E2E2E2E2E2E2E2E2E2E2E2E2E2E2E2E2E2E2E2E2E2E2E2E2E2E2E2E2E2E2E2E2E2E2E2E2E2E2E2E2E2E2E2E2E2E2E2E2E2E2E2E2E2E2E2E2E2E2E2E2E2E2E2E2E2E2E2E2E2E2E2E2E2E2E2E2E2E2E2E2E2E2E2E2E2E2E2E2E2E2E2E2E2E2E2E2E2E2E2E2E2E2E2E2E2E2E2E2E2E2E2E2E2E2E2E2E2E2E2E2E2E2E2E2E2
310
E2E2E2E2E2E2E2E2E2E2E2E2E2E2E2E2E2E2E2E2E2E2E2E2E2E2BEE2E2E2E2E2E2E2E2DCDCDCDCDCDCDCDCDCDCDCDCDCDCDCDCDCDCDCDCDCDCDCDCDCDCDCDCDCDCDCDCDCDCDCDCDCDCDCDCDCDCDCBEBEE2E2E2BEBEBEBEBEBEE2E2E2E2E2E2E2E2E2E2E2E2E2E2E2E2E2E2E2E2E2E2E2E2E2E2E2DCE2E2BEE2E2E2E2E2E2E2
310
E2E2E2E2E2E2E2E2E2E2E2E2E2E2E2E2E2E2E2E2E2E2E2E2E2E2E2E2E2E2E2E2E2E2E2E2E2E2E2E2E2E2E2E2E2E2E2E2E2E2E2E2E2E2E2E2E2E2E2E2E2E2E2E2E2E2E2E2E2E2E2E2E2E2E2E2E2E2E2E2E2E2E2E2E2E2E2E2E2E2E2E2E2E2E2E2E2E2E2E2E2E2E2E2E2E2E2E2E2E2E2E2E2E2E2E2E2E2E2E2E2E2E2E2E2E2E2
310
E2E2E2E2E2E2E2E2E2E2E2E2E2E2E2E2E2E2E2E2E2E2E2E2E2E2E2E2BEE2E2E2E2E2E2E2E2DCE2E2E2DCE2E2E2E2E2E2E2DCE2E2E2E2E2DCE2E2E2DCF5F5F5BEBEBEBEBEBEBEBEBEBEBEBEE2E2E2E2DCBEBEBEE2BEBEE2BEBEBEBEE2E2E2E2E2E2E2E2E2E2E2E2E2E2E2E2E2E2E2E2E2E2E2E2E2E2E2DCE2E2BEE2E2E2E2E2
310
E2E2E2E2E2E2E2E2E2E2E2E2E2E2E2E2E2E2E2E2E2E2E2E2E2E2E2E2E2E2E2E2E2E2E2E2E2E2E2E2E2E2E2E2E2E2E2E2E2E2E2E2E2E2E2E2E2E2E2E2E2E2E2E2E2E2E2E2E2E2E2E2E2E2E2E2E2E2E2E2E2E2E2E2E2E2E2E2E2E2E2E2E2E2E2E2E2E2E2E2E2E2E2E2E2E2E2E2E2E2E2E2E2E2E2E2E2E2E2E2E2E2E2E2E2E2E2
310
E2E2E2E2E2E2E2E2E2E2E2E2E2E2E2E2E2E2E2E2E2E2E2E2E2E2E2E2E2E2BEE2E2E2E2E2E2E2E2DCDCDCDCDCDCDCDCDCDCDCDCDCDCDCDCDCDCDCDCDCDCDCDCDCDCBEBEBEBEBEBEBEBEBEDCDCBEDCDCDCDCDCBEBEBEE2E2BEBEBEBEE2E2E2E2E2E2E2E2E2E2E2E2E2E2E2E2E2E2E2E2E2E2E2E2E2E2E2E2E2DCE2E2BEE2E2E2
310
E2E2E2E2E2E2E2E2E2E2E2E2E2E2E2E2E2E2E2E2E2E2E2E2E2E2E2E2E2E2E2E2E2E2E2E2E2E2E2E2E2E2E2E2E2E2E2E2E2E2E2E2E2E2E2E2E2E2E2E2E2E2E2E2E2E2E2E2E2E2E2E2E2E2E2E2E2E2E2E2E2E2E2E2E2E2E2E2E2E2E2E2E2E2E2E2E2E2E2E2E2E2E2E2E2E2E2E2E2E2E2E2E2E2E2E2E2E2E2E2E2E2E2E2E2E2E2
310
E2E2E2E2E2E2E2E2E2E2E2E2E2E2E2E2E2E2E2E2E2E2E2E2E2E2E2E2E2E2E2E2BEE2E2E2E2E2E2E2E2DCF5F5F5F5F5F5F5F5F5E2E2DCF5F5F5F5F5F5F5F5F5F5DCDCDCF5F5F5F5F5F5F5F5F5F5F5F5E2E2E2E2DCF5F5F5F5F5F5F5F5F5F5F5F5F5F5E2E2E2E2E2E2E2E2E2E2E2E2E2E2E2E2E2E2E2E2E2E2E2E2DCE2E2BEE2
310
E2E2E2E2E2E2E2E2E2E2E2E2E2E2E2E2E2E2E2E2E2E2E2E2E2E2E2E2E2E2E2E2E2E2E2E2E2E2E2E2E2E2E2E2E2E2E2E2E2E2E2E2E2E2E2E2E2E2E2E2E2E2E2E2E2E2E2E2E2E2E2E2E2E2E2E2E2E2E2E2E2E2E2E2E2E2E2E2E2E2E2E2E2E2E2E2E2E2E2E2E2E2E2E2E2E2E2E2E2E2E2E2E2E2E2E2E2E2E2E2E2E2E2E2E2E2E2
310
E2E2E2E2E2E2E2E2E2E2E2E2E2E2E2E2E2E2E2E2E2E2E2E2E2E2E2E2E2E2E2E2E2E2BEE2E2E2E2E2E2E2E2DCF5E2F5DCF5F5E2E2E2E2E2DCF5F5F5E2E2DCF5E2E2DCDCDCDCDCF5F5F5F5F5DCF5F5F5F5F5E2E2E2E2DCF5F5F5F5F5F5F5F5F5E2F5F5F5F5E2E2E2E2E2E2E2E2E2E2E2E2E2E2E2E2E2E2E2E2E2E2E2E2DCE2E2
310
BEE2E2E2E2E2E2E2E2E2E2E2E2E2E2E2E2E2E2E2E2E2E2E2E2E2E2E2E2E2E2E2E2E2E2E2E2E2E2E2E2E2E2E2E2E2E2E2E2E2E2E2E2E2E2E2E2E2E2E2E2E2E2E2E2E2E2E2E2E2E2E2E2E2E2E2E2E2E2E2E2E2E2E2E2E2E2E2E2E2E2E2E2E2E2E2E2E2E2E2E2E2E2E2E2E2E2E2E2E2E2E2E2E2E2E2E2E2E2E2E2E2E2E2E2E2E2
310
E2E2E2E2E2E2E2E2E2E2E2E2E2E2E2E2E2E2E2E2E2E2E2E2E2E2E2E2E2E2E2E2E2E2E2E2BEE2E2E2E2E2E2E2E2DCDCDCDCDCDCDCDCDCDCDCDCDCDCDCDCDCDCDCDCDCDCDCDCDCDCDCDCDCDCDCDCDCDCBEBEBEBEBEBEBEBEDCDCDCDCDCDCDCDCDCDCDCDCDCDCDCDCDCDCDCDCDCDCDCDCDCDCDCDCDCDCDCDCDCDCDCDCDCDCDCDC
310
E2E2BEE2E2E2E2E2E2E2E2E2E2E2E2E2E2E2E2E2E2E2E2E2E2E2E2E2E2E2E2E2E2E2E2E2E2E2E2E2E2E2E2E2E2E2E2E2E2E2E2E2E2E2E2E2E2E2E2E2E2E2E2E2E2E2E2E2E2E2E2E2E2E2E2E2E2E2E2E2E2E2E2E2E2E2E2E2E2E2E2E2E2E2E2E2E2E2E2E2E2E2E2E2E2E2E2E2E2E2E2E2E2E2E2E2E2E2E2E2E2E2E2E2E2E2E2
310
E2E2E2E2E2E2E2E2E2E2E2E2E2E2E2E2E2E2E2E2E2E2E2E2E2E2E2E2E2E2E2E2E2E2E2E2E2E2BEE2E2E2E2E2E2E2E2DCE2E2E2E2E2E2E2E2E2E2E2E2E2E2E2E2E2E2E2E2E2DCE2E2E2E2E2E2E2E2E2BEBEBEBEBEBEBEBEBEBEBEE2E2E2E2E2E2E2E2F5E2E2E2E2E2DCE2E2E2E2E2E2E2E2E2E2E2E2E2DCE2E2E2E2E2E2E2E2
310
E2DCE2E2BEE2E2E2E2E2E2E2E2E2E2E2E2E2E2E2E2E2E2E2E2E2E2E2E2E2E2E2E2E2E2E2E2E2E2E2E2E2E2E2E2E2E2E2E2E2E2E2E2E2E2E2E2E2E2E2E2E2E2E2E2E2E2E2E2E2E2E2E2E2E2E2E2E2E2E2E2E2E2E2E2E2E2E2E2E2E2E2E2E2E2E2E2E2E2E2E2E2E2E2E2E2E2E2E2E2E2E2E2E2E2E2E2E2E2E2E2E2E2E2E2E2E2
310
E2E2E2E2E2E2E2E2E2E2E2E2E2E2E2E2E2E2E2E2E2E2E2E2E2E2E2E2E2E2E2E2E2E2E2E2E2E2E2E2BEE2E2E2E2E2E2E2E2DCE2E2E2E2E2E2E2E2E2E2E2E2E2E2E2E2E2E2E2E2E2DCDCDCDCDCDCDCDCDCDCBEBEBEE2BEBEBEBEBEBEBEF5F5F5F5F5F5F5F5F5F5F5E2E2E2F5F5F5F5F5F5F5F5F5F5F5F5E2E2DCE2F5F5F5F5F5
310
F5F5F5F5E2E2BEE2E2E2E2E2E2E2E2E2E2E2E2E2E2E2E2E2E2E2E2E2E2E2E2E2E2E2E2E2E2E2E2E2E2E2E2E2E2E2E2E2E2E2E2E2E2E2E2E2E2E2E2E2E2E2E2E2E2E2E2E2E2E2E2E2E2E2E2E2E2E2E2E2E2E2E2E2E2E2E2E2E2E2E2E2E2E2E2E2E2E2E2E2E2E2E2E2E2E2E2E2E2E2E2E2E2E2E2E2E2E2E2E2E2E2E2E2E2E2E2
310
E2E2E2E2E2E2E2E2E2E2E2E2E2E2E2E2E2E2E2E2E2E2E2E2E2E2E2E2E2E2E2E2E2E2E2E2E2E2E2E2E2E2BEE2E2E2E2E2E2E2E2DCE2E2E2E2E2E2E2E2E2E2E2E2E2E2E2E2E2E2E2E2E2DCE2E2E2E2E2E2E2E2E2DCDCDCDCDCDCDCDCDCDCDCF5DCDCBEBEBEBEBEBEBEDCDCDCDCF5F5DCF5DCF5F5F5DCF5F5DCDCDCDCDCF5F5DC
310
BEBEBEBEBEBEE2E2BEE2E2E2E2E2E2E2E2E2E2E2E2E2E2E2E2E2E2E2E2E2E2E2E2E2E2E2E2E2E2E2E2E2E2E2E2E2E2E2E2E2E2E2E2E2E2E2E2E2E2E2E2E2E2E2E2E2E2E2E2E2E2E2E2E2E2E2E2E2E2E2E2E2E2E2E2E2E2E2E2E2E2E2E2E2E2E2E2E2E2E2E2E2E2E2E2E2E2E2E2E2E2E2E2E2E2E2E2E2E2E2E2E2E2E2E2E2E2
310
E2E2E2E2E2E2E2E2E2E2E2E2E2E2E2E2E2E2E2E2E2E2E2E2E2E2E2E2E2E2E2E2E2E2E2E2E2E2E2E2E2E2E2E2BEE2E2E2E2E2E2E2E2DCE2E2E2E2E2E2E2E2E2E2E2E2E2E2E2E2E2E2E2E2E2DCDCDCDCDCDCDCDCDCDCDCDCDCBEBEBEBEDCDCDCDCE2E2E2BEBEBEBEBEBEBEE2E2E2E2DCE2E2E2E2E2E2E2E2E2E2E2E2E2DCE2E2
310
E2E2BEBEBEBEBEBEE2E2BEE2E2E2E2E2E2E2E2E2E2E2E2E2E2E2E2E2E2E2E2E2E2E2E2E2E2E2E2E2E2E2E2E2E2E2E2E2E2E2E2E2E2E2E2E2E2E2E2E2E2E2E2E2E2E2E2E2E2E2E2E2E2E2E2E2E2E2E2E2E2E2E2E2E2E2E2E2E2E2E2E2E2E2E2E2E2E2E2E2E2E2E2E2E2E2E2E2E2E2E2E2E2E2E2E2E2E2E2E2E2E2E2E2E2E2E2
310
E2E2E2E2E2E2E2E2E2E2E2E2E2E2E2E2E2E2E2E2E2E2E2E2E2E2E2E2E2E2E2E2E2E2E2E2E2E2E2E2E2E2E2E2E2E2BEE2E2E2E2E2E2E2E2DCE2E2E2E2E2E2E2E2E2E2E2E2E2E2E2E2E2E2E2E2E2DCE2F5F5F5F5F5F5F5E2DCE2E2BEBEBEBEE2E2E2DCE2E2E2BEF5BEBEBEBEBEE2E2E2E2DCE2E2F5F5F5F5F5F5F5F5E2E2E2DC
310
E2E2F5BEBEF5BEBEBEBEE2E2BEE2E2E2E2E2E2E2E2E2E2E2E2E2E2E2E2E2E2E2E2E2E2E2E2E2E2E2E2E2E2E2E2E2E2E2E2E2E2E2E2E2E2E2E2E2E2E2E2E2E2E2E2E2E2E2E2E2E2E2E2E2E2E2E2E2E2E2E2E2E2E2E2E2E2E2E2E2E2E2E2E2E2E2E2E2E2E2E2E2E2E2E2E2E2E2E2E2E2E2E2E2E2E2E2E2E2E2E2E2E2E2E2E2E2
310
E2E2E2E2E2E2E2E2E2E2E2E2E2E2E2E2E2E2E2E2E2E2E2E2E2E2E2E2E2E2E2E2E2E2E2E2E2E2E2E2E2E2E2E2E2E2E2E2BEE2E2E2E2E2E2E2E2DCDCDCDCDCDCDCDCDCDCDCDCDCDCDCDCDCDCDCDCDCDCDCDCF5F5F5DCF5DCDCDCDCDCDCF5F5F5F5DCDCDCDCDCDCDCF5F5F5DCF5F5DCDCDCDCDCDCDCDCF5F5F5F5F5F5F5F5DCDC
310
DCDCDCDCF5F5F5F5F5F5DCDCE2E2BEE2E2E2E2E2E2E2E2E2E2E2E2E2E2E2E2E2E2E2E2E2E2E2E2E2E2E2E2E2E2E2E2E2E2E2E2E2E2E2E2E2E2E2E2E2E2E2E2E2E2E2E2E2E2E2E2E2E2E2E2E2E2E2E2E2E2E2E2E2E2E2E2E2E2E2E2E2E2E2E2E2E2E2E2E2E2E2E2E2E2E2E2E2E2E2E2E2E2E2E2E2E2E2E2E2E2E2E2E2E2E2E2
310
E2E2E2E2E2E2E2E2E2E2E2E2E2E2E2E2E2E2E2E2E2E2E2E2E2E2E2E2E2E2E2E2E2E2E2E2E2E2E2E2E2E2E2E2E2E2E2E2E2E2BEE2E2E2E2E2E2E2E2DCE2E2E2E2E2E2E2E2E2E2E2E2E2E2E2E2E2E2E2E2E2E2E2E2E2E2E2E2E2E2E2E2E2E2E2E2E2E2E2E2E2E2E2E2E2E2E2E2E2E2E2E2E2E2E2E2E2E2E2E2E2E2E2E2E2E2E2
310
E2E2E2E2E2E2E2E2E2E2E2E2E2DCE2E2BEE2E2E2E2E2E2E2E2E2E2E2E2E2E2E2E2E2E2E2E2E2E2E2E2E2E2E2E2E2E2E2E2E2E2E2E2E2E2E2E2E2E2E2E2E2E2E2E2E2E2E2E2E2E2E2E2E2E2E2E2E2E2E2E2E2E2E2E2E2E2E2E2E2E2E2E2E2E2E2E2E2E2E2E2E2E2E2E2E2E2E2E2E2E2E2E2E2E2E2E2E2E2E2E2E2E2E2E2E2E2
310
E2E2E2E2E2E2E2E2E2E2E2E2E2E2E2E2E2E2E2E2E2E2E2E2E2E2E2E2E2E2E2E2E2E2E2E2E2E2E2E2E2E2E2E2E2E2E2E2E2E2E2E2BEE2E2E2E2E2E2E2E2DCE2E2E2E2E2E2E2E2E2E2E2E2E2E2E2E2E2E2E2E2E2E2E2E2E2E2E2E2E2E2E2E2E2E2E2E2E2E2E2E2E2E2E2E2E2E2E2E2E2E2E2E2E2E2E2E2E2E2E2E2E2E2E2E2E2
310
E2E2E2E2E2E2E2E2E2E2E2E2E2E2E2DCE2E2BEE2E2E2E2E2E2E2E2E2E2E2E2E2E2E2E2E2E2E2E2E2E2E2E2E2E2E2E2E2E2E2E2E2E2E2E2E2E2E2E2E2E2E2E2E2E2E2E2E2E2E2E2E2E2E2E2E2E2E2E2E2E2E2E2E2E2E2E2E2E2E2E2E2E2E2E2E2E2E2E2E2E2E2E2E2E2E2E2E2E2E2E2E2E2E2E2E2E2E2E2E2E2E2E2E2E2E2E2
310
E2E2E2E2E2E2E2E2E2E2E2E2E2E2E2E2E2E2E2E2E2E2E2E2E2E2E2E2E2E2E2E2E2E2E2E2E2E2E2E2E2E2E2E2E2E2E2E2E2E2E2E2E2E2BEE2E2E2E2E2E2E2E2DCE2E2E2E2E2E2E2E2E2E2E2E2E2E2E2E2E2E2E2E2E2E2E2E2E2E2E2E2E2E2E2E2E2E2E2E2E2E2E2E2E2E2E2E2E2E2E2E2E2E2E2E2E2E2E2E2E2E2E2E2E2E2E2
310
E2E2E2E2E2E2E2E2E2E2E2E2E2E2E2E2E2DCE2E2BEE2E2E2E2E2E2E2E2E2E2E2E2E2E2E2E2E2E2E2E2E2E2E2E2E2E2E2E2E2E2E2E2E2E2E2E2E2E2E2E2E2E2E2E2E2E2E2E2E2E2E2E2E2E2E2E2E2E2E2E2E2E2E2E2E2E2E2E2E2E2E2E2E2E2E2E2E2E2E2E2E2E2E2E2E2E2E2E2E2E2E2E2E2E2E2E2E2E2E2E2E2E2E2E2E2E2
310
E2E2E2E2E2E2E2E2E2E2E2E2E2E2E2E2E2E2E2E2E2E2E2E2E2E2E2E2E2E2E2E2E2E2E2E2E2E2E2E2E2E2E2E2E2E2E2E2E2E2E2E2E2E2E2E2BEE2E2E2E2E2E2E2E2DCE2E2E2E2E2E2E2E2E2E2E2E2E2E2E2E2E2E2E2E2E2E2E2E2E2E2E2E2E2E2E2E2E2E2E2E2E2E2E2E2E2E2E2E2E2E2E2E2E2E2E2E2E2E2E2E2E2E2E2E2E2
310
E2E2E2E2E2E2E2E2E2E2E2E2E2E2E2E2E2E2E2DCE2E2BEE2E2E2E2E2E2E2E2E2E2E2E2E2E2E2E2E2E2E2E2E2E2E2E2E2E2E2E2E2E2E2E2E2E2E2E2E2E2E2E2E2E2E2E2E2E2E2E2E2E2E2E2E2E2E2E2E2E2E2E2E2E2E2E2E2E2E2E2E2E2E2E2E2E2E2E2E2E2E2E2E2E2E2E2E2E2E2E2E2E2E2E2E2E2E2E2E2E2E2E2E2E2E2E2
310
E2E2E2E2E2E2E2E2E2E2E2E2E2E2E2E2E2E2E2E2E2E2E2E2E2E2E2E2E2E2E2E2E2E2E2E2E2E2E2E2E2E2E2E2E2E2E2E2E2E2E2E2E2E2E2E2E2E2BEE2E2E2E2E2E2E2E2DCE2E2E2E2E2E2E2E2E2E2E2E2E2E2E2E2E2E2E2E2E2E2E2E2E2E2E2E2E2E2E2E2E2E2E2E2E2E2E2E2E2E2E2E2E2E2E2E2E2E2E2E2E2E2E2E2E2E2E2
310
E2E2E2E2E2E2E2E2E2E2E2E2E2E2E2E2E2E2E2E2E2DCE2E2BEE2E2E2E2E2E2E2E2E2E2E2E2E2E2E2E2E2E2E2E2E2E2E2E2E2E2E2E2E2E2E2E2E2E2E2E2E2E2E2E2E2E2E2E2E2E2E2E2E2E2E2E2E2E2E2E2E2E2E2E2E2E2E2E2E2E2E2E2E2E2E2E2E2E2E2E2E2E2E2E2E2E2E2E2E2E2E2E2E2E2E2E2E2E2E2E2E2E2E2E2E2E2
310
E2E2E2E2E2E2E2E2E2E2E2E2E2E2E2E2E2E2E2E2E2E2E2E2E2E2E2E2E2E2E2E2E2E2E2E2E2E2E2E2E2E2E2E2E2E2E2E2E2E2E2E2E2E2E2E2E2E2E2E2BEE2E2E2E2E2E2E2E2DCE2E2E2E2E2E2E2E2E2E2E2E2E2E2E2E2E2E2E2E2E2E2E2E2E2E2E2E2E2E2E2E2E2E2E2E2E2E2E2E2E2E2E2E2E2E2E2E2E2E2E2E2E2E2E2E2E2
310
E2E2E2E2E2E2E2E2E2E2E2E2E2E2E2E2E2E2E2E2E2E2E2DCE2E2BEE2E2E2E2E2E2E2E2E2E2E2E2E2E2E2E2E2E2E2E2E2E2E2E2E2E2E2E2E2E2E2E2E2E2E2E2E2E2E2E2E2E2E2E2E2E2E2E2E2E2E2E2E2E2E2E2E2E2E2E2E2E2E2E2E2E2E2E2E2E2E2E2E2E2E2E2E2E2E2E2E2E2E2E2E2E2E2E2E2E2E2E2E2E2E2E2E2E2E2E2
310
E2E2E2E2E2E2E2E2E2E2E2E2E2E2E2E2E2E2E2E2E2E2E2E2E2E2E2E2E2E2E2E2E2E2E2E2E2E2E2E2E2E2E2E2E2E2E2E2E2E2E2E2E2E2E2E2E2E2E2E2E2E2BEE2E2E2E2E2E2E2E2DCE2E2E2E2E2E2E2E2E2E2E2E2E2E2E2E2E2E2E2E2E2E2E2E2E2E2E2E2E2E2E2E2E2E2E2E2E2E2E2E2E2E2E2E2E2E2E2E2E2E2E2E2E2E2E2
310
E2E2E2E2E2E2E2E2E2E2E2E2E2E2E2E2E2E2E2E2E2E2E2E2E2DCE2E2BEE2E2E2E2E2E2E2E2E2E2E2E2E2E2E2E2E2E2E2E2E2E2E2E2E2E2E2E2E2E2E2E2E2E2E2E2E2E2E2E2E2E2E2E2E2E2E2E2E2E2E2E2E2E2E2E2E2E2E2E2E2E2E2E2E2E2E2E2E2E2E2E2E2E2E2E2E2E2E2E2E2E2E2E2E2E2E2E2E2E2E2E2E2E2E2E2E2E2
310
E2E2E2E2E2E2E2E2E2E2E2E2E2E2E2E2E2E2E2E2E2E2E2E2E2E2E2E2E2E2E2E2E2E2E2E2E2E2E2E2E2E2E2E2E2E2E2E2E2E2E2E2E2E2E2E2E2E2E2E2E2E2E2E2BEE2E2E2E2E2E2E2E2DCE2E2E2E2E2E2E2E2E2E2E2E2E2E2E2E2E2E2E2E2E2E2E2E2E2E2E2E2E2E2E2E2E2E2E2E2E2E2E2E2E2E2E2E2E2E2E2E2E2E2E2E2E2
310
E2E2E2E2E2E2E2E2E2E2E2E2E2E2E2E2E2E2E2E2E2E2E2E2E2E2E2DCE2E2BEE2E2E2E2E2E2E2E2E2E2E2E2E2E2E2E2E2E2E2E2E2E2E2E2E2E2E2E2E2E2E2E2E2E2E2E2E2E2E2E2E2E2E2E2E2E2E2E2E2E2E2E2E2E2E2E2E2E2E2E2E2E2E2E2E2E2E2E2E2E2E2E2E2E2E2E2E2E2E2E2E2E2E2E2E2E2E2E2E2E2E2E2E2E2E2E2
310
E2E2E2E2E2E2E2E2E2E2E2E2E2E2E2E2E2E2E2E2E2E2E2E2E2E2E2E2E2E2E2E2E2E2E2E2E2E2E2E2E2E2E2E2E2E2E2E2E2E2E2E2E2E2E2E2E2E2E2E2E2E2E2E2E2E2BEE2E2E2E2E2E2E2E2DCE2E2E2E2E2E2E2E2E2E2E2E2BEBEBEBEBEBEBEBEBEBEBEBEE2E2E2E2E2E2E2E2E2E2E2E2E2E2E2E2E2E2E2E2E2E2E2E2E2E2E2
310
E2E2E2E2E2E2E2E2E2E2E2E2E2E2E2E2E2E2E2E2E2E2E2E2E2E2E2E2E2DCE2E2BEE2E2E2E2E2E2E2E2E2E2E2E2E2E2E2E2E2E2E2E2E2E2E2E2E2E2E2E2E2E2E2E2E2E2E2E2E2E2E2E2E2E2E2E2E2E2E2E2E2E2E2E2E2E2E2E2E2E2E2E2E2E2E2E2E2E2E2E2E2E2E2E2E2E2E2E2E2E2E2E2E2E2E2E2E2E2E2E2E2E2E2E2E2E2
310
E2E2E2E2E2E2E2E2E2E2E2E2E2E2E2E2E2E2E2E2E2E2E2E2E2E2E2E2E2E2E2E2E2E2E2E2E2E2E2E2E2E2E2E2E2E2E2E2E2E2E2E2E2E2E2E2E2E2E2E2E2E2E2E2E2E2E2E2BEE2E2E2E2E2E2E2E2DCE2E2E2E2E2E2E2E2E2E2E2BEBEE2E2E2E2E2E2E2E2BEBEBEBEE2E2E2E2E2E2E2E2E2E2E2E2E2E2E2E2E2E2E2E2E2E2E2E2
310
E2E2E2E2E2E2E2E2E2E2E2E2E2E2E2E2E2E2E2E2E2E2E2E2E2E2E2E2E2E2E2DCE2E2BEE2E2E2E2E2E2E2E2E2E2E2E2E2E2E2E2E2E2E2E2E2E2E2E2E2E2E2E2E2E2E2E2E2E2E2E2E2E2E2E2E2E2E2E2E2E2E2E2E2E2E2E2E2E2E2E2E2E2E2E2E2E2E2E2E2E2E2E2E2E2E2E2E2E2E2E2E2E2E2E2E2E2E2E2E2E2E2E2E2E2E2E2
310
E2E2E2E2E2E2E2E2E2E2E2E2E2E2E2E2E2E2E2E2E2E2E2E2E2E2E2E2E2E2E2E2E2E2E2E2E2E2E2E2E2E2E2E2E2E2E2E2E2E2E2E2E2E2E2E2E2E2E2E2E2E2E2E2E2E2E2E2E2E2BEE2E2E2E2E2E2E2E2DCE2E2E2E2E2E2E2E2E2E2E2BEBEBEBEBEBEBEBEBEBEBEBEBEBEE2E2E2E2E2E2E2E2E2E2E2E2E2E2E2E2E2E2E2E2E2E2
310
E2E2E2E2E2E2E2E2E2E2E2E2E2E2E2E2E2E2E2E2E2E2E2E2E2E2E2E2E2E2E2E2E2DCE2E2BEE2E2E2E2E2E2E2E2E2E2E2E2E2E2E2E2E2E2E2E2E2E2E2E2E2E2E2E2E2E2E2E2E2E2E2E2E2E2E2E2E2E2E2E2E2E2E2E2E2E2E2E2E2E2E2E2E2E2E2E2E2E2E2E2E2E2E2E2E2E2E2E2E2E2E2E2E2E2E2E2E2E2E2E2E2E2E2E2E2E2
310
E2E2E2E2E2E2E2E2E2E2E2E2E2E2E2E2E2E2E2E2E2E2E2E2E2E2E2E2E2E2E2E2E2E2E2E2E2E2E2E2E2E2E2E2E2E2E2E2E2E2E2E2E2E2E2E2E2E2E2E2E2E2E2E2E2E2E2E2E2E2E2E2BEE2E2E2E2E2E2E2E2DCE2E2E2E2E2E2E2E2E2E2E2BEBEF5F5E2E2E2E2E2E2BEBEBEBEE2E2E2E2E2E2E2E2E2E2E2E2E2E2E2E2E2E2E2E2
310
E2E2E2E2E2E2E2E2E2E2E2E2E2E2E2E2E2E2E2E2E2E2E2E2E2E2E2E2E2E2E2E2E2E2E2DCE2E2BEE2E2E2E2E2E2E2E2E2E2E2E2E2E2E2E2E2E2E2E2E2E2E2E2E2E2E2E2E2E2E2E2E2E2E2E2E2E2E2E2E2E2E2E2E2E2E2E2E2E2E2E2E2E2E2E2E2E2E2E2E2E2E2E2E2E2E2E2E2E2E2E2E2E2E2E2E2E2E2E2E2E2E2E2E2E2E2E2
310
E2E2E2E2E2E2E2E2E2E2E2E2E2E2E2E2E2E2E2E2E2E2E2E2E2E2E2E2E2E2E2E2E2E2E2E2E2E2E2E2E2E2E2E2E2E2E2E2E2E2E2E2E2E2E2E2E2E2E2E2E2E2E2E2E2E2E2E2E2E2E2E2E2E2BEE2E2E2E2E2E2E2E2DCE2E2E2E2E2E2E2E2E2E2E2BEBEF5E2E2E2E2E2E2E2BEBEBEBEE2E2E2E2E2E2E2E2E2E2E2E2E2E2E2E2E2E2
310
E2E2E2E2E2E2E2E2E2E2E2E2E2E2E2E2E2E2E2E2E2E2E2E2E2E2E2E2E2E2E2E2E2E2E2E2E2DCE2E2BEE2E2E2E2E2E2E2E2E2E2E2E2E2E2E2E2E2E2E2E2E2E2E2E2E2E2E2E2E2E2E2E2E2E2E2E2E2E2E2E2E2E2E2E2E2E2E2E2E2E2E2E2E2E2E2E2E2E2E2E2E2E2E2E2E2E2E2E2E2E2E2E2E2E2E2E2E2E2E2E2E2E2E2E2E2E2
310
E2E2E2E2E2E2E2E2E2E2E2E2E2E2E2E2E2E2E2E2E2E2E2E2E2E2E2E2E2E2E2E2E2E2E2E2E2E2E2E2E2E2E2E2E2E2E2E2E2E2E2E2E2E2E2E2E2E2E2E2E2E2E2E2E2E2E2E2E2E2E2E2E2E2E2E2BEE2E2E2E2E2E2E2E2DCE2E2E2E2E2E2E2E2E2E2E2BEBEE2E2E2E2E2E2E2E2BEBEBEBEE2E2E2E2E2E2E2E2E2E2E2E2E2E2E2E2
310
E2E2E2E2E2E2E2E2E2E2E2E2E2E2E2E2E2E2E2E2E2E2E2E2E2E2E2E2E2E2E2E2E2E2E2E2E2E2E2DCE2E2BEE2E2E2E2E2E2E2E2E2E2E2E2E2E2E2E2E2E2E2E2E2E2E2E2E2E2E2E2E2E2E2E2E2E2E2E2E2E2E2E2E2E2E2E2E2E2E2E2E2E2E2E2E2E2E2E2E2E2E2E2E2E2E2E2E2E2E2E2E2E2E2E2E2E2E2E2E2E2E2E2E2E2E2E2
310
E2E2E2E2E2E2E2E2E2E2E2E2E2E2E2E2E2E2E2E2E2E2E2E2E2E2E2E2E2E2E2E2E2E2E2E2E2E2E2E2E2E2E2E2E2E2E2E2E2E2E2E2E2E2E2E2E2E2E2E2E2E2E2E2E2E2E2E2E2E2E2E2E2E2E2E2E2E2BEE2E2E2E2E2E2E2E2DCE2E2E2E2E2E2E2E2E2E2E2BEBEE2E2E2F5F5F5F5E2BEBEBEBEE2E2E2E2E2E2E2E2E2E2E2E2E2E2
310
E2E2E2E2E2E2E2E2E2E2E2E2E2E2E2E2E2E2E2E2E2E2E2E2E2E2E2E2E2E2E2E2E2E2E2E2E2E2E2E2E2DCE2E2BEE2E2E2E2E2E2E2E2E2E2E2E2E2E2E2E2E2E2E2E2E2E2E2E2E2E2E2E2E2E2E2E2E2E2E2E2E2E2E2E2E2E2E2E2E2E2E2E2E2E2E2E2E2E2E2E2E2E2E2E2E2E2E2E2E2E2E2E2E2E2E2E2E2E2E2E2E2E2E2E2E2E2
310
E2E2E2E2E2E2E2E2E2E2E2E2E2E2E2E2E2E2E2E2E2E2E2E2E2E2E2E2E2E2E2E2E2E2E2E2E2E2E2E2E2E2E2E2E2E2E2E2E2E2E2E2E2E2E2E2E2E2E2E2E2E2E2E2E2E2E2E2E2E2E2E2E2E2E2E2E2E2E2E2BEE2E2E2E2E2E2E2E2DCE2E2E2E2E2E2E2E2E2E2E2BEBEE2E2F5F5F5F5F5F5BEBEBEBEE2E2E2E2E2E2E2E2E2E2E2E2
310
E2E2E2E2E2E2E2E2E2E2E2E2E2E2E2E2E2E2E2E2E2E2E2E2E2E2E2E2E2E2E2E2E2E2E2E2E2E2E2E2E2E2E2DCE2E2BEE2E2E2E2E2E2E2E2E2E2E2E2E2E2E2E2E2E2E2E2E2E2E2E2E2E2E2E2E2E2E2E2E2E2E2E2E2E2E2E2E2E2E2E2E2E2E2E2E2E2E2E2E2E2E2E2E2E2E2E2E2E2E2E2E2E2E2E2E2E2E2E2E2E2E2E2E2E2E2E2
310
E2E2E2E2E2E2E2E2E2E2E2E2E2E2E2E2E2E2E2E2E2E2E2E2E2E2E2E2E2E2E2E2E2E2E2E2E2E2E2E2E2E2E2E2E2E2E2E2E2E2E2E2E2E2E2E2E2E2E2E2E2E2E2E2E2E2E2E2E2E2E2E2E2E2E2E2E2E2E2E2E2E2BEE2E2E2E2E2E2E2E2DCE2E2E2E2E2E2E2E2E2E2E2BEBEE2E2F5F5E2E2F5F5BEBEBEBEE2E2E2E2E2E2E2E2E2E2
310
E2E2E2E2E2E2E2E2E2E2E2E2E2E2E2E2E2E2E2E2E2E2E2E2E2E2E2E2E2E2E2E2E2E2E2E2E2E2E2E2E2E2E2E2E2DCE2E2BEE2E2E2E2E2E2E2E2E2E2E2E2E2E2E2E2E2E2E2E2E2E2E2E2E2E2E2E2E2E2E2E2E2E2E2E2E2E2E2E2E2E2E2E2E2E2E2E2E2E2E2E2E2E2E2E2E2E2E2E2E2E2E2E2E2E2E2E2E2E2E2E2E2E2E2E2E2E2
310
E2E2E2E2E2E2E2E2E2E2E2E2E2E2E2E2E2E2E2E2E2E2E2E2E2E2E2E2E2E2E2E2E2E2E2E2E2E2E2E2E2E2E2E2E2E2E2E2E2E2E2E2E2E2E2E2E2E2E2E2E2E2E2E2E2E2E2E2E2E2E2E2E2E2E2E2E2E2E2E2E2E2E2E2BEE2E2E2E2E2E2E2E2DCE2E2E2E2E2E2E2E2E2E2E2BEBEE2E2F5F5F5F5F5F5BEBEBEBEE2E2E2E2E2E2E2E2
310
E2E2E2E2E2E2E2E2E2E2E2E2E2E2E2E2E2E2E2E2E2E2E2E2E2E2E2E2E2E2E2E2E2E2E2E2E2E2E2E2E2E2E2E2E2E2E2DCE2E2BEE2E2E2E2E2E2E2E2E2E2E2E2E2E2E2E2E2E2E2E2E2E2E2E2E2E2E2E2E2E2E2E2E2E2E2E2E2E2E2E2E2E2E2E2E2E2E2E2E2E2E2E2E2E2E2E2E2E2E2E2E2E2E2E2E2E2E2E2E2E2E2E2E2E2E2E2
310
E2E2E2E2E2E2E2E2E2E2E2E2E2E2E2E2E2E2E2E2E2E2E2E2E2E2E2E2E2E2E2E2E2E2E2E2E2E2E2E2E2E2E2E2E2E2E2E2E2E2E2E2E2E2E2E2E2E2E2E2E2E2E2E2E2E2E2E2E2E2E2E2E2E2E2E2E2E2E2E2E2E2E2E2E2E2BEE2E2E2E2E2E2E2E2DCE2E2E2E2E2E2E2E2E2E2E2BEBEE2E2E2F5F5F5F5F5BEBEBEBEE2E2E2E2E2E2
310
E2E2E2E2E2E2E2E2E2E2E2E2E2E2E2E2E2E2E2E2E2E2E2E2E2E2E2E2E2E2E2E2E2E2E2E2E2E2E2E2E2E2E2E2E2E2E2E2E2DCE2E2BEE2E2E2E2E2E2E2E2E2E2E2E2E2E2E2E2E2E2E2E2E2E2E2E2E2E2E2E2E2E2E2E2E2E2E2E2E2E2E2E2E2E2E2E2E2E2E2E2E2E2E2E2E2E2E2E2E2E2E2E2E2E2E2E2E2E2E2E2E2E2E2E2E2E2
310
E2E2E2E2E2E2E2E2E2E2E2E2E2E2E2E2E2E2E2E2E2E2E2E2E2E2E2E2E2E2E2E2E2E2E2E2E2E2E2E2E2E2E2E2E2E2E2E2E2E2E2E2E2E2E2E2E2E2E2E2E2E2E2E2E2E2E2E2E2E2E2E2E2E2E2E2E2E2E2E2E2E2E2E2E2E2E2E2BEE2E2E2E2E2E2E2E2DCE2E2E2E2E2E2E2E2E2E2E2BEBEE2E2E2E2F5F5E2E2BEBEBEBEE2E2E2E2
310
E2E2E2E2E2E2E2E2E2E2E2E2E2E2E2E2E2E2E2E2E2E2E2E2E2E2E2E2E2E2E2E2E2E2E2E2E2E2E2E2E2E2E2E2E2E2E2E2E2E2E2DCE2E2BEE2E2E2E2E2E2E2E2E2E2E2E2E2E2E2E2E2E2E2E2E2E2E2E2E2E2E2E2E2E2E2E2E2E2E2E2E2E2E2E2E2E2E2E2E2E2E2E2E2E2E2E2E2E2E2E2E2E2E2E2E2E2E2E2E2E2E2E2E2E2E2E2
310
E2E2E2E2E2E2E2E2E2E2E2E2E2E2E2E2E2E2E2E2E2E2E2E2E2E2E2E2E2E2E2E2E2E2E2E2E2E2E2E2E2E2E2E2E2E2E2E2E2E2E2E2E2E2E2E2E2E2E2E2E2E2E2E2E2E2E2E2E2E2E2E2E2E2E2E2E2E2E2E2E2E2E2E2E2E2E2E2E2E2BEE2E2E2E2E2E2E2E2DCE2E2E2E2E2E2E2E2E2E2E2BEBEE2E2E2E2E2E2E2E2BEBEBEBEE2E2
310
E2E2E2E2E2E2E2E2E2E2E2E2E2E2E2E2E2E2E2E2E2E2E2E2E2E2E2E2E2E2E2E2E2E2E2E2E2E2E2E2E2E2E2E2E2E2E2E2E2E2E2E2E2DCE2E2BEE2E2E2E2E2E2E2E2E2E2E2E2E2E2E2E2E2E2E2E2E2E2E2E2E2E2E2E2E2E2E2E2E2E2E2E2E2E2E2E2E2E2E2E2E2E2E2E2E2E2E2E2E2E2E2E2E2E2E2E2E2E2E2E2E2E2E2E2E2E2
310
E2E2E2E2E2E2E2E2E2E2E2E2E2E2E2E2E2E2E2E2E2E2E2E2E2E2E2E2E2E2E2E2E2E2E2E2E2E2E2E2E2E2E2E2E2E2E2E2E2E2E2E2E2E2E2E2E2E2E2E2E2E2E2E2E2E2E2E2E2E2E2E2E2E2E2E2E2E2E2E2E2E2E2E2E2E2E2E2E2E2E2E2BEE2E2E2E2E2E2E2E2DCE2E2E2E2E2E2E2E2E2E2E2BEBEF5F5F5F5F5F5F5F5BEBEBEBE
310
E2E2E2E2E2E2E2E2E2E2E2E2E2E2E2E2E2E2E2E2E2E2E2E2E2E2E2E2E2E2E2E2E2E2E2E2E2E2E2E2E2E2E2E2E2E2E2E2E2E2E2E2E2E2E2DCE2E2BEE2E2E2E2E2E2E2E2E2E2E2E2E2E2E2E2E2E2E2E2E2E2E2E2E2E2E2E2E2E2E2E2E2E2E2E2E2E2E2E2E2E2E2E2E2E2E2E2E2E2E2E2E2E2E2E2E2E2E2E2E2E2E2E2E2E2E2E2
310
E2E2E2E2E2E2E2E2E2E2E2E2E2E2E2E2E2E2E2E2E2E2E2E2E2E2E2E2E2E2E2E2E2E2E2E2E2E2E2E2E2E2E2E2E2E2E2E2E2E2E2E2E2E2E2E2E2E2E2E2E2E2E2E2E2E2E2E2E2E2E2E2E2E2E2E2E2E2E2E2E2E2E2E2E2E2E2E2E2E2E2E2E2E2BEE2E2E2E2E2E2E2E2DCE2E2E2E2E2E2E2E2E2E2E2BEBEBEF5F5F5F5F5F5BEBEBE
310
BEBEF5E2E2E2E2E2E2E2E2E2E2E2E2E2E2E2E2E2E2E2E2E2E2E2E2E2E2E2E2E2E2E2E2E2E2E2E2E2E2E2E2E2E2E2E2E2E2E2E2E2E2E2E2E2E2DCE2E2BEE2E2E2E2E2E2E2E2E2E2E2E2E2E2E2E2E2E2E2E2E2E2E2E2E2E2E2E2E2E2E2E2E2E2E2E2E2E2E2E2E2E2E2E2E2E2E2E2E2E2E2E2E2E2E2E2E2E2E2E2E2E2E2E2E2E2
310
E2E2E2E2E2E2E2E2E2E2E2E2E2E2E2E2E2E2E2E2E2E2E2E2E2E2E2E2E2E2E2E2E2E2E2E2E2E2E2E2E2E2E2E2E2E2E2E2E2E2E2E2E2E2E2E2E2E2E2E2E2E2E2E2E2E2E2E2E2E2E2E2E2E2E2E2E2E2E2E2E2E2E2E2E2E2E2E2E2E2E2E2E2E2E2E2BEE2E2E2E2E2E2E2E2DCE2E2E2E2E2E2E22D2D2DF5BEF5BEBEBEBEBEBEBEBE
310
BEBEE2BEF5E2E2E2E2E2E2E2E2E2E2E2E2E2E2E2E2E2E2E2E2E2E2E2E2E2E2E2E2E2E2E2E2E2E2E2E2E2E2E2E2E2E2E2E2E2E2E2E2E2E2E2E2E2E2DCE2E2BEE2E2E2E2E2E2E2E2E2E2E2E2E2E2E2E2E2E2E2E2E2E2E2E2E2E2E2E2E2E2E2E2E2E2E2E2E2E2E2E2E2E2E2E2E2E2E2E2E2E2E2E2E2E2E2E2E2E2E2E2E2E2E2E2
310
E2E2E2E2E2E2E2E2E2E2E2E2E2E2E2E2E2E2E2E2E2E2E2E2E2E2E2E2E2E2E2E2E2E2E2E2E2E2E2E2E2E2E2E2E2E2E2E2E2E2E2E2E2E2E2E2E2E2E2E2E2E2E2E2E2E2E2E2E2E2E2E2E2E2E2E2E2E2E2E2E2E2E2E2E2E2E2E2E2E2E2E2E2E2E2E2E2E2BEE2E2E2E2E2E2E2E2DCE2E2E2E2E2E2E22D2DE2F5BEBEBEBEBEBEBEBE
310
BEBEBEBEBEBEF5E2E2E2E2E2E2E2E2E2E2E2E2E2E2E2E2E2E2E2E2E2E2E2E2E2E2E2E2E2E2E2E2E2E2E2E2E2E2E2E2E2E2E2E2E2E2E2E2E2E2E2E2E2E2DCE2E2BEE2E2E2E2E2E2E2E2E2E2E2E2E2E2E2E2E2E2E2E2E2E2E2E2E2E2E2E2E2E2E2E2E2E2E2E2E2E2E2E2E2E2E2E2E2E2E2E2E2E2E2E2E2E2E2E2E2E2E2E2E2E2
310
E2E2E2E2E2E2E2E2E2E2E2E2E2E2E2E2E2E2E2E2E2E2E2E2E2E2E2E2E2E2E2E2E2E2E2E2E2E2E2E2E2E2E2E2E2E2E2E2E2E2E2E2E2E2E2E2E2E2E2E2E2E2E2E2E2E2E2E2E2E2E2E2E2E2E2E2E2E2E2E2E2E2E2E2E2E2E2E2E2E2E2E2E2E2E2E2E2E2E2E2BEE2E2E2E2E2E2E2E2DCE2E2E2E2E2E2E22DE2E2F5F5F5E2E2E2E2
310
F5E2E2E2E2F5E2F5F5E2E2E2E2E2E2E2E2E2E2E2E2E2E2E2E2E2E2E2E2E2E2E2E2E2E2E2E2E2E2E2E2E2E2E2E2E2E2E2E2E2E2E2E2E2E2E2E2E2E2E2E2E2E2DCE2E2BEE2E2E2E2E2E2E2E2E2E2E2E2E2E2E2E2E2E2E2E2E2E2E2E2E2E2E2E2E2E2E2E2E2E2E2E2E2E2E2E2E2E2E2E2E2E2E2E2E2E2E2E2E2E2E2E2E2E2E2E2
310
E2E2E2E2E2E2E2E2E2E2E2E2E2E2E2E2E2E2E2E2E2E2E2E2E2E2E2E2E2E2E2E2E2E2E2E2E2E2E2E2E2E2E2E2E2E2E2E2E2E2E2E2E2E2E2E2E2E2E2E2E2E2E2E2E2E2E2E2E2E2E2E2E2E2E2E2E2E2E2E2E2E2E2E2E2E2E2E2E2E2E2E2E2E2E2E2E2E2E2E2E2E2BEE2E2E2E2E2E2E2E2DCE2E2E2E2E2E2BE2DE2E2F5E2F5E2E2
310
E2E2F5E2E2E2E2F5E2F5F5E2E2E2E2E2E2E2E2E2E2E2E2E2E2E2E2E2E2E2E2E2E2E2E2E2E2E2E2E2E2E2E2E2E2E2E2E2E2E2E2E2E2E2E2E2E2E2E2E2E2E2E2E2E2DCE2E2BEE2E2E2E2E2E2E2E2E2E2E2E2E2E2E2E2E2E2E2E2E2E2E2E2E2E2E2E2E2E2E2E2E2E2E2E2E2E2E2E2E2E2E2E2E2E2E2E2E2E2E2E2E2E2E2E2E2E2
310
E2E2E2E2E2E2E2E2E2E2E2E2E2E2E2E2E2E2E2E2E2E2E2E2E2E2E2E2E2E2E2E2E2E2E2E2E2E2E2E2E2E2E2E2E2E2E2E2E2E2E2E2E2E2E2E2E2E2E2E2E2E2E2E2E2E2E2E2E2E2E2E2E2E2E2E2E2E2E2E2E2E2E2E2E2E2E2E2E2E2E2E2E2E2E2E2E2E2E2E2E2E2E2E2BEE2E2E2E2E2E2E2E2DCE2E2E2E2E2E2BE2DE2E2F5E2F5
310
E2E2E2E2F5E2E2E2E2F5E2F5F5E2E2E2E2E2E2E2E2E2E2E2E2E2E2E2E2E2E2E2E2E2E2E2E2E2E2E2E2E2E2E2E2E2E2E2E2E2E2E2E2E2E2E2E2E2E2E2E2E2E2E2E2E2E2DCE2E2BEE2E2E2E2E2E2E2E2E2E2E2E2E2E2E2E2E2E2E2E2E2E2E2E2E2E2E2E2E2E2E2E2E2E2E2E2E2E2E2E2E2E2E2E2E2E2E2E2E2E2E2E2E2E2E2E2
310
E2E2E2E2E2E2E2E2E2E2E2E2E2E2E2E2E2E2E2E2E2E2E2E2E2E2E2E2E2E2E2E2E2E2E2E2E2E2E2E2E2E2E2E2E2E2E2E2E2E2E2E2E2E2E2E2E2E2E2E2E2E2E2E2E2E2E2E2E2E2E2E2E2E2E2E2E2E2E2E2E2E2E2E2E2E2E2E2E2E2E2E2E2E2E2E2E2E2E2E2E2E2E2E2E2E2BEE2E2E2E2E2E2E2E2DCE2E2E2E2E2E2E22DE2E2F5
310
E2F5E2E2E2E2F5E2E2E2E2F5E2F5F5E2E2E2E2E2E2E2E2E2E2E2E2E2E2E2E2E2E2E2E2E2E2E2E2E2E2E2E2E2E2E2E2E2E2E2E2E2E2E2E2E2E2E2E2E2E2E2E2E2E2E2E2E2E2DCE2E2BEE2E2E2E2E2E2E2E2E2E2E2E2E2E2E2E2E2E2E2E2E2E2E2E2E2E2E2E2E2E2E2E2E2E2E2E2E2E2E2E2E2E2E2E2E2E2E2E2E2E2E2E2E2E2
310
E2E2E2E2E2E2E2E2E2E2E2E2E2E2E2E2E2E2E2E2E2E2E2E2E2E2E2E2E2E2E2E2E2E2E2E2E2E2E2E2E2E2E2E2E2E2E2E2E2E2E2E2E2E2E2E2E2E2E2E2E2E2E2E2E2E2E2E2E2E2E2E2E2E2E2E2E2E2E2E2E2E2E2E2E2E2E2E2E2E2E2E2E2E2E2E2E2E2E2E2E2E2E2E2E2E2E2E2BEE2E2E2E2E2E2E2E2DCE2E2E2E2E2E2E22DE2
310
E2F5E2F5E2E2E2E2F5E2E2E2E2F5E2F5F5E2E2E2E2E2E2E2E2E2E2E2E2E2E2E2E2E2E2E2E2E2E2E2E2E2E2E2E2E2E2E2E2E2E2E2E2E2E2E2E2E2E2E2E2E2E2E2E2E2E2E2E2E2E2DCE2E2BEE2E2E2E2E2E2E2E2E2E2E2E2E2E2E2E2E2E2E2E2E2E2E2E2E2E2E2E2E2E2E2E2E2E2E2E2E2E2E2E2E2E2E2E2E2E2E2E2E2E2E2E2
310
E2E2E2E2E2E2E2E2E2E2E2E2E2E2E2E2E2E2E2E2E2E2E2E2E2E2E2E2E2E2E2E2E2E2E2E2E2E2E2E2E2E2E2E2E2E2E2E2E2E2E2E2E2E2E2E2E2E2E2E2E2E2E2E2E2E2E2E2E2E2E2E2E2E2E2E2E2E2E2E2E2E2E2E2E2E2E2E2E2E2E2E2E2E2E2E2E2E2E2E2E2E2E2E2E2E2E2E2E2E2BEE2E2E2E2E2E2E2E2DCE2E2E2E2E2E2E2
310
2D2DE2F5F5F5F5F5F5F5F5F5F5F5F5F5F5F5F5E2E2E2E2E2E2E2E2E2E2E2E2E2E2E2E2E2E2E2E2E2E2E2E2E2E2E2E2E2E2E2E2E2E2E2E2E2E2E2E2E2E2E2E2E2E2E2E2E2E2E2E2E2E2DCE2E2BEE2E2E2E2E2E2E2E2E2E2E2E2E2E2E2E2E2E2E2E2E2E2E2E2E2E2E2E2E2E2E2E2E2E2E2E2E2E2E2E2E2E2E2E2E2E2E2E2E2E2
310
E2E2E2E2E2E2E2E2E2E2E2E2E2E2E2E2E2E2E2E2E2E2E2E2E2E2E2E2E2E2E2E2E2E2E2E2E2E2E2E2E2E2E2E2E2E2E2E2E2E2E2E2E2E2E2E2E2E2E2E2E2E2E2E2E2E2E2E2E2E2E2E2E2E2E2E2E2E2E2E2E2E2E2E2E2E2E2E2E2E2E2E2E2E2E2E2E2E2E2E2E2E2E2E2E2E2E2E2E2E2E2E2BEE2E2E2E2E2E2E2E2DCE2E2E2E2E2
310
E2E2F52D2DF5F5F5F5F5F5F5F5F5F5F5F5F5F5F5F5E2E2E2E2E2E2E2E2E2E2E2E2E2E2E2E2E2E2E2E2E2E2E2E2E2E2E2E2E2E2E2E2E2E2E2E2E2E2E2E2E2E2E2E2E2E2E2E2E2E2E2E2E2E2DCE2E2BEE2E2E2E2E2E2E2E2E2E2E2E2E2E2E2E2E2E2E2E2E2E2E2E2E2E2E2E2E2E2E2E2E2E2E2E2E2E2E2E2E2E2E2E2E2E2E2E2
310
E2E2E2E2E2E2E2E2E2E2E2E2E2E2E2E2E2E2E2E2E2E2E2E2E2E2E2E2E2E2E2E2E2E2E2E2E2E2E2E2E2E2E2E2E2E2E2E2E2E2E2E2E2E2E2E2E2E2E2E2E2E2E2E2E2E2E2E2E2E2E2E2E2E2E2E2E2E2E2E2E2E2E2E2E2E2E2E2E2E2E2E2E2E2E2E2E2E2E2E2E2E2E2E2E2E2E2E2E2E2E2E2E2E2BEE2E2E2E2E2E2E2E2DCE2E2E2
310
E2E2E2E2E2E2E22DE2E2E2E2E2E2E2E2E2E2E2E2E2E22DE2E2E2E2E2E2E2E2E2E2E2E2E2E2E2E2E2E2E2E2E2E2E2E2E2E2E2E2E2E2E2E2E2E2E2E2E2E2E2E2E2E2E2E2E2E2E2E2E2E2E2E2E2E2DCE2E2BEE2E2E2E2E2E2E2E2E2E2E2E2E2E2E2E2E2E2E2E2E2E2E2E2E2E2E2E2E2E2E2E2E2E2E2E2E2E2E2E2E2E2E2E2E2E2
310
E2E2E2E2E2E2E2E2E2E2E2E2E2E2E2E2E2E2E2E2E2E2E2E2E2E2E2E2E2E2E2E2E2E2E2E2E2E2E2E2E2E2E2E2E2E2E2E2E2E2E2E2E2E2E2E2E2E2E2E2E2E2E2E2E2E2E2E2E2E2E2E2E2E2E2E2E2E2E2E2E2E2E2E2E2E2E2E2E2E2E2E2E2E2E2E2E2E2E2E2E2E2E2E2E2E2E2E2E2E2E2E2E2E2E2E2BEE2E2E2E2E2E2E2E2DCE2
310
E2E2E2E2E2E2E2E2E22D2D2D2D2D2D2DBE2D2D2D2D2D2D2DF5E2E2E2E2E2E2E2E2E2E2E2E2E2E2E2E2E2E2E2E2E2E2E2E2E2E2E2E2E2E2E2E2E2E2E2E2E2E2E2E2E2E2E2E2E2E2E2E2E2E2E2E2E2E2DCE2E2BEE2E2E2E2E2E2E2E2E2E2E2E2E2E2E2E2E2E2E2E2E2E2E2E2E2E2E2E2E2E2E2E2E2E2E2E2E2E2E2E2E2E2E2E2
310
E2E2E2E2E2E2E2E2E2E2E2E2E2E2E2E2E2E2E2E2E2E2E2E2E2E2E2E2E2E2E2E2E2E2E2E2E2E2E2E2E2E2E2E2E2E2E2E2E2E2E2E2E2E2E2E2E2E2E2E2E2E2E2E2E2E2E2E2E2E2E2E2E2E2E2E2E2E2E2E2E2E2E2E2E2E2E2E2E2E2E2E2E2E2E2E2E2E2E2E2E2E2E2E2E2E2E2E2E2E2E2E2E2E2E2E2E2E2BEE2E2E2E2E2E2E2E2
310
DCE2E2E2E2E2E2E2E2E2E2E2E2E2E2E2E2E2E2E2E2E2E2E2E2E2E2E2E2E2E2E2E2E2E2E2E2E2E2E2E2E2E2E2E2E2E2E2E2E2E2E2E2E2E2E2E2E2E2E2E2E2E2E2E2E2E2E2E2E2E2E2E2E2E2E2E2E2E2E2E2DCE2E2BEE2E2E2E2E2E2E2E2E2E2E2E2E2E2E2E2E2E2E2E2E2E2E2E2E2E2E2E2E2E2E2E2E2E2E2E2E2E2E2E2E2E2
310
E2E2E2E2E2E2E2E2E2E2E2E2E2E2E2E2E2E2E2E2E2E2E2E2E2E2E2E2E2E2E2E2E2E2E2E2E2E2E2E2E2E2E2E2E2E2E2E2E2E2E2E2E2E2E2E2E2E2E2E2E2E2E2E2E2E2E2E2E2E2E2E2E2E2E2E2E2E2E2E2E2E2E2E2E2E2E2E2E2E2E2E2E2E2E2E2E2E2E2E2E2E2E2E2E2E2E2E2E2E2E2E2E2E2E2E2E2E2E2E2BEE2E2E2E2E2E2
310
E2E2DCE2E2E2E2E2E2E2E2E2E2E2E2E2E2E2E2E2E2E2E2E2E2E2E2E2E2E2E2E2E2E2E2E2E2E2E2E2E2E2E2E2E2E2E2E2E2E2E2E2E2E2E2E2E2E2E2E2E2E2E2E2E2E2E2E2E2E2E2E2E2E2E2E2E2E2E2E2E2E2E2DCE2E2BEE2E2E2E2E2E2E2E2E2E2E2E2E2E2E2E2E2E2E2E2E2E2E2E2E2E2E2E2E2E2E2E2E2E2E2E2E2E2E2E2
310
E2E2E2E2E2E2E2E2E2E2E2E2E2E2E2E2E2E2E2E2E2E2E2E2E2E2E2E2E2E2E2E2E2E2E2E2E2E2E2E2E2E2E2E2E2E2E2E2E2E2E2E2E2E2E2E2E2E2E2E2E2E2E2E2E2E2E2E2E2E2E2E2E2E2E2E2E2E2E2E2E2E2E2E2E2E2E2E2E2E2E2E2E2E2E2E2E2E2E2E2E2E2E2E2E2E2E2E2E2E2E2E2E2E2E2E2E2E2E2E2E2E2BEE2E2E2E2
310
E2E2E2E2DCE2E2E2E2E2E2E2E2E2E2E2E2E2E2E2E2E2E2E2E2E2E2E2E2E2E2E2E2E2E2E2E2E2E2E2E2E2E2E2E2E2E2E2E2E2E2E2E2E2E2E2E2E2E2E2E2E2E2E2E2E2E2E2E2E2E2E2E2E2E2E2E2E2E2E2E2E2E2E2E2DCE2E2BEE2E2E2E2E2E2E2E2E2E2E2E2E2E2E2E2E2E2E2E2E2E2E2E2E2E2E2E2E2E2E2E2E2E2E2E2E2E2
310
E2E2E2E2E2E2E2E2E2E2E2E2E2E2E2E2E2E2E2E2E2E2E2E2E2E2E2E2E2E2E2E2E2E2E2E2E2E2E2E2E2E2E2E2E2E2E2E2E2E2E2E2E2E2E2E2E2E2E2E2E2E2E2E2E2E2E2E2E2E2E2E2E2E2E2E2E2E2E2E2E2E2E2E2E2E2E2E2E2E2E2E2E2E2E2E2E2E2E2E2E2E2E2E2E2E2E2E2E2E2E2E2E2E2E2E2E2E2E2E2E2E2E2E2BEE2E2
310
E2E2E2E2E2E2DCE2E2E2E2E2E2E2E2E2E2E2E2E2E2E2E2E2E2E2E2E2E2E2E2E2E2E2E2E2E2E2E2E2E2E2E2E2E2E2E2E2E2E2E2E2E2E2E2E2E2E2E2E2E2E2E2E2E2E2E2E2E2E2E2E2E2E2E2E2E2E2E2E2E2E2E2E2E2E2E2DCE2E2BEE2E2E2E2E2E2E2E2E2E2E2E2E2E2E2E2E2E2E2E2E2E2E2E2E2E2E2E2E2E2E2E2E2E2E2E2
310
E2E2E2E2E2E2E2E2E2E2E2E2E2E2E2E2E2E2E2E2E2E2E2E2E2E2E2E2E2E2E2E2E2E2E2E2E2E2E2E2E2E2E2E2E2E2E2E2E2E2E2E2E2E2E2E2E2E2E2E2E2E2E2E2E2E2E2E2E2E2E2E2E2E2E2E2E2E2E2E2E2E2E2E2E2E2E2E2E2E2E2E2E2E2E2E2E2E2E2E2E2E2E2E2E2E2E2E2E2E2E2E2E2E2E2E2E2E2E2E2E2E2E2E2E2E2BE
310
E2E2E2E2E2E2E2E2DCE2E2E2E2E2E2E2E2E2E2E2E2E2E2E2E2E2E2E2E2E2E2E2E2E2E2E2E2E2E2E2E2E2E2E2E2E2E2E2E2E2E2E2E2E2E2E2E2E2E2E2E2E2E2E2E2E2E2E2E2E2E2E2E2E2E2E2E2E2E2E2E2E2E2E2E2E2E2E2E2DCE2E2BEE2E2E2E2E2E2E2E2E2E2E2E2E2E2E2E2E2E2E2E2E2E2E2E2E2E2E2E2E2E2E2E2E2E2
310
E2E2E2E2E2E2E2E2E2E2E2E2E2E2E2E2E2E2E2E2E2E2E2E2E2E2E2E2E2E2E2E2E2E2E2E2E2E2E2E2E2E2E2E2E2E2E2E2E2E2E2E2E2E2E2E2E2E2E2E2E2E2E2E2E2E2E2E2E2E2E2E2E2E2E2E2E2E2E2E2E2E2E2E2E2E2E2E2E2E2E2E2E2E2E2E2E2E2E2E2E2E2E2E2E2E2E2E2E2E2E2E2E2E2E2E2E2E2E2E2E2E2E2E2E2E2E2
310
E2BEE2E2E2E2E2E2E2E2DCE2E2E2E2E2E2E2E2E2E2E2E2E2E2E2E2E2E2E2E2E2E2E2E2E2E2E2E2E2E2E2E2E2E2E2E2E2E2E2E2E2E2E2E2E2E2E2E2E2E2E2E2E2E2E2E2E2E2E2E2E2E2E2E2E2E2E2E2E2E2E2E2E2E2E2E2E2E2E2E2DCE2E2BEE2E2E2E2E2E2E2E2E2E2E2E2E2E2E2E2E2E2E2E2E2E2E2E2E2E2E2E2E2E2E2E2
310
E2E2E2E2E2E2E2E2E2E2E2E2E2E2E2E2E2E2E2E2E2E2E2E2E2E2E2E2E2E2E2E2E2E2E2E2E2E2E2E2E2E2E2E2E2E2E2E2E2E2E2E2E2E2E2E2E2E2E2E2E2E2E2E2E2E2E2E2E2E2E2E2E2E2E2E2E2E2E2E2E2E2E2E2E2E2E2E2E2E2E2E2E2E2E2E2E2E2E2E2E2E2E2E2E2E2E2E2E2E2E2E2E2E2E2E2E2E2E2E2E2E2E2E2E2E2E2
310
E2E2E2BEE2E2E2E2E2E2E2E2DCE2E2E2E2E2E2E2E2E2E2E2E2E2E2E2E2E2E2E2E2E2E2E2E2E2E2E2E2E2E2E2E2E2E2E2E2E2E2E2E2E2E2E2E2E2E2E2E2E2E2E2E2E22D2DE2E2E2E2E2E2E2E2E2E2E2E2E2E2E2E2E2E22D2DE2E2E2E2E2DCE2E2BEE2E2E2E2E2E2E2E2E2E2E2E2E2E2E2E2E2E2E2E2E2E2E2E2E2E2E2E2E2E2
310
E2E2E2E2E2E2E2E2E2E2E2E2E2E2E2E2E2E2E2E2E2E2E2E2E2E2E2E2E2E2E2E2E2E2E2E2E2E2E2E2E2E2E2E2E2E2E2E2E2E2E2E2E2E2E2E2E2E2E2E2E2E2E2E2E2E2E2E2E2E2E2E2E2E2E2E2E2E2E2E2E2E2E2E2E2E2E2E2E2E2E2E2E2E2E2E2E2E2E2E2E2E2E2E2E2E2E2E2E2E2E2E2E2E2E2E2E2E2E2E2E2E2E2E2E2E2E2
310
E2E2E2E2E2BEE2E2E2E2E2E2E2E2DCE2E2E2E2E2E2E2E2E2E2E2E2E2E2E2E2E2E2E2E2E2E2E2E2E2E2E2E2E2E2E2E2E2E2E2E2E2E2E2E2E2E2E2E2E2E2E2E2E2E2E2E2E22D2D2D2D2D2D2D2D2DBEBE2D2D2D2D2D2D2D2D2D2DF5E2E2E2E2E2DCE2E2BEE2E2E2E2E2E2E2E2E2E2E2E2E2E2E2E2E2E2E2E2E2E2E2E2E2E2E2E2
310
E2E2E2E2E2E2E2E2E2E2E2E2E2E2E2E2E2E2E2E2E2E2E2E2E2E2E2E2E2E2E2E2E2E2E2E2E2E2E2E2E2E2E2E2E2E2E2E2E2E2E2E2E2E2E2E2E2E2E2E2E2E2E2E2E2E2E2E2E2E2E2E2E2E2E2E2E2E2E2E2E2E2E2E2E2E2E2E2E2E2E2E2E2E2E2E2E2E2E2E2E2E2E2E2E2E2E2E2E2E2E2E2E2E2E2E2E2E2E2E2E2E2E2E2E2E2E2
310
E2E2E2E2E2E2E2BEE2E2E2E2E2E2E2E2DCE2E2E2E2E2E2E2E2E2E22D2DE2E2E2E2E22D2DE2E2E2E2E22D2DE2E2E2E2E2E2E2E2E2E2E2E2E2E2E2E2E2E2E2E2E2E2E2E2E2E2E22D2DE2E2E2E2E2E2E2E2E2E2E2E2E2E2E22D2DE2E22DE2E2E2E2E2DCE2E2BEE2E2E2E2E2E2E2E2E2E2E2E2E2E2E2E2E2E2E2E2E2E2E2E2E2E2
310
E2E2E2E2E2E2E2E2E2E2E2E2E2E2E2E2E2E2E2E2E2E2E2E2E2E2E2E2E2E2E2E2E2E2E2E2E2E2E2E2E2E2E2E2E2E2E2E2E2E2E2E2E2E2E2E2E2E2E2E2E2E2E2E2E2E2E2E2E2E2E2E2E2E2E2E2E2E2E2E2E2E2E2E2E2E2E2E2E2E2E2E2E2E2E2E2E2E2E2E2E2E2E2E2E2E2E2E2E2E2E2E2E2E2E2E2E2E2E2E2E2E2E2E2E2E2E2
310
E2E2E2E2E2E2E2E2E2BEE2E2E2E2E2E2E2E2DCE2E2E2E2E2E2E2E2E2E2F52D2DBEBE2D2D2D2D2DBEBEBE2D2D2DE2E2E2E2E2E2E2E2E2E2E2E2E2E2E2E2E2E2E2E2E2E2E2E2E2E2E22D2D2D2D2D2D2D2DBEBE2D2D2D2D2D2D2D2DF5E2E22DE2E2E2E2E2DCE2E2BEE2E2E2E2E2E2E2E2E2E2E2E2E2E2E2E2E2E2E2E2E2E2E2E2
310
E2E2E2E2E2E2E2E2E2E2E2E2E2E2E2E2E2E2E2E2E2E2E2E2E2E2E2E2E2E2E2E2E2E2E2E2E2E2E2E2E2E2E2E2E2E2E2E2E2E2E2E2E2E2E2E2E2E2E2E2E2E2E2E2E2E2E2E2E2E2E2E2E2E2E2E2E2E2E2E2E2E2E2E2E2E2E2E2E2E2E2E2E2E2E2E2E2E2E2E2E2E2E2E2E2E2E2E2E2E2E2E2E2E2E2E2E2E2E2E2E2E2E2E2E2E2E2
310
E2E2E2E2E2E2E2E2E2E2E2BEE2E2E2E2E2E2E2E2DCE2E2E2E2E2E2E2E2E2E22DE2E2E2E2E2E2E22DE2E2E2E2E2E22DE2E2E2E2E2E2E2E2E2E2E2E2E2E2E2E2E2E2E2E2E2E2E2E2E2E2E22DE2E2E2E2E2E2E2E2E2E2E2E2E2E2E2E2E22DE2E22DE2E2E2E2E2DCE2E2BEE2E2E2E2E2E2E2E2E2E2E2E2E2E2E2E2E2E2E2E2E2E2
310
E2E2E2E2E2E2E2E2E2E2E2E2E2E2E2E2E2E2E2E2E2E2E2E2E2E2E2E2E2E2E2E2E2E2E2E2E2E2E2E2E2E2E2E2E2E2E2E2E2E2E2E2E2E2E2E2E2E2E2E2E2E2E2E2E2E2E2E2E2E2E2E2E2E2E2E2E2E2E2E2E2E2E2E2E2E2E2E2E2E2E2E2E2E2E2E2E2E2E2E2E2E2E2E2E2E2E2E2E2E2E2E2E2E2E2E2E2E2E2E2E2E2E2E2E2E2E2
310
E2E2E2E2E2E2E2E2E2E2E2E2E2BEE2E2E2E2E2E2E2E2DCE2E2E2E2E2E2E2E2E2E22DE2E2E2E2E2E2E22DE2E2E2E2E2E22DE2E2E2E2E2E2E2E2E2E2E2E2E2E2E2E2E2E2E2E2E2E2E2E2E2E2E2F5E2E2E2E2E2E2E2E2E2E2E2E2E2E2E2E2E22DE2E22DE2E2E2E2E2DCE2E2BEE2E2E2E2E2E2E2E2E2E2E2E2E2E2E2E2E2E2E2E2
310
E2E2E2E2E2E2E2E2E2E2E2E2E2E2E2E2E2E2E2E2E2E2E2E2E2E2E2E2E2E2E2E2E2E2E2E2E2E2E2E2E2E2E2E2E2E2E2E2E2E2E2E2E2E2E2E2E2E2E2E2E2E2E2E2E2E2E2E2E2E2E2E2E2E2E2E2E2E2E2E2E2E2E2E2E2E2E2E2E2E2E2E2E2E2E2E2E2E2E2E2E2E2E2E2E2E2E2E2E2E2E2E2E2E2E2E2E2E2E2E2E2E2E2E2E2E2E2
310
E2E2E2E2E2E2E2E2E2E2E2E2E2E2E2BEE2E2E2E2E2E2E2E2DCE2E22DF52D2D2D2D2DF5F5F5F5F5F5F5F5F52DF5F5F5F5F5F52D2D2DF52DE2E2E2E2E2E2E2E2E2E2E2E2E2E2E2E2E2E2E2E2E2E2E2F5F5F5F5E2E2E2F5F5F5E2E2E2E2E2E2E2E22DE2E22DE2E2E2E2E2DCE2E2BEE2E2E2E2E2E2E2E2E2E2E2E2E2E2E2E2E2E2
310
E2E2E2E2E2E2E2E2E2E2E2E2E2E2E2E2E2E2E2E2E2E2E2E2E2E2E2E2E2E2E2E2E2E2E2E2E2E2E2E2E2E2E2E2E2E2E2E2E2E2E2E2E2E2E2E2E2E2E2E2E2E2E2E2E2E2E2E2E2E2E2E2E2E2E2E2E2E2E2E2E2E2E2E2E2E2E2E2E2E2E2E2E2E2E2E2E2E2E2E2E2E2E2E2E2E2E2E2E2E2E2E2E2E2E2E2E2E2E2E2E2E2E2E2E2E2E2
310
E2E2E2E2E2E2E2E2E2E2E2E2E2E2E2E2E2BEE2E2E2E2E2E2E2E2DCE2E2E22DE2E2E22DE2E2F5F5BEBEBE2D2D2D2DF52DBEBEBEBEBEBEBEBEBEBEBEBEBEBEBEBEBEBEBEBEBEBEBEBEBEBEE2E2E2E2E2E2F5E2E2E2F5F5F5F5F5F5E2E2E2E2E2E2E2E22DE2E22DE2E2E2E2E2DCE2E2BEE2E2E2E2E2E2E2E2E2E2E2E2E2E2E2E2
310
E2E2E2E2E2E2E2E2E2E2E2E2E2E2E2E2E2E2E2E2E2E2E2E2E2E2E2E2E2E2E2E2E2E2E2E2E2E2E2E2E2E2E2E2E2E2E2E2E2E2E2E2E2E2E2E2E2E2E2E2E2E2E2E2E2E2E2E2E2E2E2E2E2E2E2E2E2E2E2E2E2E2E2E2E2E2E2E2E2E2E2E2E2E2E2E2E2E2E2E2E2E2E2E2E2E2E2E2E2E2E2E2E2E2E2E2E2E2E2E2E2E2E2E2E2E2E2
310
E2E2E2E2E2E2E2E2E2E2E2E2E2E2E2E2E2E2E2BEE2E2E2E2E2E2E2E2DCE2E2E22DE2E2E22DE2E228F5BEE2E2E2E22D2DBEBEE2BEE2E2BEE2BE2DE2E2F5F5F5F5F5F5F5F5F5F5E2E2E2E2BEE2E2E2E2E2E2E2F5E2E2E2E2E2E2E2F5E2E2E2E2E2E2E2E2E2F5F5E22DE2E2E2E2E2DCE2E2BEE2E2E2E2E2E2E2E2E2E2E2E2E2E2
310
E2E2E2E2E2E2E2E2E2E2E2E2E2E2E2E2E2E2E2E2E2E2E2E2E2E2E2E2E2E2E2E2E2E2E2E2E2E2E2E2E2E2E2E2E2E2E2E2E2E2E2E2E2E2E2E2E2E2E2E2E2E2E2E2E2E2E2E2E2E2E2E2E2E2E2E2E2E2E2E2E2E2E2E2E2E2E2E2E2E2E2E2E2E2E2E2E2E2E2E2E2E2E2E2E2E2E2E2E2E2E2E2E2E2E2E2E2E2E2E2E2E2E2E2E2E2E2
310
E2E2E2E2E2E2E2E2E2E2E2E2E2E2E2E2E2E2E2E2E2BEE2E2E2E2E2E2E2E2DCE2E2E22DE2E2E22DE2E2F5F5F5F5F52DF52DF52DF5F5F5F5E2BEE2BE2DE2E2E2E2E2E2E2E2E2E2E2E2E2E2E2E2BEE2E2E2E2E2E2E2F5E2E2E2E2E2F5F5F5F5F5F5F5F5F5F5F5F5F5F5F5F5E2E2E2E2E2DCE2E2BEE2E2E2E2E2E2E2E2E2E2E2E2
310
E2E2E2E2E2E2E2E2E2E2E2E2E2E2E2E2E2E2E2E2E2E2E2E2E2E2E2E2E2E2E2E2E2E2E2E2E2E2E2E2E2E2E2E2E2E2E2E2E2E2E2E2E2E2E2E2E2E2E2E2E2E2E2E2E2E2E2E2E2E2E2E2E2E2E2E2E2E2E2E2E2E2E2E2E2E2E2E2E2E2E2E2E2E2E2E2E2E2E2E2E2E2E2E2E2E2E2E2E2E2E2E2E2E2E2E2E2E2E2E2E2E2E2E2E2E2E2
310
E2E2E2E2E2E2E2E2E2E2E2E2E2E2E2E2E2E2E2E2E2E2E2BEE2E2E2E2E2E2E2E2DCE2E2E22DE2E2E22DE2E2F5E2F5E2E2F5F5F5BEF5E2E2BEF5E2BEBEBEBEBEBEBEBEBEBEBEBEBEBEBEBEBEBEBEBEBEE2E2E2E2E2E2E2F5E2F5F5F5F5E2E2F5E2F5E2E2E2E2E2E2E2E2E2E2F5E2E2E2E2E2DCE2E2BEE2E2E2E2E2E2E2E2E2E2
310
E2E2E2E2E2E2E2E2E2E2E2E2E2E2E2E2E2E2E2E2E2E2E2E2E2E2E2E2E2E2E2E2E2E2E2E2E2E2E2E2E2E2E2E2E2E2E2E2E2E2E2E2E2E2E2E2E2E2E2E2E2E2E2E2E2E2E2E2E2E2E2E2E2E2E2E2E2E2E2E2E2E2E2E2E2E2E2E2E2E2E2E2E2E2E2E2E2E2E2E2E2E2E2E2E2E2E2E2E2E2E2E2E2E2E2E2E2E2E2E2E2E2E2E2E2E2E2
310
E2E2E2E2E2E2E2E2E2E2E2E2E2E2E2E2E2E2E2E2E2E2E2E2E2BEE2E2E2E2E2E2E2E2DCE2E2E22DE2E2E22DE2E2F5E2F5E2BE2DE2BEBE28E2E2BEF5E2BEE2E22DE2E2E2E2E2E2E2E2E2E2E2E2BEBEE2E2E2E2E2E2E2E2E2E2F5E2F5E2E2E2E2E2F5E2F5E2E2E2E2E2E2E2E2E2E2F5E2E2E2E2E2DCE2E2BEE2E2E2E2E2E2E2E2
310
E2E2E2E2E2E2E2E2E2E2E2E2E2E2E2E2E2E2E2E2E2E2E2E2E2E2E2E2E2E2E2E2E2E2E2E2E2E2E2E2E2E2E2E2E2E2E2E2E2E2E2E2E2E2E2E2E2E2E2E2E2E2E2E2E2E2E2E2E2E2E2E2E2E2E2E2E2E2E2E2E2E2E2E2E2E2E2E2E2E2E2E2E2E2E2E2E2E2E2E2E2E2E2E2E2E2E2E2E2E2E2E2E2E2E2E2E2E2E2E2E2E2E2E2E2E2E2
310
E2E2E2E2E2E2E2E2E2E2E2E2E2E2E2E2E2E2E2E2E2E2E2E2E2E2E2BEE2E2E2E2E2E2E2E2DCE2E2E22DE2E2E22DE2E2F5E2F5E2E22D2DF5F52D2D2D2D2D2D2D2D2D2D2DE2E2E2E2E2E2E2E2E2E2E2BEE2E2E2E2E2E2E2E2E2E2BEBEBEF5E2E2E2E2E2F5E2F5E2E2E2E2E2E2E2E2E2E2F5E2E2E2E2E2DCE2E2BEE2E2E2E2E2E2
310
E2E2E2E2E2E2E2E2E2E2E2E2E2E2E2E2E2E2E2E2E2E2E2E2E2E2E2E2E2E2E2E2E2E2E2E2E2E2E2E2E2E2E2E2E2E2E2E2E2E2E2E2E2E2E2E2E2E2E2E2E2E2E2E2E2E2E2E2E2E2E2E2E2E2E2E2E2E2E2E2E2E2E2E2E2E2E2E2E2E2E2E2E2E2E2E2E2E2E2E2E2E2E2E2E2E2E2E2E2E2E2E2E2E2E2E2E2E2E2E2E2E2E2E2E2E2E2
310
E2E2E2E2E2E2E2E2E2E2E2E2E2E2E2E2E2E2E2E2E2E2E2E2E2E2E2E2E2BEE2E2E2E2E2E2E2E2DCE2E2E22DE2E2E22DE2E2F5E2F5E2E22DE22D2DE2E2E2BEF5E2BEE2E22D2DE2E2E2E2E2E2E2E2E2E2E2BEE2E2E2E2E2E2E2E2E2E2E2F5E2F5E2E2E2E2E2F5E2F5E2E2E2E2E2E2E2E2E2E2F5E2E2E2E2E2DCE2E2BEE2E2E2E2
310
E2E2E2E2E2E2E2E2E2E2E2E2E2E2E2E2E2E2E2E2E2E2E2E2E2E2E2E2E2E2E2E2E2E2E2E2E2E2E2E2E2E2E2E2E2E2E2E2E2E2E2E2E2E2E2E2E2E2E2E2E2E2E2E2E2E2E2E2E2E2E2E2E2E2E2E2E2E2E2E2E2E2E2E2E2E2E2E2E2E2E2E2E2E2E2E2E2E2E2E2E2E2E2E2E2E2E2E2E2E2E2E2E2E2E2E2E2E2E2E2E2E2E2E2E2E2E2
310
E2E2E2E2E2E2E2E2E2E2E2E2E2E2E2E2E2E2E2E2E2E2E2E2E2E2E2E2E2E2E2BEE2E2E2E2E2E2E2E2DCE2E2E22DE2E2E22DE2E2F5E2F5E2E22DE22D2DE2E2E2BEF5E2BEE2E22DE2E2E2E2E2E2E2E2E2E2E2BEE2E2E2E2E2E2E2E2E2E2E2E2F5E2F5E2E2E2E2E2F5E2F5E2E2E2E2E2E2E2E2E2E2F5E2E2E2E2E2DCE2E2BEE2E2
310
E2E2E2E2E2E2E2E2E2E2E2E2E2E2E2E2E2E2E2E2E2E2E2E2E2E2E2E2E2E2E2E2E2E2E2E2E2E2E2E2E2E2E2E2E2E2E2E2E2E2E2E2E2E2E2E2E2E2E2E2E2E2E2E2E2E2E2E2E2E2E2E2E2E2E2E2E2E2E2E2E2E2E2E2E2E2E2E2E2E2E2E2E2E2E2E2E2E2E2E2E2E2E2E2E2E2E2E2E2E2E2E2E2E2E2E2E2E2E2E2E2E2E2E2E2E2E2
310
E2E2E2E2E2E2E2E2E2E2E2E2E2E2E2E2E2E2E2E2E2E2E2E2E2E2E2E2E2E2E2E2E2BEE2E2E2E2E2E2E2E2DCE2E2E22DE2E2E22DE2E2F5E2F5E2E2E2E2BEBEE2E2E2BEF5E2BEE2E22DE2E2E2E2E2E2E2E2E2E2E2BEE2E2E2E2E2E2E2E2E2E2E2E2F5E2F5E2E2E2E2E2F5E2F5E2E2E2E2E2E2E2E2E2E2F5E2E2E2E2E2DCE2E2BE
310
E2E2E2E2E2E2E2E2E2E2E2E2E2E2E2E2E2E2E2E2E2E2E2E2E2E2E2E2E2E2E2E2E2E2E2E2E2E2E2E2E2E2E2E2E2E2E2E2E2E2E2E2E2E2E2E2E2E2E2E2E2E2E2E2E2E2E2E2E2E2E2E2E2E2E2E2E2E2E2E2E2E2E2E2E2E2E2E2E2E2E2E2E2E2E2E2E2E2E2E2E2E2E2E2E2E2E2E2E2E2E2E2E2E2E2E2E2E2E2E2E2E2E2E2E2E2E2
310
E2E2E2E2E2E2E2E2E2E2E2E2E2E2E2E2E2E2E2E2E2E2E2E2E2E2E2E2E2E2E2E2E2E2E2BEE2E2E2E2E2E2E2E2DCE2E2E22DE2E2E22DE2E2F5E2F5E2E22D2D2DF52D2DE2BEF5E2BEE2E22DE2E2E2E2E2E2E2E2E2E2BEE2E2E2E2E2E2E2E2E2E2E2E2E2F5E2F5E2E2E2E2E2F5E2F5E2E2E2E2E2E2E2E2E2E2F5E2E2E2E2E2DCE2
310
E2BEE2E2E2E2E2E2E2E2E2E2E2E2E2E2E2E2E2E2E2E2E2E2E2E2E2E2E2E2E2E2E2E2E2E2E2E2E2E2E2E2E2E2E2E2E2E2E2E2E2E2E2E2E2E2E2E2E2E2E2E2E2E2E2E2E2E2E2E2E2E2E2E2E2E2E2E2E2E2E2E2E2E2E2E2E2E2E2E2E2E2E2E2E2E2E2E2E2E2E2E2E2E2E2E2E2E2E2E2E2E2E2E2E2E2E2E2E2E2E2E2E2E2E2E2E2
310
E2E2E2E2E2E2E2E2E2E2E2E2E2E2E2E2E2E2E2E2E2E2E2E2E2E2E2E2E2E2E2E2E2E2E2E2E2BEE2E2E2E2E2E2E2E2DCE2E2E22DE2E2E22DE2E2F5E2F5E2E2E2E2BEE2E2E2E2BEF5E2BEE2E22DE2E2E2E2E2E2E2E2E2BEE2E2E2E2E2E2E2E2E2E2E2E2E2E2F5E2F5E2E2E2E2E2F5F5F5F5E2E2E2E2E2E2E2E2E2F5E2E2E2E2E2
310
DCE2E2BEE2E2E2E2E2E2E2E2E2E2E2E2E2E2E2E2E2E2E2E2E2E2E2E2E2E2E2E2E2E2E2E2E2E2E2E2E2E2E2E2E2E2E2E2E2E2E2E2E2E2E2E2E2E2E2E2E2E2E2E2E2E2E2E2E2E2E2E2E2E2E2E2E2E2E2E2E2E2E2E2E2E2E2E2E2E2E2E2E2E2E2E2E2E2E2E2E2E2E2E2E2E2E2E2E2E2E2E2E2E2E2E2E2E2E2E2E2E2E2E2E2E2E2
310
E2E2E2E2E2E2E2E2E2E2E2E2E2E2E2E2E2E2E2E2E2E2E2E2E2E2E2E2E2E2E2E2E2E2E2E2E2E2E2BEE2E2E2E2E2E2E2E2DCE2E2E22DE2E2E22DE2E2F5E2F5F5F5F5F5BEF5F5F5F5F5F5E2BEE2E22DE2E2E2E2E2E2E2E2BEE2E2E2E2E2E2E2E2E2E2E2E2E2E2E2F5E2F5E2E2E2E2E2F5E2F5F5F5F5F5F5F5F5F5F5F5F5E2E2E2
310
E2E2DCE2E2BEE2E2E2E2E2E2E2E2E2E2E2E2E2E2E2E2E2E2E2E2E2E2E2E2E2E2E2E2E2E2E2E2E2E2E2E2E2E2E2E2E2E2E2E2E2E2E2E2E2E2E2E2E2E2E2E2E2E2E2E2E2E2E2E2E2E2E2E2E2E2E2E2E2E2E2E2E2E2E2E2E2E2E2E2E2E2E2E2E2E2E2E2E2E2E2E2E2E2E2E2E2E2E2E2E2E2E2E2E2E2E2E2E2E2E2E2E2E2E2E2E2
310
E2E2E2E2E2E2E2E2E2E2E2E2E2E2E2E2E2E2E2E2E2E2E2E2E2E2E2E2E2E2E2E2E2E2E2E2E2E2E2E2E2BEE2E2E2E2E2E2E2E2DCE2E2E22DE2E2E22DE2E2F5E2BEE2E2F5F5BEF5F5F5E2BEE2E2BEE2E22DE2E2E2E2E2E2E2BEBEE2E2E2E2E2E2E2E2E2E2E2E2E2E2E2F5E2F5E2E2E2E2E2F5E2F5E2E2E2E2E2E2E2E2E2F5E2E2
310
E2E2E2E2DCE2E2BEE2E2E2E2E2E2E2E2E2E2E2E2E2E2E2E2E2E2E2E2E2E2E2E2E2E2E2E2E2E2E2E2E2E2E2E2E2E2E2E2E2E2E2E2E2E2E2E2E2E2E2E2E2E2E2E2E2E2E2E2E2E2E2E2E2E2E2E2E2E2E2E2E2E2E2E2E2E2E2E2E2E2E2E2E2E2E2E2E2E2E2E2E2E2E2E2E2E2E2E2E2E2E2E2E2E2E2E2E2E2E2E2E2E2E2E2E2E2E2
310
E2E2E2E2E2E2E2E2E2E2E2E2E2E2E2E2E2E2E2E2E2E2E2E2E2E2E2E2E2E2E2E2E2E2E2E2E2E2E2E2E2E2E2BEE2E2E2E2E2E2E2E2DCE2E2E22DE2E2BE2DE2E2F5E2BEE2E2E2E2BEE2E2E2E2BEE2E2BEE2E22DE2E2E2E2E2E2BEBEE2E2E2E2E2E2E2E2E2E2E2E2E2E2E2E2F5E2F5E2E2E2E2E2F5E2F5E2E2E2E2E2E2E2E2E2F5
310
E2E2E2E2E2E2DCE2E2BEE2E2E2E2E2E2E2E2E2E2E2E2E2E2E2E2E2E2E2E2E2E2E2E2E2E2E2E2E2E2E2E2E2E2E2E2E2E2E2E2E2E2E2E2E2E2E2E2E2E2E2E2E2E2E2E2E2E2E2E2E2E2E2E2E2E2E2E2E2E2E2E2E2E2E2E2E2E2E2E2E2E2E2E2E2E2E2E2E2E2E2E2E2E2E2E2E2E2E2E2E2E2E2E2E2E2E2E2E2E2E2E2E2E2E2E2E2
310
E2E2E2E2E2E2E2E2E2E2E2E2E2E2E2E2E2E2E2E2E2E2E2E2E2E2E2E2E2E2E2E2E2E2E2E2E2E2E2E2E2E2E2E2E2BEE2E2E2E2E2E2E2E2DCE2E2E22DE2E2BE2DE2E2F5E2BEE2E2E2E2BEE2E2E2E2BEE2E2BEE2E22DE2E2E2E2BEBEE2E2E2E2E2E2E2E2E2E2E2E2E2E2E2E2E2E2F5E2F5E2E2E2E2E2F5E2F5F5F5F5F5F5F5F5F5
310
F5F5E2E2E2E2E2E2DCE2E2BEE2E2E2E2E2E2E2E2E2E2E2E2E2E2E2E2E2E2E2E2E2E2E2E2E2E2E2E2E2E2E2E2E2E2E2E2E2E2E2E2E2E2E2E2E2E2E2E2E2E2E2E2E2E2E2E2E2E2E2E2E2E2E2E2E2E2E2E2E2E2E2E2E2E2E2E2E2E2E2E2E2E2E2E2E2E2E2E2E2E2E2E2E2E2E2E2E2E2E2E2E2E2E2E2E2E2E2E2E2E2E2E2E2E2E2
310
E2E2E2E2E2E2E2E2E2E2E2E2E2E2E2E2E2E2E2E2E2E2E2E2E2E2E2E2E2E2E2E2E2E2E2E2E2E2E2E2E2E2E2E2E2E2E2BEE2E2E2E2E2E2E2E2DCE2E2E22DE2E2E22DE2E2F5E2BEE2E2E2E2BEE2E2E2E2BEE2E2BEE2E22DE2E2BEBEE2E2E2E2E2E2E2E2E2E2E2E2E2E2E2E2E2E2E2E2F5E2F5E2E2E2E2E2F5E2E2E2F5E2E2E2E2
310
F5E2E2E2E2E2E2E2E2E2DCE2E2BEE2E2E2E2E2E2E2E2E2E2E2E2E2E2E2E2E2E2E2E2E2E2E2E2E2E2E2E2E2E2E2E2E2E2E2E2E2E2E2E2E2E2E2E2E2E2E2E2E2E2E2E2E2E2E2E2E2E2E2E2E2E2E2E2E2E2E2E2E2E2E2E2E2E2E2E2E2E2E2E2E2E2E2E2E2E2E2E2E2E2E2E2E2E2E2E2E2E2E2E2E2E2E2E2E2E2E2E2E2E2E2E2E2
310
E2E2E2E2E2E2E2E2E2E2E2E2E2E2E2E2E2E2E2E2E2E2E2E2E2E2E2E2E2E2E2E2E2E2E2E2E2E2E2E2E2E2E2E2E2E2E2E2E2BEE2E2E2E2E2E2E2E2DCE2E2E22DE2E2E22DE2E2F5E2BEE2E2E2E2BEE2E2E2E2BEE2E2BEBEBEBEBEBEE2E2E2E2E2E2E2E2E2E2E2E2E2E2E2E2E2E2E2E2E2E2F5E2F5E2E2E2E2F5E2E2E2E2F5E2E2
310
E2E2F5E2E2E2E2E2E2E2E2E2DCE2E2BEE2E2E2E2E2E2E2E2E2E2E2E2E2E2E2E2E2E2E2E2E2E2E2E2E2E2E2E2E2E2E2E2E2E2E2E2E2E2E2E2E2E2E2E2E2E2E2E2E2E2E2E2E2E2E2E2E2E2E2E2E2E2E2E2E2E2E2E2E2E2E2E2E2E2E2E2E2E2E2E2E2E2E2E2E2E2E2E2E2E2E2E2E2E2E2E2E2E2E2E2E2E2E2E2E2E2E2E2E2E2E2
310
E2E2E2E2E2E2E2E2E2E2E2E2E2E2E2E2E2E2E2E2E2E2E2E2E2E2E2E2E2E2E2E2E2E2E2E2E2E2E2E2E2E2E2E2E2E2E2E2E2E2E2BEE2E2E2E2E2E2E2E2DCE2E2E22DE2E2E22DE2E2F5E2BEE2E2E2E2BEE2E2E2E2BEE2E2BEBEBE2DE2E2E2E2E2E2E2E2E2E2E2E2E2E2E2E2E2E2E2E2E2E2E2E2F5E2F5E2E2E2E2F5E2E2E2E2F5
310
F5F5F5F5F5E2E2E2E2E2E2E2E2E2DCE2E2BEE2E2E2E2E2E2E2E2E2E2E2E2E2E2E2E2E2E2E2E2E2E2E2E2E2E2E2E2E2E2E2E2E2E2E2E2E2E2E2E2E2E2E2E2E2E2E2E2E2E2E2E2E2E2E2E2E2E2E2E2E2E2E2E2E2E2E2E2E2E2E2E2E2E2E2E2E2E2E2E2E2E2E2E2E2E2E2E2E2E2E2E2E2E2E2E2E2E2E2E2E2E2E2E2E2E2E2E2E2
310
E2E2E2E2E2E2E2E2E2E2E2E2E2E2E2E2E2E2E2E2E2E2E2E2E2E2E2E2E2E2E2E2E2E2E2E2E2E2E2E2E2E2E2E2E2E2E2E2E2E2E2E2E2BEE2E2E2E2E2E2E2E2DCE2E2E22DE2E2E22DE2E2F5E2BEBEBEBEE2BEE2E2BEBEBEBEE2BEE2BE2DE2E2E2E2E2E2E2E2E2E2E2E2E2E2E2E2E2E2E2E2E2E2E2E2F5E2F5E2E2E2F5BEBEBEBE
310
BEBEF5F5F5F5BEBEBEBEBEBEE2E2E2E2DCE2E2BEE2E2E2E2E2E2E2E2E2E2E2E2E2E2E2E2E2E2E2E2E2E2E2E2E2E2E2E2E2E2E2E2E2E2E2E2E2E2E2E2E2E2E2E2E2E2E2E2E2E2E2E2E2E2E2E2E2E2E2E2E2E2E2E2E2E2E2E2E2E2E2E2E2E2E2E2E2E2E2E2E2E2E2E2E2E2E2E2E2E2E2E2E2E2E2E2E2E2E2E2E2E2E2E2E2E2E2
310
E2E2E2E2E2E2E2E2E2E2E2E2E2E2E2E2E2E2E2E2E2E2E2E2E2E2E2E2E2E2E2E2E2E2E2E2E2E2E2E2E2E2E2E2E2E2E2E2E2E2E2E2E2E2E2BEE2E2E2E2E2E2E2E2DCE2E2E22DE2E2E22DE2E2F5BEBEBEBEBEBEBEBEBEBEBEBEBEBEBEE2BE2DE2E2E2E2E2E2E2E2E2E2E2E2E2E2E2E2E2E2E2E2E2E2E2E2F5E2F5F5F5F5F5BEE2
310
E2E2E2E2E2E2E2E2E2E2E2E2E2BEBEE2E2E2DCE2E2BEE2E2E2E2E2E2E2E2E2E2E2E2E2E2E2E2E2E2E2E2E2E2E2E2E2E2E2E2E2E2E2E2E2E2E2E2E2E2E2E2E2E2E2E2E2E2E2E2E2E2E2E2E2E2E2E2E2E2E2E2E2E2E2E2E2E2E2E2E2E2E2E2E2E2E2E2E2E2E2E2E2E2E2E2E2E2E2E2E2E2E2E2E2E2E2E2E2E2E2E2E2E2E2E2E2
310
E2E2E2E2E2E2E2E2E2E2E2E2E2E2E2E2E2E2E2E2E2E2E2E2E2E2E2E2E2E2E2E2E2E2E2E2E2E2E2E2E2E2E2E2E2E2E2E2E2E2E2E2E2E2E2E2E2BEE2E2E2E2E2E2E2E2DCE2E2E22DE2E2E22DE2E2F5BEE2E2E2E2E2E2E2E2E2E2E2E2BEBEE2E22DE2E2E2E2E2E2E2E2E2E2E2E2E2E2E2E2E2E2E2E2E2E2E2E2F5E2F5E2E2F5F5
310
BEE2E2E2E2E2E2E2E2E2E2E2E2E2E2E2BEE2E2E2DCE2E2BEE2E2E2E2E2E2E2E2E2E2E2E2E2E2E2E2E2E2E2E2E2E2E2E2E2E2E2E2E2E2E2E2E2E2E2E2E2E2E2E2E2E2E2E2E2E2E2E2E2E2E2E2E2E2E2E2E2E2E2E2E2E2E2E2E2E2E2E2E2E2E2E2E2E2E2E2E2E2E2E2E2E2E2E2E2E2E2E2E2E2E2E2E2E2E2E2E2E2E2E2E2E2E2
310
E2E2E2E2E2E2E2E2E2E2E2E2E2E2E2E2E2E2E2E2E2E2E2E2E2E2E2E2E2E2E2E2E2E2E2E2E2E2E2E2E2E2E2E2E2E2E2E2E2E2E2E2E2E2E2E2E2E2E2BEE2E2E2E2E2E2E2E2DCE2E2E22DE2E2E22DE2E2F5BEE2E2E2E2E2E2E2E2E2E2E2E2BEBEE2E22DE2E2E2E2E2E2E2E2E2E2E2E2E2E2E2E2E2E2E2E2E2E2E2E2F5E2F5F5F5
310
F5E2BEE2E2E2E2E2E2E2E2E2E2E2E2E2E2E2BEE2E2E2DCE2E2BEE2E2E2E2E2E2E2E2E2E2E2E2E2E2E2E2E2E2E2E2E2E2E2E2E2E2E2E2E2E2E2E2E2E2E2E2E2E2E2E2E2E2E2E2E2E2E2E2E2E2E2E2E2E2E2E2E2E2E2E2E2E2E2E2E2E2E2E2E2E2E2E2E2E2E2E2E2E2E2E2E2E2E2E2E2E2E2E2E2E2E2E2E2E2E2E2E2E2E2E2E2
310
E2E2E2E2E2E2E2E2E2E2E2E2E2E2E2E2E2E2E2E2E2E2E2E2E2E2E2E2E2E2E2E2E2E2E2E2E2E2E2E2E2E2E2E2E2E2E2E2E2E2E2E2E2E2E2E2E2E2E2E2E2BEE2E2E2E2E2E2E2E2DCE2E2E22DE2E2E22DE2E2F5BEE2E2E2E2E2E2E2E2E2E2E2E2BEF5E2E22DE2E2E2E2E2E2E2E2E2E2E2E2E2E2E2E2E2E2E2E2E2E2E2E2F5E2F5
310
E2E2E2E2BEE2E2E2E2E2E2E2E2E2E2E2E2E2E2E2BEE2E2E2DCE2E2BEE2E2E2E2E2E2E2E2E2E2E2E2E2E2E2E2E2E2E2E2E2E2E2E2E2E2E2E2E2E2E2E2E2E2E2E2E2E2E2E2E2E2E2E2E2E2E2E2E2E2E2E2E2E2E2E2E2E2E2E2E2E2E2E2E2E2E2E2E2E2E2E2E2E2E2E2E2E2E2E2E2E2E2E2E2E2E2E2E2E2E2E2E2E2E2E2E2E2E2
310
E2E2E2E2E2E2E2E2E2E2E2E2E2E2E2E2E2E2E2E2E2E2E2E2E2E2E2E2E2E2E2E2E2E2E2E2E2E2E2E2E2E2E2E2E2E2E2E2E2E2E2E2E2E2E2E2E2E2E2E2E2E2E2BEE2E2E2E2E2E2E2E2DCE2BEBE2DE2E2E22DE2E2F5BEE2E2E2E2E2E2E2E2E2E2E2E2BEF5E2E22DE2E2E2E2E2E2E2E2E2E2E2E2E2E2E2E2E2E2E2E2E2E2E2E2F5
310
E2F5E2E2E2E2BEE2E2E2E2E2E2E2E2E2E2E2E2E2E2E2BEE2E2E2DCE2E2BEE2E2E2E2E2E2E2E2E2E2E2E2E2E2E2E2E2E2E2E2E2E2E2E2E2E2E2E2E2E2E2E2E2E2E2E2E2E2E2E2E2E2E2E2E2E2E2E2E2E2E2E2E2E2E2E2E2E2E2E2E2E2E2E2E2E2E2E2E2E2E2E2E2E2E2E2E2E2E2E2E2E2E2E2E2E2E2E2E2E2E2E2E2E2E2E2E2
310
E2E2E2E2E2E2E2E2E2E2E2E2E2E2E2E2E2E2E2E2E2E2E2E2E2E2E2E2E2E2E2E2E2E2E2E2E2E2E2E2E2E2E2E2E2E2E2E2E2E2E2E2E2E2E2E2E2E2E2E2E2E2E2E2E2BEE2E2E2E2E2E2E2E2DCE2BEBE2DE2E2E22DE2E2F5BE2828E2E2E2E2E2E2E2E2E228BEF5E2E22DE2E2E2E2E2E2E2E2E2E2E2E2E2E2E2E2E2E2E2E2E2E2E2
310
E2F5E2F5E2E2E2E2BEE2E2E2E2E2E2E2E2E2E2E2E2E2E2E2BEE2E2E2DCE2E2BEE2E2E2E2E2E2E2E2E2E2E2E2E2E2E2E2E2E2E2E2E2E2E2E2E2E2E2E2E2E2E2E2E2E2E2E2E2E2E2E2E2E2E2E2E2E2E2E2E2E2E2E2E2E2E2E2E2E2E2E2E2E2E2E2E2E2E2E2E2E2E2E2E2E2E2E2E2E2E2E2E2E2E2E2E2E2E2E2E2E2E2E2E2E2E2
310
E2E2E2E2E2E2E2E2E2E2E2E2E2E2E2E2E2E2E2E2E2E2E2E2E2E2E2E2E2E2E2E2E2E2E2E2E2E2E2E2E2E2E2E2E2E2E2E2E2E2E2E2E2E2E2E2E2E2E2E2E2E2E2E2E2E2E2BEE2E2E2E2E2E2E2E2DCE2E2E22DE2E2E22DE2E2F5BEF528BEE2E2E2E2E2E2E228BEBEF5E2E22DE2E2E2E2E2E2E2E2E2E2E2E2E2E2E2E2E2E2E2E2E2
310
E2E2E2F5E2F5E2E2E2E2BEE2E2E2E2E2E2E2E2E2E2E2E2E2E2E2BEE2E2E2DCE2E2BEE2E2E2E2E2E2E2E2E2E2E2E2E2E2E2E2E2E2E2E2E2E2E2E2E2E2E2E2E2E2E2E2E2E2E2E2E2E2E2E2E2E2E2E2E2E2E2E2E2E2E2E2E2E2E2E2E2E2E2E2E2E2E2E2E2E2E2E2E2E2E2E2E2E2E2E2E2E2E2E2E2E2E2E2E2E2E2E2E2E2E2E2E2
310
E2E2E2E2E2E2E2E2E2E2E2E2E2E2E2E2E2E2E2E2E2E2E2E2E2E2E2E2E2E2E2E2E2E2E2E2E2E2E2E2E2E2E2E2E2E2E2E2E2E2E2E2E2E2E2E2E2E2E2E2E2E2E2E2E2E2E2E2E2BEE2E2E2E2E2E2E2E2DCE2E2E22DE2E2E22DE2E2F5BEF528E2E2E2E2E2E2E2E228F5BEF5E2E22DE2E2E2E2E2E2E2E2E2E2E2E2E2E2E2E2E2E2E2
310
E2E2E2E2E2F5E2F5E2E2E2E2BEE2E2E2E2E2E2E2E2E2E2E2E2E2E2E2BEE2E2E2DCE2E2BEE2E2E2E2E2E2E2E2E2E2E2E2E2E2E2E2E2E2E2E2E2E2E2E2E2E2E2E2E2E2E2E2E2E2E2E2E2E2E2E2E2E2E2E2E2E2E2E2E2E2E2E2E2E2E2E2E2E2E2E2E2E2E2E2E2E2E2E2E2E2E2E2E2E2E2E2E2E2E2E2E2E2E2E2E2E2E2E2E2E2E2
310
E2E2E2E2E2E2E2E2E2E2E2E2E2E2E2E2E2E2E2E2E2E2E2E2E2E2E2E2E2E2E2E2E2E2E2E2E2E2E2E2E2E2E2E2E2E2E2E2E2E2E2E2E2E2E2E2E2E2E2E2E2E2E2E2E2E2E2E2E2E2E2BEE2E2E2E2E2E2E2E2DCE2E2E22DE2E2E22DE2E2F5BEF528E2E2E2E2E2E2E2E228F5BEF5E2BE2D2DE2E2E2E2E2E2E2E2E2E2E2E2E2E2E2E2
310
E2E2E2E2E2E2E2F5E2F5E2E2E2E2BEE2E2E2E2E2E2E2E2E2E2E2E2E2E2E2BEE2E2E2DCE2E2BEE2E2E2E2E2E2E2E2E2E2E2E2E2E2E2E2E2E2E2E2E2E2E2E2E2E2E2E2E2E2E2E2E2E2E2E2E2E2E2E2E2E2E2E2E2E2E2E2E2E2E2E2E2E2E2E2E2E2E2E2E2E2E2E2E2E2E2E2E2E2E2E2E2E2E2E2E2E2E2E2E2E2E2E2E2E2E2E2E2
310
E2E2E2E2E2E2E2E2E2E2E2E2E2E2E2E2E2E2E2E2E2E2E2E2E2E2E2E2E2E2E2E2E2E2E2E2E2E2E2E2E2E2E2E2E2E2E2E2E2E2E2E2E2E2E2E2E2E2E2E2E2E2E2E2E2E2E2E2E2E2E2E2E2BEE2E2E2E2E2E2E2E2DCE2E2E22DE2E2E22DE2E2F5BEF528E2E2E2E2E2E2E2E228F5BEF52D2D2D2DE2E2E2E2E2E2E2E2E2E2E2E2E2E2
310
E2E2E2E2E2E2E2E2BEBEBEF5E2E2E2E2BEE2E2E2E2E2E2E2E2E2E2E2E2E2E2E2BEE2E2E2DCE2E2BEE2E2E2E2E2E2E2E2E2E2E2E2E2E2E2E2E2E2E2E2E2E2E2E2E2E2E2E2E2E2E2E2E2E2E2E2E2E2E2E2E2E2E2E2E2E2E2E2E2E2E2E2E2E2E2E2E2E2E2E2E2E2E2E2E2E2E2E2E2E2E2E2E2E2E2E2E2E2E2E2E2E2E2E2E2E2E2
310
E2E2E2E2E2E2E2E2E2E2E2E2E2E2E2E2E2E2E2E2E2E2E2E2E2E2E2E2E2E2E2E2E2E2E2E2E2E2E2E2E2E2E2E2E2E2E2E2E2E2E2E2E2E2E2E2E2E2E2E2E2E2E2E2E2E2E2E2E2E2E2E2E2E2E2BEE2E2E2E2E2E2E2E2DCE2E2E22DE2E2E2F52D2DF5BE2D282828282828282828282DBE2D2D2D2D2DE2E2E2E2E2E2E2E2E2E2E2E2
310
E2E2E2E2E2E2E2E2E2E2E2F5F5E2E2E2E2E2BEE2E2E2E2E2E2E2E2E2E2E2E2E2E2E2BEE2E2E2DCE2E2BEE2E2E2E2E2E2E2E2E2E2E2E2E2E2E2E2E2E2E2E2E2E2E2E2E2E2E2E2E2E2E2E2E2E2E2E2E2E2E2E2E2E2E2E2E2E2E2E2E2E2E2E2E2E2E2E2E2E2E2E2E2E2E2E2E2E2E2E2E2E2E2E2E2E2E2E2E2E2E2E2E2E2E2E2E2
310
E2E2E2E2E2E2E2E2E2E2E2E2E2E2E2E2E2E2E2E2E2E2E2E2E2E2E2E2E2E2E2E2E2E2E2E2E2E2E2E2E2E2E2E2E2E2E2E2E2E2E2E2E2E2E2E2E2E2E2E2E2E2E2E2E2E2E2E2E2E2E2E2E2E2E2E2E2BEE2E2E2E2E2E2E2E2DCE2E2E22DE2E2E2E2E2E22DBE2DE2E2E2E2E2E2E2E2E2E22DBE2DE2E22D2DE2E2E2E2E2E2E2E2E2E2
310
E2E2E2E2E2E2E2E2E2E2E2E2E22DE2E2E2E2E2E2BEE2E2E2E2E2E2E2E2E2E2E2E2E2E2E2BEE2E2E2DCE2E2BEE2E2E2E2E2E2E2E2E2E2E2E2E2E2E2E2E2E2E2E2E2E2E2E2E2E2E2E2E2E2E2E2E2E2E2E2E2E2E2E2E2E2E2E2E2E2E2E2E2E2E2E2E2E2E2E2E2E2E2E2E2E2E2E2E2E2E2E2E2E2E2E2E2E2E2E2E2E2E2E2E2E2E2
310
E2E2E2E2E2E2E2E2E2E2E2E2E2E2E2E2E2E2E2E2E2E2E2E2E2E2E2E2E2E2E2E2E2E2E2E2E2E2E2E2E2E2E2E2E2E2E2E2E2E2E2E2E2E2E2E2E2E2E2E2E2E2E2E2E2E2E2E2E2E2E2E2E2E2E2E2E2E2E2BEE2E2E2E2E2E2E2E2DCE2E2E22DE2E2E2E2E2E22DBE2DE2E2E2E2E2E2E2E2E2E22DBE2DE2E22DE2E2E2E2E2E2E2E2E2
310
E2E2E2E2E2E2E2E2E2E2E2E2E2E2E22DE2E2E2E2E2E2BEE2E2E2E2E2E2E2E2E2E2E2E2E2E2E2BEE2E2E2DCE2E2BEE2E2E2E2E2E2E2E2E2E2E2E2E2E2E2E2E2E2E2E2E2E2E2E2E2E2E2E2E2E2E2E2E2E2E2E2E2E2E2E2E2E2E2E2E2E2E2E2E2E2E2E2E2E2E2E2E2E2E2E2E2E2E2E2E2E2E2E2E2E2E2E2E2E2E2E2E2E2E2E2E2
310
E2E2E2E2E2E2E2E2E2E2E2E2E2E2E2E2E2E2E2E2E2E2E2E2E2E2E2E2E2E2E2E2E2E2E2E2E2E2E2E2E2E2E2E2E2E2E2E2E2E2E2E2E2E2E2E2E2E2E2E2E2E2E2E2E2E2E2E2E2E2E2E2E2E2E2E2E2E2E2E2E2BEE2E2E2E2E2E2E2E2DCE2E2E22DE2E2E2E2E2E22DBE2DE2E2E2E2E2E2E2E2E2E22DBE2DE2E2E2E2E2E2E2E2E2E2
310
E2E2E2E2E2E2E2E2E2E2E2E2E2E2E2E2E22DE2E2E2E2E2E2BEE2E2E2E2E2E2E2E2E2E2E2E2E2E2E2BEE2E2E2DCE2E2BEE2E2E2E2E2E2E2E2E2E2E2E2E2E2E2E2E2E2E2E2E2E2E2E2E2E2E2E2E2E2E2E2E2E2E2E2E2E2E2E2E2E2E2E2E2E2E2E2E2E2E2E2E2E2E2E2E2E2E2E2E2E2E2E2E2E2E2E2E2E2E2E2E2E2E2E2E2E2E2
310
E2E2E2E2E2E2E2E2E2E2E2E2E2E2E2E2E2E2E2E2E2E2E2E2E2E2E2E2E2E2E2E2E2E2E2E2E2E2E2E2E2E2E2E2E2E2E2E2E2E2E2E2E2E2E2E2E2E2E2E2E2E2E2E2E2E2E2E2E2E2E2E2E2E2E2E2E2E2E2E2E2E2E2BEE2E2E2E2E2E2E2E2DCE2E2E22DE2E2E2E2E2E22DBE2DE2E2E2E2E2E2E2E2E2E22DBE2DE2E2E2E2E2E2E2E2
310
E2E2E2E2E2E2E2E2E2E2E2E2E2E2E2E2E2E2E22DE2E2E2E2E2E2BEE2E2E2E2E2E2E2E2E2E2E2E2E2E2E2BEE2E2E2DCE2E2BEE2E2E2E2E2E2E2E2E2E2E2E2E2E2E2E2E2E2E2E2E2E2E2E2E2E2E2E2E2E2E2E2E2E2E2E2E2E2E2E2E2E2E2E2E2E2E2E2E2E2E2E2E2E2E2E2E2E2E2E2E2E2E2E2E2E2E2E2E2E2E2E2E2E2E2E2E2
310
E2E2E2E2E2E2E2E2E2E2E2E2E2E2E2E2E2E2E2E2E2E2E2E2E2E2E2E2E2E2E2E2E2E2E2E2E2E2E2E2E2E2E2E2E2E2E2E2E2E2E2E2E2E2E2E2E2E2E2E2E2E2E2E2E2E2E2E2E2E2E2E2E2E2E2E2E2E2E2E2E2E2E2E2E2BEE2E2E2E2E2E2E2E2DCE2E2E22DE2E2E2E22D2DBEBE2D2D2D2D2DBE2D2D2D2D2DBEBEF52D2DE2E2E2E2
310
E2E2E2E2E2E2E2E2E2E2E2E2E2E2E2E2E2E2E2E2E22DE2E2E2E2E2E2BEE2E2E2E2E2E2E2E2E2E2E2E2E2E2E2BEE2E2E2DCE2E2BEE2E2E2E2E2E2E2E2E2E2E2E2E2E2E2E2E2E2E2E2E2E2E2E2E2E2E2E2E2E2E2E2E2E2E2E2E2E2E2E2E2E2E2E2E2E2E2E2E2E2E2E2E2E2E2E2E2E2E2E2E2E2E2E2E2E2E2E2E2E2E2E2E2E2E2
310
E2E2E2E2E2E2E2E2E2E2E2E2E2E2E2E2E2E2E2E2E2E2E2E2E2E2E2E2E2E2E2E2E2E2E2E2E2E2E2E2E2E2E2E2E2E2E2E2E2E2E2E2E2E2E2E2E2E2E2E2E2E2E2E2E2E2E2E2E2E2E2E2E2E2E2E2E2E2E2E2E2E2E2E2E2E2E2BEE2E2E2E2E2E2E2E2DCE2E2E22DE2E2E2E2E2E2E2BEE2E2E2E2E2E2E2E2E2E2E2E2BEE2E2E2E2E2
310
E2E2E2E2E2E2E2E2E2E2E2E2E2E2E2E2E2E2E2E2E2E2E22DE2E2E2E2E2E2BEE2E2E2E2E2E2E2E2E2E2E2E2E2E2E2BEE2E2E2DCE2E2BEE2E2E2E2E2E2E2E2E2E2E2E2E2E2E2E2E2E2E2E2E2E2E2E2E2E2E2E2E2E2E2E2E2E2E2E2E2E2E2E2E2E2E2E2E2E2E2E2E2E2E2E2E2E2E2E2E2E2E2E2E2E2E2E2E2E2E2E2E2E2E2E2E2
310
E2E2E2E2E2E2E2E2E2E2E2E2E2E2E2E2E2E2E2E2E2E2E2E2E2E2E2E2E2E2E2E2E2E2E2E2E2E2E2E2E2E2E2E2E2E2E2E2E2E2E2E2E2E2E2E2E2E2E2E2E2E2E2E2E2E2E2E2E2E2E2E2E2E2E2E2E2E2E2E2E2E2E2E2E2E2E2E2E2BEE2E2E2E2E2E2E2E2DCE2E2E22DE2E2E2E2E2E2E2BEE2E2E2E2E2E2E2E2E2E2E2E2BEE2E2E2
310
E2E2E2E2E2E2E2E2E2E2E2E2E2E2E2E2E2E2E2E2E2E2E2E2E22DE2E2E2E2E2E2BEE2E2E2E2E2E2E2E2E2E2E2E2E2E2E2BEE2E2E2DCE2E2BEE2E2E2E2E2E2E2E2E2E2E2E2E2E2E2E2E2E2E2E2E2E2E2E2E2E2E2E2E2E2E2E2E2E2E2E2E2E2E2E2E2E2E2E2E2E2E2E2E2E2E2E2E2E2E2E2E2E2E2E2E2E2E2E2E2E2E2E2E2E2E2
310
E2E2E2E2E2E2E2E2E2E2E2E2E2E2E2E2E2E2E2E2E2E2E2E2E2E2E2E2E2E2E2E2E2E2E2E2E2E2E2E2E2E2E2E2E2E2E2E2E2E2E2E2E2E2E2E2E2E2E2E2E2E2E2E2E2E2E2E2E2E2E2E2E2E2E2E2E2E2E2E2E2E2E2E2E2E2E2E2E2E2E2BEE2E2E2E2E2E2E2E2DCE2E2E22DE2E2E2E2E2E2E2BEE2E2E2E2E2E2E2E2E2E2E2E2BEE2
310
E2E2E2E2E2E2E2E2E2E2E2E2E2E2E2E2E2E2E2E2E2E2E2E2E2E2E22DE2E2E2E2E2E2BEE2E2E2E2E2E2E2E2E2E2E2E2E2E2E2BEE2E2E2DCE2E2BEE2E2E2E2E2E2E2E2E2E2E2E2E2E2E2E2E2E2E2E2E2E2E2E2E2E2E2E2E2E2E2E2E2E2E2E2E2E2E2E2E2E2E2E2E2E2E2E2E2E2E2E2E2E2E2E2E2E2E2E2E2E2E2E2E2E2E2E2E2
310
E2E2E2E2E2E2E2E2E2E2E2E2E2E2E2E2E2E2E2E2E2E2E2E2E2E2E2E2E2E2E2E2E2E2E2E2E2E2E2E2E2E2E2E2E2E2E2E2E2E2E2E2E2E2E2E2E2E2E2E2E2E2E2E2E2E2E2E2E2E2E2E2E2E2E2E2E2E2E2E2E2E2E2E2E2E2E2E2E2E2E2E2E2BEE2E2E2E2E2E2E2E2DCE2E2E22DE2E2E2E2E2E2E2BEE2E2E2E2E2E2E2E2E2E2E2E2
310
BEE2E2E2E2E2E2E2E2E2E2E2E2E2E2E2E2E2E2E2E2E2E2E2E2E2E2E2E22DE2E2E2E2E2E2BEE2E2E2E2E2E2E2E2E2E2E2E2E2E2E2BEE2E2E2DCE2E2BEE2E2E2E2E2E2E2E2E2E2E2E2E2E2E2E2E2E2E2E2E2E2E2E2E2E2E2E2E2E2E2E2E2E2E2E2E2E2E2E2E2E2E2E2E2E2E2E2E2E2E2E2E2E2E2E2E2E2E2E2E2E2E2E2E2E2E2
310
E2E2E2E2E2E2E2E2E2E2E2E2E2E2E2E2E2E2E2E2E2E2E2E2E2E2E2E2E2E2E2E2E2E2E2E2E2E2E2E2E2E2E2E2E2E2E2E2E2E2E2E2E2E2E2E2E2E2E2E2E2E2E2E2E2E2E2E2E2E2E2E2E2E2E2E2E2E2E2E2E2E2E2E2E2E2E2E2E2E2E2E2E2E2E2BEE2E2E2E2E2E2E2E2DCE2E2E22DE2E2E2E2E2E2E2BEE2E2E2E2E2E2E2E2E2E2
310
E2E2BEE2E2E2E2E2E2E2E2E2E2E2E2E2E2E2E2E2E2E2E2E2E2E2E2E2E2E2E22DE2E2E2E2E2E2BEE2E2E2E2E2E2E2E2E2E2E2E2E2E2E2BEE2E2E2DCE2E2BEE2E2E2E2E2E2E2E2E2E2E2E2E2E2E2E2E2E2E2E2E2E2E2E2E2E2E2E2E2E2E2E2E2E2E2E2E2E2E2E2E2E2E2E2E2E2E2E2E2E2E2E2E2E2E2E2E2E2E2E2E2E2E2E2E2
310
E2E2E2E2E2E2E2E2E2E2E2E2E2E2E2E2E2E2E2E2E2E2E2E2E2E2E2E2E2E2E2E2E2E2E2E2E2E2E2E2E2E2E2E2E2E2E2E2E2E2E2E2E2E2E2E2E2E2E2E2E2E2E2E2E2E2E2E2E2E2E2E2E2E2E2E2E2E2E2E2E2E2E2E2E2E2E2E2E2E2E2E2E2E2E2E2E2BEE2E2E2E2E2E2E2E2DCE2E2E22DE2E2E2E2E2E2E2BEE2E2E2E2E2E2E2E2
310
E2E2E2E2BEE2E2E2E2E2E2E2E2E2E2E2E2E2E2E2E2E2E2E2E2E2E2E2E2E2E2E2E22DE2E2E2E2E2E2BEE2E2E2E2E2E2E2E2E2E2E2E2E2E2E2BEE2E2E2DCE2E2BEE2E2E2E2E2E2E2E2E2E2E2E2E2E2E2E2E2E2E2E2E2E2E2E2E2E2E2E2E2E2E2E2E2E2E2E2E2E2E2E2E2E2E2E2E2E2E2E2E2E2E2E2E2E2E2E2E2E2E2E2E2E2E2
310
E2E2E2E2E2E2E2E2E2E2E2E2E2E2E2E2E2E2E2E2E2E2E2E2E2E2E2E2E2E2E2E2E2E2E2E2E2E2E2E2E2E2E2E2E2E2E2E2E2E2E2E2E2E2E2E2E2E2E2E2E2E2E2E2E2E2E2E2E2E2E2E2E2E2E2E2E2E2E2E2E2E2E2E2E2E2E2E2E2E2E2E2E2E2E2E2E2E2E2BEE2E2E2E2E2E2E2E2DCE2E2E22DE2E2E2E2E2E2E2BEE2E2E2E2E2E2
310
E2E2E2E2E2E2BEE2E2E2E2E2E2E2E2E2E2E2E2E2E2E2E2E2E2E2E2E2E2E2E2E2E2E2E22DE2E2E2E2E2E2BEE2E2E2E2E2E2E2E2E2E2E2E2E2E2E2BEE2E2E2DCE2E2BEE2E2E2E2E2E2E2E2E2E2E2E2E2E2E2E2E2E2E2E2E2E2E2E2E2E2E2E2E2E2E2E2E2E2E2E2E2E2E2E2E2E2E2E2E2E2E2E2E2E2E2E2E2E2E2E2E2E2E2E2E2
310
E2E2E2E2E2E2E2E2E2E2E2E2E2E2E2E2E2E2E2E2E2E2E2E2E2E2E2E2E2E2E2E2E2E2E2E2E2E2E2E2E2E2E2E2E2E2E2E2E2E2E2E2E2E2E2E2E2E2E2E2E2E2E2E2E2E2E2E2E2E2E2E2E2E2E2E2E2E2E2E2E2E2E2E2E2E2E2E2E2E2E2E2E2E2E2E2E2E2E2E2E2BEE2E2E2E2E2E2E2E2DCE2E2E22DE2E2E2E2E2E2E2BEE2E2E2E2
310
E2E2E2E2E2E2E2E2BEE2E2E2E2E2E2E2E2E2E2E2E2E2E2E2E2E2E2E2E2E2E2E2E2E2E2E2E22DE2E2E2E2E2E2BEE2E2E2E2E2E2E2E2E2E2E2E2E2E2E2BEE2E2E2DCE2E2BEE2E2E2E2E2E2E2E2E2E2E2E2E2E2E2E2E2E2E2E2E2E2E2E2E2E2E2E2E2E2E2E2E2E2E2E2E2E2E2E2E2E2E2E2E2E2E2E2E2E2E2E2E2E2E2E2E2E2E2
310
E2E2E2E2E2E2E2E2E2E2E2E2E2E2E2E2E2E2E2E2E2E2E2E2E2E2E2E2E2E2E2E2E2E2E2E2E2E2E2E2E2E2E2E2E2E2E2E2E2E2E2E2E2E2E2E2E2E2E2E2E2E2E2E2E2E2E2E2E2E2E2E2E2E2E2E2E2E2E2E2E2E2E2E2E2E2E2E2E2E2E2E2E2E2E2E2E2E2E2E2E2E2E2BEE2E2E2E2E2E2E2E2DCE2E2E22DE2E2E2E2E2E2E2BEE2E2
310
E2E2E2E2E2E2E2E2E2E2BEE2E2E2E2E2E2E2E2E2E2E2E2E2E2E2E2E2E2E2E2E2E2E2E2E2E2E2E22DE2E2E2E2E2E2BEE2E2E2E2E2E2E2E2E2E2E2E2E2E2E2BEE2E2E2DCE2E2BEE2E2E2E2E2E2E2E2E2E2E2E2E2E2E2E2E2E2E2E2E2E2E2E2E2E2E2E2E2E2E2E2E2E2E2E2E2E2E2E2E2E2E2E2E2E2E2E2E2E2E2E2E2E2E2E2E2
310
E2E2E2E2E2E2E2E2E2E2E2E2E2E2E2E2E2E2E2E2E2E2E2E2E2E2E2E2E2E2E2E2E2E2E2E2E2E2E2E2E2E2E2E2E2E2E2E2E2E2E2E2E2E2E2E2E2E2E2E2E2E2E2E2E2E2E2E2E2E2E2E2E2E2E2E2E2E2E2E2E2E2E2E2E2E2E2E2E2E2E2E2E2E2E2E2E2E2E2E2E2E2E2E2E2BEE2E2E2E2E2E2E2E2DCE2E2E22DE2E2E2E2E2E2E2BE
310
E2E2E2E2E2E2E2E2E2E2BEBEBEE2E2E2E2E2E2E2E2E2E2E2E2E2E2E2E2E2E2E2E2E2E2E2E2E2E2E2E22DE2E2E2E2E2E2BEE2E2E2E2E2E2E2E2E2E2E2E2E2E2E2BEE2E2E2DCE2E2BEE2E2E2E2E2E2E2E2E2E2E2E2E2E2E2E2E2E2E2E2E2E2E2E2E2E2E2E2E2E2E2E2E2E2E2E2E2E2E2E2E2E2E2E2E2E2E2E2E2E2E2E2E2E2E2
310
E2E2E2E2E2E2E2E2E2E2E2E2E2E2E2E2E2E2E2E2E2E2E2E2E2E2E2E2E2E2E2E2E2E2E2E2E2E2E2E2E2E2E2E2E2E2E2E2E2E2E2E2E2E2E2E2E2E2E2E2E2E2E2E2E2E2E2E2E2E2E2E2E2E2E2E2E2E2E2E2E2E2E2E2E2E2E2E2E2E2E2E2E2E2E2E2E2E2E2E2E2E2E2E2E2E2E2BEE2E2E2E2E2E2E2E2DCE2E2E22DE2E2E2E2E2E2
310
E2BEE2E2E2E2E2E2E2E2E2E2BEE2E2E2E2E2E2E2E2E2E2E2E2E2E2E2E2E2E2E2E2E2E2E2E2E2E2E2E2E2E22DE2E2E2E2E2E2BEE2E2E2E2E2E2E2E2E2E2E2E2E2E2E2BEE2E2E2DCE2E2BEE2E2E2E2E2E2E2E2E2E2E2E2E2E2E2E2E2E2E2E2E2E2E2E2E2E2E2E2E2E2E2E2E2E2E2E2E2E2E2E2E2E2E2E2E2E2E2E2E2E2E2E2E2
310
E2E2E2E2E2E2E2E2E2E2E2E2E2E2E2E2E2E2E2E2E2E2E2E2E2E2E2E2E2E2E2E2E2E2E2E2E2E2E2E2E2E2E2E2E2E2E2E2E2E2E2E2E2E2E2E2E2E2E2E2E2E2E2E2E2E2E2E2E2E2E2E2E2E2E2E2E2E2E2E2E2E2E2E2E2E2E2E2E2E2E2E2E2E2E2E2E2E2E2E2E2E2E2E2E2E2E2E2E2BEE2E2E2E2E2E2E2E2DCE2E2E22DE2E2E2E2
310
E2E2E2BEE2E2E2E2E2E2E2E2E2E2BEE2E2E2E2E2E2E2E2E2E2E2E2E2E2E2E2E2E2E2E2E2E2E2E2E2E2E2E2E2E22DE2E2E2E2E2E2F52D2D2D2D2D2D2D2D2D2D2D2D2D2D2DF5E2E2E2DCE2E2BEE2E2E2E2E2E2E2E2E2E2E2E2E2E2E2E2E2E2E2E2E2E2E2E2E2E2E2E2E2E2E2E2E2E2E2E2E2E2E2E2E2E2E2E2E2E2E2E2E2E2E2
310
E2E2E2E2E2E2E2E2E2E2E2E2E2E2E2E2E2E2E2E2E2E2E2E2E2E2E2E2E2E2E2E2E2E2E2E2E2E2E2E2E2E2E2E2E2E2E2E2E2E2E2E2E2E2E2E2E2E2E2E2E2E2E2E2E2E2E2E2E2E2E2E2E2E2E2E2E2E2E2E2E2E2E2E2E2E2E2E2E2E2E2E2E2E2E2E2E2E2E2E2E2E2E2E2E2E2E2E2E2E2E2BEE2E2E2E2E2E2E2E2DCE2E2E22DE2E2
310
E2E2E2E2E2BEE2E2E2E2E2E2E2E2E2E2BEE2E2E2E2E2E2E2E2E2E2E2E2E2E2E2E2E2E2E2E2E2E2E2E2E2E2E2E2E2E22DE2E2E2E2E2E22DE2E2E2E2E2E2BEE2E2E2E2E2E2E22D2DE2E2E2DCE2E2BEE2E2E2E2E2E2E2E2E2E2E2E2E2E2E2E2E2E2E2E2E2E2E2E2E2E2E2E2E2E2E2E2E2E2E2E2E2E2E2E2E2E2E2E2E2E2E2E2E2
310
E2E2E2E2E2E2E2E2E2E2E2E2E2E2E2E2E2E2E2E2E2E2E2E2E2E2E2E2E2E2E2E2E2E2E2E2E2E2E2E2E2E2E2E2E2E2E2E2E2E2E2E2E2E2E2E2E2E2E2E2E2E2E2E2E2E2E2E2E2E2E2E2E2E2E2E2E2E2E2E2E2E2E2E2E2E2E2E2E2E2E2E2E2E2E2E2E2E2E2E2E2E2E2E2E2E2E2E2E2E2E2E2E2BEE2E2E2E2E2E2E2E2DCE2E2E22D
310
E2E2E2E2E2E2E2BEE2E2E2F5F5F5F5E2E2E2BEE2E2E2E2E2E2E2E2E2E2E2E2E2E2E2E2E2E2E2E2E2E2E2E2E2E2E2E2E2E22DE2E2E2E2E2E2BEE2E2E2E2E2F5F5F5F5E2E2E2E2E2E2F5E2E2E2DCE2E2BEE2E2E2E2E2E2E2E2E2E2E2E2E2E2E2E2E2E2E2E2E2E2E2E2E2E2E2E2E2E2E2E2E2E2E2E2E2E2E2E2E2E2E2E2E2E2E2
310
E2E2E2E2E2E2E2E2E2E2E2E2E2E2E2E2E2E2E2E2E2E2E2E2E2E2E2E2E2E2E2E2E2E2E2E2E2E2E2E2E2E2E2E2E2E2E2E2E2E2E2E2E2E2E2E2E2E2E2E2E2E2E2E2E2E2E2E2E2E2E2E2E2E2E2E2E2E2E2E2E2E2E2E2E2E2E2E2E2E2E2E2E2E2E2E2E2E2E2E2E2E2E2E2E2E2E2E2E2E2E2E2E2E2E2BEE2E2E2E2E2E2E2E2DCE2E2
310
2D2D2D2D2D2D2D2D2D2DF5BEBEBEBEBEBEBEBEBEBEE2E2E2E2E2E2E2E2E2E2E2E2E2E2E2E2E2E2E2E2E2E2E2E2E2E2E2E2E2E22DE2E2E2E2E2E2BEBEBEBEBEBEBEBEBEBEBEBEBEBEBEBE2DE2E2E2DCE2E2BEE2E2E2E2E2E2E2E2E2E2E2E2E2E2E2E2E2E2E2E2E2E2E2E2E2E2E2E2E2E2E2E2E2E2E2E2E2E2E2E2E2E2E2E2E2
310
E2E2E2E2E2E2E2E2E2E2E2E2E2E2E2E2E2E2E2E2E2E2E2E2E2E2E2E2E2E2E2E2E2E2E2E2E2E2E2E2E2E2E2E2E2E2E2E2E2E2E2E2E2E2E2E2E2E2E2E2E2E2E2E2E2E2E2E2E2E2E2E2E2E2E2E2E2E2E2E2E2E2E2E2E2E2E2E2E2E2E2E2E2E2E2E2E2E2E2E2E2E2E2E2E2E2E2E2E2E2E2E2E2E2E2E2E2BEE2E2E2E2E2E2E2E2DC
310
E2E2E2E2E2E2E2E2E2E2E2E2E2E2E2E2E2E2E2E2E2E2E2E2E2E2E2E2E2E2E2E2E2E2E2E2E2E2E2E2E2E2E2E2E2E2E2E2E2E2E2E2E22DE2E2E2E2E2E2E2E2E2E2E2E2E2E2E2E2E2E2E2E2E2E22DE2E2E2DCE2E2BEE2E2E2E2E2E2E2E2E2E2E2E2E2E2E2E2E2E2E2E2E2E2E2E2E2E2E2E2E2E2E2E2E2E2E2E2E2E2E2E2E2E2E2
310
E2E2E2E2E2E2E2E2E2E2E2E2E2E2E2E2E2E2E2E2E2E2E2E2E2E2E2E2E2E2E2E2E2E2E2E2E2E2E2E2E2E2E2E2E2E2E2E2E2E2E2E2E2E2E2E2E2E2E2E2E2E2E2E2E2E2E2E2E2E2E2E2E2E2E2E2E2E2E2E2E2E2E2E2E2E2E2E2E2E2E2E2E2E2E2E2E2E2E2E2E2E2E2E2E2E2E2E2E2E2E2E2E2E2E2E2E2E2E2BEE2E2E2E2E2E2E2
310
E2DCE2E2E2E2E2E2E2E2E2E2E2E2E2E2E2E2E2E2E2E2E2E2E2E2E2E2E2E2E2E2E2E2E2E2E2E2E2E2E2E2E2E2E2E2E2E2E2E2E2E2E2E2E22D2D2D2D2D2D2D2D2D2DBEBE2D2D2D2D2D2D2D2D2D2D2DF5E2E2E2DCE2E2BEE2E2E2E2E2E2E2E2E2E2E2E2E2E2E2E2E2E2E2E2E2E2E2E2E2E2E2E2E2E2E2E2E2E2E2E2E2E2E2E2E2
310
E2E2E2E2E2E2E2E2E2E2E2E2E2E2E2E2E2E2E2E2E2E2E2E2E2E2E2E2E2E2E2E2E2E2E2E2E2E2E2E2E2E2E2E2E2E2E2E2E2E2E2E2E2E2E2E2E2E2E2E2E2E2E2E2E2E2E2E2E2E2E2E2E2E2E2E2E2E2E2E2E2E2E2E2E2E2E2E2E2E2E2E2E2E2E2E2E2E2E2E2E2E2E2E2E2E2E2E2E2E2E2E2E2E2E2E2E2E2E2E2E2BEE2E2E2E2E2
310
E2E2E2DCE2E2E2E2E2E2E2E2E2E2E2E2E2E2E2E2E2E2E2E2E2E2E2E2E2E2E2E2E2E2E2E2E2E2E2E2E2E2E2E2E2E2E2E2E2E2E2E2E2E2E2E2E2E2E2E2E2E2E2E2E2E2E2E2E2E2E2E2E2E2E2E2E2E2E2E2E2E2E2E2DCE2E2BEE2E2E2E2E2E2E2E2E2E2E2E2E2E2E2E2E2E2E2E2E2E2E2E2E2E2E2E2E2E2E2E2E2E2E2E2E2E2E2
310
E2E2E2E2E2E2E2E2E2E2E2E2E2E2E2E2E2E2E2E2E2E2E2E2E2E2E2E2E2E2E2E2E2E2E2E2E2E2E2E2E2E2E2E2E2E2E2E2E2E2E2E2E2E2E2E2E2E2E2E2E2E2E2E2E2E2E2E2E2E2E2E2E2E2E2E2E2E2E2E2E2E2E2E2E2E2E2E2E2E2E2E2E2E2E2E2E2E2E2E2E2E2E2E2E2E2E2E2E2E2E2E2E2E2E2E2E2E2E2E2E2E2E2BEE2E2E2
310
E2E2E2E2E2DCE2E2E2E2E2E2E2E2E2E2E2E2E2E2E2E2E2E2E2E2E2E2E2E2E2E2E2E2E2E2E2E2E2E2E2E2E2E2E2E2E2E2E2E2E2E2E2E2E2E2E2E2E2E2E2E2E2E2E2E2E2E2E2E2E2E2E2E2E2E2E2E2E2E2E2E2E2E2E2E2DCE2E2BEE2E2E2E2E2E2E2E2E2E2E2E2E2E2E2E2E2E2E2E2E2E2E2E2E2E2E2E2E2E2E2E2E2E2E2E2E2
310
E2E2E2E2E2E2E2E2E2E2E2E2E2E2E2E2E2E2E2E2E2E2E2E2E2E2E2E2E2E2E2E2E2E2E2E2E2E2E2E2E2E2E2E2E2E2E2E2E2E2E2E2E2E2E2E2E2E2E2E2E2E2E2E2E2E2E2E2E2E2E2E2E2E2E2E2E2E2E2E2E2E2E2E2E2E2E2E2E2E2E2E2E2E2E2E2E2E2E2E2E2E2E2E2E2E2E2E2E2E2E2E2E2E2E2E2E2E2E2E2E2E2E2E2E2BEE2
310
E2E2E2E2E2E2E2DCE2E2E2E2E2E2E2E2E2E2E2E2E2E2E2E2E2E2E2E2E2E2E2E2E2E2E2E2E2E2E2E2E2E2E2E2E2E2E2E2E2E2E2E2E2E2E2E2E2E2E2E2E2E2E2E2E2E2E2E2E2E2E2E2E2E2E2E2E2E2E2E2E2E2E2E2E2E2E2E2DCE2E2BEE2E2E2E2E2E2E2E2E2E2E2E2E2E2E2E2E2E2E2E2E2E2E2E2E2E2E2E2E2E2E2E2E2E2E2
310
E2E2E2E2E2E2E2E2E2E2E2E2E2E2E2E2E2E2E2E2E2E2E2E2E2E2E2E2E2E2E2E2E2E2E2E2E2E2E2E2E2E2E2E2E2E2E2E2E2E2E2E2E2E2E2E2E2E2E2E2E2E2E2E2E2E2E2E2E2E2E2E2E2E2E2E2E2E2E2E2E2E2E2E2E2E2E2E2E2E2E2E2E2E2E2E2E2E2E2E2E2E2E2E2E2E2E2E2E2E2E2E2E2E2E2E2E2E2E2E2E2E2E2E2E2E2E2
310
BEE2E2E2E2E2E2E2E2DCE2E2E2E2E2E2E2E2E2E2E2E2E2E2E2E2E2E2E2E2E2E2E2E2E2E2E2E2E2E2E2E2E2E2E2E2E2E2E2E2E2E2E2E2E2E2E2E2E2E2E2E2E2E2E2E2E2E2E2E2E2E2E2E2E2E2E2E2E2E2E2E2E2E2E2E2E2E2E2E2DCE2E2BEE2E2E2E2E2E2E2E2E2E2E2E2E2E2E2E2E2E2E2E2E2E2E2E2E2E2E2E2E2E2E2E2E2
310
E2E2E2E2E2E2E2E2E2E2E2E2E2E2E2E2E2E2E2E2E2E2E2E2E2E2E2E2E2E2E2E2E2E2E2E2E2E2E2E2E2E2E2E2E2E2E2E2E2E2E2E2E2E2E2E2E2E2E2E2E2E2E2E2E2E2E2E2E2E2E2E2E2E2E2E2E2E2E2E2E2E2E2E2E2E2E2E2E2E2E2E2E2E2E2E2E2E2E2E2E2E2E2E2E2E2E2E2E2E2E2E2E2E2E2E2E2E2E2E2E2E2E2E2E2E2E2
310
E2E2BEE2E2E2E2E2E2E2E2DCE2E2E2E2E2E2E2E2E2E2E2E2E2E2E2E2E2E2E2E2E2E2E2E2E2E2E2E2E2E2E2E2E2E2E2E2E2E2E2E2E2E2E2E2E2E2E2E2E2E2E2E2E2E2E2E2E2E2E2E2E2E2E2E2E2E2E2E2E2E2E2E2E2E2E2E2E2E2E2E2DCE2E2BEE2E2E2E2E2E2E2E2E2E2E2E2E2E2E2E2E2E2E2E2E2E2E2E2E2E2E2E2E2E2E2
310
E2E2E2E2E2E2E2E2E2E2E2E2E2E2E2E2E2E2E2E2E2E2E2E2E2E2E2E2E2E2E2E2E2E2E2E2E2E2E2E2E2E2E2E2E2E2E2E2E2E2E2E2E2E2E2E2E2E2E2E2E2E2E2E2E2E2E2E2E2E2E2E2E2E2E2E2E2E2E2E2E2E2E2E2E2E2E2E2E2E2E2E2E2E2E2E2E2E2E2E2E2E2E2E2E2E2E2E2E2E2E2E2E2E2E2E2E2E2E2E2E2E2E2E2E2E2E2
310
E2E2E2E2BEE2E2E2E2E2E2E2E2DCDCDCDCDCDCDCDCDCDCDCDCDCDCDCDCDCDCDCDCDCDCDCDCDCDCDCDCDCDCDCDCDCDCDCDCDCDCDCDCDCDCDCDCDCDCDCDCDCDCDCDCDCDCDCDCDCDCDCDCDCDCDCDCDCDCDCDCDCDCDCDCDCDCDCDCDCDCDCDCDCDCE2E2BEE2E2E2E2E2E2E2E2E2E2E2E2E2E2E2E2E2E2E2E2E2E2E2E2E2E2E2E2E2
310
E2E2E2E2E2E2E2E2E2E2E2E2E2E2E2E2E2E2E2E2E2E2E2E2E2E2E2E2E2E2E2E2E2E2E2E2E2E2E2E2E2E2E2E2E2E2E2E2E2E2E2E2E2E2E2E2E2E2E2E2E2E2E2E2E2E2E2E2E2E2E2E2E2E2E2E2E2E2E2E2E2E2E2E2E2E2E2E2E2E2E2E2E2E2E2E2E2E2E2E2E2E2E2E2E2E2E2E2E2E2E2E2E2E2E2E2E2E2E2E2E2E2E2E2E2E2E2
310
E2E2E2E2E2E2BEE2E2E2E2E2E2E2E2E2E2E2E2E2E2E2E2E2E2E2E2E2E2E2E2E2E2E2E2E2E2E2E2E2E2E2E2E2E2E2E2E2E2E2E2E2E2E2E2E2E2E2E2E2E2E2E2E2E2E2E2E2E2E2E2E2E2E2E2E2E2E2E2E2E2E2E2E2E2E2E2E2E2E2E2E2E2E2E2E2E2E2E2BEE2E2E2E2E2E2E2E2E2E2E2E2E2E2E2E2E2E2E2E2E2E2E2E2E2E2E2
310
E2E2E2E2E2E2E2E2E2E2E2E2E2E2E2E2E2E2E2E2E2E2E2E2E2E2E2E2E2E2E2E2E2E2E2E2E2E2E2E2E2E2E2E2E2E2E2E2E2E2E2E2E2E2E2E2E2E2E2E2E2E2E2E2E2E2E2E2E2E2E2E2E2E2E2E2E2E2E2E2E2E2E2E2E2E2E2E2E2E2E2E2E2E2E2E2E2E2E2E2E2E2E2E2E2E2E2E2E2E2E2E2E2E2E2E2E2E2E2E2E2E2E2E2E2E2E2
310
E2E2E2E2E2E2E2E2BEE2E2E2E2E2E2E2E2E2E2E2E2E2E2E2E2E2E2E2E2E2E2E2E2E2E2E2E2E2E2E2E2E2E2E2E2E2E2E2E2E2E2E2E2E2E2E2E2E2E2E2E2E2E2E2E2E2E2E2E2E2E2E2E2E2E2E2E2E2E2E2E2E2E2E2E2E2E2E2E2E2E2E2E2E2E2E2E2E2E2E2E2BEE2E2E2E2E2E2E2E2E2E2E2E2E2E2E2E2E2E2E2E2E2E2E2E2E2
310
E2E2E2E2E2E2E2E2E2E2E2E2E2E2E2E2E2E2E2E2E2E2E2E2E2E2E2E2E2E2E2E2E2E2E2E2E2E2E2E2E2E2E2E2E2E2E2E2E2E2E2E2E2E2E2E2E2E2E2E2E2E2E2E2E2E2E2E2E2E2E2E2E2E2E2E2E2E2E2E2E2E2E2E2E2E2E2E2E2E2E2E2E2E2E2E2E2E2E2E2E2E2E2E2E2E2E2E2E2E2E2E2E2E2E2E2E2E2E2E2E2E2E2E2E2E2E2
310
E2E2E2E2E2E2E2E2E2E2BEBEBEBEBEBEBEBEBEBEBEBEBEBEBEBEBEBEBEBEBEBEBEBEBEBEBEBEBEBEBEBEBEBEBEBEBEBEBEBEBEBEBEBEBEBEBEBEBEBEBEBEBEBEBEBEBEBEBEBEBEBEBEBEBEBEBEBEBEBEBEBEBEBEBEBEBEBEBEBEBEBEBEBEBEBEBEBEBEBEBEBEBEBEE2E2E2E2E2E2E2E2E2E2E2E2E2E2E2E2E2E2E2E2E2E2E2
310
E2E2E2E2E2E2E2E2E2E2E2E2E2E2E2E2E2E2E2E2E2E2E2E2E2E2E2E2E2E2E2E2E2E2E2E2E2E2E2E2E2E2E2E2E2E2E2E2E2E2E2E2E2E2E2E2E2E2
  0
XRECORD
  5
47
102
{ACAD_REACTORS
330
46
102
}
330
46
100
AcDbXrecord
280
     1
270
     1
271
     1
  0
XRECORD
  5
48
102
{ACAD_REACTORS
330
46
102
}
330
46
100
AcDbXrecord
280
     1
270
     1
271
     1
  0
XRECORD
  5
49
102
{ACAD_REACTORS
330
46
102
}
330
46
100
AcDbXrecord
280
     1
270
     1
271
     1
  0
XRECORD
  5
4A
102
{ACAD_REACTORS
330
46
102
}
330
46
100
AcDbXrecord
280
     1
270
     1
271
     1
  0
XRECORD
  5
4B
102
{ACAD_REACTORS
330
46
102
}
330
46
100
AcDbXrecord
280
     1
270
     1
271
     1
  0
XRECORD
  5
4C
102
{ACAD_REACTORS
330
46
102
}
330
46
100
AcDbXrecord
280
     1
270
     1
271
     1
  0
XRECORD
  5
3F
102
{ACAD_REACTORS
330
3E
102
}
330
3E
100
AcDbXrecord
280
     1
270
     1
271
     1
  0
XRECORD
  5
40
102
{ACAD_REACTORS
330
3E
102
}
330
3E
100
AcDbXrecord
280
     1
270
     1
271
     1
  0
XRECORD
  5
41
102
{ACAD_REACTORS
330
3E
102
}
330
3E
100
AcDbXrecord
280
     1
270
     1
271
     1
  0
XRECORD
  5
42
102
{ACAD_REACTORS
330
3E
102
}
330
3E
100
AcDbXrecord
280
     1
270
     1
271
     1
  0
XRECORD
  5
43
102
{ACAD_REACTORS
330
3E
102
}
330
3E
100
AcDbXrecord
280
     1
270
     1
271
     1
  0
XRECORD
  5
44
102
{ACAD_REACTORS
330
3E
102
}
330
3E
100
AcDbXrecord
280
     1
270
     1
271
     1
  0
XRECORD
  5
F
102
{ACAD_REACTORS
330
E
102
}
330
E
100
AcDbXrecord
280
     1
270
     1
271
     1
  0
XRECORD
  5
10
102
{ACAD_REACTORS
330
E
102
}
330
E
100
AcDbXrecord
280
     1
270
     1
271
     1
  0
XRECORD
  5
11
102
{ACAD_REACTORS
330
E
102
}
330
E
100
AcDbXrecord
280
     1
270
     1
271
     1
  0
XRECORD
  5
12
102
{ACAD_REACTORS
330
E
102
}
330
E
100
AcDbXrecord
280
     1
270
     1
271
     1
  0
XRECORD
  5
13
102
{ACAD_REACTORS
330
E
102
}
330
E
100
AcDbXrecord
280
     1
270
     1
271
     1
  0
XRECORD
  5
14
102
{ACAD_REACTORS
330
E
102
}
330
E
100
AcDbXrecord
280
     1
270
     1
271
     1
  0
CELLSTYLEMAP
  5
344
102
{ACAD_REACTORS
330
56
102
}
330
56
100
AcDbCellStyleMap
 90
        3
300
CELLSTYLE
  1
TABLEFORMAT_BEGIN
 90
        5
170
     1
 91
        0
 92
    32768
 62
   257
 93
        1
300
CONTENTFORMAT
  1
CONTENTFORMAT_BEGIN
 90
        0
 91
        0
 92
      512
 93
        0
300

 40
0.0
140
1.0
 94
        5
 62
     0
340
27
144
6.0
309
CONTENTFORMAT_END
171
     1
301
MARGIN
  1
CELLMARGIN_BEGIN
 40
1.5
 40
1.5
 40
1.5
 40
1.5
 40
4.5
 40
4.5
309
CELLMARGIN_END
 94
        6
 95
        1
302
GRIDFORMAT
  1
GRIDFORMAT_BEGIN
 90
        0
 91
        1
 62
     0
 92
       -2
340
0
 93
        0
 40
1.125
309
GRIDFORMAT_END
 95
        2
302
GRIDFORMAT
  1
GRIDFORMAT_BEGIN
 90
        0
 91
        1
 62
     0
 92
       -2
340
0
 93
        0
 40
1.125
309
GRIDFORMAT_END
 95
        4
302
GRIDFORMAT
  1
GRIDFORMAT_BEGIN
 90
        0
 91
        1
 62
     0
 92
       -2
340
0
 93
        0
 40
1.125
309
GRIDFORMAT_END
 95
        8
302
GRIDFORMAT
  1
GRIDFORMAT_BEGIN
 90
        0
 91
        1
 62
     0
 92
       -2
340
0
 93
        0
 40
1.125
309
GRIDFORMAT_END
 95
       16
302
GRIDFORMAT
  1
GRIDFORMAT_BEGIN
 90
        0
 91
        1
 62
     0
 92
       -2
340
0
 93
        0
 40
1.125
309
GRIDFORMAT_END
 95
       32
302
GRIDFORMAT
  1
GRIDFORMAT_BEGIN
 90
        0
 91
        1
 62
     0
 92
       -2
340
0
 93
        0
 40
1.125
309
GRIDFORMAT_END
309
TABLEFORMAT_END
  1
CELLSTYLE_BEGIN
 90
        1
 91
        1
300
_TITLE
309
CELLSTYLE_END
300
CELLSTYLE
  1
TABLEFORMAT_BEGIN
 90
        5
170
     1
 91
        0
 92
        0
 62
   257
 93
        1
300
CONTENTFORMAT
  1
CONTENTFORMAT_BEGIN
 90
        0
 91
        0
 92
      512
 93
        0
300

 40
0.0
140
1.0
 94
        5
 62
     0
340
27
144
4.5
309
CONTENTFORMAT_END
171
     1
301
MARGIN
  1
CELLMARGIN_BEGIN
 40
1.5
 40
1.5
 40
1.5
 40
1.5
 40
4.5
 40
4.5
309
CELLMARGIN_END
 94
        6
 95
        1
302
GRIDFORMAT
  1
GRIDFORMAT_BEGIN
 90
        0
 91
        1
 62
     0
 92
       -2
340
0
 93
        0
 40
1.125
309
GRIDFORMAT_END
 95
        2
302
GRIDFORMAT
  1
GRIDFORMAT_BEGIN
 90
        0
 91
        1
 62
     0
 92
       -2
340
0
 93
        0
 40
1.125
309
GRIDFORMAT_END
 95
        4
302
GRIDFORMAT
  1
GRIDFORMAT_BEGIN
 90
        0
 91
        1
 62
     0
 92
       -2
340
0
 93
        0
 40
1.125
309
GRIDFORMAT_END
 95
        8
302
GRIDFORMAT
  1
GRIDFORMAT_BEGIN
 90
        0
 91
        1
 62
     0
 92
       -2
340
0
 93
        0
 40
1.125
309
GRIDFORMAT_END
 95
       16
302
GRIDFORMAT
  1
GRIDFORMAT_BEGIN
 90
        0
 91
        1
 62
     0
 92
       -2
340
0
 93
        0
 40
1.125
309
GRIDFORMAT_END
 95
       32
302
GRIDFORMAT
  1
GRIDFORMAT_BEGIN
 90
        0
 91
        1
 62
     0
 92
       -2
340
0
 93
        0
 40
1.125
309
GRIDFORMAT_END
309
TABLEFORMAT_END
  1
CELLSTYLE_BEGIN
 90
        2
 91
        1
300
_HEADER
309
CELLSTYLE_END
300
CELLSTYLE
  1
TABLEFORMAT_BEGIN
 90
        5
170
     1
 91
        0
 92
        0
 62
   257
 93
        1
300
CONTENTFORMAT
  1
CONTENTFORMAT_BEGIN
 90
        0
 91
        0
 92
      512
 93
        0
300

 40
0.0
140
1.0
 94
        2
 62
     0
340
27
144
4.5
309
CONTENTFORMAT_END
171
     1
301
MARGIN
  1
CELLMARGIN_BEGIN
 40
1.5
 40
1.5
 40
1.5
 40
1.5
 40
4.5
 40
4.5
309
CELLMARGIN_END
 94
        6
 95
        1
302
GRIDFORMAT
  1
GRIDFORMAT_BEGIN
 90
        0
 91
        1
 62
     0
 92
       -2
340
0
 93
        0
 40
1.125
309
GRIDFORMAT_END
 95
        2
302
GRIDFORMAT
  1
GRIDFORMAT_BEGIN
 90
        0
 91
        1
 62
     0
 92
       -2
340
0
 93
        0
 40
1.125
309
GRIDFORMAT_END
 95
        4
302
GRIDFORMAT
  1
GRIDFORMAT_BEGIN
 90
        0
 91
        1
 62
     0
 92
       -2
340
0
 93
        0
 40
1.125
309
GRIDFORMAT_END
 95
        8
302
GRIDFORMAT
  1
GRIDFORMAT_BEGIN
 90
        0
 91
        1
 62
     0
 92
       -2
340
0
 93
        0
 40
1.125
309
GRIDFORMAT_END
 95
       16
302
GRIDFORMAT
  1
GRIDFORMAT_BEGIN
 90
        0
 91
        1
 62
     0
 92
       -2
340
0
 93
        0
 40
1.125
309
GRIDFORMAT_END
 95
       32
302
GRIDFORMAT
  1
GRIDFORMAT_BEGIN
 90
        0
 91
        1
 62
     0
 92
       -2
340
0
 93
        0
 40
1.125
309
GRIDFORMAT_END
309
TABLEFORMAT_END
  1
CELLSTYLE_BEGIN
 90
        3
 91
        2
300
_DATA
309
CELLSTYLE_END
  0
ENDSEC
  0
EOF
