  0
SECTION
  2
HEADER
  9
$ACADVER
  1
AC1024
  9
$ACADMAINTVER
 70
     6
  9
$DWGCODEPAGE
  3
ANSI_1252
  9
$INSBASE
 10
0.0
 20
0.0
 30
0.0
  9
$EXTMIN
 10
0.0
 20
0.0
 30
0.0
  9
$EXTMAX
 10
1050.0
 20
1485.0
 30
0.0
  9
$LIMMIN
 10
0.0
 20
0.0
  9
$LIMMAX
 10
1050.0
 20
1485.0
  9
$ORTHOMODE
 70
     1
  9
$REGENMODE
 70
     1
  9
$FILLMODE
 70
     1
  9
$QTEXTMODE
 70
     0
  9
$MIRRTEXT
 70
     1
  9
$LTSCALE
 40
36.0
  9
$ATTMODE
 70
     1
  9
$TEXTSIZE
 40
17.0
  9
$TRACEWID
 40
1.0
  9
$TEXTSTYLE
  7
ROMANS
  9
$CLAYER
  8
09-01
  9
$CELTYPE
  6
ByLayer
  9
$CECOLOR
 62
   256
  9
$CELTSCALE
 40
1.0
  9
$DISPSILH
 70
     0
  9
$DIMSCALE
 40
5.0
  9
$DIMASZ
 40
2.5
  9
$DIMEXO
 40
1.0
  9
$DIMDLI
 40
10.0
  9
$DIMRND
 40
0.0
  9
$DIMDLE
 40
0.0
  9
$DIMEXE
 40
1.0
  9
$DIMTP
 40
0.0
  9
$DIMTM
 40
0.0
  9
$DIMTXT
 40
2.5
  9
$DIMCEN
 40
0.0
  9
$DIMTSZ
 40
0.0
  9
$DIMTOL
 70
     0
  9
$DIMLIM
 70
     0
  9
$DIMTIH
 70
     0
  9
$DIMTOH
 70
     0
  9
$DIMSE1
 70
     0
  9
$DIMSE2
 70
     0
  9
$DIMTAD
 70
     1
  9
$DIMZIN
 70
     8
  9
$DIMBLK
  1

  9
$DIMASO
 70
     1
  9
$DIMSHO
 70
     0
  9
$DIMPOST
  1

  9
$DIMAPOST
  1

  9
$DIMALT
 70
     0
  9
$DIMALTD
 70
     3
  9
$DIMALTF
 40
0.03937007874016
  9
$DIMLFAC
 40
1.0
  9
$DIMTOFL
 70
     1
  9
$DIMTVP
 40
0.0
  9
$DIMTIX
 70
     0
  9
$DIMSOXD
 70
     0
  9
$DIMSAH
 70
     0
  9
$DIMBLK1
  1

  9
$DIMBLK2
  1

  9
$DIMSTYLE
  2
Wagner
  9
$DIMCLRD
 70
     4
  9
$DIMCLRE
 70
     4
  9
$DIMCLRT
 70
     1
  9
$DIMTFAC
 40
1.0
  9
$DIMGAP
 40
1.0
  9
$DIMJUST
 70
     0
  9
$DIMSD1
 70
     0
  9
$DIMSD2
 70
     0
  9
$DIMTOLJ
 70
     0
  9
$DIMTZIN
 70
     8
  9
$DIMALTZ
 70
     0
  9
$DIMALTTZ
 70
     0
  9
$DIMUPT
 70
     0
  9
$DIMDEC
 70
     8
  9
$DIMTDEC
 70
     8
  9
$DIMALTU
 70
     2
  9
$DIMALTTD
 70
     3
  9
$DIMTXSTY
  7
STANDARD
  9
$DIMAUNIT
 70
     0
  9
$DIMADEC
 70
     2
  9
$DIMALTRND
 40
0.0
  9
$DIMAZIN
 70
     2
  9
$DIMDSEP
 70
    46
  9
$DIMATFIT
 70
     3
  9
$DIMFRAC
 70
     0
  9
$DIMLDRBLK
  1

  9
$DIMLUNIT
 70
     2
  9
$DIMLWD
 70
    -2
  9
$DIMLWE
 70
    -2
  9
$DIMTMOVE
 70
     0
  9
$DIMFXL
 40
1.0
  9
$DIMFXLON
 70
     0
  9
$DIMJOGANG
 40
0.7853981633974483
  9
$DIMTFILL
 70
     0
  9
$DIMTFILLCLR
 70
     0
  9
$DIMARCSYM
 70
     0
  9
$DIMLTYPE
  6

  9
$DIMLTEX1
  6

  9
$DIMLTEX2
  6

  9
$DIMTXTDIRECTION
 70
     0
  9
$LUNITS
 70
     2
  9
$LUPREC
 70
     2
  9
$SKETCHINC
 40
1.0
  9
$FILLETRAD
 40
0.0
  9
$AUNITS
 70
     0
  9
$AUPREC
 70
     2
  9
$MENU
  1
cncmenue
  9
$ELEVATION
 40
0.0
  9
$PELEVATION
 40
0.0
  9
$THICKNESS
 40
0.0
  9
$LIMCHECK
 70
     0
  9
$CHAMFERA
 40
0.0
  9
$CHAMFERB
 40
0.0
  9
$CHAMFERC
 40
0.0
  9
$CHAMFERD
 40
0.0
  9
$SKPOLY
 70
     0
  9
$TDCREATE
 40
2451017.458928125
  9
$TDUCREATE
 40
2451017.375594791
  9
$TDUPDATE
 40
2456881.640202002
  9
$TDUUPDATE
 40
2456881.556868669
  9
$TDINDWG
 40
0.1694368056
  9
$TDUSRTIMER
 40
0.1694368056
  9
$USRTIMER
 70
     1
  9
$ANGBASE
 50
0.0
  9
$ANGDIR
 70
     0
  9
$PDMODE
 70
     0
  9
$PDSIZE
 40
0.0
  9
$PLINEWID
 40
0.0
  9
$SPLFRAME
 70
     0
  9
$SPLINETYPE
 70
     6
  9
$SPLINESEGS
 70
     8
  9
$HANDSEED
  5
4B6
  9
$SURFTAB1
 70
    24
  9
$SURFTAB2
 70
    24
  9
$SURFTYPE
 70
     6
  9
$SURFU
 70
     6
  9
$SURFV
 70
     6
  9
$UCSBASE
  2

  9
$UCSNAME
  2

  9
$UCSORG
 10
0.0
 20
0.0
 30
0.0
  9
$UCSXDIR
 10
1.0
 20
0.0
 30
0.0
  9
$UCSYDIR
 10
0.0
 20
1.0
 30
0.0
  9
$UCSORTHOREF
  2

  9
$UCSORTHOVIEW
 70
     0
  9
$UCSORGTOP
 10
0.0
 20
0.0
 30
0.0
  9
$UCSORGBOTTOM
 10
0.0
 20
0.0
 30
0.0
  9
$UCSORGLEFT
 10
0.0
 20
0.0
 30
0.0
  9
$UCSORGRIGHT
 10
0.0
 20
0.0
 30
0.0
  9
$UCSORGFRONT
 10
0.0
 20
0.0
 30
0.0
  9
$UCSORGBACK
 10
0.0
 20
0.0
 30
0.0
  9
$PUCSBASE
  2

  9
$PUCSNAME
  2

  9
$PUCSORG
 10
0.0
 20
0.0
 30
0.0
  9
$PUCSXDIR
 10
1.0
 20
0.0
 30
0.0
  9
$PUCSYDIR
 10
0.0
 20
1.0
 30
0.0
  9
$PUCSORTHOREF
  2

  9
$PUCSORTHOVIEW
 70
     0
  9
$PUCSORGTOP
 10
0.0
 20
0.0
 30
0.0
  9
$PUCSORGBOTTOM
 10
0.0
 20
0.0
 30
0.0
  9
$PUCSORGLEFT
 10
0.0
 20
0.0
 30
0.0
  9
$PUCSORGRIGHT
 10
0.0
 20
0.0
 30
0.0
  9
$PUCSORGFRONT
 10
0.0
 20
0.0
 30
0.0
  9
$PUCSORGBACK
 10
0.0
 20
0.0
 30
0.0
  9
$USERI1
 70
     0
  9
$USERI2
 70
     0
  9
$USERI3
 70
     0
  9
$USERI4
 70
     0
  9
$USERI5
 70
     0
  9
$USERR1
 40
0.0
  9
$USERR2
 40
0.0
  9
$USERR3
 40
0.0
  9
$USERR4
 40
0.0
  9
$USERR5
 40
0.0
  9
$WORLDVIEW
 70
     1
  9
$SHADEDGE
 70
     3
  9
$SHADEDIF
 70
    70
  9
$TILEMODE
 70
     1
  9
$MAXACTVP
 70
    16
  9
$PINSBASE
 10
0.0
 20
0.0
 30
0.0
  9
$PLIMCHECK
 70
     0
  9
$PEXTMIN
 10
1.000000000000000E+20
 20
1.000000000000000E+20
 30
1.000000000000000E+20
  9
$PEXTMAX
 10
-1.000000000000000E+20
 20
-1.000000000000000E+20
 30
-1.000000000000000E+20
  9
$PLIMMIN
 10
0.0
 20
0.0
  9
$PLIMMAX
 10
12.0
 20
9.0
  9
$UNITMODE
 70
     0
  9
$VISRETAIN
 70
     0
  9
$PLINEGEN
 70
     0
  9
$PSLTSCALE
 70
     0
  9
$TREEDEPTH
 70
  3020
  9
$CMLSTYLE
  2
Standard
  9
$CMLJUST
 70
     0
  9
$CMLSCALE
 40
1.0
  9
$PROXYGRAPHICS
 70
     1
  9
$MEASUREMENT
 70
     0
  9
$CELWEIGHT
370
    -1
  9
$ENDCAPS
280
     0
  9
$JOINSTYLE
280
     0
  9
$LWDISPLAY
290
     0
  9
$INSUNITS
 70
     0
  9
$HYPERLINKBASE
  1

  9
$STYLESHEET
  1

  9
$XEDIT
290
     1
  9
$CEPSNTYPE
380
     0
  9
$PSTYLEMODE
290
     1
  9
$FINGERPRINTGUID
  2
{42F2AE4B-5A79-40C0-ABDD-AA1C30B64B56}
  9
$VERSIONGUID
  2
{6B30431A-44AD-4D07-AEFF-7A7EC465116A}
  9
$EXTNAMES
290
     1
  9
$PSVPSCALE
 40
0.0
  9
$OLESTARTUP
290
     0
  9
$SORTENTS
280
   127
  9
$INDEXCTL
280
     0
  9
$HIDETEXT
280
     1
  9
$XCLIPFRAME
280
     0
  9
$HALOGAP
280
     0
  9
$OBSCOLOR
 70
   257
  9
$OBSLTYPE
280
     0
  9
$INTERSECTIONDISPLAY
280
     0
  9
$INTERSECTIONCOLOR
 70
   257
  9
$DIMASSOC
280
     1
  9
$PROJECTNAME
  1

  9
$CAMERADISPLAY
290
     0
  9
$LENSLENGTH
 40
50.0
  9
$CAMERAHEIGHT
 40
0.0
  9
$STEPSPERSEC
 40
2.0
  9
$STEPSIZE
 40
6.0
  9
$3DDWFPREC
 40
2.0
  9
$PSOLWIDTH
 40
0.25
  9
$PSOLHEIGHT
 40
4.0
  9
$LOFTANG1
 40
1.570796326794896
  9
$LOFTANG2
 40
1.570796326794896
  9
$LOFTMAG1
 40
0.0
  9
$LOFTMAG2
 40
0.0
  9
$LOFTPARAM
 70
     7
  9
$LOFTNORMALS
280
     1
  9
$LATITUDE
 40
37.795
  9
$LONGITUDE
 40
-122.394
  9
$NORTHDIRECTION
 40
0.0
  9
$TIMEZONE
 70
 -8000
  9
$LIGHTGLYPHDISPLAY
280
     1
  9
$TILEMODELIGHTSYNCH
280
     1
  9
$CMATERIAL
347
3A
  9
$SOLIDHIST
280
     1
  9
$SHOWHIST
280
     1
  9
$DWFFRAME
280
     2
  9
$DGNFRAME
280
     0
  9
$REALWORLDSCALE
290
     1
  9
$INTERFERECOLOR
 62
     1
  9
$INTERFEREOBJVS
345
55
  9
$INTERFEREVPVS
346
56
  9
$CSHADOW
280
     0
  9
$SHADOWPLANELOCATION
 40
0.0
  0
ENDSEC
  0
SECTION
  2
CLASSES
  0
CLASS
  1
ACDBDICTIONARYWDFLT
  2
AcDbDictionaryWithDefault
  3
ObjectDBX Classes
 90
        0
 91
        1
280
     0
281
     0
  0
CLASS
  1
MATERIAL
  2
AcDbMaterial
  3
ObjectDBX Classes
 90
     1153
 91
        3
280
     0
281
     0
  0
CLASS
  1
VISUALSTYLE
  2
AcDbVisualStyle
  3
ObjectDBX Classes
 90
     4095
 91
        3
280
     0
281
     0
  0
CLASS
  1
TABLESTYLE
  2
AcDbTableStyle
  3
ObjectDBX Classes
 90
     4095
 91
        1
280
     0
281
     0
  0
CLASS
  1
SCALE
  2
AcDbScale
  3
ObjectDBX Classes
 90
     1153
 91
       33
280
     0
281
     0
  0
CLASS
  1
MLEADERSTYLE
  2
AcDbMLeaderStyle
  3
ACDB_MLEADERSTYLE_CLASS
 90
     4095
 91
        0
280
     0
281
     0
  0
CLASS
  1
SORTENTSTABLE
  2
AcDbSortentsTable
  3
ObjectDBX Classes
 90
        0
 91
        4
280
     0
281
     0
  0
CLASS
  1
CELLSTYLEMAP
  2
AcDbCellStyleMap
  3
ObjectDBX Classes
 90
     1152
 91
        1
280
     0
281
     0
  0
CLASS
  1
DICTIONARYVAR
  2
AcDbDictionaryVar
  3
ObjectDBX Classes
 90
        0
 91
        7
280
     0
281
     0
  0
CLASS
  1
SOLID_BACKGROUND
  2
AcDbSolidBackground
  3
SCENEOE
 90
     4095
 91
        0
280
     0
281
     0
  0
CLASS
  1
NPOCOLLECTION
  2
AcDbImpNonPersistentObjectsCollection
  3
ObjectDBX Classes
 90
     1153
 91
        0
280
     0
281
     0
  0
CLASS
  1
ACAD_TABLE
  2
AcDbTable
  3
ObjectDBX Classes
 90
     1025
 91
        0
280
     0
281
     1
  0
CLASS
  1
TABLECONTENT
  2
AcDbTableContent
  3
ObjectDBX Classes
 90
     1152
 91
        0
280
     0
281
     0
  0
CLASS
  1
TABLEGEOMETRY
  2
AcDbTableGeometry
  3
ObjectDBX Classes
 90
     1152
 91
        0
280
     0
281
     0
  0
CLASS
  1
AEC_REFEDIT_STATUS_TRACKER
  2
AecDbRefEditStatusTracker
  3
AecArchBase60|Product Desc: Autodesk Architectural Desktop 2007 |Company: Autodesk,Inc. |WEB Address: www.autodesk.com
 90
      129
 91
        0
280
     0
281
     0
  0
ENDSEC
  0
SECTION
  2
TABLES
  0
TABLE
  2
VPORT
  5
2B
330
0
100
AcDbSymbolTable
 70
     1
  0
VPORT
  5
2C
330
2B
100
AcDbSymbolTableRecord
100
AcDbViewportTableRecord
  2
*Active
 70
     0
 10
0.0
 20
0.0
 11
1.0
 21
1.0
 12
702.4120636144561
 22
647.4302178450495
 13
0.0
 23
0.0
 14
1.0
 24
1.0
 15
500.0
 25
500.0
 16
0.0
 26
0.0
 36
1.0
 17
0.0
 27
0.0
 37
0.0
 40
2393.857212070094
 41
1.937738246505718
 42
50.0
 43
0.0
 44
0.0
 50
0.0
 51
0.0
 71
     0
 72
  1000
 73
     1
 74
     0
 75
     0
 76
     0
 77
     0
 78
     0
281
     0
 65
     1
110
0.0
120
0.0
130
0.0
111
1.0
121
0.0
131
0.0
112
0.0
122
1.0
132
0.0
 79
     0
146
0.0
348
2D
 60
     3
 61
     5
292
     1
282
     1
141
0.0
142
0.0
 63
   250
421
  3355443
  0
ENDTAB
  0
TABLE
  2
LTYPE
  5
26
330
0
100
AcDbSymbolTable
 70
     4
  0
LTYPE
  5
27
330
26
100
AcDbSymbolTableRecord
100
AcDbLinetypeTableRecord
  2
ByBlock
 70
     0
  3

 72
    65
 73
     0
 40
0.0
  0
LTYPE
  5
28
330
26
100
AcDbSymbolTableRecord
100
AcDbLinetypeTableRecord
  2
ByLayer
 70
     0
  3

 72
    65
 73
     0
 40
0.0
  0
LTYPE
  5
15
330
26
100
AcDbSymbolTableRecord
100
AcDbLinetypeTableRecord
  2
CONTINUOUS
 70
     0
  3
Ausgezogene Linie
 72
    65
 73
     0
 40
0.0
  0
LTYPE
  5
95
330
26
100
AcDbSymbolTableRecord
100
AcDbLinetypeTableRecord
  2
VERDECKT
 70
     0
  3
__ __ __ __ __ __ __ __ __ __ __ __ __ __ __ __
 72
    65
 73
     2
 40
0.375
 49
0.25
 74
     0
 49
-0.125
 74
     0
  0
LTYPE
  5
9B
330
26
100
AcDbSymbolTableRecord
100
AcDbLinetypeTableRecord
  2
STRICHPUNKT
 70
     0
  3
__ . __ . __ . __ . __ . __ . __ . __ . __ . __
 72
    65
 73
     4
 40
1.0
 49
0.5
 74
     0
 49
-0.25
 74
     0
 49
0.0
 74
     0
 49
-0.25
 74
     0
  0
LTYPE
  5
F9
330
26
100
AcDbSymbolTableRecord
100
AcDbLinetypeTableRecord
  2
AUSGEZOGEN
 70
     0
  3
Ausgezogene Linie
 72
    65
 73
     0
 40
0.0
  0
ENDTAB
  0
TABLE
  2
LAYER
  5
20
102
{ACAD_XDICTIONARY
360
21
102
}
330
0
100
AcDbSymbolTable
 70
    11
  0
LAYER
  5
6
102
{ACAD_XDICTIONARY
360
7
102
}
330
20
100
AcDbSymbolTableRecord
100
AcDbLayerTableRecord
  2
0
 70
     0
 62
     7
  6
CONTINUOUS
370
    -3
390
9
347
C
  0
LAYER
  5
188
102
{ACAD_XDICTIONARY
360
189
102
}
330
20
100
AcDbSymbolTableRecord
100
AcDbLayerTableRecord
  2
01-01
 70
     0
 62
     2
  6
CONTINUOUS
370
    -3
390
9
347
C
  0
LAYER
  5
172
102
{ACAD_XDICTIONARY
360
173
102
}
330
20
100
AcDbSymbolTableRecord
100
AcDbLayerTableRecord
  2
02-01
 70
     0
 62
     1
  6
CONTINUOUS
370
    -3
390
9
347
C
  0
LAYER
  5
92
102
{ACAD_XDICTIONARY
360
93
102
}
330
20
100
AcDbSymbolTableRecord
100
AcDbLayerTableRecord
  2
03-01
 70
     0
 62
     3
  6
VERDECKT
370
    -3
390
9
347
C
  0
LAYER
  5
98
102
{ACAD_XDICTIONARY
360
99
102
}
330
20
100
AcDbSymbolTableRecord
100
AcDbLayerTableRecord
  2
05-01
 70
     0
 62
     1
  6
STRICHPUNKT
370
    -3
390
9
347
C
  0
LAYER
  5
4E
102
{ACAD_XDICTIONARY
360
4F
102
}
330
20
100
AcDbSymbolTableRecord
100
AcDbLayerTableRecord
  2
09-01
 70
     0
 62
     7
  6
CONTINUOUS
370
    -3
390
9
347
C
  0
LAYER
  5
F0
102
{ACAD_XDICTIONARY
360
F1
102
}
330
20
100
AcDbSymbolTableRecord
100
AcDbLayerTableRecord
  2
01-99
 70
     0
 62
     2
  6
CONTINUOUS
370
    -3
390
9
347
C
  0
LAYER
  5
F6
102
{ACAD_XDICTIONARY
360
F7
102
}
330
20
100
AcDbSymbolTableRecord
100
AcDbLayerTableRecord
  2
02-99
 70
     0
 62
     1
  6
AUSGEZOGEN
370
    -3
390
9
347
C
  0
LAYER
  5
12E
102
{ACAD_XDICTIONARY
360
12F
102
}
330
20
100
AcDbSymbolTableRecord
100
AcDbLayerTableRecord
  2
06-99
 70
     0
 62
     1
  6
AUSGEZOGEN
370
    -3
390
9
347
C
  0
LAYER
  5
118
102
{ACAD_XDICTIONARY
360
119
102
}
330
20
100
AcDbSymbolTableRecord
100
AcDbLayerTableRecord
  2
08-99
 70
     0
 62
     7
  6
CONTINUOUS
370
    -3
390
9
347
C
  0
LAYER
  5
82
330
20
100
AcDbSymbolTableRecord
100
AcDbLayerTableRecord
  2
DEFPOINTS
 70
     0
 62
     7
  6
CONTINUOUS
290
     0
370
    -3
390
9
347
C
  0
ENDTAB
  0
TABLE
  2
STYLE
  5
23
330
0
100
AcDbSymbolTable
 70
     4
  0
STYLE
  5
24
330
23
100
AcDbSymbolTableRecord
100
AcDbTextStyleTableRecord
  2
STANDARD
 70
     0
 40
0.0
 41
1.0
 50
0.0
 71
     0
 42
3.5
  3
txt.shx
  4

  0
STYLE
  5
51
330
23
100
AcDbSymbolTableRecord
100
AcDbTextStyleTableRecord
  2
ROMANS
 70
     0
 40
0.0
 41
1.0
 50
0.0
 71
     0
 42
17.0
  3
ROMANS.SHX
  4

  0
STYLE
  5
11B
330
23
100
AcDbSymbolTableRecord
100
AcDbTextStyleTableRecord
  2
ROMANS8
 70
     0
 40
0.0
 41
1.0
 50
0.0
 71
     0
 42
2.5
  3
ROMANS8
  4

  0
STYLE
  5
141
330
23
100
AcDbSymbolTableRecord
100
AcDbTextStyleTableRecord
  2
ROMAND8
 70
     0
 40
0.0
 41
1.0
 50
0.0
 71
     0
 42
3.5
  3
ROMAND8
  4

  0
ENDTAB
  0
TABLE
  2
VIEW
  5
29
330
0
100
AcDbSymbolTable
 70
     0
  0
ENDTAB
  0
TABLE
  2
UCS
  5
2A
330
0
100
AcDbSymbolTable
 70
     0
  0
ENDTAB
  0
TABLE
  2
APPID
  5
2F
330
0
100
AcDbSymbolTable
 70
     5
  0
APPID
  5
30
330
2F
100
AcDbSymbolTableRecord
100
AcDbRegAppTableRecord
  2
ACAD
 70
     0
  0
APPID
  5
33
330
2F
100
AcDbSymbolTableRecord
100
AcDbRegAppTableRecord
  2
ACAD_DSTYLE_DIMJOGGED_JOGANGLE_SYMBOL
 70
     0
  0
APPID
  5
34
330
2F
100
AcDbSymbolTableRecord
100
AcDbRegAppTableRecord
  2
ACAD_DSTYLE_DIMJAG
 70
     0
  0
APPID
  5
35
330
2F
100
AcDbSymbolTableRecord
100
AcDbRegAppTableRecord
  2
ACAD_DSTYLE_DIMTALN
 70
     0
  0
APPID
  5
1B
330
2F
100
AcDbSymbolTableRecord
100
AcDbRegAppTableRecord
  2
ACAD_PSEXT
 70
     0
  0
ENDTAB
  0
TABLE
  2
DIMSTYLE
  5
31
330
0
100
AcDbSymbolTable
 70
     2
100
AcDbDimStyleTable
 71
     1
340
32
  0
DIMSTYLE
105
32
330
31
100
AcDbSymbolTableRecord
100
AcDbDimStyleTableRecord
  2
Wagner
 70
     0
 41
2.5
 42
1.0
 43
10.0
 44
1.0
 73
     0
 74
     0
 77
     1
 78
     8
 79
     2
140
2.5
141
0.0
143
0.03937007874016
147
1.0
171
     3
172
     1
176
     4
177
     4
178
     1
179
     2
271
     8
272
     8
274
     3
283
     0
284
     8
340
24
1001
ACAD_DSTYLE_DIMJOGGED_JOGANGLE_SYMBOL
1070
   384
1040
0.7853981633974483
1001
ACAD_DSTYLE_DIMJAG
1070
   388
1040
1.5
1001
ACAD_DSTYLE_DIMTALN
1070
   392
1070
     0
  0
DIMSTYLE
105
86
102
{ACAD_REACTORS
330
374
330
368
330
35C
330
1CF
330
1C2
330
1B5
330
1A8
330
19B
330
18E
330
176
330
49C
330
48F
330
480
330
473
330
466
330
433
330
41B
330
40A
330
3ED
330
3E0
330
3D3
330
3C5
330
3AF
330
3A0
330
78
102
}
330
31
100
AcDbSymbolTableRecord
100
AcDbDimStyleTableRecord
  2
Wagner$0
 70
     0
 41
2.5
 42
1.0
 43
10.0
 44
1.0
 73
     0
 74
     0
 77
     1
 78
     8
 79
     2
140
2.5
141
0.0
143
0.03937007874016
147
1.0
171
     3
172
     1
174
     1
176
     4
177
     4
178
     1
179
     2
271
     8
272
     8
274
     3
279
     2
283
     0
284
     8
340
24
1001
ACAD_DSTYLE_DIMJOGGED_JOGANGLE_SYMBOL
1070
   384
1040
0.7853981633974483
1001
ACAD_DSTYLE_DIMJAG
1070
   388
1040
1.5
1001
ACAD_DSTYLE_DIMTALN
1070
   392
1070
     0
  0
ENDTAB
  0
TABLE
  2
BLOCK_RECORD
  5
1
330
0
100
AcDbSymbolTable
 70
    26
  0
BLOCK_RECORD
  5
2
102
{ACAD_XDICTIONARY
360
3
102
}
330
1
100
AcDbSymbolTableRecord
100
AcDbBlockTableRecord
  2
*Model_Space
340
17
 70
     0
280
     1
281
     0
  0
BLOCK_RECORD
  5
1C
330
1
100
AcDbSymbolTableRecord
100
AcDbBlockTableRecord
  2
*Paper_Space
340
1F
 70
     0
280
     1
281
     0
  0
BLOCK_RECORD
  5
375
330
1
100
AcDbSymbolTableRecord
100
AcDbBlockTableRecord
  2
*D0
340
0
 70
     0
280
     1
281
     0
  0
BLOCK_RECORD
  5
369
330
1
100
AcDbSymbolTableRecord
100
AcDbBlockTableRecord
  2
*D1
340
0
 70
     0
280
     1
281
     0
  0
BLOCK_RECORD
  5
35D
330
1
100
AcDbSymbolTableRecord
100
AcDbBlockTableRecord
  2
*D2
340
0
 70
     0
280
     1
281
     0
  0
BLOCK_RECORD
  5
1D0
330
1
100
AcDbSymbolTableRecord
100
AcDbBlockTableRecord
  2
*D3
340
0
 70
     0
280
     1
281
     0
  0
BLOCK_RECORD
  5
1C3
330
1
100
AcDbSymbolTableRecord
100
AcDbBlockTableRecord
  2
*D4
340
0
 70
     0
280
     1
281
     0
  0
BLOCK_RECORD
  5
1B6
330
1
100
AcDbSymbolTableRecord
100
AcDbBlockTableRecord
  2
*D5
340
0
 70
     0
280
     1
281
     0
  0
BLOCK_RECORD
  5
1A9
330
1
100
AcDbSymbolTableRecord
100
AcDbBlockTableRecord
  2
*D6
340
0
 70
     0
280
     1
281
     0
  0
BLOCK_RECORD
  5
19C
330
1
100
AcDbSymbolTableRecord
100
AcDbBlockTableRecord
  2
*D7
340
0
 70
     0
280
     1
281
     0
  0
BLOCK_RECORD
  5
18F
330
1
100
AcDbSymbolTableRecord
100
AcDbBlockTableRecord
  2
*D8
340
0
 70
     0
280
     1
281
     0
  0
BLOCK_RECORD
  5
177
330
1
100
AcDbSymbolTableRecord
100
AcDbBlockTableRecord
  2
*D9
340
0
 70
     0
280
     1
281
     0
  0
BLOCK_RECORD
  5
49D
330
1
100
AcDbSymbolTableRecord
100
AcDbBlockTableRecord
  2
*D10
340
0
 70
     0
280
     1
281
     0
  0
BLOCK_RECORD
  5
490
330
1
100
AcDbSymbolTableRecord
100
AcDbBlockTableRecord
  2
*D11
340
0
 70
     0
280
     1
281
     0
  0
BLOCK_RECORD
  5
481
330
1
100
AcDbSymbolTableRecord
100
AcDbBlockTableRecord
  2
*D12
340
0
 70
     0
280
     1
281
     0
  0
BLOCK_RECORD
  5
474
330
1
100
AcDbSymbolTableRecord
100
AcDbBlockTableRecord
  2
*D13
340
0
 70
     0
280
     1
281
     0
  0
BLOCK_RECORD
  5
467
330
1
100
AcDbSymbolTableRecord
100
AcDbBlockTableRecord
  2
*D14
340
0
 70
     0
280
     1
281
     0
  0
BLOCK_RECORD
  5
434
330
1
100
AcDbSymbolTableRecord
100
AcDbBlockTableRecord
  2
*D15
340
0
 70
     0
280
     1
281
     0
  0
BLOCK_RECORD
  5
41C
330
1
100
AcDbSymbolTableRecord
100
AcDbBlockTableRecord
  2
*D16
340
0
 70
     0
280
     1
281
     0
  0
BLOCK_RECORD
  5
40B
330
1
100
AcDbSymbolTableRecord
100
AcDbBlockTableRecord
  2
*D17
340
0
 70
     0
280
     1
281
     0
  0
BLOCK_RECORD
  5
3EE
330
1
100
AcDbSymbolTableRecord
100
AcDbBlockTableRecord
  2
*D18
340
0
 70
     0
280
     1
281
     0
  0
BLOCK_RECORD
  5
3E1
330
1
100
AcDbSymbolTableRecord
100
AcDbBlockTableRecord
  2
*D19
340
0
 70
     0
280
     1
281
     0
  0
BLOCK_RECORD
  5
3D4
330
1
100
AcDbSymbolTableRecord
100
AcDbBlockTableRecord
  2
*D20
340
0
 70
     0
280
     1
281
     0
  0
BLOCK_RECORD
  5
3C6
330
1
100
AcDbSymbolTableRecord
100
AcDbBlockTableRecord
  2
*D21
340
0
 70
     0
280
     1
281
     0
  0
BLOCK_RECORD
  5
3B0
330
1
100
AcDbSymbolTableRecord
100
AcDbBlockTableRecord
  2
*D22
340
0
 70
     0
280
     1
281
     0
  0
BLOCK_RECORD
  5
3A1
330
1
100
AcDbSymbolTableRecord
100
AcDbBlockTableRecord
  2
*D23
340
0
 70
     0
280
     1
281
     0
  0
BLOCK_RECORD
  5
EB
102
{ACAD_XDICTIONARY
360
EC
102
}
330
1
100
AcDbSymbolTableRecord
100
AcDbBlockTableRecord
  2
DIN A4
340
0
102
{BLKREFS
331
EA
102
}
 70
     4
280
     1
281
     0
  0
BLOCK_RECORD
  5
79
330
1
100
AcDbSymbolTableRecord
100
AcDbBlockTableRecord
  2
*D25
340
0
 70
     0
280
     1
281
     0
  0
ENDTAB
  0
ENDSEC
  0
SECTION
  2
BLOCKS
  0
BLOCK
  5
5
330
2
100
AcDbEntity
  8
0
100
AcDbBlockBegin
  2
*Model_Space
 70
     0
 10
0.0
 20
0.0
 30
0.0
  3
*Model_Space
  1

  0
ENDBLK
  5
16
330
2
100
AcDbEntity
  8
0
100
AcDbBlockEnd
  0
BLOCK
  5
1D
330
1C
100
AcDbEntity
 67
     1
  8
0
100
AcDbBlockBegin
  2
*Paper_Space
 70
     0
 10
0.0
 20
0.0
 30
0.0
  3
*Paper_Space
  1

  0
ENDBLK
  5
1E
330
1C
100
AcDbEntity
 67
     1
  8
0
100
AcDbBlockEnd
  0
BLOCK
  5
376
330
375
100
AcDbEntity
  8
0
100
AcDbBlockBegin
  2
*D0
 70
     1
 10
0.0
 20
0.0
 30
0.0
  3
*D0
  1

  0
LINE
  5
377
330
375
100
AcDbEntity
  8
09-01
 62
     4
440
 16777216
370
    -2
100
AcDbLine
 10
738.5854381069457
 20
1451.617094873824
 30
0.0
 11
698.5132231147745
 21
1451.617094873824
 31
0.0
  0
LINE
  5
378
330
375
100
AcDbEntity
  8
09-01
 62
     4
440
 16777216
370
    -2
100
AcDbLine
 10
784.5854381069457
 20
1351.617094873824
 30
0.0
 11
698.5132231147745
 21
1351.617094873824
 31
0.0
  0
LINE
  5
379
330
375
100
AcDbEntity
  8
09-01
 62
     4
440
 16777216
370
    -2
100
AcDbLine
 10
703.5132231147745
 20
1439.117094873824
 30
0.0
 11
703.5132231147745
 21
1364.117094873824
 31
0.0
  0
SOLID
  5
37A
330
375
100
AcDbEntity
  8
09-01
 62
     4
440
 16777216
100
AcDbTrace
 10
701.4298897814411
 20
1439.117094873824
 30
0.0
 11
705.5965564481079
 21
1439.117094873824
 31
0.0
 12
703.5132231147745
 22
1451.617094873824
 32
0.0
 13
703.5132231147745
 23
1451.617094873824
 33
0.0
  0
SOLID
  5
37B
330
375
100
AcDbEntity
  8
09-01
 62
     4
440
 16777216
100
AcDbTrace
 10
701.4298897814411
 20
1364.117094873824
 30
0.0
 11
705.5965564481079
 21
1364.117094873824
 31
0.0
 12
703.5132231147745
 22
1351.617094873824
 32
0.0
 13
703.5132231147745
 23
1351.617094873824
 33
0.0
  0
MTEXT
  5
37C
330
375
100
AcDbEntity
  8
09-01
 62
     1
440
 16777216
100
AcDbMText
 10
692.2632231147742
 20
1401.617094873825
 30
0.0
 40
12.5
 41
0.0
 46
0.0
 71
     5
 72
     1
  1
100
 11
0.0000000000000001
 21
1.0
 31
0.0
 73
     1
 44
1.0
  0
POINT
  5
37D
330
375
100
AcDbEntity
  8
DEFPOINTS
 62
     0
440
 16777216
100
AcDbPoint
 10
743.5854381069457
 20
1451.617094873824
 30
0.0
  0
POINT
  5
37E
330
375
100
AcDbEntity
  8
DEFPOINTS
 62
     0
440
 16777216
100
AcDbPoint
 10
789.5854381069457
 20
1351.617094873824
 30
0.0
  0
POINT
  5
37F
330
375
100
AcDbEntity
  8
DEFPOINTS
 62
     0
440
 16777216
100
AcDbPoint
 10
703.5132231147745
 20
1351.617094873824
 30
0.0
  0
ENDBLK
  5
380
330
375
100
AcDbEntity
  8
0
100
AcDbBlockEnd
  0
BLOCK
  5
36A
330
369
100
AcDbEntity
  8
0
100
AcDbBlockBegin
  2
*D1
 70
     1
 10
0.0
 20
0.0
 30
0.0
  3
*D1
  1

  0
LINE
  5
36B
330
369
100
AcDbEntity
  8
09-01
 62
     4
440
 16777216
370
    -2
100
AcDbLine
 10
784.5854381069457
 20
503.6170948738244
 30
0.0
 11
698.5132231147745
 21
503.6170948738244
 31
0.0
  0
LINE
  5
36C
330
369
100
AcDbEntity
  8
09-01
 62
     4
440
 16777216
370
    -2
100
AcDbLine
 10
703.5132231147747
 20
1339.117094873822
 30
0.0
 11
703.5132231147745
 21
516.1170948738246
 31
0.0
  0
SOLID
  5
36D
330
369
100
AcDbEntity
  8
09-01
 62
     4
440
 16777216
100
AcDbTrace
 10
701.4298897814414
 20
1339.117094873822
 30
0.0
 11
705.5965564481081
 21
1339.117094873822
 31
0.0
 12
703.5132231147747
 22
1351.617094873821
 32
0.0
 13
703.5132231147747
 23
1351.617094873821
 33
0.0
  0
SOLID
  5
36E
330
369
100
AcDbEntity
  8
09-01
 62
     4
440
 16777216
100
AcDbTrace
 10
701.4298897814411
 20
516.1170948738246
 30
0.0
 11
705.5965564481079
 21
516.1170948738246
 31
0.0
 12
703.5132231147745
 22
503.6170948738244
 32
0.0
 13
703.5132231147745
 23
503.6170948738244
 33
0.0
  0
MTEXT
  5
36F
330
369
100
AcDbEntity
  8
09-01
 62
     1
440
 16777216
100
AcDbMText
 10
692.2632231147744
 20
927.6170948738233
 30
0.0
 40
12.5
 41
0.0
 46
0.0
 71
     5
 72
     1
  1
848
 11
0.0000000000000001
 21
1.0
 31
0.0
 73
     1
 44
1.0
  0
POINT
  5
370
330
369
100
AcDbEntity
  8
DEFPOINTS
 62
     0
440
 16777216
100
AcDbPoint
 10
703.5132231147745
 20
1351.617094873821
 30
0.0
  0
POINT
  5
371
330
369
100
AcDbEntity
  8
DEFPOINTS
 62
     0
440
 16777216
100
AcDbPoint
 10
789.5854381069457
 20
503.6170948738244
 30
0.0
  0
POINT
  5
372
330
369
100
AcDbEntity
  8
DEFPOINTS
 62
     0
440
 16777216
100
AcDbPoint
 10
703.5132231147745
 20
503.6170948738244
 30
0.0
  0
ENDBLK
  5
373
330
369
100
AcDbEntity
  8
0
100
AcDbBlockEnd
  0
BLOCK
  5
35E
330
35D
100
AcDbEntity
  8
0
100
AcDbBlockBegin
  2
*D2
 70
     1
 10
0.0
 20
0.0
 30
0.0
  3
*D2
  1

  0
LINE
  5
35F
330
35D
100
AcDbEntity
  8
09-01
 62
     4
440
 16777216
370
    -2
100
AcDbLine
 10
698.5132231147745
 20
403.6170948738244
 30
0.0
 11
698.4298897814414
 21
403.6170948738244
 31
0.0
  0
LINE
  5
360
330
35D
100
AcDbEntity
  8
09-01
 62
     4
440
 16777216
370
    -2
100
AcDbLine
 10
703.4298897814415
 20
491.1170948738244
 30
0.0
 11
703.4298897814415
 21
416.1170948738244
 31
0.0
  0
SOLID
  5
361
330
35D
100
AcDbEntity
  8
09-01
 62
     4
440
 16777216
100
AcDbTrace
 10
701.3465564481081
 20
491.1170948738244
 30
0.0
 11
705.5132231147748
 21
491.1170948738244
 31
0.0
 12
703.4298897814415
 22
503.6170948738244
 32
0.0
 13
703.4298897814415
 23
503.6170948738244
 33
0.0
  0
SOLID
  5
362
330
35D
100
AcDbEntity
  8
09-01
 62
     4
440
 16777216
100
AcDbTrace
 10
701.3465564481081
 20
416.1170948738244
 30
0.0
 11
705.5132231147748
 21
416.1170948738244
 31
0.0
 12
703.4298897814415
 22
403.6170948738244
 32
0.0
 13
703.4298897814415
 23
403.6170948738244
 33
0.0
  0
MTEXT
  5
363
330
35D
100
AcDbEntity
  8
09-01
 62
     1
440
 16777216
100
AcDbMText
 10
692.1798897814413
 20
453.6170948738246
 30
0.0
 40
12.5
 41
0.0
 46
0.0
 71
     5
 72
     1
  1
100
 11
0.0000000000000001
 21
1.0
 31
0.0
 73
     1
 44
1.0
  0
POINT
  5
364
330
35D
100
AcDbEntity
  8
DEFPOINTS
 62
     0
440
 16777216
100
AcDbPoint
 10
703.4298897814415
 20
503.6170948738244
 30
0.0
  0
POINT
  5
365
330
35D
100
AcDbEntity
  8
DEFPOINTS
 62
     0
440
 16777216
100
AcDbPoint
 10
703.5132231147745
 20
403.6170948738244
 30
0.0
  0
POINT
  5
366
330
35D
100
AcDbEntity
  8
DEFPOINTS
 62
     0
440
 16777216
100
AcDbPoint
 10
703.4298897814415
 20
403.6170948738244
 30
0.0
  0
ENDBLK
  5
367
330
35D
100
AcDbEntity
  8
0
100
AcDbBlockEnd
  0
BLOCK
  5
1D1
330
1D0
100
AcDbEntity
  8
0
100
AcDbBlockBegin
  2
*D3
 70
     1
 10
0.0
 20
0.0
 30
0.0
  3
*D3
  1

  0
LINE
  5
1D2
330
1D0
100
AcDbEntity
  8
09-01
 62
     4
440
 16777216
370
    -2
100
AcDbLine
 10
493.7484504407384
 20
390.7766641091503
 30
0.0
 11
544.6905770694293
 21
390.7766641091503
 31
0.0
  0
LINE
  5
1D3
330
1D0
100
AcDbEntity
  8
09-01
 62
     4
440
 16777216
370
    -2
100
AcDbLine
 10
492.7484504407384
 20
270.7766641091502
 30
0.0
 11
544.6905770694293
 21
270.7766641091502
 31
0.0
  0
LINE
  5
1D4
330
1D0
100
AcDbEntity
  8
09-01
 62
     4
440
 16777216
370
    -2
100
AcDbLine
 10
539.6905770694293
 20
378.2766641091503
 30
0.0
 11
539.6905770694293
 21
283.2766641091502
 31
0.0
  0
SOLID
  5
1D5
330
1D0
100
AcDbEntity
  8
09-01
 62
     4
440
 16777216
100
AcDbTrace
 10
537.6072437360959
 20
378.2766641091503
 30
0.0
 11
541.7739104027626
 21
378.2766641091503
 31
0.0
 12
539.6905770694293
 22
390.7766641091503
 32
0.0
 13
539.6905770694293
 23
390.7766641091503
 33
0.0
  0
SOLID
  5
1D6
330
1D0
100
AcDbEntity
  8
09-01
 62
     4
440
 16777216
100
AcDbTrace
 10
537.6072437360959
 20
283.2766641091502
 30
0.0
 11
541.7739104027626
 21
283.2766641091502
 31
0.0
 12
539.6905770694293
 22
270.7766641091502
 32
0.0
 13
539.6905770694293
 23
270.7766641091502
 33
0.0
  0
MTEXT
  5
1D7
330
1D0
100
AcDbEntity
  8
09-01
 62
     1
440
 16777216
100
AcDbMText
 10
528.4405770694291
 20
330.7766641091503
 30
0.0
 40
12.5
 41
0.0
 46
0.0
 71
     5
 72
     1
  1
120
 11
0.0000000000000001
 21
1.0
 31
0.0
 73
     1
 44
1.0
  0
POINT
  5
1D8
330
1D0
100
AcDbEntity
  8
DEFPOINTS
 62
     0
440
 16777216
100
AcDbPoint
 10
488.7484504407384
 20
390.7766641091503
 30
0.0
  0
POINT
  5
1D9
330
1D0
100
AcDbEntity
  8
DEFPOINTS
 62
     0
440
 16777216
100
AcDbPoint
 10
487.7484504407384
 20
270.7766641091502
 30
0.0
  0
POINT
  5
1DA
330
1D0
100
AcDbEntity
  8
DEFPOINTS
 62
     0
440
 16777216
100
AcDbPoint
 10
539.6905770694293
 20
270.7766641091502
 30
0.0
  0
ENDBLK
  5
1DB
330
1D0
100
AcDbEntity
  8
0
100
AcDbBlockEnd
  0
BLOCK
  5
1C4
330
1C3
100
AcDbEntity
  8
0
100
AcDbBlockBegin
  2
*D4
 70
     1
 10
0.0
 20
0.0
 30
0.0
  3
*D4
  1

  0
LINE
  5
1C5
330
1C3
100
AcDbEntity
  8
09-01
 62
     4
440
 16777216
370
    -2
100
AcDbLine
 10
493.7484504407384
 20
390.7766641091503
 30
0.0
 11
521.0672761580262
 21
390.7766641091503
 31
0.0
  0
LINE
  5
1C6
330
1C3
100
AcDbEntity
  8
09-01
 62
     4
440
 16777216
370
    -2
100
AcDbLine
 10
493.7484504407384
 20
280.7766641091502
 30
0.0
 11
521.0672761580262
 21
280.7766641091502
 31
0.0
  0
LINE
  5
1C7
330
1C3
100
AcDbEntity
  8
09-01
 62
     4
440
 16777216
370
    -2
100
AcDbLine
 10
516.0672761580262
 20
378.2766641091503
 30
0.0
 11
516.0672761580262
 21
293.2766641091502
 31
0.0
  0
SOLID
  5
1C8
330
1C3
100
AcDbEntity
  8
09-01
 62
     4
440
 16777216
100
AcDbTrace
 10
513.9839428246928
 20
378.2766641091503
 30
0.0
 11
518.1506094913596
 21
378.2766641091503
 31
0.0
 12
516.0672761580262
 22
390.7766641091503
 32
0.0
 13
516.0672761580262
 23
390.7766641091503
 33
0.0
  0
SOLID
  5
1C9
330
1C3
100
AcDbEntity
  8
09-01
 62
     4
440
 16777216
100
AcDbTrace
 10
513.9839428246928
 20
293.2766641091502
 30
0.0
 11
518.1506094913596
 21
293.2766641091502
 31
0.0
 12
516.0672761580262
 22
280.7766641091502
 32
0.0
 13
516.0672761580262
 23
280.7766641091502
 33
0.0
  0
MTEXT
  5
1CA
330
1C3
100
AcDbEntity
  8
09-01
 62
     1
440
 16777216
100
AcDbMText
 10
504.8172761580262
 20
335.7766641091503
 30
0.0
 40
12.5
 41
0.0
 46
0.0
 71
     5
 72
     1
  1
110
 11
0.0000000000000001
 21
1.0
 31
0.0
 73
     1
 44
1.0
  0
POINT
  5
1CB
330
1C3
100
AcDbEntity
  8
DEFPOINTS
 62
     0
440
 16777216
100
AcDbPoint
 10
488.7484504407384
 20
390.7766641091503
 30
0.0
  0
POINT
  5
1CC
330
1C3
100
AcDbEntity
  8
DEFPOINTS
 62
     0
440
 16777216
100
AcDbPoint
 10
488.7484504407384
 20
280.7766641091502
 30
0.0
  0
POINT
  5
1CD
330
1C3
100
AcDbEntity
  8
DEFPOINTS
 62
     0
440
 16777216
100
AcDbPoint
 10
516.0672761580262
 20
280.7766641091502
 30
0.0
  0
ENDBLK
  5
1CE
330
1C3
100
AcDbEntity
  8
0
100
AcDbBlockEnd
  0
BLOCK
  5
1B7
330
1B6
100
AcDbEntity
  8
0
100
AcDbBlockBegin
  2
*D5
 70
     1
 10
0.0
 20
0.0
 30
0.0
  3
*D5
  1

  0
LINE
  5
1B8
330
1B6
100
AcDbEntity
  8
09-01
 62
     4
440
 16777216
370
    -2
100
AcDbLine
 10
185.7484504407384
 20
403.6170948738219
 30
0.0
 11
153.3406089512467
 21
403.6170948738219
 31
0.0
  0
LINE
  5
1B9
330
1B6
100
AcDbEntity
  8
09-01
 62
     4
440
 16777216
370
    -2
100
AcDbLine
 10
200.7484504407385
 20
850.120130184197
 30
0.0
 11
153.3406089512468
 21
850.120130184197
 31
0.0
  0
LINE
  5
1BA
330
1B6
100
AcDbEntity
  8
09-01
 62
     4
440
 16777216
370
    -2
100
AcDbLine
 10
158.3406089512467
 20
416.1170948738219
 30
0.0
 11
158.3406089512468
 21
837.620130184197
 31
0.0
  0
SOLID
  5
1BB
330
1B6
100
AcDbEntity
  8
09-01
 62
     4
440
 16777216
100
AcDbTrace
 10
156.2572756179134
 20
416.1170948738219
 30
0.0
 11
160.42394228458
 21
416.1170948738219
 31
0.0
 12
158.3406089512467
 22
403.6170948738219
 32
0.0
 13
158.3406089512467
 23
403.6170948738219
 33
0.0
  0
SOLID
  5
1BC
330
1B6
100
AcDbEntity
  8
09-01
 62
     4
440
 16777216
100
AcDbTrace
 10
156.2572756179135
 20
837.620130184197
 30
0.0
 11
160.4239422845802
 21
837.620130184197
 31
0.0
 12
158.3406089512468
 22
850.120130184197
 32
0.0
 13
158.3406089512468
 23
850.120130184197
 33
0.0
  0
MTEXT
  5
1BD
330
1B6
100
AcDbEntity
  8
09-01
 62
     1
440
 16777216
100
AcDbMText
 10
147.0906089512467
 20
626.8686125290095
 30
0.0
 40
12.5
 41
0.0
 46
0.0
 71
     5
 72
     1
  1
446.5
 11
0.0000000000000001
 21
1.0
 31
0.0
 73
     1
 44
1.0
  0
POINT
  5
1BE
330
1B6
100
AcDbEntity
  8
DEFPOINTS
 62
     0
440
 16777216
100
AcDbPoint
 10
190.7484504407384
 20
403.6170948738219
 30
0.0
  0
POINT
  5
1BF
330
1B6
100
AcDbEntity
  8
DEFPOINTS
 62
     0
440
 16777216
100
AcDbPoint
 10
205.7484504407384
 20
850.120130184197
 30
0.0
  0
POINT
  5
1C0
330
1B6
100
AcDbEntity
  8
DEFPOINTS
 62
     0
440
 16777216
100
AcDbPoint
 10
158.3406089512468
 20
850.120130184197
 30
0.0
  0
ENDBLK
  5
1C1
330
1B6
100
AcDbEntity
  8
0
100
AcDbBlockEnd
  0
BLOCK
  5
1AA
330
1A9
100
AcDbEntity
  8
0
100
AcDbBlockBegin
  2
*D6
 70
     1
 10
0.0
 20
0.0
 30
0.0
  3
*D6
  1

  0
LINE
  5
1AB
330
1A9
100
AcDbEntity
  8
09-01
 62
     4
440
 16777216
370
    -2
100
AcDbLine
 10
200.7484504407385
 20
1019.619718255305
 30
0.0
 11
125.2323850058539
 21
1019.619718255305
 31
0.0
  0
LINE
  5
1AC
330
1A9
100
AcDbEntity
  8
09-01
 62
     4
440
 16777216
370
    -2
100
AcDbLine
 10
185.7484504407384
 20
403.6170948738219
 30
0.0
 11
125.2323850058537
 21
403.617094873822
 31
0.0
  0
LINE
  5
1AD
330
1A9
100
AcDbEntity
  8
09-01
 62
     4
440
 16777216
370
    -2
100
AcDbLine
 10
130.2323850058539
 20
1007.119718255305
 30
0.0
 11
130.2323850058537
 21
416.1170948738219
 31
0.0
  0
SOLID
  5
1AE
330
1A9
100
AcDbEntity
  8
09-01
 62
     4
440
 16777216
100
AcDbTrace
 10
128.1490516725205
 20
1007.119718255305
 30
0.0
 11
132.3157183391872
 21
1007.119718255305
 31
0.0
 12
130.2323850058539
 22
1019.619718255305
 32
0.0
 13
130.2323850058539
 23
1019.619718255305
 33
0.0
  0
SOLID
  5
1AF
330
1A9
100
AcDbEntity
  8
09-01
 62
     4
440
 16777216
100
AcDbTrace
 10
128.1490516725204
 20
416.1170948738219
 30
0.0
 11
132.3157183391871
 21
416.1170948738219
 31
0.0
 12
130.2323850058537
 22
403.6170948738219
 32
0.0
 13
130.2323850058537
 23
403.6170948738219
 33
0.0
  0
MTEXT
  5
1B0
330
1A9
100
AcDbEntity
  8
09-01
 62
     1
440
 16777216
100
AcDbMText
 10
118.9823850058537
 20
711.6184065645635
 30
0.0
 40
12.5
 41
0.0
 46
0.0
 71
     5
 72
     1
  1
616
 11
0.0000000000000001
 21
1.0
 31
0.0
 73
     1
 44
1.0
  0
POINT
  5
1B1
330
1A9
100
AcDbEntity
  8
DEFPOINTS
 62
     0
440
 16777216
100
AcDbPoint
 10
205.7484504407384
 20
1019.619718255305
 30
0.0
  0
POINT
  5
1B2
330
1A9
100
AcDbEntity
  8
DEFPOINTS
 62
     0
440
 16777216
100
AcDbPoint
 10
190.7484504407384
 20
403.6170948738219
 30
0.0
  0
POINT
  5
1B3
330
1A9
100
AcDbEntity
  8
DEFPOINTS
 62
     0
440
 16777216
100
AcDbPoint
 10
130.2323850058537
 20
403.6170948738219
 30
0.0
  0
ENDBLK
  5
1B4
330
1A9
100
AcDbEntity
  8
0
100
AcDbBlockEnd
  0
BLOCK
  5
19D
330
19C
100
AcDbEntity
  8
0
100
AcDbBlockBegin
  2
*D7
 70
     1
 10
0.0
 20
0.0
 30
0.0
  3
*D7
  1

  0
LINE
  5
19E
330
19C
100
AcDbEntity
  8
09-01
 62
     4
440
 16777216
370
    -2
100
AcDbLine
 10
200.7484504407385
 20
1019.619718255305
 30
0.0
 11
125.2323850058537
 21
1019.619718255305
 31
0.0
  0
LINE
  5
19F
330
19C
100
AcDbEntity
  8
09-01
 62
     4
440
 16777216
370
    -2
100
AcDbLine
 10
200.7484504407385
 20
1154.600025958621
 30
0.0
 11
125.2323850058537
 21
1154.600025958621
 31
0.0
  0
LINE
  5
1A0
330
19C
100
AcDbEntity
  8
09-01
 62
     4
440
 16777216
370
    -2
100
AcDbLine
 10
130.2323850058537
 20
1032.119718255305
 30
0.0
 11
130.2323850058537
 21
1142.100025958621
 31
0.0
  0
SOLID
  5
1A1
330
19C
100
AcDbEntity
  8
09-01
 62
     4
440
 16777216
100
AcDbTrace
 10
128.1490516725204
 20
1032.119718255305
 30
0.0
 11
132.315718339187
 21
1032.119718255305
 31
0.0
 12
130.2323850058537
 22
1019.619718255305
 32
0.0
 13
130.2323850058537
 23
1019.619718255305
 33
0.0
  0
SOLID
  5
1A2
330
19C
100
AcDbEntity
  8
09-01
 62
     4
440
 16777216
100
AcDbTrace
 10
128.1490516725204
 20
1142.100025958621
 30
0.0
 11
132.3157183391871
 21
1142.100025958621
 31
0.0
 12
130.2323850058537
 22
1154.600025958621
 32
0.0
 13
130.2323850058537
 23
1154.600025958621
 33
0.0
  0
MTEXT
  5
1A3
330
19C
100
AcDbEntity
  8
09-01
 62
     1
440
 16777216
100
AcDbMText
 10
118.9823850058536
 20
1087.109872106963
 30
0.0
 40
12.5
 41
0.0
 46
0.0
 71
     5
 72
     1
  1
135
 11
0.0000000000000001
 21
1.0
 31
0.0
 73
     1
 44
1.0
  0
POINT
  5
1A4
330
19C
100
AcDbEntity
  8
DEFPOINTS
 62
     0
440
 16777216
100
AcDbPoint
 10
205.7484504407384
 20
1019.619718255305
 30
0.0
  0
POINT
  5
1A5
330
19C
100
AcDbEntity
  8
DEFPOINTS
 62
     0
440
 16777216
100
AcDbPoint
 10
205.7484504407384
 20
1154.600025958621
 30
0.0
  0
POINT
  5
1A6
330
19C
100
AcDbEntity
  8
DEFPOINTS
 62
     0
440
 16777216
100
AcDbPoint
 10
130.2323850058537
 20
1154.600025958621
 30
0.0
  0
ENDBLK
  5
1A7
330
19C
100
AcDbEntity
  8
0
100
AcDbBlockEnd
  0
BLOCK
  5
190
330
18F
100
AcDbEntity
  8
0
100
AcDbBlockBegin
  2
*D8
 70
     1
 10
0.0
 20
0.0
 30
0.0
  3
*D8
  1

  0
LINE
  5
191
330
18F
100
AcDbEntity
  8
09-01
 62
     4
440
 16777216
370
    -2
100
AcDbLine
 10
190.7484504407384
 20
385.7766641091503
 30
0.0
 11
190.7484504407384
 21
348.5290100966194
 31
0.0
  0
LINE
  5
192
330
18F
100
AcDbEntity
  8
09-01
 62
     4
440
 16777216
370
    -2
100
AcDbLine
 10
488.7484504407384
 20
385.7766641091503
 30
0.0
 11
488.7484504407384
 21
348.5290100966194
 31
0.0
  0
LINE
  5
193
330
18F
100
AcDbEntity
  8
09-01
 62
     4
440
 16777216
370
    -2
100
AcDbLine
 10
203.2484504407384
 20
353.5290100966195
 30
0.0
 11
476.2484504407384
 21
353.5290100966195
 31
0.0
  0
MTEXT
  5
194
330
18F
100
AcDbEntity
  8
09-01
 62
     1
440
 16777216
100
AcDbMText
 10
363.3624378445174
 20
365.8193835336328
 30
0.0
 40
12.5
 41
0.0
 46
0.0
 71
     5
 72
     1
  1
298
 73
     1
 44
1.0
  0
SOLID
  5
195
330
18F
100
AcDbEntity
  8
09-01
 62
     4
440
 16777216
100
AcDbTrace
 10
203.2484504407384
 20
355.6123434299528
 30
0.0
 11
203.2484504407384
 21
351.4456767632861
 31
0.0
 12
190.7484504407384
 22
353.5290100966195
 32
0.0
 13
190.7484504407384
 23
353.5290100966195
 33
0.0
  0
SOLID
  5
196
330
18F
100
AcDbEntity
  8
09-01
 62
     4
440
 16777216
100
AcDbTrace
 10
476.2484504407384
 20
355.6123434299528
 30
0.0
 11
476.2484504407384
 21
351.4456767632861
 31
0.0
 12
488.7484504407384
 22
353.5290100966195
 32
0.0
 13
488.7484504407384
 23
353.5290100966195
 33
0.0
  0
POINT
  5
197
330
18F
100
AcDbEntity
  8
DEFPOINTS
 62
     0
440
 16777216
100
AcDbPoint
 10
190.7484504407384
 20
390.7766641091503
 30
0.0
  0
POINT
  5
198
330
18F
100
AcDbEntity
  8
DEFPOINTS
 62
     0
440
 16777216
100
AcDbPoint
 10
488.7484504407384
 20
390.7766641091503
 30
0.0
  0
POINT
  5
199
330
18F
100
AcDbEntity
  8
DEFPOINTS
 62
     0
440
 16777216
100
AcDbPoint
 10
488.7484504407384
 20
353.5290100966195
 30
0.0
  0
ENDBLK
  5
19A
330
18F
100
AcDbEntity
  8
0
100
AcDbBlockEnd
  0
BLOCK
  5
178
330
177
100
AcDbEntity
  8
0
100
AcDbBlockBegin
  2
*D9
 70
     1
 10
0.0
 20
0.0
 30
0.0
  3
*D9
  1

  0
LINE
  5
179
330
177
100
AcDbEntity
  8
09-01
 62
     4
440
 16777216
370
    -2
100
AcDbLine
 10
799.5854381069457
 20
1354.617094873824
 30
0.0
 11
825.5092011539554
 21
1354.617094873824
 31
0.0
  0
LINE
  5
17A
330
177
100
AcDbEntity
  8
09-01
 62
     4
440
 16777216
370
    -2
100
AcDbLine
 10
799.5854381069457
 20
1348.617094873824
 30
0.0
 11
825.5092011539554
 21
1348.617094873824
 31
0.0
  0
LINE
  5
17B
330
177
100
AcDbEntity
  8
09-01
 62
     4
440
 16777216
370
    -2
100
AcDbLine
 10
820.5092011539555
 20
1367.117094873824
 30
0.0
 11
820.5092011539555
 21
1379.617094873824
 31
0.0
  0
LINE
  5
17C
330
177
100
AcDbEntity
  8
09-01
 62
     4
440
 16777216
370
    -2
100
AcDbLine
 10
820.5092011539555
 20
1336.117094873824
 30
0.0
 11
820.5092011539555
 21
1323.617094873824
 31
0.0
  0
MTEXT
  5
17D
330
177
100
AcDbEntity
  8
09-01
 62
     1
440
 16777216
100
AcDbMText
 10
810.2703045124426
 20
1374.23398848763
 30
0.0
 40
12.5
 41
0.0
 46
0.0
 71
     5
 72
     1
  1
6
 11
0.0000000000000001
 21
1.0
 31
0.0
 73
     1
 44
1.0
  0
LINE
  5
17E
330
177
100
AcDbEntity
  8
09-01
 62
     4
440
 16777216
370
    -2
100
AcDbLine
 10
820.5092011539555
 20
1354.617094873824
 30
0.0
 11
820.5092011539555
 21
1348.617094873824
 31
0.0
  0
SOLID
  5
17F
330
177
100
AcDbEntity
  8
09-01
 62
     4
440
 16777216
100
AcDbTrace
 10
818.4258678206221
 20
1367.117094873824
 30
0.0
 11
822.5925344872887
 21
1367.117094873824
 31
0.0
 12
820.5092011539555
 22
1354.617094873824
 32
0.0
 13
820.5092011539555
 23
1354.617094873824
 33
0.0
  0
SOLID
  5
180
330
177
100
AcDbEntity
  8
09-01
 62
     4
440
 16777216
100
AcDbTrace
 10
818.4258678206221
 20
1336.117094873824
 30
0.0
 11
822.5925344872887
 21
1336.117094873824
 31
0.0
 12
820.5092011539555
 22
1348.617094873824
 32
0.0
 13
820.5092011539555
 23
1348.617094873824
 33
0.0
  0
POINT
  5
181
330
177
100
AcDbEntity
  8
DEFPOINTS
 62
     0
440
 16777216
100
AcDbPoint
 10
794.5854381069457
 20
1354.617094873824
 30
0.0
  0
POINT
  5
182
330
177
100
AcDbEntity
  8
DEFPOINTS
 62
     0
440
 16777216
100
AcDbPoint
 10
794.5854381069457
 20
1348.617094873824
 30
0.0
  0
POINT
  5
183
330
177
100
AcDbEntity
  8
DEFPOINTS
 62
     0
440
 16777216
100
AcDbPoint
 10
820.5092011539555
 20
1348.617094873824
 30
0.0
  0
ENDBLK
  5
184
330
177
100
AcDbEntity
  8
0
100
AcDbBlockEnd
  0
BLOCK
  5
49E
330
49D
100
AcDbEntity
  8
0
100
AcDbBlockBegin
  2
*D10
 70
     1
 10
0.0
 20
0.0
 30
0.0
  3
*D10
  1

  0
LINE
  5
49F
330
49D
100
AcDbEntity
  8
01-01
 62
     4
440
 16777216
370
    -2
100
AcDbLine
 10
498.7484504407384
 20
1451.617094873822
 30
0.0
 11
591.3880400730261
 21
1451.617094873821
 31
0.0
  0
LINE
  5
4A0
330
49D
100
AcDbEntity
  8
01-01
 62
     4
440
 16777216
370
    -2
100
AcDbLine
 10
498.7484504407384
 20
403.6170948738219
 30
0.0
 11
591.3880400730258
 21
403.6170948738219
 31
0.0
  0
LINE
  5
4A1
330
49D
100
AcDbEntity
  8
01-01
 62
     4
440
 16777216
370
    -2
100
AcDbLine
 10
586.3880400730261
 20
1439.117094873821
 30
0.0
 11
586.3880400730258
 21
416.1170948738219
 31
0.0
  0
SOLID
  5
4A2
330
49D
100
AcDbEntity
  8
01-01
 62
     4
440
 16777216
100
AcDbTrace
 10
584.3047067396927
 20
1439.117094873821
 30
0.0
 11
588.4713734063594
 21
1439.117094873821
 31
0.0
 12
586.3880400730261
 22
1451.617094873821
 32
0.0
 13
586.3880400730261
 23
1451.617094873821
 33
0.0
  0
SOLID
  5
4A3
330
49D
100
AcDbEntity
  8
01-01
 62
     4
440
 16777216
100
AcDbTrace
 10
584.3047067396924
 20
416.1170948738219
 30
0.0
 11
588.4713734063592
 21
416.1170948738219
 31
0.0
 12
586.3880400730258
 22
403.6170948738219
 32
0.0
 13
586.3880400730258
 23
403.6170948738219
 33
0.0
  0
MTEXT
  5
4A4
330
49D
100
AcDbEntity
  8
01-01
 62
     1
440
 16777216
100
AcDbMText
 10
575.1380400730258
 20
927.617094873822
 30
0.0
 40
12.5
 41
0.0
 46
0.0
 71
     5
 72
     1
  1
1048
 11
0.0000000000000001
 21
1.0
 31
0.0
 73
     1
 44
1.0
  0
POINT
  5
4A5
330
49D
100
AcDbEntity
  8
DEFPOINTS
 62
     0
440
 16777216
100
AcDbPoint
 10
493.7484504407384
 20
1451.617094873822
 30
0.0
  0
POINT
  5
4A6
330
49D
100
AcDbEntity
  8
DEFPOINTS
 62
     0
440
 16777216
100
AcDbPoint
 10
493.7484504407384
 20
403.6170948738219
 30
0.0
  0
POINT
  5
4A7
330
49D
100
AcDbEntity
  8
DEFPOINTS
 62
     0
440
 16777216
100
AcDbPoint
 10
586.3880400730258
 20
403.6170948738219
 30
0.0
  0
ENDBLK
  5
4A8
330
49D
100
AcDbEntity
  8
0
100
AcDbBlockEnd
  0
BLOCK
  5
491
330
490
100
AcDbEntity
  8
0
100
AcDbBlockBegin
  2
*D11
 70
     1
 10
0.0
 20
0.0
 30
0.0
  3
*D11
  1

  0
LINE
  5
492
330
490
100
AcDbEntity
  8
09-01
 62
     4
440
 16777216
370
    -2
100
AcDbLine
 10
507.7484504407384
 20
994.1338277560411
 30
0.0
 11
561.6071646365559
 21
994.1338277560411
 31
0.0
  0
LINE
  5
493
330
490
100
AcDbEntity
  8
09-01
 62
     4
440
 16777216
370
    -2
100
AcDbLine
 10
493.7484504407384
 20
403.6170948738219
 30
0.0
 11
561.6071646365558
 21
403.6170948738219
 31
0.0
  0
LINE
  5
494
330
490
100
AcDbEntity
  8
09-01
 62
     4
440
 16777216
370
    -2
100
AcDbLine
 10
556.6071646365559
 20
981.6338277560411
 30
0.0
 11
556.6071646365558
 21
416.1170948738219
 31
0.0
  0
SOLID
  5
495
330
490
100
AcDbEntity
  8
09-01
 62
     4
440
 16777216
100
AcDbTrace
 10
554.5238313032225
 20
981.6338277560411
 30
0.0
 11
558.6904979698893
 21
981.6338277560411
 31
0.0
 12
556.6071646365559
 22
994.1338277560411
 32
0.0
 13
556.6071646365559
 23
994.1338277560411
 33
0.0
  0
SOLID
  5
496
330
490
100
AcDbEntity
  8
09-01
 62
     4
440
 16777216
100
AcDbTrace
 10
554.5238313032224
 20
416.1170948738219
 30
0.0
 11
558.6904979698892
 21
416.1170948738219
 31
0.0
 12
556.6071646365558
 22
403.6170948738219
 32
0.0
 13
556.6071646365558
 23
403.6170948738219
 33
0.0
  0
MTEXT
  5
497
330
490
100
AcDbEntity
  8
09-01
 62
     1
440
 16777216
100
AcDbMText
 10
545.3571646365556
 20
698.8754613149317
 30
0.0
 40
12.5
 41
0.0
 46
0.0
 71
     5
 72
     1
  1
590.5
 11
0.0000000000000001
 21
1.0
 31
0.0
 73
     1
 44
1.0
  0
POINT
  5
498
330
490
100
AcDbEntity
  8
DEFPOINTS
 62
     0
440
 16777216
100
AcDbPoint
 10
502.7484504407384
 20
994.1338277560411
 30
0.0
  0
POINT
  5
499
330
490
100
AcDbEntity
  8
DEFPOINTS
 62
     0
440
 16777216
100
AcDbPoint
 10
488.7484504407384
 20
403.6170948738219
 30
0.0
  0
POINT
  5
49A
330
490
100
AcDbEntity
  8
DEFPOINTS
 62
     0
440
 16777216
100
AcDbPoint
 10
556.6071646365558
 20
403.6170948738219
 30
0.0
  0
ENDBLK
  5
49B
330
490
100
AcDbEntity
  8
0
100
AcDbBlockEnd
  0
BLOCK
  5
482
330
481
100
AcDbEntity
  8
0
100
AcDbBlockBegin
  2
*D12
 70
     1
 10
0.0
 20
0.0
 30
0.0
  3
*D12
  1

  0
LINE
  5
483
330
481
100
AcDbEntity
  8
09-01
 62
     4
440
 16777216
370
    -2
100
AcDbLine
 10
473.7484504407384
 20
892.1201301841966
 30
0.0
 11
473.7484504407384
 21
911.8323769244343
 31
0.0
  0
LINE
  5
484
330
481
100
AcDbEntity
  8
09-01
 62
     4
440
 16777216
370
    -2
100
AcDbLine
 10
488.7484504407384
 20
892.1201301841966
 30
0.0
 11
488.7484504407384
 21
911.8323769244343
 31
0.0
  0
LINE
  5
485
330
481
100
AcDbEntity
  8
09-01
 62
     4
440
 16777216
370
    -2
100
AcDbLine
 10
461.2484504407384
 20
906.8323769244344
 30
0.0
 11
448.7484504407384
 21
906.8323769244344
 31
0.0
  0
LINE
  5
486
330
481
100
AcDbEntity
  8
09-01
 62
     4
440
 16777216
370
    -2
100
AcDbLine
 10
501.2484504407384
 20
906.8323769244344
 30
0.0
 11
513.7484504407384
 21
906.8323769244344
 31
0.0
  0
MTEXT
  5
487
330
481
100
AcDbEntity
  8
09-01
 62
     1
440
 16777216
100
AcDbMText
 10
514.8088217149798
 20
917.5625594191515
 30
0.0
 40
12.5
 41
0.0
 46
0.0
 71
     5
 72
     1
  1
15
 73
     1
 44
1.0
  0
LINE
  5
488
330
481
100
AcDbEntity
  8
09-01
 62
     4
440
 16777216
370
    -2
100
AcDbLine
 10
473.7484504407384
 20
906.8323769244344
 30
0.0
 11
488.7484504407384
 21
906.8323769244344
 31
0.0
  0
SOLID
  5
489
330
481
100
AcDbEntity
  8
09-01
 62
     4
440
 16777216
100
AcDbTrace
 10
461.2484504407384
 20
908.9157102577678
 30
0.0
 11
461.2484504407384
 21
904.749043591101
 31
0.0
 12
473.7484504407384
 22
906.8323769244344
 32
0.0
 13
473.7484504407384
 23
906.8323769244344
 33
0.0
  0
SOLID
  5
48A
330
481
100
AcDbEntity
  8
09-01
 62
     4
440
 16777216
100
AcDbTrace
 10
501.2484504407384
 20
908.9157102577678
 30
0.0
 11
501.2484504407384
 21
904.749043591101
 31
0.0
 12
488.7484504407384
 22
906.8323769244344
 32
0.0
 13
488.7484504407384
 23
906.8323769244344
 33
0.0
  0
POINT
  5
48B
330
481
100
AcDbEntity
  8
DEFPOINTS
 62
     0
440
 16777216
100
AcDbPoint
 10
473.7484504407384
 20
887.1201301841965
 30
0.0
  0
POINT
  5
48C
330
481
100
AcDbEntity
  8
DEFPOINTS
 62
     0
440
 16777216
100
AcDbPoint
 10
488.7484504407384
 20
887.1201301841965
 30
0.0
  0
POINT
  5
48D
330
481
100
AcDbEntity
  8
DEFPOINTS
 62
     0
440
 16777216
100
AcDbPoint
 10
488.7484504407384
 20
906.8323769244344
 30
0.0
  0
ENDBLK
  5
48E
330
481
100
AcDbEntity
  8
0
100
AcDbBlockEnd
  0
BLOCK
  5
475
330
474
100
AcDbEntity
  8
0
100
AcDbBlockBegin
  2
*D13
 70
     1
 10
0.0
 20
0.0
 30
0.0
  3
*D13
  1

  0
LINE
  5
476
330
474
100
AcDbEntity
  8
09-01
 62
     4
440
 16777216
370
    -2
100
AcDbLine
 10
200.7484504407385
 20
973.119718255306
 30
0.0
 11
153.3406089512468
 21
973.119718255306
 31
0.0
  0
LINE
  5
477
330
474
100
AcDbEntity
  8
09-01
 62
     4
440
 16777216
370
    -2
100
AcDbLine
 10
200.7484504407385
 20
850.120130184197
 30
0.0
 11
153.3406089512468
 21
850.120130184197
 31
0.0
  0
LINE
  5
478
330
474
100
AcDbEntity
  8
09-01
 62
     4
440
 16777216
370
    -2
100
AcDbLine
 10
158.3406089512469
 20
960.619718255306
 30
0.0
 11
158.3406089512468
 21
862.620130184197
 31
0.0
  0
SOLID
  5
479
330
474
100
AcDbEntity
  8
09-01
 62
     4
440
 16777216
100
AcDbTrace
 10
156.2572756179135
 20
960.619718255306
 30
0.0
 11
160.4239422845802
 21
960.619718255306
 31
0.0
 12
158.3406089512469
 22
973.119718255306
 32
0.0
 13
158.3406089512469
 23
973.119718255306
 33
0.0
  0
SOLID
  5
47A
330
474
100
AcDbEntity
  8
09-01
 62
     4
440
 16777216
100
AcDbTrace
 10
156.2572756179135
 20
862.620130184197
 30
0.0
 11
160.4239422845802
 21
862.620130184197
 31
0.0
 12
158.3406089512468
 22
850.120130184197
 32
0.0
 13
158.3406089512468
 23
850.120130184197
 33
0.0
  0
MTEXT
  5
47B
330
474
100
AcDbEntity
  8
09-01
 62
     1
440
 16777216
100
AcDbMText
 10
147.0906089512467
 20
911.6199242197515
 30
0.0
 40
12.5
 41
0.0
 46
0.0
 71
     5
 72
     1
  1
123
 11
0.0000000000000001
 21
1.0
 31
0.0
 73
     1
 44
1.0
  0
POINT
  5
47C
330
474
100
AcDbEntity
  8
DEFPOINTS
 62
     0
440
 16777216
100
AcDbPoint
 10
205.7484504407384
 20
973.119718255306
 30
0.0
  0
POINT
  5
47D
330
474
100
AcDbEntity
  8
DEFPOINTS
 62
     0
440
 16777216
100
AcDbPoint
 10
205.7484504407384
 20
850.120130184197
 30
0.0
  0
POINT
  5
47E
330
474
100
AcDbEntity
  8
DEFPOINTS
 62
     0
440
 16777216
100
AcDbPoint
 10
158.3406089512468
 20
850.120130184197
 30
0.0
  0
ENDBLK
  5
47F
330
474
100
AcDbEntity
  8
0
100
AcDbBlockEnd
  0
BLOCK
  5
468
330
467
100
AcDbEntity
  8
0
100
AcDbBlockBegin
  2
*D14
 70
     1
 10
0.0
 20
0.0
 30
0.0
  3
*D14
  1

  0
LINE
  5
469
330
467
100
AcDbEntity
  8
09-01
 62
     4
440
 16777216
370
    -2
100
AcDbLine
 10
473.7484504407384
 20
892.1201301841966
 30
0.0
 11
473.7484504407384
 21
911.8323769244343
 31
0.0
  0
LINE
  5
46A
330
467
100
AcDbEntity
  8
09-01
 62
     4
440
 16777216
370
    -2
100
AcDbLine
 10
205.7484504407384
 20
892.120130184197
 30
0.0
 11
205.7484504407384
 21
911.8323769244343
 31
0.0
  0
LINE
  5
46B
330
467
100
AcDbEntity
  8
09-01
 62
     4
440
 16777216
370
    -2
100
AcDbLine
 10
461.2484504407384
 20
906.8323769244344
 30
0.0
 11
218.2484504407384
 21
906.8323769244344
 31
0.0
  0
SOLID
  5
46C
330
467
100
AcDbEntity
  8
09-01
 62
     4
440
 16777216
100
AcDbTrace
 10
461.2484504407384
 20
908.9157102577678
 30
0.0
 11
461.2484504407384
 21
904.749043591101
 31
0.0
 12
473.7484504407384
 22
906.8323769244344
 32
0.0
 13
473.7484504407384
 23
906.8323769244344
 33
0.0
  0
SOLID
  5
46D
330
467
100
AcDbEntity
  8
09-01
 62
     4
440
 16777216
100
AcDbTrace
 10
218.2484504407384
 20
908.9157102577678
 30
0.0
 11
218.2484504407384
 21
904.749043591101
 31
0.0
 12
205.7484504407384
 22
906.8323769244344
 32
0.0
 13
205.7484504407384
 23
906.8323769244344
 33
0.0
  0
MTEXT
  5
46E
330
467
100
AcDbEntity
  8
09-01
 62
     1
440
 16777216
100
AcDbMText
 10
339.7484504407385
 20
918.0823769244343
 30
0.0
 40
12.5
 41
0.0
 46
0.0
 71
     5
 72
     1
  1
268
 73
     1
 44
1.0
  0
POINT
  5
46F
330
467
100
AcDbEntity
  8
DEFPOINTS
 62
     0
440
 16777216
100
AcDbPoint
 10
473.7484504407384
 20
887.1201301841965
 30
0.0
  0
POINT
  5
470
330
467
100
AcDbEntity
  8
DEFPOINTS
 62
     0
440
 16777216
100
AcDbPoint
 10
205.7484504407384
 20
887.1201301841971
 30
0.0
  0
POINT
  5
471
330
467
100
AcDbEntity
  8
DEFPOINTS
 62
     0
440
 16777216
100
AcDbPoint
 10
205.7484504407384
 20
906.8323769244344
 30
0.0
  0
ENDBLK
  5
472
330
467
100
AcDbEntity
  8
0
100
AcDbBlockEnd
  0
BLOCK
  5
435
330
434
100
AcDbEntity
  8
0
100
AcDbBlockBegin
  2
*D15
 70
     1
 10
0.0
 20
0.0
 30
0.0
  3
*D15
  1

  0
LINE
  5
436
330
434
100
AcDbEntity
  8
09-01
 62
     4
440
 16777216
370
    -2
100
AcDbLine
 10
195.7484504407384
 20
973.119718255306
 30
0.0
 11
153.3406089512468
 21
973.119718255306
 31
0.0
  0
LINE
  5
437
330
434
100
AcDbEntity
  8
09-01
 62
     4
440
 16777216
370
    -2
100
AcDbLine
 10
186.766890802437
 20
994.119718255305
 30
0.0
 11
153.3406089512468
 21
994.119718255305
 31
0.0
  0
LINE
  5
438
330
434
100
AcDbEntity
  8
09-01
 62
     4
440
 16777216
370
    -2
100
AcDbLine
 10
158.3406089512468
 20
960.619718255306
 30
0.0
 11
158.3406089512468
 21
948.119718255306
 31
0.0
  0
LINE
  5
439
330
434
100
AcDbEntity
  8
09-01
 62
     4
440
 16777216
370
    -2
100
AcDbLine
 10
158.3406089512468
 20
1006.619718255305
 30
0.0
 11
158.3406089512468
 21
1019.119718255305
 31
0.0
  0
LINE
  5
43A
330
434
100
AcDbEntity
  8
09-01
 62
     4
440
 16777216
370
    -2
100
AcDbLine
 10
158.3406089512468
 20
973.119718255306
 30
0.0
 11
158.3406089512468
 21
994.119718255305
 31
0.0
  0
SOLID
  5
43B
330
434
100
AcDbEntity
  8
09-01
 62
     4
440
 16777216
100
AcDbTrace
 10
156.2572756179135
 20
960.619718255306
 30
0.0
 11
160.4239422845802
 21
960.619718255306
 31
0.0
 12
158.3406089512468
 22
973.119718255306
 32
0.0
 13
158.3406089512468
 23
973.119718255306
 33
0.0
  0
SOLID
  5
43C
330
434
100
AcDbEntity
  8
09-01
 62
     4
440
 16777216
100
AcDbTrace
 10
156.2572756179135
 20
1006.619718255305
 30
0.0
 11
160.4239422845802
 21
1006.619718255305
 31
0.0
 12
158.3406089512468
 22
994.119718255305
 32
0.0
 13
158.3406089512468
 23
994.119718255305
 33
0.0
  0
MTEXT
  5
43D
330
434
100
AcDbEntity
  8
09-01
 62
     1
440
 16777216
100
AcDbMText
 10
147.0906089512467
 20
983.6197182553055
 30
0.0
 40
12.5
 41
0.0
 46
0.0
 71
     5
 72
     1
  1
21
 11
0.0000000000000001
 21
1.0
 31
0.0
 73
     1
 44
1.0
  0
POINT
  5
43E
330
434
100
AcDbEntity
  8
DEFPOINTS
 62
     0
440
 16777216
100
AcDbPoint
 10
200.7484504407385
 20
973.119718255306
 30
0.0
  0
POINT
  5
43F
330
434
100
AcDbEntity
  8
DEFPOINTS
 62
     0
440
 16777216
100
AcDbPoint
 10
191.766890802437
 20
994.119718255305
 30
0.0
  0
POINT
  5
440
330
434
100
AcDbEntity
  8
DEFPOINTS
 62
     0
440
 16777216
100
AcDbPoint
 10
158.3406089512468
 20
994.119718255305
 30
0.0
  0
ENDBLK
  5
441
330
434
100
AcDbEntity
  8
0
100
AcDbBlockEnd
  0
BLOCK
  5
41D
330
41C
100
AcDbEntity
  8
0
100
AcDbBlockBegin
  2
*D16
 70
     1
 10
0.0
 20
0.0
 30
0.0
  3
*D16
  1

  0
LINE
  5
41E
330
41C
100
AcDbEntity
  8
09-01
 62
     4
440
 16777216
370
    -2
100
AcDbLine
 10
507.7484504407384
 20
1003.119718255305
 30
0.0
 11
561.6071646365557
 21
1003.119718255305
 31
0.0
  0
LINE
  5
41F
330
41C
100
AcDbEntity
  8
09-01
 62
     4
440
 16777216
370
    -2
100
AcDbLine
 10
493.7484504407384
 20
1451.617094873822
 30
0.0
 11
561.6071646365558
 21
1451.617094873821
 31
0.0
  0
LINE
  5
420
330
41C
100
AcDbEntity
  8
09-01
 62
     4
440
 16777216
370
    -2
100
AcDbLine
 10
556.6071646365556
 20
1015.619718255305
 30
0.0
 11
556.6071646365558
 21
1439.117094873821
 31
0.0
  0
SOLID
  5
421
330
41C
100
AcDbEntity
  8
09-01
 62
     4
440
 16777216
100
AcDbTrace
 10
554.5238313032223
 20
1015.619718255305
 30
0.0
 11
558.690497969889
 21
1015.619718255305
 31
0.0
 12
556.6071646365556
 22
1003.119718255305
 32
0.0
 13
556.6071646365556
 23
1003.119718255305
 33
0.0
  0
SOLID
  5
422
330
41C
100
AcDbEntity
  8
09-01
 62
     4
440
 16777216
100
AcDbTrace
 10
554.5238313032224
 20
1439.117094873821
 30
0.0
 11
558.6904979698892
 21
1439.117094873821
 31
0.0
 12
556.6071646365558
 22
1451.617094873821
 32
0.0
 13
556.6071646365558
 23
1451.617094873821
 33
0.0
  0
MTEXT
  5
423
330
41C
100
AcDbEntity
  8
09-01
 62
     1
440
 16777216
100
AcDbMText
 10
545.3571646365555
 20
1227.368406564563
 30
0.0
 40
12.5
 41
0.0
 46
0.0
 71
     5
 72
     1
  1
448.5
 11
0.0000000000000001
 21
1.0
 31
0.0
 73
     1
 44
1.0
  0
POINT
  5
424
330
41C
100
AcDbEntity
  8
DEFPOINTS
 62
     0
440
 16777216
100
AcDbPoint
 10
502.7484504407384
 20
1003.119718255305
 30
0.0
  0
POINT
  5
425
330
41C
100
AcDbEntity
  8
DEFPOINTS
 62
     0
440
 16777216
100
AcDbPoint
 10
488.7484504407384
 20
1451.617094873822
 30
0.0
  0
POINT
  5
426
330
41C
100
AcDbEntity
  8
DEFPOINTS
 62
     0
440
 16777216
100
AcDbPoint
 10
556.6071646365558
 20
1451.617094873821
 30
0.0
  0
ENDBLK
  5
427
330
41C
100
AcDbEntity
  8
0
100
AcDbBlockEnd
  0
BLOCK
  5
40C
330
40B
100
AcDbEntity
  8
0
100
AcDbBlockBegin
  2
*D17
 70
     1
 10
0.0
 20
0.0
 30
0.0
  3
*D17
  1

  0
LINE
  5
40D
330
40B
100
AcDbEntity
  8
09-01
 62
     4
440
 16777216
370
    -2
100
AcDbLine
 10
492.7484504407384
 20
1003.119718255305
 30
0.0
 11
561.6071646365558
 21
1003.119718255305
 31
0.0
  0
LINE
  5
40E
330
40B
100
AcDbEntity
  8
09-01
 62
     4
440
 16777216
370
    -2
100
AcDbLine
 10
492.7484504407384
 20
994.119718255305
 30
0.0
 11
561.6071646365558
 21
994.119718255305
 31
0.0
  0
LINE
  5
40F
330
40B
100
AcDbEntity
  8
09-01
 62
     4
440
 16777216
370
    -2
100
AcDbLine
 10
556.6071646365558
 20
1015.619718255305
 30
0.0
 11
556.6071646365558
 21
1028.119718255305
 31
0.0
  0
LINE
  5
410
330
40B
100
AcDbEntity
  8
09-01
 62
     4
440
 16777216
370
    -2
100
AcDbLine
 10
556.6071646365558
 20
981.619718255305
 30
0.0
 11
556.6071646365558
 21
969.119718255305
 31
0.0
  0
MTEXT
  5
411
330
40B
100
AcDbEntity
  8
09-01
 62
     1
440
 16777216
100
AcDbMText
 10
541.6876380216172
 20
970.3334328962265
 30
0.0
 40
12.5
 41
0.0
 46
0.0
 71
     5
 72
     1
  1
9
 11
0.0000000000000001
 21
1.0
 31
0.0
 73
     1
 44
1.0
  0
LINE
  5
412
330
40B
100
AcDbEntity
  8
09-01
 62
     4
440
 16777216
370
    -2
100
AcDbLine
 10
556.6071646365558
 20
1003.119718255305
 30
0.0
 11
556.6071646365558
 21
994.119718255305
 31
0.0
  0
SOLID
  5
413
330
40B
100
AcDbEntity
  8
09-01
 62
     4
440
 16777216
100
AcDbTrace
 10
554.5238313032224
 20
1015.619718255305
 30
0.0
 11
558.6904979698892
 21
1015.619718255305
 31
0.0
 12
556.6071646365558
 22
1003.119718255305
 32
0.0
 13
556.6071646365558
 23
1003.119718255305
 33
0.0
  0
SOLID
  5
414
330
40B
100
AcDbEntity
  8
09-01
 62
     4
440
 16777216
100
AcDbTrace
 10
554.5238313032224
 20
981.619718255305
 30
0.0
 11
558.6904979698892
 21
981.619718255305
 31
0.0
 12
556.6071646365558
 22
994.119718255305
 32
0.0
 13
556.6071646365558
 23
994.119718255305
 33
0.0
  0
POINT
  5
415
330
40B
100
AcDbEntity
  8
DEFPOINTS
 62
     0
440
 16777216
100
AcDbPoint
 10
487.7484504407384
 20
1003.119718255305
 30
0.0
  0
POINT
  5
416
330
40B
100
AcDbEntity
  8
DEFPOINTS
 62
     0
440
 16777216
100
AcDbPoint
 10
487.7484504407384
 20
994.119718255305
 30
0.0
  0
POINT
  5
417
330
40B
100
AcDbEntity
  8
DEFPOINTS
 62
     0
440
 16777216
100
AcDbPoint
 10
556.6071646365558
 20
994.119718255305
 30
0.0
  0
ENDBLK
  5
418
330
40B
100
AcDbEntity
  8
0
100
AcDbBlockEnd
  0
BLOCK
  5
3EF
330
3EE
100
AcDbEntity
  8
0
100
AcDbBlockBegin
  2
*D18
 70
     1
 10
0.0
 20
0.0
 30
0.0
  3
*D18
  1

  0
LINE
  5
3F0
330
3EE
100
AcDbEntity
  8
01-01
 62
     4
440
 16777216
370
    -2
100
AcDbLine
 10
878.5854171830791
 20
1451.617094873824
 30
0.0
 11
983.8291960155549
 21
1451.617094873824
 31
0.0
  0
LINE
  5
3F1
330
3EE
100
AcDbEntity
  8
01-01
 62
     4
440
 16777216
370
    -2
100
AcDbLine
 10
858.5854171830792
 20
403.6170948738244
 30
0.0
 11
983.8291960155547
 21
403.6170948738244
 31
0.0
  0
LINE
  5
3F2
330
3EE
100
AcDbEntity
  8
01-01
 62
     4
440
 16777216
370
    -2
100
AcDbLine
 10
978.829196015555
 20
1439.117094873824
 30
0.0
 11
978.8291960155547
 21
416.1170948738244
 31
0.0
  0
SOLID
  5
3F3
330
3EE
100
AcDbEntity
  8
01-01
 62
     4
440
 16777216
100
AcDbTrace
 10
976.7458626822216
 20
1439.117094873824
 30
0.0
 11
980.9125293488884
 21
1439.117094873824
 31
0.0
 12
978.829196015555
 22
1451.617094873824
 32
0.0
 13
978.829196015555
 23
1451.617094873824
 33
0.0
  0
SOLID
  5
3F4
330
3EE
100
AcDbEntity
  8
01-01
 62
     4
440
 16777216
100
AcDbTrace
 10
976.7458626822214
 20
416.1170948738244
 30
0.0
 11
980.9125293488881
 21
416.1170948738244
 31
0.0
 12
978.8291960155547
 22
403.6170948738244
 32
0.0
 13
978.8291960155547
 23
403.6170948738244
 33
0.0
  0
MTEXT
  5
3F5
330
3EE
100
AcDbEntity
  8
01-01
 62
     1
440
 16777216
100
AcDbMText
 10
967.5791960155546
 20
927.6170948738245
 30
0.0
 40
12.5
 41
0.0
 46
0.0
 71
     5
 72
     1
  1
1048
 11
0.0000000000000001
 21
1.0
 31
0.0
 73
     1
 44
1.0
  0
POINT
  5
3F6
330
3EE
100
AcDbEntity
  8
DEFPOINTS
 62
     0
440
 16777216
100
AcDbPoint
 10
873.5854171830792
 20
1451.617094873824
 30
0.0
  0
POINT
  5
3F7
330
3EE
100
AcDbEntity
  8
DEFPOINTS
 62
     0
440
 16777216
100
AcDbPoint
 10
853.5854171830791
 20
403.6170948738244
 30
0.0
  0
POINT
  5
3F8
330
3EE
100
AcDbEntity
  8
DEFPOINTS
 62
     0
440
 16777216
100
AcDbPoint
 10
978.8291960155547
 20
403.6170948738244
 30
0.0
  0
ENDBLK
  5
3F9
330
3EE
100
AcDbEntity
  8
0
100
AcDbBlockEnd
  0
BLOCK
  5
3E2
330
3E1
100
AcDbEntity
  8
0
100
AcDbBlockBegin
  2
*D19
 70
     1
 10
0.0
 20
0.0
 30
0.0
  3
*D19
  1

  0
LINE
  5
3E3
330
3E1
100
AcDbEntity
  8
09-01
 62
     4
440
 16777216
370
    -2
100
AcDbLine
 10
873.5854171830792
 20
994.119718255305
 30
0.0
 11
954.4617767414862
 21
994.119718255305
 31
0.0
  0
LINE
  5
3E4
330
3E1
100
AcDbEntity
  8
09-01
 62
     4
440
 16777216
370
    -2
100
AcDbLine
 10
863.5854171830793
 20
404.6170948738245
 30
0.0
 11
954.4617767414861
 21
404.6170948738244
 31
0.0
  0
LINE
  5
3E5
330
3E1
100
AcDbEntity
  8
09-01
 62
     4
440
 16777216
370
    -2
100
AcDbLine
 10
949.4617767414862
 20
981.619718255305
 30
0.0
 11
949.4617767414862
 21
417.1170948738244
 31
0.0
  0
SOLID
  5
3E6
330
3E1
100
AcDbEntity
  8
09-01
 62
     4
440
 16777216
100
AcDbTrace
 10
947.3784434081528
 20
981.619718255305
 30
0.0
 11
951.5451100748196
 21
981.619718255305
 31
0.0
 12
949.4617767414862
 22
994.119718255305
 32
0.0
 13
949.4617767414862
 23
994.119718255305
 33
0.0
  0
SOLID
  5
3E7
330
3E1
100
AcDbEntity
  8
09-01
 62
     4
440
 16777216
100
AcDbTrace
 10
947.3784434081528
 20
417.1170948738244
 30
0.0
 11
951.5451100748194
 21
417.1170948738244
 31
0.0
 12
949.4617767414862
 22
404.6170948738244
 32
0.0
 13
949.4617767414862
 23
404.6170948738244
 33
0.0
  0
MTEXT
  5
3E8
330
3E1
100
AcDbEntity
  8
09-01
 62
     1
440
 16777216
100
AcDbMText
 10
938.2117767414859
 20
699.3684065645648
 30
0.0
 40
12.5
 41
0.0
 46
0.0
 71
     5
 72
     1
  1
589.5 Tür
 11
0.0000000000000001
 21
1.0
 31
0.0
 73
     1
 44
1.0
  0
POINT
  5
3E9
330
3E1
100
AcDbEntity
  8
DEFPOINTS
 62
     0
440
 16777216
100
AcDbPoint
 10
868.5854171830792
 20
994.119718255305
 30
0.0
  0
POINT
  5
3EA
330
3E1
100
AcDbEntity
  8
DEFPOINTS
 62
     0
440
 16777216
100
AcDbPoint
 10
858.5854171830792
 20
404.6170948738245
 30
0.0
  0
POINT
  5
3EB
330
3E1
100
AcDbEntity
  8
DEFPOINTS
 62
     0
440
 16777216
100
AcDbPoint
 10
949.4617767414862
 20
404.6170948738244
 30
0.0
  0
ENDBLK
  5
3EC
330
3E1
100
AcDbEntity
  8
0
100
AcDbBlockEnd
  0
BLOCK
  5
3D5
330
3D4
100
AcDbEntity
  8
0
100
AcDbBlockBegin
  2
*D20
 70
     1
 10
0.0
 20
0.0
 30
0.0
  3
*D20
  1

  0
LINE
  5
3D6
330
3D4
100
AcDbEntity
  8
01-01
 62
     4
440
 16777216
370
    -2
100
AcDbLine
 10
738.5854381069457
 20
1451.617094873824
 30
0.0
 11
668.1615908970455
 21
1451.617094873824
 31
0.0
  0
LINE
  5
3D7
330
3D4
100
AcDbEntity
  8
01-01
 62
     4
440
 16777216
370
    -2
100
AcDbLine
 10
738.5854381069457
 20
403.6170948738244
 30
0.0
 11
668.1615908970452
 21
403.6170948738244
 31
0.0
  0
LINE
  5
3D8
330
3D4
100
AcDbEntity
  8
01-01
 62
     4
440
 16777216
370
    -2
100
AcDbLine
 10
673.1615908970455
 20
1439.117094873824
 30
0.0
 11
673.1615908970452
 21
416.1170948738244
 31
0.0
  0
SOLID
  5
3D9
330
3D4
100
AcDbEntity
  8
01-01
 62
     4
440
 16777216
100
AcDbTrace
 10
671.0782575637121
 20
1439.117094873824
 30
0.0
 11
675.2449242303788
 21
1439.117094873824
 31
0.0
 12
673.1615908970455
 22
1451.617094873824
 32
0.0
 13
673.1615908970455
 23
1451.617094873824
 33
0.0
  0
SOLID
  5
3DA
330
3D4
100
AcDbEntity
  8
01-01
 62
     4
440
 16777216
100
AcDbTrace
 10
671.0782575637118
 20
416.1170948738244
 30
0.0
 11
675.2449242303786
 21
416.1170948738244
 31
0.0
 12
673.1615908970452
 22
403.6170948738244
 32
0.0
 13
673.1615908970452
 23
403.6170948738244
 33
0.0
  0
MTEXT
  5
3DB
330
3D4
100
AcDbEntity
  8
01-01
 62
     1
440
 16777216
100
AcDbMText
 10
661.9115908970451
 20
927.6170948738247
 30
0.0
 40
12.5
 41
0.0
 46
0.0
 71
     5
 72
     1
  1
1048
 11
0.0000000000000001
 21
1.0
 31
0.0
 73
     1
 44
1.0
  0
POINT
  5
3DC
330
3D4
100
AcDbEntity
  8
DEFPOINTS
 62
     0
440
 16777216
100
AcDbPoint
 10
743.5854381069457
 20
1451.617094873824
 30
0.0
  0
POINT
  5
3DD
330
3D4
100
AcDbEntity
  8
DEFPOINTS
 62
     0
440
 16777216
100
AcDbPoint
 10
743.5854381069457
 20
403.6170948738244
 30
0.0
  0
POINT
  5
3DE
330
3D4
100
AcDbEntity
  8
DEFPOINTS
 62
     0
440
 16777216
100
AcDbPoint
 10
673.1615908970452
 20
403.6170948738244
 30
0.0
  0
ENDBLK
  5
3DF
330
3D4
100
AcDbEntity
  8
0
100
AcDbBlockEnd
  0
BLOCK
  5
3C7
330
3C6
100
AcDbEntity
  8
0
100
AcDbBlockBegin
  2
*D21
 70
     1
 10
0.0
 20
0.0
 30
0.0
  3
*D21
  1

  0
LINE
  5
3C8
330
3C6
100
AcDbEntity
  8
09-01
 62
     4
440
 16777216
370
    -2
100
AcDbLine
 10
873.8854171830793
 20
706.6170948738244
 30
0.0
 11
918.2628810663445
 21
706.6170948738244
 31
0.0
  0
LINE
  5
3C9
330
3C6
100
AcDbEntity
  8
09-01
 62
     4
440
 16777216
370
    -2
100
AcDbLine
 10
868.5854171830792
 20
404.6170948738245
 30
0.0
 11
918.2628810663445
 21
404.6170948738244
 31
0.0
  0
LINE
  5
3CA
330
3C6
100
AcDbEntity
  8
09-01
 62
     4
440
 16777216
370
    -2
100
AcDbLine
 10
913.2628810663446
 20
694.1170948738244
 30
0.0
 11
913.2628810663446
 21
417.1170948738244
 31
0.0
  0
SOLID
  5
3CB
330
3C6
100
AcDbEntity
  8
09-01
 62
     4
440
 16777216
100
AcDbTrace
 10
911.1795477330112
 20
694.1170948738244
 30
0.0
 11
915.346214399678
 21
694.1170948738244
 31
0.0
 12
913.2628810663446
 22
706.6170948738244
 32
0.0
 13
913.2628810663446
 23
706.6170948738244
 33
0.0
  0
SOLID
  5
3CC
330
3C6
100
AcDbEntity
  8
09-01
 62
     4
440
 16777216
100
AcDbTrace
 10
911.1795477330112
 20
417.1170948738244
 30
0.0
 11
915.346214399678
 21
417.1170948738244
 31
0.0
 12
913.2628810663446
 22
404.6170948738244
 32
0.0
 13
913.2628810663446
 23
404.6170948738244
 33
0.0
  0
MTEXT
  5
3CD
330
3C6
100
AcDbEntity
  8
09-01
 62
     1
440
 16777216
100
AcDbMText
 10
902.0128810663445
 20
555.6170948738247
 30
0.0
 40
12.5
 41
0.0
 46
0.0
 71
     5
 72
     1
  1
302
 11
0.0000000000000001
 21
1.0
 31
0.0
 73
     1
 44
1.0
  0
POINT
  5
3CE
330
3C6
100
AcDbEntity
  8
DEFPOINTS
 62
     0
440
 16777216
100
AcDbPoint
 10
868.8854171830792
 20
706.6170948738244
 30
0.0
  0
POINT
  5
3CF
330
3C6
100
AcDbEntity
  8
DEFPOINTS
 62
     0
440
 16777216
100
AcDbPoint
 10
863.5854171830793
 20
404.6170948738245
 30
0.0
  0
POINT
  5
3D0
330
3C6
100
AcDbEntity
  8
DEFPOINTS
 62
     0
440
 16777216
100
AcDbPoint
 10
913.2628810663446
 20
404.6170948738244
 30
0.0
  0
ENDBLK
  5
3D1
330
3C6
100
AcDbEntity
  8
0
100
AcDbBlockEnd
  0
BLOCK
  5
3B1
330
3B0
100
AcDbEntity
  8
0
100
AcDbBlockBegin
  2
*D22
 70
     1
 10
0.0
 20
0.0
 30
0.0
  3
*D22
  1

  0
LINE
  5
3B2
330
3B0
100
AcDbEntity
  8
09-01
 62
     4
440
 16777216
370
    -2
100
AcDbLine
 10
873.6041857815735
 20
1003.119718255305
 30
0.0
 11
954.4617767414861
 21
1003.119718255305
 31
0.0
  0
LINE
  5
3B3
330
3B0
100
AcDbEntity
  8
09-01
 62
     4
440
 16777216
370
    -2
100
AcDbLine
 10
868.5854381069457
 20
1451.117094873824
 30
0.0
 11
954.4617767414861
 21
1451.117094873824
 31
0.0
  0
LINE
  5
3B4
330
3B0
100
AcDbEntity
  8
09-01
 62
     4
440
 16777216
370
    -2
100
AcDbLine
 10
949.461776741486
 20
1015.619718255305
 30
0.0
 11
949.4617767414862
 21
1438.617094873824
 31
0.0
  0
SOLID
  5
3B5
330
3B0
100
AcDbEntity
  8
09-01
 62
     4
440
 16777216
100
AcDbTrace
 10
947.3784434081526
 20
1015.619718255305
 30
0.0
 11
951.5451100748194
 21
1015.619718255305
 31
0.0
 12
949.461776741486
 22
1003.119718255305
 32
0.0
 13
949.461776741486
 23
1003.119718255305
 33
0.0
  0
SOLID
  5
3B6
330
3B0
100
AcDbEntity
  8
09-01
 62
     4
440
 16777216
100
AcDbTrace
 10
947.3784434081528
 20
1438.617094873824
 30
0.0
 11
951.5451100748194
 21
1438.617094873824
 31
0.0
 12
949.4617767414862
 22
1451.117094873824
 32
0.0
 13
949.4617767414862
 23
1451.117094873824
 33
0.0
  0
MTEXT
  5
3B7
330
3B0
100
AcDbEntity
  8
09-01
 62
     1
440
 16777216
100
AcDbMText
 10
938.2117767414859
 20
1227.118406564565
 30
0.0
 40
12.5
 41
0.0
 46
0.0
 71
     5
 72
     1
  1
448 Tür
 11
0.0000000000000001
 21
1.0
 31
0.0
 73
     1
 44
1.0
  0
POINT
  5
3B8
330
3B0
100
AcDbEntity
  8
DEFPOINTS
 62
     0
440
 16777216
100
AcDbPoint
 10
868.6041857815736
 20
1003.119718255305
 30
0.0
  0
POINT
  5
3B9
330
3B0
100
AcDbEntity
  8
DEFPOINTS
 62
     0
440
 16777216
100
AcDbPoint
 10
863.5854381069457
 20
1451.117094873824
 30
0.0
  0
POINT
  5
3BA
330
3B0
100
AcDbEntity
  8
DEFPOINTS
 62
     0
440
 16777216
100
AcDbPoint
 10
949.4617767414862
 20
1451.117094873824
 30
0.0
  0
ENDBLK
  5
3BB
330
3B0
100
AcDbEntity
  8
0
100
AcDbBlockEnd
  0
BLOCK
  5
3A2
330
3A1
100
AcDbEntity
  8
0
100
AcDbBlockBegin
  2
*D23
 70
     1
 10
0.0
 20
0.0
 30
0.0
  3
*D23
  1

  0
LINE
  5
3A3
330
3A1
100
AcDbEntity
  8
09-01
 62
     4
440
 16777216
370
    -2
100
AcDbLine
 10
868.6041857815736
 20
1003.119718255305
 30
0.0
 11
954.4617767414861
 21
1003.119718255305
 31
0.0
  0
LINE
  5
3A4
330
3A1
100
AcDbEntity
  8
09-01
 62
     4
440
 16777216
370
    -2
100
AcDbLine
 10
868.5854171830792
 20
994.119718255305
 30
0.0
 11
954.4617767414861
 21
994.119718255305
 31
0.0
  0
LINE
  5
3A5
330
3A1
100
AcDbEntity
  8
09-01
 62
     4
440
 16777216
370
    -2
100
AcDbLine
 10
949.4617767414862
 20
1015.619718255305
 30
0.0
 11
949.4617767414862
 21
1028.119718255305
 31
0.0
  0
LINE
  5
3A6
330
3A1
100
AcDbEntity
  8
09-01
 62
     4
440
 16777216
370
    -2
100
AcDbLine
 10
949.4617767414862
 20
981.619718255305
 30
0.0
 11
949.4617767414862
 21
969.119718255305
 31
0.0
  0
MTEXT
  5
3A7
330
3A1
100
AcDbEntity
  8
09-01
 62
     1
440
 16777216
100
AcDbMText
 10
931.9617767414861
 20
1012.472653340829
 30
0.0
 40
12.5
 41
0.0
 46
0.0
 71
     5
 72
     1
  1
9
 11
0.0000000000000001
 21
1.0
 31
0.0
 73
     1
 44
1.0
  0
LINE
  5
3A8
330
3A1
100
AcDbEntity
  8
09-01
 62
     4
440
 16777216
370
    -2
100
AcDbLine
 10
949.4617767414862
 20
1003.119718255305
 30
0.0
 11
949.4617767414862
 21
994.119718255305
 31
0.0
  0
SOLID
  5
3A9
330
3A1
100
AcDbEntity
  8
09-01
 62
     4
440
 16777216
100
AcDbTrace
 10
947.3784434081528
 20
1015.619718255305
 30
0.0
 11
951.5451100748194
 21
1015.619718255305
 31
0.0
 12
949.4617767414862
 22
1003.119718255305
 32
0.0
 13
949.4617767414862
 23
1003.119718255305
 33
0.0
  0
SOLID
  5
3AA
330
3A1
100
AcDbEntity
  8
09-01
 62
     4
440
 16777216
100
AcDbTrace
 10
947.3784434081528
 20
981.619718255305
 30
0.0
 11
951.5451100748194
 21
981.619718255305
 31
0.0
 12
949.4617767414862
 22
994.119718255305
 32
0.0
 13
949.4617767414862
 23
994.119718255305
 33
0.0
  0
POINT
  5
3AB
330
3A1
100
AcDbEntity
  8
DEFPOINTS
 62
     0
440
 16777216
100
AcDbPoint
 10
863.6041857815735
 20
1003.119718255305
 30
0.0
  0
POINT
  5
3AC
330
3A1
100
AcDbEntity
  8
DEFPOINTS
 62
     0
440
 16777216
100
AcDbPoint
 10
863.5854171830793
 20
994.119718255305
 30
0.0
  0
POINT
  5
3AD
330
3A1
100
AcDbEntity
  8
DEFPOINTS
 62
     0
440
 16777216
100
AcDbPoint
 10
949.4617767414862
 20
994.119718255305
 30
0.0
  0
ENDBLK
  5
3AE
330
3A1
100
AcDbEntity
  8
0
100
AcDbBlockEnd
  0
BLOCK
  5
EE
330
EB
100
AcDbEntity
  8
0
100
AcDbBlockBegin
  2
DIN A4
 70
     2
 10
0.0
 20
0.0
 30
0.0
  3
DIN A4
  1

  0
LINE
  5
EF
330
EB
100
AcDbEntity
  8
01-99
100
AcDbLine
 10
204.0000000617172
 20
290.9999999563947
 30
0.0
 11
20.0000000617174
 21
290.9999999563947
 31
0.0
  0
LINE
  5
F3
330
EB
100
AcDbEntity
  8
01-99
100
AcDbLine
 10
203.9999999999998
 20
291.0
 30
0.0
 11
204.0
 21
6.0
 31
0.0
  0
LINE
  5
F4
330
EB
100
AcDbEntity
  8
01-99
100
AcDbLine
 10
20.0
 20
5.999999999999886
 30
0.0
 11
20.0
 21
291.0
 31
0.0
  0
LWPOLYLINE
  5
F5
330
EB
100
AcDbEntity
  8
02-99
100
AcDbPolyline
 90
        4
 70
     1
 43
0.0
 10
0.0
 20
0.0
 10
210.0
 20
0.0
 10
210.0
 20
297.0
 10
0.0
 20
297.0
  0
LINE
  5
FA
330
EB
100
AcDbEntity
  8
01-99
100
AcDbLine
 10
20.0
 20
5.999999999999886
 30
0.0
 11
204.0
 21
6.000000000000056
 31
0.0
  0
LINE
  5
FB
330
EB
100
AcDbEntity
  8
01-99
100
AcDbLine
 10
70.0
 20
11.1111111109999
 30
0.0
 11
20.0
 21
11.1111111109999
 31
0.0
  0
LINE
  5
FC
330
EB
100
AcDbEntity
  8
01-99
100
AcDbLine
 10
70.0
 20
16.22222222199991
 30
0.0
 11
20.0
 21
16.22222222199991
 31
0.0
  0
LINE
  5
FD
330
EB
100
AcDbEntity
  8
01-99
100
AcDbLine
 10
70.0
 20
21.33333333299993
 30
0.0
 11
20.0
 21
21.33333333299987
 31
0.0
  0
LINE
  5
FE
330
EB
100
AcDbEntity
  8
01-99
100
AcDbLine
 10
115.0
 20
26.44444444399994
 30
0.0
 11
20.0
 21
26.44444444399989
 31
0.0
  0
LINE
  5
FF
330
EB
100
AcDbEntity
  8
01-99
100
AcDbLine
 10
115.0
 20
31.55555555499996
 30
0.0
 11
20.0
 21
31.5555555549999
 31
0.0
  0
LINE
  5
100
330
EB
100
AcDbEntity
  8
01-99
100
AcDbLine
 10
45.0
 20
5.999999999999886
 30
0.0
 11
45.0
 21
11.1111111109999
 31
0.0
  0
LINE
  5
101
330
EB
100
AcDbEntity
  8
01-99
100
AcDbLine
 10
28.0
 20
11.1111111109999
 30
0.0
 11
28.0
 21
36.66666666666657
 31
0.0
  0
LINE
  5
102
330
EB
100
AcDbEntity
  8
01-99
100
AcDbLine
 10
70.0
 20
5.999999999999886
 30
0.0
 11
70.0
 21
51.99999999999988
 31
0.0
  0
LINE
  5
103
330
EB
100
AcDbEntity
  8
01-99
100
AcDbLine
 10
115.0
 20
5.999999999999886
 30
0.0
 11
115.0
 21
51.99999999999988
 31
0.0
  0
LINE
  5
104
330
EB
100
AcDbEntity
  8
01-99
100
AcDbLine
 10
144.5
 20
5.999999999999886
 30
0.0
 11
144.5
 21
16.22222222199997
 31
0.0
  0
LINE
  5
105
330
EB
100
AcDbEntity
  8
01-99
100
AcDbLine
 10
177.0
 20
5.999999999999886
 30
0.0
 11
177.0
 21
16.22222222200003
 31
0.0
  0
LINE
  5
106
330
EB
100
AcDbEntity
  8
01-99
100
AcDbLine
 10
148.5
 20
36.66666666666663
 30
0.0
 11
148.5
 21
52.0
 31
0.0
  0
LINE
  5
107
330
EB
100
AcDbEntity
  8
01-99
100
AcDbLine
 10
182.0
 20
36.66666666666663
 30
0.0
 11
182.0
 21
52.0
 31
0.0
  0
LINE
  5
108
330
EB
100
AcDbEntity
  8
01-99
100
AcDbLine
 10
78.0
 20
21.33333333333326
 30
0.0
 11
78.0
 21
36.66666666666663
 31
0.0
  0
LINE
  5
109
330
EB
100
AcDbEntity
  8
01-99
100
AcDbLine
 10
60.00318833942947
 20
11.1111111109999
 30
0.0
 11
60.00318833942947
 21
36.66666666666657
 31
0.0
  0
LINE
  5
10A
330
EB
100
AcDbEntity
  8
01-99
100
AcDbLine
 10
48.00318833942947
 20
11.1111111109999
 30
0.0
 11
48.00318833942947
 21
36.66666666666657
 31
0.0
  0
LINE
  5
10B
330
EB
100
AcDbEntity
  8
01-99
100
AcDbLine
 10
204.0
 20
52.0
 30
0.0
 11
19.99999999999818
 21
51.99999999999988
 31
0.0
  0
LINE
  5
10C
330
EB
100
AcDbEntity
  8
01-99
100
AcDbLine
 10
115.0
 20
21.33333333333326
 30
0.0
 11
70.0
 21
21.33333333333326
 31
0.0
  0
LINE
  5
10D
330
EB
100
AcDbEntity
  8
01-99
100
AcDbLine
 10
115.0
 20
36.66666666666663
 30
0.0
 11
20.0
 21
36.66666666666652
 31
0.0
  0
LINE
  5
10E
330
EB
100
AcDbEntity
  8
01-99
100
AcDbLine
 10
92.0
 20
21.33333333333326
 30
0.0
 11
92.0
 21
51.99999999999994
 31
0.0
  0
LINE
  5
10F
330
EB
100
AcDbEntity
  8
01-99
100
AcDbLine
 10
70.0
 20
36.66666666666657
 30
0.0
 11
78.0
 21
31.55555556666661
 31
0.0
  0
LINE
  5
110
330
EB
100
AcDbEntity
  8
01-99
100
AcDbLine
 10
70.0
 20
31.55555556666661
 30
0.0
 11
78.0
 21
36.66666666666663
 31
0.0
  0
LINE
  5
111
330
EB
100
AcDbEntity
  8
01-99
100
AcDbLine
 10
204.0
 20
44.33333333333325
 30
0.0
 11
115.0
 21
44.3333333333332
 31
0.0
  0
LINE
  5
112
330
EB
100
AcDbEntity
  8
01-99
100
AcDbLine
 10
115.0
 20
16.22222222199991
 30
0.0
 11
204.0
 21
16.22222222200003
 31
0.0
  0
LINE
  5
113
330
EB
100
AcDbEntity
  8
01-99
100
AcDbLine
 10
115.0
 20
36.66666666666663
 30
0.0
 11
204.0
 21
36.66666666666669
 31
0.0
  0
LINE
  5
114
330
EB
100
AcDbEntity
  8
01-99
100
AcDbLine
 10
92.0
 20
41.77777777799991
 30
0.0
 11
70.0
 21
41.77777777799991
 31
0.0
  0
LINE
  5
115
330
EB
100
AcDbEntity
  8
01-99
100
AcDbLine
 10
92.0
 20
46.88888888899993
 30
0.0
 11
70.0
 21
46.88888888899987
 31
0.0
  0
LINE
  5
116
330
EB
100
AcDbEntity
  8
01-99
100
AcDbLine
 10
19.99999999999818
 20
51.99999999999988
 30
0.0
 11
19.99999999999818
 21
5.999999999999886
 31
0.0
  0
TEXT
  5
117
330
EB
100
AcDbEntity
  8
08-99
100
AcDbText
 10
116.4997011683063
 20
32.66987370785785
 30
0.0
 40
2.5
  1
Benennung/Teil:
 51
15.0
  7
ROMANS8
100
AcDbText
  0
TEXT
  5
11C
330
EB
100
AcDbEntity
  8
08-99
100
AcDbText
 10
178.5028274475673
 20
12.01760269423056
 30
0.0
 40
2.7
  1
Ident-Nr.
 51
15.0
  7
ROMANS8
100
AcDbText
  0
TEXT
  5
11D
330
EB
100
AcDbEntity
  8
08-99
100
AcDbText
 10
93.50002173316807
 20
33.05557696178232
 30
0.0
 40
2.5
  1
Name:
 51
15.0
  7
ROMANS8
100
AcDbText
  0
TEXT
  5
11E
330
EB
100
AcDbEntity
  8
08-99
100
AcDbText
 10
79.50776914254493
 20
33.04841796100436
 30
0.0
 40
2.5
  1
Datum:
 50
0.102528160689452
 41
0.8933771909280748
 51
15.0
  7
ROMANS8
 72
     5
 11
90.67496614962692
 21
33.06840116746434
 31
0.0
100
AcDbText
  0
TEXT
  5
11F
330
EB
100
AcDbEntity
  8
08-99
100
AcDbText
 10
29.50000808173536
 20
33.05597709897978
 30
0.0
 40
1.6
  1
Änderung:
 51
15.0
  7
ROMANS8
100
AcDbText
  0
TEXT
  5
120
330
EB
100
AcDbEntity
  8
08-99
100
AcDbText
 10
46.49993807575287
 20
9.111119299162339
 30
0.0
 40
1.0
  1
ERSETZT.DURCH:
 51
15.0
  7
ROMANS8
100
AcDbText
  0
TEXT
  5
121
330
EB
100
AcDbEntity
  8
08-99
100
AcDbText
 10
21.49936081567171
 20
9.110854202936138
 30
0.0
 40
1.0
  1
ERSETZT.FÜR:
 51
15.0
  7
ROMANS8
100
AcDbText
  0
TEXT
  5
122
330
EB
100
AcDbEntity
  8
08-99
100
AcDbText
 10
145.9909068421542
 20
12.61295686406368
 30
0.0
 40
2.112
  1
AUFTRAGS.NR.:
 51
15.0
  7
ROMANS8
100
AcDbText
  0
TEXT
  5
123
330
EB
100
AcDbEntity
  8
08-99
100
AcDbText
 10
116.5034642050124
 20
12.61092865603024
 30
0.0
 40
2.112
  1
Sonder-Nr:
 51
15.0
  7
ROMANS8
100
AcDbText
  0
TEXT
  5
124
330
EB
100
AcDbEntity
  8
08-99
100
AcDbText
 10
99.69630749507826
 20
49.92370850704219
 30
0.0
 40
1.349999999999999
  1
Format
 51
15.0
  7
ROMANS8
100
AcDbText
  0
TEXT
  5
125
330
EB
100
AcDbEntity
  8
08-99
100
AcDbText
 10
98.30437974676783
 20
44.64161879310063
 30
0.0
 40
1.822499999999999
  1
Normen
 51
15.0
  7
ROMANS8
100
AcDbText
  0
TEXT
  5
126
330
EB
100
AcDbEntity
  8
08-99
100
AcDbText
 10
21.50002960390157
 20
33.05556783555801
 30
0.0
 40
1.6
  1
Zust.
 51
15.0
  7
ROMANS8
100
AcDbText
  0
TEXT
  5
127
330
EB
100
AcDbEntity
  8
08-99
100
AcDbText
 10
49.50318070116918
 20
33.05555925149645
 30
0.0
 40
1.6
  1
Datum:
 51
15.0
  7
ROMANS8
100
AcDbText
  0
TEXT
  5
128
330
EB
100
AcDbEntity
  8
08-99
100
AcDbText
 10
61.50321361693205
 20
33.05556405794533
 30
0.0
 40
1.6
  1
Name:
 51
15.0
  7
ROMANS8
100
AcDbText
  0
TEXT
  5
129
330
EB
100
AcDbEntity
  8
08-99
100
AcDbText
 10
71.1545544455912
 20
28.03813956794875
 30
0.0
 40
1.6
  1
Erst.
 51
15.0
  7
ROMANS8
100
AcDbText
  0
TEXT
  5
12A
330
EB
100
AcDbEntity
  8
08-99
100
AcDbText
 10
70.51718036231068
 20
23.19745105942093
 30
0.0
 40
1.6
  1
Bearb.
 51
15.0
  7
ROMANS8
100
AcDbText
  0
TEXT
  5
12B
330
EB
100
AcDbEntity
  8
08-99
100
AcDbText
 10
149.430804911768
 20
41.61949749270681
 30
0.0
 40
2.0
  1
Zuschnittsbreite:
 51
15.0
  7
ROMANS8
100
AcDbText
  0
TEXT
  5
12C
330
EB
100
AcDbEntity
  8
08-99
100
AcDbText
 10
115.9849947740322
 20
41.73762362811351
 30
0.0
 40
2.0
  1
Zuschnittslänge:
 51
15.0
  7
ROMANS8
100
AcDbText
  0
LWPOLYLINE
  5
12D
330
EB
100
AcDbEntity
  8
06-99
100
AcDbPolyline
 90
      133
 70
     1
 43
0.010692
 10
93.767539812
 20
18.8765648493333
 10
94.00904714400008
 20
19.08724714533332
 10
93.92285180400007
 20
19.22625740133321
 10
93.82426443600001
 20
19.35180642933335
 10
93.71362718400019
 20
19.46394056133334
 10
93.59129644799997
 20
19.5627132573332
 10
93.45761437200009
 20
19.64816372133327
 10
93.31292666400008
 20
19.72033828533324
 10
93.15758616000005
 20
19.77929040933327
 10
92.9919350040002
 20
19.82505929733327
 10
92.81632246800006
 20
19.85769128133336
 10
92.63109782400022
 20
19.87723982133332
 10
92.43660678000015
 20
19.88374412133328
 10
92.27568148800003
 20
19.87768175733328
 10
92.11994181599994
 20
19.85975840133324
 10
91.96971921600015
 20
19.8303625293334
 10
91.82534870400013
 20
19.78988974533325
 10
91.68716173200005
 20
19.73873565333338
 10
91.55548262400008
 20
19.67729229333327
 10
91.43065352400014
 20
19.60595170533327
 10
91.31299875600006
 20
19.52510592933322
 10
91.20284977200004
 20
19.4351470053333
 10
91.1005451520001
 20
19.33647410133329
 10
91.0064056560002
 20
19.22947212933332
 10
90.92076986400014
 20
19.11454382133331
 10
90.8439692280001
 20
18.9920740893333
 10
90.77633163600012
 20
18.86245853733334
 10
90.71819210400008
 20
18.72608920533327
 10
90.66987852000011
 20
18.58336526133325
 10
90.63172233600017
 20
18.43467161733326
 10
90.60406213199996
 20
18.28040744133324
 10
90.58721866800011
 20
18.1209612093333
 10
90.58153408800013
 20
17.95672852533329
 10
90.58714738800006
 20
17.78762385333334
 10
90.60379839600022
 20
17.62428929733329
 10
90.6311877359999
 20
17.46704205333327
 10
90.66901603199994
 20
17.3161957533332
 10
90.71698747200002
 20
17.17206402933328
 10
90.77480624400015
 20
17.03496051333331
 10
90.84217653600012
 20
16.90519527333328
 10
90.9187989720001
 20
16.78308550533325
 10
91.00437774000011
 20
16.66894127733326
 10
91.09862059200009
 20
16.56307978533329
 10
91.20122102400001
 20
16.4658110973333
 10
91.31189391600003
 20
16.37745240933321
 10
91.43033276400013
 20
16.29831378933335
 10
91.55624532000002
 20
16.22870886933333
 10
91.68933220799999
 20
16.16895484533324
 10
91.82930118000001
 20
16.11936178533329
 10
91.9758492960002
 20
16.08024332133334
 10
92.12868787199999
 20
16.05191308533335
 10
92.28751040400004
 20
16.0346847093333
 10
92.45202820800011
 20
16.02887182533334
 10
92.61602566800013
 20
16.03412516133329
 10
92.77335844800006
 20
16.04976399333333
 10
92.92383765600005
 20
16.0755958653333
 10
93.06727439999997
 20
16.11142832133333
 10
93.20348335200014
 20
16.15707246933328
 10
93.33227205599996
 20
16.21233941733328
 10
93.45345518400007
 20
16.27703670933328
 10
93.56683671600013
 20
16.35097901733331
 10
93.6722384520001
 20
16.43397388533327
 10
93.76946080800008
 20
16.5258252933333
 10
93.85832202000006
 20
16.62635504133328
 10
93.93863319600018
 20
16.73535998133326
 10
94.01020188000007
 20
16.85266191333329
 10
94.07283918000008
 20
16.97806125333329
 10
94.12635976800016
 20
17.11137267333322
 10
94.170574752
 20
17.25240371733326
 10
94.20528811200005
 20
17.40096549333327
 10
94.23032164800009
 20
17.55686910933332
 10
94.2454793400002
 20
17.71992567333325
 10
94.25057229599998
 20
17.88993916533326
 10
94.25057229599998
 20
17.88993916533326
 10
94.25057229599998
 20
17.94132135333331
 10
92.61646404000009
 20
17.94132135333331
 10
92.61646404000009
 20
17.65354973733326
 10
93.88572561599994
 20
17.65354973733326
 10
93.87498728399998
 20
17.49100638933328
 10
93.84765496800003
 20
17.33636086533329
 10
93.80443434000017
 20
17.19027606933332
 10
93.74603107200005
 20
17.05341846933328
 10
93.67315796400021
 20
16.92644384133331
 10
93.58652425200011
 20
16.81002578133331
 10
93.48682848000009
 20
16.70481650133331
 10
93.37478701200007
 20
16.61148959733327
 10
93.25110552000001
 20
16.53069728133329
 10
93.11648967600012
 20
16.46310958533331
 10
92.97164871600001
 20
16.40938584933326
 10
92.81729187600012
 20
16.37019254133338
 10
92.65412482800014
 20
16.34618900133324
 10
92.48285680800018
 20
16.33804169733332
 10
92.31819644400014
 20
16.34599298133327
 10
92.15990138400002
 20
16.36937638533322
 10
92.00856325200005
 20
16.40748267333328
 10
91.8647701079999
 20
16.45960617333327
 10
91.72910288400009
 20
16.52503764933328
 10
91.60215320400004
 20
16.60306786533334
 10
91.48450556400007
 20
16.69299471333329
 10
91.37675158800005
 20
16.79410539333338
 10
91.27947577200018
 20
16.90569423333329
 10
91.19326261200001
 20
17.02705556133327
 10
91.11870373200009
 20
17.15747657733328
 10
91.05638362800005
 20
17.29625517333329
 10
91.00689036000005
 20
17.44268211333326
 10
90.97081198799992
 20
17.59604459733333
 10
90.94873300799998
 20
17.7556440813334
 10
90.94124504400008
 20
17.92076776533321
 10
90.94763173200021
 20
18.08914181733331
 10
90.96653518800009
 20
18.25115412933326
 10
90.99755624400017
 20
18.40630574133325
 10
91.04029929600006
 20
18.55410125733328
 10
91.09437230399999
 20
18.69404528133327
 10
91.15937610000003
 20
18.82564598133331
 10
91.23491508000006
 20
18.94840083333332
 10
91.32059720400013
 20
19.06182156933329
 10
91.41602330399996
 20
19.16540566533337
 10
91.52080490399999
 20
19.25866128933325
 10
91.63453570800015
 20
19.34108948133331
 10
91.75683080400018
 20
19.41219840933331
 10
91.88728745999993
 20
19.47148911333329
 10
92.02551363600013
 20
19.51846619733328
 10
92.17111729200018
 20
19.55263426533327
 10
92.32369569600018
 20
19.57350148533328
 10
92.48285680800018
 20
19.58056533333331
 10
92.6605614120001
 20
19.5716482053333
 10
92.83031473200015
 20
19.54501086933328
 10
92.99177818800012
 20
19.50082083333331
 10
93.1446132000001
 20
19.43924560533327
 10
93.2884811880001
 20
19.36045982133328
 10
93.42304713600015
 20
19.26462742533334
 10
93.54797246400005
 20
19.15192305333329
 10
93.66291502800015
 20
19.02251064933335
  0
LWPOLYLINE
  5
131
330
EB
100
AcDbEntity
  8
06-99
100
AcDbPolyline
 90
       12
 70
     1
 43
0.010692
 10
90.43899547199998
 20
12.25281382533336
 10
92.32226296800012
 20
12.25281382533336
 10
92.46759932400005
 20
13.0076797173333
 10
91.56487020000009
 20
13.0076797173333
 10
91.62105309599997
 20
13.29950716533324
 10
92.41871550000007
 20
13.29950716533324
 10
92.55580119599995
 20
14.01156228933325
 10
91.75813879199996
 20
14.01156228933325
 10
91.80984530399996
 20
14.28005622933324
 10
92.68922666399999
 20
14.28005622933324
 10
92.83455232800008
 20
15.03490786533331
 10
90.9746325960001
 20
15.03490786533331
  0
LWPOLYLINE
  5
132
330
EB
100
AcDbEntity
  8
06-99
100
AcDbPolyline
 90
        4
 70
     1
 43
0.010692
 10
76.60861191600009
 20
12.88042709733327
 10
89.06586111599995
 20
12.88042709733327
 10
88.94228298000006
 20
12.25209746133328
 10
76.48503734400003
 20
12.25209746133328
  0
SOLID
  5
133
330
EB
100
AcDbEntity
  8
06-99
100
AcDbTrace
 10
76.60861191600009
 20
12.88042709733327
 30
0.0
 11
89.06586111599995
 21
12.88042709733327
 31
0.0
 12
76.48503734400003
 22
12.25209746133328
 32
0.0
 13
88.94228298000006
 23
12.25209746133328
 33
0.0
  0
LWPOLYLINE
  5
134
330
EB
100
AcDbEntity
  8
06-99
100
AcDbPolyline
 90
       10
 70
     1
 43
0.010692
 10
82.34584288800011
 20
16.02887182533334
 10
83.32218286800003
 20
19.10266857333329
 10
84.33964784399995
 20
16.02887182533334
 10
85.56779868000012
 20
19.80153333333328
 10
85.22350915200002
 20
19.80153333333328
 10
84.33964784399995
 20
16.89303134133325
 10
83.32218286800003
 20
19.94541201333322
 10
82.34584288800011
 20
16.86733846533332
 10
81.42601012800014
 20
19.80153333333328
 10
81.07658131200015
 20
19.80153333333328
  0
LWPOLYLINE
  5
135
330
EB
100
AcDbEntity
  8
06-99
100
AcDbPolyline
 90
        3
 70
     1
 43
0.010692
 10
87.32441587200014
 20
17.65868546133333
 10
87.97703416800004
 20
19.25683295733324
 10
88.603963152
 20
17.65868546133333
  0
LWPOLYLINE
  5
136
330
EB
100
AcDbEntity
  8
06-99
100
AcDbPolyline
 90
        7
 70
     1
 43
0.010692
 10
86.38318129200014
 20
16.12735940133325
 10
86.72319402000004
 20
16.12735940133325
 10
87.21136222799998
 20
17.37092810133328
 10
88.71186325200017
 20
17.37092810133328
 10
89.17949212799999
 20
16.12735940133325
 10
89.54433880800001
 20
16.12735940133325
 10
87.99759132000009
 20
19.94541201333322
  0
LWPOLYLINE
  5
137
330
EB
100
AcDbEntity
  8
06-99
100
AcDbPolyline
 90
        8
 70
     1
 43
0.010692
 10
98.92980491999992
 20
12.25281382533336
 10
100.0043794319999
 20
12.25281382533336
 10
100.1574069000001
 20
12.60301246533328
 10
100.9122727920001
 20
12.60301246533328
 10
100.934344644
 20
12.25281382533336
 10
102.0082740719999
 20
12.25281382533336
 10
101.571149472
 20
15.03490786533331
 10
100.458311856
 20
15.03490786533331
  0
LWPOLYLINE
  5
138
330
EB
100
AcDbEntity
  8
06-99
100
AcDbPolyline
 90
       34
 70
     1
 43
0.010692
 10
96.04345675200011
 20
13.66137790533327
 10
96.07848017999993
 20
13.66137790533327
 10
96.06422418000011
 20
13.48699851333333
 10
96.06380006400002
 20
13.33510083333328
 10
96.06789866400005
 20
13.20222778533332
 10
96.09523098000011
 20
12.25281382533336
 10
96.96682856399991
 20
12.25281382533336
 10
98.31568851599991
 20
15.03490786533331
 10
97.31180594400008
 20
15.03490786533331
 10
96.85791272400003
 20
13.80923044533324
 10
96.80781001200012
 20
13.66872687333324
 10
96.74884006799993
 20
13.48671339333322
 10
96.69002693999994
 20
13.26059897733336
 10
96.66669343199998
 20
13.26059897733336
 10
96.68841957600001
 20
13.45803388533329
 10
96.69297793200009
 20
13.61569455333324
 10
96.69193724399997
 20
13.7353130853333
 10
96.67755293999995
 20
15.03490786533331
 10
95.97328515599997
 20
15.03490786533331
 10
95.45848317600007
 20
13.7353130853333
 10
95.41138135199991
 20
13.61569455333324
 10
95.35522696800013
 20
13.45803388533329
 10
95.30092230000002
 20
13.26059897733336
 10
95.27758879199996
 20
13.26059897733336
 10
95.30584418400009
 20
13.48671339333322
 10
95.31696386400005
 20
13.66872687333324
 10
95.320959108
 20
13.80923044533324
 10
95.33903215199996
 20
15.03490786533331
 10
94.33450449600002
 20
15.03490786533331
 10
94.61273528400012
 20
12.25281382533336
 10
95.48432930399997
 20
12.25281382533336
 10
95.87723892000008
 20
13.20222778533332
 10
95.93251299600002
 20
13.33510083333328
 10
95.99057768400006
 20
13.48699851333333
  0
LWPOLYLINE
  5
139
330
EB
100
AcDbEntity
  8
06-99
100
AcDbPolyline
 90
       10
 70
     1
 43
0.010692
 10
100.4520677279999
 20
13.26448373733331
 10
100.5983592359999
 20
13.57965894933329
 10
100.673110572
 20
13.74409478133339
 10
100.754152368
 20
13.94571026133332
 10
100.82882886
 20
14.19056418933337
 10
100.8482883
 20
14.19056418933337
 10
100.8286649159999
 20
13.94571026133332
 10
100.8320721
 20
13.74409478133339
 10
100.843505412
 20
13.57965894933329
 10
100.8684106440001
 20
13.26448373733331
  0
LWPOLYLINE
  5
13A
330
EB
100
AcDbEntity
  8
06-99
100
AcDbPolyline
 90
       23
 70
     1
 43
0.010692
 10
103.5867055200001
 20
12.25281382533336
 10
104.5672403279999
 20
12.25281382533336
 10
104.744036112
 20
13.17110337333327
 10
105.0536265360001
 20
12.25281382533336
 10
106.1742372359999
 20
12.25281382533336
 10
105.64906758
 20
13.38511444533327
 10
105.808428276
 20
13.42380879333331
 10
105.9537004799999
 20
13.4988167373333
 10
106.081348704
 20
13.60690216533328
 10
106.187830332
 20
13.74481827333329
 10
106.2695991839999
 20
13.90932182133326
 10
106.3231126439999
 20
14.09716956933329
 10
106.3446
 20
14.2680918813333
 10
106.3403018159999
 20
14.42330051733336
 10
106.310228784
 20
14.5622608773333
 10
106.2543915959999
 20
14.68443479733321
 10
106.1728080719999
 20
14.78928767733333
 10
106.065492468
 20
14.8762777893333
 10
105.932451912
 20
14.9448740973333
 10
105.7737077879999
 20
14.99453487333335
 10
105.58926366
 20
15.02472551733331
 10
105.3791444759999
 20
15.03490786533331
 10
104.122342644
 20
15.03490786533331
  0
LWPOLYLINE
  5
13B
330
EB
100
AcDbEntity
  8
06-99
100
AcDbPolyline
 90
        9
 70
     1
 43
0.010692
 10
104.965032624
 20
14.31896441733329
 10
105.120683196
 20
14.31896441733329
 10
105.2773530720001
 20
14.28538440933323
 10
105.3582202319999
 20
14.19041093733335
 10
105.36321696
 20
14.04270095733329
 10
105.30086478
 20
13.89700107333334
 10
105.183291984
 20
13.80578049333331
 10
105.0158124959999
 20
13.77422127333324
 10
104.860161924
 20
13.77422127333324
  0
LWPOLYLINE
  5
13C
330
EB
100
AcDbEntity
  8
06-99
100
AcDbPolyline
 90
       12
 70
     1
 43
0.010692
 10
100.5798014880001
 20
16.12735940133325
 10
102.3988991640001
 20
16.12735940133325
 10
102.3988991640001
 20
16.44082389333323
 10
100.9138195680001
 20
16.44082389333323
 10
100.9138195680001
 20
18.02353214133336
 10
102.3988991640001
 20
18.02353214133336
 10
102.3988991640001
 20
18.33699663333334
 10
100.9138195680001
 20
18.33699663333334
 10
100.9138195680001
 20
19.4880688413333
 10
102.3988991640001
 20
19.4880688413333
 10
102.3988991640001
 20
19.80153333333328
 10
100.5798014880001
 20
19.80153333333328
  0
LWPOLYLINE
  5
13D
330
EB
100
AcDbEntity
  8
06-99
100
AcDbPolyline
 90
        8
 70
     1
 43
0.010692
 10
95.85302510400016
 20
16.12735940133325
 10
96.18704674800007
 20
16.12735940133325
 10
96.18704674800007
 20
19.09753284933328
 10
98.76666638400003
 20
16.01858612133327
 10
98.76666638400003
 20
19.80153333333328
 10
98.43265899600011
 20
19.80153333333328
 10
98.43265899600011
 20
16.8827456373333
 10
95.85302510400016
 20
19.95568346133325
  0
LWPOLYLINE
  5
13E
330
EB
100
AcDbEntity
  8
06-99
100
AcDbPolyline
 90
       19
 70
     1
 43
0.010692
 10
104.4484236960002
 20
19.50862599333322
 10
104.7824310840001
 20
19.50862599333322
 10
104.986616208
 20
19.5003076173333
 10
105.160446744
 20
19.47385917333327
 10
105.3048956640001
 20
19.42705672533321
 10
105.4209181200001
 20
19.35767277333326
 10
105.5094799560001
 20
19.26347981733323
 10
105.571543452
 20
19.14225035733335
 10
105.608078016
 20
18.99174976533322
 10
105.620042364
 20
18.80976123333329
 10
105.607447188
 20
18.63100881333327
 10
105.5693765400001
 20
18.48586134933327
 10
105.5054169960001
 20
18.37130369733336
 10
105.415137312
 20
18.28432784133332
 10
105.2981240640001
 20
18.22192220133331
 10
105.1539495720001
 20
18.18107163333326
 10
104.9821897199999
 20
18.15877168533336
 10
104.7824310840001
 20
18.15200721333332
 10
104.4484236960002
 20
18.15200721333332
  0
LWPOLYLINE
  5
13F
330
EB
100
AcDbEntity
  8
06-99
100
AcDbPolyline
 90
       29
 70
     1
 43
0.010692
 10
106.3446
 20
16.12735940133325
 10
105.023956236
 20
17.8796534613333
 10
105.2123742240002
 20
17.89225220133335
 10
105.3829009320001
 20
17.92942115733325
 10
105.5343994440001
 20
17.99023012533337
 10
105.665722152
 20
18.07375602933331
 10
105.7757285760001
 20
18.17905797333327
 10
105.863274672
 20
18.30521644533331
 10
105.927223524
 20
18.45129411333335
 10
105.966431088
 20
18.61636077333333
 10
105.9797533199998
 20
18.79948978533332
 10
105.9699380640002
 20
18.97455346533331
 10
105.9404816040002
 20
19.13261686533332
 10
105.8913554280001
 20
19.27374770133332
 10
105.8225417160001
 20
19.3980136893332
 10
105.7340155200001
 20
19.50548610933333
 10
105.6257518920001
 20
19.59623624133331
 10
105.4977294480001
 20
19.67032823733325
 10
105.3499232399999
 20
19.7278333773333
 10
105.182311884
 20
19.76882650533332
 10
104.994873996
 20
19.79336820933332
 10
104.787581064
 20
19.80153333333328
 10
104.787581064
 20
19.80153333333328
 10
104.1144056160001
 20
19.80153333333328
 10
104.1144056160001
 20
16.12735940133325
 10
104.4484236960002
 20
16.12735940133325
 10
104.4484236960002
 20
17.8796534613333
 10
104.648838108
 20
17.8796534613333
 10
105.938639016
 20
16.12735940133325
  0
TEXT
  5
140
330
EB
100
AcDbEntity
  8
06-99
100
AcDbText
 10
85.60835809905961
 20
9.633208985719136
 30
0.0
 40
1.4256
  1
GmbH & Co KG
 41
1.199203187251
 51
15.0
  7
ROMAND8
 72
     5
 11
106.0419580990597
 21
9.633208985719136
 31
0.0
100
AcDbText
  0
TEXT
  5
142
330
EB
100
AcDbEntity
  8
06-99
100
AcDbText
 10
85.70981485364347
 20
7.391015713295587
 30
0.0
 40
1.4256
  1
72774 Reutlingen
 50
0.5663244663116128
 41
1.087840993687879
 51
15.0
  7
ROMAND8
 72
     5
 11
105.9434148536435
 21
7.591015713295576
 31
0.0
100
AcDbText
  0
TEXT
  5
143
330
EB
100
AcDbEntity
  8
08-99
100
AcDbText
 10
73.41411819983751
 20
48.45009163044323
 30
0.0
 40
2.25
  1
Zul. Abw.
 51
15.0
  7
ROMANS8
100
AcDbText
  0
TEXT
  5
144
330
EB
100
AcDbEntity
  8
08-99
100
AcDbText
 10
123.2099263202836
 20
49.28616415937344
 30
0.0
 40
2.0
  1
Mat. Art.
 51
15.0
  7
ROMANS8
100
AcDbText
  0
TEXT
  5
145
330
EB
100
AcDbEntity
  8
08-99
100
AcDbText
 10
155.4865309703727
 20
49.40431338334462
 30
0.0
 40
2.0
  1
Oberfläche:
 51
15.0
  7
ROMANS8
100
AcDbText
  0
TEXT
  5
146
330
EB
100
AcDbEntity
  8
08-99
100
AcDbText
 10
184.7625378385805
 20
41.73764671667789
 30
0.0
 40
2.0
  1
Blech Dicke:
 51
15.0
  7
ROMANS8
100
AcDbText
  0
TEXT
  5
147
330
EB
100
AcDbEntity
  8
08-99
100
AcDbText
 10
187.4380280285577
 20
49.28616415937347
 30
0.0
 40
2.0
  1
Maßstab:
 51
15.0
  7
ROMANS8
100
AcDbText
  0
LINE
  5
148
330
EB
100
AcDbEntity
  8
01-99
100
AcDbLine
 10
115.0
 20
46.88888888899993
 30
0.0
 11
92.0
 21
46.88888888899993
 31
0.0
  0
LINE
  5
149
330
EB
100
AcDbEntity
  8
01-99
100
AcDbLine
 10
115.0
 20
44.3333333333332
 30
0.0
 11
92.0
 21
44.3333333333332
 31
0.0
  0
LINE
  5
14A
330
EB
100
AcDbEntity
  8
01-99
100
AcDbLine
 10
115.0
 20
40.49999999999989
 30
0.0
 11
91.99999999999993
 21
40.49999999999989
 31
0.0
  0
ATTDEF
  5
14B
330
EB
100
AcDbEntity
  8
06-99
100
AcDbText
 10
116.4954467391771
 20
26.18783869728213
 30
0.0
 40
4.0
  1

 41
0.9
  7
ROMANS8
100
AcDbAttributeDefinition
280
     0
  3
Benennung/Teil
  2
TEILE
 70
     0
280
     0
  0
ATTDEF
  5
14C
330
EB
100
AcDbEntity
  8
06-99
100
AcDbText
 10
92.99706779936741
 20
27.44168546803121
 30
0.0
 40
2.5
  1

 41
0.9
  7
ROMANS8
100
AcDbAttributeDefinition
280
     0
  3
Name
  2
NAME
 70
     0
280
     0
  0
ATTDEF
  5
14D
330
EB
100
AcDbEntity
  8
06-99
100
AcDbText
 10
79.49314645189407
 20
27.46123517411116
 30
0.0
 40
2.5
  1

 50
359.9144597696142
 41
0.9542572414211148
  7
ROMANS8
 72
     5
 11
90.7397371204388
 21
27.4444444666666
 31
0.0
100
AcDbAttributeDefinition
280
     0
  3
Datum
  2
DATUM
 70
     0
280
     0
  0
ATTDEF
  5
14E
330
EB
100
AcDbEntity
  8
06-99
100
AcDbText
 10
191.3473862117146
 20
45.33333333333326
 30
0.0
 40
3.375
  1

  7
ROMANS8
100
AcDbAttributeDefinition
280
     0
  3
Maßstab
  2
:
 70
     0
280
     0
  0
ATTDEF
  5
14F
330
EB
100
AcDbEntity
  8
06-99
100
AcDbText
 10
178.5063439671582
 20
7.492899800288626
 30
0.0
 40
2.99376
  1

  7
ROMANS8
100
AcDbAttributeDefinition
280
     0
  3
Ident-Nummer
  2
ID.NR
 70
     0
280
     0
  0
ATTDEF
  5
150
330
EB
100
AcDbEntity
  8
06-99
100
AcDbText
 10
116.5
 20
7.499999999999943
 30
0.0
 40
3.168
  1

 41
0.9
  7
ROMANS8
100
AcDbAttributeDefinition
280
     0
  3
Sonder-NR,WPS
  2
SONDER-NR
 70
     0
280
     0
  0
ATTDEF
  5
151
330
EB
100
AcDbEntity
  8
06-99
100
AcDbText
 10
146.0006338868801
 20
7.504396604354553
 30
0.0
 40
3.168
  1

 41
0.9
  7
ROMANS8
100
AcDbAttributeDefinition
280
     0
  3
Auftrags Nr.
  2
AUFTRAGS.NR.
 70
     0
280
     0
  0
ATTDEF
  5
152
330
EB
100
AcDbEntity
  8
06-99
100
AcDbText
 10
116.7312662557105
 20
37.66666664444438
 30
0.0
 40
3.0
  1

 41
0.9
  7
ROMANS8
100
AcDbAttributeDefinition
280
     0
  3
Zuschnitts.Länge
  2
LÄNGE
 70
     0
280
     0
  0
ATTDEF
  5
153
330
EB
100
AcDbEntity
  8
06-99
100
AcDbText
 10
150.1808049117697
 20
37.67810387044475
 30
0.0
 40
3.0
  1

 41
0.9
  7
ROMANS8
100
AcDbAttributeDefinition
280
     0
  3
Zuschnitts Breite
  2
BREITE
 70
     0
280
     0
  0
ATTDEF
  5
154
330
EB
100
AcDbEntity
  8
06-99
100
AcDbText
 10
190.6090921267318
 20
37.66666666666669
 30
0.0
 40
3.09375
  1

  7
ROMANS8
100
AcDbAttributeDefinition
280
     0
  3
Blech.Dicke
  2
1.0
 70
     0
280
     0
  0
ATTDEF
  5
155
330
EB
100
AcDbEntity
  8
06-99
100
AcDbText
 10
164.1277856014027
 20
45.33333333333337
 30
0.0
 40
3.0
  1

  7
ROMANS8
 72
     1
 11
164.1277856014027
 21
45.33333333333337
 31
0.0
100
AcDbAttributeDefinition
280
     0
  3
Oberfläche
  2
IV
 70
     0
280
     0
  0
ATTDEF
  5
156
330
EB
100
AcDbEntity
  8
06-99
100
AcDbText
 10
21.49946778019853
 20
6.597456397872349
 30
0.0
 40
1.5
  1

 41
0.9
  7
ROMANS8
100
AcDbAttributeDefinition
280
     0
  3
ERSETZT.Für
  2
ERSETZT.FÜR
 70
     0
280
     0
  0
ATTDEF
  5
157
330
EB
100
AcDbEntity
  8
06-99
100
AcDbText
 10
46.4997509950083
 20
6.601810069259784
 30
0.0
 40
1.5
  1

 41
0.9
  7
ROMANS8
100
AcDbAttributeDefinition
280
     0
  3
ERSETZT.Durch
  2
ERSETZT.DURCH
 70
     0
280
     0
  0
ATTDEF
  5
158
330
EB
100
AcDbEntity
  8
06-99
100
AcDbText
 10
92.81172471169201
 20
41.03030066719799
 30
0.0
 40
2.34
  1
DIN 6930-M
  7
ROMANS8
 72
     1
 11
103.5088675688348
 21
41.03030066719799
 31
0.0
100
AcDbAttributeDefinition
280
     0
  3
Norm / Fräsen
  2
NORM1
 70
     0
280
     0
  0
ATTDEF
  5
159
330
EB
100
AcDbEntity
  8
06-99
100
AcDbText
 10
95.98743899740631
 20
37.19696733386469
 30
0.0
 40
2.34
  1
DIN 2768
  7
ROMANS8
 72
     1
 11
104.0102961402634
 21
37.19696733386469
 31
0.0
100
AcDbAttributeDefinition
280
     0
  3
Norm / Kanten
  2
NORM2
 70
     0
280
     0
  0
ATTDEF
  5
15A
330
EB
100
AcDbEntity
  8
06-99
100
AcDbText
 10
99.97307264643758
 20
47.66851114000792
 30
0.0
 40
1.287
  1
DIN A4
  7
ROMANS8
 72
     1
 11
103.2518583607233
 21
47.66851114000792
 31
0.0
100
AcDbAttributeDefinition
280
     0
  3
Format
  2
FORMAT
 70
     0
280
     0
  0
ATTDEF
  5
15B
330
EB
100
AcDbEntity
  8
06-99
100
AcDbText
 10
123.2747405361158
 20
45.33333333333323
 30
0.0
 40
3.375
  1
1.4301
  7
ROMANS8
100
AcDbAttributeDefinition
280
     0
  3
Mat.Art
  2
1.4301
 70
     0
280
     0
  0
ATTDEF
  5
15C
330
EB
100
AcDbEntity
  8
06-99
100
AcDbText
 10
116.4954467391771
 20
19.29547849899632
 30
0.0
 40
4.0
  1

 41
0.9
  7
ROMANS8
100
AcDbAttributeDefinition
280
     0
  3
Benennung/Teil2
  2
TEILE2
 70
     0
280
     0
  0
ENDBLK
  5
15D
330
EB
100
AcDbEntity
  8
0
100
AcDbBlockEnd
  0
BLOCK
  5
7A
330
79
100
AcDbEntity
  8
0
100
AcDbBlockBegin
  2
*D25
 70
     1
 10
0.0
 20
0.0
 30
0.0
  3
*D25
  1

  0
LINE
  5
7B
330
79
100
AcDbEntity
  8
09-01
 62
     4
440
 16777216
370
    -2
100
AcDbLine
 10
743.5854381069457
 20
1346.617094873824
 30
0.0
 11
743.5854381069457
 21
1318.683124608904
 31
0.0
  0
LINE
  5
7C
330
79
100
AcDbEntity
  8
09-01
 62
     4
440
 16777216
370
    -2
100
AcDbLine
 10
794.5854381069457
 20
1341.617094873824
 30
0.0
 11
794.5854381069457
 21
1318.683124608904
 31
0.0
  0
LINE
  5
7D
330
79
100
AcDbEntity
  8
09-01
 62
     4
440
 16777216
370
    -2
100
AcDbLine
 10
756.0854381069457
 20
1323.683124608904
 30
0.0
 11
782.0854381069457
 21
1323.683124608904
 31
0.0
  0
SOLID
  5
7E
330
79
100
AcDbEntity
  8
09-01
 62
     4
440
 16777216
100
AcDbTrace
 10
756.0854381069457
 20
1325.766457942237
 30
0.0
 11
756.0854381069457
 21
1321.599791275571
 31
0.0
 12
743.5854381069457
 22
1323.683124608904
 32
0.0
 13
743.5854381069457
 23
1323.683124608904
 33
0.0
  0
SOLID
  5
7F
330
79
100
AcDbEntity
  8
09-01
 62
     4
440
 16777216
100
AcDbTrace
 10
782.0854381069457
 20
1325.766457942237
 30
0.0
 11
782.0854381069457
 21
1321.599791275571
 31
0.0
 12
794.5854381069457
 22
1323.683124608904
 32
0.0
 13
794.5854381069457
 23
1323.683124608904
 33
0.0
  0
MTEXT
  5
80
330
79
100
AcDbEntity
  8
09-01
 62
     1
440
 16777216
100
AcDbMText
 10
769.0854381069457
 20
1334.933124608904
 30
0.0
 40
12.5
 41
0.0
 46
0.0
 71
     5
 72
     1
  1
51
 73
     1
 44
1.0
  0
POINT
  5
81
330
79
100
AcDbEntity
  8
DEFPOINTS
 62
     0
440
 16777216
100
AcDbPoint
 10
743.5854381069457
 20
1351.617094873824
 30
0.0
  0
POINT
  5
83
330
79
100
AcDbEntity
  8
DEFPOINTS
 62
     0
440
 16777216
100
AcDbPoint
 10
794.5854381069457
 20
1346.617094873824
 30
0.0
  0
POINT
  5
84
330
79
100
AcDbEntity
  8
DEFPOINTS
 62
     0
440
 16777216
100
AcDbPoint
 10
794.5854381069457
 20
1323.683124608904
 30
0.0
  0
ENDBLK
  5
85
330
79
100
AcDbEntity
  8
0
100
AcDbBlockEnd
  0
ENDSEC
  0
SECTION
  2
ENTITIES
  0
DIMENSION
  5
78
330
2
100
AcDbEntity
  8
09-01
100
AcDbDimension
280
     0
  2
*D25
 10
794.5854381069457
 20
1323.683124608904
 30
0.0
 11
769.0854381069457
 21
1334.933124608904
 31
0.0
 71
     5
 42
51.0
 73
     0
 74
     0
 75
     0
  3
Wagner$0
100
AcDbAlignedDimension
 13
743.5854381069457
 23
1351.617094873824
 33
0.0
 14
794.5854381069457
 24
1346.617094873824
 34
0.0
100
AcDbRotatedDimension
1001
ACAD
1000
DSTYLE
1002
{
1070
    40
1040
5.0
1002
}
  0
CIRCLE
  5
87
330
2
100
AcDbEntity
  8
0
100
AcDbCircle
 10
461.7517436416797
 20
706.6170948738244
 30
0.0
 40
8.5
  0
LINE
  5
88
330
2
100
AcDbEntity
  8
0
100
AcDbLine
 10
460.5017436416797
 20
703.4216667117805
 30
0.0
 11
463.0017436416797
 21
703.4216667117805
 31
0.0
  0
LINE
  5
89
330
2
100
AcDbEntity
  8
0
100
AcDbLine
 10
460.5017436416797
 20
711.4170948738244
 30
0.0
 11
463.0017436416797
 21
711.4170948738244
 31
0.0
  0
LWPOLYLINE
  5
8A
330
2
100
AcDbEntity
  8
0
100
AcDbPolyline
 90
        2
 70
     0
 43
0.0
 10
460.5017436416797
 20
709.6157033477104
 10
460.5017436416797
 20
711.4170948738244
  0
LWPOLYLINE
  5
8B
330
2
100
AcDbEntity
  8
0
100
AcDbPolyline
 90
        2
 70
     0
 43
0.0
 10
460.5017436416797
 20
703.4216667117805
 10
460.5017436416797
 20
705.2855763287882
  0
LWPOLYLINE
  5
8C
330
2
100
AcDbEntity
  8
0
100
AcDbPolyline
 90
        2
 70
     0
 43
0.0
 10
463.0017436416797
 20
709.6157033477104
 10
463.0017436416797
 20
711.4170948738244
  0
LWPOLYLINE
  5
8D
330
2
100
AcDbEntity
  8
0
100
AcDbPolyline
 90
        2
 70
     0
 43
0.0
 10
463.0017436416797
 20
703.4216667117805
 10
463.0017436416797
 20
705.2855763287882
  0
ARC
  5
8E
330
2
100
AcDbEntity
  8
0
100
AcDbCircle
 10
461.7517436416797
 20
707.4506398382493
 30
0.0
 40
2.5
100
AcDbArc
 50
299.9999999999985
 51
60.00000000000157
  0
ARC
  5
8F
330
2
100
AcDbEntity
  8
0
100
AcDbCircle
 10
461.7517436416797
 20
707.4506398382493
 30
0.0
 40
2.5
100
AcDbArc
 50
119.9999999999984
 51
240.0000000000016
  0
CIRCLE
  5
90
330
2
100
AcDbEntity
  8
0
100
AcDbCircle
 10
461.7517436416797
 20
706.6170948738244
 30
0.0
 40
7.25
  0
LINE
  5
91
330
2
100
AcDbEntity
  8
03-01
100
AcDbLine
 10
472.9484504407382
 20
1154.60002595862
 30
0.0
 11
472.9484504407382
 21
1413.258186286926
 31
0.0
  0
LINE
  5
96
330
2
100
AcDbEntity
  8
03-01
100
AcDbLine
 10
473.7484504407384
 20
1154.600025958621
 30
0.0
 11
473.7484504407384
 21
1413.258186286926
 31
0.0
  0
LINE
  5
97
330
2
100
AcDbEntity
  8
05-01
100
AcDbLine
 10
461.7484504407384
 20
266.0174129319833
 30
0.0
 11
461.7484504407384
 21
273.3553970956628
 31
0.0
  0
LINE
  5
9C
330
2
100
AcDbEntity
  8
0
100
AcDbLine
 10
453.2484504407384
 20
270.7766641091502
 30
0.0
 11
453.2484504407384
 21
268.9766641091503
 31
0.0
  0
LINE
  5
9D
330
2
100
AcDbEntity
  8
0
100
AcDbLine
 10
470.2484504407384
 20
268.9766641091503
 30
0.0
 11
470.2484504407384
 21
270.7766641091502
 31
0.0
  0
LINE
  5
9E
330
2
100
AcDbEntity
  8
0
100
AcDbLine
 10
453.2484504407384
 20
268.9766641091503
 30
0.0
 11
470.2484504407384
 21
268.9766641091503
 31
0.0
  0
LINE
  5
9F
330
2
100
AcDbEntity
  8
0
100
AcDbLine
 10
454.4984504407384
 20
267.4766641091502
 30
0.0
 11
453.2484504407384
 21
268.9766641091503
 31
0.0
  0
LINE
  5
A0
330
2
100
AcDbEntity
  8
0
100
AcDbLine
 10
468.9984504407384
 20
267.4766641091502
 30
0.0
 11
470.2484504407384
 21
268.9766641091503
 31
0.0
  0
LINE
  5
A1
330
2
100
AcDbEntity
  8
0
100
AcDbLine
 10
468.9984504407384
 20
267.4766641091502
 30
0.0
 11
454.4984504407384
 21
267.4766641091502
 31
0.0
  0
LINE
  5
A2
330
2
100
AcDbEntity
  8
05-01
100
AcDbLine
 10
339.7484504407385
 20
273.3146407696058
 30
0.0
 11
339.7484504407385
 21
265.4766641091502
 31
0.0
  0
LINE
  5
A3
330
2
100
AcDbEntity
  8
0
100
AcDbLine
 10
331.2484504407385
 20
270.7766641091502
 30
0.0
 11
331.2484504407385
 21
268.9766641091503
 31
0.0
  0
LINE
  5
A4
330
2
100
AcDbEntity
  8
0
100
AcDbLine
 10
348.2484504407385
 20
268.9766641091503
 30
0.0
 11
348.2484504407385
 21
270.7766641091502
 31
0.0
  0
LINE
  5
A5
330
2
100
AcDbEntity
  8
0
100
AcDbLine
 10
331.2484504407385
 20
268.9766641091503
 30
0.0
 11
348.2484504407385
 21
268.9766641091503
 31
0.0
  0
LINE
  5
A6
330
2
100
AcDbEntity
  8
0
100
AcDbLine
 10
332.4984504407384
 20
267.4766641091502
 30
0.0
 11
331.2484504407385
 21
268.9766641091503
 31
0.0
  0
LINE
  5
A7
330
2
100
AcDbEntity
  8
0
100
AcDbLine
 10
346.9984504407384
 20
267.4766641091502
 30
0.0
 11
348.2484504407385
 21
268.9766641091503
 31
0.0
  0
LINE
  5
A8
330
2
100
AcDbEntity
  8
0
100
AcDbLine
 10
346.9984504407384
 20
267.4766641091502
 30
0.0
 11
332.4984504407384
 21
267.4766641091502
 31
0.0
  0
LINE
  5
A9
330
2
100
AcDbEntity
  8
05-01
100
AcDbLine
 10
861.8151439244298
 20
706.6170948738244
 30
0.0
 11
868.8854171830792
 21
706.6170948738244
 31
0.0
  0
LINE
  5
AA
330
2
100
AcDbEntity
  8
0
100
AcDbLine
 10
863.5854171830793
 20
698.1170948738244
 30
0.0
 11
865.3854171830792
 21
698.1170948738244
 31
0.0
  0
LINE
  5
AB
330
2
100
AcDbEntity
  8
0
100
AcDbLine
 10
865.3854171830792
 20
715.1170948738244
 30
0.0
 11
863.5854171830793
 21
715.1170948738244
 31
0.0
  0
LINE
  5
AC
330
2
100
AcDbEntity
  8
0
100
AcDbLine
 10
865.3854171830792
 20
698.1170948738244
 30
0.0
 11
865.3854171830792
 21
715.1170948738244
 31
0.0
  0
LINE
  5
AD
330
2
100
AcDbEntity
  8
0
100
AcDbLine
 10
866.8854171830792
 20
699.3670948738245
 30
0.0
 11
865.3854171830792
 21
698.1170948738244
 31
0.0
  0
LINE
  5
AE
330
2
100
AcDbEntity
  8
0
100
AcDbLine
 10
866.8854171830792
 20
713.8670948738244
 30
0.0
 11
865.3854171830792
 21
715.1170948738244
 31
0.0
  0
LINE
  5
AF
330
2
100
AcDbEntity
  8
0
100
AcDbLine
 10
866.8854171830792
 20
713.8670948738244
 30
0.0
 11
866.8854171830792
 21
699.3670948738245
 31
0.0
  0
LINE
  5
B0
330
2
100
AcDbEntity
  8
03-01
100
AcDbLine
 10
859.4865470718717
 20
1424.617094873824
 30
0.0
 11
862.5865470718718
 21
1424.617094873824
 31
0.0
  0
LINE
  5
B1
330
2
100
AcDbEntity
  8
03-01
100
AcDbLine
 10
859.4865470718717
 20
1415.117094873824
 30
0.0
 11
862.5865470718718
 21
1415.117094873824
 31
0.0
  0
LINE
  5
B2
330
2
100
AcDbEntity
  8
03-01
100
AcDbLine
 10
859.4865470718717
 20
1434.117094873824
 30
0.0
 11
862.5865470718718
 21
1434.117094873824
 31
0.0
  0
LINE
  5
B3
330
2
100
AcDbEntity
  8
03-01
100
AcDbLine
 10
859.4865470718717
 20
1434.117094873824
 30
0.0
 11
859.4865470718717
 21
1415.117094873824
 31
0.0
  0
LINE
  5
B4
330
2
100
AcDbEntity
  8
03-01
100
AcDbLine
 10
862.5865470718718
 20
1434.117094873824
 30
0.0
 11
862.5865470718718
 21
1415.117094873824
 31
0.0
  0
LINE
  5
B5
330
2
100
AcDbEntity
  8
03-01
100
AcDbLine
 10
849.5865470718717
 20
1421.117094873824
 30
0.0
 11
847.5865470718717
 21
1421.117094873824
 31
0.0
  0
LINE
  5
B6
330
2
100
AcDbEntity
  8
03-01
100
AcDbLine
 10
849.5865470718717
 20
1428.117094873824
 30
0.0
 11
847.5865470718717
 21
1428.117094873824
 31
0.0
  0
LINE
  5
B7
330
2
100
AcDbEntity
  8
03-01
100
AcDbLine
 10
850.5865470718717
 20
1418.817094873825
 30
0.0
 11
849.5865470718717
 21
1418.817094873825
 31
0.0
  0
LINE
  5
B8
330
2
100
AcDbEntity
  8
03-01
100
AcDbLine
 10
850.5865470718717
 20
1430.417094873824
 30
0.0
 11
849.5865470718717
 21
1430.417094873824
 31
0.0
  0
LINE
  5
B9
330
2
100
AcDbEntity
  8
03-01
100
AcDbLine
 10
847.5865470718717
 20
1421.117094873824
 30
0.0
 11
847.5865470718717
 21
1428.117094873824
 31
0.0
  0
LINE
  5
BA
330
2
100
AcDbEntity
  8
03-01
100
AcDbLine
 10
849.5865470718717
 20
1418.817094873825
 30
0.0
 11
849.5865470718717
 21
1430.417094873824
 31
0.0
  0
LINE
  5
BB
330
2
100
AcDbEntity
  8
05-01
100
AcDbLine
 10
868.3457982490386
 20
1424.617094873824
 30
0.0
 11
845.5457982490386
 21
1424.617094873824
 31
0.0
  0
LINE
  5
BC
330
2
100
AcDbEntity
  8
03-01
100
AcDbLine
 10
854.7865470718718
 20
1420.73103741866
 30
0.0
 11
852.5865470718718
 21
1420.73103741866
 31
0.0
  0
LINE
  5
BD
330
2
100
AcDbEntity
  8
03-01
100
AcDbLine
 10
854.7865470718718
 20
1428.503152328988
 30
0.0
 11
852.5865470718718
 21
1428.503152328988
 31
0.0
  0
LINE
  5
BE
330
2
100
AcDbEntity
  8
03-01
100
AcDbLine
 10
859.4865470718717
 20
1420.23103741866
 30
0.0
 11
854.7865470718718
 21
1420.23103741866
 31
0.0
  0
LINE
  5
BF
330
2
100
AcDbEntity
  8
03-01
100
AcDbLine
 10
863.5865470718718
 20
1420.23103741866
 30
0.0
 11
862.5865470718718
 21
1420.23103741866
 31
0.0
  0
LINE
  5
C0
330
2
100
AcDbEntity
  8
03-01
100
AcDbLine
 10
859.4865470718717
 20
1429.003152328988
 30
0.0
 11
854.7865470718718
 21
1429.003152328988
 31
0.0
  0
LINE
  5
C1
330
2
100
AcDbEntity
  8
03-01
100
AcDbLine
 10
863.5865470718718
 20
1429.003152328988
 30
0.0
 11
862.5865470718718
 21
1429.003152328988
 31
0.0
  0
LINE
  5
C2
330
2
100
AcDbEntity
  8
03-01
100
AcDbLine
 10
854.7865470718718
 20
1420.73103741866
 30
0.0
 11
854.7865470718718
 21
1417.617094873824
 31
0.0
  0
LINE
  5
C3
330
2
100
AcDbEntity
  8
03-01
100
AcDbLine
 10
854.7865470718718
 20
1431.617094873824
 30
0.0
 11
854.7865470718718
 21
1428.503152328988
 31
0.0
  0
LINE
  5
C4
330
2
100
AcDbEntity
  8
03-01
100
AcDbLine
 10
850.5865470718717
 20
1443.867094873824
 30
0.0
 11
852.5865470718718
 21
1443.867094873824
 31
0.0
  0
LINE
  5
C5
330
2
100
AcDbEntity
  8
03-01
100
AcDbLine
 10
850.5865470718717
 20
1417.867094873824
 30
0.0
 11
850.5865470718717
 21
1443.867094873824
 31
0.0
  0
LINE
  5
C6
330
2
100
AcDbEntity
  8
03-01
100
AcDbLine
 10
852.5865470718718
 20
1417.867094873824
 30
0.0
 11
850.5865470718717
 21
1417.867094873824
 31
0.0
  0
LINE
  5
C7
330
2
100
AcDbEntity
  8
03-01
100
AcDbLine
 10
852.5865470718718
 20
1443.867094873824
 30
0.0
 11
852.5865470718718
 21
1417.867094873824
 31
0.0
  0
LINE
  5
C8
330
2
100
AcDbEntity
  8
03-01
100
AcDbLine
 10
859.4865470718717
 20
1417.117094873824
 30
0.0
 11
854.7865470718718
 21
1417.117094873824
 31
0.0
  0
LINE
  5
C9
330
2
100
AcDbEntity
  8
03-01
100
AcDbLine
 10
863.5865470718718
 20
1417.117094873824
 30
0.0
 11
862.5865470718718
 21
1417.117094873824
 31
0.0
  0
LINE
  5
CA
330
2
100
AcDbEntity
  8
03-01
100
AcDbLine
 10
859.4865470718717
 20
1432.117094873824
 30
0.0
 11
854.7865470718718
 21
1432.117094873824
 31
0.0
  0
LINE
  5
CB
330
2
100
AcDbEntity
  8
03-01
100
AcDbLine
 10
863.5865470718718
 20
1432.117094873824
 30
0.0
 11
862.5865470718718
 21
1432.117094873824
 31
0.0
  0
LINE
  5
CC
330
2
100
AcDbEntity
  8
03-01
100
AcDbLine
 10
854.7865470718718
 20
1417.017094873824
 30
0.0
 11
854.7865470718718
 21
1417.617094873824
 31
0.0
  0
LINE
  5
CD
330
2
100
AcDbEntity
  8
03-01
100
AcDbLine
 10
854.9865470718717
 20
1432.417094873824
 30
0.0
 11
854.7865470718718
 21
1432.217094873824
 31
0.0
  0
LINE
  5
CE
330
2
100
AcDbEntity
  8
03-01
100
AcDbLine
 10
854.7865470718718
 20
1432.217094873824
 30
0.0
 11
854.7865470718718
 21
1431.617094873824
 31
0.0
  0
LINE
  5
CF
330
2
100
AcDbEntity
  8
03-01
100
AcDbLine
 10
854.7865470718718
 20
1417.617094873824
 30
0.0
 11
852.5865470718718
 21
1417.617094873824
 31
0.0
  0
LINE
  5
D0
330
2
100
AcDbEntity
  8
03-01
100
AcDbLine
 10
854.7865470718718
 20
1431.617094873824
 30
0.0
 11
852.5865470718718
 21
1431.617094873824
 31
0.0
  0
LINE
  5
D1
330
2
100
AcDbEntity
  8
03-01
100
AcDbLine
 10
852.5865470718718
 20
1431.617094873824
 30
0.0
 11
852.5865470718718
 21
1417.617094873824
 31
0.0
  0
LINE
  5
D2
330
2
100
AcDbEntity
  8
03-01
100
AcDbLine
 10
859.4865470718717
 20
1432.417094873824
 30
0.0
 11
854.9865470718717
 21
1432.417094873824
 31
0.0
  0
LINE
  5
D3
330
2
100
AcDbEntity
  8
03-01
100
AcDbLine
 10
863.5865470718718
 20
1432.417094873824
 30
0.0
 11
862.5865470718718
 21
1432.417094873824
 31
0.0
  0
LINE
  5
D4
330
2
100
AcDbEntity
  8
03-01
100
AcDbLine
 10
854.7865470718718
 20
1417.017094873824
 30
0.0
 11
854.9865470718717
 21
1416.817094873824
 31
0.0
  0
LINE
  5
D5
330
2
100
AcDbEntity
  8
03-01
100
AcDbLine
 10
859.4865470718717
 20
1416.817094873824
 30
0.0
 11
854.9865470718717
 21
1416.817094873824
 31
0.0
  0
LINE
  5
D6
330
2
100
AcDbEntity
  8
03-01
100
AcDbLine
 10
863.5865470718718
 20
1416.817094873824
 30
0.0
 11
862.5865470718718
 21
1416.817094873824
 31
0.0
  0
LINE
  5
D7
330
2
100
AcDbEntity
  8
0
100
AcDbLine
 10
863.5865470718718
 20
1416.117094873824
 30
0.0
 11
865.3865470718717
 21
1416.117094873824
 31
0.0
  0
LINE
  5
D8
330
2
100
AcDbEntity
  8
03-01
100
AcDbLine
 10
863.5865470718718
 20
1433.117094873824
 30
0.0
 11
863.5865470718718
 21
1416.117094873824
 31
0.0
  0
LINE
  5
D9
330
2
100
AcDbEntity
  8
0
100
AcDbLine
 10
865.3865470718717
 20
1433.117094873824
 30
0.0
 11
863.5865470718718
 21
1433.117094873824
 31
0.0
  0
LINE
  5
DA
330
2
100
AcDbEntity
  8
0
100
AcDbLine
 10
865.3865470718717
 20
1416.117094873824
 30
0.0
 11
865.3865470718717
 21
1433.117094873824
 31
0.0
  0
LINE
  5
DB
330
2
100
AcDbEntity
  8
0
100
AcDbLine
 10
866.8865470718717
 20
1417.367094873824
 30
0.0
 11
865.3865470718717
 21
1416.117094873824
 31
0.0
  0
LINE
  5
DC
330
2
100
AcDbEntity
  8
0
100
AcDbLine
 10
866.8865470718717
 20
1431.867094873824
 30
0.0
 11
865.3865470718717
 21
1433.117094873824
 31
0.0
  0
LINE
  5
DD
330
2
100
AcDbEntity
  8
0
100
AcDbLine
 10
866.8865470718717
 20
1431.867094873824
 30
0.0
 11
866.8865470718717
 21
1417.367094873824
 31
0.0
  0
LINE
  5
DE
330
2
100
AcDbEntity
  8
05-01
100
AcDbLine
 10
339.7484504407385
 20
1414.117094873821
 30
0.0
 11
339.7484504407385
 21
1435.117094873822
 31
0.0
  0
LINE
  5
DF
330
2
100
AcDbEntity
  8
05-01
100
AcDbLine
 10
329.2484504407385
 20
1424.617094873822
 30
0.0
 11
350.2484504407385
 21
1424.617094873822
 31
0.0
  0
CIRCLE
  5
E0
330
2
100
AcDbEntity
  8
0
100
AcDbCircle
 10
339.7484504407385
 20
1424.617094873822
 30
0.0
 40
8.5
  0
LINE
  5
E1
330
2
100
AcDbEntity
  8
0
100
AcDbLine
 10
338.4984504407384
 20
1421.421666711778
 30
0.0
 11
340.9984504407384
 21
1421.421666711778
 31
0.0
  0
LINE
  5
E2
330
2
100
AcDbEntity
  8
0
100
AcDbLine
 10
338.4984504407384
 20
1429.417094873822
 30
0.0
 11
340.9984504407384
 21
1429.417094873822
 31
0.0
  0
LWPOLYLINE
  5
E3
330
2
100
AcDbEntity
  8
0
100
AcDbPolyline
 90
        2
 70
     0
 43
0.0
 10
338.4984504407384
 20
1427.615703347707
 10
338.4984504407384
 20
1429.417094873822
  0
LWPOLYLINE
  5
E4
330
2
100
AcDbEntity
  8
0
100
AcDbPolyline
 90
        2
 70
     0
 43
0.0
 10
338.4984504407384
 20
1421.421666711778
 10
338.4984504407384
 20
1423.285576328785
  0
LWPOLYLINE
  5
E5
330
2
100
AcDbEntity
  8
0
100
AcDbPolyline
 90
        2
 70
     0
 43
0.0
 10
340.9984504407384
 20
1427.615703347707
 10
340.9984504407384
 20
1429.417094873822
  0
LWPOLYLINE
  5
E6
330
2
100
AcDbEntity
  8
0
100
AcDbPolyline
 90
        2
 70
     0
 43
0.0
 10
340.9984504407384
 20
1421.421666711778
 10
340.9984504407384
 20
1423.285576328785
  0
ARC
  5
E7
330
2
100
AcDbEntity
  8
0
100
AcDbCircle
 10
339.7484504407385
 20
1425.450639838246
 30
0.0
 40
2.5
100
AcDbArc
 50
299.9999999999973
 51
60.00000000000272
  0
ARC
  5
E8
330
2
100
AcDbEntity
  8
0
100
AcDbCircle
 10
339.7484504407385
 20
1425.450639838246
 30
0.0
 40
2.5
100
AcDbArc
 50
119.9999999999972
 51
240.0000000000027
  0
CIRCLE
  5
E9
330
2
100
AcDbEntity
  8
0
100
AcDbCircle
 10
339.7484504407385
 20
1424.617094873822
 30
0.0
 40
7.25
  0
INSERT
  5
EA
330
2
100
AcDbEntity
  8
09-01
100
AcDbBlockReference
 66
     1
  2
DIN A4
 10
0.0
 20
0.0
 30
0.0
 41
5.0
 42
5.0
 43
5.0
  0
ATTRIB
  5
15E
330
EA
100
AcDbEntity
  8
06-99
100
AcDbText
 10
582.4772336958858
 20
130.9391934864106
 30
0.0
 40
20.0
  1
Kombination WP 540
 41
0.9
  7
ROMANS8
100
AcDbAttribute
280
     0
  2
TEILE
 70
     0
280
     0
  0
ATTRIB
  5
15F
330
EA
100
AcDbEntity
  8
06-99
100
AcDbText
 10
464.985338996837
 20
137.208427340156
 30
0.0
 40
12.5
  1
Pfrepper
 41
0.9
  7
ROMANS8
100
AcDbAttribute
280
     0
  2
NAME
 70
     0
280
     0
  0
ATTRIB
  5
160
330
EA
100
AcDbEntity
  8
06-99
100
AcDbText
 10
397.4657322594703
 20
137.3061758705557
 30
0.0
 40
12.5
  1
17.11.2010
 50
359.9144597696142
 41
0.597920676586648
  7
ROMANS8
 72
     5
 11
453.698685602194
 21
137.222222333333
 31
0.0
100
AcDbAttribute
280
     0
  2
DATUM
 70
     0
280
     0
  0
ATTRIB
  5
161
330
EA
100
AcDbEntity
  8
06-99
100
AcDbText
 10
956.736931058573
 20
226.6666666666663
 30
0.0
 40
16.875
  1
1:5
  7
ROMANS8
100
AcDbAttribute
280
     0
  2
:
 70
     0
280
     0
  0
ATTRIB
  5
162
330
EA
100
AcDbEntity
  8
06-99
100
AcDbText
 10
892.5317198357914
 20
37.46449900144313
 30
0.0
 40
14.9688
  1
722983
  7
ROMANS8
100
AcDbAttribute
280
     0
  2
ID.NR
 70
     0
280
     0
  0
ATTRIB
  5
163
330
EA
100
AcDbEntity
  8
06-99
100
AcDbText
 10
582.5
 20
37.49999999999972
 30
0.0
 40
15.84
  1

 41
0.9000000000000001
  7
ROMANS8
100
AcDbAttribute
280
     0
  2
SONDER-NR
 70
     0
280
     0
  0
ATTRIB
  5
164
330
EA
100
AcDbEntity
  8
06-99
100
AcDbText
 10
730.0031694344006
 20
37.52198302177277
 30
0.0
 40
15.84
  1

 41
0.9000000000000001
  7
ROMANS8
100
AcDbAttribute
280
     0
  2
AUFTRAGS.NR.
 70
     0
280
     0
  0
ATTRIB
  5
165
330
EA
100
AcDbEntity
  8
06-99
100
AcDbText
 10
583.6563312785528
 20
188.3333332222218
 30
0.0
 40
15.0
  1

 41
0.9
  7
ROMANS8
100
AcDbAttribute
280
     0
  2
LÄNGE
 70
     0
280
     0
  0
ATTRIB
  5
166
330
EA
100
AcDbEntity
  8
06-99
100
AcDbText
 10
750.9040245588488
 20
188.3905193522237
 30
0.0
 40
15.0
  1

 41
0.9
  7
ROMANS8
100
AcDbAttribute
280
     0
  2
BREITE
 70
     0
280
     0
  0
ATTRIB
  5
167
330
EA
100
AcDbEntity
  8
06-99
100
AcDbText
 10
953.0454606336594
 20
188.3333333333334
 30
0.0
 40
15.46875
  1

  7
ROMANS8
100
AcDbAttribute
280
     0
  2
1.0
 70
     0
280
     0
  0
ATTRIB
  5
168
330
EA
100
AcDbEntity
  8
06-99
100
AcDbText
 10
820.6389280070135
 20
226.6666666666669
 30
0.0
 40
15.0
  1

  7
ROMANS8
 72
     1
 11
820.6389280070135
 21
226.6666666666669
 31
0.0
100
AcDbAttribute
280
     0
  2
IV
 70
     0
280
     0
  0
ATTRIB
  5
169
330
EA
100
AcDbEntity
  8
06-99
100
AcDbText
 10
107.4973389009926
 20
32.98728198936175
 30
0.0
 40
7.5
  1

 41
0.9
  7
ROMANS8
100
AcDbAttribute
280
     0
  2
ERSETZT.FÜR
 70
     0
280
     0
  0
ATTRIB
  5
16A
330
EA
100
AcDbEntity
  8
06-99
100
AcDbText
 10
232.4987549750415
 20
33.00905034629892
 30
0.0
 40
7.5
  1

 41
0.9
  7
ROMANS8
100
AcDbAttribute
280
     0
  2
ERSETZT.DURCH
 70
     0
280
     0
  0
ATTRIB
  5
16B
330
EA
100
AcDbEntity
  8
06-99
100
AcDbText
 10
464.0586235584599
 20
205.15150333599
 30
0.0
 40
11.7
  1
DIN 6930-M
  7
ROMANS8
 72
     1
 11
517.5443378441742
 21
205.15150333599
 31
0.0
100
AcDbAttribute
280
     0
  2
NORM1
 70
     0
280
     0
  0
ATTRIB
  5
16C
330
EA
100
AcDbEntity
  8
06-99
100
AcDbText
 10
479.9371949870315
 20
185.9848366693234
 30
0.0
 40
11.7
  1
DIN 2768
  7
ROMANS8
 72
     1
 11
520.0514807013172
 21
185.9848366693234
 31
0.0
100
AcDbAttribute
280
     0
  2
NORM2
 70
     0
280
     0
  0
ATTRIB
  5
16D
330
EA
100
AcDbEntity
  8
06-99
100
AcDbText
 10
499.865363232188
 20
238.3425557000396
 30
0.0
 40
6.435
  1
DIN A4
  7
ROMANS8
 72
     1
 11
516.2592918036165
 21
238.3425557000396
 31
0.0
100
AcDbAttribute
280
     0
  2
FORMAT
 70
     0
280
     0
  0
ATTRIB
  5
16E
330
EA
100
AcDbEntity
  8
06-99
100
AcDbText
 10
616.3737026805793
 20
226.6666666666662
 30
0.0
 40
16.875
  1
1.4301
  7
ROMANS8
100
AcDbAttribute
280
     0
  2
1.4301
 70
     0
280
     0
  0
ATTRIB
  5
16F
330
EA
100
AcDbEntity
  8
06-99
100
AcDbText
 10
582.4772336958858
 20
96.47739249498158
 30
0.0
 40
20.0
  1

 41
0.9
  7
ROMANS8
100
AcDbAttribute
280
     0
  2
TEILE2
 70
     0
280
     0
  0
SEQEND
  5
170
330
EA
100
AcDbEntity
  8
09-01
  0
TEXT
  5
171
330
2
100
AcDbEntity
  8
02-01
100
AcDbText
 10
664.8403487306695
 20
296.6899021845157
 30
0.0
 40
17.0
  1
1050 x 300 x 110
  7
ROMANS
100
AcDbText
  0
TEXT
  5
175
330
2
100
AcDbEntity
  8
02-01
100
AcDbText
 10
664.8403487306695
 20
324.2137117083253
 30
0.0
 40
17.0
  1
Ausschnittsmaß:
  7
ROMANS
100
AcDbText
  0
DIMENSION
  5
176
330
2
100
AcDbEntity
  8
09-01
100
AcDbDimension
280
     0
  2
*D9
 10
820.5092011539555
 20
1348.617094873824
 30
0.0
 11
810.2703045124426
 21
1374.23398848763
 31
0.0
 70
   128
 71
     5
 42
6.0
 73
     0
 74
     0
 75
     0
  3
Wagner$0
100
AcDbAlignedDimension
 13
794.5854381069457
 23
1354.617094873824
 33
0.0
 14
794.5854381069457
 24
1348.617094873824
 34
0.0
 50
90.0
100
AcDbRotatedDimension
1001
ACAD
1000
DSTYLE
1002
{
1070
    40
1040
5.0
1002
}
  0
LINE
  5
185
330
2
100
AcDbEntity
  8
05-01
100
AcDbLine
 10
789.5854381069457
 20
503.6170948738244
 30
0.0
 11
799.5854381069457
 21
503.6170948738244
 31
0.0
  0
LINE
  5
186
330
2
100
AcDbEntity
  8
05-01
100
AcDbLine
 10
794.5854381069457
 20
508.6170948738245
 30
0.0
 11
794.5854381069457
 21
498.6170948738244
 31
0.0
  0
CIRCLE
  5
187
330
2
100
AcDbEntity
  8
01-01
100
AcDbCircle
 10
794.5854381069457
 20
503.6170948738244
 30
0.0
 40
3.0
  0
LINE
  5
18B
330
2
100
AcDbEntity
  8
05-01
100
AcDbLine
 10
789.5854381069457
 20
1351.617094873824
 30
0.0
 11
799.5854381069457
 21
1351.617094873824
 31
0.0
  0
LINE
  5
18C
330
2
100
AcDbEntity
  8
05-01
100
AcDbLine
 10
794.5854381069457
 20
1346.617094873824
 30
0.0
 11
794.5854381069457
 21
1356.617094873824
 31
0.0
  0
CIRCLE
  5
18D
330
2
100
AcDbEntity
  8
01-01
100
AcDbCircle
 10
794.5854381069457
 20
1351.617094873824
 30
0.0
 40
3.0
  0
DIMENSION
  5
18E
330
2
100
AcDbEntity
  8
09-01
100
AcDbDimension
280
     0
  2
*D8
 10
488.7484504407384
 20
353.5290100966195
 30
0.0
 11
363.3624378445174
 21
365.8193835336328
 31
0.0
 70
   128
 71
     5
 42
298.0
 73
     0
 74
     0
 75
     0
  3
Wagner$0
100
AcDbAlignedDimension
 13
190.7484504407384
 23
390.7766641091503
 33
0.0
 14
488.7484504407384
 24
390.7766641091503
 34
0.0
100
AcDbRotatedDimension
1001
ACAD
1000
DSTYLE
1002
{
1070
    40
1040
5.0
1070
   271
1070
     2
1070
   272
1070
     2
1002
}
  0
DIMENSION
  5
19B
330
2
100
AcDbEntity
  8
09-01
100
AcDbDimension
280
     0
  2
*D7
 10
130.2323850058537
 20
1154.600025958621
 30
0.0
 11
118.9823850058536
 21
1087.109872106963
 31
0.0
 71
     5
 42
134.9803077033157
 73
     0
 74
     0
 75
     0
  3
Wagner$0
100
AcDbAlignedDimension
 13
205.7484504407384
 23
1019.619718255305
 33
0.0
 14
205.7484504407384
 24
1154.600025958621
 34
0.0
 50
90.0
100
AcDbRotatedDimension
1001
ACAD
1000
DSTYLE
1002
{
1070
    40
1040
5.0
1070
   271
1070
     1
1070
   272
1070
     2
1002
}
  0
DIMENSION
  5
1A8
330
2
100
AcDbEntity
  8
09-01
100
AcDbDimension
280
     0
  2
*D6
 10
130.2323850058537
 20
403.6170948738219
 30
0.0
 11
118.9823850058537
 21
711.6184065645635
 31
0.0
 71
     5
 42
616.002623381483
 73
     0
 74
     0
 75
     0
  3
Wagner$0
100
AcDbAlignedDimension
 13
205.7484504407384
 23
1019.619718255305
 33
0.0
 14
190.7484504407384
 24
403.6170948738219
 34
0.0
 50
90.0
100
AcDbRotatedDimension
1001
ACAD
1000
DSTYLE
1002
{
1070
    40
1040
5.0
1070
   271
1070
     2
1070
   272
1070
     2
1002
}
  0
DIMENSION
  5
1B5
330
2
100
AcDbEntity
  8
09-01
100
AcDbDimension
280
     0
  2
*D5
 10
158.3406089512468
 20
850.120130184197
 30
0.0
 11
147.0906089512467
 21
626.8686125290095
 31
0.0
 71
     5
 42
446.5030353103749
 73
     0
 74
     0
 75
     0
  3
Wagner$0
100
AcDbAlignedDimension
 13
190.7484504407384
 23
403.6170948738219
 33
0.0
 14
205.7484504407384
 24
850.120130184197
 34
0.0
 50
90.0
100
AcDbRotatedDimension
1001
ACAD
1000
DSTYLE
1002
{
1070
    40
1040
5.0
1070
   271
1070
     2
1070
   272
1070
     2
1002
}
  0
DIMENSION
  5
1C2
330
2
100
AcDbEntity
  8
09-01
100
AcDbDimension
280
     0
  2
*D4
 10
516.0672761580262
 20
280.7766641091502
 30
0.0
 11
504.8172761580262
 21
335.7766641091503
 31
0.0
 71
     5
 42
110.0
 73
     0
 74
     0
 75
     0
  3
Wagner$0
100
AcDbAlignedDimension
 13
488.7484504407384
 23
390.7766641091503
 33
0.0
 14
488.7484504407384
 24
280.7766641091502
 34
0.0
 50
90.0
100
AcDbRotatedDimension
1001
ACAD
1000
DSTYLE
1002
{
1070
    40
1040
5.0
1070
   271
1070
     2
1070
   272
1070
     2
1002
}
  0
DIMENSION
  5
1CF
330
2
100
AcDbEntity
  8
09-01
100
AcDbDimension
280
     0
  2
*D3
 10
539.6905770694293
 20
270.7766641091502
 30
0.0
 11
528.4405770694291
 21
330.7766641091503
 31
0.0
 71
     5
 42
120.0
 73
     0
 74
     0
 75
     0
  3
Wagner$0
100
AcDbAlignedDimension
 13
488.7484504407384
 23
390.7766641091503
 33
0.0
 14
487.7484504407384
 24
270.7766641091502
 34
0.0
 50
90.0
100
AcDbRotatedDimension
1001
ACAD
1000
DSTYLE
1002
{
1070
    40
1040
5.0
1070
   271
1070
     2
1070
   272
1070
     2
1002
}
  0
ARC
  5
1DC
330
2
100
AcDbEntity
  8
03-01
100
AcDbCircle
 10
469.7484504407384
 20
800.8170948738241
 30
0.0
 40
2.0
100
AcDbArc
 50
270.0
 51
90.0
  0
ARC
  5
1DD
330
2
100
AcDbEntity
  8
03-01
100
AcDbCircle
 10
209.7484504407384
 20
800.8170948738241
 30
0.0
 40
2.0
100
AcDbArc
 50
90.0
 51
270.0
  0
LINE
  5
1DE
330
2
100
AcDbEntity
  8
03-01
100
AcDbLine
 10
209.7484504407384
 20
798.8170948738241
 30
0.0
 11
469.7484504407384
 21
798.8170948738241
 31
0.0
  0
LINE
  5
1DF
330
2
100
AcDbEntity
  8
03-01
100
AcDbLine
 10
209.7484504407384
 20
802.8170948738242
 30
0.0
 11
469.7484504407384
 21
802.8170948738242
 31
0.0
  0
ARC
  5
1E0
330
2
100
AcDbEntity
  8
03-01
100
AcDbCircle
 10
469.7484504407384
 20
742.8170948738241
 30
0.0
 40
2.0
100
AcDbArc
 50
270.0
 51
90.0
  0
ARC
  5
1E1
330
2
100
AcDbEntity
  8
03-01
100
AcDbCircle
 10
469.7484504407384
 20
692.8170948738241
 30
0.0
 40
2.0
100
AcDbArc
 50
270.0
 51
90.0
  0
LINE
  5
1E2
330
2
100
AcDbEntity
  8
03-01
100
AcDbLine
 10
467.7484504407384
 20
694.8170948738241
 30
0.0
 11
467.7484504407384
 21
739.8170948738238
 31
0.0
  0
LINE
  5
1E3
330
2
100
AcDbEntity
  8
03-01
100
AcDbLine
 10
463.7484504407384
 20
694.8170948738241
 30
0.0
 11
463.7484504407384
 21
739.8170948738238
 31
0.0
  0
LINE
  5
1E4
330
2
100
AcDbEntity
  8
03-01
100
AcDbLine
 10
441.7484504407379
 20
694.8170948738241
 30
0.0
 11
441.7484504407379
 21
739.8170948738241
 31
0.0
  0
LINE
  5
1E5
330
2
100
AcDbEntity
  8
03-01
100
AcDbLine
 10
437.7484504407379
 20
694.8170948738241
 30
0.0
 11
437.7484504407379
 21
739.8170948738241
 31
0.0
  0
LINE
  5
1E6
330
2
100
AcDbEntity
  8
03-01
100
AcDbLine
 10
467.7484504407384
 20
594.8170948738241
 30
0.0
 11
467.7484504407384
 21
639.8170948738238
 31
0.0
  0
LINE
  5
1E7
330
2
100
AcDbEntity
  8
03-01
100
AcDbLine
 10
463.7484504407384
 20
594.8170948738241
 30
0.0
 11
463.7484504407384
 21
639.8170948738238
 31
0.0
  0
ARC
  5
1E8
330
2
100
AcDbEntity
  8
03-01
100
AcDbCircle
 10
469.7484504407384
 20
642.8170948738241
 30
0.0
 40
2.0
100
AcDbArc
 50
270.0
 51
90.0
  0
ARC
  5
1E9
330
2
100
AcDbEntity
  8
03-01
100
AcDbCircle
 10
469.7484504407384
 20
642.8170948738241
 30
0.0
 40
2.0
100
AcDbArc
 50
90.0
 51
270.0
  0
ARC
  5
1EA
330
2
100
AcDbEntity
  8
03-01
100
AcDbCircle
 10
469.7484504407384
 20
592.817094873824
 30
0.0
 40
2.0
100
AcDbArc
 50
270.0
 51
90.0
  0
ARC
  5
1EB
330
2
100
AcDbEntity
  8
03-01
100
AcDbCircle
 10
469.7484504407384
 20
542.817094873824
 30
0.0
 40
2.0
100
AcDbArc
 50
270.0
 51
90.0
  0
LINE
  5
1EC
330
2
100
AcDbEntity
  8
03-01
100
AcDbLine
 10
467.7484504407384
 20
544.8170948738241
 30
0.0
 11
467.7484504407384
 21
589.8170948738238
 31
0.0
  0
LINE
  5
1ED
330
2
100
AcDbEntity
  8
03-01
100
AcDbLine
 10
463.7484504407384
 20
544.8170948738241
 30
0.0
 11
463.7484504407384
 21
589.8170948738238
 31
0.0
  0
LINE
  5
1EE
330
2
100
AcDbEntity
  8
03-01
100
AcDbLine
 10
441.7484504407379
 20
594.8170948738241
 30
0.0
 11
441.7484504407379
 21
639.8170948738241
 31
0.0
  0
LINE
  5
1EF
330
2
100
AcDbEntity
  8
03-01
100
AcDbLine
 10
437.7484504407379
 20
594.8170948738241
 30
0.0
 11
437.7484504407379
 21
639.8170948738241
 31
0.0
  0
LINE
  5
1F0
330
2
100
AcDbEntity
  8
03-01
100
AcDbLine
 10
441.7484504407379
 20
544.8170948738241
 30
0.0
 11
441.7484504407379
 21
589.8170948738241
 31
0.0
  0
LINE
  5
1F1
330
2
100
AcDbEntity
  8
03-01
100
AcDbLine
 10
437.7484504407379
 20
544.8170948738241
 30
0.0
 11
437.7484504407379
 21
589.8170948738241
 31
0.0
  0
LINE
  5
1F2
330
2
100
AcDbEntity
  8
03-01
100
AcDbLine
 10
467.7484504407384
 20
644.8170948738241
 30
0.0
 11
467.7484504407384
 21
689.8170948738238
 31
0.0
  0
LINE
  5
1F3
330
2
100
AcDbEntity
  8
03-01
100
AcDbLine
 10
463.7484504407384
 20
644.8170948738241
 30
0.0
 11
463.7484504407384
 21
689.8170948738238
 31
0.0
  0
LINE
  5
1F4
330
2
100
AcDbEntity
  8
03-01
100
AcDbLine
 10
441.7484504407379
 20
644.8170948738241
 30
0.0
 11
441.7484504407379
 21
689.8170948738241
 31
0.0
  0
LINE
  5
1F5
330
2
100
AcDbEntity
  8
03-01
100
AcDbLine
 10
437.7484504407379
 20
644.8170948738241
 30
0.0
 11
437.7484504407379
 21
689.8170948738241
 31
0.0
  0
LINE
  5
1F6
330
2
100
AcDbEntity
  8
03-01
100
AcDbLine
 10
391.7484504407385
 20
694.8170948738241
 30
0.0
 11
391.748450440738
 21
739.8170948738241
 31
0.0
  0
LINE
  5
1F7
330
2
100
AcDbEntity
  8
03-01
100
AcDbLine
 10
387.7484504407385
 20
694.8170948738241
 30
0.0
 11
387.748450440738
 21
739.8170948738241
 31
0.0
  0
LINE
  5
1F8
330
2
100
AcDbEntity
  8
03-01
100
AcDbLine
 10
337.748450440738
 20
694.8170948738241
 30
0.0
 11
337.748450440738
 21
739.8170948738241
 31
0.0
  0
LINE
  5
1F9
330
2
100
AcDbEntity
  8
03-01
100
AcDbLine
 10
341.748450440738
 20
694.8170948738241
 30
0.0
 11
341.748450440738
 21
739.8170948738241
 31
0.0
  0
LINE
  5
1FA
330
2
100
AcDbEntity
  8
03-01
100
AcDbLine
 10
391.7484504407385
 20
594.8170948738241
 30
0.0
 11
391.748450440738
 21
639.8170948738241
 31
0.0
  0
LINE
  5
1FB
330
2
100
AcDbEntity
  8
03-01
100
AcDbLine
 10
387.7484504407385
 20
594.8170948738241
 30
0.0
 11
387.748450440738
 21
639.8170948738241
 31
0.0
  0
LINE
  5
1FC
330
2
100
AcDbEntity
  8
03-01
100
AcDbLine
 10
391.7484504407385
 20
544.8170948738241
 30
0.0
 11
391.748450440738
 21
589.8170948738241
 31
0.0
  0
LINE
  5
1FD
330
2
100
AcDbEntity
  8
03-01
100
AcDbLine
 10
387.7484504407385
 20
544.8170948738241
 30
0.0
 11
387.748450440738
 21
589.8170948738241
 31
0.0
  0
LINE
  5
1FE
330
2
100
AcDbEntity
  8
03-01
100
AcDbLine
 10
337.748450440738
 20
594.8170948738241
 30
0.0
 11
337.748450440738
 21
639.8170948738241
 31
0.0
  0
LINE
  5
1FF
330
2
100
AcDbEntity
  8
03-01
100
AcDbLine
 10
341.748450440738
 20
594.8170948738241
 30
0.0
 11
341.748450440738
 21
639.8170948738241
 31
0.0
  0
LINE
  5
200
330
2
100
AcDbEntity
  8
03-01
100
AcDbLine
 10
337.748450440738
 20
544.8170948738241
 30
0.0
 11
337.748450440738
 21
589.8170948738241
 31
0.0
  0
LINE
  5
201
330
2
100
AcDbEntity
  8
03-01
100
AcDbLine
 10
341.748450440738
 20
544.8170948738241
 30
0.0
 11
341.748450440738
 21
589.8170948738241
 31
0.0
  0
LINE
  5
202
330
2
100
AcDbEntity
  8
03-01
100
AcDbLine
 10
391.7484504407385
 20
644.8170948738241
 30
0.0
 11
391.748450440738
 21
689.8170948738241
 31
0.0
  0
LINE
  5
203
330
2
100
AcDbEntity
  8
03-01
100
AcDbLine
 10
387.7484504407385
 20
644.8170948738241
 30
0.0
 11
387.748450440738
 21
689.8170948738241
 31
0.0
  0
LINE
  5
204
330
2
100
AcDbEntity
  8
03-01
100
AcDbLine
 10
337.748450440738
 20
644.8170948738241
 30
0.0
 11
337.748450440738
 21
689.8170948738241
 31
0.0
  0
LINE
  5
205
330
2
100
AcDbEntity
  8
03-01
100
AcDbLine
 10
341.748450440738
 20
644.8170948738241
 30
0.0
 11
341.748450440738
 21
689.8170948738241
 31
0.0
  0
ARC
  5
206
330
2
100
AcDbEntity
  8
03-01
100
AcDbCircle
 10
469.7484504407384
 20
492.817094873824
 30
0.0
 40
2.0
100
AcDbArc
 50
270.0
 51
90.0
  0
LINE
  5
207
330
2
100
AcDbEntity
  8
03-01
100
AcDbLine
 10
467.7484504407384
 20
424.8170948738243
 30
0.0
 11
467.7484504407384
 21
440.8170948738241
 31
0.0
  0
LINE
  5
208
330
2
100
AcDbEntity
  8
03-01
100
AcDbLine
 10
463.7484504407384
 20
424.8170948738243
 30
0.0
 11
463.7484504407384
 21
440.8170948738241
 31
0.0
  0
ARC
  5
209
330
2
100
AcDbEntity
  8
03-01
100
AcDbCircle
 10
461.7484504407384
 20
424.8170948738243
 30
0.0
 40
6.0
100
AcDbArc
 50
270.0
 51
0.0
  0
ARC
  5
20A
330
2
100
AcDbEntity
  8
03-01
100
AcDbCircle
 10
461.7484504407384
 20
424.8170948738243
 30
0.0
 40
2.0
100
AcDbArc
 50
270.0
 51
0.0
  0
ARC
  5
20B
330
2
100
AcDbEntity
  8
03-01
100
AcDbCircle
 10
469.7484504407384
 20
442.817094873824
 30
0.0
 40
2.0
100
AcDbArc
 50
270.0
 51
90.0
  0
LINE
  5
20C
330
2
100
AcDbEntity
  8
03-01
100
AcDbLine
 10
463.7484504407384
 20
444.8170948738241
 30
0.0
 11
463.7484504407384
 21
489.8170948738238
 31
0.0
  0
LINE
  5
20D
330
2
100
AcDbEntity
  8
03-01
100
AcDbLine
 10
467.7484504407384
 20
444.8170948738241
 30
0.0
 11
467.7484504407384
 21
489.8170948738238
 31
0.0
  0
LINE
  5
20E
330
2
100
AcDbEntity
  8
03-01
100
AcDbLine
 10
441.7484504407384
 20
424.8170948738243
 30
0.0
 11
441.7484504407379
 21
440.8170948738241
 31
0.0
  0
LINE
  5
20F
330
2
100
AcDbEntity
  8
03-01
100
AcDbLine
 10
437.7484504407384
 20
424.8170948738243
 30
0.0
 11
437.7484504407379
 21
440.8170948738241
 31
0.0
  0
LINE
  5
210
330
2
100
AcDbEntity
  8
03-01
100
AcDbLine
 10
437.7484504407384
 20
422.8170948738243
 30
0.0
 11
441.7484504407384
 21
422.8170948738243
 31
0.0
  0
ARC
  5
211
330
2
100
AcDbEntity
  8
03-01
100
AcDbCircle
 10
439.7484504407384
 20
424.8170948738243
 30
0.0
 40
2.0
100
AcDbArc
 50
180.0
 51
0.0
  0
LINE
  5
212
330
2
100
AcDbEntity
  8
03-01
100
AcDbLine
 10
437.7484504407379
 20
444.8170948738241
 30
0.0
 11
437.7484504407379
 21
489.8170948738241
 31
0.0
  0
LINE
  5
213
330
2
100
AcDbEntity
  8
03-01
100
AcDbLine
 10
441.7484504407379
 20
444.8170948738241
 30
0.0
 11
441.7484504407379
 21
489.8170948738241
 31
0.0
  0
ARC
  5
214
330
2
100
AcDbEntity
  8
03-01
100
AcDbCircle
 10
389.7484504407385
 20
424.8170948738243
 30
0.0
 40
2.0
100
AcDbArc
 50
180.0
 51
0.0
  0
LINE
  5
215
330
2
100
AcDbEntity
  8
03-01
100
AcDbLine
 10
387.7484504407385
 20
422.8170948738243
 30
0.0
 11
391.7484504407385
 21
422.8170948738243
 31
0.0
  0
LINE
  5
216
330
2
100
AcDbEntity
  8
03-01
100
AcDbLine
 10
387.7484504407385
 20
424.8170948738243
 30
0.0
 11
387.7484504407385
 21
440.8170948738241
 31
0.0
  0
LINE
  5
217
330
2
100
AcDbEntity
  8
03-01
100
AcDbLine
 10
391.7484504407385
 20
424.8170948738243
 30
0.0
 11
391.7484504407385
 21
440.8170948738241
 31
0.0
  0
LINE
  5
218
330
2
100
AcDbEntity
  8
03-01
100
AcDbLine
 10
387.7484504407385
 20
444.8170948738241
 30
0.0
 11
387.748450440738
 21
489.8170948738241
 31
0.0
  0
LINE
  5
219
330
2
100
AcDbEntity
  8
03-01
100
AcDbLine
 10
391.7484504407385
 20
444.8170948738241
 30
0.0
 11
391.748450440738
 21
489.8170948738241
 31
0.0
  0
ARC
  5
21A
330
2
100
AcDbEntity
  8
03-01
100
AcDbCircle
 10
339.7484504407385
 20
424.8170948738243
 30
0.0
 40
2.0
100
AcDbArc
 50
180.0
 51
0.0
  0
LINE
  5
21B
330
2
100
AcDbEntity
  8
03-01
100
AcDbLine
 10
337.7484504407385
 20
422.8170948738243
 30
0.0
 11
341.7484504407385
 21
422.8170948738243
 31
0.0
  0
LINE
  5
21C
330
2
100
AcDbEntity
  8
03-01
100
AcDbLine
 10
337.7484504407385
 20
424.8170948738243
 30
0.0
 11
337.7484504407385
 21
440.8170948738241
 31
0.0
  0
LINE
  5
21D
330
2
100
AcDbEntity
  8
03-01
100
AcDbLine
 10
341.7484504407385
 20
424.8170948738243
 30
0.0
 11
341.7484504407385
 21
440.8170948738241
 31
0.0
  0
LINE
  5
21E
330
2
100
AcDbEntity
  8
03-01
100
AcDbLine
 10
341.748450440738
 20
444.8170948738241
 30
0.0
 11
341.748450440738
 21
489.8170948738241
 31
0.0
  0
LINE
  5
21F
330
2
100
AcDbEntity
  8
03-01
100
AcDbLine
 10
337.748450440738
 20
444.8170948738241
 30
0.0
 11
337.748450440738
 21
489.8170948738241
 31
0.0
  0
LINE
  5
220
330
2
100
AcDbEntity
  8
03-01
100
AcDbLine
 10
467.7484504407384
 20
494.8170948738241
 30
0.0
 11
467.7484504407384
 21
539.8170948738238
 31
0.0
  0
LINE
  5
221
330
2
100
AcDbEntity
  8
03-01
100
AcDbLine
 10
463.7484504407384
 20
494.8170948738241
 30
0.0
 11
463.7484504407384
 21
539.8170948738238
 31
0.0
  0
LINE
  5
222
330
2
100
AcDbEntity
  8
03-01
100
AcDbLine
 10
441.7484504407379
 20
494.8170948738241
 30
0.0
 11
441.7484504407379
 21
539.8170948738241
 31
0.0
  0
LINE
  5
223
330
2
100
AcDbEntity
  8
03-01
100
AcDbLine
 10
437.7484504407379
 20
494.8170948738241
 30
0.0
 11
437.7484504407379
 21
539.8170948738241
 31
0.0
  0
LINE
  5
224
330
2
100
AcDbEntity
  8
03-01
100
AcDbLine
 10
391.7484504407385
 20
494.8170948738241
 30
0.0
 11
391.748450440738
 21
539.8170948738241
 31
0.0
  0
LINE
  5
225
330
2
100
AcDbEntity
  8
03-01
100
AcDbLine
 10
387.7484504407385
 20
494.8170948738241
 30
0.0
 11
387.748450440738
 21
539.8170948738241
 31
0.0
  0
LINE
  5
226
330
2
100
AcDbEntity
  8
03-01
100
AcDbLine
 10
337.748450440738
 20
494.8170948738241
 30
0.0
 11
337.748450440738
 21
539.8170948738241
 31
0.0
  0
LINE
  5
227
330
2
100
AcDbEntity
  8
03-01
100
AcDbLine
 10
341.748450440738
 20
494.8170948738241
 30
0.0
 11
341.748450440738
 21
539.8170948738241
 31
0.0
  0
LINE
  5
228
330
2
100
AcDbEntity
  8
03-01
100
AcDbLine
 10
287.748450440738
 20
694.8170948738241
 30
0.0
 11
287.748450440738
 21
739.8170948738241
 31
0.0
  0
LINE
  5
229
330
2
100
AcDbEntity
  8
03-01
100
AcDbLine
 10
291.748450440738
 20
694.8170948738241
 30
0.0
 11
291.748450440738
 21
739.8170948738241
 31
0.0
  0
LINE
  5
22A
330
2
100
AcDbEntity
  8
03-01
100
AcDbLine
 10
287.748450440738
 20
594.8170948738241
 30
0.0
 11
287.748450440738
 21
639.8170948738241
 31
0.0
  0
LINE
  5
22B
330
2
100
AcDbEntity
  8
03-01
100
AcDbLine
 10
291.748450440738
 20
594.8170948738241
 30
0.0
 11
291.748450440738
 21
639.8170948738241
 31
0.0
  0
LINE
  5
22C
330
2
100
AcDbEntity
  8
03-01
100
AcDbLine
 10
287.748450440738
 20
544.8170948738241
 30
0.0
 11
287.748450440738
 21
589.8170948738241
 31
0.0
  0
LINE
  5
22D
330
2
100
AcDbEntity
  8
03-01
100
AcDbLine
 10
291.748450440738
 20
544.8170948738241
 30
0.0
 11
291.748450440738
 21
589.8170948738241
 31
0.0
  0
LINE
  5
22E
330
2
100
AcDbEntity
  8
03-01
100
AcDbLine
 10
287.748450440738
 20
644.8170948738241
 30
0.0
 11
287.748450440738
 21
689.8170948738241
 31
0.0
  0
LINE
  5
22F
330
2
100
AcDbEntity
  8
03-01
100
AcDbLine
 10
291.748450440738
 20
644.8170948738241
 30
0.0
 11
291.748450440738
 21
689.8170948738241
 31
0.0
  0
ARC
  5
230
330
2
100
AcDbEntity
  8
03-01
100
AcDbCircle
 10
209.7484504407384
 20
742.8170948738241
 30
0.0
 40
2.0
100
AcDbArc
 50
90.0
 51
270.0
  0
ARC
  5
231
330
2
100
AcDbEntity
  8
03-01
100
AcDbCircle
 10
209.7484504407384
 20
692.8170948738241
 30
0.0
 40
2.0
100
AcDbArc
 50
90.0
 51
270.0
  0
LINE
  5
232
330
2
100
AcDbEntity
  8
03-01
100
AcDbLine
 10
211.7484504407384
 20
694.8170948738241
 30
0.0
 11
211.7484504407384
 21
739.8170948738241
 31
0.0
  0
LINE
  5
233
330
2
100
AcDbEntity
  8
03-01
100
AcDbLine
 10
241.748450440738
 20
694.8170948738241
 30
0.0
 11
241.748450440738
 21
739.8170948738241
 31
0.0
  0
LINE
  5
234
330
2
100
AcDbEntity
  8
03-01
100
AcDbLine
 10
237.748450440738
 20
694.8170948738241
 30
0.0
 11
237.748450440738
 21
739.8170948738241
 31
0.0
  0
LINE
  5
235
330
2
100
AcDbEntity
  8
03-01
100
AcDbLine
 10
215.7484504407384
 20
694.8170948738241
 30
0.0
 11
215.7484504407384
 21
739.8170948738241
 31
0.0
  0
LINE
  5
236
330
2
100
AcDbEntity
  8
03-01
100
AcDbLine
 10
241.748450440738
 20
594.8170948738241
 30
0.0
 11
241.748450440738
 21
639.8170948738241
 31
0.0
  0
LINE
  5
237
330
2
100
AcDbEntity
  8
03-01
100
AcDbLine
 10
237.748450440738
 20
594.8170948738241
 30
0.0
 11
237.748450440738
 21
639.8170948738241
 31
0.0
  0
ARC
  5
238
330
2
100
AcDbEntity
  8
03-01
100
AcDbCircle
 10
209.7484504407384
 20
642.8170948738241
 30
0.0
 40
2.0
100
AcDbArc
 50
90.0
 51
270.0
  0
ARC
  5
239
330
2
100
AcDbEntity
  8
03-01
100
AcDbCircle
 10
209.7484504407384
 20
592.817094873824
 30
0.0
 40
2.0
100
AcDbArc
 50
90.0
 51
270.0
  0
LINE
  5
23A
330
2
100
AcDbEntity
  8
03-01
100
AcDbLine
 10
211.7484504407384
 20
594.8170948738241
 30
0.0
 11
211.7484504407384
 21
639.8170948738241
 31
0.0
  0
LINE
  5
23B
330
2
100
AcDbEntity
  8
03-01
100
AcDbLine
 10
215.7484504407384
 20
594.8170948738241
 30
0.0
 11
215.7484504407384
 21
639.8170948738241
 31
0.0
  0
ARC
  5
23C
330
2
100
AcDbEntity
  8
03-01
100
AcDbCircle
 10
209.7484504407384
 20
542.817094873824
 30
0.0
 40
2.0
100
AcDbArc
 50
90.0
 51
270.0
  0
LINE
  5
23D
330
2
100
AcDbEntity
  8
03-01
100
AcDbLine
 10
211.7484504407384
 20
544.8170948738241
 30
0.0
 11
211.7484504407384
 21
589.8170948738241
 31
0.0
  0
LINE
  5
23E
330
2
100
AcDbEntity
  8
03-01
100
AcDbLine
 10
241.748450440738
 20
544.8170948738241
 30
0.0
 11
241.748450440738
 21
589.8170948738241
 31
0.0
  0
LINE
  5
23F
330
2
100
AcDbEntity
  8
03-01
100
AcDbLine
 10
237.748450440738
 20
544.8170948738241
 30
0.0
 11
237.748450440738
 21
589.8170948738241
 31
0.0
  0
LINE
  5
240
330
2
100
AcDbEntity
  8
03-01
100
AcDbLine
 10
215.7484504407384
 20
544.8170948738241
 30
0.0
 11
215.7484504407384
 21
589.8170948738241
 31
0.0
  0
LINE
  5
241
330
2
100
AcDbEntity
  8
03-01
100
AcDbLine
 10
211.7484504407384
 20
644.8170948738241
 30
0.0
 11
211.7484504407384
 21
689.8170948738241
 31
0.0
  0
LINE
  5
242
330
2
100
AcDbEntity
  8
03-01
100
AcDbLine
 10
241.748450440738
 20
644.8170948738241
 30
0.0
 11
241.748450440738
 21
689.8170948738241
 31
0.0
  0
LINE
  5
243
330
2
100
AcDbEntity
  8
03-01
100
AcDbLine
 10
237.748450440738
 20
644.8170948738241
 30
0.0
 11
237.748450440738
 21
689.8170948738241
 31
0.0
  0
LINE
  5
244
330
2
100
AcDbEntity
  8
03-01
100
AcDbLine
 10
215.7484504407384
 20
644.8170948738241
 30
0.0
 11
215.7484504407384
 21
689.8170948738241
 31
0.0
  0
ARC
  5
245
330
2
100
AcDbEntity
  8
03-01
100
AcDbCircle
 10
289.7484504407385
 20
424.8170948738243
 30
0.0
 40
2.0
100
AcDbArc
 50
180.0
 51
0.0
  0
LINE
  5
246
330
2
100
AcDbEntity
  8
03-01
100
AcDbLine
 10
287.7484504407385
 20
422.8170948738243
 30
0.0
 11
291.7484504407385
 21
422.8170948738243
 31
0.0
  0
LINE
  5
247
330
2
100
AcDbEntity
  8
03-01
100
AcDbLine
 10
287.7484504407385
 20
424.8170948738243
 30
0.0
 11
287.7484504407385
 21
440.8170948738241
 31
0.0
  0
LINE
  5
248
330
2
100
AcDbEntity
  8
03-01
100
AcDbLine
 10
291.7484504407385
 20
424.8170948738243
 30
0.0
 11
291.7484504407385
 21
440.8170948738241
 31
0.0
  0
LINE
  5
249
330
2
100
AcDbEntity
  8
03-01
100
AcDbLine
 10
291.748450440738
 20
444.8170948738241
 30
0.0
 11
291.748450440738
 21
489.8170948738241
 31
0.0
  0
LINE
  5
24A
330
2
100
AcDbEntity
  8
03-01
100
AcDbLine
 10
287.748450440738
 20
444.8170948738241
 30
0.0
 11
287.748450440738
 21
489.8170948738241
 31
0.0
  0
ARC
  5
24B
330
2
100
AcDbEntity
  8
03-01
100
AcDbCircle
 10
209.7484504407384
 20
492.817094873824
 30
0.0
 40
2.0
100
AcDbArc
 50
90.0
 51
270.0
  0
ARC
  5
24C
330
2
100
AcDbEntity
  8
03-01
100
AcDbCircle
 10
239.7484504407385
 20
424.8170948738243
 30
0.0
 40
2.0
100
AcDbArc
 50
180.0
 51
0.0
  0
LINE
  5
24D
330
2
100
AcDbEntity
  8
03-01
100
AcDbLine
 10
237.7484504407385
 20
422.8170948738243
 30
0.0
 11
241.7484504407385
 21
422.8170948738243
 31
0.0
  0
LINE
  5
24E
330
2
100
AcDbEntity
  8
03-01
100
AcDbLine
 10
237.7484504407385
 20
424.8170948738243
 30
0.0
 11
237.7484504407385
 21
440.8170948738241
 31
0.0
  0
LINE
  5
24F
330
2
100
AcDbEntity
  8
03-01
100
AcDbLine
 10
241.7484504407385
 20
424.8170948738243
 30
0.0
 11
241.7484504407385
 21
440.8170948738241
 31
0.0
  0
LINE
  5
250
330
2
100
AcDbEntity
  8
03-01
100
AcDbLine
 10
215.7484504407384
 20
424.817094873824
 30
0.0
 11
215.7484504407384
 21
440.8170948738241
 31
0.0
  0
ARC
  5
251
330
2
100
AcDbEntity
  8
03-01
100
AcDbCircle
 10
217.7484504407384
 20
424.817094873824
 30
0.0
 40
2.0
100
AcDbArc
 50
180.0
 51
270.0
  0
LINE
  5
252
330
2
100
AcDbEntity
  8
03-01
100
AcDbLine
 10
211.7484504407384
 20
424.8170948738243
 30
0.0
 11
211.7484504407384
 21
440.8170948738241
 31
0.0
  0
ARC
  5
253
330
2
100
AcDbEntity
  8
03-01
100
AcDbCircle
 10
217.7484504407384
 20
424.8170948738243
 30
0.0
 40
6.0
100
AcDbArc
 50
180.0
 51
270.0
  0
ARC
  5
254
330
2
100
AcDbEntity
  8
03-01
100
AcDbCircle
 10
209.7484504407384
 20
442.817094873824
 30
0.0
 40
2.0
100
AcDbArc
 50
90.0
 51
270.0
  0
LINE
  5
255
330
2
100
AcDbEntity
  8
03-01
100
AcDbLine
 10
215.7484504407384
 20
444.8170948738241
 30
0.0
 11
215.7484504407384
 21
489.8170948738241
 31
0.0
  0
LINE
  5
256
330
2
100
AcDbEntity
  8
03-01
100
AcDbLine
 10
237.748450440738
 20
444.8170948738241
 30
0.0
 11
237.748450440738
 21
489.8170948738241
 31
0.0
  0
LINE
  5
257
330
2
100
AcDbEntity
  8
03-01
100
AcDbLine
 10
241.748450440738
 20
444.8170948738241
 30
0.0
 11
241.748450440738
 21
489.8170948738241
 31
0.0
  0
LINE
  5
258
330
2
100
AcDbEntity
  8
03-01
100
AcDbLine
 10
211.7484504407384
 20
444.8170948738241
 30
0.0
 11
211.7484504407384
 21
489.8170948738241
 31
0.0
  0
LINE
  5
259
330
2
100
AcDbEntity
  8
03-01
100
AcDbLine
 10
211.7484504407384
 20
494.8170948738241
 30
0.0
 11
211.7484504407384
 21
539.8170948738241
 31
0.0
  0
LINE
  5
25A
330
2
100
AcDbEntity
  8
03-01
100
AcDbLine
 10
287.748450440738
 20
494.8170948738241
 30
0.0
 11
287.748450440738
 21
539.8170948738241
 31
0.0
  0
LINE
  5
25B
330
2
100
AcDbEntity
  8
03-01
100
AcDbLine
 10
291.748450440738
 20
494.8170948738241
 30
0.0
 11
291.748450440738
 21
539.8170948738241
 31
0.0
  0
LINE
  5
25C
330
2
100
AcDbEntity
  8
03-01
100
AcDbLine
 10
241.748450440738
 20
494.8170948738241
 30
0.0
 11
241.748450440738
 21
539.8170948738241
 31
0.0
  0
LINE
  5
25D
330
2
100
AcDbEntity
  8
03-01
100
AcDbLine
 10
237.748450440738
 20
494.8170948738241
 30
0.0
 11
237.748450440738
 21
539.8170948738241
 31
0.0
  0
LINE
  5
25E
330
2
100
AcDbEntity
  8
03-01
100
AcDbLine
 10
215.7484504407384
 20
494.8170948738241
 30
0.0
 11
215.7484504407384
 21
539.8170948738241
 31
0.0
  0
LINE
  5
25F
330
2
100
AcDbEntity
  8
03-01
100
AcDbLine
 10
217.7484504407384
 20
418.8170948738243
 30
0.0
 11
461.7484504407384
 21
418.8170948738243
 31
0.0
  0
LINE
  5
260
330
2
100
AcDbEntity
  8
03-01
100
AcDbLine
 10
217.7484504407384
 20
422.8170948738241
 30
0.0
 11
461.7484504407384
 21
422.8170948738243
 31
0.0
  0
LINE
  5
261
330
2
100
AcDbEntity
  8
03-01
100
AcDbLine
 10
209.7484504407384
 20
744.8170948738241
 30
0.0
 11
469.7484504407384
 21
744.8170948738241
 31
0.0
  0
LINE
  5
262
330
2
100
AcDbEntity
  8
03-01
100
AcDbLine
 10
209.7484504407384
 20
740.8170948738241
 30
0.0
 11
469.7484504407384
 21
740.8170948738241
 31
0.0
  0
LINE
  5
263
330
2
100
AcDbEntity
  8
03-01
100
AcDbLine
 10
209.7484504407384
 20
690.8170948738241
 30
0.0
 11
469.7484504407384
 21
690.8170948738241
 31
0.0
  0
LINE
  5
264
330
2
100
AcDbEntity
  8
03-01
100
AcDbLine
 10
209.7484504407384
 20
694.8170948738241
 30
0.0
 11
469.7484504407384
 21
694.8170948738241
 31
0.0
  0
LINE
  5
265
330
2
100
AcDbEntity
  8
03-01
100
AcDbLine
 10
209.7484504407384
 20
640.8170948738241
 30
0.0
 11
469.7484504407384
 21
640.8170948738241
 31
0.0
  0
LINE
  5
266
330
2
100
AcDbEntity
  8
03-01
100
AcDbLine
 10
209.7484504407384
 20
644.8170948738241
 30
0.0
 11
469.7484504407384
 21
644.8170948738241
 31
0.0
  0
LINE
  5
267
330
2
100
AcDbEntity
  8
03-01
100
AcDbLine
 10
209.7484504407384
 20
590.8170948738241
 30
0.0
 11
469.7484504407384
 21
590.8170948738241
 31
0.0
  0
LINE
  5
268
330
2
100
AcDbEntity
  8
03-01
100
AcDbLine
 10
209.7484504407384
 20
594.8170948738241
 30
0.0
 11
469.7484504407384
 21
594.8170948738241
 31
0.0
  0
LINE
  5
269
330
2
100
AcDbEntity
  8
03-01
100
AcDbLine
 10
209.7484504407384
 20
540.8170948738241
 30
0.0
 11
469.7484504407384
 21
540.8170948738241
 31
0.0
  0
LINE
  5
26A
330
2
100
AcDbEntity
  8
03-01
100
AcDbLine
 10
209.7484504407384
 20
544.8170948738241
 30
0.0
 11
469.7484504407384
 21
544.8170948738241
 31
0.0
  0
LINE
  5
26B
330
2
100
AcDbEntity
  8
03-01
100
AcDbLine
 10
209.7484504407384
 20
490.8170948738241
 30
0.0
 11
469.7484504407384
 21
490.8170948738241
 31
0.0
  0
LINE
  5
26C
330
2
100
AcDbEntity
  8
03-01
100
AcDbLine
 10
209.7484504407384
 20
494.8170948738241
 30
0.0
 11
469.7484504407384
 21
494.8170948738241
 31
0.0
  0
LINE
  5
26D
330
2
100
AcDbEntity
  8
03-01
100
AcDbLine
 10
209.7484504407384
 20
440.8170948738241
 30
0.0
 11
469.7484504407384
 21
440.8170948738241
 31
0.0
  0
LINE
  5
26E
330
2
100
AcDbEntity
  8
03-01
100
AcDbLine
 10
209.7484504407384
 20
444.8170948738241
 30
0.0
 11
469.7484504407384
 21
444.8170948738241
 31
0.0
  0
LINE
  5
26F
330
2
100
AcDbEntity
  8
03-01
100
AcDbLine
 10
215.7484504407384
 20
744.8170948738241
 30
0.0
 11
215.7484504407384
 21
798.8170948738241
 31
0.0
  0
LINE
  5
270
330
2
100
AcDbEntity
  8
03-01
100
AcDbLine
 10
237.748450440738
 20
744.8170948738241
 30
0.0
 11
237.748450440738
 21
798.8170948738241
 31
0.0
  0
LINE
  5
271
330
2
100
AcDbEntity
  8
03-01
100
AcDbLine
 10
241.748450440738
 20
744.8170948738241
 30
0.0
 11
241.748450440738
 21
798.8170948738241
 31
0.0
  0
LINE
  5
272
330
2
100
AcDbEntity
  8
03-01
100
AcDbLine
 10
341.748450440738
 20
744.8170948738241
 30
0.0
 11
341.748450440738
 21
798.8170948738241
 31
0.0
  0
LINE
  5
273
330
2
100
AcDbEntity
  8
03-01
100
AcDbLine
 10
337.748450440738
 20
744.8170948738241
 30
0.0
 11
337.748450440738
 21
798.8170948738241
 31
0.0
  0
LINE
  5
274
330
2
100
AcDbEntity
  8
03-01
100
AcDbLine
 10
291.748450440738
 20
744.8170948738241
 30
0.0
 11
291.748450440738
 21
798.8170948738241
 31
0.0
  0
LINE
  5
275
330
2
100
AcDbEntity
  8
03-01
100
AcDbLine
 10
287.748450440738
 20
744.8170948738241
 30
0.0
 11
287.748450440738
 21
798.8170948738241
 31
0.0
  0
LINE
  5
276
330
2
100
AcDbEntity
  8
03-01
100
AcDbLine
 10
387.7484504407385
 20
744.8170948738241
 30
0.0
 11
387.748450440738
 21
798.8170948738241
 31
0.0
  0
LINE
  5
277
330
2
100
AcDbEntity
  8
03-01
100
AcDbLine
 10
391.7484504407385
 20
744.8170948738241
 30
0.0
 11
391.748450440738
 21
798.8170948738241
 31
0.0
  0
LINE
  5
278
330
2
100
AcDbEntity
  8
03-01
100
AcDbLine
 10
437.7484504407379
 20
744.8170948738241
 30
0.0
 11
437.7484504407379
 21
798.8170948738241
 31
0.0
  0
LINE
  5
279
330
2
100
AcDbEntity
  8
03-01
100
AcDbLine
 10
441.7484504407379
 20
744.8170948738241
 30
0.0
 11
441.7484504407379
 21
798.8170948738241
 31
0.0
  0
LINE
  5
27A
330
2
100
AcDbEntity
  8
03-01
100
AcDbLine
 10
463.7484504407384
 20
744.8170948738241
 30
0.0
 11
463.7484504407384
 21
798.8170948738241
 31
0.0
  0
LINE
  5
27B
330
2
100
AcDbEntity
  8
03-01
100
AcDbLine
 10
467.7484504407384
 20
744.8170948738241
 30
0.0
 11
467.7484504407384
 21
798.8170948738241
 31
0.0
  0
LINE
  5
27C
330
2
100
AcDbEntity
  8
03-01
100
AcDbLine
 10
211.7484504407384
 20
744.8170948738241
 30
0.0
 11
211.7484504407384
 21
798.8170948738241
 31
0.0
  0
LINE
  5
27D
330
2
100
AcDbEntity
  8
03-01
100
AcDbLine
 10
488.7484504407384
 20
418.8170948738243
 30
0.0
 11
190.7484504407384
 21
418.8170948738243
 31
0.0
  0
CIRCLE
  5
27E
330
2
100
AcDbEntity
  8
03-01
100
AcDbCircle
 10
463.7484504407384
 20
377.9766641091503
 30
0.0
 40
2.0
  0
CIRCLE
  5
27F
330
2
100
AcDbEntity
  8
03-01
100
AcDbCircle
 10
439.7484504407384
 20
383.9766641091503
 30
0.0
 40
2.0
  0
LINE
  5
280
330
2
100
AcDbEntity
  8
03-01
100
AcDbLine
 10
463.7484504407384
 20
375.9766641091503
 30
0.0
 11
441.7484504407386
 21
375.9766641091503
 31
0.0
  0
LINE
  5
281
330
2
100
AcDbEntity
  8
03-01
100
AcDbLine
 10
463.7484504407384
 20
379.9766641091502
 30
0.0
 11
441.7484504407386
 21
379.9766641091503
 31
0.0
  0
CIRCLE
  5
282
330
2
100
AcDbEntity
  8
03-01
100
AcDbCircle
 10
463.7484504407384
 20
338.4766641091503
 30
0.0
 40
2.0
  0
CIRCLE
  5
283
330
2
100
AcDbEntity
  8
03-01
100
AcDbCircle
 10
463.7484504407384
 20
338.4766641091503
 30
0.0
 40
2.0
  0
CIRCLE
  5
284
330
2
100
AcDbEntity
  8
03-01
100
AcDbCircle
 10
463.7484504407384
 20
298.9766641091503
 30
0.0
 40
2.0
  0
CIRCLE
  5
285
330
2
100
AcDbEntity
  8
03-01
100
AcDbCircle
 10
439.7484504407384
 20
292.9766641091503
 30
0.0
 40
2.0
  0
LINE
  5
286
330
2
100
AcDbEntity
  8
03-01
100
AcDbLine
 10
441.7484504407382
 20
336.4766641091503
 30
0.0
 11
463.7484504407384
 21
336.4766641091506
 31
0.0
  0
LINE
  5
287
330
2
100
AcDbEntity
  8
03-01
100
AcDbLine
 10
441.7484504407382
 20
340.4766641091503
 30
0.0
 11
463.7484504407384
 21
340.4766641091506
 31
0.0
  0
LINE
  5
288
330
2
100
AcDbEntity
  8
03-01
100
AcDbLine
 10
463.7484504407384
 20
296.9766641091504
 30
0.0
 11
441.7484504407386
 21
296.9766641091503
 31
0.0
  0
LINE
  5
289
330
2
100
AcDbEntity
  8
03-01
100
AcDbLine
 10
463.7484504407384
 20
300.9766641091503
 30
0.0
 11
441.7484504407386
 21
300.9766641091503
 31
0.0
  0
LINE
  5
28A
330
2
100
AcDbEntity
  8
03-01
100
AcDbLine
 10
441.7484504407382
 20
292.9766641091503
 30
0.0
 11
441.7484504407382
 21
385.9766641091503
 31
0.0
  0
LINE
  5
28B
330
2
100
AcDbEntity
  8
03-01
100
AcDbLine
 10
437.7484504407382
 20
292.9766641091503
 30
0.0
 11
437.7484504407382
 21
385.9766641091503
 31
0.0
  0
CIRCLE
  5
28C
330
2
100
AcDbEntity
  8
03-01
100
AcDbCircle
 10
389.7484504407385
 20
383.9766641091503
 30
0.0
 40
2.0
  0
CIRCLE
  5
28D
330
2
100
AcDbEntity
  8
03-01
100
AcDbCircle
 10
339.7484504407385
 20
383.9766641091503
 30
0.0
 40
2.0
  0
LINE
  5
28E
330
2
100
AcDbEntity
  8
03-01
100
AcDbLine
 10
341.7484504407382
 20
375.9766641091503
 30
0.0
 11
387.7484504407382
 21
375.9766641091503
 31
0.0
  0
LINE
  5
28F
330
2
100
AcDbEntity
  8
03-01
100
AcDbLine
 10
341.7484504407382
 20
379.9766641091503
 30
0.0
 11
387.7484504407382
 21
379.9766641091503
 31
0.0
  0
CIRCLE
  5
290
330
2
100
AcDbEntity
  8
03-01
100
AcDbCircle
 10
389.7484504407385
 20
292.9766641091503
 30
0.0
 40
2.0
  0
CIRCLE
  5
291
330
2
100
AcDbEntity
  8
03-01
100
AcDbCircle
 10
339.7484504407385
 20
292.9766641091503
 30
0.0
 40
2.0
  0
LINE
  5
292
330
2
100
AcDbEntity
  8
03-01
100
AcDbLine
 10
341.7484504407382
 20
340.4766641091503
 30
0.0
 11
387.7484504407382
 21
340.4766641091503
 31
0.0
  0
LINE
  5
293
330
2
100
AcDbEntity
  8
03-01
100
AcDbLine
 10
341.7484504407382
 20
336.4766641091503
 30
0.0
 11
387.7484504407382
 21
336.4766641091503
 31
0.0
  0
LINE
  5
294
330
2
100
AcDbEntity
  8
03-01
100
AcDbLine
 10
341.7484504407382
 20
296.9766641091503
 30
0.0
 11
387.7484504407382
 21
296.9766641091503
 31
0.0
  0
LINE
  5
295
330
2
100
AcDbEntity
  8
03-01
100
AcDbLine
 10
341.7484504407382
 20
300.9766641091503
 30
0.0
 11
387.7484504407382
 21
300.9766641091503
 31
0.0
  0
LINE
  5
296
330
2
100
AcDbEntity
  8
03-01
100
AcDbLine
 10
341.7484504407382
 20
292.9766641091503
 30
0.0
 11
341.7484504407382
 21
385.9766641091503
 31
0.0
  0
LINE
  5
297
330
2
100
AcDbEntity
  8
03-01
100
AcDbLine
 10
337.7484504407382
 20
292.9766641091503
 30
0.0
 11
337.7484504407382
 21
385.9766641091503
 31
0.0
  0
LINE
  5
298
330
2
100
AcDbEntity
  8
03-01
100
AcDbLine
 10
391.7484504407383
 20
292.9766641091503
 30
0.0
 11
391.7484504407383
 21
385.9766641091503
 31
0.0
  0
LINE
  5
299
330
2
100
AcDbEntity
  8
03-01
100
AcDbLine
 10
387.7484504407382
 20
292.9766641091503
 30
0.0
 11
387.7484504407382
 21
385.9766641091503
 31
0.0
  0
LINE
  5
29A
330
2
100
AcDbEntity
  8
03-01
100
AcDbLine
 10
391.7484504407383
 20
340.4766641091503
 30
0.0
 11
437.7484504407382
 21
340.4766641091503
 31
0.0
  0
LINE
  5
29B
330
2
100
AcDbEntity
  8
03-01
100
AcDbLine
 10
391.7484504407383
 20
336.4766641091503
 30
0.0
 11
437.7484504407382
 21
336.4766641091503
 31
0.0
  0
LINE
  5
29C
330
2
100
AcDbEntity
  8
03-01
100
AcDbLine
 10
391.7484504407383
 20
296.9766641091503
 30
0.0
 11
437.7484504407382
 21
296.9766641091503
 31
0.0
  0
LINE
  5
29D
330
2
100
AcDbEntity
  8
03-01
100
AcDbLine
 10
391.7484504407383
 20
300.9766641091503
 30
0.0
 11
437.7484504407382
 21
300.9766641091503
 31
0.0
  0
LINE
  5
29E
330
2
100
AcDbEntity
  8
03-01
100
AcDbLine
 10
391.7484504407383
 20
375.9766641091503
 30
0.0
 11
437.7484504407382
 21
375.9766641091503
 31
0.0
  0
LINE
  5
29F
330
2
100
AcDbEntity
  8
03-01
100
AcDbLine
 10
391.7484504407383
 20
379.9766641091503
 30
0.0
 11
437.7484504407382
 21
379.9766641091503
 31
0.0
  0
CIRCLE
  5
2A0
330
2
100
AcDbEntity
  8
03-01
100
AcDbCircle
 10
289.7484504407382
 20
383.9766641091503
 30
0.0
 40
2.0
  0
CIRCLE
  5
2A1
330
2
100
AcDbEntity
  8
03-01
100
AcDbCircle
 10
289.7484504407382
 20
292.9766641091503
 30
0.0
 40
2.0
  0
LINE
  5
2A2
330
2
100
AcDbEntity
  8
03-01
100
AcDbLine
 10
291.7484504407383
 20
292.9766641091503
 30
0.0
 11
291.7484504407383
 21
385.9766641091503
 31
0.0
  0
LINE
  5
2A3
330
2
100
AcDbEntity
  8
03-01
100
AcDbLine
 10
287.7484504407382
 20
292.9766641091503
 30
0.0
 11
287.7484504407382
 21
385.9766641091503
 31
0.0
  0
CIRCLE
  5
2A4
330
2
100
AcDbEntity
  8
03-01
100
AcDbCircle
 10
239.7484504407382
 20
383.9766641091503
 30
0.0
 40
2.0
  0
CIRCLE
  5
2A5
330
2
100
AcDbEntity
  8
03-01
100
AcDbCircle
 10
215.7484504407384
 20
377.9766641091503
 30
0.0
 40
2.0
  0
LINE
  5
2A6
330
2
100
AcDbEntity
  8
03-01
100
AcDbLine
 10
215.7484504407384
 20
375.9766641091503
 30
0.0
 11
237.7484504407382
 21
375.9766641091503
 31
0.0
  0
LINE
  5
2A7
330
2
100
AcDbEntity
  8
03-01
100
AcDbLine
 10
215.7484504407384
 20
379.9766641091502
 30
0.0
 11
237.7484504407382
 21
379.9766641091503
 31
0.0
  0
CIRCLE
  5
2A8
330
2
100
AcDbEntity
  8
03-01
100
AcDbCircle
 10
215.7484504407384
 20
338.4766641091503
 30
0.0
 40
2.0
  0
LINE
  5
2A9
330
2
100
AcDbEntity
  8
03-01
100
AcDbLine
 10
215.7484504407384
 20
340.4766641091503
 30
0.0
 11
237.7484504407382
 21
340.4766641091503
 31
0.0
  0
LINE
  5
2AA
330
2
100
AcDbEntity
  8
03-01
100
AcDbLine
 10
215.7484504407384
 20
336.4766641091503
 30
0.0
 11
237.7484504407382
 21
336.4766641091503
 31
0.0
  0
CIRCLE
  5
2AB
330
2
100
AcDbEntity
  8
03-01
100
AcDbCircle
 10
239.7484504407382
 20
292.9766641091503
 30
0.0
 40
2.0
  0
CIRCLE
  5
2AC
330
2
100
AcDbEntity
  8
03-01
100
AcDbCircle
 10
215.7484504407384
 20
298.9766641091503
 30
0.0
 40
2.0
  0
LINE
  5
2AD
330
2
100
AcDbEntity
  8
03-01
100
AcDbLine
 10
215.7484504407384
 20
296.9766641091504
 30
0.0
 11
237.7484504407382
 21
296.9766641091503
 31
0.0
  0
LINE
  5
2AE
330
2
100
AcDbEntity
  8
03-01
100
AcDbLine
 10
215.7484504407384
 20
300.9766641091503
 30
0.0
 11
237.7484504407382
 21
300.9766641091503
 31
0.0
  0
LINE
  5
2AF
330
2
100
AcDbEntity
  8
03-01
100
AcDbLine
 10
237.7484504407382
 20
292.9766641091503
 30
0.0
 11
237.7484504407382
 21
385.9766641091503
 31
0.0
  0
LINE
  5
2B0
330
2
100
AcDbEntity
  8
03-01
100
AcDbLine
 10
241.7484504407382
 20
292.9766641091503
 30
0.0
 11
241.7484504407382
 21
385.9766641091503
 31
0.0
  0
LINE
  5
2B1
330
2
100
AcDbEntity
  8
03-01
100
AcDbLine
 10
241.7484504407382
 20
340.4766641091503
 30
0.0
 11
287.7484504407382
 21
340.4766641091503
 31
0.0
  0
LINE
  5
2B2
330
2
100
AcDbEntity
  8
03-01
100
AcDbLine
 10
241.7484504407382
 20
336.4766641091503
 30
0.0
 11
287.7484504407382
 21
336.4766641091503
 31
0.0
  0
LINE
  5
2B3
330
2
100
AcDbEntity
  8
03-01
100
AcDbLine
 10
241.7484504407382
 20
296.9766641091503
 30
0.0
 11
287.7484504407382
 21
296.9766641091503
 31
0.0
  0
LINE
  5
2B4
330
2
100
AcDbEntity
  8
03-01
100
AcDbLine
 10
241.7484504407382
 20
300.9766641091503
 30
0.0
 11
287.7484504407382
 21
300.9766641091503
 31
0.0
  0
LINE
  5
2B5
330
2
100
AcDbEntity
  8
03-01
100
AcDbLine
 10
241.7484504407382
 20
375.9766641091503
 30
0.0
 11
287.7484504407382
 21
375.9766641091503
 31
0.0
  0
LINE
  5
2B6
330
2
100
AcDbEntity
  8
03-01
100
AcDbLine
 10
241.7484504407382
 20
379.9766641091503
 30
0.0
 11
287.7484504407382
 21
379.9766641091503
 31
0.0
  0
LWPOLYLINE
  5
2B7
330
2
100
AcDbEntity
  8
03-01
100
AcDbPolyline
 90
        8
 70
     1
 43
0.0
 10
215.7484504407384
 20
290.9766641091503
 10
463.7484504407384
 20
290.9766641091503
 42
0.4142135623730951
 10
465.7484504407384
 20
292.9766641091503
 10
465.7484504407384
 20
383.9766641091503
 42
0.4142135623730951
 10
463.7484504407384
 20
385.9766641091503
 10
215.7484504407384
 20
385.9766641091503
 42
0.4142135623730951
 10
213.7484504407384
 20
383.9766641091503
 10
213.7484504407384
 20
292.9766641091503
 42
0.4142135623730951
  0
LINE
  5
2B8
330
2
100
AcDbEntity
  8
03-01
100
AcDbLine
 10
291.7484504407383
 20
340.4766641091503
 30
0.0
 11
337.7484504407382
 21
340.4766641091503
 31
0.0
  0
LINE
  5
2B9
330
2
100
AcDbEntity
  8
03-01
100
AcDbLine
 10
291.7484504407383
 20
336.4766641091503
 30
0.0
 11
337.7484504407382
 21
336.4766641091503
 31
0.0
  0
LWPOLYLINE
  5
2BA
330
2
100
AcDbEntity
  8
03-01
100
AcDbPolyline
 90
        8
 70
     1
 43
0.0
 10
215.7484504407384
 20
286.9766641091503
 10
463.7484504407384
 20
286.9766641091503
 42
0.4142135623730951
 10
469.7484504407384
 20
292.9766641091503
 10
469.7484504407384
 20
383.9766641091503
 42
0.4142135623730951
 10
463.7484504407384
 20
389.9766641091503
 10
215.7484504407384
 20
389.9766641091503
 42
0.4142135623730951
 10
209.7484504407384
 20
383.9766641091503
 10
209.7484504407384
 20
292.9766641091503
 42
0.4142135623730951
  0
LINE
  5
2BB
330
2
100
AcDbEntity
  8
03-01
100
AcDbLine
 10
291.7484504407383
 20
296.9766641091503
 30
0.0
 11
337.7484504407382
 21
296.9766641091503
 31
0.0
  0
LINE
  5
2BC
330
2
100
AcDbEntity
  8
03-01
100
AcDbLine
 10
291.7484504407383
 20
300.9766641091503
 30
0.0
 11
337.7484504407382
 21
300.9766641091503
 31
0.0
  0
LINE
  5
2BD
330
2
100
AcDbEntity
  8
03-01
100
AcDbLine
 10
291.7484504407383
 20
375.9766641091503
 30
0.0
 11
337.7484504407382
 21
375.9766641091503
 31
0.0
  0
LINE
  5
2BE
330
2
100
AcDbEntity
  8
03-01
100
AcDbLine
 10
291.7484504407383
 20
379.9766641091503
 30
0.0
 11
337.7484504407382
 21
379.9766641091503
 31
0.0
  0
ARC
  5
2BF
330
2
100
AcDbEntity
  8
03-01
100
AcDbCircle
 10
848.0854276450127
 20
796.8170948738242
 30
0.0
 40
2.0
100
AcDbArc
 50
90.0
 51
270.0
  0
ARC
  5
2C0
330
2
100
AcDbEntity
  8
03-01
100
AcDbCircle
 10
848.0854276450127
 20
796.8170948738242
 30
0.0
 40
2.0
100
AcDbArc
 50
270.0
 51
90.0
  0
ARC
  5
2C1
330
2
100
AcDbEntity
  8
03-01
100
AcDbCircle
 10
848.0854276450127
 20
738.8170948738241
 30
0.0
 40
2.0
100
AcDbArc
 50
270.0
 51
90.0
  0
ARC
  5
2C2
330
2
100
AcDbEntity
  8
03-01
100
AcDbCircle
 10
848.0854276450127
 20
738.8170948738241
 30
0.0
 40
2.0
100
AcDbArc
 50
90.0
 51
270.0
  0
ARC
  5
2C3
330
2
100
AcDbEntity
  8
03-01
100
AcDbCircle
 10
848.0854276450127
 20
688.8170948738241
 30
0.0
 40
2.0
100
AcDbArc
 50
90.0
 51
270.0
  0
ARC
  5
2C4
330
2
100
AcDbEntity
  8
03-01
100
AcDbCircle
 10
848.0854276450127
 20
688.8170948738241
 30
0.0
 40
2.0
100
AcDbArc
 50
270.0
 51
90.0
  0
LINE
  5
2C5
330
2
100
AcDbEntity
  8
03-01
100
AcDbLine
 10
846.0854276450127
 20
690.8170948738241
 30
0.0
 11
846.0854276450127
 21
736.817094873824
 31
0.0
  0
LINE
  5
2C6
330
2
100
AcDbEntity
  8
03-01
100
AcDbLine
 10
842.0854276450127
 20
690.8170948738241
 30
0.0
 11
842.0854276450127
 21
736.817094873824
 31
0.0
  0
LINE
  5
2C7
330
2
100
AcDbEntity
  8
03-01
100
AcDbLine
 10
840.0854276450127
 20
690.8170948738241
 30
0.0
 11
840.0854276450127
 21
736.8170948738239
 31
0.0
  0
ARC
  5
2C8
330
2
100
AcDbEntity
  8
03-01
100
AcDbCircle
 10
848.0854276450127
 20
638.8170948738241
 30
0.0
 40
2.0
100
AcDbArc
 50
270.0
 51
90.0
  0
ARC
  5
2C9
330
2
100
AcDbEntity
  8
03-01
100
AcDbCircle
 10
848.0854276450127
 20
638.8170948738241
 30
0.0
 40
2.0
100
AcDbArc
 50
90.0
 51
270.0
  0
ARC
  5
2CA
330
2
100
AcDbEntity
  8
03-01
100
AcDbCircle
 10
848.0854276450127
 20
588.8170948738241
 30
0.0
 40
2.0
100
AcDbArc
 50
270.0
 51
90.0
  0
ARC
  5
2CB
330
2
100
AcDbEntity
  8
03-01
100
AcDbCircle
 10
848.0854276450127
 20
588.8170948738241
 30
0.0
 40
2.0
100
AcDbArc
 50
90.0
 51
270.0
  0
LINE
  5
2CC
330
2
100
AcDbEntity
  8
03-01
100
AcDbLine
 10
846.0854276450127
 20
590.8170948738241
 30
0.0
 11
846.0854276450127
 21
636.817094873824
 31
0.0
  0
LINE
  5
2CD
330
2
100
AcDbEntity
  8
03-01
100
AcDbLine
 10
842.0854276450127
 20
590.8170948738241
 30
0.0
 11
842.0854276450127
 21
636.817094873824
 31
0.0
  0
LINE
  5
2CE
330
2
100
AcDbEntity
  8
03-01
100
AcDbLine
 10
840.0854276450127
 20
590.8170948738241
 30
0.0
 11
840.0854276450127
 21
636.817094873824
 31
0.0
  0
ARC
  5
2CF
330
2
100
AcDbEntity
  8
03-01
100
AcDbCircle
 10
848.0854276450127
 20
538.8170948738241
 30
0.0
 40
2.0
100
AcDbArc
 50
270.0
 51
90.0
  0
ARC
  5
2D0
330
2
100
AcDbEntity
  8
03-01
100
AcDbCircle
 10
848.0854276450127
 20
538.8170948738241
 30
0.0
 40
2.0
100
AcDbArc
 50
90.0
 51
270.0
  0
LINE
  5
2D1
330
2
100
AcDbEntity
  8
03-01
100
AcDbLine
 10
846.0854276450127
 20
540.8170948738241
 30
0.0
 11
846.0854276450127
 21
586.817094873824
 31
0.0
  0
LINE
  5
2D2
330
2
100
AcDbEntity
  8
03-01
100
AcDbLine
 10
842.0854276450127
 20
540.8170948738241
 30
0.0
 11
842.0854276450127
 21
586.817094873824
 31
0.0
  0
LINE
  5
2D3
330
2
100
AcDbEntity
  8
03-01
100
AcDbLine
 10
840.0854276450127
 20
540.8170948738241
 30
0.0
 11
840.0854276450127
 21
586.817094873824
 31
0.0
  0
LINE
  5
2D4
330
2
100
AcDbEntity
  8
03-01
100
AcDbLine
 10
846.0854276450127
 20
640.8170948738241
 30
0.0
 11
846.0854276450127
 21
686.817094873824
 31
0.0
  0
LINE
  5
2D5
330
2
100
AcDbEntity
  8
03-01
100
AcDbLine
 10
842.0854276450127
 20
640.8170948738241
 30
0.0
 11
842.0854276450127
 21
686.817094873824
 31
0.0
  0
LINE
  5
2D6
330
2
100
AcDbEntity
  8
03-01
100
AcDbLine
 10
840.0854276450127
 20
640.8170948738241
 30
0.0
 11
840.0854276450127
 21
686.817094873824
 31
0.0
  0
ARC
  5
2D7
330
2
100
AcDbEntity
  8
03-01
100
AcDbCircle
 10
848.0854276450127
 20
488.8170948738241
 30
0.0
 40
2.0
100
AcDbArc
 50
270.0
 51
90.0
  0
ARC
  5
2D8
330
2
100
AcDbEntity
  8
03-01
100
AcDbCircle
 10
848.0854276450127
 20
488.8170948738241
 30
0.0
 40
2.0
100
AcDbArc
 50
90.0
 51
270.0
  0
LINE
  5
2D9
330
2
100
AcDbEntity
  8
03-01
100
AcDbLine
 10
846.0854276450127
 20
424.8170948738243
 30
0.0
 11
846.0854276450127
 21
436.817094873824
 31
0.0
  0
LINE
  5
2DA
330
2
100
AcDbEntity
  8
03-01
100
AcDbLine
 10
842.0854276450127
 20
424.8170948738243
 30
0.0
 11
842.0854276450127
 21
436.817094873824
 31
0.0
  0
ARC
  5
2DB
330
2
100
AcDbEntity
  8
03-01
100
AcDbCircle
 10
840.0854276450127
 20
424.8170948738243
 30
0.0
 40
2.0
100
AcDbArc
 50
270.0
 51
0.0
  0
ARC
  5
2DC
330
2
100
AcDbEntity
  8
03-01
100
AcDbCircle
 10
840.0854276450127
 20
424.8170948738243
 30
0.0
 40
6.0
100
AcDbArc
 50
270.0
 51
0.0
  0
LINE
  5
2DD
330
2
100
AcDbEntity
  8
03-01
100
AcDbLine
 10
840.0854276450127
 20
424.8170948738243
 30
0.0
 11
840.0854276450127
 21
436.817094873824
 31
0.0
  0
ARC
  5
2DE
330
2
100
AcDbEntity
  8
03-01
100
AcDbCircle
 10
848.0854276450127
 20
438.8170948738241
 30
0.0
 40
2.0
100
AcDbArc
 50
90.0
 51
270.0
  0
ARC
  5
2DF
330
2
100
AcDbEntity
  8
03-01
100
AcDbCircle
 10
848.0854276450127
 20
438.8170948738241
 30
0.0
 40
2.0
100
AcDbArc
 50
270.0
 51
90.0
  0
LINE
  5
2E0
330
2
100
AcDbEntity
  8
03-01
100
AcDbLine
 10
842.0854276450127
 20
440.8170948738241
 30
0.0
 11
842.0854276450127
 21
486.817094873824
 31
0.0
  0
LINE
  5
2E1
330
2
100
AcDbEntity
  8
03-01
100
AcDbLine
 10
846.0854276450127
 20
440.8170948738241
 30
0.0
 11
846.0854276450127
 21
486.817094873824
 31
0.0
  0
LINE
  5
2E2
330
2
100
AcDbEntity
  8
03-01
100
AcDbLine
 10
840.0854276450127
 20
440.8170948738241
 30
0.0
 11
840.0854276450127
 21
486.817094873824
 31
0.0
  0
LINE
  5
2E3
330
2
100
AcDbEntity
  8
03-01
100
AcDbLine
 10
846.0854276450127
 20
490.8170948738241
 30
0.0
 11
846.0854276450127
 21
536.817094873824
 31
0.0
  0
LINE
  5
2E4
330
2
100
AcDbEntity
  8
03-01
100
AcDbLine
 10
842.0854276450127
 20
490.8170948738241
 30
0.0
 11
842.0854276450127
 21
536.817094873824
 31
0.0
  0
LINE
  5
2E5
330
2
100
AcDbEntity
  8
03-01
100
AcDbLine
 10
840.0854276450127
 20
490.8170948738241
 30
0.0
 11
840.0854276450127
 21
536.817094873824
 31
0.0
  0
LINE
  5
2E6
330
2
100
AcDbEntity
  8
03-01
100
AcDbLine
 10
842.0854276450127
 20
740.8170948738241
 30
0.0
 11
842.0854276450127
 21
794.8170948738237
 31
0.0
  0
LINE
  5
2E7
330
2
100
AcDbEntity
  8
03-01
100
AcDbLine
 10
846.0854276450127
 20
740.8170948738241
 30
0.0
 11
846.0854276450127
 21
794.8170948738237
 31
0.0
  0
LINE
  5
2E8
330
2
100
AcDbEntity
  8
03-01
100
AcDbLine
 10
840.0854276450127
 20
740.8170948738238
 30
0.0
 11
840.0854276450127
 21
794.8170948738241
 31
0.0
  0
ARC
  5
2E9
330
2
100
AcDbEntity
  8
03-01
100
AcDbCircle
 10
749.0854276450127
 20
796.8170948738242
 30
0.0
 40
2.0
100
AcDbArc
 50
90.0
 51
270.0
  0
ARC
  5
2EA
330
2
100
AcDbEntity
  8
03-01
100
AcDbCircle
 10
749.0854276450127
 20
796.8170948738242
 30
0.0
 40
2.0
100
AcDbArc
 50
270.0
 51
90.0
  0
LINE
  5
2EB
330
2
100
AcDbEntity
  8
03-01
100
AcDbLine
 10
800.5854276450127
 20
690.8170948738241
 30
0.0
 11
800.5854276450127
 21
736.817094873824
 31
0.0
  0
LINE
  5
2EC
330
2
100
AcDbEntity
  8
03-01
100
AcDbLine
 10
836.0854276450126
 20
690.8170948738241
 30
0.0
 11
836.0854276450126
 21
736.8170948738239
 31
0.0
  0
LINE
  5
2ED
330
2
100
AcDbEntity
  8
03-01
100
AcDbLine
 10
796.5854276450127
 20
690.8170948738241
 30
0.0
 11
796.5854276450127
 21
736.817094873824
 31
0.0
  0
LINE
  5
2EE
330
2
100
AcDbEntity
  8
03-01
100
AcDbLine
 10
757.0854276450127
 20
690.8170948738241
 30
0.0
 11
757.0854276450127
 21
736.817094873824
 31
0.0
  0
LINE
  5
2EF
330
2
100
AcDbEntity
  8
03-01
100
AcDbLine
 10
761.0854276450127
 20
690.8170948738241
 30
0.0
 11
761.0854276450127
 21
736.817094873824
 31
0.0
  0
LINE
  5
2F0
330
2
100
AcDbEntity
  8
03-01
100
AcDbLine
 10
836.0854276450126
 20
590.8170948738241
 30
0.0
 11
836.0854276450126
 21
636.817094873824
 31
0.0
  0
LINE
  5
2F1
330
2
100
AcDbEntity
  8
03-01
100
AcDbLine
 10
800.5854276450127
 20
590.8170948738241
 30
0.0
 11
800.5854276450127
 21
636.817094873824
 31
0.0
  0
LINE
  5
2F2
330
2
100
AcDbEntity
  8
03-01
100
AcDbLine
 10
800.5854276450127
 20
540.8170948738241
 30
0.0
 11
800.5854276450127
 21
586.817094873824
 31
0.0
  0
LINE
  5
2F3
330
2
100
AcDbEntity
  8
03-01
100
AcDbLine
 10
836.0854276450126
 20
540.8170948738241
 30
0.0
 11
836.0854276450126
 21
586.817094873824
 31
0.0
  0
LINE
  5
2F4
330
2
100
AcDbEntity
  8
03-01
100
AcDbLine
 10
796.5854276450127
 20
590.8170948738241
 30
0.0
 11
796.5854276450127
 21
636.817094873824
 31
0.0
  0
LINE
  5
2F5
330
2
100
AcDbEntity
  8
03-01
100
AcDbLine
 10
757.0854276450127
 20
590.8170948738241
 30
0.0
 11
757.0854276450127
 21
636.817094873824
 31
0.0
  0
LINE
  5
2F6
330
2
100
AcDbEntity
  8
03-01
100
AcDbLine
 10
761.0854276450127
 20
590.8170948738241
 30
0.0
 11
761.0854276450127
 21
636.817094873824
 31
0.0
  0
LINE
  5
2F7
330
2
100
AcDbEntity
  8
03-01
100
AcDbLine
 10
796.5854276450127
 20
540.8170948738241
 30
0.0
 11
796.5854276450127
 21
586.817094873824
 31
0.0
  0
LINE
  5
2F8
330
2
100
AcDbEntity
  8
03-01
100
AcDbLine
 10
757.0854276450127
 20
540.8170948738241
 30
0.0
 11
757.0854276450127
 21
586.817094873824
 31
0.0
  0
LINE
  5
2F9
330
2
100
AcDbEntity
  8
03-01
100
AcDbLine
 10
761.0854276450127
 20
540.8170948738243
 30
0.0
 11
761.0854276450127
 21
586.817094873824
 31
0.0
  0
LINE
  5
2FA
330
2
100
AcDbEntity
  8
03-01
100
AcDbLine
 10
800.5854276450127
 20
640.8170948738241
 30
0.0
 11
800.5854276450127
 21
686.817094873824
 31
0.0
  0
LINE
  5
2FB
330
2
100
AcDbEntity
  8
03-01
100
AcDbLine
 10
796.5854276450127
 20
640.8170948738241
 30
0.0
 11
796.5854276450127
 21
686.817094873824
 31
0.0
  0
LINE
  5
2FC
330
2
100
AcDbEntity
  8
03-01
100
AcDbLine
 10
757.0854276450127
 20
640.8170948738241
 30
0.0
 11
757.0854276450127
 21
686.817094873824
 31
0.0
  0
LINE
  5
2FD
330
2
100
AcDbEntity
  8
03-01
100
AcDbLine
 10
761.0854276450127
 20
640.8170948738241
 30
0.0
 11
761.0854276450127
 21
686.817094873824
 31
0.0
  0
LINE
  5
2FE
330
2
100
AcDbEntity
  8
03-01
100
AcDbLine
 10
836.0854276450126
 20
640.8170948738241
 30
0.0
 11
836.0854276450126
 21
686.817094873824
 31
0.0
  0
ARC
  5
2FF
330
2
100
AcDbEntity
  8
03-01
100
AcDbCircle
 10
749.0854276450127
 20
738.8170948738241
 30
0.0
 40
2.0
100
AcDbArc
 50
270.0
 51
90.0
  0
ARC
  5
300
330
2
100
AcDbEntity
  8
03-01
100
AcDbCircle
 10
749.0854276450127
 20
738.8170948738241
 30
0.0
 40
2.0
100
AcDbArc
 50
90.0
 51
270.0
  0
ARC
  5
301
330
2
100
AcDbEntity
  8
03-01
100
AcDbCircle
 10
749.0854276450127
 20
688.8170948738241
 30
0.0
 40
2.0
100
AcDbArc
 50
90.0
 51
270.0
  0
ARC
  5
302
330
2
100
AcDbEntity
  8
03-01
100
AcDbCircle
 10
749.0854276450127
 20
688.8170948738241
 30
0.0
 40
2.0
100
AcDbArc
 50
270.0
 51
90.0
  0
LINE
  5
303
330
2
100
AcDbEntity
  8
03-01
100
AcDbLine
 10
755.0854276450126
 20
690.8170948738241
 30
0.0
 11
755.0854276450126
 21
736.817094873824
 31
0.0
  0
LINE
  5
304
330
2
100
AcDbEntity
  8
03-01
100
AcDbLine
 10
751.0854276450126
 20
690.8170948738241
 30
0.0
 11
751.0854276450126
 21
736.817094873824
 31
0.0
  0
ARC
  5
305
330
2
100
AcDbEntity
  8
03-01
100
AcDbCircle
 10
749.0854276450127
 20
638.8170948738241
 30
0.0
 40
2.0
100
AcDbArc
 50
270.0
 51
90.0
  0
ARC
  5
306
330
2
100
AcDbEntity
  8
03-01
100
AcDbCircle
 10
749.0854276450127
 20
638.8170948738241
 30
0.0
 40
2.0
100
AcDbArc
 50
90.0
 51
270.0
  0
ARC
  5
307
330
2
100
AcDbEntity
  8
03-01
100
AcDbCircle
 10
749.0854276450127
 20
588.8170948738241
 30
0.0
 40
2.0
100
AcDbArc
 50
270.0
 51
90.0
  0
ARC
  5
308
330
2
100
AcDbEntity
  8
03-01
100
AcDbCircle
 10
749.0854276450127
 20
588.8170948738241
 30
0.0
 40
2.0
100
AcDbArc
 50
90.0
 51
270.0
  0
LINE
  5
309
330
2
100
AcDbEntity
  8
03-01
100
AcDbLine
 10
755.0854276450126
 20
590.8170948738241
 30
0.0
 11
755.0854276450126
 21
636.817094873824
 31
0.0
  0
LINE
  5
30A
330
2
100
AcDbEntity
  8
03-01
100
AcDbLine
 10
751.0854276450126
 20
590.8170948738241
 30
0.0
 11
751.0854276450126
 21
636.817094873824
 31
0.0
  0
ARC
  5
30B
330
2
100
AcDbEntity
  8
03-01
100
AcDbCircle
 10
749.0854276450127
 20
538.8170948738241
 30
0.0
 40
2.0
100
AcDbArc
 50
270.0
 51
90.0
  0
ARC
  5
30C
330
2
100
AcDbEntity
  8
03-01
100
AcDbCircle
 10
749.0854276450127
 20
538.8170948738241
 30
0.0
 40
2.0
100
AcDbArc
 50
90.0
 51
270.0
  0
LINE
  5
30D
330
2
100
AcDbEntity
  8
03-01
100
AcDbLine
 10
755.0854276450126
 20
540.8170948738241
 30
0.0
 11
755.0854276450126
 21
586.817094873824
 31
0.0
  0
LINE
  5
30E
330
2
100
AcDbEntity
  8
03-01
100
AcDbLine
 10
751.0854276450126
 20
540.8170948738241
 30
0.0
 11
751.0854276450126
 21
586.817094873824
 31
0.0
  0
LINE
  5
30F
330
2
100
AcDbEntity
  8
03-01
100
AcDbLine
 10
755.0854276450126
 20
640.8170948738241
 30
0.0
 11
755.0854276450126
 21
686.817094873824
 31
0.0
  0
LINE
  5
310
330
2
100
AcDbEntity
  8
03-01
100
AcDbLine
 10
751.0854276450126
 20
640.8170948738241
 30
0.0
 11
751.0854276450126
 21
686.817094873824
 31
0.0
  0
LINE
  5
311
330
2
100
AcDbEntity
  8
03-01
100
AcDbLine
 10
750.5854276450127
 20
536.817094873824
 30
0.0
 11
792.0854276450127
 21
536.817094873824
 31
0.0
  0
LINE
  5
312
330
2
100
AcDbEntity
  8
03-01
100
AcDbLine
 10
750.5854276450127
 20
540.8170948738243
 30
0.0
 11
792.0854276450127
 21
540.8170948738241
 31
0.0
  0
LINE
  5
313
330
2
100
AcDbEntity
  8
03-01
100
AcDbLine
 10
750.5854276450127
 20
586.817094873824
 30
0.0
 11
792.0854276450127
 21
586.817094873824
 31
0.0
  0
LINE
  5
314
330
2
100
AcDbEntity
  8
03-01
100
AcDbLine
 10
750.5854276450127
 20
590.8170948738241
 30
0.0
 11
792.0854276450127
 21
590.8170948738241
 31
0.0
  0
LINE
  5
315
330
2
100
AcDbEntity
  8
03-01
100
AcDbLine
 10
750.5854276450127
 20
636.817094873824
 30
0.0
 11
792.0854276450127
 21
636.817094873824
 31
0.0
  0
LINE
  5
316
330
2
100
AcDbEntity
  8
03-01
100
AcDbLine
 10
750.5854276450127
 20
640.8170948738241
 30
0.0
 11
792.0854276450127
 21
640.8170948738241
 31
0.0
  0
LINE
  5
317
330
2
100
AcDbEntity
  8
03-01
100
AcDbLine
 10
750.5854276450127
 20
690.8170948738241
 30
0.0
 11
792.0854276450127
 21
690.8170948738241
 31
0.0
  0
LINE
  5
318
330
2
100
AcDbEntity
  8
03-01
100
AcDbLine
 10
750.5854276450127
 20
686.817094873824
 30
0.0
 11
792.0854276450127
 21
686.817094873824
 31
0.0
  0
LINE
  5
319
330
2
100
AcDbEntity
  8
03-01
100
AcDbLine
 10
750.5854276450127
 20
736.817094873824
 30
0.0
 11
792.0854276450127
 21
736.817094873824
 31
0.0
  0
LINE
  5
31A
330
2
100
AcDbEntity
  8
03-01
100
AcDbLine
 10
750.5854276450127
 20
740.8170948738241
 30
0.0
 11
792.0854276450127
 21
740.8170948738241
 31
0.0
  0
LINE
  5
31B
330
2
100
AcDbEntity
  8
03-01
100
AcDbLine
 10
836.0854276450126
 20
424.8170948738243
 30
0.0
 11
836.0854276450126
 21
436.817094873824
 31
0.0
  0
LINE
  5
31C
330
2
100
AcDbEntity
  8
03-01
100
AcDbLine
 10
800.5854276450131
 20
422.8170948738243
 30
0.0
 11
800.5854276450131
 21
436.817094873824
 31
0.0
  0
LINE
  5
31D
330
2
100
AcDbEntity
  8
03-01
100
AcDbLine
 10
836.0854276450126
 20
440.8170948738241
 30
0.0
 11
836.0854276450126
 21
486.817094873824
 31
0.0
  0
LINE
  5
31E
330
2
100
AcDbEntity
  8
03-01
100
AcDbLine
 10
800.5854276450131
 20
440.8170948738241
 30
0.0
 11
800.5854276450127
 21
486.817094873824
 31
0.0
  0
LINE
  5
31F
330
2
100
AcDbEntity
  8
03-01
100
AcDbLine
 10
792.0854276450127
 20
422.8170948738243
 30
0.0
 11
796.5854276450131
 21
422.8170948738243
 31
0.0
  0
LINE
  5
320
330
2
100
AcDbEntity
  8
03-01
100
AcDbLine
 10
796.5854276450131
 20
436.817094873824
 30
0.0
 11
796.5854276450127
 21
422.8170948738245
 31
0.0
  0
ARC
  5
321
330
2
100
AcDbEntity
  8
03-01
100
AcDbCircle
 10
759.0854276450127
 20
424.817094873824
 30
0.0
 40
2.0
100
AcDbArc
 50
180.0
 51
0.0
  0
ARC
  5
322
330
2
100
AcDbEntity
  8
03-01
100
AcDbCircle
 10
759.0854276450127
 20
424.8170948738243
 30
0.0
 40
2.0
100
AcDbArc
 50
0.0
 51
179.9999999999935
  0
LINE
  5
323
330
2
100
AcDbEntity
  8
03-01
100
AcDbLine
 10
761.0854276450127
 20
424.8170948738243
 30
0.0
 11
761.0854276450127
 21
436.817094873824
 31
0.0
  0
LINE
  5
324
330
2
100
AcDbEntity
  8
03-01
100
AcDbLine
 10
757.0854276450127
 20
424.8170948738243
 30
0.0
 11
757.0854276450127
 21
436.817094873824
 31
0.0
  0
LINE
  5
325
330
2
100
AcDbEntity
  8
03-01
100
AcDbLine
 10
757.0854276450127
 20
422.8170948738241
 30
0.0
 11
792.0854276450127
 21
422.8170948738243
 31
0.0
  0
LINE
  5
326
330
2
100
AcDbEntity
  8
03-01
100
AcDbLine
 10
796.5854276450127
 20
440.8170948738241
 30
0.0
 11
796.5854276450127
 21
486.817094873824
 31
0.0
  0
LINE
  5
327
330
2
100
AcDbEntity
  8
03-01
100
AcDbLine
 10
761.0854276450127
 20
440.8170948738241
 30
0.0
 11
761.0854276450127
 21
486.8170948738243
 31
0.0
  0
LINE
  5
328
330
2
100
AcDbEntity
  8
03-01
100
AcDbLine
 10
757.0854276450127
 20
440.8170948738243
 30
0.0
 11
757.0854276450127
 21
486.8170948738243
 31
0.0
  0
ARC
  5
329
330
2
100
AcDbEntity
  8
03-01
100
AcDbCircle
 10
798.5854276450127
 20
424.8170948738239
 30
0.0
 40
2.0
100
AcDbArc
 50
180.0
 51
359.9999999999935
  0
ARC
  5
32A
330
2
100
AcDbEntity
  8
03-01
100
AcDbCircle
 10
798.5854276450127
 20
424.817094873824
 30
0.0
 40
2.0
100
AcDbArc
 50
0.0000000000065138
 51
180.0
  0
ARC
  5
32B
330
2
100
AcDbEntity
  8
03-01
100
AcDbCircle
 10
749.0854276450127
 20
488.8170948738241
 30
0.0
 40
2.0
100
AcDbArc
 50
270.0
 51
90.0
  0
ARC
  5
32C
330
2
100
AcDbEntity
  8
03-01
100
AcDbCircle
 10
749.0854276450127
 20
488.8170948738241
 30
0.0
 40
2.0
100
AcDbArc
 50
90.0
 51
270.0
  0
LINE
  5
32D
330
2
100
AcDbEntity
  8
03-01
100
AcDbLine
 10
755.0854276450126
 20
424.8170948738243
 30
0.0
 11
755.0854276450126
 21
436.817094873824
 31
0.0
  0
LINE
  5
32E
330
2
100
AcDbEntity
  8
03-01
100
AcDbLine
 10
751.0854276450126
 20
424.8170948738243
 30
0.0
 11
751.0854276450126
 21
436.817094873824
 31
0.0
  0
ARC
  5
32F
330
2
100
AcDbEntity
  8
03-01
100
AcDbCircle
 10
749.0854276450127
 20
438.8170948738241
 30
0.0
 40
2.0
100
AcDbArc
 50
90.0
 51
270.0
  0
ARC
  5
330
330
2
100
AcDbEntity
  8
03-01
100
AcDbCircle
 10
749.0854276450127
 20
438.8170948738241
 30
0.0
 40
2.0
100
AcDbArc
 50
270.0
 51
90.0
  0
LINE
  5
331
330
2
100
AcDbEntity
  8
03-01
100
AcDbLine
 10
751.0854276450126
 20
440.8170948738241
 30
0.0
 11
751.0854276450126
 21
486.817094873824
 31
0.0
  0
LINE
  5
332
330
2
100
AcDbEntity
  8
03-01
100
AcDbLine
 10
755.0854276450126
 20
440.8170948738241
 30
0.0
 11
755.0854276450126
 21
486.817094873824
 31
0.0
  0
LINE
  5
333
330
2
100
AcDbEntity
  8
03-01
100
AcDbLine
 10
750.5854276450127
 20
440.8170948738243
 30
0.0
 11
792.0854276450127
 21
440.8170948738241
 31
0.0
  0
LINE
  5
334
330
2
100
AcDbEntity
  8
03-01
100
AcDbLine
 10
750.5854276450127
 20
436.817094873824
 30
0.0
 11
792.0854276450127
 21
436.817094873824
 31
0.0
  0
LINE
  5
335
330
2
100
AcDbEntity
  8
03-01
100
AcDbLine
 10
750.5854276450127
 20
486.817094873824
 30
0.0
 11
792.0854276450127
 21
486.817094873824
 31
0.0
  0
LINE
  5
336
330
2
100
AcDbEntity
  8
03-01
100
AcDbLine
 10
750.5854276450127
 20
490.8170948738243
 30
0.0
 11
792.0854276450127
 21
490.8170948738241
 31
0.0
  0
ARC
  5
337
330
2
100
AcDbEntity
  8
03-01
100
AcDbCircle
 10
757.0854276450127
 20
424.8170948738243
 30
0.0
 40
6.0
100
AcDbArc
 50
180.0
 51
270.0
  0
ARC
  5
338
330
2
100
AcDbEntity
  8
03-01
100
AcDbCircle
 10
757.0854276450127
 20
424.8170948738243
 30
0.0
 40
2.0
100
AcDbArc
 50
180.0
 51
270.0
  0
LINE
  5
339
330
2
100
AcDbEntity
  8
03-01
100
AcDbLine
 10
800.5854276450127
 20
490.8170948738241
 30
0.0
 11
800.5854276450127
 21
536.817094873824
 31
0.0
  0
LINE
  5
33A
330
2
100
AcDbEntity
  8
03-01
100
AcDbLine
 10
796.5854276450127
 20
490.8170948738241
 30
0.0
 11
796.5854276450127
 21
536.817094873824
 31
0.0
  0
LINE
  5
33B
330
2
100
AcDbEntity
  8
03-01
100
AcDbLine
 10
755.0854276450126
 20
490.8170948738241
 30
0.0
 11
755.0854276450126
 21
536.817094873824
 31
0.0
  0
LINE
  5
33C
330
2
100
AcDbEntity
  8
03-01
100
AcDbLine
 10
751.0854276450126
 20
490.8170948738241
 30
0.0
 11
751.0854276450126
 21
536.817094873824
 31
0.0
  0
LINE
  5
33D
330
2
100
AcDbEntity
  8
03-01
100
AcDbLine
 10
836.0854276450126
 20
490.8170948738241
 30
0.0
 11
836.0854276450126
 21
536.817094873824
 31
0.0
  0
LINE
  5
33E
330
2
100
AcDbEntity
  8
03-01
100
AcDbLine
 10
757.0854276450127
 20
490.8170948738243
 30
0.0
 11
757.0854276450127
 21
536.817094873824
 31
0.0
  0
LINE
  5
33F
330
2
100
AcDbEntity
  8
03-01
100
AcDbLine
 10
761.0854276450127
 20
490.8170948738243
 30
0.0
 11
761.0854276450127
 21
536.817094873824
 31
0.0
  0
LINE
  5
340
330
2
100
AcDbEntity
  8
03-01
100
AcDbLine
 10
800.5854276450127
 20
740.8170948738241
 30
0.0
 11
800.5854276450127
 21
794.8170948738237
 31
0.0
  0
LINE
  5
341
330
2
100
AcDbEntity
  8
03-01
100
AcDbLine
 10
796.5854276450127
 20
740.8170948738241
 30
0.0
 11
796.5854276450127
 21
794.8170948738237
 31
0.0
  0
LINE
  5
342
330
2
100
AcDbEntity
  8
03-01
100
AcDbLine
 10
751.0854276450126
 20
740.8170948738241
 30
0.0
 11
751.0854276450126
 21
794.8170948738237
 31
0.0
  0
LINE
  5
343
330
2
100
AcDbEntity
  8
03-01
100
AcDbLine
 10
755.0854276450126
 20
740.8170948738241
 30
0.0
 11
755.0854276450126
 21
794.8170948738237
 31
0.0
  0
LINE
  5
344
330
2
100
AcDbEntity
  8
03-01
100
AcDbLine
 10
836.0854276450126
 20
740.8170948738238
 30
0.0
 11
836.0854276450126
 21
794.8170948738241
 31
0.0
  0
LINE
  5
345
330
2
100
AcDbEntity
  8
03-01
100
AcDbLine
 10
757.0854276450127
 20
740.8170948738241
 30
0.0
 11
757.0854276450127
 21
794.8170948738241
 31
0.0
  0
LINE
  5
346
330
2
100
AcDbEntity
  8
03-01
100
AcDbLine
 10
761.0854276450127
 20
740.8170948738241
 30
0.0
 11
761.0854276450127
 21
794.8170948738241
 31
0.0
  0
LINE
  5
347
330
2
100
AcDbEntity
  8
03-01
100
AcDbLine
 10
757.0854276450127
 20
418.8170948738241
 30
0.0
 11
840.0854276450127
 21
418.8170948738245
 31
0.0
  0
LINE
  5
348
330
2
100
AcDbEntity
  8
03-01
100
AcDbLine
 10
848.0854276450127
 20
798.8170948738241
 30
0.0
 11
792.0854276450127
 21
798.8170948738241
 31
0.0
  0
LINE
  5
349
330
2
100
AcDbEntity
  8
03-01
100
AcDbLine
 10
848.0854276450127
 20
436.817094873824
 30
0.0
 11
792.0854276450127
 21
436.817094873824
 31
0.0
  0
LINE
  5
34A
330
2
100
AcDbEntity
  8
03-01
100
AcDbLine
 10
848.0854276450127
 20
440.8170948738241
 30
0.0
 11
792.0854276450127
 21
440.8170948738241
 31
0.0
  0
LINE
  5
34B
330
2
100
AcDbEntity
  8
03-01
100
AcDbLine
 10
848.0854276450127
 20
490.8170948738241
 30
0.0
 11
792.0854276450127
 21
490.8170948738241
 31
0.0
  0
LINE
  5
34C
330
2
100
AcDbEntity
  8
03-01
100
AcDbLine
 10
848.0854276450127
 20
486.817094873824
 30
0.0
 11
792.0854276450127
 21
486.817094873824
 31
0.0
  0
LINE
  5
34D
330
2
100
AcDbEntity
  8
03-01
100
AcDbLine
 10
848.0854276450127
 20
540.8170948738241
 30
0.0
 11
792.0854276450127
 21
540.8170948738241
 31
0.0
  0
LINE
  5
34E
330
2
100
AcDbEntity
  8
03-01
100
AcDbLine
 10
848.0854276450127
 20
536.817094873824
 30
0.0
 11
792.0854276450127
 21
536.817094873824
 31
0.0
  0
LINE
  5
34F
330
2
100
AcDbEntity
  8
03-01
100
AcDbLine
 10
848.0854276450127
 20
590.8170948738241
 30
0.0
 11
792.0854276450127
 21
590.8170948738241
 31
0.0
  0
LINE
  5
350
330
2
100
AcDbEntity
  8
03-01
100
AcDbLine
 10
848.0854276450127
 20
586.817094873824
 30
0.0
 11
792.0854276450127
 21
586.817094873824
 31
0.0
  0
LINE
  5
351
330
2
100
AcDbEntity
  8
03-01
100
AcDbLine
 10
848.0854276450127
 20
640.8170948738241
 30
0.0
 11
792.0854276450127
 21
640.8170948738241
 31
0.0
  0
LINE
  5
352
330
2
100
AcDbEntity
  8
03-01
100
AcDbLine
 10
848.0854276450127
 20
636.817094873824
 30
0.0
 11
792.0854276450127
 21
636.817094873824
 31
0.0
  0
LINE
  5
353
330
2
100
AcDbEntity
  8
03-01
100
AcDbLine
 10
848.0854276450127
 20
686.817094873824
 30
0.0
 11
792.0854276450127
 21
686.817094873824
 31
0.0
  0
LINE
  5
354
330
2
100
AcDbEntity
  8
03-01
100
AcDbLine
 10
848.0854276450127
 20
690.8170948738241
 30
0.0
 11
792.0854276450127
 21
690.8170948738241
 31
0.0
  0
LINE
  5
355
330
2
100
AcDbEntity
  8
03-01
100
AcDbLine
 10
848.0854276450127
 20
740.8170948738241
 30
0.0
 11
792.0854276450127
 21
740.8170948738241
 31
0.0
  0
LINE
  5
356
330
2
100
AcDbEntity
  8
03-01
100
AcDbLine
 10
848.0854276450127
 20
736.817094873824
 30
0.0
 11
792.0854276450127
 21
736.817094873824
 31
0.0
  0
LINE
  5
357
330
2
100
AcDbEntity
  8
03-01
100
AcDbLine
 10
848.0854276450127
 20
798.8170948738241
 30
0.0
 11
748.5854276450127
 21
798.8170948738241
 31
0.0
  0
LINE
  5
358
330
2
100
AcDbEntity
  8
03-01
100
AcDbLine
 10
848.0854276450127
 20
794.8170948738241
 30
0.0
 11
748.5854276450127
 21
794.8170948738241
 31
0.0
  0
ARC
  5
359
330
2
100
AcDbEntity
  8
03-01
100
AcDbCircle
 10
838.0854276450127
 20
424.8170948738243
 30
0.0
 40
2.0
100
AcDbArc
 50
0.0000000000065138
 51
180.0
  0
ARC
  5
35A
330
2
100
AcDbEntity
  8
03-01
100
AcDbCircle
 10
838.0854276450127
 20
424.817094873824
 30
0.0
 40
2.0
100
AcDbArc
 50
180.0
 51
359.9999999999935
  0
LINE
  5
35B
330
2
100
AcDbEntity
  8
03-01
100
AcDbLine
 10
800.5854276450127
 20
422.8170948738243
 30
0.0
 11
840.0854276450127
 21
422.8170948738243
 31
0.0
  0
DIMENSION
  5
35C
330
2
100
AcDbEntity
  8
09-01
100
AcDbDimension
280
     0
  2
*D2
 10
703.4298897814415
 20
403.6170948738244
 30
0.0
 11
692.1798897814413
 21
453.6170948738246
 31
0.0
 71
     5
 42
100.0
 73
     0
 74
     0
 75
     0
  3
Wagner$0
100
AcDbAlignedDimension
 13
703.4298897814415
 23
503.6170948738244
 33
0.0
 14
703.5132231147745
 24
403.6170948738244
 34
0.0
 50
90.0
100
AcDbRotatedDimension
1001
ACAD
1000
DSTYLE
1002
{
1070
    40
1040
5.0
1070
   271
1070
     2
1070
   272
1070
     2
1002
}
  0
DIMENSION
  5
368
330
2
100
AcDbEntity
  8
09-01
100
AcDbDimension
280
     0
  2
*D1
 10
703.5132231147745
 20
503.6170948738244
 30
0.0
 11
692.2632231147744
 21
927.6170948738233
 31
0.0
 71
     5
 42
847.9999999999972
 73
     0
 74
     0
 75
     0
  3
Wagner$0
100
AcDbAlignedDimension
 13
703.5132231147745
 23
1351.617094873821
 33
0.0
 14
789.5854381069457
 24
503.6170948738244
 34
0.0
 50
90.0
100
AcDbRotatedDimension
1001
ACAD
1000
DSTYLE
1002
{
1070
    40
1040
5.0
1070
   271
1070
     2
1070
   272
1070
     2
1002
}
  0
DIMENSION
  5
374
330
2
100
AcDbEntity
  8
09-01
100
AcDbDimension
280
     0
  2
*D0
 10
703.5132231147745
 20
1351.617094873824
 30
0.0
 11
692.2632231147742
 21
1401.617094873825
 31
0.0
 71
     5
 42
100.0
 73
     0
 74
     0
 75
     0
  3
Wagner$0
100
AcDbAlignedDimension
 13
743.5854381069457
 23
1451.617094873824
 33
0.0
 14
789.5854381069457
 24
1351.617094873824
 34
0.0
 50
90.0
100
AcDbRotatedDimension
1001
ACAD
1000
DSTYLE
1002
{
1070
    40
1040
5.0
1070
   271
1070
     2
1070
   272
1070
     2
1002
}
  0
LINE
  5
381
330
2
100
AcDbEntity
  8
03-01
100
AcDbLine
 10
852.7854171830794
 20
1439.617094873824
 30
0.0
 11
853.5854171830791
 21
1439.617094873824
 31
0.0
  0
LINE
  5
382
330
2
100
AcDbEntity
  8
03-01
100
AcDbLine
 10
853.5854171830791
 20
1450.117094873824
 30
0.0
 11
862.5854171830793
 21
1450.117094873824
 31
0.0
  0
LINE
  5
383
330
2
100
AcDbEntity
  8
0
100
AcDbLine
 10
853.5854171830791
 20
1451.117094873824
 30
0.0
 11
863.5854381069457
 21
1451.117094873824
 31
0.0
  0
ARC
  5
384
330
2
100
AcDbEntity
  8
03-01
100
AcDbCircle
 10
788.8470362284329
 20
1407.935255302728
 30
0.0
 40
5.0
100
AcDbArc
 50
0.0
 51
90.0
  0
LINE
  5
385
330
2
100
AcDbEntity
  8
03-01
100
AcDbLine
 10
748.8008914655952
 20
1412.935255302728
 30
0.0
 11
788.8470362284329
 21
1412.935255302728
 31
0.0
  0
LINE
  5
386
330
2
100
AcDbEntity
  8
0
100
AcDbLine
 10
743.5854381069457
 20
1451.617094873824
 30
0.0
 11
853.5854171830791
 21
1451.617094873824
 31
0.0
  0
LINE
  5
387
330
2
100
AcDbEntity
  8
03-01
100
AcDbLine
 10
744.3854381069459
 20
1450.817094873824
 30
0.0
 11
852.7854171830794
 21
1450.817094873824
 31
0.0
  0
LINE
  5
388
330
2
100
AcDbEntity
  8
03-01
100
AcDbLine
 10
835.5110666316686
 20
1144.809697167594
 30
0.0
 11
836.1715326850053
 21
1142.707292135406
 31
0.0
  0
ARC
  5
389
330
2
100
AcDbEntity
  8
03-01
100
AcDbCircle
 10
836.2742916925759
 20
1145.049462691395
 30
0.0
 40
0.8
100
AcDbArc
 50
107.7037865679161
 51
197.4400000000243
  0
ARC
  5
38A
330
2
100
AcDbEntity
  8
03-01
100
AcDbCircle
 10
836.2742916925759
 20
1145.049462691395
 30
0.0
 40
1.6
100
AcDbArc
 50
107.7037865679161
 51
197.4400000000243
  0
LINE
  5
38B
330
2
100
AcDbEntity
  8
03-01
100
AcDbLine
 10
834.6832452911511
 20
1144.880432077261
 30
0.0
 11
835.4082888543594
 21
1142.463654377886
 31
0.0
  0
LINE
  5
38C
330
2
100
AcDbEntity
  8
03-01
100
AcDbLine
 10
799.2086551624979
 20
1130.908241518204
 30
0.0
 11
798.0697568542491
 21
1134.533598979529
 31
0.0
  0
LINE
  5
38D
330
2
100
AcDbEntity
  8
03-01
100
AcDbLine
 10
817.1227865050264
 20
1140.615583833757
 30
0.0
 11
818.2616848132747
 21
1136.990226372432
 31
0.0
  0
LINE
  5
38E
330
2
100
AcDbEntity
  8
03-01
100
AcDbLine
 10
780.7007669721265
 20
1127.094866291651
 30
0.0
 11
781.2988072907678
 21
1125.191175755229
 31
0.0
  0
ARC
  5
38F
330
2
100
AcDbEntity
  8
03-01
100
AcDbCircle
 10
779.7467356459929
 20
1126.7951593869
 30
0.0
 40
1.0
100
AcDbArc
 50
17.43999999999548
 51
107.7037865679161
  0
ARC
  5
390
330
2
100
AcDbEntity
  8
03-01
100
AcDbCircle
 10
779.7467356459929
 20
1126.7951593869
 30
0.0
 40
1.8
100
AcDbArc
 50
17.43999999999548
 51
107.7037865679161
  0
LINE
  5
391
330
2
100
AcDbEntity
  8
03-01
100
AcDbLine
 10
781.4639920330332
 20
1127.334631815452
 30
0.0
 11
782.0609284767983
 21
1125.434455149398
 31
0.0
  0
LINE
  5
392
330
2
100
AcDbEntity
  8
03-01
100
AcDbLine
 10
862.9166081560011
 20
1155.233111420916
 30
0.0
 11
793.8470362284333
 21
1155.233111420917
 31
0.0
  0
LINE
  5
393
330
2
100
AcDbEntity
  8
03-01
100
AcDbLine
 10
836.1715326850053
 20
1142.707292135406
 30
0.0
 11
781.2988072907678
 21
1125.191175755229
 31
0.0
  0
LINE
  5
394
330
2
100
AcDbEntity
  8
03-01
100
AcDbLine
 10
750.4008914655947
 20
1118.527017356497
 30
0.0
 11
779.7140095876043
 21
1127.87110712485
 31
0.0
  0
LINE
  5
395
330
2
100
AcDbEntity
  8
03-01
100
AcDbLine
 10
749.600891465595
 20
1119.111664889257
 30
0.0
 11
862.9166081560011
 21
1155.233111420916
 31
0.0
  0
LINE
  5
396
330
2
100
AcDbEntity
  8
03-01
100
AcDbLine
 10
836.0310148767135
 20
1145.811575800365
 30
0.0
 11
862.5854171830793
 21
1154.287853127428
 31
0.0
  0
LINE
  5
397
330
2
100
AcDbEntity
  8
0
100
AcDbLine
 10
853.5854171830791
 20
1003.119718255305
 30
0.0
 11
863.6041857815735
 21
1003.119718255305
 31
0.0
  0
LINE
  5
398
330
2
100
AcDbEntity
  8
0
100
AcDbLine
 10
853.5854171830791
 20
994.119718255305
 30
0.0
 11
863.5854171830793
 21
994.119718255305
 31
0.0
  0
LINE
  5
399
330
2
100
AcDbEntity
  8
03-01
100
AcDbLine
 10
750.4008914655947
 20
1055.712419154113
 30
0.0
 11
862.5854171830793
 21
1019.957108258501
 31
0.0
  0
LINE
  5
39A
330
2
100
AcDbEntity
  8
0
100
AcDbLine
 10
853.5854171830791
 20
1451.617094873825
 30
0.0
 11
853.5854171830793
 21
403.6170948738245
 31
0.0
  0
LINE
  5
39B
330
2
100
AcDbEntity
  8
03-01
100
AcDbLine
 10
750.4008914655947
 20
1055.712419154113
 30
0.0
 11
750.4008914655947
 21
1118.527017356497
 31
0.0
  0
LINE
  5
39C
330
2
100
AcDbEntity
  8
0
100
AcDbLine
 10
743.5854381069457
 20
1451.617094873824
 30
0.0
 11
743.5854381069457
 21
403.617094873824
 31
0.0
  0
LINE
  5
39D
330
2
100
AcDbEntity
  8
0
100
AcDbLine
 10
863.5854381069457
 20
1451.117094873824
 30
0.0
 11
863.6041857815735
 21
1003.119718255305
 31
0.0
  0
LINE
  5
39E
330
2
100
AcDbEntity
  8
03-01
100
AcDbLine
 10
749.600891465595
 20
1119.111664889257
 30
0.0
 11
749.6008914655954
 21
1412.935255302728
 31
0.0
  0
LINE
  5
39F
330
2
100
AcDbEntity
  8
03-01
100
AcDbLine
 10
793.8470362284333
 20
1155.233111420917
 30
0.0
 11
793.8470362284329
 21
1407.935255302728
 31
0.0
  0
DIMENSION
  5
3A0
330
2
100
AcDbEntity
  8
09-01
100
AcDbDimension
280
     0
  2
*D23
 10
949.4617767414862
 20
994.119718255305
 30
0.0
 11
931.9617767414861
 21
1012.472653340829
 31
0.0
 70
   128
 71
     5
 42
9.0
 73
     0
 74
     0
 75
     0
  3
Wagner$0
100
AcDbAlignedDimension
 13
863.6041857815735
 23
1003.119718255305
 33
0.0
 14
863.5854171830793
 24
994.119718255305
 34
0.0
 50
270.0
100
AcDbRotatedDimension
1001
ACAD
1000
DSTYLE
1002
{
1070
    40
1040
5.0
1070
   271
1070
     2
1070
   272
1070
     2
1002
}
  0
DIMENSION
  5
3AF
330
2
100
AcDbEntity
  8
09-01
100
AcDbDimension
280
     0
  2
*D22
 10
949.4617767414862
 20
1451.117094873824
 30
0.0
 11
938.2117767414859
 21
1227.118406564565
 31
0.0
  1
<> Tür
 71
     5
 42
447.9973766185194
 73
     0
 74
     0
 75
     0
  3
Wagner$0
100
AcDbAlignedDimension
 13
868.6041857815736
 23
1003.119718255305
 33
0.0
 14
863.5854381069457
 24
1451.117094873824
 34
0.0
 50
90.0
100
AcDbRotatedDimension
1001
ACAD
1000
DSTYLE
1002
{
1070
    40
1040
5.0
1070
   271
1070
     2
1070
   272
1070
     2
1002
}
  0
LINE
  5
3BC
330
2
100
AcDbEntity
  8
03-01
100
AcDbLine
 10
860.5854171830792
 20
849.4985311903956
 30
0.0
 11
860.5854171830792
 21
839.4985379831723
 31
0.0
  0
LINE
  5
3BD
330
2
100
AcDbEntity
  8
03-01
100
AcDbLine
 10
860.587182278839
 20
849.5446349689682
 30
0.0
 11
863.5854171830793
 21
851.2756666980248
 31
0.0
  0
LINE
  5
3BE
330
2
100
AcDbEntity
  8
03-01
100
AcDbLine
 10
860.5854171830792
 20
839.4985379831723
 30
0.0
 11
840.9854171830788
 21
853.2226074384862
 31
0.0
  0
LINE
  5
3BF
330
2
100
AcDbEntity
  8
03-01
100
AcDbLine
 10
828.5854171830791
 20
816.5901517966194
 30
0.0
 11
863.5854171830793
 21
836.7432305722768
 31
0.0
  0
LINE
  5
3C0
330
2
100
AcDbEntity
  8
03-01
100
AcDbLine
 10
744.3854381069459
 20
418.8170948738243
 30
0.0
 11
852.785417183079
 21
418.8170948738243
 31
0.0
  0
LINE
  5
3C1
330
2
100
AcDbEntity
  8
03-01
100
AcDbLine
 10
752.0854381069457
 20
418.8170948738243
 30
0.0
 11
845.0854171830792
 21
418.8170948738243
 31
0.0
  0
LINE
  5
3C2
330
2
100
AcDbEntity
  8
0
100
AcDbLine
 10
853.5854171830791
 20
404.6170948738245
 30
0.0
 11
863.5854171830793
 21
404.6170948738245
 31
0.0
  0
LINE
  5
3C3
330
2
100
AcDbEntity
  8
0
100
AcDbLine
 10
743.5854381069457
 20
403.617094873824
 30
0.0
 11
853.5854171830791
 21
403.6170948738244
 31
0.0
  0
LINE
  5
3C4
330
2
100
AcDbEntity
  8
0
100
AcDbLine
 10
743.5854381069457
 20
403.6170948738244
 30
0.0
 11
853.5854171830791
 21
403.6170948738244
 31
0.0
  0
DIMENSION
  5
3C5
330
2
100
AcDbEntity
  8
09-01
100
AcDbDimension
280
     0
  2
*D21
 10
913.2628810663446
 20
404.6170948738244
 30
0.0
 11
902.0128810663445
 21
555.6170948738247
 31
0.0
 71
     5
 42
302.0
 73
     0
 74
     0
 75
     0
  3
Wagner$0
100
AcDbAlignedDimension
 13
868.8854171830792
 23
706.6170948738244
 33
0.0
 14
863.5854171830793
 24
404.6170948738245
 34
0.0
 50
270.0
100
AcDbRotatedDimension
1001
ACAD
1000
DSTYLE
1002
{
1070
    40
1040
5.0
1070
   271
1070
     2
1070
   272
1070
     2
1002
}
  0
LINE
  5
3D2
330
2
100
AcDbEntity
  8
0
100
AcDbLine
 10
863.5854171830793
 20
994.119718255305
 30
0.0
 11
863.5854171830793
 21
404.6170948738245
 31
0.0
  0
DIMENSION
  5
3D3
330
2
100
AcDbEntity
  8
01-01
100
AcDbDimension
280
     0
  2
*D20
 10
673.1615908970452
 20
403.6170948738244
 30
0.0
 11
661.9115908970451
 21
927.6170948738247
 31
0.0
 71
     5
 42
1048.0
 73
     0
 74
     0
 75
     0
  3
Wagner$0
100
AcDbAlignedDimension
 13
743.5854381069457
 23
1451.617094873824
 33
0.0
 14
743.5854381069457
 24
403.6170948738244
 34
0.0
 50
270.0
100
AcDbRotatedDimension
1001
ACAD
1000
DSTYLE
1002
{
1070
    40
1040
5.0
1070
   271
1070
     2
1070
   272
1070
     2
1002
}
  0
DIMENSION
  5
3E0
330
2
100
AcDbEntity
  8
09-01
100
AcDbDimension
280
     0
  2
*D19
 10
949.4617767414862
 20
404.6170948738244
 30
0.0
 11
938.2117767414859
 21
699.3684065645648
 31
0.0
  1
<> Tür
 71
     5
 42
589.5026233814806
 73
     0
 74
     0
 75
     0
  3
Wagner$0
100
AcDbAlignedDimension
 13
868.5854171830792
 23
994.119718255305
 33
0.0
 14
858.5854171830792
 24
404.6170948738245
 34
0.0
 50
270.0
100
AcDbRotatedDimension
1001
ACAD
1000
DSTYLE
1002
{
1070
    40
1040
5.0
1070
   271
1070
     2
1070
   272
1070
     2
1002
}
  0
DIMENSION
  5
3ED
330
2
100
AcDbEntity
  8
01-01
100
AcDbDimension
280
     0
  2
*D18
 10
978.8291960155547
 20
403.6170948738244
 30
0.0
 11
967.5791960155546
 21
927.6170948738245
 31
0.0
 71
     5
 42
1048.0
 73
     0
 74
     0
 75
     0
  3
Wagner$0
100
AcDbAlignedDimension
 13
873.5854171830792
 23
1451.617094873824
 33
0.0
 14
853.5854171830791
 24
403.6170948738244
 34
0.0
 50
270.0
100
AcDbRotatedDimension
1001
ACAD
1000
DSTYLE
1002
{
1070
    40
1040
5.0
1070
   271
1070
     2
1070
   272
1070
     2
1002
}
  0
LINE
  5
3FA
330
2
100
AcDbEntity
  8
03-01
100
AcDbLine
 10
427.7484504407384
 20
1413.258186286926
 30
0.0
 11
473.7484504407384
 21
1413.258186286926
 31
0.0
  0
LINE
  5
3FB
330
2
100
AcDbEntity
  8
03-01
100
AcDbLine
 10
427.7484504407383
 20
1154.600025958621
 30
0.0
 11
427.7484504407384
 21
1413.258186286926
 31
0.0
  0
LINE
  5
3FC
330
2
100
AcDbEntity
  8
03-01
100
AcDbLine
 10
251.2484504407384
 20
1408.645012796238
 30
0.0
 11
251.2484504407384
 21
1413.258186286926
 31
0.0
  0
LINE
  5
3FD
330
2
100
AcDbEntity
  8
03-01
100
AcDbLine
 10
251.2484504407384
 20
1154.600025958621
 30
0.0
 11
251.2484504407384
 21
1408.645012796238
 31
0.0
  0
LINE
  5
3FE
330
2
100
AcDbEntity
  8
0
100
AcDbLine
 10
462.2347579106408
 20
1135.999503887044
 30
0.0
 11
462.2347579106408
 21
1134.59348248485
 31
0.0
  0
ARC
  5
3FF
330
2
100
AcDbEntity
  8
0
100
AcDbCircle
 10
459.1988302523441
 20
1134.160254357661
 30
0.0
 40
3.0
100
AcDbArc
 50
271.2101102925337
 51
0.0
  0
ARC
  5
400
330
2
100
AcDbEntity
  8
0
100
AcDbCircle
 10
459.1988302523441
 20
1135.131310085667
 30
0.0
 40
3.0
100
AcDbArc
 50
0.0
 51
88.67542789804808
  0
ARC
  5
401
330
2
100
AcDbEntity
  8
0
100
AcDbCircle
 10
459.2347579106408
 20
1135.999503887044
 30
0.0
 40
3.0
100
AcDbArc
 50
0.0
 51
85.86426537075979
  0
ARC
  5
402
330
2
100
AcDbEntity
  8
0
100
AcDbCircle
 10
339.7484504407385
 20
1239.617094873824
 30
0.0
 40
2.5
100
AcDbArc
 50
0.0
 51
180.0
  0
ARC
  5
403
330
2
100
AcDbEntity
  8
0
100
AcDbCircle
 10
339.7484504407385
 20
1188.617094873824
 30
0.0
 40
2.5
100
AcDbArc
 50
180.0
 51
0.0
  0
LINE
  5
404
330
2
100
AcDbEntity
  8
0
100
AcDbLine
 10
337.2484504407385
 20
1239.617094873824
 30
0.0
 11
337.2484504407385
 21
1188.617094873824
 31
0.0
  0
LINE
  5
405
330
2
100
AcDbEntity
  8
0
100
AcDbLine
 10
342.2484504407385
 20
1239.617094873824
 30
0.0
 11
342.2484504407385
 21
1188.617094873824
 31
0.0
  0
LINE
  5
406
330
2
100
AcDbEntity
  8
0
100
AcDbLine
 10
475.7484504407384
 20
1003.119718255305
 30
0.0
 11
475.7484504407385
 21
994.9197182553062
 31
0.0
  0
LINE
  5
407
330
2
100
AcDbEntity
  8
01-01
100
AcDbLine
 10
475.7484504407385
 20
1003.117094873824
 30
0.0
 11
475.7484504407385
 21
994.1009120743411
 31
0.0
  0
LINE
  5
408
330
2
100
AcDbEntity
  8
0
100
AcDbLine
 10
472.9484504407387
 20
1020.476707545967
 30
0.0
 11
472.9484504407391
 21
1153.80002595862
 31
0.0
  0
LINE
  5
409
330
2
100
AcDbEntity
  8
0
100
AcDbLine
 10
473.7484504407384
 20
1019.619718255305
 30
0.0
 11
473.7484504407384
 21
1154.600025958621
 31
0.0
  0
DIMENSION
  5
40A
330
2
100
AcDbEntity
  8
09-01
100
AcDbDimension
280
     0
  2
*D17
 10
556.6071646365558
 20
994.119718255305
 30
0.0
 11
541.6876380216172
 21
970.3334328962265
 31
0.0
 70
   128
  1
9
 71
     5
 42
9.0
 73
     0
 74
     0
 75
     0
  3
Wagner$0
100
AcDbAlignedDimension
 13
487.7484504407384
 23
1003.119718255305
 33
0.0
 14
487.7484504407384
 24
994.119718255305
 34
0.0
 50
270.0
100
AcDbRotatedDimension
1001
ACAD
1000
DSTYLE
1002
{
1070
    40
1040
5.0
1070
   271
1070
     2
1070
   272
1070
     2
1002
}
  0
LINE
  5
419
330
2
100
AcDbEntity
  8
0
100
AcDbLine
 10
488.7484504407384
 20
1451.617094873822
 30
0.0
 11
488.7484504407384
 21
403.6170948738219
 31
0.0
  0
LINE
  5
41A
330
2
100
AcDbEntity
  8
0
100
AcDbLine
 10
487.7484504407384
 20
1451.117094873822
 30
0.0
 11
487.7484504407384
 21
1003.119718255305
 31
0.0
  0
DIMENSION
  5
41B
330
2
100
AcDbEntity
  8
09-01
100
AcDbDimension
280
     0
  2
*D16
 10
556.6071646365558
 20
1451.617094873821
 30
0.0
 11
545.3571646365555
 21
1227.368406564563
 31
0.0
 71
     5
 42
448.4973766185166
 73
     0
 74
     0
 75
     0
  3
Wagner$0
100
AcDbAlignedDimension
 13
502.7484504407384
 23
1003.119718255305
 33
0.0
 14
488.7484504407384
 24
1451.617094873822
 34
0.0
 50
270.0
100
AcDbRotatedDimension
1001
ACAD
1000
DSTYLE
1002
{
1070
    40
1040
5.0
1070
   271
1070
     2
1070
   272
1070
     2
1002
}
  0
LINE
  5
428
330
2
100
AcDbEntity
  8
03-01
100
AcDbLine
 10
205.7484504407384
 20
1413.258186286926
 30
0.0
 11
206.5484504407386
 21
1413.258186286926
 31
0.0
  0
LINE
  5
429
330
2
100
AcDbEntity
  8
03-01
100
AcDbLine
 10
205.7484504407384
 20
1154.60002595862
 30
0.0
 11
205.7484504407384
 21
1413.258186286926
 31
0.0
  0
LINE
  5
42A
330
2
100
AcDbEntity
  8
03-01
100
AcDbLine
 10
206.5484504407386
 20
1154.600025958621
 30
0.0
 11
206.5484504407386
 21
1413.258186286926
 31
0.0
  0
LINE
  5
42B
330
2
100
AcDbEntity
  8
0
100
AcDbLine
 10
217.3988302523444
 20
1135.131310085667
 30
0.0
 11
217.3988302523444
 21
1134.057181618749
 31
0.0
  0
ARC
  5
42C
330
2
100
AcDbEntity
  8
0
100
AcDbCircle
 10
220.3988302523444
 20
1134.057181618749
 30
0.0
 40
3.0
100
AcDbArc
 50
180.0
 51
268.8393506165861
  0
LINE
  5
42D
330
2
100
AcDbEntity
  8
0
100
AcDbLine
 10
217.398830252344
 20
1136.5412156328
 30
0.0
 11
217.398830252344
 21
1135.043658276317
 31
0.0
  0
ARC
  5
42E
330
2
100
AcDbEntity
  8
0
100
AcDbCircle
 10
220.3988302523444
 20
1135.131310085667
 30
0.0
 40
3.0
100
AcDbArc
 50
91.32457210195189
 51
180.0
  0
LINE
  5
42F
330
2
100
AcDbEntity
  8
03-01
100
AcDbLine
 10
206.5484504407386
 20
1119.492626562498
 30
0.0
 11
207.3484504407388
 21
1119.492626562498
 31
0.0
  0
ARC
  5
430
330
2
100
AcDbEntity
  8
0
100
AcDbCircle
 10
220.3988302523439
 20
1136.5412156328
 30
0.0
 40
3.0
100
AcDbArc
 50
93.87582613200217
 51
179.999999999987
  0
LINE
  5
431
330
2
100
AcDbEntity
  8
0
100
AcDbLine
 10
203.766890802437
 20
1003.119718255305
 30
0.0
 11
203.766890802437
 21
994.9197182553062
 31
0.0
  0
LINE
  5
432
330
2
100
AcDbEntity
  8
01-01
100
AcDbLine
 10
203.7484504407384
 20
1003.117094873824
 30
0.0
 11
203.7484504407384
 21
994.1338277560408
 31
0.0
  0
DIMENSION
  5
433
330
2
100
AcDbEntity
  8
09-01
100
AcDbDimension
280
     0
  2
*D15
 10
158.3406089512468
 20
994.119718255305
 30
0.0
 11
147.0906089512467
 21
983.6197182553055
 31
0.0
 71
     5
 42
20.99999999999909
 73
     0
 74
     0
 75
     0
  3
Wagner$0
100
AcDbAlignedDimension
 13
200.7484504407385
 23
973.119718255306
 33
0.0
 14
191.766890802437
 24
994.119718255305
 34
0.0
 50
270.0
100
AcDbRotatedDimension
1001
ACAD
1000
DSTYLE
1002
{
1070
    40
1040
5.0
1070
   271
1070
     2
1070
   272
1070
     2
1002
}
  0
LINE
  5
442
330
2
100
AcDbEntity
  8
0
100
AcDbLine
 10
205.7484504407384
 20
1019.619718255305
 30
0.0
 11
205.7484504407384
 21
1154.600025958621
 31
0.0
  0
LINE
  5
443
330
2
100
AcDbEntity
  8
0
100
AcDbLine
 10
206.5484504407391
 20
1020.457556544782
 30
0.0
 11
206.5484504407386
 21
1153.80002595862
 31
0.0
  0
LINE
  5
444
330
2
100
AcDbEntity
  8
0
100
AcDbLine
 10
190.7484504407384
 20
1451.617094873822
 30
0.0
 11
190.7484504407384
 21
403.6170948738219
 31
0.0
  0
LINE
  5
445
330
2
100
AcDbEntity
  8
0
100
AcDbLine
 10
191.7484504407384
 20
1451.117094873822
 30
0.0
 11
191.7484504407384
 21
1003.119718255305
 31
0.0
  0
LINE
  5
446
330
2
100
AcDbEntity
  8
0
100
AcDbLine
 10
205.7484504407384
 20
973.119718255306
 30
0.0
 11
473.7484504407384
 21
973.119718255306
 31
0.0
  0
LINE
  5
447
330
2
100
AcDbEntity
  8
0
100
AcDbLine
 10
190.7484504407384
 20
1451.617094873822
 30
0.0
 11
488.7484504407384
 21
1451.617094873822
 31
0.0
  0
ARC
  5
448
330
2
100
AcDbEntity
  8
0
100
AcDbCircle
 10
335.9489822381461
 20
-569.0137453926062
 30
0.0
 40
1712.464700630674
100
AcDbArc
 50
85.86426537075979
 51
93.87582613200217
  0
LINE
  5
449
330
2
100
AcDbEntity
  8
0
100
AcDbLine
 10
205.7484504407384
 20
1019.619718255305
 30
0.0
 11
473.7484504407384
 21
1019.619718255305
 31
0.0
  0
LINE
  5
44A
330
2
100
AcDbEntity
  8
0
100
AcDbLine
 10
205.7484504407384
 20
1056.098053171648
 30
0.0
 11
472.9484504407387
 21
1056.098053171648
 31
0.0
  0
LINE
  5
44B
330
2
100
AcDbEntity
  8
0
100
AcDbLine
 10
206.5484504407386
 20
1118.815977326915
 30
0.0
 11
472.9484504407391
 21
1118.815977326915
 31
0.0
  0
ARC
  5
44C
330
2
100
AcDbEntity
  8
0
100
AcDbCircle
 10
337.3081559040734
 20
6904.529108945641
 30
0.0
 40
5774.656092881144
100
AcDbArc
 50
268.8393506165861
 51
271.2101102925859
  0
ARC
  5
44D
330
2
100
AcDbEntity
  8
0
100
AcDbCircle
 10
339.7988302523436
 20
-4028.722948012052
 30
0.0
 40
5168.234472787655
100
AcDbArc
 50
88.67542789804808
 51
91.32457210195189
  0
LINE
  5
44E
330
2
100
AcDbEntity
  8
0
100
AcDbLine
 10
191.7484504407384
 20
1003.119718255305
 30
0.0
 11
487.7484504407384
 21
1003.119718255305
 31
0.0
  0
LINE
  5
44F
330
2
100
AcDbEntity
  8
0
100
AcDbLine
 10
206.5484504407391
 20
1020.457556544782
 30
0.0
 11
473.7484504407388
 21
1020.476707545967
 31
0.0
  0
LINE
  5
450
330
2
100
AcDbEntity
  8
0
100
AcDbLine
 10
487.7484504407384
 20
994.119718255305
 30
0.0
 11
191.766890802437
 21
994.119718255305
 31
0.0
  0
LINE
  5
451
330
2
100
AcDbEntity
  8
0
100
AcDbLine
 10
205.7484504407384
 20
1154.600025958621
 30
0.0
 11
473.7484504407384
 21
1154.600025958621
 31
0.0
  0
LINE
  5
452
330
2
100
AcDbEntity
  8
0
100
AcDbLine
 10
206.5484504407386
 20
1153.80002595862
 30
0.0
 11
472.9484504407391
 21
1153.80002595862
 31
0.0
  0
LINE
  5
453
330
2
100
AcDbEntity
  8
03-01
100
AcDbLine
 10
206.5484504407386
 20
1413.258186286926
 30
0.0
 11
251.2484504407384
 21
1413.258186286926
 31
0.0
  0
LINE
  5
454
330
2
100
AcDbEntity
  8
0
100
AcDbLine
 10
191.7484504407384
 20
1451.117094873822
 30
0.0
 11
487.7484504407384
 21
1451.117094873822
 31
0.0
  0
LINE
  5
455
330
2
100
AcDbEntity
  8
05-01
100
AcDbLine
 10
455.5017436416797
 20
706.6170948738244
 30
0.0
 11
468.0017436416792
 21
706.6170948738244
 31
0.0
  0
LINE
  5
456
330
2
100
AcDbEntity
  8
0
100
AcDbLine
 10
487.7484504407384
 20
270.7766641091502
 30
0.0
 11
487.7484504407384
 21
280.7766641091502
 31
0.0
  0
LINE
  5
457
330
2
100
AcDbEntity
  8
0
100
AcDbLine
 10
488.7484504407384
 20
280.7766641091502
 30
0.0
 11
488.7484504407384
 21
390.7766641091503
 31
0.0
  0
LINE
  5
458
330
2
100
AcDbEntity
  8
0
100
AcDbLine
 10
191.7484504407384
 20
280.7766641091502
 30
0.0
 11
191.7484504407384
 21
270.7766641091502
 31
0.0
  0
LINE
  5
459
330
2
100
AcDbEntity
  8
0
100
AcDbLine
 10
190.7484504407384
 20
390.7766641091503
 30
0.0
 11
190.7484504407384
 21
280.7766641091503
 31
0.0
  0
LINE
  5
45A
330
2
100
AcDbEntity
  8
0
100
AcDbLine
 10
190.7484504407384
 20
403.6170948738219
 30
0.0
 11
488.7484504407384
 21
403.6170948738219
 31
0.0
  0
LINE
  5
45B
330
2
100
AcDbEntity
  8
01-01
100
AcDbLine
 10
190.7484504407384
 20
403.6170948738219
 30
0.0
 11
488.7484504407384
 21
403.6170948738219
 31
0.0
  0
LINE
  5
45C
330
2
100
AcDbEntity
  8
01-01
100
AcDbLine
 10
190.7484504407384
 20
403.6170948738219
 30
0.0
 11
488.7484504407384
 21
403.6170948738219
 31
0.0
  0
LINE
  5
45D
330
2
100
AcDbEntity
  8
0
100
AcDbLine
 10
205.7484504407384
 20
850.120130184197
 30
0.0
 11
473.7484504407384
 21
850.1201301841966
 31
0.0
  0
LINE
  5
45E
330
2
100
AcDbEntity
  8
0
100
AcDbLine
 10
488.7484504407384
 20
280.7766641091502
 30
0.0
 11
190.7484504407384
 21
280.7766641091503
 31
0.0
  0
LINE
  5
45F
330
2
100
AcDbEntity
  8
0
100
AcDbLine
 10
191.7484504407384
 20
270.7766641091502
 30
0.0
 11
487.7484504407384
 21
270.7766641091502
 31
0.0
  0
LINE
  5
460
330
2
100
AcDbEntity
  8
0
100
AcDbLine
 10
488.7484504407384
 20
390.7766641091503
 30
0.0
 11
190.7484504407384
 21
390.7766641091503
 31
0.0
  0
LINE
  5
461
330
2
100
AcDbEntity
  8
0
100
AcDbLine
 10
191.766890802437
 20
404.617094873822
 30
0.0
 11
487.7484504407384
 21
404.617094873822
 31
0.0
  0
LINE
  5
462
330
2
100
AcDbEntity
  8
0
100
AcDbLine
 10
473.7484504407384
 20
973.119718255306
 30
0.0
 11
473.7484504407384
 21
850.1201301841966
 31
0.0
  0
LINE
  5
463
330
2
100
AcDbEntity
  8
0
100
AcDbLine
 10
205.7484504407384
 20
973.119718255306
 30
0.0
 11
205.7484504407384
 21
850.120130184197
 31
0.0
  0
LINE
  5
464
330
2
100
AcDbEntity
  8
0
100
AcDbLine
 10
191.766890802437
 20
994.119718255305
 30
0.0
 11
191.766890802437
 21
404.617094873822
 31
0.0
  0
LINE
  5
465
330
2
100
AcDbEntity
  8
0
100
AcDbLine
 10
487.7484504407384
 20
994.119718255305
 30
0.0
 11
487.7484504407384
 21
404.617094873822
 31
0.0
  0
DIMENSION
  5
466
330
2
100
AcDbEntity
  8
09-01
100
AcDbDimension
280
     0
  2
*D14
 10
205.7484504407384
 20
906.8323769244344
 30
0.0
 11
339.7484504407385
 21
918.0823769244343
 31
0.0
 71
     5
 42
268.0
 73
     0
 74
     0
 75
     0
  3
Wagner$0
100
AcDbAlignedDimension
 13
473.7484504407384
 23
887.1201301841965
 33
0.0
 14
205.7484504407384
 24
887.1201301841971
 34
0.0
100
AcDbRotatedDimension
1001
ACAD
1000
DSTYLE
1002
{
1070
    40
1040
5.0
1070
   271
1070
     2
1070
   272
1070
     2
1002
}
  0
DIMENSION
  5
473
330
2
100
AcDbEntity
  8
09-01
100
AcDbDimension
280
     0
  2
*D13
 10
158.3406089512468
 20
850.120130184197
 30
0.0
 11
147.0906089512467
 21
911.6199242197515
 31
0.0
 71
     5
 42
122.999588071109
 73
     0
 74
     0
 75
     0
  3
Wagner$0
100
AcDbAlignedDimension
 13
205.7484504407384
 23
973.119718255306
 33
0.0
 14
205.7484504407384
 24
850.120130184197
 34
0.0
 50
270.0
100
AcDbRotatedDimension
1001
ACAD
1000
DSTYLE
1002
{
1070
    40
1040
5.0
1070
   271
1070
     2
1070
   272
1070
     2
1002
}
  0
DIMENSION
  5
480
330
2
100
AcDbEntity
  8
09-01
100
AcDbDimension
280
     0
  2
*D12
 10
488.7484504407384
 20
906.8323769244344
 30
0.0
 11
514.8088217149798
 21
917.5625594191515
 31
0.0
 70
   128
 71
     5
 42
15.0
 73
     0
 74
     0
 75
     0
  3
Wagner$0
100
AcDbAlignedDimension
 13
473.7484504407384
 23
887.1201301841965
 33
0.0
 14
488.7484504407384
 24
887.1201301841965
 34
0.0
100
AcDbRotatedDimension
1001
ACAD
1000
DSTYLE
1002
{
1070
    40
1040
5.0
1070
   271
1070
     2
1070
   272
1070
     2
1002
}
  0
DIMENSION
  5
48F
330
2
100
AcDbEntity
  8
09-01
100
AcDbDimension
280
     0
  2
*D11
 10
556.6071646365558
 20
403.6170948738219
 30
0.0
 11
545.3571646365556
 21
698.8754613149317
 31
0.0
  1
590.5
 71
     5
 42
590.5167328822192
 73
     0
 74
     0
 75
     0
  3
Wagner$0
100
AcDbAlignedDimension
 13
502.7484504407384
 23
994.1338277560411
 33
0.0
 14
488.7484504407384
 24
403.6170948738219
 34
0.0
 50
270.0
100
AcDbRotatedDimension
1001
ACAD
1000
DSTYLE
1002
{
1070
    40
1040
5.0
1070
   271
1070
     2
1070
   272
1070
     2
1002
}
  0
DIMENSION
  5
49C
330
2
100
AcDbEntity
  8
01-01
100
AcDbDimension
280
     0
  2
*D10
 10
586.3880400730258
 20
403.6170948738219
 30
0.0
 11
575.1380400730258
 21
927.617094873822
 31
0.0
 71
     5
 42
1047.999999999999
 73
     0
 74
     0
 75
     0
  3
Wagner$0
100
AcDbAlignedDimension
 13
493.7484504407384
 23
1451.617094873822
 33
0.0
 14
493.7484504407384
 24
403.6170948738219
 34
0.0
 50
270.0
100
AcDbRotatedDimension
1001
ACAD
1000
DSTYLE
1002
{
1070
    40
1040
5.0
1070
   271
1070
     2
1070
   272
1070
     2
1002
}
  0
ENDSEC
  0
SECTION
  2
OBJECTS
  0
DICTIONARY
  5
B
330
0
100
AcDbDictionary
281
     1
  3
ACAD_COLOR
350
4A
  3
ACAD_GROUP
350
37
  3
ACAD_LAYOUT
350
18
  3
ACAD_MATERIAL
350
D
  3
ACAD_MLEADERSTYLE
350
4D
  3
ACAD_MLINESTYLE
350
38
  3
ACAD_PLOTSETTINGS
350
39
  3
ACAD_PLOTSTYLENAME
350
A
  3
ACAD_SCALELIST
350
4B
  3
ACAD_TABLESTYLE
350
4C
  3
ACAD_VISUALSTYLE
350
2E
  3
ACDB_RECOMPOSE_DATA
350
4B5
  3
AcDbVariableDictionary
350
4AB
  0
DICTIONARY
  5
21
330
20
100
AcDbDictionary
280
     1
281
     1
  3
ACAD_LAYERSTATES
360
22
  0
DICTIONARY
  5
7
330
6
100
AcDbDictionary
280
     1
281
     1
  3
ADSK_XREC_LAYER_RECONCILED
360
8
  0
DICTIONARY
  5
189
330
188
100
AcDbDictionary
280
     1
281
     1
  3
ADSK_XREC_LAYER_RECONCILED
360
18A
  0
DICTIONARY
  5
173
330
172
100
AcDbDictionary
280
     1
281
     1
  3
ADSK_XREC_LAYER_RECONCILED
360
174
  0
DICTIONARY
  5
93
330
92
100
AcDbDictionary
280
     1
281
     1
  3
ADSK_XREC_LAYER_RECONCILED
360
94
  0
DICTIONARY
  5
99
330
98
100
AcDbDictionary
280
     1
281
     1
  3
ADSK_XREC_LAYER_RECONCILED
360
9A
  0
DICTIONARY
  5
4F
330
4E
100
AcDbDictionary
280
     1
281
     1
  3
ADSK_XREC_LAYER_RECONCILED
360
50
  0
DICTIONARY
  5
F1
330
F0
100
AcDbDictionary
280
     1
281
     1
  3
ADSK_XREC_LAYER_RECONCILED
360
F2
  0
DICTIONARY
  5
F7
330
F6
100
AcDbDictionary
280
     1
281
     1
  3
ADSK_XREC_LAYER_RECONCILED
360
F8
  0
DICTIONARY
  5
12F
330
12E
100
AcDbDictionary
280
     1
281
     1
  3
ADSK_XREC_LAYER_RECONCILED
360
130
  0
DICTIONARY
  5
119
330
118
100
AcDbDictionary
280
     1
281
     1
  3
ADSK_XREC_LAYER_RECONCILED
360
11A
  0
DICTIONARY
  5
3
330
2
100
AcDbDictionary
280
     1
281
     1
  3
ACAD_SORTENTS
360
4AA
  0
DICTIONARY
  5
EC
330
EB
100
AcDbDictionary
280
     1
281
     1
  3
ACAD_SORTENTS
360
4A9
  0
DICTIONARY
  5
4A
102
{ACAD_REACTORS
330
B
102
}
330
B
100
AcDbDictionary
281
     1
  0
DICTIONARY
  5
37
102
{ACAD_REACTORS
330
B
102
}
330
B
100
AcDbDictionary
281
     1
  0
DICTIONARY
  5
18
102
{ACAD_REACTORS
330
B
102
}
330
B
100
AcDbDictionary
281
     1
  3
Layout1
350
1F
  3
Model
350
17
  0
DICTIONARY
  5
D
102
{ACAD_REACTORS
330
B
102
}
330
B
100
AcDbDictionary
281
     1
  3
ByBlock
350
42
  3
ByLayer
350
3A
  3
Global
350
C
  0
DICTIONARY
  5
4D
102
{ACAD_REACTORS
330
B
102
}
330
B
100
AcDbDictionary
281
     1
  0
DICTIONARY
  5
38
102
{ACAD_REACTORS
330
B
102
}
330
B
100
AcDbDictionary
281
     1
  3
Standard
350
52
  0
DICTIONARY
  5
39
102
{ACAD_REACTORS
330
B
102
}
330
B
100
AcDbDictionary
281
     1
  0
ACDBDICTIONARYWDFLT
  5
A
102
{ACAD_REACTORS
330
B
102
}
330
B
100
AcDbDictionary
281
     1
  3
Normal
350
9
100
AcDbDictionaryWithDefault
340
9
  0
DICTIONARY
  5
4B
102
{ACAD_REACTORS
330
B
102
}
330
B
100
AcDbDictionary
281
     1
  3
A0
350
57
  3
A1
350
58
  3
A2
350
59
  3
A3
350
5A
  3
A4
350
5B
  3
A5
350
5C
  3
A6
350
5D
  3
A7
350
5E
  3
A8
350
5F
  3
A9
350
60
  3
B0
350
61
  3
B1
350
62
  3
B2
350
63
  3
B3
350
64
  3
B4
350
65
  3
B5
350
66
  3
B6
350
67
  3
B7
350
68
  3
B8
350
69
  3
B9
350
6A
  3
C0
350
6B
  3
C1
350
6C
  3
C2
350
6D
  3
C3
350
6E
  3
C4
350
6F
  3
C5
350
70
  3
C6
350
71
  3
C7
350
72
  3
C8
350
73
  3
C9
350
74
  3
D0
350
75
  3
D1
350
76
  3
D2
350
77
  0
DICTIONARY
  5
4C
102
{ACAD_REACTORS
330
B
102
}
330
B
100
AcDbDictionary
281
     1
  3
Standard
350
53
  0
DICTIONARY
  5
2E
102
{ACAD_REACTORS
330
B
102
}
330
B
100
AcDbDictionary
281
     1
  3
2dWireframe
350
2D
  3
3dWireframe
350
56
  3
Realistic
350
55
  0
XRECORD
  5
4B5
102
{ACAD_REACTORS
330
B
102
}
330
B
100
AcDbXrecord
280
     1
 90
        1
330
53
  0
DICTIONARY
  5
4AB
102
{ACAD_REACTORS
330
B
102
}
330
B
100
AcDbDictionary
281
     1
  3
CANNOSCALE
350
4AF
  3
CMLEADERSTYLE
350
4AD
  3
CTABLESTYLE
350
4AC
  3
LAYEREVAL
350
4B1
  3
LAYERNOTIFY
350
4B2
  3
LIGHTINGUNITS
350
4B0
  3
MSLTSCALE
350
4AE
  0
DICTIONARY
  5
22
102
{ACAD_REACTORS
330
21
102
}
330
21
100
AcDbDictionary
281
     1
  0
XRECORD
  5
8
102
{ACAD_REACTORS
330
7
102
}
330
7
100
AcDbXrecord
280
     1
290
     1
  0
XRECORD
  5
18A
102
{ACAD_REACTORS
330
189
102
}
330
189
100
AcDbXrecord
280
     1
290
     1
  0
XRECORD
  5
174
102
{ACAD_REACTORS
330
173
102
}
330
173
100
AcDbXrecord
280
     1
290
     1
  0
XRECORD
  5
94
102
{ACAD_REACTORS
330
93
102
}
330
93
100
AcDbXrecord
280
     1
290
     1
  0
XRECORD
  5
9A
102
{ACAD_REACTORS
330
99
102
}
330
99
100
AcDbXrecord
280
     1
290
     1
  0
XRECORD
  5
50
102
{ACAD_REACTORS
330
4F
102
}
330
4F
100
AcDbXrecord
280
     1
290
     1
  0
XRECORD
  5
F2
102
{ACAD_REACTORS
330
F1
102
}
330
F1
100
AcDbXrecord
280
     1
290
     1
  0
XRECORD
  5
F8
102
{ACAD_REACTORS
330
F7
102
}
330
F7
100
AcDbXrecord
280
     1
290
     1
  0
XRECORD
  5
130
102
{ACAD_REACTORS
330
12F
102
}
330
12F
100
AcDbXrecord
280
     1
290
     1
  0
XRECORD
  5
11A
102
{ACAD_REACTORS
330
119
102
}
330
119
100
AcDbXrecord
280
     1
290
     1
  0
SORTENTSTABLE
  5
4AA
102
{ACAD_REACTORS
330
3
102
}
330
3
100
AcDbSortentsTable
330
2
331
B7
  5
433
331
B3
  5
445
331
21C
  5
32A
331
257
  5
2EF
331
AF
  5
449
331
1DD
  5
38B
331
473
  5
89
331
218
  5
32E
331
EA
  5
39C
331
253
  5
2F3
331
AB
  5
44D
331
214
  5
332
331
296
  5
2B0
331
210
  5
336
331
292
  5
2B4
331
30C
  5
23A
331
347
  5
1FF
331
28E
  5
2B8
331
2CD
  5
279
331
308
  5
23E
331
2C9
  5
27D
331
304
  5
242
331
343
  5
203
331
28A
  5
2BC
331
300
  5
246
331
385
  5
1E3
331
3FF
  5
D1
331
381
  5
1E7
331
3FB
  5
D5
331
3BC
  5
E4
331
432
  5
B8
331
A7
  5
451
331
E6
  5
3A0
331
24F
  5
2F7
331
A3
  5
455
331
E2
  5
3BE
331
20C
  5
33A
331
24B
  5
2FB
331
18E
  5
392
331
9F
  5
459
331
DE
  5
3C2
331
463
  5
8D
331
208
  5
33E
331
247
  5
2FF
331
DA
  5
3D2
331
243
  5
303
331
45F
  5
91
331
204
  5
342
331
200
  5
346
331
286
  5
2C0
331
2C5
  5
281
331
45B
  5
9D
331
33F
  5
207
331
282
  5
2C4
331
2C1
  5
285
331
2FC
  5
24A
331
33B
  5
20B
331
337
  5
20F
331
27E
  5
2C8
331
2BD
  5
289
331
2F8
  5
24E
331
2B9
  5
28D
331
2F4
  5
252
331
333
  5
213
331
27A
  5
2CC
331
2F0
  5
256
331
42E
  5
BC
331
42A
  5
C0
331
D6
  5
3FA
331
97
  5
45D
331
23F
  5
307
331
186
  5
397
331
D2
  5
3FE
331
1FC
  5
34A
331
23B
  5
30B
331
457
  5
A1
331
8F
  5
461
331
CE
  5
402
331
453
  5
A5
331
1F8
  5
34E
331
237
  5
30F
331
CA
  5
406
331
233
  5
313
331
8B
  5
465
331
44F
  5
A9
331
1F4
  5
352
331
1F0
  5
356
331
2B5
  5
291
331
44B
  5
AD
331
32F
  5
217
331
276
  5
2D0
331
272
  5
2D4
331
2B1
  5
295
331
2EC
  5
25A
331
32B
  5
21B
331
327
  5
21F
331
26E
  5
2D8
331
2AD
  5
299
331
2E8
  5
25E
331
2E4
  5
262
331
323
  5
223
331
26A
  5
2DC
331
2A9
  5
29D
331
2E0
  5
266
331
41A
  5
C4
331
3A0
  5
E6
331
39C
  5
EA
331
398
  5
185
331
3D3
  5
D9
331
359
  5
1ED
331
C6
  5
40A
331
176
  5
399
331
22F
  5
317
331
87
  5
48F
331
1B5
  5
38F
331
C2
  5
428
331
1EC
  5
35A
331
22B
  5
31B
331
447
  5
B1
331
BE
  5
42C
331
1E8
  5
374
331
227
  5
31F
331
443
  5
B5
331
223
  5
323
331
1E4
  5
384
331
BA
  5
430
331
1E0
  5
388
331
2A5
  5
2A1
331
31F
  5
227
331
266
  5
2E0
331
262
  5
2E4
331
2A1
  5
2A5
331
2DC
  5
26A
331
31B
  5
22B
331
317
  5
22F
331
25E
  5
2E8
331
29D
  5
2A9
331
2D8
  5
26E
331
2D4
  5
272
331
313
  5
233
331
25A
  5
2EC
331
299
  5
2AD
331
2D0
  5
276
331
355
  5
1F1
331
394
  5
18C
331
40A
  5
C6
331
351
  5
1F5
331
390
  5
1A8
331
406
  5
CA
331
34D
  5
1F9
331
38C
  5
1DC
331
388
  5
1E0
331
3C3
  5
DD
331
402
  5
CE
331
349
  5
1FD
331
B6
  5
442
331
21F
  5
327
331
B2
  5
446
331
21B
  5
32B
331
256
  5
2F0
331
AE
  5
44A
331
1DC
  5
38C
331
217
  5
32F
331
E9
  5
39D
331
213
  5
333
331
252
  5
2F4
331
AA
  5
44E
331
295
  5
2B1
331
30F
  5
237
331
291
  5
2B5
331
30B
  5
23B
331
307
  5
23F
331
346
  5
200
331
28D
  5
2B9
331
2CC
  5
27A
331
2C8
  5
27E
331
303
  5
243
331
342
  5
204
331
289
  5
2BD
331
384
  5
1E4
331
3FE
  5
D2
331
3FA
  5
D6
331
3BF
  5
E1
331
431
  5
B9
331
A6
  5
452
331
E5
  5
3AF
331
20F
  5
337
331
24E
  5
2F8
331
A2
  5
456
331
E1
  5
3BF
331
20B
  5
33B
331
24A
  5
2FC
331
466
  5
8A
331
18D
  5
393
331
246
  5
300
331
9E
  5
45A
331
462
  5
8E
331
207
  5
33F
331
DD
  5
3C3
331
D9
  5
3D3
331
242
  5
304
331
45E
  5
96
331
203
  5
343
331
285
  5
2C1
331
2C4
  5
282
331
45A
  5
9E
331
2FF
  5
247
331
33E
  5
208
331
33A
  5
20C
331
281
  5
2C5
331
2C0
  5
286
331
2FB
  5
24B
331
336
  5
210
331
27D
  5
2C9
331
2BC
  5
28A
331
2F7
  5
24F
331
2B8
  5
28E
331
2F3
  5
253
331
332
  5
214
331
279
  5
2CD
331
42D
  5
BD
331
374
  5
1E8
331
429
  5
C1
331
3AF
  5
E5
331
368
  5
1E9
331
D5
  5
3FB
331
96
  5
45E
331
1FF
  5
347
331
23E
  5
308
331
185
  5
398
331
D1
  5
3FF
331
1FB
  5
34B
331
23A
  5
30C
331
456
  5
A2
331
8E
  5
462
331
CD
  5
403
331
452
  5
A6
331
1F7
  5
34F
331
236
  5
310
331
C9
  5
407
331
232
  5
314
331
8A
  5
466
331
44E
  5
AA
331
1F3
  5
353
331
275
  5
2D1
331
2B4
  5
292
331
44A
  5
AE
331
2EF
  5
257
331
32E
  5
218
331
271
  5
2D5
331
2B0
  5
296
331
2EB
  5
25B
331
32A
  5
21C
331
326
  5
220
331
26D
  5
2D9
331
2AC
  5
29A
331
2E7
  5
25F
331
2A8
  5
29E
331
2E3
  5
263
331
322
  5
224
331
269
  5
2DD
331
419
  5
C5
331
39F
  5
E7
331
39B
  5
171
331
35C
  5
1EA
331
3D2
  5
DA
331
358
  5
1EE
331
C5
  5
419
331
1EF
  5
357
331
22E
  5
318
331
175
  5
39A
331
C1
  5
429
331
1EB
  5
35B
331
22A
  5
31C
331
446
  5
B2
331
171
  5
39B
331
BD
  5
42D
331
442
  5
B6
331
1E7
  5
381
331
226
  5
320
331
B9
  5
431
331
222
  5
324
331
1A8
  5
390
331
1E3
  5
385
331
2A4
  5
2A2
331
2DF
  5
267
331
31E
  5
228
331
265
  5
2E1
331
261
  5
2E5
331
2A0
  5
2A6
331
2DB
  5
26B
331
31A
  5
22C
331
316
  5
230
331
25D
  5
2E9
331
29C
  5
2AA
331
2D7
  5
26F
331
2D3
  5
273
331
312
  5
234
331
259
  5
2ED
331
298
  5
2AE
331
397
  5
186
331
354
  5
1F2
331
393
  5
18D
331
409
  5
C7
331
350
  5
1F6
331
38F
  5
1B5
331
405
  5
CB
331
34C
  5
1FA
331
38B
  5
1DD
331
3C2
  5
DE
331
401
  5
CF
331
348
  5
1FE
331
B5
  5
443
331
21E
  5
328
331
B1
  5
447
331
1DF
  5
389
331
21A
  5
32C
331
255
  5
2F1
331
AD
  5
44B
331
216
  5
330
331
E8
  5
39E
331
212
  5
334
331
251
  5
2F5
331
A9
  5
44F
331
294
  5
2B2
331
30E
  5
238
331
290
  5
2B6
331
2CF
  5
277
331
30A
  5
23C
331
306
  5
240
331
345
  5
201
331
28C
  5
2BA
331
2CB
  5
27B
331
302
  5
244
331
341
  5
205
331
288
  5
2BE
331
387
  5
1E1
331
383
  5
1E5
331
3FD
  5
D3
331
3BE
  5
E2
331
430
  5
BA
331
A5
  5
453
331
E4
  5
3BC
331
20E
  5
338
331
24D
  5
2F9
331
1CF
  5
38D
331
A1
  5
457
331
E0
  5
3C0
331
20A
  5
33C
331
249
  5
2FD
331
465
  5
8B
331
18C
  5
394
331
245
  5
301
331
9D
  5
45B
331
461
  5
8F
331
206
  5
340
331
DC
  5
3C4
331
D8
  5
3E0
331
202
  5
344
331
241
  5
305
331
2C7
  5
27F
331
45D
  5
97
331
49C
  5
78
331
284
  5
2C2
331
2C3
  5
283
331
459
  5
9F
331
2FE
  5
248
331
33D
  5
209
331
339
  5
20D
331
280
  5
2C6
331
2BF
  5
287
331
2FA
  5
24C
331
2F6
  5
250
331
335
  5
211
331
27C
  5
2CA
331
2BB
  5
28B
331
2F2
  5
254
331
331
  5
215
331
278
  5
2CE
331
42C
  5
BE
331
3ED
  5
D7
331
428
  5
C2
331
D4
  5
3FC
331
1FE
  5
348
331
23D
  5
309
331
91
  5
45F
331
D0
  5
400
331
1FA
  5
34C
331
239
  5
30D
331
455
  5
A3
331
235
  5
311
331
8D
  5
463
331
451
  5
A7
331
1F6
  5
350
331
CC
  5
404
331
C8
  5
408
331
231
  5
315
331
89
  5
473
331
2B7
  5
28F
331
44D
  5
AB
331
1F2
  5
354
331
274
  5
2D2
331
2B3
  5
293
331
449
  5
AF
331
2EE
  5
258
331
32D
  5
219
331
329
  5
21D
331
270
  5
2D6
331
2AF
  5
297
331
2EA
  5
25C
331
325
  5
221
331
26C
  5
2DA
331
2AB
  5
29B
331
2E6
  5
260
331
2E2
  5
264
331
321
  5
225
331
268
  5
2DE
331
39E
  5
E8
331
39A
  5
175
331
35B
  5
1EB
331
C4
  5
41A
331
1EE
  5
358
331
22D
  5
319
331
C0
  5
42A
331
1EA
  5
35C
331
229
  5
31D
331
445
  5
B3
331
BC
  5
42E
331
480
  5
88
331
1E6
  5
382
331
225
  5
321
331
B8
  5
432
331
221
  5
325
331
2A7
  5
29F
331
1E2
  5
386
331
264
  5
2E2
331
2DE
  5
268
331
31D
  5
229
331
260
  5
2E6
331
29F
  5
2A7
331
2DA
  5
26C
331
319
  5
22D
331
315
  5
231
331
25C
  5
2EA
331
29B
  5
2AB
331
2D6
  5
270
331
2D2
  5
274
331
311
  5
235
331
258
  5
2EE
331
357
  5
1EF
331
396
  5
187
331
353
  5
1F3
331
392
  5
18E
331
408
  5
C8
331
34F
  5
1F7
331
38E
  5
1C2
331
38A
  5
1DE
331
3C5
  5
DB
331
404
  5
CC
331
34B
  5
1FB
331
3C1
  5
DF
331
400
  5
D0
331
B4
  5
444
331
21D
  5
329
331
B0
  5
448
331
1DE
  5
38A
331
219
  5
32D
331
19B
  5
391
331
254
  5
2F2
331
AC
  5
44C
331
215
  5
331
331
A8
  5
450
331
297
  5
2AF
331
211
  5
335
331
250
  5
2F6
331
293
  5
2B3
331
30D
  5
239
331
28F
  5
2B7
331
2CE
  5
278
331
309
  5
23D
331
2CA
  5
27C
331
305
  5
241
331
344
  5
202
331
28B
  5
2BB
331
301
  5
245
331
340
  5
206
331
386
  5
1E2
331
382
  5
1E6
331
3FC
  5
D4
331
3BD
  5
E3
331
433
  5
B7
331
E7
  5
39F
331
A4
  5
454
331
E3
  5
3BD
331
20D
  5
339
331
24C
  5
2FA
331
A0
  5
458
331
DF
  5
3C1
331
464
  5
8C
331
209
  5
33D
331
248
  5
2FE
331
DB
  5
3C5
331
18B
  5
395
331
244
  5
302
331
9C
  5
45C
331
460
  5
90
331
205
  5
341
331
201
  5
345
331
240
  5
306
331
2C6
  5
280
331
45C
  5
9C
331
287
  5
2BF
331
283
  5
2C3
331
2C2
  5
284
331
458
  5
A0
331
2FD
  5
249
331
33C
  5
20A
331
338
  5
20E
331
27F
  5
2C7
331
2BE
  5
288
331
2F9
  5
24D
331
2F5
  5
251
331
334
  5
212
331
27B
  5
2CB
331
2BA
  5
28C
331
2F1
  5
255
331
330
  5
216
331
42F
  5
BB
331
42B
  5
BF
331
3E0
  5
D8
331
D7
  5
3ED
331
187
  5
396
331
1C2
  5
38E
331
D3
  5
3FD
331
1FD
  5
349
331
23C
  5
30A
331
90
  5
460
331
CF
  5
401
331
1F9
  5
34D
331
238
  5
30E
331
454
  5
A4
331
234
  5
312
331
8C
  5
464
331
450
  5
A8
331
48F
  5
87
331
1F5
  5
351
331
CB
  5
405
331
1F1
  5
355
331
230
  5
316
331
2B6
  5
290
331
44C
  5
AC
331
277
  5
2CF
331
88
  5
480
331
273
  5
2D3
331
2B2
  5
294
331
448
  5
B0
331
2ED
  5
259
331
32C
  5
21A
331
328
  5
21E
331
26F
  5
2D7
331
2AE
  5
298
331
2E9
  5
25D
331
2E5
  5
261
331
324
  5
222
331
26B
  5
2DB
331
2AA
  5
29C
331
2E1
  5
265
331
320
  5
226
331
41B
  5
C3
331
39D
  5
E9
331
399
  5
176
331
35A
  5
1EC
331
C7
  5
409
331
C3
  5
41B
331
1ED
  5
359
331
22C
  5
31A
331
BF
  5
42B
331
1E9
  5
368
331
228
  5
31E
331
444
  5
B4
331
224
  5
322
331
1E5
  5
383
331
BB
  5
42F
331
220
  5
326
331
78
  5
49C
331
2A6
  5
2A0
331
267
  5
2DF
331
1E1
  5
387
331
263
  5
2E3
331
2A2
  5
2A4
331
2DD
  5
269
331
31C
  5
22A
331
318
  5
22E
331
25F
  5
2E7
331
29E
  5
2A8
331
2D9
  5
26D
331
314
  5
232
331
25B
  5
2EB
331
29A
  5
2AC
331
2D5
  5
271
331
2D1
  5
275
331
310
  5
236
331
356
  5
1F0
331
395
  5
18B
331
352
  5
1F4
331
391
  5
19B
331
407
  5
C9
331
34E
  5
1F8
331
38D
  5
1CF
331
389
  5
1DF
331
3C4
  5
DC
331
403
  5
CD
331
34A
  5
1FC
331
3C0
  5
E0
  0
SORTENTSTABLE
  5
4A9
102
{ACAD_REACTORS
330
EC
102
}
330
EC
100
AcDbSortentsTable
330
EB
  0
LAYOUT
  5
1F
102
{ACAD_REACTORS
330
18
102
}
330
18
100
AcDbPlotSettings
  1

  2
HP LaserJet 4 Plus
  4

  6

 40
0.0
 41
0.0
 42
0.0
 43
0.0
 44
0.0
 45
0.0
 46
0.0
 47
0.0
 48
0.0
 49
0.0
140
0.0
141
0.0
142
1.0
143
1.0
 70
   688
 72
     0
 73
     0
 74
     5
  7
CNC-Soft.ctb
 75
    16
147
1.0
 76
     0
 77
     2
 78
   300
148
0.0
149
0.0
100
AcDbLayout
  1
Layout1
 70
     0
 71
     1
 10
0.0
 20
0.0
 11
12.0
 21
9.0
 12
0.0
 22
0.0
 32
0.0
 14
1.000000000000000E+20
 24
1.000000000000000E+20
 34
1.000000000000000E+20
 15
-1.000000000000000E+20
 25
-1.000000000000000E+20
 35
-1.000000000000000E+20
146
0.0
 13
0.0
 23
0.0
 33
0.0
 16
1.0
 26
0.0
 36
0.0
 17
0.0
 27
1.0
 37
0.0
 76
     0
330
1C
  0
LAYOUT
  5
17
102
{ACAD_XDICTIONARY
360
19
102
}
102
{ACAD_REACTORS
330
18
102
}
330
18
100
AcDbPlotSettings
  1

  2
none_device
  4
Letter_(8.50_x_11.00_Inches)
  6

 40
6.349999904632568
 41
6.349999904632568
 42
6.350006103515625
 43
6.350006103515625
 44
215.8999938964844
 45
279.3999938964844
 46
0.0
 47
0.0
 48
0.0
 49
0.0
140
0.0
141
0.0
142
1.0
143
282.5666906722309
 70
 11952
 72
     0
 73
     1
 74
     0
  7
CNC-Soft.ctb
 75
     0
147
0.0035389875488189
 76
     0
 77
     2
 78
   300
148
22407.16408879421
149
-37091.89184084279
100
AcDbLayout
  1
Model
 70
     1
 71
     0
 10
0.0
 20
0.0
 11
12.0
 21
9.0
 12
0.0
 22
0.0
 32
0.0
 14
0.0
 24
0.0
 34
0.0
 15
0.0
 25
0.0
 35
0.0
146
0.0
 13
0.0
 23
0.0
 33
0.0
 16
1.0
 26
0.0
 36
0.0
 17
0.0
 27
1.0
 37
0.0
 76
     0
330
2
331
2C
1001
ACAD_PSEXT
1000
Kein
1000
Kein
1000
Nicht anwendbar
1000
Das Layout wird erst geplottet, wenn ein neuer Plotter-Konfigurationsname ausgewählt wird.
1070
     0
  0
MATERIAL
  5
42
102
{ACAD_XDICTIONARY
360
43
102
}
102
{ACAD_REACTORS
330
D
102
}
330
D
100
AcDbMaterial
  1
ByBlock
 72
     0
 43
0.0208333333333333
 43
0.0
 43
0.0
 43
0.0
 43
0.0
 43
0.0208333333333333
 43
0.0
 43
0.0
 43
0.0
 43
0.0
 43
1.0
 43
0.0
 43
0.0
 43
0.0
 43
0.0
 43
1.0
 77
     0
 47
0.0208333333333333
 47
0.0
 47
0.0
 47
0.0
 47
0.0
 47
0.0208333333333333
 47
0.0
 47
0.0
 47
0.0
 47
0.0
 47
1.0
 47
0.0
 47
0.0
 47
0.0
 47
0.0
 47
1.0
171
     0
 49
0.0208333333333333
 49
0.0
 49
0.0
 49
0.0
 49
0.0
 49
0.0208333333333333
 49
0.0
 49
0.0
 49
0.0
 49
0.0
 49
1.0
 49
0.0
 49
0.0
 49
0.0
 49
0.0
 49
1.0
175
     0
142
0.0208333333333333
142
0.0
142
0.0
142
0.0
142
0.0
142
0.0208333333333333
142
0.0
142
0.0
142
0.0
142
0.0
142
1.0
142
0.0
142
0.0
142
0.0
142
0.0
142
1.0
179
     0
144
0.0208333333333333
144
0.0
144
0.0
144
0.0
144
0.0
144
0.0208333333333333
144
0.0
144
0.0
144
0.0
144
0.0
144
1.0
144
0.0
144
0.0
144
0.0
144
0.0
144
1.0
147
0.0208333333333333
147
0.0
147
0.0
147
0.0
147
0.0
147
0.0208333333333333
147
0.0
147
0.0
147
0.0
147
0.0
147
1.0
147
0.0
147
0.0
147
0.0
147
0.0
147
1.0
  0
MATERIAL
  5
3A
102
{ACAD_XDICTIONARY
360
3B
102
}
102
{ACAD_REACTORS
330
D
102
}
330
D
100
AcDbMaterial
  1
ByLayer
 72
     0
 43
0.0208333333333333
 43
0.0
 43
0.0
 43
0.0
 43
0.0
 43
0.0208333333333333
 43
0.0
 43
0.0
 43
0.0
 43
0.0
 43
1.0
 43
0.0
 43
0.0
 43
0.0
 43
0.0
 43
1.0
 77
     0
 47
0.0208333333333333
 47
0.0
 47
0.0
 47
0.0
 47
0.0
 47
0.0208333333333333
 47
0.0
 47
0.0
 47
0.0
 47
0.0
 47
1.0
 47
0.0
 47
0.0
 47
0.0
 47
0.0
 47
1.0
171
     0
 49
0.0208333333333333
 49
0.0
 49
0.0
 49
0.0
 49
0.0
 49
0.0208333333333333
 49
0.0
 49
0.0
 49
0.0
 49
0.0
 49
1.0
 49
0.0
 49
0.0
 49
0.0
 49
0.0
 49
1.0
175
     0
142
0.0208333333333333
142
0.0
142
0.0
142
0.0
142
0.0
142
0.0208333333333333
142
0.0
142
0.0
142
0.0
142
0.0
142
1.0
142
0.0
142
0.0
142
0.0
142
0.0
142
1.0
179
     0
144
0.0208333333333333
144
0.0
144
0.0
144
0.0
144
0.0
144
0.0208333333333333
144
0.0
144
0.0
144
0.0
144
0.0
144
1.0
144
0.0
144
0.0
144
0.0
144
0.0
144
1.0
147
0.0208333333333333
147
0.0
147
0.0
147
0.0
147
0.0
147
0.0208333333333333
147
0.0
147
0.0
147
0.0
147
0.0
147
1.0
147
0.0
147
0.0
147
0.0
147
0.0
147
1.0
  0
MATERIAL
  5
C
102
{ACAD_XDICTIONARY
360
E
102
}
102
{ACAD_REACTORS
330
D
102
}
330
D
100
AcDbMaterial
  1
Global
 72
     0
 43
0.0208333333333333
 43
0.0
 43
0.0
 43
0.0
 43
0.0
 43
0.0208333333333333
 43
0.0
 43
0.0
 43
0.0
 43
0.0
 43
1.0
 43
0.0
 43
0.0
 43
0.0
 43
0.0
 43
1.0
 77
     0
 47
0.0208333333333333
 47
0.0
 47
0.0
 47
0.0
 47
0.0
 47
0.0208333333333333
 47
0.0
 47
0.0
 47
0.0
 47
0.0
 47
1.0
 47
0.0
 47
0.0
 47
0.0
 47
0.0
 47
1.0
171
     0
 49
0.0208333333333333
 49
0.0
 49
0.0
 49
0.0
 49
0.0
 49
0.0208333333333333
 49
0.0
 49
0.0
 49
0.0
 49
0.0
 49
1.0
 49
0.0
 49
0.0
 49
0.0
 49
0.0
 49
1.0
175
     0
142
0.0208333333333333
142
0.0
142
0.0
142
0.0
142
0.0
142
0.0208333333333333
142
0.0
142
0.0
142
0.0
142
0.0
142
1.0
142
0.0
142
0.0
142
0.0
142
0.0
142
1.0
179
     0
144
0.0208333333333333
144
0.0
144
0.0
144
0.0
144
0.0
144
0.0208333333333333
144
0.0
144
0.0
144
0.0
144
0.0
144
1.0
144
0.0
144
0.0
144
0.0
144
0.0
144
1.0
147
0.0208333333333333
147
0.0
147
0.0
147
0.0
147
0.0
147
0.0208333333333333
147
0.0
147
0.0
147
0.0
147
0.0
147
1.0
147
0.0
147
0.0
147
0.0
147
0.0
147
1.0
  0
MLINESTYLE
  5
52
102
{ACAD_REACTORS
330
38
102
}
330
38
100
AcDbMlineStyle
  2
STANDARD
 70
     0
  3

 62
   256
 51
90.0
 52
90.0
 71
     2
 49
0.5
 62
   256
  6
BYLAYER
 49
-0.5
 62
   256
  6
BYLAYER
  0
ACDBPLACEHOLDER
  5
9
102
{ACAD_REACTORS
330
A
102
}
330
A
  0
SCALE
  5
57
102
{ACAD_REACTORS
330
4B
102
}
330
4B
100
AcDbScale
 70
     0
300
1:1
140
1.0
141
1.0
290
     1
  0
SCALE
  5
58
102
{ACAD_REACTORS
330
4B
102
}
330
4B
100
AcDbScale
 70
     0
300
1:2
140
1.0
141
2.0
290
     0
  0
SCALE
  5
59
102
{ACAD_REACTORS
330
4B
102
}
330
4B
100
AcDbScale
 70
     0
300
1:4
140
1.0
141
4.0
290
     0
  0
SCALE
  5
5A
102
{ACAD_REACTORS
330
4B
102
}
330
4B
100
AcDbScale
 70
     0
300
1:5
140
1.0
141
5.0
290
     0
  0
SCALE
  5
5B
102
{ACAD_REACTORS
330
4B
102
}
330
4B
100
AcDbScale
 70
     0
300
1:8
140
1.0
141
8.0
290
     0
  0
SCALE
  5
5C
102
{ACAD_REACTORS
330
4B
102
}
330
4B
100
AcDbScale
 70
     0
300
1:10
140
1.0
141
10.0
290
     0
  0
SCALE
  5
5D
102
{ACAD_REACTORS
330
4B
102
}
330
4B
100
AcDbScale
 70
     0
300
1:16
140
1.0
141
16.0
290
     0
  0
SCALE
  5
5E
102
{ACAD_REACTORS
330
4B
102
}
330
4B
100
AcDbScale
 70
     0
300
1:20
140
1.0
141
20.0
290
     0
  0
SCALE
  5
5F
102
{ACAD_REACTORS
330
4B
102
}
330
4B
100
AcDbScale
 70
     0
300
1:30
140
1.0
141
30.0
290
     0
  0
SCALE
  5
60
102
{ACAD_REACTORS
330
4B
102
}
330
4B
100
AcDbScale
 70
     0
300
1:40
140
1.0
141
40.0
290
     0
  0
SCALE
  5
61
102
{ACAD_REACTORS
330
4B
102
}
330
4B
100
AcDbScale
 70
     0
300
1:50
140
1.0
141
50.0
290
     0
  0
SCALE
  5
62
102
{ACAD_REACTORS
330
4B
102
}
330
4B
100
AcDbScale
 70
     0
300
1:100
140
1.0
141
100.0
290
     0
  0
SCALE
  5
63
102
{ACAD_REACTORS
330
4B
102
}
330
4B
100
AcDbScale
 70
     0
300
2:1
140
2.0
141
1.0
290
     0
  0
SCALE
  5
64
102
{ACAD_REACTORS
330
4B
102
}
330
4B
100
AcDbScale
 70
     0
300
4:1
140
4.0
141
1.0
290
     0
  0
SCALE
  5
65
102
{ACAD_REACTORS
330
4B
102
}
330
4B
100
AcDbScale
 70
     0
300
8:1
140
8.0
141
1.0
290
     0
  0
SCALE
  5
66
102
{ACAD_REACTORS
330
4B
102
}
330
4B
100
AcDbScale
 70
     0
300
10:1
140
10.0
141
1.0
290
     0
  0
SCALE
  5
67
102
{ACAD_REACTORS
330
4B
102
}
330
4B
100
AcDbScale
 70
     0
300
100:1
140
100.0
141
1.0
290
     0
  0
SCALE
  5
68
102
{ACAD_REACTORS
330
4B
102
}
330
4B
100
AcDbScale
 70
     0
300
1/128" = 1'-0"
140
0.0078125
141
12.0
290
     0
  0
SCALE
  5
69
102
{ACAD_REACTORS
330
4B
102
}
330
4B
100
AcDbScale
 70
     0
300
1/64" = 1'-0"
140
0.015625
141
12.0
290
     0
  0
SCALE
  5
6A
102
{ACAD_REACTORS
330
4B
102
}
330
4B
100
AcDbScale
 70
     0
300
1/32" = 1'-0"
140
0.03125
141
12.0
290
     0
  0
SCALE
  5
6B
102
{ACAD_REACTORS
330
4B
102
}
330
4B
100
AcDbScale
 70
     0
300
1/16" = 1'-0"
140
0.0625
141
12.0
290
     0
  0
SCALE
  5
6C
102
{ACAD_REACTORS
330
4B
102
}
330
4B
100
AcDbScale
 70
     0
300
3/32" = 1'-0"
140
0.09375
141
12.0
290
     0
  0
SCALE
  5
6D
102
{ACAD_REACTORS
330
4B
102
}
330
4B
100
AcDbScale
 70
     0
300
1/8" = 1'-0"
140
0.125
141
12.0
290
     0
  0
SCALE
  5
6E
102
{ACAD_REACTORS
330
4B
102
}
330
4B
100
AcDbScale
 70
     0
300
3/16" = 1'-0"
140
0.1875
141
12.0
290
     0
  0
SCALE
  5
6F
102
{ACAD_REACTORS
330
4B
102
}
330
4B
100
AcDbScale
 70
     0
300
1/4" = 1'-0"
140
0.25
141
12.0
290
     0
  0
SCALE
  5
70
102
{ACAD_REACTORS
330
4B
102
}
330
4B
100
AcDbScale
 70
     0
300
3/8" = 1'-0"
140
0.375
141
12.0
290
     0
  0
SCALE
  5
71
102
{ACAD_REACTORS
330
4B
102
}
330
4B
100
AcDbScale
 70
     0
300
1/2" = 1'-0"
140
0.5
141
12.0
290
     0
  0
SCALE
  5
72
102
{ACAD_REACTORS
330
4B
102
}
330
4B
100
AcDbScale
 70
     0
300
3/4" = 1'-0"
140
0.75
141
12.0
290
     0
  0
SCALE
  5
73
102
{ACAD_REACTORS
330
4B
102
}
330
4B
100
AcDbScale
 70
     0
300
1" = 1'-0"
140
1.0
141
12.0
290
     0
  0
SCALE
  5
74
102
{ACAD_REACTORS
330
4B
102
}
330
4B
100
AcDbScale
 70
     0
300
1-1/2" = 1'-0"
140
1.5
141
12.0
290
     0
  0
SCALE
  5
75
102
{ACAD_REACTORS
330
4B
102
}
330
4B
100
AcDbScale
 70
     0
300
3" = 1'-0"
140
3.0
141
12.0
290
     0
  0
SCALE
  5
76
102
{ACAD_REACTORS
330
4B
102
}
330
4B
100
AcDbScale
 70
     0
300
6" = 1'-0"
140
6.0
141
12.0
290
     0
  0
SCALE
  5
77
102
{ACAD_REACTORS
330
4B
102
}
330
4B
100
AcDbScale
 70
     0
300
1'-0" = 1'-0"
140
12.0
141
12.0
290
     0
  0
TABLESTYLE
  5
53
102
{ACAD_XDICTIONARY
360
54
102
}
102
{ACAD_REACTORS
330
4C
102
}
330
4C
100
AcDbTableStyle
280
     0
  3
Standard
 70
     0
 71
     0
 40
0.06
 41
0.06
280
     0
281
     0
  7
STANDARD
140
0.18
170
     2
 62
     0
 63
     7
283
     0
 90
      512
 91
        0
  1

274
    -2
284
     1
 64
     0
275
    -2
285
     1
 65
     0
276
    -2
286
     1
 66
     0
277
    -2
287
     1
 67
     0
278
    -2
288
     1
 68
     0
279
    -2
289
     1
 69
     0
  7
STANDARD
140
0.25
170
     5
 62
     0
 63
     7
283
     0
 90
      512
 91
        0
  1

274
    -2
284
     1
 64
     0
275
    -2
285
     1
 65
     0
276
    -2
286
     1
 66
     0
277
    -2
287
     1
 67
     0
278
    -2
288
     1
 68
     0
279
    -2
289
     1
 69
     0
  7
STANDARD
140
0.18
170
     5
 62
     0
 63
     7
283
     0
 90
      512
 91
        0
  1

274
    -2
284
     1
 64
     0
275
    -2
285
     1
 65
     0
276
    -2
286
     1
 66
     0
277
    -2
287
     1
 67
     0
278
    -2
288
     1
 68
     0
279
    -2
289
     1
 69
     0
  0
VISUALSTYLE
  5
2D
102
{ACAD_REACTORS
330
2E
102
}
330
2E
100
AcDbVisualStyle
  2
2dWireframe
 70
     4
177
     2
291
     0
 71
     0
176
     1
 72
     2
176
     1
 73
     0
176
     1
 90
        0
176
     1
 40
0.6
176
     1
 41
30.0
176
     1
 63
     7
421
 16777215
176
     1
 74
     1
176
     1
 91
        4
176
     1
 64
     7
176
     1
 65
   257
176
     1
 75
     1
176
     1
175
     1
176
     1
 42
1.0
176
     1
 92
        0
176
     1
 66
   257
176
     1
 43
1.0
176
     1
 76
     1
176
     1
 77
     6
176
     1
 78
     2
176
     1
 67
     7
176
     1
 79
     5
176
     1
170
     0
176
     1
171
     0
176
     1
290
     0
176
     1
 93
        1
176
     1
 44
0.0
176
     1
173
     0
176
     1
  0
VISUALSTYLE
  5
56
102
{ACAD_REACTORS
330
2E
102
}
330
2E
100
AcDbVisualStyle
  2
3dWireframe
 70
     5
177
     2
291
     0
 71
     0
176
     1
 72
     2
176
     1
 73
     0
176
     1
 90
        0
176
     1
 40
0.6
176
     1
 41
30.0
176
     1
 63
     7
421
 16777215
176
     1
 74
     1
176
     1
 91
        4
176
     1
 64
     7
176
     1
 65
   257
176
     1
 75
     1
176
     1
175
     1
176
     1
 42
1.0
176
     1
 92
        0
176
     1
 66
   257
176
     1
 43
1.0
176
     1
 76
     1
176
     1
 77
     6
176
     1
 78
     2
176
     1
 67
     7
176
     1
 79
     5
176
     1
170
     0
176
     1
171
     0
176
     1
290
     0
176
     1
 93
        1
176
     1
 44
0.0
176
     1
173
     0
176
     1
  0
VISUALSTYLE
  5
55
102
{ACAD_REACTORS
330
2E
102
}
330
2E
100
AcDbVisualStyle
  2
Realistic
 70
     8
177
     2
291
     0
 71
     2
176
     1
 72
     2
176
     1
 73
     0
176
     1
 90
        0
176
     1
 40
0.6
176
     1
 41
30.0
176
     1
 63
     7
421
 16777215
176
     1
 74
     1
176
     1
 91
        0
176
     1
 64
     7
176
     1
 65
   257
176
     1
 75
     1
176
     1
175
     1
176
     1
 42
1.0
176
     1
 92
        8
176
     1
 66
     8
424
  7895160
176
     1
 43
1.0
176
     1
 76
     1
176
     1
 77
     6
176
     1
 78
     2
176
     1
 67
     7
176
     1
 79
     5
176
     1
170
     0
176
     1
171
     0
176
     1
290
     0
176
     1
 93
       13
176
     1
 44
0.0
176
     1
173
     0
176
     1
  0
DICTIONARYVAR
  5
4AF
102
{ACAD_REACTORS
330
4AB
102
}
330
4AB
100
DictionaryVariables
280
     0
  1
1:1
  0
DICTIONARYVAR
  5
4AD
102
{ACAD_REACTORS
330
4AB
102
}
330
4AB
100
DictionaryVariables
280
     0
  1
STANDARD
  0
DICTIONARYVAR
  5
4AC
102
{ACAD_REACTORS
330
4AB
102
}
330
4AB
100
DictionaryVariables
280
     0
  1
STANDARD
  0
DICTIONARYVAR
  5
4B1
102
{ACAD_REACTORS
330
4AB
102
}
330
4AB
100
DictionaryVariables
280
     0
  1
1
  0
DICTIONARYVAR
  5
4B2
102
{ACAD_REACTORS
330
4AB
102
}
330
4AB
100
DictionaryVariables
280
     0
  1
15
  0
DICTIONARYVAR
  5
4B0
102
{ACAD_REACTORS
330
4AB
102
}
330
4AB
100
DictionaryVariables
280
     0
  1
0
  0
DICTIONARYVAR
  5
4AE
102
{ACAD_REACTORS
330
4AB
102
}
330
4AB
100
DictionaryVariables
280
     0
  1
0
  0
DICTIONARY
  5
19
330
17
100
AcDbDictionary
280
     1
281
     1
  3
ADSK_XREC_LAYOUTTHUMBNAIL
360
1A
  0
DICTIONARY
  5
43
330
42
100
AcDbDictionary
280
     1
281
     1
  3
BUMPTILE
360
44
  3
DIFFUSETILE
360
45
  3
OPACITYTILE
360
46
  3
REFLECTIONTILE
360
47
  3
REFRACTIONTILE
360
48
  3
SPECULARTILE
360
49
  0
DICTIONARY
  5
3B
330
3A
100
AcDbDictionary
280
     1
281
     1
  3
BUMPTILE
360
3C
  3
DIFFUSETILE
360
3D
  3
OPACITYTILE
360
3E
  3
REFLECTIONTILE
360
3F
  3
REFRACTIONTILE
360
40
  3
SPECULARTILE
360
41
  0
DICTIONARY
  5
E
330
C
100
AcDbDictionary
280
     1
281
     1
  3
BUMPTILE
360
F
  3
DIFFUSETILE
360
10
  3
OPACITYTILE
360
11
  3
REFLECTIONTILE
360
12
  3
REFRACTIONTILE
360
13
  3
SPECULARTILE
360
14
  0
DICTIONARY
  5
54
330
53
100
AcDbDictionary
280
     1
281
     1
  3
ACAD_ROUNDTRIP_2008_TABLESTYLE_CELLSTYLEMAP
360
4B3
  0
XRECORD
  5
1A
102
{ACAD_REACTORS
330
19
102
}
330
19
100
AcDbXrecord
280
     1
310
280000000001000084000000010008000000000000840000000000000000000000010000000000000000000000000000FFFFFF000000000000000000000000000000000000000000000000000000000000000000330000006600000099000000CC000000FF00000000330000333300006633000099330000CC330000FF3300
310
0000660000336600006666000099660000CC660000FF66000000990000339900006699000099990000CC990000FF99000000CC000033CC000066CC000099CC0000CCCC0000FFCC000000FF000033FF000066FF000099FF0000CCFF0000FFFF000000003300330033006600330099003300CC003300FF003300003333003333
310
33006633330099333300CC333300FF33330000663300336633006666330099663300CC663300FF66330000993300339933006699330099993300CC993300FF99330000CC330033CC330066CC330099CC3300CCCC3300FFCC330000FF330033FF330066FF330099FF3300CCFF3300FFFF330000006600330066006600660099
310
006600CC006600FF00660000336600333366006633660099336600CC336600FF33660000666600336666006666660099666600CC666600FF66660000996600339966006699660099996600CC996600FF99660000CC660033CC660066CC660099CC6600CCCC6600FFCC660000FF660033FF660066FF660099FF6600CCFF6600
310
FFFF660000009900330099006600990099009900CC009900FF00990000339900333399006633990099339900CC339900FF33990000669900336699006666990099669900CC669900FF66990000999900339999006699990099999900CC999900FF99990000CC990033CC990066CC990099CC9900CCCC9900FFCC990000FF99
310
0033FF990066FF990099FF9900CCFF9900FFFF99000000CC003300CC006600CC009900CC00CC00CC00FF00CC000033CC003333CC006633CC009933CC00CC33CC00FF33CC000066CC003366CC006666CC009966CC00CC66CC00FF66CC000099CC003399CC006699CC009999CC00CC99CC00FF99CC0000CCCC0033CCCC0066CC
310
CC0099CCCC00CCCCCC00FFCCCC0000FFCC0033FFCC0066FFCC0099FFCC00CCFFCC00FFFFCC000000FF003300FF006600FF009900FF00CC00FF00FF00FF000033FF003333FF006633FF009933FF00CC33FF00FF33FF000066FF003366FF006666FF009966FF00CC66FF00FF66FF000099FF003399FF006699FF009999FF00CC
310
99FF00FF99FF0000CCFF0033CCFF0066CCFF0099CCFF00CCCCFF00FFCCFF0000FFFF0033FFFF0066FFFF0099FFFF00CCFFFF00FFFFFF00000000000D0D0D001A1A1A00282828003535350043434300505050005D5D5D006B6B6B00787878008686860093939300A1A1A100AEAEAE00BBBBBB00C9C9C900D6D6D600E4E4E400
310
F1F1F100FFFFFF0000000000000000000000000000000000000000000000000000000000000000000000000000000000E2E2E2E2E2E2E2E2E2E2E2E2E2E2E2E2E2E2E2E2E2E2E2E2E2E2E2E2E2E2E2E2E2E2E2E2E2E2E2E2E2E2E2E2E2E2E2E2E2E2E2E2E2E2E2E2E2E2E2E2E2E2E2E2E2E2E2E2E2E2E2E2E2E2E2E2E2E2E2
310
E2E2BEBEBEBEBEBEBEBEBEBEBEBEBEBEBEBEBEBEBEBEBEBEBEBEBEBEBEBEBEBEBEBEBEBEBEBEBEBEBEBEBEBEBEBEBEBEBEBEBEBEBEBEBEBEBEBEBEBEBEBEBEBEBEBEBEBEBEBEBEBEBEBEBEBEBEBEBEBEBEBEBEBEBEBEBEBEBEBEBEBEBEBEBEBEE2E2E2E2E2E2E2E2E2E2E2E2E2E2E2E2E2E2E2E2E2E2E2E2E2E2E2E2E2E2E2
310
E2E2E2E2E2E2E2E2E2E2E2E2E2E2E2E2E2E2E2E2E2E2E2E2E2E2E2E2E2E2E2E2E2E2E2E2E2E2E2E2E2E2E2E2E2E2E2E2E2E2E2E2E2E2E2E2E2E2E2E2E2E2E2E2E2E2E2E2E2E2E2E2E2E2E2E2E2E2E2E2E2E2E2E2E2E2E2E2E2E2E2E2E2E2E2E2E2E2E2E2E2E2E2E2E2E2E2E2E2E2E2E2E2E2E2E2E2E2E2E2E2E2E2E2E2E2E2
310
E2E2E2E2BEE2E2E2E2E2E2E2E2E2E2E2E2E2E2E2E2E2E2E2E2E2E2E2E2E2E2E2E2E2E2E2E2E2E2E2E2E2E2E2E2E2E2E2E2E2E2E2E2E2E2E2E2E2E2E2E2E2E2E2E2E2E2E2E2E2E2E2E2E2E2E2E2E2E2E2E2E2E2E2E2E2E2E2E2E2E2E2E2E2E2E2E2BEE2E2E2E2E2E2E2E2E2E2E2E2E2E2E2E2E2E2E2E2E2E2E2E2E2E2E2E2E2
310
E2E2E2E2E2E2E2E2E2E2E2E2E2E2E2E2E2E2E2E2E2E2E2E2E2E2E2E2E2E2E2E2E2E2E2E2E2E2E2E2E2E2E2E2E2E2E2E2E2E2E2E2E2E2E2E2E2E2E2E2E2E2E2E2E2E2E2E2E2E2E2E2E2E2E2E2E2E2E2E2E2E2E2E2E2E2E2E2E2E2E2E2E2E2E2E2E2E2E2E2E2E2E2E2E2E2E2E2E2E2E2E2E2E2E2E2E2E2E2E2E2E2E2E2E2E2E2
310
E2E2E2E2E2E2BEE2E2E2E2E2E2E2E2E2E2E2E2E2E2E2E2E2E2E2E2E2E2E2E2E2E2E2E2E2E2E2E2E2E2E2E2E2E2E2E2E2E2E2E2E2E2E2E2E2E2E2E2E2E2E2E2E2E2E2E2E2E2E2E2E2E2E2E2E2E2E2E2E2E2E2E2E2E2E2E2E2E2E2E2E2E2E2E2E2E2E2E2BEE2E2E2E2E2E2E2E2E2E2E2E2E2E2E2E2E2E2E2E2E2E2E2E2E2E2E2
310
E2E2E2E2E2E2E2E2E2E2E2E2E2E2E2E2E2E2E2E2E2E2E2E2E2E2E2E2E2E2E2E2E2E2E2E2E2E2E2E2E2E2E2E2E2E2E2E2E2E2E2E2E2E2E2E2E2E2E2E2E2E2E2E2E2E2E2E2E2E2E2E2E2E2E2E2E2E2E2E2E2E2E2E2E2E2E2E2E2E2E2E2E2E2E2E2E2E2E2E2E2E2E2E2E2E2E2E2E2E2E2E2E2E2E2E2E2E2E2E2E2E2E2E2E2E2E2
310
E2E2E2E2E2E2E2E2BEE2E2E2E2E2E2E2E2DCDCDCDCDCDCDCDCDCDCDCDCDCDCDCDCDCDCDCDCDCDCDCDCDCDCDCDCDCDCDCDCDCDCDCDCDCDCDCDCDCDCDCDCDCDCDCDCDCDCDCDCDCDCDCDCDCDCDCDCDCDCDCDCDCDCDCDCDCDCDCDCDCDCDCDCDCDCDCDCDCDCE2E2BEE2E2E2E2E2E2E2E2E2E2E2E2E2E2E2E2E2E2E2E2E2E2E2E2E2
310
E2E2E2E2E2E2E2E2E2E2E2E2E2E2E2E2E2E2E2E2E2E2E2E2E2E2E2E2E2E2E2E2E2E2E2E2E2E2E2E2E2E2E2E2E2E2E2E2E2E2E2E2E2E2E2E2E2E2E2E2E2E2E2E2E2E2E2E2E2E2E2E2E2E2E2E2E2E2E2E2E2E2E2E2E2E2E2E2E2E2E2E2E2E2E2E2E2E2E2E2E2E2E2E2E2E2E2E2E2E2E2E2E2E2E2E2E2E2E2E2E2E2E2E2E2E2E2
310
E2E2E2E2E2E2E2E2E2E2BEE2E2E2E2E2E2E2E2DCF5F5F5F5F5E2E2E2E2E2DCF5F5F5F5F5F5E2E2E2E2DCE2E2E2E2E2E2BEBEBEBEBEBEBEBEBEBEE2E2E2DCE2E2E2E2E2E2E2E2E2E2E2E2DCE2E2E2E2E2E2E2E2E2E2E2E2E2DCBEBEBEBEBEBEBEBEE2E2E2DCE2E2BEE2E2E2E2E2E2E2E2E2E2E2E2E2E2E2E2E2E2E2E2E2E2E2
310
E2E2E2E2E2E2E2E2E2E2E2E2E2E2E2E2E2E2E2E2E2E2E2E2E2E2E2E2E2E2E2E2E2E2E2E2E2E2E2E2E2E2E2E2E2E2E2E2E2E2E2E2E2E2E2E2E2E2E2E2E2E2E2E2E2E2E2E2E2E2E2E2E2E2E2E2E2E2E2E2E2E2E2E2E2E2E2E2E2E2E2E2E2E2E2E2E2E2E2E2E2E2E2E2E2E2E2E2E2E2E2E2E2E2E2E2E2E2E2E2E2E2E2E2E2E2E2
310
E2E2E2E2E2E2E2E2E2E2E2E2BEE2E2E2E2E2E2E2E2DCF5F5F5F5F5DCDCDCDCDCDCF5F5F5F5F5F5DCDCDCDCDCE2E2E2E2E2E2BEBEBEBEBEBEBEBEBEBEE2E2E2DCE2E2E2E2E2E2E2E2E2E2E2E2DCE2E2E2E2E2E2E2E2E2E2E2E2E2DCBEBEBEBEBEBEBEBEE2E2E2DCE2E2BEE2E2E2E2E2E2E2E2E2E2E2E2E2E2E2E2E2E2E2E2E2
310
E2E2E2E2E2E2E2E2E2E2E2E2E2E2E2E2E2E2E2E2E2E2E2E2E2E2E2E2E2E2E2E2E2E2E2E2E2E2E2E2E2E2E2E2E2E2E2E2E2E2E2E2E2E2E2E2E2E2E2E2E2E2E2E2E2E2E2E2E2E2E2E2E2E2E2E2E2E2E2E2E2E2E2E2E2E2E2E2E2E2E2E2E2E2E2E2E2E2E2E2E2E2E2E2E2E2E2E2E2E2E2E2E2E2E2E2E2E2E2E2E2E2E2E2E2E2E2
310
E2E2E2E2E2E2E2E2E2E2E2E2E2E2BEE2E2E2E2E2E2E2E2DCE2E2E2DCE2E2E2E2E2E2E2DCE2E2E2E2E2DCE2E2E2DCE2E2BEBEBEBEBEBEBEBEBEBEBEBEBEBEE2E2E2DCF5F5F5F5F5F5F5F5E2E2E2E2DCF5F5E2F5F5F5F5F5F5F5F5E2E2DCF5F5F5F5F5F5F5F5F5E2E2DCE2E2BEE2E2E2E2E2E2E2E2E2E2E2E2E2E2E2E2E2E2E2
310
E2E2E2E2E2E2E2E2E2E2E2E2E2E2E2E2E2E2E2E2E2E2E2E2E2E2E2E2E2E2E2E2E2E2E2E2E2E2E2E2E2E2E2E2E2E2E2E2E2E2E2E2E2E2E2E2E2E2E2E2E2E2E2E2E2E2E2E2E2E2E2E2E2E2E2E2E2E2E2E2E2E2E2E2E2E2E2E2E2E2E2E2E2E2E2E2E2E2E2E2E2E2E2E2E2E2E2E2E2E2E2E2E2E2E2E2E2E2E2E2E2E2E2E2E2E2E2
310
E2E2E2E2E2E2E2E2E2E2E2E2E2E2E2E2BEE2E2E2E2E2E2E2E2DCE2E2E2DCE2E2E2E2E2E2E2DCE2E2E2E2E2DCE2E2E2DCE2E2E2E2E2E2E2E2BEBEBEBEBEBEBEBEE2E2E2DCF5F5F5F5F5E2F5F5E2E2E2E2DCF5F5F5F5F5F5F5F5F5F5F5E2E2DCF5F5F5F5F5E2F5F5F5E2E2DCE2E2BEE2E2E2E2E2E2E2E2E2E2E2E2E2E2E2E2E2
310
E2E2E2E2E2E2E2E2E2E2E2E2E2E2E2E2E2E2E2E2E2E2E2E2E2E2E2E2E2E2E2E2E2E2E2E2E2E2E2E2E2E2E2E2E2E2E2E2E2E2E2E2E2E2E2E2E2E2E2E2E2E2E2E2E2E2E2E2E2E2E2E2E2E2E2E2E2E2E2E2E2E2E2E2E2E2E2E2E2E2E2E2E2E2E2E2E2E2E2E2E2E2E2E2E2E2E2E2E2E2E2E2E2E2E2E2E2E2E2E2E2E2E2E2E2E2E2
310
E2E2E2E2E2E2E2E2E2E2E2E2E2E2E2E2E2E2BEE2E2E2E2E2E2E2E2DCDCDCDCDCDCDCDCDCDCDCDCDCDCDCDCDCDCDCDCDCDCDCE2E2E2E2E2BEBEBEBEBEBEBEBEBEBEBEE2E2E2DCDCDCDCDCDCDCDCDCDCDCDCDCDCDCDCDCDCDCDCDCDCDCDCDCDCDCDCDCDCDCDCDCDCDCDCDCDCDCDCE2E2BEE2E2E2E2E2E2E2E2E2E2E2E2E2E2E2
310
E2E2E2E2E2E2E2E2E2E2E2E2E2E2E2E2E2E2E2E2E2E2E2E2E2E2E2E2E2E2E2E2E2E2E2E2E2E2E2E2E2E2E2E2E2E2E2E2E2E2E2E2E2E2E2E2E2E2E2E2E2E2E2E2E2E2E2E2E2E2E2E2E2E2E2E2E2E2E2E2E2E2E2E2E2E2E2E2E2E2E2E2E2E2E2E2E2E2E2E2E2E2E2E2E2E2E2E2E2E2E2E2E2E2E2E2E2E2E2E2E2E2E2E2E2E2E2
310
E2E2E2E2E2E2E2E2E2E2E2E2E2E2E2E2E2E2E2E2BEE2E2E2E2E2E2E2E2DCE2E2E2DCE2E2E2E2E2E2E2DCE2E2E2E2E2DCE2E2E2DCE2E2E2E2BEBEBEBEBEBEBEBEBEBEBEBEE2E2E2DCE2E2E2E2E2E2E2E2E2E2E2E2E2E2E2E2E2E2E2E2E2E2E2E2E2E2E2E2E2E2E2E2E2E2E2E2E2E2DCE2E2BEE2E2E2E2E2E2E2E2E2E2E2E2E2
310
E2E2E2E2E2E2E2E2E2E2E2E2E2E2E2E2E2E2E2E2E2E2E2E2E2E2E2E2E2E2E2E2E2E2E2E2E2E2E2E2E2E2E2E2E2E2E2E2E2E2E2E2E2E2E2E2E2E2E2E2E2E2E2E2E2E2E2E2E2E2E2E2E2E2E2E2E2E2E2E2E2E2E2E2E2E2E2E2E2E2E2E2E2E2E2E2E2E2E2E2E2E2E2E2E2E2E2E2E2E2E2E2E2E2E2E2E2E2E2E2E2E2E2E2E2E2E2
310
E2E2E2E2E2E2E2E2E2E2E2E2E2E2E2E2E2E2E2E2E2E2BEE2E2E2E2E2E2E2E2DCDCDCDCDCDCDCDCDCDCDCDCDCDCDCDCDCDCDCDCDCDCDCDCDCDCDCDCDCDCDCDCDCDCDCDCDCDCDCDCDCDCDCE2E2E2E2E2E2E2E2E2E2E2E2E2E2E2E2E2E2E2E2E2E2E2E2E2E2E2E2E2E2E2E2E2E2E2E2E2E2DCE2E2BEE2E2E2E2E2E2E2E2E2E2E2
310
E2E2E2E2E2E2E2E2E2E2E2E2E2E2E2E2E2E2E2E2E2E2E2E2E2E2E2E2E2E2E2E2E2E2E2E2E2E2E2E2E2E2E2E2E2E2E2E2E2E2E2E2E2E2E2E2E2E2E2E2E2E2E2E2E2E2E2E2E2E2E2E2E2E2E2E2E2E2E2E2E2E2E2E2E2E2E2E2E2E2E2E2E2E2E2E2E2E2E2E2E2E2E2E2E2E2E2E2E2E2E2E2E2E2E2E2E2E2E2E2E2E2E2E2E2E2E2
310
E2E2E2E2E2E2E2E2E2E2E2E2E2E2E2E2E2E2E2E2E2E2E2E2BEE2E2E2E2E2E2E2E2DCE2E2E2DCE2E2E2E2E2E2E2DCE2E2E2E2E2DCE2E2E2F5F5F5F5DCE2E2E2E2E2DCE2E2E2E2E2E2E2E2E2DCE2E2E2E2E2E2E2E2E2E2E2E2E2E2E2E2E2E2E2E2E2E2E2E2E2E2E2E2E2E2E2E2E2E2E2E2E2E2DCE2E2BEE2E2E2E2E2E2E2E2E2
310
E2E2E2E2E2E2E2E2E2E2E2E2E2E2E2E2E2E2E2E2E2E2E2E2E2E2E2E2E2E2E2E2E2E2E2E2E2E2E2E2E2E2E2E2E2E2E2E2E2E2E2E2E2E2E2E2E2E2E2E2E2E2E2E2E2E2E2E2E2E2E2E2E2E2E2E2E2E2E2E2E2E2E2E2E2E2E2E2E2E2E2E2E2E2E2E2E2E2E2E2E2E2E2E2E2E2E2E2E2E2E2E2E2E2E2E2E2E2E2E2E2E2E2E2E2E2E2
310
E2E2E2E2E2E2E2E2E2E2E2E2E2E2E2E2E2E2E2E2E2E2E2E2E2E2BEE2E2E2E2E2E2E2E2DCDCDCDCDCDCDCDCDCDCDCDCDCDCDCDCDCDCDCDCDCDCDCDCDCDCDCDCDCDCDCDCDCDCDCBEBEDCDCDCDCDCDCBEBEBEBEBEBEBEBEBEBEBEBEBEBEBEE2BEBEE2E2E2BEBEBEBEBEE2E2E2E2E2E2E2E2E2E2E2E2DCE2E2BEE2E2E2E2E2E2E2
310
E2E2E2E2E2E2E2E2E2E2E2E2E2E2E2E2E2E2E2E2E2E2E2E2E2E2E2E2E2E2E2E2E2E2E2E2E2E2E2E2E2E2E2E2E2E2E2E2E2E2E2E2E2E2E2E2E2E2E2E2E2E2E2E2E2E2E2E2E2E2E2E2E2E2E2E2E2E2E2E2E2E2E2E2E2E2E2E2E2E2E2E2E2E2E2E2E2E2E2E2E2E2E2E2E2E2E2E2E2E2E2E2E2E2E2E2E2E2E2E2E2E2E2E2E2E2E2
310
E2E2E2E2E2E2E2E2E2E2E2E2E2E2E2E2E2E2E2E2E2E2E2E2E2E2E2E2BEE2E2E2E2E2E2E2E2DCE2E2E2DCE2E2E2E2E2E2E2DCE2E2E2E2E2DCE2E2E2DCF5F5F5BEBEBEBEBEBEBEBEBEBEBEBEBEE2E2E2DCBEBEBEBEBEBEBEBEBEBEBEBEBEBEBEE2BEBEBEBEE2BEBEBEBEBEE2E2E2E2E2E2E2E2E2E2E2E2DCE2E2BEE2E2E2E2E2
310
E2E2E2E2E2E2E2E2E2E2E2E2E2E2E2E2E2E2E2E2E2E2E2E2E2E2E2E2E2E2E2E2E2E2E2E2E2E2E2E2E2E2E2E2E2E2E2E2E2E2E2E2E2E2E2E2E2E2E2E2E2E2E2E2E2E2E2E2E2E2E2E2E2E2E2E2E2E2E2E2E2E2E2E2E2E2E2E2E2E2E2E2E2E2E2E2E2E2E2E2E2E2E2E2E2E2E2E2E2E2E2E2E2E2E2E2E2E2E2E2E2E2E2E2E2E2E2
310
E2E2E2E2E2E2E2E2E2E2E2E2E2E2E2E2E2E2E2E2E2E2E2E2E2E2E2E2E2E2BEE2E2E2E2E2E2E2E2DCDCDCDCDCDCDCDCDCDCDCDCDCDCDCDCDCDCDCDCDCDCDCDCDCDCBEBEBEBEBEBEBEBEBEDCDCDCDCDCDCDCDCBEBEE2E2E2BEBEE2F5E2BEBEE2E2E2E2BEBEBEE2E2BEE2BEBEE2E2E2E2E2E2E2E2E2E2E2E2E2DCE2E2BEE2E2E2
310
E2E2E2E2E2E2E2E2E2E2E2E2E2E2E2E2E2E2E2E2E2E2E2E2E2E2E2E2E2E2E2E2E2E2E2E2E2E2E2E2E2E2E2E2E2E2E2E2E2E2E2E2E2E2E2E2E2E2E2E2E2E2E2E2E2E2E2E2E2E2E2E2E2E2E2E2E2E2E2E2E2E2E2E2E2E2E2E2E2E2E2E2E2E2E2E2E2E2E2E2E2E2E2E2E2E2E2E2E2E2E2E2E2E2E2E2E2E2E2E2E2E2E2E2E2E2E2
310
E2E2E2E2E2E2E2E2E2E2E2E2E2E2E2E2E2E2E2E2E2E2E2E2E2E2E2E2E2E2E2E2BEE2E2E2E2E2E2E2E2DCF5F5F5F5F5F5F5F5F5E2E2DCF5F5F5F5F5F5F5F5F5F5DCDCDCF5F5F5F5F5F5F5F5F5F5F5F5E2E2E2E2DCF5F5F5F5F5F5F5F5F5F5F5F5F5F5E2E2E2E2E2E2E2E2E2E2E2E2E2E2E2E2E2E2E2E2E2E2E2E2DCE2E2BEE2
310
E2E2E2E2E2E2E2E2E2E2E2E2E2E2E2E2E2E2E2E2E2E2E2E2E2E2E2E2E2E2E2E2E2E2E2E2E2E2E2E2E2E2E2E2E2E2E2E2E2E2E2E2E2E2E2E2E2E2E2E2E2E2E2E2E2E2E2E2E2E2E2E2E2E2E2E2E2E2E2E2E2E2E2E2E2E2E2E2E2E2E2E2E2E2E2E2E2E2E2E2E2E2E2E2E2E2E2E2E2E2E2E2E2E2E2E2E2E2E2E2E2E2E2E2E2E2E2
310
E2E2E2E2E2E2E2E2E2E2E2E2E2E2E2E2E2E2E2E2E2E2E2E2E2E2E2E2E2E2E2E2E2E2BEE2E2E2E2E2E2E2E2DCF5E2F5DCF5F5E2E2E2E2E2DCF5F5F5E2E2DCF5E2E2DCDCDCDCDCF5F5F5F5F5DCF5F5F5F5F5E2E2E2E2DCF5F5F5F5F5F5F5F5F5E2F5F5F5F5E2E2E2E2E2E2E2E2E2E2E2E2E2E2E2E2E2E2E2E2E2E2E2E2DCE2E2
310
BEE2E2E2E2E2E2E2E2E2E2E2E2E2E2E2E2E2E2E2E2E2E2E2E2E2E2E2E2E2E2E2E2E2E2E2E2E2E2E2E2E2E2E2E2E2E2E2E2E2E2E2E2E2E2E2E2E2E2E2E2E2E2E2E2E2E2E2E2E2E2E2E2E2E2E2E2E2E2E2E2E2E2E2E2E2E2E2E2E2E2E2E2E2E2E2E2E2E2E2E2E2E2E2E2E2E2E2E2E2E2E2E2E2E2E2E2E2E2E2E2E2E2E2E2E2E2
310
E2E2E2E2E2E2E2E2E2E2E2E2E2E2E2E2E2E2E2E2E2E2E2E2E2E2E2E2E2E2E2E2E2E2E2E2BEE2E2E2E2E2E2E2E2DCDCDCDCDCDCDCDCDCDCDCDCDCDCDCDCDCDCDCDCDCDCDCDCDCDCDCDCDCDCDCDCDCDCBEBEBEBEBEBEBEBEDCDCDCDCDCDCDCDCDCDCDCDCDCDCDCDCDCDCDCDCDCDCDCDCDCDCDCDCDCDCDCDCDCDCDCDCDCDCDCDC
310
E2E2BEE2E2E2E2E2E2E2E2E2E2E2E2E2E2E2E2E2E2E2E2E2E2E2E2E2E2E2E2E2E2E2E2E2E2E2E2E2E2E2E2E2E2E2E2E2E2E2E2E2E2E2E2E2E2E2E2E2E2E2E2E2E2E2E2E2E2E2E2E2E2E2E2E2E2E2E2E2E2E2E2E2E2E2E2E2E2E2E2E2E2E2E2E2E2E2E2E2E2E2E2E2E2E2E2E2E2E2E2E2E2E2E2E2E2E2E2E2E2E2E2E2E2E2E2
310
E2E2E2E2E2E2E2E2E2E2E2E2E2E2E2E2E2E2E2E2E2E2E2E2E2E2E2E2E2E2E2E2E2E2E2E2E2E2BEE2E2E2E2E2E2E2E2DCE2E2E2E2E2E2E2E2E2E2E2E2E2E2E2E2E2E2E2E2E2DCE2E2E2E2E2E2E2E2E2BEBEBEBEBEBEBEBEBEBEBEE2E2E2E2E2E2E2E2F5E2E2E2E2E2DCE2E2E2E2E2E2E2E2E2E2E2E2E2DCE2E2E2E2E2E2E2E2
310
E2DCE2E2BEE2E2E2E2E2E2E2E2E2E2E2E2E2E2E2E2E2E2E2E2E2E2E2E2E2E2E2E2E2E2E2E2E2E2E2E2E2E2E2E2E2E2E2E2E2E2E2E2E2E2E2E2E2E2E2E2E2E2E2E2E2E2E2E2E2E2E2E2E2E2E2E2E2E2E2E2E2E2E2E2E2E2E2E2E2E2E2E2E2E2E2E2E2E2E2E2E2E2E2E2E2E2E2E2E2E2E2E2E2E2E2E2E2E2E2E2E2E2E2E2E2E2
310
E2E2E2E2E2E2E2E2E2E2E2E2E2E2E2E2E2E2E2E2E2E2E2E2E2E2E2E2E2E2E2E2E2E2E2E2E2E2E2E2BEE2E2E2E2E2E2E2E2DCE2E2E2E2E2E2E2E2E2E2E2E2E2E2E2E2E2E2E2E2E2DCDCDCDCDCDCDCDCDCDCBEBEBEE2BEBEBEBEBEBEBEF5F5F5F5F5F5F5F5F5F5F5E2E2E2F5F5F5F5F5F5F5F5F5F5F5F5E2E2DCE2F5F5F5F5F5
310
F5F5F5F5E2E2BEE2E2E2E2E2E2E2E2E2E2E2E2E2E2E2E2E2E2E2E2E2E2E2E2E2E2E2E2E2E2E2E2E2E2E2E2E2E2E2E2E2E2E2E2E2E2E2E2E2E2E2E2E2E2E2E2E2E2E2E2E2E2E2E2E2E2E2E2E2E2E2E2E2E2E2E2E2E2E2E2E2E2E2E2E2E2E2E2E2E2E2E2E2E2E2E2E2E2E2E2E2E2E2E2E2E2E2E2E2E2E2E2E2E2E2E2E2E2E2E2
310
E2E2E2E2E2E2E2E2E2E2E2E2E2E2E2E2E2E2E2E2E2E2E2E2E2E2E2E2E2E2E2E2E2E2E2E2E2E2E2E2E2E2BEE2E2E2E2E2E2E2E2DCE2E2E2E2E2E2E2E2E2E2E2E2E2E2E2E2E2E2E2E2E2DCE2E2E2E2E2E2E2E2E2DCDCDCDCDCDCDCDCDCDCDCF5DCDCBEBEBEBEBEBEBEDCDCDCDCF5F5DCF5DCF5F5F5DCF5F5DCDCDCDCDCF5F5DC
310
BEBEBEF5DCDCE2E2BEE2E2E2E2E2E2E2E2E2E2E2E2E2E2E2E2E2E2E2E2E2E2E2E2E2E2E2E2E2E2E2E2E2E2E2E2E2E2E2E2E2E2E2E2E2E2E2E2E2E2E2E2E2E2E2E2E2E2E2E2E2E2E2E2E2E2E2E2E2E2E2E2E2E2E2E2E2E2E2E2E2E2E2E2E2E2E2E2E2E2E2E2E2E2E2E2E2E2E2E2E2E2E2E2E2E2E2E2E2E2E2E2E2E2E2E2E2E2
310
E2E2E2E2E2E2E2E2E2E2E2E2E2E2E2E2E2E2E2E2E2E2E2E2E2E2E2E2E2E2E2E2E2E2E2E2E2E2E2E2E2E2E2E2BEE2E2E2E2E2E2E2E2DCE2E2E2E2E2E2E2E2E2E2E2E2E2E2E2E2E2E2E2E2E2DCDCDCDCDCDCDCDCDCDCDCDCDCBEBEBEBEDCDCDCDCE2E2E2BEBEBEBEBEBEBEE2E2E2E2DCE2E2E2E2E2E2E2E2E2E2E2E2E2DCE2E2
310
E2E2BEBEBEBEE2DCE2E2BEE2E2E2E2E2E2E2E2E2E2E2E2E2E2E2E2E2E2E2E2E2E2E2E2E2E2E2E2E2E2E2E2E2E2E2E2E2E2E2E2E2E2E2E2E2E2E2E2E2E2E2E2E2E2E2E2E2E2E2E2E2E2E2E2E2E2E2E2E2E2E2E2E2E2E2E2E2E2E2E2E2E2E2E2E2E2E2E2E2E2E2E2E2E2E2E2E2E2E2E2E2E2E2E2E2E2E2E2E2E2E2E2E2E2E2E2
310
E2E2E2E2E2E2E2E2E2E2E2E2E2E2E2E2E2E2E2E2E2E2E2E2E2E2E2E2E2E2E2E2E2E2E2E2E2E2E2E2E2E2E2E2E2E2BEE2E2E2E2E2E2E2E2DCE2E2E2E2E2E2E2E2E2E2E2E2E2E2E2E2E2E2E2E2E2DCE2F5F5F5F5F5F5F5E2DCE2E2BEBEBEBEE2E2E2DCE2E2E2BEF5BEBEBEBEBEE2E2E2E2DCE2E2F5F5F5F5F5F5F5F5E2E2E2DC
310
E2E2F5BEBEF5BEBEE2DCE2E2BEE2E2E2E2E2E2E2E2E2E2E2E2E2E2E2E2E2E2E2E2E2E2E2E2E2E2E2E2E2E2E2E2E2E2E2E2E2E2E2E2E2E2E2E2E2E2E2E2E2E2E2E2E2E2E2E2E2E2E2E2E2E2E2E2E2E2E2E2E2E2E2E2E2E2E2E2E2E2E2E2E2E2E2E2E2E2E2E2E2E2E2E2E2E2E2E2E2E2E2E2E2E2E2E2E2E2E2E2E2E2E2E2E2E2
310
E2E2E2E2E2E2E2E2E2E2E2E2E2E2E2E2E2E2E2E2E2E2E2E2E2E2E2E2E2E2E2E2E2E2E2E2E2E2E2E2E2E2E2E2E2E2E2E2BEE2E2E2E2E2E2E2E2DCDCDCDCDCDCDCDCDCDCDCDCDCDCDCDCDCDCDCDCDCDCDCDCF5F5F5DCF5DCDCDCDCDCDCF5F5F5F5DCDCDCDCDCDCDCF5F5F5DCF5F5DCDCDCDCDCDCDCDCF5F5F5F5F5F5F5F5DCDC
310
DCDCDCDCF5F5F5F5F5F5DCDCE2E2BEE2E2E2E2E2E2E2E2E2E2E2E2E2E2E2E2E2E2E2E2E2E2E2E2E2E2E2E2E2E2E2E2E2E2E2E2E2E2E2E2E2E2E2E2E2E2E2E2E2E2E2E2E2E2E2E2E2E2E2E2E2E2E2E2E2E2E2E2E2E2E2E2E2E2E2E2E2E2E2E2E2E2E2E2E2E2E2E2E2E2E2E2E2E2E2E2E2E2E2E2E2E2E2E2E2E2E2E2E2E2E2E2
310
E2E2E2E2E2E2E2E2E2E2E2E2E2E2E2E2E2E2E2E2E2E2E2E2E2E2E2E2E2E2E2E2E2E2E2E2E2E2E2E2E2E2E2E2E2E2E2E2E2E2BEE2E2E2E2E2E2E2E2DCE2E2E2E2E2E2E2F5F5F5F5F5F5F5F5F5F5F5F5F5BEF5F5F5F5F5F5F5F5F5F5BEF5F52D2D2D2DF5E2E2E2E2E2E2E2E2E2E2E2E2E2E2E2E2E2E2E2E2E2E2E2E2E2E2E2E2
310
E2E2E2E2E2E2E2E2E2E2E2E2E2DCE2E2BEE2E2E2E2E2E2E2E2E2E2E2E2E2E2E2E2E2E2E2E2E2E2E2E2E2E2E2E2E2E2E2E2E2E2E2E2E2E2E2E2E2E2E2E2E2E2E2E2E2E2E2E2E2E2E2E2E2E2E2E2E2E2E2E2E2E2E2E2E2E2E2E2E2E2E2E2E2E2E2E2E2E2E2E2E2E2E2E2E2E2E2E2E2E2E2E2E2E2E2E2E2E2E2E2E2E2E2E2E2E2
310
E2E2E2E2E2E2E2E2E2E2E2E2E2E2E2E2E2E2E2E2E2E2E2E2E2E2E2E2E2E2E2E2E2E2E2E2E2E2E2E2E2E2E2E2E2E2E2E2E2E2E2E2BEE2E2E2E2E2E2E2E2DCE2E2E2E2E2E2E2F5F5F5F5F5F5F5F5F5F5F5F5F5F5F5F5F5F5F5F5F5F5F5F5F5F5F52D2DF5E22DE2E2E2E2E2E2E2E2E2E2E2E2E2E2E2E2E2E2E2E2E2E2E2E2E2E2
310
E2E2E2E2E2E2E2E2E2E2E2E2E2E2E2DCE2E2BEE2E2E2E2E2E2E2E2E2E2E2E2E2E2E2E2E2E2E2E2E2E2E2E2E2E2E2E2E2E2E2E2E2E2E2E2E2E2E2E2E2E2E2E2E2E2E2E2E2E2E2E2E2E2E2E2E2E2E2E2E2E2E2E2E2E2E2E2E2E2E2E2E2E2E2E2E2E2E2E2E2E2E2E2E2E2E2E2E2E2E2E2E2E2E2E2E2E2E2E2E2E2E2E2E2E2E2E2
310
E2E2E2E2E2E2E2E2E2E2E2E2E2E2E2E2E2E2E2E2E2E2E2E2E2E2E2E2E2E2E2E2E2E2E2E2E2E2E2E2E2E2E2E2E2E2E2E2E2E2E2E2E2E2BEE2E2E2E2E2E2E2E2DCE2E2E2E2E2E2E2F5E2282828282828282828282828282828282828282828282828F5E2E22DE22DE2E2E2E2E2E2E2E2E2E2E2BEBEBEE2BEE2BEBEE2BEE2BEBE
310
E2E2BEE2E2BEBEE2BEE2E2E2E2E2E2E2E2DCE2E2BEE2E2E2E2E2E2E2E2E2E2E2E2E2E2E2E2E2E2E2E2E2E2E2E2E2E2E2E2E2E2E2E2E2E2E2E2E2E2E2E2E2E2E2E2E2E2E2E2E2E2E2E2E2E2E2E2E2E2E2E2E2E2E2E2E2E2E2E2E2E2E2E2E2E2E2E2E2E2E2E2E2E2E2E2E2E2E2E2E2E2E2E2E2E2E2E2E2E2E2E2E2E2E2E2E2E2
310
E2E2E2E2E2E2E2E2E2E2E2E2E2E2E2E2E2E2E2E2E2E2E2E2E2E2E2E2E2E2E2E2E2E2E2E2E2E2E2E2E2E2E2E2E2E2E2E2E2E2E2E2E2E2E2E2BEE2E2E2E2E2E2E2E2DCE2E2E2E2E2E2E2F5E2282828282828282828282828282828282828282828282828F5E2E22DE22DE2E2E2E2E2E2E2E2E2E2E2BEBEBEBEBEE2BEBEE2BEBE
310
BEBEBEE2BEE2E2BEBEBEBEE2E2E2E2E2E2E2E2DCE2E2BEE2E2E2E2E2E2E2E2E2E2E2E2E2E2E2E2E2E2E2E2E2E2E2E2E2E2E2E2E2E2E2E2E2E2E2E2E2E2E2E2E2E2E2E2E2E2E2E2E2E2E2E2E2E2E2E2E2E2E2E2E2E2E2E2E2E2E2E2E2E2E2E2E2E2E2E2E2E2E2E2E2E2E2E2E2E2E2E2E2E2E2E2E2E2E2E2E2E2E2E2E2E2E2E2
310
E2E2E2E2E2E2E2E2E2E2E2E2E2E2E2E2E2E2E2E2E2E2E2E2E2E2E2E2E2E2E2E2E2E2E2E2E2E2E2E2E2E2E2E2E2E2E2E2E2E2E2E2E2E2E2E2E2E2BEE2E2E2E2E2E2E2E2DCE2E2E2E2E2E2E2F5E228E22828E2E2E228E2E2E228E2E2E22828E2E2E228E22828F5E2E22DBE2DE2E2E2E2E2E2E2E2E2E2BEBEBEBEBEBEE2E2E2E2
310
BEBEBEBEBEE2E2E2E2BEBEBEBEE2E2E2E2E2E2E2E2DCE2E2BEE2E2E2E2E2E2E2E2E2E2E2E2E2E2E2E2E2E2E2E2E2E2E2E2E2E2E2E2E2E2E2E2E2E2E2E2E2E2E2E2E2E2E2E2E2E2E2E2E2E2E2E2E2E2E2E2E2E2E2E2E2E2E2E2E2E2E2E2E2E2E2E2E2E2E2E2E2E2E2E2E2E2E2E2E2E2E2E2E2E2E2E2E2E2E2E2E2E2E2E2E2E2
310
E2E2E2E2E2E2E2E2E2E2E2E2E2E2E2E2E2E2E2E2E2E2E2E2E2E2E2E2E2E2E2E2E2E2E2E2E2E2E2E2E2E2E2E2E2E2E2E2E2E2E2E2E2E2E2E2E2E2E2E2BEE2E2E2E2E2E2E2E2DCE2E2E2E2E2E2E2F5E228E22828E2E2E228E2E2E228E2E2E22828E2E2E228E22828F5BEBE2DBE2DE2E2E2E2E2E2E2E2E2E2BEBEBEBEBEBEBEBE
310
BEBEBEBEBEBEBEBEBEBEBEE2E2E2E2E2E2E2E2E2E2E2E2DCE2E2BEE2E2E2E2E2E2E2E2E2E2E2E2E2E2E2E2E2E2E2E2E2E2E2E2E2E2E2E2E2E2E2E2E2E2E2E2E2E2E2E2E2E2E2E2E2E2E2E2E2E2E2E2E2E2E2E2E2E2E2E2E2E2E2E2E2E2E2E2E2E2E2E2E2E2E2E2E2E2E2E2E2E2E2E2E2E2E2E2E2E2E2E2E2E2E2E2E2E2E2E2
310
E2E2E2E2E2E2E2E2E2E2E2E2E2E2E2E2E2E2E2E2E2E2E2E2E2E2E2E2E2E2E2E2E2E2E2E2E2E2E2E2E2E2E2E2E2E2E2E2E2E2E2E2E2E2E2E2E2E2E2E2E2E2BEE2E2E2E2E2E2E2E2DCE2E2E2E2E2E2E2F5E2282828282828282828282828282828282828282828282828F5BEBE2DBE2DE2E2E2E2E2E2E2E2E2E2BEBEBEBEBEBE
310
BEBEBEBEBEBEBEBEBEBEBEBEBEE2E2E2E2E2E2E2E2E2E2E2E2DCE2E2BEE2E2E2E2E2E2E2E2E2E2E2E2E2E2E2E2E2E2E2E2E2E2E2E2E2E2E2E2E2E2E2E2E2E2E2E2E2E2E2E2E2E2E2E2E2E2E2E2E2E2E2E2E2E2E2E2E2E2E2E2E2E2E2E2E2E2E2E2E2E2E2E2E2E2E2E2E2E2E2E2E2E2E2E2E2E2E2E2E2E2E2E2E2E2E2E2E2E2
310
E2E2E2E2E2E2E2E2E2E2E2E2E2E2E2E2E2E2E2E2E2E2E2E2E2E2E2E2E2E2E2E2E2E2E2E2E2E2E2E2E2E2E2E2E2E2E2E2E2E2E2E2E2E2E2E2E2E2E2E2E2E2E2E2BEE2E2E2E2E2E2E2E2DCE2E2E2E2E2E2E22D2D2D2D2D2D2D2D2D2D2D2D2D2D2D2D2D2D2D2D2D2D2D2D2D2DF5BEBE2DBE2DE2E2E2E2E2E2E2E2E2E2E2E2E2E2
310
E2E2E2E2E2E2E2E2E2E2E2E2E2E2E2E2E2E2E2E2E2E2E2E2E2E2E2DCE2E2BEE2E2E2E2E2E2E2E2E2E2E2E2E2E2E2E2E2E2E2E2E2E2E2E2E2E2E2E2E2E2E2E2E2E2E2E2E2E2E2E2E2E2E2E2E2E2E2E2E2E2E2E2E2E2E2E2E2E2E2E2E2E2E2E2E2E2E2E2E2E2E2E2E2E2E2E2E2E2E2E2E2E2E2E2E2E2E2E2E2E2E2E2E2E2E2E2
310
E2E2E2E2E2E2E2E2E2E2E2E2E2E2E2E2E2E2E2E2E2E2E2E2E2E2E2E2E2E2E2E2E2E2E2E2E2E2E2E2E2E2E2E2E2E2E2E2E2E2E2E2E2E2E2E2E2E2E2E2E2E2E2E2E2E2BEE2E2E2E2E2E2E2E2DCE2E2E2E2E2E2E22D2D28E22828E2E2E228E2E2E228BEBEBEBE28E2E2E228E2282D2DE2E22DE22DE2E2E2E2E2E2E2E2E2E2E2E2
310
E2E2E2E2E2E2E2E2E2E2E2E2E2E2E2E2E2E2E2E2E2E2E2E2E2E2E2E2E2DCE2E2BEE2E2E2E2E2E2E2E2E2E2E2E2E2E2E2E2E2E2E2E2E2E2E2E2E2E2E2E2E2E2E2E2E2E2E2E2E2E2E2E2E2E2E2E2E2E2E2E2E2E2E2E2E2E2E2E2E2E2E2E2E2E2E2E2E2E2E2E2E2E2E2E2E2E2E2E2E2E2E2E2E2E2E2E2E2E2E2E2E2E2E2E2E2E2
310
E2E2E2E2E2E2E2E2E2E2E2E2E2E2E2E2E2E2E2E2E2E2E2E2E2E2E2E2E2E2E2E2E2E2E2E2E2E2E2E2E2E2E2E2E2E2E2E2E2E2E2E2E2E2E2E2E2E2E2E2E2E2E2E2E2E2E2E2BEE2E2E2E2E2E2E2E2DCE2E2E2E2E2E2E22DE2282828282828282828282828BEBEBEBE28282828282828282DE2E22DE22DE2E2E2E2E2E2E2E2E2E2
310
E2E2E2E2E2E2E2E2E2E2E2E2E2E2E2E2E2E2E2E2E2E2E2E2E2E2E2E2E2E2E2DCE2E2BEE2E2E2E2E2E2E2E2E2E2E2E2E2E2E2E2E2E2E2E2E2E2E2E2E2E2E2E2E2E2E2E2E2E2E2E2E2E2E2E2E2E2E2E2E2E2E2E2E2E2E2E2E2E2E2E2E2E2E2E2E2E2E2E2E2E2E2E2E2E2E2E2E2E2E2E2E2E2E2E2E2E2E2E2E2E2E2E2E2E2E2E2
310
E2E2E2E2E2E2E2E2E2E2E2E2E2E2E2E2E2E2E2E2E2E2E2E2E2E2E2E2E2E2E2E2E2E2E2E2E2E2E2E2E2E2E2E2E2E2E2E2E2E2E2E2E2E2E2E2E2E2E2E2E2E2E2E2E2E2E2E2E2E2BEE2E2E2E2E2E2E2E2DCE2E2E2E2E2E2E22DE22828282828282828282828282828282828282828282828282DE2E22DE22DE2E2E2E2E2E2E2E2
310
E2E2E2E2E2E2E2E2E2E2E2E2E2E2E2E2E2E2E2E2E2E2E2E2E2E2E2E2E2E2E2E2E2DCE2E2BEE2E2E2E2E2E2E2E2E2E2E2E2E2E2E2E2E2E2E2E2E2E2E2E2E2E2E2E2E2E2E2E2E2E2E2E2E2E2E2E2E2E2E2E2E2E2E2E2E2E2E2E2E2E2E2E2E2E2E2E2E2E2E2E2E2E2E2E2E2E2E2E2E2E2E2E2E2E2E2E2E2E2E2E2E2E2E2E2E2E2
310
E2E2E2E2E2E2E2E2E2E2E2E2E2E2E2E2E2E2E2E2E2E2E2E2E2E2E2E2E2E2E2E2E2E2E2E2E2E2E2E2E2E2E2E2E2E2E2E2E2E2E2E2E2E2E2E2E2E2E2E2E2E2E2E2E2E2E2E2E2E2E2E2BEE2E2E2E2E2E2E2E2DCE2E2E2E2E2E2E2F5F52828282828282828282828282828282828282828282828F5F52D2D2D2D2DE2E2E2E2E2E2
310
E2E2E2E2E2E2E2E2E2E2E2E2E2E2E2E2E2E2E2E2E2E2E2E2E2E2E2E2E2E2E2E2E2E2E2DCE2E2BEE2E2E2E2E2E2E2E2E2E2E2E2E2E2E2E2E2E2E2E2E2E2E2E2E2E2E2E2E2E2E2E2E2E2E2E2E2E2E2E2E2E2E2E2E2E2E2E2E2E2E2E2E2E2E2E2E2E2E2E2E2E2E2E2E2E2E2E2E2E2E2E2E2E2E2E2E2E2E2E2E2E2E2E2E2E2E2E2
310
E2E2E2E2E2E2E2E2E2E2E2E2E2E2E2E2E2E2E2E2E2E2E2E2E2E2E2E2E2E2E2E2E2E2E2E2E2E2E2E2E2E2E2E2E2E2E2E2E2E2E2E2E2E2E2E2E2E2E2E2E2E2E2E2E2E2E2E2E2E2E2E2E2E2BEE2E2E2E2E2E2E2E2DCE22DF52D2D2D2DF5F5F5F5F5F5F5F5F5F5F5F5F5F5F5F5F5F5F5F5F5F5F5F5F5F5F52D2D2D2D2DF52D2DDC
310
E2E2E2E2E2E22DDC2DF52D2D2DF5F5F5F5F5F5F5F5F5F5F52D2D2D2DF52D2DF52DDC2DE2E2DCE2E2BEE2E2E2E2E2E2E2E2E2E2E2E2E2E2E2E2E2E2E2E2E2E2E2E2E2E2E2E2E2E2E2E2E2E2E2E2E2E2E2E2E2E2E2E2E2E2E2E2E2E2E2E2E2E2E2E2E2E2E2E2E2E2E2E2E2E2E2E2E2E2E2E2E2E2E2E2E2E2E2E2E2E2E2E2E2E2
310
E2E2E2E2E2E2E2E2E2E2E2E2E2E2E2E2E2E2E2E2E2E2E2E2E2E2E2E2E2E2E2E2E2E2E2E2E2E2E2E2E2E2E2E2E2E2E2E2E2E2E2E2E2E2E2E2E2E2E2E2E2E2E2E2E2E2E2E2E2E2E2E2E2E2E2E2BEE2E2E2E2E2E2E2E2DCE2E22DE22DE2E2282828282828282828282828282828282828282828282828282828E2E2E2E2E22DE2
310
E22DE2E2E2E2E2E22D2DE22DE2E2E228282828282828282828F5E2E2E22D2DE2E22DE22D2DE2E2DCE2E2BEE2E2E2E2E2E2E2E2E2E2E2E2E2E2E2E2E2E2E2E2E2E2E2E2E2E2E2E2E2E2E2E2E2E2E2E2E2E2E2E2E2E2E2E2E2E2E2E2E2E2E2E2E2E2E2E2E2E2E2E2E2E2E2E2E2E2E2E2E2E2E2E2E2E2E2E2E2E2E2E2E2E2E2E2
310
E2E2E2E2E2E2E2E2E2E2E2E2E2E2E2E2E2E2E2E2E2E2E2E2E2E2E2E2E2E2E2E2E2E2E2E2E2E2E2E2E2E2E2E2E2E2E2E2E2E2E2E2E2E2E2E2E2E2E2E2E2E2E2E2E2E2E2E2E2E2E2E2E2E2E2E2E2E2BEE2E2E2E2E2E2E2E2DCE2E22DE22DE2E2F5E22828282828282828282828282828282828282828282828E2F5E2E2E2E2E2
310
2DE2E22DE2E2E2E2E2E2E22DE22DE2E2E228282828282828282828F5E2E2E2E22DE2E22DE22DE2E2E2DCE2E2BEE2E2E2E2E2E2E2E2E2E2E2E2E2E2E2E2E2E2E2E2E2E2E2E2E2E2E2E2E2E2E2E2E2E2E2E2E2E2E2E2E2E2E2E2E2E2E2E2E2E2E2E2E2E2E2E2E2E2E2E2E2E2E2E2E2E2E2E2E2E2E2E2E2E2E2E2E2E2E2E2E2E2
310
E2E2E2E2E2E2E2E2E2E2E2E2E2E2E2E2E2E2E2E2E2E2E2E2E2E2E2E2E2E2E2E2E2E2E2E2E2E2E2E2E2E2E2E2E2E2E2E2E2E2E2E2E2E2E2E2E2E2E2E2E2E2E2E2E2E2E2E2E2E2E2E2E2E2E2E2E2E2E2E2BEE2E2E2E2E2E2E2E2DCE2E22DE22DE2E2F5E2282828282828282828282828282828282828282828282828F5E2E2E2
310
E2E22DE2E22DE2E2E2E2E2E2E22DBEBEE2E2E228282828282828282828F5E2E2E2E22DE2E22DE22DE2E2E2DCE2E2BEE2E2E2E2E2E2E2E2E2E2E2E2E2E2E2E2E2E2E2E2E2E2E2E2E2E2E2E2E2E2E2E2E2E2E2E2E2E2E2E2E2E2E2E2E2E2E2E2E2E2E2E2E2E2E2E2E2E2E2E2E2E2E2E2E2E2E2E2E2E2E2E2E2E2E2E2E2E2E2E2
310
E2E2E2E2E2E2E2E2E2E2E2E2E2E2E2E2E2E2E2E2E2E2E2E2E2E2E2E2E2E2E2E2E2E2E2E2E2E2E2E2E2E2E2E2E2E2E2E2E2E2E2E2E2E2E2E2E2E2E2E2E2E2E2E2E2E2E2E2E2E2E2E2E2E2E2E2E2E2E2E2E2E2BEE2E2E2E2E2E2E2E2DCE2E22DE22DE2E2F5E228E22828E2E2E228E2E2E228E2E2E22828E2E2E228E228E2F5E2
310
E2E2E2E22DE2E22DE2E2E2E2E2E2E22DBEBEE2E2E22828E2E22828E2E22828F5E2E2E2E22DE2E22DE22DE2E2E2DCE2E2BEE2E2E2E2E2E2E2E2E2E2E2E2E2E2E2E2E2E2E2E2E2E2E2E2E2E2E2E2E2E2E2E2E2E2E2E2E2E2E2E2E2E2E2E2E2E2E2E2E2E2E2E2E2E2E2E2E2E2E2E2E2E2E2E2E2E2E2E2E2E2E2E2E2E2E2E2E2E2
310
E2E2E2E2E2E2E2E2E2E2E2E2E2E2E2E2E2E2E2E2E2E2E2E2E2E2E2E2E2E2E2E2E2E2E2E2E2E2E2E2E2E2E2E2E2E2E2E2E2E2E2E2E2E2E2E2E2E2E2E2E2E2E2E2E2E2E2E2E2E2E2E2E2E2E2E2E2E2E2E2E2E2E2E2BEE2E2E2E2E2E2E2E2DCE2E22DE22DE2E2F5E228E22828E2E2E228E2E2E228E2E2E22828E2E2E228E228E2
310
F5E2E2E2E2E22DE2E22DE2E2E2E2E2E2E22DBEBEE2E2E22828E2E22828E2E22828F5E2E2E2E22DE2E22DE22DE2E2E2DCE2E2BEE2E2E2E2E2E2E2E2E2E2E2E2E2E2E2E2E2E2E2E2E2E2E2E2E2E2E2E2E2E2E2E2E2E2E2E2E2E2E2E2E2E2E2E2E2E2E2E2E2E2E2E2E2E2E2E2E2E2E2E2E2E2E2E2E2E2E2E2E2E2E2E2E2E2E2E2
310
E2E2E2E2E2E2E2E2E2E2E2E2E2E2E2E2E2E2E2E2E2E2E2E2E2E2E2E2E2E2E2E2E2E2E2E2E2E2E2E2E2E2E2E2E2E2E2E2E2E2E2E2E2E2E2E2E2E2E2E2E2E2E2E2E2E2E2E2E2E2E2E2E2E2E2E2E2E2E2E2E2E2E2E2E2E2BEE2E2E2E2E2E2E2E2DCE2E22DE22DE2E2F5E228E22828E2E2E228E2E2E228E2E2E22828E2E2E228E2
310
28E2F5E2E2E2E2E22DE2E22DE2E2E2E2E2E2E22DE22DE2E2E22828E2E22828E2E22828F5E2E2E2E22DE2E22DE22DE2E2E2DCE2E2BEE2E2E2E2E2E2E2E2E2E2E2E2E2E2E2E2E2E2E2E2E2E2E2E2E2E2E2E2E2E2E2E2E2E2E2E2E2E2E2E2E2E2E2E2E2E2E2E2E2E2E2E2E2E2E2E2E2E2E2E2E2E2E2E2E2E2E2E2E2E2E2E2E2E2
310
E2E2E2E2E2E2E2E2E2E2E2E2E2E2E2E2E2E2E2E2E2E2E2E2E2E2E2E2E2E2E2E2E2E2E2E2E2E2E2E2E2E2E2E2E2E2E2E2E2E2E2E2E2E2E2E2E2E2E2E2E2E2E2E2E2E2E2E2E2E2E2E2E2E2E2E2E2E2E2E2E2E2E2E2E2E2E2E2BEE2E2E2E2E2E2E2E2DCE2E22DE22DE2E2F5E22828282828282828282828282828282828282828
310
28282828F5E2E2E2E2E22DE2E22DE2E2E2E2E2E2E22DE22DE2E2E228282828282828282828F5E2E2E2E22DE2E22DE22DE2E2E2DCE2E2BEE2E2E2E2E2E2E2E2E2E2E2E2E2E2E2E2E2E2E2E2E2E2E2E2E2E2E2E2E2E2E2E2E2E2E2E2E2E2E2E2E2E2E2E2E2E2E2E2E2E2E2E2E2E2E2E2E2E2E2E2E2E2E2E2E2E2E2E2E2E2E2E2
310
E2E2E2E2E2E2E2E2E2E2E2E2E2E2E2E2E2E2E2E2E2E2E2E2E2E2E2E2E2E2E2E2E2E2E2E2E2E2E2E2E2E2E2E2E2E2E2E2E2E2E2E2E2E2E2E2E2E2E2E2E2E2E2E2E2E2E2E2E2E2E2E2E2E2E2E2E2E2E2E2E2E2E2E2E2E2E2E2E2E2BEE2E2E2E2E2E2E2E2DCE2E22DE22DE2E2F5E2282828282828282828282828282828282828
310
282828282828F5E2E2E2E2E22DE2E22DE2E2E2E2E2E2E22DE22DE2E2E22828E2E2BE28E2E22828F5E2E2E2E22DE2E22DE22DE2E2E2DCE2E2BEE2E2E2E2E2E2E2E2E2E2E2E2E2E2E2E2E2E2E2E2E2E2E2E2E2E2E2E2E2E2E2E2E2E2E2E2E2E2E2E2E2E2E2E2E2E2E2E2E2E2E2E2E2E2E2E2E2E2E2E2E2E2E2E2E2E2E2E2E2E2
310
E2E2E2E2E2E2E2E2E2E2E2E2E2E2E2E2E2E2E2E2E2E2E2E2E2E2E2E2E2E2E2E2E2E2E2E2E2E2E2E2E2E2E2E2E2E2E2E2E2E2E2E2E2E2E2E2E2E2E2E2E2E2E2E2E2E2E2E2E2E2E2E2E2E2E2E2E2E2E2E2E2E2E2E2E2E2E2E2E2E2E2E2BEE2E2E2E2E2E2E2E2DCE2E22DE22DE2E2F5E228E22828E2E2E228E2E2E228E2E2E228
310
28E2E2E228E228E2F5E2E2E2E2E22DE2E22DE2E2E2E2E2E2E22DE2F52D2D2D28282D2DBEBEE2E22828F5E2E2E2E22DE2E22DE22DE2E2E2DCE2E2BEE2E2E2E2E2E2E2E2E2E2E2E2E2E2E2E2E2E2E2E2E2E2E2E2E2E2E2E2E2E2E2E2E2E2E2E2E2E2E2E2E2E2E2E2E2E2E2E2E2E2E2E2E2E2E2E2E2E2E2E2E2E2E2E2E2E2E2E2
310
E2E2E2E2E2E2E2E2E2E2E2E2E2E2E2E2E2E2E2E2E2E2E2E2E2E2E2E2E2E2E2E2E2E2E2E2E2E2E2E2E2E2E2E2E2E2E2E2E2E2E2E2E2E2E2E2E2E2E2E2E2E2E2E2E2E2E2E2E2E2E2E2E2E2E2E2E2E2E2E2E2E2E2E2E2E2E2E2E2E2E2E2E2E2BEE2E2E2E2E2E2E2E2DCE2E22DE22DE2E2F5E228E22828E2E2E228E2E2E228E2E2
310
E22828E2E2E228E228E2F5E2E2E2E2E22DE2E22DE2E2E2E2E2E2E22DE22DE2E2E22828E2E22828E2E22828F5E2E2E2E22DE2E22DE22DE2E2E2DCE2E2BEE2E2E2E2E2E2E2E2E2E2E2E2E2E2E2E2E2E2E2E2E2E2E2E2E2E2E2E2E2E2E2E2E2E2E2E2E2E2E2E2E2E2E2E2E2E2E2E2E2E2E2E2E2E2E2E2E2E2E2E2E2E2E2E2E2E2
310
E2E2E2E2E2E2E2E2E2E2E2E2E2E2E2E2E2E2E2E2E2E2E2E2E2E2E2E2E2E2E2E2E2E2E2E2E2E2E2E2E2E2E2E2E2E2E2E2E2E2E2E2E2E2E2E2E2E2E2E2E2E2E2E2E2E2E2E2E2E2E2E2E2E2E2E2E2E2E2E2E2E2E2E2E2E2E2E2E2E2E2E2E2E2E2E2BEE2E2E2E2E2E2E2E2DCE2E22DE22DE2E2F5E228E22828E2E2E228E2E2E228
310
E2E2E22828E2E2E228E228E2F5E2E2E2E2E22DE2E22DE2E2E2E2E2E2E22DE22DE2E2E228282828282828282828F5E2E2E2E22DE2E22DE22DE2E2E2DCE2E2BEE2E2E2E2E2E2E2E2E2E2E2E2E2E2E2E2E2E2E2E2E2E2E2E2E2E2E2E2E2E2E2E2E2E2E2E2E2E2E2E2E2E2E2E2E2E2E2E2E2E2E2E2E2E2E2E2E2E2E2E2E2E2E2E2
310
E2E2E2E2E2E2E2E2E2E2E2E2E2E2E2E2E2E2E2E2E2E2E2E2E2E2E2E2E2E2E2E2E2E2E2E2E2E2E2E2E2E2E2E2E2E2E2E2E2E2E2E2E2E2E2E2E2E2E2E2E2E2E2E2E2E2E2E2E2E2E2E2E2E2E2E2E2E2E2E2E2E2E2E2E2E2E2E2E2E2E2E2E2E2E2E2E2E2BEE2E2E2E2E2E2E2E2DCE2E22DE22DE2E2F5E228282828282828282828
310
2828282828282828282828282828F5E2E2E2E2E22DE2E22DE2E2E2E2E2E2E22DE22DE2E2E228282828282828282828F5E2E2BEBE2DE2E22DE22DE2E2E2DCE2E2BEE2E2E2E2E2E2E2E2E2E2E2E2E2E2E2E2E2E2E2E2E2E2E2E2E2E2E2E2E2E2E2E2E2E2E2E2E2E2E2E2E2E2E2E2E2E2E2E2E2E2E2E2E2E2E2E2E2E2E2E2E2E2
310
E2E2E2E2E2E2E2E2E2E2E2E2E2E2E2E2E2E2E2E2E2E2E2E2E2E2E2E2E2E2E2E2E2E2E2E2E2E2E2E2E2E2E2E2E2E2E2E2E2E2E2E2E2E2E2E2E2E2E2E2E2E2E2E2E2E2E2E2E2E2E2E2E2E2E2E2E2E2E2E2E2E2E2E2E2E2E2E2E2E2E2E2E2E2E2E2E2E2E2E2BEE2E2E2E2E2E2E2E2DCE2E22DE22DE2E2F5E228E22828E2E2E228
310
E2E2E228E2E2E22828E2E2E228E228E2F5E2E2E2E2E22DE2E22DE2E2E2E2E2E2E22DE22DE2E2E22828E2E22828E2E22828F5E2E2BEBE2DE2E22DE22DE2E2E2DCE2E2BEE2E2E2E2E2E2E2E2E2E2E2E2E2E2E2E2E2E2E2E2E2E2E2E2E2E2E2E2E2E2E2E2E2E2E2E2E2E2E2E2E2E2E2E2E2E2E2E2E2E2E2E2E2E2E2E2E2E2E2E2
310
E2E2E2E2E2E2E2E2E2E2E2E2E2E2E2E2E2E2E2E2E2E2E2E2E2E2E2E2E2E2E2E2E2E2E2E2E2E2E2E2E2E2E2E2E2E2E2E2E2E2E2E2E2E2E2E2E2E2E2E2E2E2E2E2E2E2E2E2E2E2E2E2E2E2E2E2E2E2E2E2E2E2E2E2E2E2E2E2E2E2E2E2E2E2E2E2E2E2E2E2E2E2BEE2E2E2E2E2E2E2E2DCE2E22DE22DE2E2F5E228E22828E2E2
310
E228E2E2E228E2E2E22828E2E2E228E228E2F5E2E2E2E2E22DE2E22DE2E2E2E2E2E2E22DE22DE2E2E22828E2E22828E2E22828F5E2E2BEBE2DE2E22DE22DE2E2E2DCE2E2BEE2E2E2E2E2E2E2E2E2E2E2E2E2E2E2E2E2E2E2E2E2E2E2E2E2E2E2E2E2E2E2E2E2E2E2E2E2E2E2E2E2E2E2E2E2E2E2E2E2E2E2E2E2E2E2E2E2E2
310
E2E2E2E2E2E2E2E2E2E2E2E2E2E2E2E2E2E2E2E2E2E2E2E2E2E2E2E2E2E2E2E2E2E2E2E2E2E2E2E2E2E2E2E2E2E2E2E2E2E2E2E2E2E2E2E2E2E2E2E2E2E2E2E2E2E2E2E2E2E2E2E2E2E2E2E2E2E2E2E2E2E2E2E2E2E2E2E2E2E2E2E2E2E2E2E2E2E2E2E2E2E2E2E2BEE2E2E2E2E2E2E2E2DCE2E22DE22DE2E2F5E228E22828
310
E2E2E228E2E2E228E2E2E22828E2E2E228E228E2F5E2E2E2E2E22DE2E22DE2E2E2E2E2E2E22DE22DE2E2E22828E2E22828E2E22828F5E2E2BEBE2DE2E22DE22DE2E2E2DCE2E2BEE2E2E2E2E2E2E2E2E2E2E2E2E2E2E2E2E2E2E2E2E2E2E2E2E2E2E2E2E2E2E2E2E2E2E2E2E2E2E2E2E2E2E2E2E2E2E2E2E2E2E2E2E2E2E2E2
310
E2E2E2E2E2E2E2E2E2E2E2E2E2E2E2E2E2E2E2E2E2E2E2E2E2E2E2E2E2E2E2E2E2E2E2E2E2E2E2E2E2E2E2E2E2E2E2E2E2E2E2E2E2E2E2E2E2E2E2E2E2E2E2E2E2E2E2E2E2E2E2E2E2E2E2E2E2E2E2E2E2E2E2E2E2E2E2E2E2E2E2E2E2E2E2E2E2E2E2E2E2E2E2E2E2E2BEE2E2E2E2E2E2E2E2DCE2E22DE22DE2E2F5E22828
310
28282828282828282828282828282828282828282828F5E2E2E2E2E22DE2E22DE2E2E2E2E2E2E22DE22DE2E2E228282828282828282828F5E2E2E2E22DE2E22DE22DE2E2E2DCE2E2BEE2E2E2E2E2E2E2E2E2E2E2E2E2E2E2E2E2E2E2E2E2E2E2E2E2E2E2E2E2E2E2E2E2E2E2E2E2E2E2E2E2E2E2E2E2E2E2E2E2E2E2E2E2E2
310
E2E2E2E2E2E2E2E2E2E2E2E2E2E2E2E2E2E2E2E2E2E2E2E2E2E2E2E2E2E2E2E2E2E2E2E2E2E2E2E2E2E2E2E2E2E2E2E2E2E2E2E2E2E2E2E2E2E2E2E2E2E2E2E2E2E2E2E2E2E2E2E2E2E2E2E2E2E2E2E2E2E2E2E2E2E2E2E2E2E2E2E2E2E2E2E2E2E2E2E2E2E2E2E2E2E2E2E2BEE2E2E2E2E2E2E2E2DCE2E22DBE2DE2E2F5E2
310
282828282828282828282828282828282828282828282828F5E2E2E2E2E22DE2E22DE2E2E2E2E2E2E22DE22DE2E2E22828E2E22828E2E22828F5E2E2E2E22DE2E22DE22DE2E2E2DCE2E2BEE2E2E2E2E2E2E2E2E2E2E2E2E2E2E2E2E2E2E2E2E2E2E2E2E2E2E2E2E2E2E2E2E2E2E2E2E2E2E2E2E2E2E2E2E2E2E2E2E2E2E2E2
310
E2E2E2E2E2E2E2E2E2E2E2E2E2E2E2E2E2E2E2E2E2E2E2E2E2E2E2E2E2E2E2E2E2E2E2E2E2E2E2E2E2E2E2E2E2E2E2E2E2E2E2E2E2E2E2E2E2E2E2E2E2E2E2E2E2E2E2E2E2E2E2E2E2E2E2E2E2E2E2E2E2E2E2E2E2E2E2E2E2E2E2E2E2E2E2E2E2E2E2E2E2E2E2E2E2E2E2E2E2E2BEE2E2E2E2E2E2E2E2DCE2E22DBEBEE2E2
310
F5E228E22828E2E2E228E2E2E228E2E2E22828E2E2E228E228E2F5E2E2E2E2E22DE2E22DE2E2E2E2E2E2E22DE22DE2E2E22828E2E22828E2E22828F5E2E2E2E22DE2E22DE22DE2E2E2DCE2E2BEE2E2E2E2E2E2E2E2E2E2E2E2E2E2E2E2E2E2E2E2E2E2E2E2E2E2E2E2E2E2E2E2E2E2E2E2E2E2E2E2E2E2E2E2E2E2E2E2E2E2
310
E2E2E2E2E2E2E2E2E2E2E2E2E2E2E2E2E2E2E2E2E2E2E2E2E2E2E2E2E2E2E2E2E2E2E2E2E2E2E2E2E2E2E2E2E2E2E2E2E2E2E2E2E2E2E2E2E2E2E2E2E2E2E2E2E2E2E2E2E2E2E2E2E2E2E2E2E2E2E2E2E2E2E2E2E2E2E2E2E2E2E2E2E2E2E2E2E2E2E2E2E2E2E2E2E2E2E2E2E2E2E2E2BEE2E2E2E2E2E2E2E2DCE2E22DBEBE
310
E2E2F5E228E22828E2E2E228E2E2E228E2E2E22828E2E2E228E228E2F5E2E2E2E2E22DE2E22DE2E2E2E2E2E2E22DE22DE2E2E22828E2E22828E2E22828F5E2E2E2E22DE2E22DE22DE2E2E2DCE2E2BEE2E2E2E2E2E2E2E2E2E2E2E2E2E2E2E2E2E2E2E2E2E2E2E2E2E2E2E2E2E2E2E2E2E2E2E2E2E2E2E2E2E2E2E2E2E2E2E2
310
E2E2E2E2E2E2E2E2E2E2E2E2E2E2E2E2E2E2E2E2E2E2E2E2E2E2E2E2E2E2E2E2E2E2E2E2E2E2E2E2E2E2E2E2E2E2E2E2E2E2E2E2E2E2E2E2E2E2E2E2E2E2E2E2E2E2E2E2E2E2E2E2E2E2E2E2E2E2E2E2E2E2E2E2E2E2E2E2E2E2E2E2E2E2E2E2E2E2E2E2E2E2E2E2E2E2E2E2E2E2E2E2E2E2BEE2E2E2E2E2E2E2E2DCE2E22D
310
BEBEE2E2F5E228E22828E2E2E228E2E2E228E2E2E22828E2E2E228E228E2F5E2E2E2E2E22DE2E22DE2E2E2E2E2E2E22DE22DE2E2E228282828282828282828F5E2E2E2E22DE2E22DE22DE2E2E2DCE2E2BEE2E2E2E2E2E2E2E2E2E2E2E2E2E2E2E2E2E2E2E2E2E2E2E2E2E2E2E2E2E2E2E2E2E2E2E2E2E2E2E2E2E2E2E2E2E2
310
E2E2E2E2E2E2E2E2E2E2E2E2E2E2E2E2E2E2E2E2E2E2E2E2E2E2E2E2E2E2E2E2E2E2E2E2E2E2E2E2E2E2E2E2E2E2E2E2E2E2E2E2E2E2E2E2E2E2E2E2E2E2E2E2E2E2E2E2E2E2E2E2E2E2E2E2E2E2E2E2E2E2E2E2E2E2E2E2E2E2E2E2E2E2E2E2E2E2E2E2E2E2E2E2E2E2E2E2E2E2E2E2E2E2E2E2BEE2E2E2E2E2E2E2E2DCE2
310
E22DBEBEE2E2F5E2282828282828282828282828282828282828282828282828F5E2E2E2E2E22DE2E22DE2E2E2E2E2E2E22DE22DE2E2E228282828282828282828F5E2E2E2E22DBEBE2DE22DE2E2E2DCE2E2BEE2E2E2E2E2E2E2E2E2E2E2E2E2E2E2E2E2E2E2E2E2E2E2E2E2E2E2E2E2E2E2E2E2E2E2E2E2E2E2E2E2E2E2E2
310
E2E2E2E2E2E2E2E2E2E2E2E2E2E2E2E2E2E2E2E2E2E2E2E2E2E2E2E2E2E2E2E2E2E2E2E2E2E2E2E2E2E2E2E2E2E2E2E2E2E2E2E2E2E2E2E2E2E2E2E2E2E2E2E2E2E2E2E2E2E2E2E2E2E2E2E2E2E2E2E2E2E2E2E2E2E2E2E2E2E2E2E2E2E2E2E2E2E2E2E2E2E2E2E2E2E2E2E2E2E2E2E2E2E2E2E2E2E2BEE2E2E2E2E2E2E2E2
310
DCE2E22DBEBEE2E2F5E228E22828E2E2E228E2E2E228E2E2E22828E2E2E228E228E2F5E2E2E2E2E22DE2E22DE2E2E2E2E2E2E22DE22DE2E2E22828E2E22828E2E22828F5E2E2E2E22DBEBE2DE22DE2E2E2DCE2E2BEE2E2E2E2E2E2E2E2E2E2E2E2E2E2E2E2E2E2E2E2E2E2E2E2E2E2E2E2E2E2E2E2E2E2E2E2E2E2E2E2E2E2
310
E2E2E2E2E2E2E2E2E2E2E2E2E2E2E2E2E2E2E2E2E2E2E2E2E2E2E2E2E2E2E2E2E2E2E2E2E2E2E2E2E2E2E2E2E2E2E2E2E2E2E2E2E2E2E2E2E2E2E2E2E2E2E2E2E2E2E2E2E2E2E2E2E2E2E2E2E2E2E2E2E2E2E2E2E2E2E2E2E2E2E2E2E2E2E2E2E2E2E2E2E2E2E2E2E2E2E2E2E2E2E2E2E2E2E2E2E2E2E2E2BEE2E2E2E2E2E2
310
E2E2DCE2E22DE22DE2E2F5E228E22828E2E2E228E2E2E228E2E2E22828E2E2E228E228E2F5E2E2E2E2E22DE2E22DE2E2E2E2E2E2E22DE22DE2E2E22828E2E22828E2E22828F5E2E2E2E22DBEBE2DE22DE2E2E2DCE2E2BEE2E2E2E2E2E2E2E2E2E2E2E2E2E2E2E2E2E2E2E2E2E2E2E2E2E2E2E2E2E2E2E2E2E2E2E2E2E2E2E2
310
E2E2E2E2E2E2E2E2E2E2E2E2E2E2E2E2E2E2E2E2E2E2E2E2E2E2E2E2E2E2E2E2E2E2E2E2E2E2E2E2E2E2E2E2E2E2E2E2E2E2E2E2E2E2E2E2E2E2E2E2E2E2E2E2E2E2E2E2E2E2E2E2E2E2E2E2E2E2E2E2E2E2E2E2E2E2E2E2E2E2E2E2E2E2E2E2E2E2E2E2E2E2E2E2E2E2E2E2E2E2E2E2E2E2E2E2E2E2E2E2E2E2BEE2E2E2E2
310
E2E2E2E2DCE2E22DE22DE2E2F5E228E22828E2E2E228E2E2E228E2E2E22828E2E2E228E228E2F5E2E2E2E2BEBEE2E22DE2E2E2E2E2E2E22DE22DE2E2E22828E2E22828E2E22828F5E2E2E2E22DBEBE2DE22DE2E2E2DCE2E2BEE2E2E2E2E2E2E2E2E2E2E2E2E2E2E2E2E2E2E2E2E2E2E2E2E2E2E2E2E2E2E2E2E2E2E2E2E2E2
310
E2E2E2E2E2E2E2E2E2E2E2E2E2E2E2E2E2E2E2E2E2E2E2E2E2E2E2E2E2E2E2E2E2E2E2E2E2E2E2E2E2E2E2E2E2E2E2E2E2E2E2E2E2E2E2E2E2E2E2E2E2E2E2E2E2E2E2E2E2E2E2E2E2E2E2E2E2E2E2E2E2E2E2E2E2E2E2E2E2E2E2E2E2E2E2E2E2E2E2E2E2E2E2E2E2E2E2E2E2E2E2E2E2E2E2E2E2E2E2E2E2E2E2E2BEE2E2
310
E2E2E2E2E2E2DCE2E22DE22DE2E2F5E2282828282828282828282828282828282828282828282828F5E2E2E2E2BEBEE2E22DE2E2E2E2E2E2E22DE22DE2E2E228282828282828282828F5E2E2E22D2DBEBE2DE22DE2E2E2DCE2E2BEE2E2E2E2E2E2E2E2E2E2E2E2E2E2E2E2E2E2E2E2E2E2E2E2E2E2E2E2E2E2E2E2E2E2E2E2
310
E2E2E2E2E2E2E2E2E2E2E2E2E2E2E2E2E2E2E2E2E2E2E2E2E2E2E2E2E2E2E2E2E2E2E2E2E2E2E2E2E2E2E2E2E2E2E2E2E2E2E2E2E2E2E2E2E2E2E2E2E2E2E2E2E2E2E2E2E2E2E2E2E2E2E2E2E2E2E2E2E2E2E2E2E2E2E2E2E2E2E2E2E2E2E2E2E2E2E2E2E2E2E2E2E2E2E2E2E2E2E2E2E2E2E2E2E2E2E2E2E2E2E2E2E2E2BE
310
E2E2E2E2E2E2E2E2DCBEBE2DE22DE2E2F5E228E22828E2E2E228E2E2E228E2E2E22828E2E2E228F5F5F5F5E2E2E2E2BEBEE2E22DE2E2E2E2E2E2E22DE22DE2E2E22828E2E22828E2E22828BEBE2D2D2D2DBEBE2DE22DE2E2E2DCE2E2BEE2E2E2E2E2E2E2E2E2E2E2E2E2E2E2E2E2E2E2E2E2E2E2E2E2E2E2E2E2E2E2E2E2E2
310
E2E2E2E2E2E2E2E2E2E2E2E2E2E2E2E2E2E2E2E2E2E2E2E2E2E2E2E2E2E2E2E2E2E2E2E2E2E2E2E2E2E2E2E2E2E2E2E2E2E2E2E2E2E2E2E2E2E2E2E2E2E2E2E2E2E2E2E2E2E2E2E2E2E2E2E2E2E2E2E2E2E2E2E2E2E2E2E2E2E2E2E2E2E2E2E2E2E2E2E2E2E2E2E2E2E2E2E2E2E2E2E2E2E2E2E2E2E2E2E2E2E2E2E2E2E2E2
310
E2BEE2E2E2E2E2E2E2E2DCBEBE2DE22DE2E2F5E228E22828E2E2E228E2E2E228E2E2E22828E2E2E228F5F5F5F5E2E2E2E2BEBEE2E22DE2E2E2E2E2E2E22DE22DE2E2E22828E2E22828E2E22828F5F5E2E2E2E2BEE22DE22DE2E2E2DCE2E2BEE2E2E2E2E2E2E2E2E2E2E2E2E2E2E2E2E2E2E2E2E2E2E2E2E2E2E2E2E2E2E2E2
310
E2E2E2E2E2E2E2E2E2E2E2E2E2E2E2E2E2E2E2E2E2E2E2E2E2E2E2E2E2E2E2E2E2E2E2E2E2E2E2E2E2E2E2E2E2E2E2E2E2E2E2E2E2E2E2E2E2E2E2E2E2E2E2E2E2E2E2E2E2E2E2E2E2E2E2E2E2E2E2E2E2E2E2E2E2E2E2E2E2E2E2E2E2E2E2E2E2E2E2E2E2E2E2E2E2E2E2E2E2E2E2E2E2E2E2E2E2E2E2E2E2E2E2E2E2E2E2
310
E2E2E2BEE2E2E2E2E2E2E2E2DCBEBE2DE22DE2E2F5E228E22828E2E2E228E2E2E228E2E2E22828E2E2E228E228E2F5E2E2E2E2BEBEE2E22DE2E2E2E2E2E2E22DE22DE2E2E22828E2E22828E2E22828F5E2E2E2E2E2BEBE2DE22DE2E2E2DCE2E2BEE2E2E2E2E2E2E2E2E2E2E2E2E2E2E2E2E2E2E2E2E2E2E2E2E2E2E2E2E2E2
310
E2E2E2E2E2E2E2E2E2E2E2E2E2E2E2E2E2E2E2E2E2E2E2E2E2E2E2E2E2E2E2E2E2E2E2E2E2E2E2E2E2E2E2E2E2E2E2E2E2E2E2E2E2E2E2E2E2E2E2E2E2E2E2E2E2E2E2E2E2E2E2E2E2E2E2E2E2E2E2E2E2E2E2E2E2E2E2E2E2E2E2E2E2E2E2E2E2E2E2E2E2E2E2E2E2E2E2E2E2E2E2E2E2E2E2E2E2E2E2E2E2E2E2E2E2E2E2
310
E2E2E2E2E2BEE2E2E2E2E2E2E2E2DCE2E22DE22DE2E2F5E2282828282828282828282828282828282828282828282828F5E2E2E2E2E22DE2E22DE2E2E2E2E2E2E22DE22DE2E2E228282828282828282828F5E2E2E2E2E2BEBE2DE22DE2E2E2DCE2E2BEE2E2E2E2E2E2E2E2E2E2E2E2E2E2E2E2E2E2E2E2E2E2E2E2E2E2E2E2
310
E2E2E2E2E2E2E2E2E2E2E2E2E2E2E2E2E2E2E2E2E2E2E2E2E2E2E2E2E2E2E2E2E2E2E2E2E2E2E2E2E2E2E2E2E2E2E2E2E2E2E2E2E2E2E2E2E2E2E2E2E2E2E2E2E2E2E2E2E2E2E2E2E2E2E2E2E2E2E2E2E2E2E2E2E2E2E2E2E2E2E2E2E2E2E2E2E2E2E2E2E2E2E2E2E2E2E2E2E2E2E2E2E2E2E2E2E2E2E2E2E2E2E2E2E2E2E2
310
E2E2E2E2E2E2E2BEE2E2E2E2E2E2E2E2DCE2E22DE22DE2E2F5E2282828282828282828282828282828282828282828282828F5E2E2E2E2E22DE2E22DE2E2E2E2E2E2E22DE22DE2E2E22828E2E22828E2E22828F5E2E2E2E2E2E2BE2DE22DE2E2E2DCE2E2BEE2E2E2E2E2E2E2E2E2E2E2E2E2E2E2E2E2E2E2E2E2E2E2E2E2E2
310
E2E2E2E2E2E2E2E2E2E2E2E2E2E2E2E2E2E2E2E2E2E2E2E2E2E2E2E2E2E2E2E2E2E2E2E2E2E2E2E2E2E2E2E2E2E2E2E2E2E2E2E2E2E2E2E2E2E2E2E2E2E2E2E2E2E2E2E2E2E2E2E2E2E2E2E2E2E2E2E2E2E2E2E2E2E2E2E2E2E2E2E2E2E2E2E2E2E2E2E2E2E2E2E2E2E2E2E2E2E2E2E2E2E2E2E2E2E2E2E2E2E2E2E2E2E2E2
310
E2E2E2E2E2E2E2E2E2BEE2E2E2E2E2E2E2E2DCE2E22DE22DE2E2F5E228E22828E2E2E228E2E2E228E2E2E22828E2E2E228E228E2F5E2E2E2E2E22DE2E22DE2E2E2E2E2E2E22DE22DE2E2E22828E2E22828E2E22828F5E2E2E2E2E2E2E22DE22DE2E2E2DCE2E2BEE2E2E2E2E2E2E2E2E2E2E2E2E2E2E2E2E2E2E2E2E2E2E2E2
310
E2E2E2E2E2E2E2E2E2E2E2E2E2E2E2E2E2E2E2E2E2E2E2E2E2E2E2E2E2E2E2E2E2E2E2E2E2E2E2E2E2E2E2E2E2E2E2E2E2E2E2E2E2E2E2E2E2E2E2E2E2E2E2E2E2E2E2E2E2E2E2E2E2E2E2E2E2E2E2E2E2E2E2E2E2E2E2E2E2E2E2E2E2E2E2E2E2E2E2E2E2E2E2E2E2E2E2E2E2E2E2E2E2E2E2E2E2E2E2E2E2E2E2E2E2E2E2
310
E2E2E2E2E2E2E2E2E2E2E2BEE2E2E2E2E2E2E2E2DCE2E22DE22DE2E2F5E228E22828E2E2E228E2E2E228E2E2E22828E2E2E228E228E2F5E2E2E2E2E22DE2E22DE2E2E2E2E2E2E22DE22DE2E2E22828E2E22828E2E22828F5E2E2E2E2E2E2E22DE22DE2E2E2DCE2E2BEE2E2E2E2E2E2E2E2E2E2E2E2E2E2E2E2E2E2E2E2E2E2
310
E2E2E2E2E2E2E2E2E2E2E2E2E2E2E2E2E2E2E2E2E2E2E2E2E2E2E2E2E2E2E2E2E2E2E2E2E2E2E2E2E2E2E2E2E2E2E2E2E2E2E2E2E2E2E2E2E2E2E2E2E2E2E2E2E2E2E2E2E2E2E2E2E2E2E2E2E2E2E2E2E2E2E2E2E2E2E2E2E2E2E2E2E2E2E2E2E2E2E2E2E2E2E2E2E2E2E2E2E2E2E2E2E2E2E2E2E2E2E2E2E2E2E2E2E2E2E2
310
E2E2E2E2E2E2E2E2E2E2E2E2E2BEE2E2E2E2E2E2E2E2DCE2E22DE22DE2E2F5E228E22828E2E2E228E2E2E228E2E2E22828E2E2E228E228E2F5E2E2E2E2E22DE2E22DE2E2E2E2E2E2E22DE22DE2E2E22828E2E22828E2E22828F5E2E2E2E2E2E2E22DE22DE2E2E2DCE2E2BEE2E2E2E2E2E2E2E2E2E2E2E2E2E2E2E2E2E2E2E2
310
E2E2E2E2E2E2E2E2E2E2E2E2E2E2E2E2E2E2E2E2E2E2E2E2E2E2E2E2E2E2E2E2E2E2E2E2E2E2E2E2E2E2E2E2E2E2E2E2E2E2E2E2E2E2E2E2E2E2E2E2E2E2E2E2E2E2E2E2E2E2E2E2E2E2E2E2E2E2E2E2E2E2E2E2E2E2E2E2E2E2E2E2E2E2E2E2E2E2E2E2E2E2E2E2E2E2E2E2E2E2E2E2E2E2E2E2E2E2E2E2E2E2E2E2E2E2E2
310
E2E2E2E2E2E2E2E2E2E2E2E2E2E2E2BEE2E2E2E2E2E2E2E2DCE2E22DE22DE2E2F5E2282828282828282828282828282828282828282828282828F5E2E2E2E2E22DE2E22DE2E2E2E2E2E2E22DE22DE2E2E228282828282828282828F5E2E2E2E2E2E2E22DE22DE2E2E2DCE2E2BEE2E2E2E2E2E2E2E2E2E2E2E2E2E2E2E2E2E2
310
E2E2E2E2E2E2E2E2E2E2E2E2E2E2E2E2E2E2E2E2E2E2E2E2E2E2E2E2E2E2E2E2E2E2E2E2E2E2E2E2E2E2E2E2E2E2E2E2E2E2E2E2E2E2E2E2E2E2E2E2E2E2E2E2E2E2E2E2E2E2E2E2E2E2E2E2E2E2E2E2E2E2E2E2E2E2E2E2E2E2E2E2E2E2E2E2E2E2E2E2E2E2E2E2E2E2E2E2E2E2E2E2E2E2E2E2E2E2E2E2E2E2E2E2E2E2E2
310
E2E2E2E2E2E2E2E2E2E2E2E2E2E2E2E2E2BEE2E2E2E2E2E2E2E2DCE2E22DE22DE2E2F5E2282828282828282828282828282828282828282828282828F5E2E2E2E2E22DE2E22DE2E2E2E2E2E2E22DE22DE2E2E2F5E2E2E2E2E2E2E2E2F5F5E2E2E2E2E2E2E22DE22DE2E2E2DCE2E2BEE2E2E2E2E2E2E2E2E2E2E2E2E2E2E2E2
310
E2E2E2E2E2E2E2E2E2E2E2E2E2E2E2E2E2E2E2E2E2E2E2E2E2E2E2E2E2E2E2E2E2E2E2E2E2E2E2E2E2E2E2E2E2E2E2E2E2E2E2E2E2E2E2E2E2E2E2E2E2E2E2E2E2E2E2E2E2E2E2E2E2E2E2E2E2E2E2E2E2E2E2E2E2E2E2E2E2E2E2E2E2E2E2E2E2E2E2E2E2E2E2E2E2E2E2E2E2E2E2E2E2E2E2E2E2E2E2E2E2E2E2E2E2E2E2
310
E2E2E2E2E2E2E2E2E2E2E2E2E2E2E2E2E2E2E2BEE2E2E2E2E2E2E2E2DCE2E22DE22DE2E2F5E2E2E2E2E2E2E2E2E2E2E2E2E2E2E2E2E2E2E2E2E2E2E2E2E2F5E2E2E2E2E22DE2E22DE2E2E2E2E2E2E22DE22DE2E2E2F5E2E2E2E2E2E22828F5F5E2E2E2E2E2E2E22DE22DE2E2E2DCE2E2BEE2E2E2E2E2E2E2E2E2E2E2E2E2E2
310
E2E2E2E2E2E2E2E2E2E2E2E2E2E2E2E2E2E2E2E2E2E2E2E2E2E2E2E2E2E2E2E2E2E2E2E2E2E2E2E2E2E2E2E2E2E2E2E2E2E2E2E2E2E2E2E2E2E2E2E2E2E2E2E2E2E2E2E2E2E2E2E2E2E2E2E2E2E2E2E2E2E2E2E2E2E2E2E2E2E2E2E2E2E2E2E2E2E2E2E2E2E2E2E2E2E2E2E2E2E2E2E2E2E2E2E2E2E2E2E2E2E2E2E2E2E2E2
310
E2E2E2E2E2E2E2E2E2E2E2E2E2E2E2E2E2E2E2E2E2BEE2E2E2E2E2E2E2E2DCE2E22DE22DE2E2F5E2E2E2E2E2E2E2E2E2E2E2E2E2E2E2E2E2E2E2E2E2E2E2E2E2F5E2E2E2E2E22DE2E22DE2E2E2E2E2E2E22DE22DE2E2E2F5E2E2E2E2E2E2E228F5F5E2E2E2E2E2E2E22DE22DE2E2E2DCE2E2BEE2E2E2E2E2E2E2E2E2E2E2E2
310
E2E2E2E2E2E2E2E2E2E2E2E2E2E2E2E2E2E2E2E2E2E2E2E2E2E2E2E2E2E2E2E2E2E2E2E2E2E2E2E2E2E2E2E2E2E2E2E2E2E2E2E2E2E2E2E2E2E2E2E2E2E2E2E2E2E2E2E2E2E2E2E2E2E2E2E2E2E2E2E2E2E2E2E2E2E2E2E2E2E2E2E2E2E2E2E2E2E2E2E2E2E2E2E2E2E2E2E2E2E2E2E2E2E2E2E2E2E2E2E2E2E2E2E2E2E2E2
310
E2E2E2E2E2E2E2E2E2E2E2E2E2E2E2E2E2E2E2E2E2E2E2BEE2E2E2E2E2E2E2E2DCE2E22DE22DE2E2F5E2E2E2E2E2E2E2E2E2E2E2E2E2E2E2E2E2E2E2E2E2E2E2E2E2F5E2E2E2E2E22DE2E22DE2E2E2E2E2E2E22DE22DE2E2E2F5E2E2E2E2E2E2E2E2F528E2E2E2E2E2E2E22DE22DE2E2E2DCE2E2BEE2E2E2E2E2E2E2E2E2E2
310
E2E2E2E2E2E2E2E2E2E2E2E2E2E2E2E2E2E2E2E2E2E2E2E2E2E2E2E2E2E2E2E2E2E2E2E2E2E2E2E2E2E2E2E2E2E2E2E2E2E2E2E2E2E2E2E2E2E2E2E2E2E2E2E2E2E2E2E2E2E2E2E2E2E2E2E2E2E2E2E2E2E2E2E2E2E2E2E2E2E2E2E2E2E2E2E2E2E2E2E2E2E2E2E2E2E2E2E2E2E2E2E2E2E2E2E2E2E2E2E2E2E2E2E2E2E2E2
310
E2E2E2E2E2E2E2E2E2E2E2E2E2E2E2E2E2E2E2E2E2E2E2E2E2BEE2E2E2E2E2E2E2E2DCE2E22DE2F52D2D2DF5F5F5F5F5F5F5F5F5F5F5F5F5F5F5F5F5F5F5F5F5F5F5F5F5F5E2E2E2E2E22DE2E22DE2E2E2E2E2E2E22DE22DE2E2E2F5E2E2E2E2E2E2E228F528E2E2E2E2E2E2E22DE22DE2E2E2DCE2E2BEE2E2E2E2E2E2E2E2
310
E2E2E2E2E2E2E2E2E2E2E2E2E2E2E2E2E2E2E2E2E2E2E2E2E2E2E2E2E2E2E2E2E2E2E2E2E2E2E2E2E2E2E2E2E2E2E2E2E2E2E2E2E2E2E2E2E2E2E2E2E2E2E2E2E2E2E2E2E2E2E2E2E2E2E2E2E2E2E2E2E2E2E2E2E2E2E2E2E2E2E2E2E2E2E2E2E2E2E2E2E2E2E2E2E2E2E2E2E2E2E2E2E2E2E2E2E2E2E2E2E2E2E2E2E2E2E2
310
E2E2E2E2E2E2E2E2E2E2E2E2E2E2E2E2E2E2E2E2E2E2E2E2E2E2E2BEE2E2E2E2E2E2E2E2DCE2E22DE22DE2E2F5F5E2E2E2E2E2E2E2E2E2E2E2E2E2E2E2E2E2E2E2E2E2E2E2F5F5E2E2E2E2E22DE2E22DE2E2E2E2E2E2E22DE22DE2E2E2F5E2E2E2E2E2E2E2E2F5F5E2E2E2E2E2E2E22DE22DE2E2E2DCE2E2BEE2E2E2E2E2E2
310
E2E2E2E2E2E2E2E2E2E2E2E2E2E2E2E2E2E2E2E2E2E2E2E2E2E2E2E2E2E2E2E2E2E2E2E2E2E2E2E2E2E2E2E2E2E2E2E2E2E2E2E2E2E2E2E2E2E2E2E2E2E2E2E2E2E2E2E2E2E2E2E2E2E2E2E2E2E2E2E2E2E2E2E2E2E2E2E2E2E2E2E2E2E2E2E2E2E2E2E2E2E2E2E2E2E2E2E2E2E2E2E2E2E2E2E2E2E2E2E2E2E2E2E2E2E2E2
310
E2E2E2E2E2E2E2E2E2E2E2E2E2E2E2E2E2E2E2E2E2E2E2E2E2E2E2E2E2BEE2E2E2E2E2E2E2E2DCE2E22DE22DE2E2F5F5E2E2E2E2E2E2E2E2E2E2E2E2E2E2E2E2E2E2E2E2E2E2E2F5F5E2E2E2E2E22DE2E22DE2E2E2E2E2E2E22DE22DE2E2E2F5E2E2E2E2E2E2E2E2F5F5E2E2E2E2E2E2E22DE22DE2E2E2DCE2E2BEE2E2E2E2
310
E2E2E2E2E2E2E2E2E2E2E2E2E2E2E2E2E2E2E2E2E2E2E2E2E2E2E2E2E2E2E2E2E2E2E2E2E2E2E2E2E2E2E2E2E2E2E2E2E2E2E2E2E2E2E2E2E2E2E2E2E2E2E2E2E2E2E2E2E2E2E2E2E2E2E2E2E2E2E2E2E2E2E2E2E2E2E2E2E2E2E2E2E2E2E2E2E2E2E2E2E2E2E2E2E2E2E2E2E2E2E2E2E2E2E2E2E2E2E2E2E2E2E2E2E2E2E2
310
E2E2E2E2E2E2E2E2E2E2E2E2E2E2E2E2E2E2E2E2E2E2E2E2E2E2E2E2E2E2E2BEE2E2E2E2E2E2E2E2DCE2E22DE22DE2E2F5F5E2E2E2E2E2E2E2E2E2E2E2E2E2E2E2E2E2E2E2E2E2E2E2F5F5E2E2E2E2E22DE2E22DE2E2E2E2E2E2E22DE22DE2E2E2F5E2E2E2E2E2E2E2E2F5F5E2E2E2E2E2E2E22DE22DE2E2E2DCE2E2BEE2E2
310
E2E2E2E2E2E2E2E2E2E2E2E2E2E2E2E2E2E2E2E2E2E2E2E2E2E2E2E2E2E2E2E2E2E2E2E2E2E2E2E2E2E2E2E2E2E2E2E2E2E2E2E2E2E2E2E2E2E2E2E2E2E2E2E2E2E2E2E2E2E2E2E2E2E2E2E2E2E2E2E2E2E2E2E2E2E2E2E2E2E2E2E2E2E2E2E2E2E2E2E2E2E2E2E2E2E2E2E2E2E2E2E2E2E2E2E2E2E2E2E2E2E2E2E2E2E2E2
310
E2E2E2E2E2E2E2E2E2E2E2E2E2E2E2E2E2E2E2E2E2E2E2E2E2E2E2E2E2E2E2E2E2BEE2E2E2E2E2E2E2E2DCE2E22DBEBEE2E2F5F5E2E2E2E2E2E2E2E2E2E2E2E2E2E2E2E2E2E2E2E2E2E2E2F5F5E2E2E2E2E22DE2E22DE2E2E2E2E2E2E22DE22DE2E2E2F5E2E2E2E2E2E2E2E2F5F5E2E2E2E2E2E2E22DE22DE2E2E2DCE2E2BE
310
E2E2E2E2E2E2E2E2E2E2E2E2E2E2E2E2E2E2E2E2E2E2E2E2E2E2E2E2E2E2E2E2E2E2E2E2E2E2E2E2E2E2E2E2E2E2E2E2E2E2E2E2E2E2E2E2E2E2E2E2E2E2E2E2E2E2E2E2E2E2E2E2E2E2E2E2E2E2E2E2E2E2E2E2E2E2E2E2E2E2E2E2E2E2E2E2E2E2E2E2E2E2E2E2E2E2E2E2E2E2E2E2E2E2E2E2E2E2E2E2E2E2E2E2E2E2E2
310
E2E2E2E2E2E2E2E2E2E2E2E2E2E2E2E2E2E2E2E2E2E2E2E2E2E2E2E2E2E2E2E2E2E2E2BEE2E2E2E2E2E2E2E2DCE2E22DBEBEE2E2F5F52D2D2D2D2D2D2D2D2D2DBEBEBE2D2D2D2D2D2D2D2D2D2DF5F52DBEBEE2E22DBEBE2DE2E2E2E2E2BEBE2DBEBEE2E2E2F5E2E2E2E2E2E2E2E2F5F5E2E2E2E2E2E2E22DBEBEE2E2E2DCE2
310
E2BEE2E2E2E2E2E2E2E2E2E2E2E2E2E2E2E2E2E2E2E2E2E2E2E2E2E2E2E2E2E2E2E2E2E2E2E2E2E2E2E2E2E2E2E2E2E2E2E2E2E2E2E2E2E2E2E2E2E2E2E2E2E2E2E2E2E2E2E2E2E2E2E2E2E2E2E2E2E2E2E2E2E2E2E2E2E2E2E2E2E2E2E2E2E2E2E2E2E2E2E2E2E2E2E2E2E2E2E2E2E2E2E2E2E2E2E2E2E2E2E2E2E2E2E2E2
310
E2E2E2E2E2E2E2E2E2E2E2E2E2E2E2E2E2E2E2E2E2E2E2E2E2E2E2E2E2E2E2E2E2E2E2E2E2BEE2E2E2E2E2E2E2E2DCE2E22DBEBEE2E2F5F5E2E2E2E2E2E2E2E2E2E2BEBEBEBEE2E2E2E2E2E2E2E2E2F5F5E2BEBEE2E22DBEBE2DE2E2E2E2E2BEBE2DBEBEE2E2E2F5E2E2E2E2E2E2E2E2F5F5E2E2E2E2E2E2E22DBEBEE2E2E2
310
DCE2E2BEE2E2E2E2E2E2E2E2E2E2E2E2E2E2E2E2E2E2E2E2E2E2E2E2E2E2E2E2E2E2E2E2E2E2E2E2E2E2E2E2E2E2E2E2E2E2E2E2E2E2E2E2E2E2E2E2E2E2E2E2E2E2E2E2E2E2E2E2E2E2E2E2E2E2E2E2E2E2E2E2E2E2E2E2E2E2E2E2E2E2E2E2E2E2E2E2E2E2E2E2E2E2E2E2E2E2E2E2E2E2E2E2E2E2E2E2E2E2E2E2E2E2E2
310
E2E2E2E2E2E2E2E2E2E2E2E2E2E2E2E2E2E2E2E2E2E2E2E2E2E2E2E2E2E2E2E2E2E2E2E2E2E2E2BEE2E2E2E2E2E2E2E2DCE2E22DBEBEE2E2F5F5E2E2E2E2E2E2E2E2E2E2E2E2E2E2E2E2E2E2E2E2E2E2E2F5F5E2E2E2E2E22DBEBE2DE2E2E2E2E2BEBE2DBEBEE2E2E2F5E2E2E2E2E2E2E2E2F5F5E2E2E2E2E2E2E22DBEBEE2
310
E2E2DCE2E2BEE2E2E2E2E2E2E2E2E2E2E2E2E2E2E2E2E2E2E2E2E2E2E2E2E2E2E2E2E2E2E2E2E2E2E2E2E2E2E2E2E2E2E2E2E2E2E2E2E2E2E2E2E2E2E2E2E2E2E2E2E2E2E2E2E2E2E2E2E2E2E2E2E2E2E2E2E2E2E2E2E2E2E2E2E2E2E2E2E2E2E2E2E2E2E2E2E2E2E2E2E2E2E2E2E2E2E2E2E2E2E2E2E2E2E2E2E2E2E2E2E2
310
E2E2E2E2E2E2E2E2E2E2E2E2E2E2E2E2E2E2E2E2E2E2E2E2E2E2E2E2E2E2E2E2E2E2E2E2E2E2E2E2E2BEE2E2E2E2E2E2E2E2DCE2E22DE22DE2E2F5F5E2E2E2E2E2E2E2E2E2E2E2E2E2E2E2E2E2E2E2E2E2E2E2F5F5E2E2E2E2E22DBEBE2DE2E2E2E2E2BEBE2DBEBEE2E2E2F5E2E2E2E2E2E2E2E2F5F5E2E2E2E2E2E2E22DBE
310
BEE2E2E2DCE2E2BEE2E2E2E2E2E2E2E2E2E2E2E2E2E2E2E2E2E2E2E2E2E2E2E2E2E2E2E2E2E2E2E2E2E2E2E2E2E2E2E2E2E2E2E2E2E2E2E2E2E2E2E2E2E2E2E2E2E2E2E2E2E2E2E2E2E2E2E2E2E2E2E2E2E2E2E2E2E2E2E2E2E2E2E2E2E2E2E2E2E2E2E2E2E2E2E2E2E2E2E2E2E2E2E2E2E2E2E2E2E2E2E2E2E2E2E2E2E2E2
310
E2E2E2E2E2E2E2E2E2E2E2E2E2E2E2E2E2E2E2E2E2E2E2E2E2E2E2E2E2E2E2E2E2E2E2E2E2E2E2E2E2E2E2BEE2E2E2E2E2E2E2E2DCE2E22DE22DE2E2F5F5E2E2E2E2E2E2E2E2E2E2E2E2E2E2E2E2E2E2E2E2E2E2E2F5F5E2E2E2E2E22DE2E22DE2E2E2E2E2E2E22DE22DE2E2E2F5E2E2E2E2E2E2E2E2F5F5E2E2E2E2E2E2E2
310
2DE22DE2E2E2DCE2E2BEE2E2E2E2E2E2E2E2E2E2E2E2E2E2E2E2E2E2E2E2E2E2E2E2E2E2E2E2E2E2E2E2E2E2E2E2E2E2E2E2E2E2E2E2E2E2E2E2E2E2E2E2E2E2E2E2E2E2E2E2E2E2E2E2E2E2E2E2E2E2E2E2E2E2E2E2E2E2E2E2E2E2E2E2E2E2E2E2E2E2E2E2E2E2E2E2E2E2E2E2E2E2E2E2E2E2E2E2E2E2E2E2E2E2E2E2E2
310
E2E2E2E2E2E2E2E2E2E2E2E2E2E2E2E2E2E2E2E2E2E2E2E2E2E2E2E2E2E2E2E2E2E2E2E2E2E2E2E2E2E2E2E2E2BEE2E2E2E2E2E2E2E2DCE2E22DE22DE2E2F5F5E2E2E2E2E2E2E2E2E2E2E2E2E2E2E2E2E2E2E2E2E2E2E2F5F5E2E2E2BEBEBEE2E22DE2E2E2E2E2E2E22DE22DE2E2E2F5E2E2E2E2E2E2E2E2F5F5E2E2E2E2E2
310
E2E22DE22DE2E2E2DCE2E2BEE2E2E2E2E2E2E2E2E2E2E2E2E2E2E2E2E2E2E2E2E2E2E2E2E2E2E2E2E2E2E2E2E2E2E2E2E2E2E2E2E2E2E2E2E2E2E2E2E2E2E2E2E2E2E2E2E2E2E2E2E2E2E2E2E2E2E2E2E2E2E2E2E2E2E2E2E2E2E2E2E2E2E2E2E2E2E2E2E2E2E2E2E2E2E2E2E2E2E2E2E2E2E2E2E2E2E2E2E2E2E2E2E2E2E2
310
E2E2E2E2E2E2E2E2E2E2E2E2E2E2E2E2E2E2E2E2E2E2E2E2E2E2E2E2E2E2E2E2E2E2E2E2E2E2E2E2E2E2E2E2E2E2E2BEE2E2E2E2E2E2E2E2DCE2E22DBEBE2D2D2DF5F5F5F5F5F5F5F5F5F5F5F5F5F5F5F5F5F5F5F5F5F5F5F5F5F5E2E2E2BEBE2DE2E22DE2E2E2E2E2E2E22DE22DE2E2E2F5E2E2E2E2E2E2E2E2F5F5E2E2E2
310
E2E2E2E22DE22DE2E2E2DCE2E2BEE2E2E2E2E2E2E2E2E2E2E2E2E2E2E2E2E2E2E2E2E2E2E2E2E2E2E2E2E2E2E2E2E2E2E2E2E2E2E2E2E2E2E2E2E2E2E2E2E2E2E2E2E2E2E2E2E2E2E2E2E2E2E2E2E2E2E2E2E2E2E2E2E2E2E2E2E2E2E2E2E2E2E2E2E2E2E2E2E2E2E2E2E2E2E2E2E2E2E2E2E2E2E2E2E2E2E2E2E2E2E2E2E2
310
E2E2E2E2E2E2E2E2E2E2E2E2E2E2E2E2E2E2E2E2E2E2E2E2E2E2E2E2E2E2E2E2E2E2E2E2E2E2E2E2E2E2E2E2E2E2E2E2E2BEE2E2E2E2E2E2E2E2DCE2E22DBEBEE2E2F5E2E2E2E2E2E2E2E2E2E2E2E2E2E2E2E2E2E2E2E2E2E2E2E2E2F5E2E2E2E2E22DE2E22DE2E2E2E2E2E2E22DE22DE2E2E2F5E2E2E2E2E2E2E2E2F5F5E2
310
E2E2E2E2E2E22DE22DE2E2E2DCE2E2BEE2E2E2E2E2E2E2E2E2E2E2E2E2E2E2E2E2E2E2E2E2E2E2E2E2E2E2E2E2E2E2E2E2E2E2E2E2E2E2E2E2E2E2E2E2E2E2E2E2E2E2E2E2E2E2E2E2E2E2E2E2E2E2E2E2E2E2E2E2E2E2E2E2E2E2E2E2E2E2E2E2E2E2E2E2E2E2E2E2E2E2E2E2E2E2E2E2E2E2E2E2E2E2E2E2E2E2E2E2E2E2
310
E2E2E2E2E2E2E2E2E2E2E2E2E2E2E2E2E2E2E2E2E2E2E2E2E2E2E2E2E2E2E2E2E2E2E2E2E2E2E2E2E2E2E2E2E2E2E2E2E2E2E2BEE2E2E2E2E2E2E2E2DCE2E22DE2F52D2DF5F5F5F5F5F5F5F5F5F5F5F5F5F5F5F5F5F5F5F5F5F5F5F5F5F5F52D2D2D2D2DF52DE22DE2E2E2E2E2E2E22DE22DE2E2E2F5E2E2E2E2E2E2E2E2F5
310
F52D2D2D2D2D2D2DF5E22DE2E2E2DCE2E2BEE2E2E2E2E2E2E2E2E2E2E2E2E2E2E2E2E2E2E2E2E2E2E2E2E2E2E2E2E2E2E2E2E2E2E2E2E2E2E2E2E2E2E2E2E2E2E2E2E2E2E2E2E2E2E2E2E2E2E2E2E2E2E2E2E2E2E2E2E2E2E2E2E2E2E2E2E2E2E2E2E2E2E2E2E2E2E2E2E2E2E2E2E2E2E2E2E2E2E2E2E2E2E2E2E2E2E2E2E2
310
E2E2E2E2E2E2E2E2E2E2E2E2E2E2E2E2E2E2E2E2E2E2E2E2E2E2E2E2E2E2E2E2E2E2E2E2E2E2E2E2E2E2E2E2E2E2E2E2E2E2E2E2E2BEE2E2E2E2E2E2E2E2DCE2E22DE22DE2E2F5E2E2E2E2E2E2E2E2E2E2E2E2E2E2E2E2E2E2E2E2E2E2E2E2E2F5E2E2E2E2E22DE2E22DE2E2E2E2E2E2E22DE22DE2E2E2F5E2E2E2E2E2E2E2
310
E2F5F5E2E2E2E2E2BEBE2DE22DE2E2E2DCE2E2BEE2E2E2E2E2E2E2E2E2E2E2E2E2E2E2E2E2E2E2E2E2E2E2E2E2E2E2E2E2E2E2E2E2E2E2E2E2E2E2E2E2E2E2E2E2E2E2E2E2E2E2E2E2E2E2E2E2E2E2E2E2E2E2E2E2E2E2E2E2E2E2E2E2E2E2E2E2E2E2E2E2E2E2E2E2E2E2E2E2E2E2E2E2E2E2E2E2E2E2E2E2E2E2E2E2E2E2
310
E2E2E2E2E2E2E2E2E2E2E2E2E2E2E2E2E2E2E2E2E2E2E2E2E2E2E2E2E2E2E2E2E2E2E2E2E2E2E2E2E2E2E2E2E2E2E2E2E2E2E2E2E2E2E2BEE2E2E2E2E2E2E2E2DCE22D2D2D2D2D2D2DF5F5F5F5F5F5F5F5F5F5F5F5F5F5F5F5F5F5F5F5F5F5F5F5F5F5E2E2E2E2E22DE2E22DE2E2E2E2E2E2E22DE22DE2E2E2F5E2E2E2E2E2
310
E2E2282828E2E2E2E2E2E2E22DE22DE2E2E2DCE2E2BEE2E2E2E2E2E2E2E2E2E2E2E2E2E2E2E2E2E2E2E2E2E2E2E2E2E2E2E2E2E2E2E2E2E2E2E2E2E2E2E2E2E2E2E2E2E2E2E2E2E2E2E2E2E2E2E2E2E2E2E2E2E2E2E2E2E2E2E2E2E2E2E2E2E2E2E2E2E2E2E2E2E2E2E2E2E2E2E2E2E2E2E2E2E2E2E2E2E2E2E2E2E2E2E2E2
310
E2E2E2E2E2E2E2E2E2E2E2E2E2E2E2E2E2E2E2E2E2E2E2E2E2E2E2E2E2E2E2E2E2E2E2E2E2E2E2E2E2E2E2E2E2E2E2E2E2E2E2E2E2E2E2E2E2BEE2E2E2E2E2E2E2E2DCE2E22DE2E2E2E2F5F5E2E2E2E2E2E2E2E2E2E2E2E2E2E2E2E2E2E2E2E2E2E2E2F5F5E2E2E2E2E22DE2E22DE2E2E2E2E2E2E22DE22DE2E2E2F5E2E2E2
310
E228282828F5F5E2E2E2E2E2E2E22DE22DE2E2E2DCE2E2BEE2E2E2E2E2E2E2E2E2E2E2E2E2E2E2E2E2E2E2E2E2E2E2E2E2E2E2E2E2E2E2E2E2E2E2E2E2E2E2E2E2E2E2E2E2E2E2E2E2E2E2E2E2E2E2E2E2E2E2E2E2E2E2E2E2E2E2E2E2E2E2E2E2E2E2E2E2E2E2E2E2E2E2E2E2E2E2E2E2E2E2E2E2E2E2E2E2E2E2E2E2E2E2
310
E2E2E2E2E2E2E2E2E2E2E2E2E2E2E2E2E2E2E2E2E2E2E2E2E2E2E2E2E2E2E2E2E2E2E2E2E2E2E2E2E2E2E2E2E2E2E2E2E2E2E2E2E2E2E2E2E2E2E2BEE2E2E2E2E2E2E2E2DCE2E22DE2E2E2E2F5F5E2E2E2E2E2E2E2E2E2E2E2E2E2E2E2E2E2E2E2E2E2E2E2F5F5E2E2E2E2E22DE2E22DE2E2E2E2E2E2E22DE22DE2E2E2F5E2
310
28282828E2E2E2F5F5E2E2E2E2E2E2E22DE22DE2E2E2DCE2E2BEE2E2E2E2E2E2E2E2E2E2E2E2E2E2E2E2E2E2E2E2E2E2E2E2E2E2E2E2E2E2E2E2E2E2E2E2E2E2E2E2E2E2E2E2E2E2E2E2E2E2E2E2E2E2E2E2E2E2E2E2E2E2E2E2E2E2E2E2E2E2E2E2E2E2E2E2E2E2E2E2E2E2E2E2E2E2E2E2E2E2E2E2E2E2E2E2E2E2E2E2E2
310
E2E2E2E2E2E2E2E2E2E2E2E2E2E2E2E2E2E2E2E2E2E2E2E2E2E2E2E2E2E2E2E2E2E2E2E2E2E2E2E2E2E2E2E2E2E2E2E2E2E2E2E2E2E2E2E2E2E2E2E2E2BEE2E2E2E2E2E2E2E2DCE2E22DE2E2E2E2F5F5F5F5F5F5F5F5F5F5F5F5F5F5F5F5F5F5F5F5F5F5F5F5F5F5F5E2E2E2E2E22DE2E22DE2E2E2E2E2E2E22DE22DE2E2E2
310
2828E2E2E2E2E2E2E2F5F5E2E2E2E2E2E2E22DE22DE2E2E2DCE2E2BEE2E2E2E2E2E2E2E2E2E2E2E2E2E2E2E2E2E2E2E2E2E2E2E2E2E2E2E2E2E2E2E2E2E2E2E2E2E2E2E2E2E2E2E2E2E2E2E2E2E2E2E2E2E2E2E2E2E2E2E2E2E2E2E2E2E2E2E2E2E2E2E2E2E2E2E2E2E2E2E2E2E2E2E2E2E2E2E2E2E2E2E2E2E2E2E2E2E2E2
310
E2E2E2E2E2E2E2E2E2E2E2E2E2E2E2E2E2E2E2E2E2E2E2E2E2E2E2E2E2E2E2E2E2E2E2E2E2E2E2E2E2E2E2E2E2E2E2E2E2E2E2E2E2E2E2E2E2E2E2E2E2E2E2BEE2E2E2E2E2E2E2E2DCBEBE2DE2E2E2E2F5F5E2E2E2E2E2E2E2E2E2E2E2E2E2E2E2E2E2E2E2E2E2E2E2F5F5E2E2E2E2E22DE2E22DE2E2E2E2E2E2E22DE22DE2
310
E2E228E2E2E2E2E2E2E2E2F5F5E2E2E2E2E2E2E22DE22DE2E2E2DCE2E2BEE2E2E2E2E2E2E2E2E2E2E2E2E2E2E2E2E2E2E2E2E2E2E2E2E2E2E2E2E2E2E2E2E2E2E2E2E2E2E2E2E2E2E2E2E2E2E2E2E2E2E2E2E2E2E2E2E2E2E2E2E2E2E2E2E2E2E2E2E2E2E2E2E2E2E2E2E2E2E2E2E2E2E2E2E2E2E2E2E2E2E2E2E2E2E2E2E2
310
E2E2E2E2E2E2E2E2E2E2E2E2E2E2E2E2E2E2E2E2E2E2E2E2E2E2E2E2E2E2E2E2E2E2E2E2E2E2E2E2E2E2E2E2E2E2E2E2E2E2E2E2E2E2E2E2E2E2E2E2E2E2E2E2E2BEE2E2E2E2E2E2E2E2DCBEBE2DE2E2E2E2F5F5E2E2E2E2E2E2E2E2E2E2E2E2E2E2E2E2E2E2E2E2E2E2E2F5F5E2E2E2E2E22DE2E22DE2E2E2E2E2E2E22DE2
310
2DE2E2E228E2E2E2E2E2E2E2E2F5F5E2E2E2E2E2E2E22DE22DE2E2E2DCE2E2BEE2E2E2E2E2E2E2E2E2E2E2E2E2E2E2E2E2E2E2E2E2E2E2E2E2E2E2E2E2E2E2E2E2E2E2E2E2E2E2E2E2E2E2E2E2E2E2E2E2E2E2E2E2E2E2E2E2E2E2E2E2E2E2E2E2E2E2E2E2E2E2E2E2E2E2E2E2E2E2E2E2E2E2E2E2E2E2E2E2E2E2E2E2E2E2
310
E2E2E2E2E2E2E2E2E2E2E2E2E2E2E2E2E2E2E2E2E2E2E2E2E2E2E2E2E2E2E2E2E2E2E2E2E2E2E2E2E2E2E2E2E2E2E2E2E2E2E2E2E2E2E2E2E2E2E2E2E2E2E2E2E2E2E2BEE2E2E2E2E2E2E2E2DCBEBE2DE2E2E2E2F5F5E2E2E2E2E2E2E2E2E2E2E2E2E2E2E2E2E2E2E2E2E2E2E2F5F5E2E2E2E2E22DE2E22DE2E2E2E2E2E2E2
310
2DE22DE2E2E228E2E2E2E2E2E2E2E2F5F5E2E2E2E2E2E2E22DE22DE2E2E2DCE2E2BEE2E2E2E2E2E2E2E2E2E2E2E2E2E2E2E2E2E2E2E2E2E2E2E2E2E2E2E2E2E2E2E2E2E2E2E2E2E2E2E2E2E2E2E2E2E2E2E2E2E2E2E2E2E2E2E2E2E2E2E2E2E2E2E2E2E2E2E2E2E2E2E2E2E2E2E2E2E2E2E2E2E2E2E2E2E2E2E2E2E2E2E2E2
310
E2E2E2E2E2E2E2E2E2E2E2E2E2E2E2E2E2E2E2E2E2E2E2E2E2E2E2E2E2E2E2E2E2E2E2E2E2E2E2E2E2E2E2E2E2E2E2E2E2E2E2E2E2E2E2E2E2E2E2E2E2E2E2E2E2E2E2E2E2BEE2E2E2E2E2E2E2E2DCBEBE2DE2E2E2E2F5F5E2E2E2E2E2E2E2E2E2E2E2E2E2E2E2E2E2E2E2E2E2E2E2F5F5E2E2E2E2E22DE2E22DE2E2E2E2E2
310
E2E22DE22DE2E2E228E2E2E2E2E2E2E2E2F5F5E2E2E2E2E2E2E22DE22DE2E2E2DCE2E2BEE2E2E2E2E2E2E2E2E2E2E2E2E2E2E2E2E2E2E2E2E2E2E2E2E2E2E2E2E2E2E2E2E2E2E2E2E2E2E2E2E2E2E2E2E2E2E2E2E2E2E2E2E2E2E2E2E2E2E2E2E2E2E2E2E2E2E2E2E2E2E2E2E2E2E2E2E2E2E2E2E2E2E2E2E2E2E2E2E2E2E2
310
E2E2E2E2E2E2E2E2E2E2E2E2E2E2E2E2E2E2E2E2E2E2E2E2E2E2E2E2E2E2E2E2E2E2E2E2E2E2E2E2E2E2E2E2E2E2E2E2E2E2E2E2E2E2E2E2E2E2E2E2E2E2E2E2E2E2E2E2E2E2E2BEE2E2E2E2E2E2E2E2DCE2E22DE2E2E2E2F5F5F5F5F5F5F5F5F5F5F5F5F5F5F5F5F5F5F5F5F5F5F5F5F5F5F5E2E2E2E2E22DE2E22DE2E2E2
310
E2E2E2E22DE22DE2E2E228E2E2E2E2E2E2E2E2F5F5E2E2E2E2E2E2E22DE22DE2E2E2DCE2E2BEE2E2E2E2E2E2E2E2E2E2E2E2E2E2E2E2E2E2E2E2E2E2E2E2E2E2E2E2E2E2E2E2E2E2E2E2E2E2E2E2E2E2E2E2E2E2E2E2E2E2E2E2E2E2E2E2E2E2E2E2E2E2E2E2E2E2E2E2E2E2E2E2E2E2E2E2E2E2E2E2E2E2E2E2E2E2E2E2E2
310
E2E2E2E2E2E2E2E2E2E2E2E2E2E2E2E2E2E2E2E2E2E2E2E2E2E2E2E2E2E2E2E2E2E2E2E2E2E2E2E2E2E2E2E2E2E2E2E2E2E2E2E2E2E2E2E2E2E2E2E2E2E2E2E2E2E2E2E2E2E2E2E2E2BEE2E2E2E2E2E2E2E2DCE2E22DE2E2E2E2F52828E2E2E2E2E2E2F5F5F5F5F5F5F5F5F5F5E2E2E2E2E2E2F5F5E2E2E2E2E22DE2E22DE2
310
E2E2E2E2E2E22DE22DE2E2E2F528282828E2E2E2E2F5F5E2E2E2E2E2E2E22DE22DE2E2E2DCE2E2BEE2E2E2E2E2E2E2E2E2E2E2E2E2E2E2E2E2E2E2E2E2E2E2E2E2E2E2E2E2E2E2E2E2E2E2E2E2E2E2E2E2E2E2E2E2E2E2E2E2E2E2E2E2E2E2E2E2E2E2E2E2E2E2E2E2E2E2E2E2E2E2E2E2E2E2E2E2E2E2E2E2E2E2E2E2E2E2
310
E2E2E2E2E2E2E2E2E2E2E2E2E2E2E2E2E2E2E2E2E2E2E2E2E2E2E2E2E2E2E2E2E2E2E2E2E2E2E2E2E2E2E2E2E2E2E2E2E2E2E2E2E2E2E2E2E2E2E2E2E2E2E2E2E2E2E2E2E2E2E2E2E2E2E2BEE2E2E2E2E2E2E2E2DCE2E22DE2E2E2E2F5F5F5F5F5F5F5F5F5F5F5F5F5F5F5F5F5F5F5F5F5F5F5F5F5F5F5E2E2E2E2E22DE2E2
310
2DE2E2E2E2E2E2E22DE22DE2E2E2F5E2E2E228282828E2F5F5E2E2E2E2E2E2E22DE22DE2E2E2DCE2E2BEE2E2E2E2E2E2E2E2E2E2E2E2E2E2E2E2E2E2E2E2E2E2E2E2E2E2E2E2E2E2E2E2E2E2E2E2E2E2E2E2E2E2E2E2E2E2E2E2E2E2E2E2E2E2E2E2E2E2E2E2E2E2E2E2E2E2E2E2E2E2E2E2E2E2E2E2E2E2E2E2E2E2E2E2E2
310
E2E2E2E2E2E2E2E2E2E2E2E2E2E2E2E2E2E2E2E2E2E2E2E2E2E2E2E2E2E2E2E2E2E2E2E2E2E2E2E2E2E2E2E2E2E2E2E2E2E2E2E2E2E2E2E2E2E2E2E2E2E2E2E2E2E2E2E2E2E2E2E2E2E2E2E2E2BEE2E2E2E2E2E2E2E2DCE2E22DE2E2E2E2F5F5E2E2E2E2E2E2E2F5F5F5F5F5F5F5F5F5E2E2E2E2E2E2E2F5F5E2E2E2E2E22D
310
E2E22DE2E2E2E2E2E2E22DE22DE2E2E2F5E2E2E2E2E2E228282828E2E2E2E2E2E2E22DE22DE2E2E2DCE2E2BEE2E2E2E2E2E2E2E2E2E2E2E2E2E2E2E2E2E2E2E2E2E2E2E2E2E2E2E2E2E2E2E2E2E2E2E2E2E2E2E2E2E2E2E2E2E2E2E2E2E2E2E2E2E2E2E2E2E2E2E2E2E2E2E2E2E2E2E2E2E2E2E2E2E2E2E2E2E2E2E2E2E2E2
310
E2E2E2E2E2E2E2E2E2E2E2E2E2E2E2E2E2E2E2E2E2E2E2E2E2E2E2E2E2E2E2E2E2E2E2E2E2E2E2E2E2E2E2E2E2E2E2E2E2E2E2E2E2E2E2E2E2E2E2E2E2E2E2E2E2E2E2E2E2E2E2E2E2E2E2E2E2E2E2BEE2E2E2E2E2E2E2E2DCE22DF52D2D2D2D2DF5F5F5F528F5F5F5F5F5F5F5F5F5F5F5F5F5F5F528F5F5F528F5E2E2E2E2
310
E22DE2E22DE2E2E2E2E2E2E22DE22DE2E2E2F5E2E2E228282828282828E2E2E2E2E2E2E22DE22DE2E2E2DCE2E2BEE2E2E2E2E2E2E2E2E2E2E2E2E2E2E2E2E2E2E2E2E2E2E2E2E2E2E2E2E2E2E2E2E2E2E2E2E2E2E2E2E2E2E2E2E2E2E2E2E2E2E2E2E2E2E2E2E2E2E2E2E2E2E2E2E2E2E2E2E2E2E2E2E2E2E2E2E2E2E2E2E2
310
E2E2E2E2E2E2E2E2E2E2E2E2E2E2E2E2E2E2E2E2E2E2E2E2E2E2E2E2E2E2E2E2E2E2E2E2E2E2E2E2E2E2E2E2E2E2E2E2E2E2E2E2E2E2E2E2E2E2E2E2E2E2E2E2E2E2E2E2E2E2E2E2E2E2E2E2E2E2E2E2E2BEE2E2E2E2E2E2E2E2DCE2E2E2E2E2E2E2F528E2E2E228E2E2E2E2E2E2E2E2E2E2E2E2E2E2E228E2E2E228F5E2E2
310
E2E2E22DE2E22DE2E2E2E2E2E2E22DE22DE2E2E2F5E2E2E228E2E2E2E2F5F5E2E2E2E2E2E2E22DE22DE2E2E2DCE2E2BEE2E2E2E2E2E2E2E2E2E2E2E2E2E2E2E2E2E2E2E2E2E2E2E2E2E2E2E2E2E2E2E2E2E2E2E2E2E2E2E2E2E2E2E2E2E2E2E2E2E2E2E2E2E2E2E2E2E2E2E2E2E2E2E2E2E2E2E2E2E2E2E2E2E2E2E2E2E2E2
310
E2E2E2E2E2E2E2E2E2E2E2E2E2E2E2E2E2E2E2E2E2E2E2E2E2E2E2E2E2E2E2E2E2E2E2E2E2E2E2E2E2E2E2E2E2E2E2E2E2E2E2E2E2E2E2E2E2E2E2E2E2E2E2E2E2E2E2E2E2E2E2E2E2E2E2E2E2E2E2E2E2E2E2BEE2E2E2E2E2E2E2E2DCE2E2E2E2E2E2E2F528E2E2E228E2E2E2E2E2E2E2F5E2E2E2E2E2E2E228E2E2E228F5
310
E2E2E2E2E22DE2E22DE2E2E2E2E2E2E22DE22DE2E2E2F5E2E2E228E2E2E2E2F5F5E2E2E2E2E2E2BE2DE22DE2E2E2DCE2E2BEE2E2E2E2E2E2E2E2E2E2E2E2E2E2E2E2E2E2E2E2E2E2E2E2E2E2E2E2E2E2E2E2E2E2E2E2E2E2E2E2E2E2E2E2E2E2E2E2E2E2E2E2E2E2E2E2E2E2E2E2E2E2E2E2E2E2E2E2E2E2E2E2E2E2E2E2E2
310
E2E2E2E2E2E2E2E2E2E2E2E2E2E2E2E2E2E2E2E2E2E2E2E2E2E2E2E2E2E2E2E2E2E2E2E2E2E2E2E2E2E2E2E2E2E2E2E2E2E2E2E2E2E2E2E2E2E2E2E2E2E2E2E2E2E2E2E2E2E2E2E2E2E2E2E2E2E2E2E2E2E2E2E2E2BEE2E2E2E2E2E2E2E2DCE2E2E2E2E2E2E2F528E2E2E228E2E2E2E2E2E2E2F5E2E2E2E2E2E2E228E2E2E2
310
28F5E2E2E2E2E22DE2E22DE2E2E2E2E2E2E22DE22DE2E2E2F5E2E2E228E2E2E2E2F5F5E2E2E2E2E2BEBE2DE22DE2E2E2DCE2E2BEE2E2E2E2E2E2E2E2E2E2E2E2E2E2E2E2E2E2E2E2E2E2E2E2E2E2E2E2E2E2E2E2E2E2E2E2E2E2E2E2E2E2E2E2E2E2E2E2E2E2E2E2E2E2E2E2E2E2E2E2E2E2E2E2E2E2E2E2E2E2E2E2E2E2E2
310
E2E2E2E2E2E2E2E2E2E2E2E2E2E2E2E2E2E2E2E2E2E2E2E2E2E2E2E2E2E2E2E2E2E2E2E2E2E2E2E2E2E2E2E2E2E2E2E2E2E2E2E2E2E2E2E2E2E2E2E2E2E2E2E2E2E2E2E2E2E2E2E2E2E2E2E2E2E2E2E2E2E2E2E2E2E2E2BEE2E2E2E2E2E2E2E2DCE2E2E2E2E2E2E2F528E2E2E228E2E2E2E2E2E2E2F5E2E2E2E2E2E2E228E2
310
E2E228F5E2E2E2E2BEBEE2E22DE2E2E2E2E2E2E22DE22DE2E2E2F5E2E2E228E2E2E2E2F5F5E2E2E2E2E2BEBE2DE22DE2E2E2DCE2E2BEE2E2E2E2E2E2E2E2E2E2E2E2E2E2E2E2E2E2E2E2E2E2E2E2E2E2E2E2E2E2E2E2E2E2E2E2E2E2E2E2E2E2E2E2E2E2E2E2E2E2E2E2E2E2E2E2E2E2E2E2E2E2E2E2E2E2E2E2E2E2E2E2E2
310
E2E2E2E2E2E2E2E2E2E2E2E2E2E2E2E2E2E2E2E2E2E2E2E2E2E2E2E2E2E2E2E2E2E2E2E2E2E2E2E2E2E2E2E2E2E2E2E2E2E2E2E2E2E2E2E2E2E2E2E2E2E2E2E2E2E2E2E2E2E2E2E2E2E2E2E2E2E2E2E2E2E2E2E2E2E2E2E2E2BEE2E2E2E2E2E2E2E2DCE2E2E2E2E2E2E2F528E2E2E228E2E2E2E2E2E2E2F5E2E2E2E2E2E2E2
310
28E2E2E228F5E2E2E2E2BEBEE2E22DE2E2E2E2E2E2E22DE22DE2E2E2F5E2E2E228E2E2E2E2F5F5E2E2E2E2E2BEBE2DE22DE2E2E2DCE2E2BEE2E2E2E2E2E2E2E2E2E2E2E2E2E2E2E2E2E2E2E2E2E2E2E2E2E2E2E2E2E2E2E2E2E2E2E2E2E2E2E2E2E2E2E2E2E2E2E2E2E2E2E2E2E2E2E2E2E2E2E2E2E2E2E2E2E2E2E2E2E2E2
310
E2E2E2E2E2E2E2E2E2E2E2E2E2E2E2E2E2E2E2E2E2E2E2E2E2E2E2E2E2E2E2E2E2E2E2E2E2E2E2E2E2E2E2E2E2E2E2E2E2E2E2E2E2E2E2E2E2E2E2E2E2E2E2E2E2E2E2E2E2E2E2E2E2E2E2E2E2E2E2E2E2E2E2E2E2E2E2E2E2E2E2BEE2E2E2E2E2E2E2E2DCE2E2E2E2E2E2E2F528E2E2E228E2E2E2E2E2E2E2F5E2E2E2E2E2
310
E2E228E2E2E228F5E2E2E2E2BEBEE2E22DE2E2E2E2E2E2E22DE22DE2E2E2F5E2E2E228E2E2E2E2F5F5E2E2E2E2E2E2E22DE22DE2E2E2DCE2E2BEE2E2E2E2E2E2E2E2E2E2E2E2E2E2E2E2E2E2E2E2E2E2E2E2E2E2E2E2E2E2E2E2E2E2E2E2E2E2E2E2E2E2E2E2E2E2E2E2E2E2E2E2E2E2E2E2E2E2E2E2E2E2E2E2E2E2E2E2E2
310
E2E2E2E2E2E2E2E2E2E2E2E2E2E2E2E2E2E2E2E2E2E2E2E2E2E2E2E2E2E2E2E2E2E2E2E2E2E2E2E2E2E2E2E2E2E2E2E2E2E2E2E2E2E2E2E2E2E2E2E2E2E2E2E2E2E2E2E2E2E2E2E2E2E2E2E2E2E2E2E2E2E2E2E2E2E2E2E2E2E2E2E2E2BEE2E2E2E2E2E2E2E2DCE2E2E2E2E2E2E2F528E2E2E228E2E2E2E2E2E2E2F5E2E2E2
310
E2E2E2E228E2E2E228F5E2E2E2E2BEBEE2E22DE2E2E2E2E2E2E22DE22DE2E2E2F5E2E2E228E2E2E2E2F5F5E2E2E2E2E2BEBE2DE22DE2E2E2DCE2E2BEE2E2E2E2E2E2E2E2E2E2E2E2E2E2E2E2E2E2E2E2E2E2E2E2E2E2E2E2E2E2E2E2E2E2E2E2E2E2E2E2E2E2E2E2E2E2E2E2E2E2E2E2E2E2E2E2E2E2E2E2E2E2E2E2E2E2E2
310
E2E2E2E2E2E2E2E2E2E2E2E2E2E2E2E2E2E2E2E2E2E2E2E2E2E2E2E2E2E2E2E2E2E2E2E2E2E2E2E2E2E2E2E2E2E2E2E2E2E2E2E2E2E2E2E2E2E2E2E2E2E2E2E2E2E2E2E2E2E2E2E2E2E2E2E2E2E2E2E2E2E2E2E2E2E2E2E2E2E2E2E2E2E2E2BEE2E2E2E2E2E2E2E2DCE2E2E2E2E2E2E2F528E2E2E228E2E2E2E2E2E2E2E2E2
310
E2E2E2E2E2E228E2E2E228F5E2E2E2E2BEBEE2E22DE2E2E2E2E2E2E22DE22DE2E2E2F5E2E2E228E2E2E2E2F5F5E2E2E2E2E2BEBE2DE22DE2E2E2DCE2E2BEE2E2E2E2E2E2E2E2E2E2E2E2E2E2E2E2E2E2E2E2E2E2E2E2E2E2E2E2E2E2E2E2E2E2E2E2E2E2E2E2E2E2E2E2E2E2E2E2E2E2E2E2E2E2E2E2E2E2E2E2E2E2E2E2E2
310
E2E2E2E2E2E2E2E2E2E2E2E2E2E2E2E2E2E2E2E2E2E2E2E2E2E2E2E2E2E2E2E2E2E2E2E2E2E2E2E2E2E2E2E2E2E2E2E2E2E2E2E2E2E2E2E2E2E2E2E2E2E2E2E2E2E2E2E2E2E2E2E2E2E2E2E2E2E2E2E2E2E2E2E2E2E2E2E2E2E2E2E2E2E2E2E2E2BEE2E2E2E2E2E2E2E2DCE2E2E2E2E2E2E2F528E2E2E228E2E2E2E2E2E2E2
310
E2E2E2E2E2E2E2E228E2E2E228F5E2E2E2E2E22DE2E22DE2E2E2E2E2E2E22DE22DE2E2E2F5E2E2E228E2E2E2E2F5F5E2E2E2E2E2E2BE2DE22DE2E2E2DCE2E2BEE2E2E2E2E2E2E2E2E2E2E2E2E2E2E2E2E2E2E2E2E2E2E2E2E2E2E2E2E2E2E2E2E2E2E2E2E2E2E2E2E2E2E2E2E2E2E2E2E2E2E2E2E2E2E2E2E2E2E2E2E2E2E2
310
E2E2E2E2E2E2E2E2E2E2E2E2E2E2E2E2E2E2E2E2E2E2E2E2E2E2E2E2E2E2E2E2E2E2E2E2E2E2E2E2E2E2E2E2E2E2E2E2E2E2E2E2E2E2E2E2E2E2E2E2E2E2E2E2E2E2E2E2E2E2E2E2E2E2E2E2E2E2E2E2E2E2E2E2E2E2E2E2E2E2E2E2E2E2E2E2E2E2E2BEE2E2E2E2E2E2E2E2DCE2E2E2E2E2E2E2F528E2E2E228E2E2E2E2E2
310
E2E2E2E2E2E2E2E2E2E228E2E2E228F5E2E2E2E2E22DE2E22DE2E2E2E2E2E2E22DE22DE2E2E2F5E2E2E228E2E2E2E2F5F5E2E2E2E2E2E2BE2DE22DE2E2E2DCE2E2BEE2E2E2E2E2E2E2E2E2E2E2E2E2E2E2E2E2E2E2E2E2E2E2E2E2E2E2E2E2E2E2E2E2E2E2E2E2E2E2E2E2E2E2E2E2E2E2E2E2E2E2E2E2E2E2E2E2E2E2E2E2
310
E2E2E2E2E2E2E2E2E2E2E2E2E2E2E2E2E2E2E2E2E2E2E2E2E2E2E2E2E2E2E2E2E2E2E2E2E2E2E2E2E2E2E2E2E2E2E2E2E2E2E2E2E2E2E2E2E2E2E2E2E2E2E2E2E2E2E2E2E2E2E2E2E2E2E2E2E2E2E2E2E2E2E2E2E2E2E2E2E2E2E2E2E2E2E2E2E2E2E2E2E2BEE2E2E2E2E2E2E2E2DCE2E2E2E2E2E2E2F528E2E2E228E2E2E2
310
E2E2E2E2E2E2E2E2E2E2E2E228E2E2E228F5E2E2E2E2E22DE2E22DE2E2E2E2E2E2E22DE22DE2E2E2F5E2E2E228E2E2E2E2F5F5E2E2E2E2E2E2E22DE22DE2E2E2DCE2E2BEE2E2E2E2E2E2E2E2E2E2E2E2E2E2E2E2E2E2E2E2E2E2E2E2E2E2E2E2E2E2E2E2E2E2E2E2E2E2E2E2E2E2E2E2E2E2E2E2E2E2E2E2E2E2E2E2E2E2E2
310
E2E2E2E2E2E2E2E2E2E2E2E2E2E2E2E2E2E2E2E2E2E2E2E2E2E2E2E2E2E2E2E2E2E2E2E2E2E2E2E2E2E2E2E2E2E2E2E2E2E2E2E2E2E2E2E2E2E2E2E2E2E2E2E2E2E2E2E2E2E2E2E2E2E2E2E2E2E2E2E2E2E2E2E2E2E2E2E2E2E2E2E2E2E2E2E2E2E2E2E2E2E2E2BEE2E2E2E2E2E2E2E2DCE2E2E2E2E2E2E2F528E2E2E228E2
310
E2E2E2E2E2E2E2E2E2E2E2E2E2E228E2E2E228F5E2E2E2E2E22DE2E22DE2E2E2E2E2E2E22DE22DE2E2E2F5E2E2E228E2E2E2E2F5F5E2E2E2E2E2E2E22DE22DE2E2E2DCE2E2BEE2E2E2E2E2E2E2E2E2E2E2E2E2E2E2E2E2E2E2E2E2E2E2E2E2E2E2E2E2E2E2E2E2E2E2E2E2E2E2E2E2E2E2E2E2E2E2E2E2E2E2E2E2E2E2E2E2
310
E2E2E2E2E2E2E2E2E2E2E2E2E2E2E2E2E2E2E2E2E2E2E2E2E2E2E2E2E2E2E2E2E2E2E2E2E2E2E2E2E2E2E2E2E2E2E2E2E2E2E2E2E2E2E2E2E2E2E2E2E2E2E2E2E2E2E2E2E2E2E2E2E2E2E2E2E2E2E2E2E2E2E2E2E2E2E2E2E2E2E2E2E2E2E2E2E2E2E2E2E2E2E2E2E2BEE2E2E2E2E2E2E2E2DCE2E2E2E2E2E2E2F528E2E2E2
310
28E2E2E2E2E2E2E2E2E2E2E2E2E2E2E228E2E2E228F5E2E2E2E2E22DE2E22DE2E2E2E2E2E2E22DE22DE2E2E2F5E2E2E228E2E2E2E2F5F5E2E2E2E2E2E2E22DE22DE2E2E2DCE2E2BEE2E2E2E2E2E2E2E2E2E2E2E2E2E2E2E2E2E2E2E2E2E2E2E2E2E2E2E2E2E2E2E2E2E2E2E2E2E2E2E2E2E2E2E2E2E2E2E2E2E2E2E2E2E2E2
310
E2E2E2E2E2E2E2E2E2E2E2E2E2E2E2E2E2E2E2E2E2E2E2E2E2E2E2E2E2E2E2E2E2E2E2E2E2E2E2E2E2E2E2E2E2E2E2E2E2E2E2E2E2E2E2E2E2E2E2E2E2E2E2E2E2E2E2E2E2E2E2E2E2E2E2E2E2E2E2E2E2E2E2E2E2E2E2E2E2E2E2E2E2E2E2E2E2E2E2E2E2E2E2E2E2E2E2BEE2E2E2E2E2E2E2E2DCE2E2E2E2E2E2E2F528E2
310
E2E228E2E2E2E2E2E2E2E2E2E2E2E2E2E2E228E2E2E228F5E2E2E2E2E22DE2E22DE2E2E2E2E2E2E22DE22DE2E2E22D2D2D2DF5E22DE2E2F5F5E2E2E2E2E2E2E22DE22DE2E2E2DCE2E2BEE2E2E2E2E2E2E2E2E2E2E2E2E2E2E2E2E2E2E2E2E2E2E2E2E2E2E2E2E2E2E2E2E2E2E2E2E2E2E2E2E2E2E2E2E2E2E2E2E2E2E2E2E2
310
E2E2E2E2E2E2E2E2E2E2E2E2E2E2E2E2E2E2E2E2E2E2E2E2E2E2E2E2E2E2E2E2E2E2E2E2E2E2E2E2E2E2E2E2E2E2E2E2E2E2E2E2E2E2E2E2E2E2E2E2E2E2E2E2E2E2E2E2E2E2E2E2E2E2E2E2E2E2E2E2E2E2E2E2E2E2E2E2E2E2E2E2E2E2E2E2E2E2E2E2E2E2E2E2E2E2E2E2E2BEE2E2E2E2E2E2E2E2DCE2E2E2E2E2E2E2F5
310
28E2E2E228E2E2E2E2E2E2E2E2E2E2E2E2E2E2E228E2E2E228F5E2E2E2E2E22DE2E22DE2E2E2E2E2E2E22DE22DE2E2E22DBEBEBE2DE22D2DE2F5F5E2E2E2E2E2E2E22DE22DE2E2E2DCE2E2BEE2E2E2E2E2E2E2E2E2E2E2E2E2E2E2E2E2E2E2E2E2E2E2E2E2E2E2E2E2E2E2E2E2E2E2E2E2E2E2E2E2E2E2E2E2E2E2E2E2E2E2
310
E2E2E2E2E2E2E2E2E2E2E2E2E2E2E2E2E2E2E2E2E2E2E2E2E2E2E2E2E2E2E2E2E2E2E2E2E2E2E2E2E2E2E2E2E2E2E2E2E2E2E2E2E2E2E2E2E2E2E2E2E2E2E2E2E2E2E2E2E2E2E2E2E2E2E2E2E2E2E2E2E2E2E2E2E2E2E2E2E2E2E2E2E2E2E2E2E2E2E2E2E2E2E2E2E2E2E2E2E2E2E2BEE2E2E2E2E2E2E2E2DCE2E2E2E2E2E2
310
E2F528E2E2E228E2E2E2E2E2E2E2E2E2E2E2E2E2E2E228E2E2E228F5E2E2E2E2E22DE2E22DE2E2E2E2E2E2E22DE22DE2E2E22DBEBEBEF5E22D2DE2F5F5E2E2E2E2E2E2E22DE22DE2E2E2DCE2E2BEE2E2E2E2E2E2E2E2E2E2E2E2E2E2E2E2E2E2E2E2E2E2E2E2E2E2E2E2E2E2E2E2E2E2E2E2E2E2E2E2E2E2E2E2E2E2E2E2E2
310
E2E2E2E2E2E2E2E2E2E2E2E2E2E2E2E2E2E2E2E2E2E2E2E2E2E2E2E2E2E2E2E2E2E2E2E2E2E2E2E2E2E2E2E2E2E2E2E2E2E2E2E2E2E2E2E2E2E2E2E2E2E2E2E2E2E2E2E2E2E2E2E2E2E2E2E2E2E2E2E2E2E2E2E2E2E2E2E2E2E2E2E2E2E2E2E2E2E2E2E2E2E2E2E2E2E2E2E2E2E2E2E2E2BEE2E2E2E2E2E2E2E2DCE2E2E2E2
310
E2E2E2F528E2E2E228E2E2E2E2E2E2E2E2E2E2E2E2E2E2E228E2E2E228F5E2E2E2E2E22DE2E22DE2E2E2E2E2E2E22DE2F52D2D2DF52D2D2DF52DF52DE2F5F5E2E2E2E2E2E2E22DE22DE2E2E2DCE2E2BEE2E2E2E2E2E2E2E2E2E2E2E2E2E2E2E2E2E2E2E2E2E2E2E2E2E2E2E2E2E2E2E2E2E2E2E2E2E2E2E2E2E2E2E2E2E2E2
310
E2E2E2E2E2E2E2E2E2E2E2E2E2E2E2E2E2E2E2E2E2E2E2E2E2E2E2E2E2E2E2E2E2E2E2E2E2E2E2E2E2E2E2E2E2E2E2E2E2E2E2E2E2E2E2E2E2E2E2E2E2E2E2E2E2E2E2E2E2E2E2E2E2E2E2E2E2E2E2E2E2E2E2E2E2E2E2E2E2E2E2E2E2E2E2E2E2E2E2E2E2E2E2E2E2E2E2E2E2E2E2E2E2E2E2BEE2E2E2E2E2E2E2E2DCE2E2
310
E2E2E2E2E2F528E2E2E228E2E2E2E2E2E2E2E2E2E2E2E2E2E2E228E2E2E228F5E2E2E2E2E22DE2E22DE2E2E2E2E2E2E22DE22DE2E2E2F5E2E2E228BE2D2DE2F5F5E2E2E2E2E2E2E22DE22DE2E2E2DCE2E2BEE2E2E2E2E2E2E2E2E2E2E2E2E2E2E2E2E2E2E2E2E2E2E2E2E2E2E2E2E2E2E2E2E2E2E2E2E2E2E2E2E2E2E2E2E2
310
E2E2E2E2E2E2E2E2E2E2E2E2E2E2E2E2E2E2E2E2E2E2E2E2E2E2E2E2E2E2E2E2E2E2E2E2E2E2E2E2E2E2E2E2E2E2E2E2E2E2E2E2E2E2E2E2E2E2E2E2E2E2E2E2E2E2E2E2E2E2E2E2E2E2E2E2E2E2E2E2E2E2E2E2E2E2E2E2E2E2E2E2E2E2E2E2E2E2E2E2E2E2E2E2E2E2E2E2E2E2E2E2E2E2E2E2E2BEE2E2E2E2E2E2E2E2DC
310
E2E2E2E2E2E2E2F528E2E2E228E2E2E2E2E2E2E2E2E2E2E2E2E2E2E228E2E2E228F5E2E2E2E2E22DE2E22DE2E2E2E2E2E2E22DE22DE2E2E2F5E2E2E228BEBEE2E2F5F5E2E2E2E2E2E2E22DE22DE2E2E2DCE2E2BEE2E2E2E2E2E2E2E2E2E2E2E2E2E2E2E2E2E2E2E2E2E2E2E2E2E2E2E2E2E2E2E2E2E2E2E2E2E2E2E2E2E2E2
310
E2E2E2E2E2E2E2E2E2E2E2E2E2E2E2E2E2E2E2E2E2E2E2E2E2E2E2E2E2E2E2E2E2E2E2E2E2E2E2E2E2E2E2E2E2E2E2E2E2E2E2E2E2E2E2E2E2E2E2E2E2E2E2E2E2E2E2E2E2E2E2E2E2E2E2E2E2E2E2E2E2E2E2E2E2E2E2E2E2E2E2E2E2E2E2E2E2E2E2E2E2E2E2E2E2E2E2E2E2E2E2E2E2E2E2E2E2E2E2BEE2E2E2E2E2E2E2
310
E2DCE2E2E2E2E2E2E2F528E2E2E228E2E2E2E2E2E2E2E2E2E2E2E2E2E2E228E2E2E228F5E2E2E2E2E22DE2E22DE2E2E2E2E2E2E22DBEBEE2E2E2F5E2E2E228E2E2E2E2F5F5E2E2E2E2E2E2E22DE22DE2E2E2DCE2E2BEE2E2E2E2E2E2E2E2E2E2E2E2E2E2E2E2E2E2E2E2E2E2E2E2E2E2E2E2E2E2E2E2E2E2E2E2E2E2E2E2E2
310
E2E2E2E2E2E2E2E2E2E2E2E2E2E2E2E2E2E2E2E2E2E2E2E2E2E2E2E2E2E2E2E2E2E2E2E2E2E2E2E2E2E2E2E2E2E2E2E2E2E2E2E2E2E2E2E2E2E2E2E2E2E2E2E2E2E2E2E2E2E2E2E2E2E2E2E2E2E2E2E2E2E2E2E2E2E2E2E2E2E2E2E2E2E2E2E2E2E2E2E2E2E2E2E2E2E2E2E2E2E2E2E2E2E2E2E2E2E2E2E2E2BEE2E2E2E2E2
310
E2E2E2DCE2E2E2E2E2E2E2F528E2E2E228E2E2E2E2E2E2E2E2E2E2E2E2E2E2E228E2E2E228F5E2E2E2E2E22DE2E22DE2E2E2E2E2E2E22DBEBEE2E2E2F5E2E2E228E2E2E2E2F5F5E2E2E2E2E2E2E22DE22DE2E2E2DCE2E2BEE2E2E2E2E2E2E2E2E2E2E2E2E2E2E2E2E2E2E2E2E2E2E2E2E2E2E2E2E2E2E2E2E2E2E2E2E2E2E2
310
E2E2E2E2E2E2E2E2E2E2E2E2E2E2E2E2E2E2E2E2E2E2E2E2E2E2E2E2E2E2E2E2E2E2E2E2E2E2E2E2E2E2E2E2E2E2E2E2E2E2E2E2E2E2E2E2E2E2E2E2E2E2E2E2E2E2E2E2E2E2E2E2E2E2E2E2E2E2E2E2E2E2E2E2E2E2E2E2E2E2E2E2E2E2E2E2E2E2E2E2E2E2E2E2E2E2E2E2E2E2E2E2E2E2E2E2E2E2E2E2E2E2E2BEE2E2E2
310
E2E2E2E2E2DCE2E2E2E2E2E2E2F52828282828E2E2E2E2E2E2E2BEE2E2E2E2E2E2E22828282828F5E2E2E2E2E22DE2E22DE2E2E2E2E2E2E22DBEBEE2E2E22828282828E2E2E2E2F528E2E2E2E2E2E2E22DE22DE2E2E2DCE2E2BEE2E2E2E2E2E2E2E2E2E2E2E2E2E2E2E2E2E2E2E2E2E2E2E2E2E2E2E2E2E2E2E2E2E2E2E2E2
310
E2E2E2E2E2E2E2E2E2E2E2E2E2E2E2E2E2E2E2E2E2E2E2E2E2E2E2E2E2E2E2E2E2E2E2E2E2E2E2E2E2E2E2E2E2E2E2E2E2E2E2E2E2E2E2E2E2E2E2E2E2E2E2E2E2E2E2E2E2E2E2E2E2E2E2E2E2E2E2E2E2E2E2E2E2E2E2E2E2E2E2E2E2E2E2E2E2E2E2E2E2E2E2E2E2E2E2E2E2E2E2E2E2E2E2E2E2E2E2E2E2E2E2E2E2BEE2
310
E2E2E2E2E2E2E2DCE2E2E2E2E2E2E2F5E2E2E2E2E2E2E2E2E2E2E2BEBEBEE2E2E2E2E2E2E2E2E2E2E2F5E2E2E2E2E22DE2E22DE2E2E2E2E2E2E22DE22DE2E2E2F5E2E2E2E2E2E2E2E22828BEE2E2E2E2E2E22DE22DE2E2E2DCE2E2BEE2E2E2E2E2E2E2E2E2E2E2E2E2E2E2E2E2E2E2E2E2E2E2E2E2E2E2E2E2E2E2E2E2E2E2
310
E2E2E2E2E2E2E2E2E2E2E2E2E2E2E2E2E2E2E2E2E2E2E2E2E2E2E2E2E2E2E2E2E2E2E2E2E2E2E2E2E2E2E2E2E2E2E2E2E2E2E2E2E2E2E2E2E2E2E2E2E2E2E2E2E2E2E2E2E2E2E2E2E2E2E2E2E2E2E2E2E2E2E2E2E2E2E2E2E2E2E2E2E2E2E2E2E2E2E2E2E2E2E2E2E2E2E2E2E2E2E2E2E2E2E2E2E2E2E2E2E2E2E2E2E2E2E2
310
BEE2E2E2E2E2E2E2E2DCE2E2E2E2E2E2E2F5E2E2E2E2E2E2E2E2E2E2E2E2BEF5E2E2E2E2E2E2E2E2E2E2E2F5E2E2E2E2E22DE2E22DE2E2E2E2E2E22D2DE22DE2E2E2F5E2E2E2E2E2E2E2E22828F5E2E2E2E2E2E22DE22D2DE2E2DCE2E2BEE2E2E2E2E2E2E2E2E2E2E2E2E2E2E2E2E2E2E2E2E2E2E2E2E2E2E2E2E2E2E2E2E2
310
E2E2E2E2E2E2E2E2E2E2E2E2E2E2E2E2E2E2E2E2E2E2E2E2E2E2E2E2E2E2E2E2E2E2E2E2E2E2E2E2E2E2E2E2E2E2E2E2E2E2E2E2E2E2E2E2E2E2E2E2E2E2E2E2E2E2E2E2E2E2E2E2E2E2E2E2E2E2E2E2E2E2E2E2E2E2E2E2E2E2E2E2E2E2E2E2E2E2E2E2E2E2E2E2E2E2E2E2E2E2E2E2E2E2E2E2E2E2E2E2E2E2E2E2E2E2E2
310
E2E2BEE2E2E2E2E2E2E2E2DCE2E2E2E2E2E2E2F5E2E2E2E2E2E2E2E2E2E2E2E2E2E2E2E2E2E2E2E2E2E2E2E2E2F5E2E2E2E2E22DE2E22DE2E2E2E2E2E2E22DE22DE2E2E2F5E2E2E2E2E2E2E2E22828E2E2E2E2E2E2E22DE22D2DE2E2DCE2E2BEE2E2E2E2E2E2E2E2E2E2E2E2E2E2E2E2E2E2E2E2E2E2E2E2E2E2E2E2E2E2E2
310
E2E2E2E2E2E2E2E2E2E2E2E2E2E2E2E2E2E2E2E2E2E2E2E2E2E2E2E2E2E2E2E2E2E2E2E2E2E2E2E2E2E2E2E2E2E2E2E2E2E2E2E2E2E2E2E2E2E2E2E2E2E2E2E2E2E2E2E2E2E2E2E2E2E2E2E2E2E2E2E2E2E2E2E2E2E2E2E2E2E2E2E2E2E2E2E2E2E2E2E2E2E2E2E2E2E2E2E2E2E2E2E2E2E2E2E2E2E2E2E2E2E2E2E2E2E2E2
310
E2E2E2E2BEE2E2E2E2E2E2E2E2DCDCDCDCDCDCDCDCDCDCDCDCDCDCDCDCDCDCDCDCDCDCDCDCDCDCDCDCDCDCDCDCDCDCDCDCDCDCDCDCDCDCDCDCDCDCDCDCDCDCDCDCDCDCDCDCDCDCDCDCDCDCDCDCDCDCDCDCDCDCDCDCDCDCDCDCDCDCDCDCDCDCE2E2BEE2E2E2E2E2E2E2E2E2E2E2E2E2E2E2E2E2E2E2E2E2E2E2E2E2E2E2E2E2
310
E2E2E2E2E2E2E2E2E2E2E2E2E2E2E2E2E2E2E2E2E2E2E2E2E2E2E2E2E2E2E2E2E2E2E2E2E2E2E2E2E2E2E2E2E2E2E2E2E2E2E2E2E2E2E2E2E2E2E2E2E2E2E2E2E2E2E2E2E2E2E2E2E2E2E2E2E2E2E2E2E2E2E2E2E2E2E2E2E2E2E2E2E2E2E2E2E2E2E2E2E2E2E2E2E2E2E2E2E2E2E2E2E2E2E2E2E2E2E2E2E2E2E2E2E2E2E2
310
E2E2E2E2E2E2BEE2E2E2E2E2E2E2E2E2E2E2E2E2E2E2E2E2E2E2E2E2E2E2E2E2E2E2E2E2E2E2E2E2E2E2E2E2E2E2E2E2E2E2E2E2E2E2E2E2E2E2E2E2E2E2E2E2E2E2E2E2E2E2E2E2E2E2E2E2E2E2E2E2E2E2E2E2E2E2E2E2E2E2E2E2E2E2E2E2E2E2E2BEE2E2E2E2E2E2E2E2E2E2E2E2E2E2E2E2E2E2E2E2E2E2E2E2E2E2E2
310
E2E2E2E2E2E2E2E2E2E2E2E2E2E2E2E2E2E2E2E2E2E2E2E2E2E2E2E2E2E2E2E2E2E2E2E2E2E2E2E2E2E2E2E2E2E2E2E2E2E2E2E2E2E2E2E2E2E2E2E2E2E2E2E2E2E2E2E2E2E2E2E2E2E2E2E2E2E2E2E2E2E2E2E2E2E2E2E2E2E2E2E2E2E2E2E2E2E2E2E2E2E2E2E2E2E2E2E2E2E2E2E2E2E2E2E2E2E2E2E2E2E2E2E2E2E2E2
310
E2E2E2E2E2E2E2E2BEE2E2E2E2E2E2E2E2E2E2E2E2E2E2E2E2E2E2E2E2E2E2E2E2E2E2E2E2E2E2E2E2E2E2E2E2E2E2E2E2E2E2E2E2E2E2E2E2E2E2E2E2E2E2E2E2E2E2E2E2E2E2E2E2E2E2E2E2E2E2E2E2E2E2E2E2E2E2E2E2E2E2E2E2E2E2E2E2E2E2E2E2BEE2E2E2E2E2E2E2E2E2E2E2E2E2E2E2E2E2E2E2E2E2E2E2E2E2
310
E2E2E2E2E2E2E2E2E2E2E2E2E2E2E2E2E2E2E2E2E2E2E2E2E2E2E2E2E2E2E2E2E2E2E2E2E2E2E2E2E2E2E2E2E2E2E2E2E2E2E2E2E2E2E2E2E2E2E2E2E2E2E2E2E2E2E2E2E2E2E2E2E2E2E2E2E2E2E2E2E2E2E2E2E2E2E2E2E2E2E2E2E2E2E2E2E2E2E2E2E2E2E2E2E2E2E2E2E2E2E2E2E2E2E2E2E2E2E2E2E2E2E2E2E2E2E2
310
E2E2E2E2E2E2E2E2E2E2BEBEBEBEBEBEBEBEBEBEBEBEBEBEBEBEBEBEBEBEBEBEBEBEBEBEBEBEBEBEBEBEBEBEBEBEBEBEBEBEBEBEBEBEBEBEBEBEBEBEBEBEBEBEBEBEBEBEBEBEBEBEBEBEBEBEBEBEBEBEBEBEBEBEBEBEBEBEBEBEBEBEBEBEBEBEBEBEBEBEBEBEBEBEE2E2E2E2E2E2E2E2E2E2E2E2E2E2E2E2E2E2E2E2E2E2E2
310
E2E2E2E2E2E2E2E2E2E2E2E2E2E2E2E2E2E2E2E2E2E2E2E2E2E2E2E2E2E2E2E2E2E2E2E2E2E2E2E2E2E2E2E2E2E2E2E2E2E2E2E2E2E2E2E2E2E2
  0
XRECORD
  5
44
102
{ACAD_REACTORS
330
43
102
}
330
43
100
AcDbXrecord
280
     1
270
     1
271
     1
  0
XRECORD
  5
45
102
{ACAD_REACTORS
330
43
102
}
330
43
100
AcDbXrecord
280
     1
270
     1
271
     1
  0
XRECORD
  5
46
102
{ACAD_REACTORS
330
43
102
}
330
43
100
AcDbXrecord
280
     1
270
     1
271
     1
  0
XRECORD
  5
47
102
{ACAD_REACTORS
330
43
102
}
330
43
100
AcDbXrecord
280
     1
270
     1
271
     1
  0
XRECORD
  5
48
102
{ACAD_REACTORS
330
43
102
}
330
43
100
AcDbXrecord
280
     1
270
     1
271
     1
  0
XRECORD
  5
49
102
{ACAD_REACTORS
330
43
102
}
330
43
100
AcDbXrecord
280
     1
270
     1
271
     1
  0
XRECORD
  5
3C
102
{ACAD_REACTORS
330
3B
102
}
330
3B
100
AcDbXrecord
280
     1
270
     1
271
     1
  0
XRECORD
  5
3D
102
{ACAD_REACTORS
330
3B
102
}
330
3B
100
AcDbXrecord
280
     1
270
     1
271
     1
  0
XRECORD
  5
3E
102
{ACAD_REACTORS
330
3B
102
}
330
3B
100
AcDbXrecord
280
     1
270
     1
271
     1
  0
XRECORD
  5
3F
102
{ACAD_REACTORS
330
3B
102
}
330
3B
100
AcDbXrecord
280
     1
270
     1
271
     1
  0
XRECORD
  5
40
102
{ACAD_REACTORS
330
3B
102
}
330
3B
100
AcDbXrecord
280
     1
270
     1
271
     1
  0
XRECORD
  5
41
102
{ACAD_REACTORS
330
3B
102
}
330
3B
100
AcDbXrecord
280
     1
270
     1
271
     1
  0
XRECORD
  5
F
102
{ACAD_REACTORS
330
E
102
}
330
E
100
AcDbXrecord
280
     1
270
     1
271
     1
  0
XRECORD
  5
10
102
{ACAD_REACTORS
330
E
102
}
330
E
100
AcDbXrecord
280
     1
270
     1
271
     1
  0
XRECORD
  5
11
102
{ACAD_REACTORS
330
E
102
}
330
E
100
AcDbXrecord
280
     1
270
     1
271
     1
  0
XRECORD
  5
12
102
{ACAD_REACTORS
330
E
102
}
330
E
100
AcDbXrecord
280
     1
270
     1
271
     1
  0
XRECORD
  5
13
102
{ACAD_REACTORS
330
E
102
}
330
E
100
AcDbXrecord
280
     1
270
     1
271
     1
  0
XRECORD
  5
14
102
{ACAD_REACTORS
330
E
102
}
330
E
100
AcDbXrecord
280
     1
270
     1
271
     1
  0
CELLSTYLEMAP
  5
4B3
102
{ACAD_REACTORS
330
54
102
}
330
54
100
AcDbCellStyleMap
 90
        3
300
CELLSTYLE
  1
TABLEFORMAT_BEGIN
 90
        5
170
     1
 91
        0
 92
    32768
 62
   257
 93
        1
300
CONTENTFORMAT
  1
CONTENTFORMAT_BEGIN
 90
        0
 91
        0
 92
      512
 93
        0
300

 40
0.0
140
1.0
 94
        5
 62
     0
340
24
144
0.25
309
CONTENTFORMAT_END
171
     0
 94
        0
309
TABLEFORMAT_END
  1
CELLSTYLE_BEGIN
 90
        1
 91
        1
300
_TITLE
309
CELLSTYLE_END
300
CELLSTYLE
  1
TABLEFORMAT_BEGIN
 90
        5
170
     1
 91
        0
 92
        0
 62
   257
 93
        1
300
CONTENTFORMAT
  1
CONTENTFORMAT_BEGIN
 90
        0
 91
        0
 92
      512
 93
        0
300

 40
0.0
140
1.0
 94
        5
 62
     0
340
24
144
0.18
309
CONTENTFORMAT_END
171
     0
 94
        0
309
TABLEFORMAT_END
  1
CELLSTYLE_BEGIN
 90
        2
 91
        1
300
_HEADER
309
CELLSTYLE_END
300
CELLSTYLE
  1
TABLEFORMAT_BEGIN
 90
        5
170
     1
 91
        0
 92
        0
 62
   257
 93
        1
300
CONTENTFORMAT
  1
CONTENTFORMAT_BEGIN
 90
        0
 91
        0
 92
      512
 93
        0
300

 40
0.0
140
1.0
 94
        2
 62
     0
340
24
144
0.18
309
CONTENTFORMAT_END
171
     0
 94
        0
309
TABLEFORMAT_END
  1
CELLSTYLE_BEGIN
 90
        3
 91
        2
300
_DATA
309
CELLSTYLE_END
  0
ENDSEC
  0
EOF
