  0
SECTION
  2
HEADER
  9
$ACADVER
  1
AC1024
  9
$ACADMAINTVER
 70
     6
  9
$DWGCODEPAGE
  3
ANSI_1252
  9
$INSBASE
 10
0.0
 20
0.0
 30
0.0
  9
$EXTMIN
 10
0.0
 20
0.0
 30
0.0
  9
$EXTMAX
 10
1485.0
 20
2100.0
 30
0.0
  9
$LIMMIN
 10
0.0
 20
0.0
  9
$LIMMAX
 10
420.0
 20
297.0
  9
$ORTHOMODE
 70
     1
  9
$REGENMODE
 70
     1
  9
$FILLMODE
 70
     1
  9
$QTEXTMODE
 70
     0
  9
$MIRRTEXT
 70
     0
  9
$LTSCALE
 40
5.0
  9
$ATTMODE
 70
     1
  9
$TEXTSIZE
 40
14.0
  9
$TRACEWID
 40
1.0
  9
$TEXTSTYLE
  7
Standard
  9
$CLAYER
  8
09-01
  9
$CELTYPE
  6
ByLayer
  9
$CECOLOR
 62
   256
  9
$CELTSCALE
 40
1.0
  9
$DISPSILH
 70
     0
  9
$DIMSCALE
 40
5.0
  9
$DIMASZ
 40
2.5
  9
$DIMEXO
 40
1.0
  9
$DIMDLI
 40
10.0
  9
$DIMRND
 40
0.0
  9
$DIMDLE
 40
0.0
  9
$DIMEXE
 40
1.0
  9
$DIMTP
 40
0.0
  9
$DIMTM
 40
0.0
  9
$DIMTXT
 40
2.5
  9
$DIMCEN
 40
0.0
  9
$DIMTSZ
 40
0.0
  9
$DIMTOL
 70
     0
  9
$DIMLIM
 70
     0
  9
$DIMTIH
 70
     0
  9
$DIMTOH
 70
     0
  9
$DIMSE1
 70
     0
  9
$DIMSE2
 70
     0
  9
$DIMTAD
 70
     1
  9
$DIMZIN
 70
     8
  9
$DIMBLK
  1

  9
$DIMASO
 70
     1
  9
$DIMSHO
 70
     1
  9
$DIMPOST
  1

  9
$DIMAPOST
  1

  9
$DIMALT
 70
     0
  9
$DIMALTD
 70
     3
  9
$DIMALTF
 40
0.03937007874016
  9
$DIMLFAC
 40
1.0
  9
$DIMTOFL
 70
     1
  9
$DIMTVP
 40
0.0
  9
$DIMTIX
 70
     0
  9
$DIMSOXD
 70
     0
  9
$DIMSAH
 70
     0
  9
$DIMBLK1
  1

  9
$DIMBLK2
  1

  9
$DIMSTYLE
  2
Wagner
  9
$DIMCLRD
 70
     4
  9
$DIMCLRE
 70
     4
  9
$DIMCLRT
 70
     1
  9
$DIMTFAC
 40
1.0
  9
$DIMGAP
 40
1.0
  9
$DIMJUST
 70
     0
  9
$DIMSD1
 70
     0
  9
$DIMSD2
 70
     0
  9
$DIMTOLJ
 70
     0
  9
$DIMTZIN
 70
     8
  9
$DIMALTZ
 70
     0
  9
$DIMALTTZ
 70
     0
  9
$DIMUPT
 70
     0
  9
$DIMDEC
 70
     8
  9
$DIMTDEC
 70
     8
  9
$DIMALTU
 70
     2
  9
$DIMALTTD
 70
     3
  9
$DIMTXSTY
  7
Standard
  9
$DIMAUNIT
 70
     0
  9
$DIMADEC
 70
     2
  9
$DIMALTRND
 40
0.0
  9
$DIMAZIN
 70
     2
  9
$DIMDSEP
 70
    46
  9
$DIMATFIT
 70
     3
  9
$DIMFRAC
 70
     0
  9
$DIMLDRBLK
  1

  9
$DIMLUNIT
 70
     2
  9
$DIMLWD
 70
    -2
  9
$DIMLWE
 70
    -2
  9
$DIMTMOVE
 70
     0
  9
$DIMFXL
 40
1.0
  9
$DIMFXLON
 70
     0
  9
$DIMJOGANG
 40
0.7853981633974483
  9
$DIMTFILL
 70
     0
  9
$DIMTFILLCLR
 70
     0
  9
$DIMARCSYM
 70
     0
  9
$DIMLTYPE
  6

  9
$DIMLTEX1
  6

  9
$DIMLTEX2
  6

  9
$DIMTXTDIRECTION
 70
     0
  9
$LUNITS
 70
     2
  9
$LUPREC
 70
     4
  9
$SKETCHINC
 40
1.0
  9
$FILLETRAD
 40
0.0
  9
$AUNITS
 70
     0
  9
$AUPREC
 70
     0
  9
$MENU
  1
.
  9
$ELEVATION
 40
0.0
  9
$PELEVATION
 40
0.0
  9
$THICKNESS
 40
0.0
  9
$LIMCHECK
 70
     0
  9
$CHAMFERA
 40
0.0
  9
$CHAMFERB
 40
0.0
  9
$CHAMFERC
 40
0.0
  9
$CHAMFERD
 40
0.0
  9
$SKPOLY
 70
     0
  9
$TDCREATE
 40
2455975.371372176
  9
$TDUCREATE
 40
2455975.288038843
  9
$TDUPDATE
 40
2456883.618834086
  9
$TDUUPDATE
 40
2456883.535500753
  9
$TDINDWG
 40
0.3569713889
  9
$TDUSRTIMER
 40
0.3569678935
  9
$USRTIMER
 70
     1
  9
$ANGBASE
 50
0.0
  9
$ANGDIR
 70
     0
  9
$PDMODE
 70
     0
  9
$PDSIZE
 40
0.0
  9
$PLINEWID
 40
0.0
  9
$SPLFRAME
 70
     0
  9
$SPLINETYPE
 70
     6
  9
$SPLINESEGS
 70
     8
  9
$HANDSEED
  5
28A
  9
$SURFTAB1
 70
     6
  9
$SURFTAB2
 70
     6
  9
$SURFTYPE
 70
     6
  9
$SURFU
 70
     6
  9
$SURFV
 70
     6
  9
$UCSBASE
  2

  9
$UCSNAME
  2

  9
$UCSORG
 10
0.0
 20
0.0
 30
0.0
  9
$UCSXDIR
 10
1.0
 20
0.0
 30
0.0
  9
$UCSYDIR
 10
0.0
 20
1.0
 30
0.0
  9
$UCSORTHOREF
  2

  9
$UCSORTHOVIEW
 70
     0
  9
$UCSORGTOP
 10
0.0
 20
0.0
 30
0.0
  9
$UCSORGBOTTOM
 10
0.0
 20
0.0
 30
0.0
  9
$UCSORGLEFT
 10
0.0
 20
0.0
 30
0.0
  9
$UCSORGRIGHT
 10
0.0
 20
0.0
 30
0.0
  9
$UCSORGFRONT
 10
0.0
 20
0.0
 30
0.0
  9
$UCSORGBACK
 10
0.0
 20
0.0
 30
0.0
  9
$PUCSBASE
  2

  9
$PUCSNAME
  2

  9
$PUCSORG
 10
0.0
 20
0.0
 30
0.0
  9
$PUCSXDIR
 10
1.0
 20
0.0
 30
0.0
  9
$PUCSYDIR
 10
0.0
 20
1.0
 30
0.0
  9
$PUCSORTHOREF
  2

  9
$PUCSORTHOVIEW
 70
     0
  9
$PUCSORGTOP
 10
0.0
 20
0.0
 30
0.0
  9
$PUCSORGBOTTOM
 10
0.0
 20
0.0
 30
0.0
  9
$PUCSORGLEFT
 10
0.0
 20
0.0
 30
0.0
  9
$PUCSORGRIGHT
 10
0.0
 20
0.0
 30
0.0
  9
$PUCSORGFRONT
 10
0.0
 20
0.0
 30
0.0
  9
$PUCSORGBACK
 10
0.0
 20
0.0
 30
0.0
  9
$USERI1
 70
     0
  9
$USERI2
 70
     0
  9
$USERI3
 70
     0
  9
$USERI4
 70
     0
  9
$USERI5
 70
     0
  9
$USERR1
 40
0.0
  9
$USERR2
 40
0.0
  9
$USERR3
 40
0.0
  9
$USERR4
 40
0.0
  9
$USERR5
 40
0.0
  9
$WORLDVIEW
 70
     1
  9
$SHADEDGE
 70
     3
  9
$SHADEDIF
 70
    70
  9
$TILEMODE
 70
     1
  9
$MAXACTVP
 70
    64
  9
$PINSBASE
 10
0.0
 20
0.0
 30
0.0
  9
$PLIMCHECK
 70
     0
  9
$PEXTMIN
 10
0.0
 20
0.0
 30
0.0
  9
$PEXTMAX
 10
0.0
 20
0.0
 30
0.0
  9
$PLIMMIN
 10
0.0
 20
0.0
  9
$PLIMMAX
 10
12.0
 20
9.0
  9
$UNITMODE
 70
     0
  9
$VISRETAIN
 70
     1
  9
$PLINEGEN
 70
     0
  9
$PSLTSCALE
 70
     1
  9
$TREEDEPTH
 70
  3020
  9
$CMLSTYLE
  2
Standard
  9
$CMLJUST
 70
     0
  9
$CMLSCALE
 40
20.0
  9
$PROXYGRAPHICS
 70
     1
  9
$MEASUREMENT
 70
     1
  9
$CELWEIGHT
370
    -1
  9
$ENDCAPS
280
     0
  9
$JOINSTYLE
280
     0
  9
$LWDISPLAY
290
     0
  9
$INSUNITS
 70
     4
  9
$HYPERLINKBASE
  1

  9
$STYLESHEET
  1

  9
$XEDIT
290
     1
  9
$CEPSNTYPE
380
     0
  9
$PSTYLEMODE
290
     1
  9
$FINGERPRINTGUID
  2
{25358BC3-2323-4046-9E83-8D4CDE037B3D}
  9
$VERSIONGUID
  2
{8EDA2CE0-4205-4102-ACFB-2FC508B8E80E}
  9
$EXTNAMES
290
     1
  9
$PSVPSCALE
 40
0.0
  9
$OLESTARTUP
290
     0
  9
$SORTENTS
280
   127
  9
$INDEXCTL
280
     0
  9
$HIDETEXT
280
     1
  9
$XCLIPFRAME
280
     0
  9
$HALOGAP
280
     0
  9
$OBSCOLOR
 70
   257
  9
$OBSLTYPE
280
     0
  9
$INTERSECTIONDISPLAY
280
     0
  9
$INTERSECTIONCOLOR
 70
   257
  9
$DIMASSOC
280
     2
  9
$PROJECTNAME
  1

  9
$CAMERADISPLAY
290
     0
  9
$LENSLENGTH
 40
50.0
  9
$CAMERAHEIGHT
 40
0.0
  9
$STEPSPERSEC
 40
2.0
  9
$STEPSIZE
 40
6.0
  9
$3DDWFPREC
 40
2.0
  9
$PSOLWIDTH
 40
5.0
  9
$PSOLHEIGHT
 40
80.0
  9
$LOFTANG1
 40
1.570796326794896
  9
$LOFTANG2
 40
1.570796326794896
  9
$LOFTMAG1
 40
0.0
  9
$LOFTMAG2
 40
0.0
  9
$LOFTPARAM
 70
     7
  9
$LOFTNORMALS
280
     1
  9
$LATITUDE
 40
37.795
  9
$LONGITUDE
 40
-122.394
  9
$NORTHDIRECTION
 40
0.0
  9
$TIMEZONE
 70
 -8000
  9
$LIGHTGLYPHDISPLAY
280
     1
  9
$TILEMODELIGHTSYNCH
280
     1
  9
$CMATERIAL
347
3A
  9
$SOLIDHIST
280
     1
  9
$SHOWHIST
280
     1
  9
$DWFFRAME
280
     2
  9
$DGNFRAME
280
     0
  9
$REALWORLDSCALE
290
     1
  9
$INTERFERECOLOR
 62
     1
  9
$INTERFEREOBJVS
345
45
  9
$INTERFEREVPVS
346
46
  9
$CSHADOW
280
     0
  9
$SHADOWPLANELOCATION
 40
0.0
  0
ENDSEC
  0
SECTION
  2
CLASSES
  0
CLASS
  1
ACDBDICTIONARYWDFLT
  2
AcDbDictionaryWithDefault
  3
ObjectDBX Classes
 90
        0
 91
        1
280
     0
281
     0
  0
CLASS
  1
DICTIONARYVAR
  2
AcDbDictionaryVar
  3
ObjectDBX Classes
 90
        0
 91
        5
280
     0
281
     0
  0
CLASS
  1
TABLESTYLE
  2
AcDbTableStyle
  3
ObjectDBX Classes
 90
     4095
 91
        1
280
     0
281
     0
  0
CLASS
  1
MATERIAL
  2
AcDbMaterial
  3
ObjectDBX Classes
 90
     1153
 91
        3
280
     0
281
     0
  0
CLASS
  1
VISUALSTYLE
  2
AcDbVisualStyle
  3
ObjectDBX Classes
 90
     4095
 91
        3
280
     0
281
     0
  0
CLASS
  1
SCALE
  2
AcDbScale
  3
ObjectDBX Classes
 90
     1153
 91
       33
280
     0
281
     0
  0
CLASS
  1
MLEADERSTYLE
  2
AcDbMLeaderStyle
  3
ACDB_MLEADERSTYLE_CLASS
 90
     4095
 91
        0
280
     0
281
     0
  0
CLASS
  1
CELLSTYLEMAP
  2
AcDbCellStyleMap
  3
ObjectDBX Classes
 90
     1152
 91
        1
280
     0
281
     0
  0
CLASS
  1
SORTENTSTABLE
  2
AcDbSortentsTable
  3
ObjectDBX Classes
 90
        0
 91
        4
280
     0
281
     0
  0
CLASS
  1
DIMASSOC
  2
AcDbDimAssoc
  3
"AcDbDimAssoc|Product Desc:     AcDim ARX App For Dimension|Company:          Autodesk, Inc.|WEB Address:      www.autodesk.com"
 90
        0
 91
        9
280
     0
281
     0
  0
CLASS
  1
SOLID_BACKGROUND
  2
AcDbSolidBackground
  3
SCENEOE
 90
     4095
 91
        0
280
     0
281
     0
  0
CLASS
  1
NPOCOLLECTION
  2
AcDbImpNonPersistentObjectsCollection
  3
ObjectDBX Classes
 90
     1153
 91
        0
280
     0
281
     0
  0
CLASS
  1
AEC_REFEDIT_STATUS_TRACKER
  2
AecDbRefEditStatusTracker
  3
AecArchBase60|Product Desc: Autodesk Architectural Desktop 2007 |Company: Autodesk,Inc. |WEB Address: www.autodesk.com
 90
      129
 91
        0
280
     0
281
     0
  0
ENDSEC
  0
SECTION
  2
TABLES
  0
TABLE
  2
VPORT
  5
2C
330
0
100
AcDbSymbolTable
 70
     1
  0
VPORT
  5
2D
330
2C
100
AcDbSymbolTableRecord
100
AcDbViewportTableRecord
  2
*Active
 70
     0
 10
0.0
 20
0.0
 11
1.0
 21
1.0
 12
841.8129997596475
 22
506.8808119850357
 13
0.0
 23
0.0
 14
10.0
 24
10.0
 15
10.0
 25
10.0
 16
0.0
 26
0.0
 36
1.0
 17
0.0
 27
0.0
 37
0.0
 40
2116.013926601215
 41
1.937738246505718
 42
50.0
 43
0.0
 44
0.0
 50
0.0
 51
0.0
 71
     0
 72
  1000
 73
     1
 74
     2
 75
     0
 76
     0
 77
     0
 78
     0
281
     0
 65
     1
110
0.0
120
0.0
130
0.0
111
1.0
121
0.0
131
0.0
112
0.0
122
1.0
132
0.0
 79
     0
146
0.0
348
2E
 60
     2
 61
     5
292
     1
282
     1
141
0.0
142
0.0
 63
   250
421
  3355443
  0
ENDTAB
  0
TABLE
  2
LTYPE
  5
27
330
0
100
AcDbSymbolTable
 70
     3
  0
LTYPE
  5
28
330
27
100
AcDbSymbolTableRecord
100
AcDbLinetypeTableRecord
  2
ByBlock
 70
     0
  3

 72
    65
 73
     0
 40
0.0
  0
LTYPE
  5
29
330
27
100
AcDbSymbolTableRecord
100
AcDbLinetypeTableRecord
  2
ByLayer
 70
     0
  3

 72
    65
 73
     0
 40
0.0
  0
LTYPE
  5
14
330
27
100
AcDbSymbolTableRecord
100
AcDbLinetypeTableRecord
  2
Continuous
 70
     0
  3
Solid line
 72
    65
 73
     0
 40
0.0
  0
LTYPE
  5
232
330
27
100
AcDbSymbolTableRecord
100
AcDbLinetypeTableRecord
  2
AUSGEZOGEN
 70
     0
  3
Ausgezogene Linie
 72
    65
 73
     0
 40
0.0
  0
LTYPE
  5
14C
330
27
100
AcDbSymbolTableRecord
100
AcDbLinetypeTableRecord
  2
STRICHPUNKT
 70
     0
  3
Strichpunkt __ . __ . __ . __ . __ . __ . __ . 
 72
    65
 73
     4
 40
1.0
 49
0.5
 74
     0
 49
-0.25
 74
     0
 49
0.0
 74
     0
 49
-0.25
 74
     0
  0
ENDTAB
  0
TABLE
  2
LAYER
  5
1F
102
{ACAD_XDICTIONARY
360
20
102
}
330
0
100
AcDbSymbolTable
 70
     9
  0
LAYER
  5
6
102
{ACAD_XDICTIONARY
360
7
102
}
330
1F
100
AcDbSymbolTableRecord
100
AcDbLayerTableRecord
  2
0
 70
     0
 62
     7
  6
Continuous
370
    -3
390
9
347
C
  0
LAYER
  5
1F5
102
{ACAD_XDICTIONARY
360
1F6
102
}
330
1F
100
AcDbSymbolTableRecord
100
AcDbLayerTableRecord
  2
01-99
 70
     0
 62
     2
  6
Continuous
370
    -3
390
9
347
C
  0
LAYER
  5
230
102
{ACAD_XDICTIONARY
360
231
102
}
330
1F
100
AcDbSymbolTableRecord
100
AcDbLayerTableRecord
  2
06-99
 70
     0
 62
     1
  6
AUSGEZOGEN
370
    -3
390
9
347
C
  0
LAYER
  5
162
330
1F
100
AcDbSymbolTableRecord
100
AcDbLayerTableRecord
  2
DEFPOINTS
 70
     0
 62
     7
  6
Continuous
290
     0
370
    -3
390
9
347
C
  0
LAYER
  5
21B
102
{ACAD_XDICTIONARY
360
21C
102
}
330
1F
100
AcDbSymbolTableRecord
100
AcDbLayerTableRecord
  2
08-99
 70
     0
 62
     7
  6
Continuous
370
    -3
390
9
347
C
  0
LAYER
  5
106
102
{ACAD_XDICTIONARY
360
107
102
}
330
1F
100
AcDbSymbolTableRecord
100
AcDbLayerTableRecord
  2
02-01
 70
     0
 62
     1
  6
Continuous
370
    -3
390
9
347
C
  0
LAYER
  5
81
102
{ACAD_XDICTIONARY
360
82
102
}
330
1F
100
AcDbSymbolTableRecord
100
AcDbLayerTableRecord
  2
01-01
 70
     0
 62
     2
  6
Continuous
370
    -3
390
9
347
C
  0
LAYER
  5
40
102
{ACAD_XDICTIONARY
360
41
102
}
330
1F
100
AcDbSymbolTableRecord
100
AcDbLayerTableRecord
  2
09-01
 70
     0
 62
     7
  6
Continuous
370
    -3
390
9
347
C
  0
LAYER
  5
14A
102
{ACAD_XDICTIONARY
360
14B
102
}
330
1F
100
AcDbSymbolTableRecord
100
AcDbLayerTableRecord
  2
05-01
 70
     0
 62
     1
  6
STRICHPUNKT
370
    -3
390
9
347
C
  0
ENDTAB
  0
TABLE
  2
STYLE
  5
24
330
0
100
AcDbSymbolTable
 70
     3
  0
STYLE
  5
25
330
24
100
AcDbSymbolTableRecord
100
AcDbTextStyleTableRecord
  2
Standard
 70
     0
 40
0.0
 41
1.0
 50
0.0
 71
     0
 42
14.0
  3
txt.shx
  4

  0
STYLE
  5
21D
330
24
100
AcDbSymbolTableRecord
100
AcDbTextStyleTableRecord
  2
ROMANS8
 70
     0
 40
0.0
 41
1.0
 50
0.0
 71
     0
 42
2.5
  3
ROMANS8
  4

  0
STYLE
  5
243
330
24
100
AcDbSymbolTableRecord
100
AcDbTextStyleTableRecord
  2
ROMAND8
 70
     0
 40
0.0
 41
1.0
 50
0.0
 71
     0
 42
3.5
  3
ROMAND8
  4

  0
ENDTAB
  0
TABLE
  2
VIEW
  5
2A
330
0
100
AcDbSymbolTable
 70
     0
  0
ENDTAB
  0
TABLE
  2
UCS
  5
2B
330
0
100
AcDbSymbolTable
 70
     0
  0
ENDTAB
  0
TABLE
  2
APPID
  5
30
330
0
100
AcDbSymbolTable
 70
     5
  0
APPID
  5
13
330
30
100
AcDbSymbolTableRecord
100
AcDbRegAppTableRecord
  2
ACAD
 70
     0
  0
APPID
  5
1A
330
30
100
AcDbSymbolTableRecord
100
AcDbRegAppTableRecord
  2
ACAD_PSEXT
 70
     0
  0
APPID
  5
34
330
30
100
AcDbSymbolTableRecord
100
AcDbRegAppTableRecord
  2
ACAD_DSTYLE_DIMJAG
 70
     0
  0
APPID
  5
35
330
30
100
AcDbSymbolTableRecord
100
AcDbRegAppTableRecord
  2
ACAD_DSTYLE_DIMTALN
 70
     0
  0
APPID
  5
33
330
30
100
AcDbSymbolTableRecord
100
AcDbRegAppTableRecord
  2
ACAD_DSTYLE_DIMJOGGED_JOGANGLE_SYMBOL
 70
     0
  0
ENDTAB
  0
TABLE
  2
DIMSTYLE
  5
31
330
0
100
AcDbSymbolTable
 70
     2
100
AcDbDimStyleTable
 71
     1
340
32
  0
DIMSTYLE
105
32
330
31
100
AcDbSymbolTableRecord
100
AcDbDimStyleTableRecord
  2
Wagner
 70
     0
 41
2.5
 42
1.0
 43
10.0
 44
1.0
 73
     0
 74
     0
 77
     1
 78
     8
 79
     2
140
2.5
141
0.0
143
0.03937007874016
147
1.0
171
     3
172
     1
176
     4
177
     4
178
     1
179
     2
271
     8
272
     8
274
     3
283
     0
284
     8
340
25
1001
ACAD_DSTYLE_DIMJOGGED_JOGANGLE_SYMBOL
1070
   384
1040
0.7853981633974483
1001
ACAD_DSTYLE_DIMJAG
1070
   388
1040
1.5
1001
ACAD_DSTYLE_DIMTALN
1070
   392
1070
     0
  0
DIMSTYLE
105
166
102
{ACAD_REACTORS
330
1E0
330
1D1
330
1B8
330
1A9
330
198
330
187
330
178
330
167
330
154
102
}
330
31
100
AcDbSymbolTableRecord
100
AcDbDimStyleTableRecord
  2
Wagner$0
 70
     0
 41
2.5
 42
1.0
 43
10.0
 44
1.0
 73
     0
 74
     0
 77
     1
 78
     8
 79
     2
140
2.5
141
0.0
143
0.03937007874016
147
1.0
171
     3
172
     1
174
     1
176
     4
177
     4
178
     1
179
     2
271
     8
272
     8
274
     3
279
     2
283
     0
284
     8
340
25
1001
ACAD_DSTYLE_DIMJOGGED_JOGANGLE_SYMBOL
1070
   384
1040
0.7853981633974483
1001
ACAD_DSTYLE_DIMJAG
1070
   388
1040
1.5
1001
ACAD_DSTYLE_DIMTALN
1070
   392
1070
     0
  0
ENDTAB
  0
TABLE
  2
BLOCK_RECORD
  5
1
330
0
100
AcDbSymbolTable
 70
    10
  0
BLOCK_RECORD
  5
2
102
{ACAD_XDICTIONARY
360
3
102
}
330
1
100
AcDbSymbolTableRecord
100
AcDbBlockTableRecord
  2
*Model_Space
340
16
 70
     0
280
     1
281
     0
  0
BLOCK_RECORD
  5
1B
330
1
100
AcDbSymbolTableRecord
100
AcDbBlockTableRecord
  2
*Paper_Space
340
1E
 70
     0
280
     1
281
     0
  0
BLOCK_RECORD
  5
1F0
102
{ACAD_XDICTIONARY
360
1F1
102
}
330
1
100
AcDbSymbolTableRecord
100
AcDbBlockTableRecord
  2
DIN A4 Quer
340
0
102
{BLKREFS
331
1EF
102
}
 70
     4
280
     1
281
     0
  0
BLOCK_RECORD
  5
1E3
330
1
100
AcDbSymbolTableRecord
100
AcDbBlockTableRecord
  2
*D1
340
0
 70
     0
280
     1
281
     0
  0
BLOCK_RECORD
  5
1D4
330
1
100
AcDbSymbolTableRecord
100
AcDbBlockTableRecord
  2
*D2
340
0
 70
     0
280
     1
281
     0
  0
BLOCK_RECORD
  5
1BB
330
1
100
AcDbSymbolTableRecord
100
AcDbBlockTableRecord
  2
*D3
340
0
 70
     0
280
     1
281
     0
  0
BLOCK_RECORD
  5
1AC
330
1
100
AcDbSymbolTableRecord
100
AcDbBlockTableRecord
  2
*D4
340
0
 70
     0
280
     1
281
     0
  0
BLOCK_RECORD
  5
19B
330
1
100
AcDbSymbolTableRecord
100
AcDbBlockTableRecord
  2
*D5
340
0
 70
     0
280
     1
281
     0
  0
BLOCK_RECORD
  5
18A
330
1
100
AcDbSymbolTableRecord
100
AcDbBlockTableRecord
  2
*D6
340
0
 70
     0
280
     1
281
     0
  0
BLOCK_RECORD
  5
17B
330
1
100
AcDbSymbolTableRecord
100
AcDbBlockTableRecord
  2
*D7
340
0
 70
     0
280
     1
281
     0
  0
BLOCK_RECORD
  5
16A
330
1
100
AcDbSymbolTableRecord
100
AcDbBlockTableRecord
  2
*D8
340
0
 70
     0
280
     1
281
     0
  0
BLOCK_RECORD
  5
157
330
1
100
AcDbSymbolTableRecord
100
AcDbBlockTableRecord
  2
*D9
340
0
 70
     0
280
     1
281
     0
  0
ENDTAB
  0
ENDSEC
  0
SECTION
  2
BLOCKS
  0
BLOCK
  5
5
330
2
100
AcDbEntity
  8
0
100
AcDbBlockBegin
  2
*Model_Space
 70
     0
 10
0.0
 20
0.0
 30
0.0
  3
*Model_Space
  1

  0
ENDBLK
  5
15
330
2
100
AcDbEntity
  8
0
100
AcDbBlockEnd
  0
BLOCK
  5
1C
330
1B
100
AcDbEntity
 67
     1
  8
0
100
AcDbBlockBegin
  2
*Paper_Space
 70
     0
 10
0.0
 20
0.0
 30
0.0
  3
*Paper_Space
  1

  0
ENDBLK
  5
1D
330
1B
100
AcDbEntity
 67
     1
  8
0
100
AcDbBlockEnd
  0
BLOCK
  5
1F3
330
1F0
100
AcDbEntity
  8
0
100
AcDbBlockBegin
  2
DIN A4 Quer
 70
     2
 10
0.0
 20
0.0
 30
0.0
  3
DIN A4 Quer
  1

  0
LINE
  5
1F4
330
1F0
100
AcDbEntity
  8
01-99
100
AcDbLine
 10
6.000001890710336
 20
6.000000518749175
 30
0.0
 11
6.000001890710223
 21
204.0000005187492
 31
0.0
  0
LINE
  5
1F7
330
1F0
100
AcDbEntity
  8
01-99
100
AcDbLine
 10
6.000001890710223
 20
204.0000005187492
 30
0.0
 11
291.0000018907103
 21
204.0000005187492
 31
0.0
  0
LINE
  5
1F8
330
1F0
100
AcDbEntity
  8
02-01
100
AcDbLine
 10
297.0000018907104
 20
210.0000005187492
 30
0.0
 11
0.0000018907103367
 21
210.0000005187492
 31
0.0
  0
LINE
  5
1F9
330
1F0
100
AcDbEntity
  8
02-01
100
AcDbLine
 10
0.0000018907103367
 20
210.0000005187492
 30
0.0
 11
0.0000018907103367
 21
0.0000005187491752
 31
0.0
  0
LINE
  5
1FA
330
1F0
100
AcDbEntity
  8
01-99
100
AcDbLine
 10
291.0000018907103
 20
6.000000518749288
 30
0.0
 11
291.0000018907103
 21
204.0000005187492
 31
0.0
  0
LINE
  5
1FB
330
1F0
100
AcDbEntity
  8
01-99
100
AcDbLine
 10
291.0000018907103
 20
6.000000518749288
 30
0.0
 11
6.000001890710336
 21
6.000000518749175
 31
0.0
  0
LINE
  5
1FC
330
1F0
100
AcDbEntity
  8
02-01
100
AcDbLine
 10
0.0000018907103367
 20
0.0000005187491752
 30
0.0
 11
297.0000018907104
 21
0.0000005187491752
 31
0.0
  0
LINE
  5
1FD
330
1F0
100
AcDbEntity
  8
02-01
100
AcDbLine
 10
297.0000018907104
 20
0.0000005187491752
 30
0.0
 11
297.0000018907104
 21
210.0000005187492
 31
0.0
  0
LINE
  5
1FE
330
1F0
100
AcDbEntity
  8
01-99
100
AcDbLine
 10
157.0000018907103
 20
11.11111162974919
 30
0.0
 11
107.0000018907103
 21
11.11111162974919
 31
0.0
  0
LINE
  5
1FF
330
1F0
100
AcDbEntity
  8
01-99
100
AcDbLine
 10
157.0000018907103
 20
16.2222227407492
 30
0.0
 11
107.0000018907103
 21
16.2222227407492
 31
0.0
  0
LINE
  5
200
330
1F0
100
AcDbEntity
  8
01-99
100
AcDbLine
 10
157.0000018907103
 20
21.33333385174922
 30
0.0
 11
107.0000018907103
 21
21.33333385174916
 31
0.0
  0
LINE
  5
201
330
1F0
100
AcDbEntity
  8
01-99
100
AcDbLine
 10
202.0000018907103
 20
26.44444496274923
 30
0.0
 11
107.0000018907103
 21
26.44444496274918
 31
0.0
  0
LINE
  5
202
330
1F0
100
AcDbEntity
  8
01-99
100
AcDbLine
 10
202.0000018907103
 20
31.55555607374925
 30
0.0
 11
107.0000018907103
 21
31.55555607374919
 31
0.0
  0
LINE
  5
203
330
1F0
100
AcDbEntity
  8
01-99
100
AcDbLine
 10
132.0000018907103
 20
6.000000518749175
 30
0.0
 11
132.0000018907103
 21
11.11111162974919
 31
0.0
  0
LINE
  5
204
330
1F0
100
AcDbEntity
  8
01-99
100
AcDbLine
 10
115.0000018907103
 20
11.11111162974919
 30
0.0
 11
115.0000018907103
 21
36.66666718541586
 31
0.0
  0
LINE
  5
205
330
1F0
100
AcDbEntity
  8
01-99
100
AcDbLine
 10
157.0000018907103
 20
6.000000518749175
 30
0.0
 11
157.0000018907103
 21
52.00000051874917
 31
0.0
  0
LINE
  5
206
330
1F0
100
AcDbEntity
  8
01-99
100
AcDbLine
 10
202.0000018907103
 20
6.000000518749175
 30
0.0
 11
202.0000018907103
 21
52.00000051874917
 31
0.0
  0
LINE
  5
207
330
1F0
100
AcDbEntity
  8
01-99
100
AcDbLine
 10
231.5000018907103
 20
6.000000518749175
 30
0.0
 11
231.5000018907103
 21
16.22222274074926
 31
0.0
  0
LINE
  5
208
330
1F0
100
AcDbEntity
  8
01-99
100
AcDbLine
 10
264.0000018907104
 20
6.000000518749175
 30
0.0
 11
264.0000018907104
 21
16.22222274074931
 31
0.0
  0
LINE
  5
209
330
1F0
100
AcDbEntity
  8
01-99
100
AcDbLine
 10
235.5000018907103
 20
36.66666718541592
 30
0.0
 11
235.5000018907103
 21
52.00000051874929
 31
0.0
  0
LINE
  5
20A
330
1F0
100
AcDbEntity
  8
01-99
100
AcDbLine
 10
269.0000018907103
 20
36.66666718541592
 30
0.0
 11
269.0000018907103
 21
52.00000051874929
 31
0.0
  0
LINE
  5
20B
330
1F0
100
AcDbEntity
  8
01-99
100
AcDbLine
 10
165.0000018907103
 20
21.33333385208254
 30
0.0
 11
165.0000018907103
 21
36.66666718541592
 31
0.0
  0
LINE
  5
20C
330
1F0
100
AcDbEntity
  8
01-99
100
AcDbLine
 10
147.0031902301398
 20
11.11111162974919
 30
0.0
 11
147.0031902301398
 21
36.66666718541586
 31
0.0
  0
LINE
  5
20D
330
1F0
100
AcDbEntity
  8
01-99
100
AcDbLine
 10
135.0031902301398
 20
11.11111162974919
 30
0.0
 11
135.0031902301398
 21
36.66666718541586
 31
0.0
  0
LINE
  5
20E
330
1F0
100
AcDbEntity
  8
01-99
100
AcDbLine
 10
291.0000018907103
 20
52.00000051874929
 30
0.0
 11
107.0000018907085
 21
52.00000051874917
 31
0.0
  0
LINE
  5
20F
330
1F0
100
AcDbEntity
  8
01-99
100
AcDbLine
 10
202.0000018907103
 20
21.33333385208254
 30
0.0
 11
157.0000018907103
 21
21.33333385208254
 31
0.0
  0
LINE
  5
210
330
1F0
100
AcDbEntity
  8
01-99
100
AcDbLine
 10
202.0000018907103
 20
36.66666718541592
 30
0.0
 11
107.0000018907103
 21
36.66666718541581
 31
0.0
  0
LINE
  5
211
330
1F0
100
AcDbEntity
  8
01-99
100
AcDbLine
 10
179.0000018907103
 20
21.33333385208254
 30
0.0
 11
179.0000018907103
 21
52.00000051874923
 31
0.0
  0
LINE
  5
212
330
1F0
100
AcDbEntity
  8
01-99
100
AcDbLine
 10
157.0000018907103
 20
36.66666718541586
 30
0.0
 11
165.0000018907103
 21
31.5555560854159
 31
0.0
  0
LINE
  5
213
330
1F0
100
AcDbEntity
  8
01-99
100
AcDbLine
 10
157.0000018907103
 20
31.5555560854159
 30
0.0
 11
165.0000018907103
 21
36.66666718541592
 31
0.0
  0
LINE
  5
214
330
1F0
100
AcDbEntity
  8
01-99
100
AcDbLine
 10
291.0000018907103
 20
44.33333385208254
 30
0.0
 11
202.0000018907103
 21
44.33333385208249
 31
0.0
  0
LINE
  5
215
330
1F0
100
AcDbEntity
  8
01-99
100
AcDbLine
 10
202.0000018907103
 20
16.2222227407492
 30
0.0
 11
291.0000018907103
 21
16.22222274074931
 31
0.0
  0
LINE
  5
216
330
1F0
100
AcDbEntity
  8
01-99
100
AcDbLine
 10
202.0000018907103
 20
36.66666718541592
 30
0.0
 11
291.0000018907103
 21
36.66666718541597
 31
0.0
  0
LINE
  5
217
330
1F0
100
AcDbEntity
  8
01-99
100
AcDbLine
 10
179.0000018907103
 20
41.7777782967492
 30
0.0
 11
157.0000018907103
 21
41.7777782967492
 31
0.0
  0
LINE
  5
218
330
1F0
100
AcDbEntity
  8
01-99
100
AcDbLine
 10
179.0000018907103
 20
46.88888940774922
 30
0.0
 11
157.0000018907103
 21
46.88888940774916
 31
0.0
  0
LINE
  5
219
330
1F0
100
AcDbEntity
  8
01-99
100
AcDbLine
 10
107.0000018907085
 20
52.00000051874917
 30
0.0
 11
107.0000018907085
 21
6.000000518749175
 31
0.0
  0
TEXT
  5
21A
330
1F0
100
AcDbEntity
  8
08-99
100
AcDbText
 10
203.4997030590166
 20
32.66987422660714
 30
0.0
 40
2.5
  1
Benennung/Teil:
 51
15.0
  7
ROMANS8
100
AcDbText
  0
TEXT
  5
21E
330
1F0
100
AcDbEntity
  8
08-99
100
AcDbText
 10
265.5028293382777
 20
12.01760321297985
 30
0.0
 40
2.7
  1
Ident-Nr.
 51
15.0
  7
ROMANS8
100
AcDbText
  0
TEXT
  5
21F
330
1F0
100
AcDbEntity
  8
08-99
100
AcDbText
 10
180.5000236238784
 20
33.05557748053161
 30
0.0
 40
2.5
  1
Name:
 51
15.0
  7
ROMANS8
100
AcDbText
  0
TEXT
  5
220
330
1F0
100
AcDbEntity
  8
08-99
100
AcDbText
 10
166.5077710332552
 20
33.04841847975365
 30
0.0
 40
2.5
  1
Datum:
 50
0.102528160689452
 41
0.8933771909280748
 51
15.0
  7
ROMANS8
 72
     5
 11
177.6749680403372
 21
33.06840168621363
 31
0.0
100
AcDbText
  0
TEXT
  5
221
330
1F0
100
AcDbEntity
  8
08-99
100
AcDbText
 10
116.5000099724457
 20
33.05597761772907
 30
0.0
 40
1.6
  1
Änderung:
 51
15.0
  7
ROMANS8
100
AcDbText
  0
TEXT
  5
222
330
1F0
100
AcDbEntity
  8
08-99
100
AcDbText
 10
133.4999399664632
 20
9.111119817911628
 30
0.0
 40
1.0
  1
ERSETZT.DURCH:
 51
15.0
  7
ROMANS8
100
AcDbText
  0
TEXT
  5
223
330
1F0
100
AcDbEntity
  8
08-99
100
AcDbText
 10
108.499362706382
 20
9.110854721685427
 30
0.0
 40
1.0
  1
ERSETZT.FÜR:
 51
15.0
  7
ROMANS8
100
AcDbText
  0
TEXT
  5
224
330
1F0
100
AcDbEntity
  8
08-99
100
AcDbText
 10
232.9909087328646
 20
12.61295738281296
 30
0.0
 40
2.112
  1
AUFTRAGS.NR.:
 51
15.0
  7
ROMANS8
100
AcDbText
  0
TEXT
  5
225
330
1F0
100
AcDbEntity
  8
08-99
100
AcDbText
 10
203.5034660957227
 20
12.61092917477953
 30
0.0
 40
2.112
  1
Sonder-Nr:
 51
15.0
  7
ROMANS8
100
AcDbText
  0
TEXT
  5
226
330
1F0
100
AcDbEntity
  8
08-99
100
AcDbText
 10
186.6963093857886
 20
49.92370902579148
 30
0.0
 40
1.349999999999999
  1
Format
 51
15.0
  7
ROMANS8
100
AcDbText
  0
TEXT
  5
227
330
1F0
100
AcDbEntity
  8
08-99
100
AcDbText
 10
185.3043816374782
 20
44.64161931184992
 30
0.0
 40
1.822499999999999
  1
Normen
 51
15.0
  7
ROMANS8
100
AcDbText
  0
TEXT
  5
228
330
1F0
100
AcDbEntity
  8
08-99
100
AcDbText
 10
108.5000314946119
 20
33.0555683543073
 30
0.0
 40
1.6
  1
Zust.
 51
15.0
  7
ROMANS8
100
AcDbText
  0
TEXT
  5
229
330
1F0
100
AcDbEntity
  8
08-99
100
AcDbText
 10
136.5031825918795
 20
33.05555977024574
 30
0.0
 40
1.6
  1
Datum:
 51
15.0
  7
ROMANS8
100
AcDbText
  0
TEXT
  5
22A
330
1F0
100
AcDbEntity
  8
08-99
100
AcDbText
 10
148.5032155076424
 20
33.05556457669462
 30
0.0
 40
1.6
  1
Name:
 51
15.0
  7
ROMANS8
100
AcDbText
  0
TEXT
  5
22B
330
1F0
100
AcDbEntity
  8
08-99
100
AcDbText
 10
158.1545563363015
 20
28.03814008669803
 30
0.0
 40
1.6
  1
Erst.
 51
15.0
  7
ROMANS8
100
AcDbText
  0
TEXT
  5
22C
330
1F0
100
AcDbEntity
  8
08-99
100
AcDbText
 10
157.517182253021
 20
23.19745157817022
 30
0.0
 40
1.6
  1
Bearb.
 51
15.0
  7
ROMANS8
100
AcDbText
  0
TEXT
  5
22D
330
1F0
100
AcDbEntity
  8
08-99
100
AcDbText
 10
236.4308068024784
 20
41.61949801145603
 30
0.0
 40
2.0
  1
Zuschnittsbreite:
 51
15.0
  7
ROMANS8
100
AcDbText
  0
TEXT
  5
22E
330
1F0
100
AcDbEntity
  8
08-99
100
AcDbText
 10
202.9849966647425
 20
41.73762414686279
 30
0.0
 40
2.0
  1
Zuschnittslänge:
 51
15.0
  7
ROMANS8
100
AcDbText
  0
LWPOLYLINE
  5
22F
330
1F0
100
AcDbEntity
  8
06-99
100
AcDbPolyline
 90
      133
 70
     1
 43
0.010692
 10
180.7675417027103
 20
18.87656536808259
 10
181.0090490347104
 20
19.08724766408261
 10
180.9228536947104
 20
19.2262579200825
 10
180.8242663267103
 20
19.35180694808264
 10
180.7136290747105
 20
19.46394108008263
 10
180.5912983387103
 20
19.56271377608249
 10
180.4576162627104
 20
19.64816424008256
 10
180.3129285547104
 20
19.72033880408253
 10
180.1575880507104
 20
19.77929092808256
 10
179.9919368947105
 20
19.82505981608255
 10
179.8163243587104
 20
19.85769180008265
 10
179.6310997147105
 20
19.87724034008261
 10
179.4366086707105
 20
19.88374464008257
 10
179.2756833787104
 20
19.87768227608256
 10
179.1199437067102
 20
19.85975892008253
 10
178.9697211067105
 20
19.83036304808269
 10
178.8253505947104
 20
19.78989026408254
 10
178.6871636227104
 20
19.73873617208267
 10
178.5554845147104
 20
19.67729281208255
 10
178.4306554147105
 20
19.60595222408256
 10
178.3130006467104
 20
19.52510644808251
 10
178.2028516627103
 20
19.43514752408259
 10
178.1005470427104
 20
19.33647462008258
 10
178.0064075467105
 20
19.2294726480826
 10
177.9207717547105
 20
19.1145443400826
 10
177.8439711187104
 20
18.99207460808259
 10
177.7763335267104
 20
18.86245905608262
 10
177.7181939947104
 20
18.72608972408255
 10
177.6698804107104
 20
18.58336578008254
 10
177.6317242267105
 20
18.43467213608255
 10
177.6040640227103
 20
18.28040796008252
 10
177.5872205587104
 20
18.12096172808259
 10
177.5815359787104
 20
17.95672904408258
 10
177.5871492787104
 20
17.78762437208263
 10
177.6038002867105
 20
17.62428981608258
 10
177.6311896267102
 20
17.46704257208256
 10
177.6690179227102
 20
17.31619627208249
 10
177.7169893627103
 20
17.17206454808257
 10
177.7748081347105
 20
17.0349610320826
 10
177.8421784267104
 20
16.90519579208256
 10
177.9188008627104
 20
16.78308602408253
 10
178.0043796307104
 20
16.66894179608255
 10
178.0986224827104
 20
16.56308030408257
 10
178.2012229147103
 20
16.46581161608259
 10
178.3118958067103
 20
16.3774529280825
 10
178.4303346547105
 20
16.29831430808264
 10
178.5562472107103
 20
16.22870938808262
 10
178.6893340987103
 20
16.16895536408253
 10
178.8293030707103
 20
16.11936230408258
 10
178.9758511867105
 20
16.08024384008263
 10
179.1286897627103
 20
16.05191360408264
 10
179.2875122947104
 20
16.03468522808259
 10
179.4520300987104
 20
16.02887234408263
 10
179.6160275587104
 20
16.03412568008258
 10
179.7733603387104
 20
16.04976451208262
 10
179.9238395467104
 20
16.07559638408259
 10
180.0672762907103
 20
16.11142884008262
 10
180.2034852427104
 20
16.15707298808257
 10
180.3322739467103
 20
16.21233993608257
 10
180.4534570747104
 20
16.27703722808258
 10
180.5668386067104
 20
16.3509795360826
 10
180.6722403427104
 20
16.43397440408256
 10
180.7694626987104
 20
16.52582581208259
 10
180.8583239107104
 20
16.62635556008257
 10
180.9386350867105
 20
16.73536050008255
 10
181.0102037707104
 20
16.85266243208258
 10
181.0728410707104
 20
16.97806177208258
 10
181.1263616587105
 20
17.11137319208251
 10
181.1705766427103
 20
17.25240423608255
 10
181.2052900027104
 20
17.40096601208256
 10
181.2303235387104
 20
17.55686962808261
 10
181.2454812307105
 20
17.71992619208254
 10
181.2505741867103
 20
17.88993968408255
 10
181.2505741867103
 20
17.88993968408255
 10
181.2505741867103
 20
17.9413218720826
 10
179.6164659307104
 20
17.9413218720826
 10
179.6164659307104
 20
17.65355025608255
 10
180.8857275067103
 20
17.65355025608255
 10
180.8749891747103
 20
17.49100690808257
 10
180.8476568587103
 20
17.33636138408258
 10
180.8044362307105
 20
17.19027658808261
 10
180.7460329627104
 20
17.05341898808257
 10
180.6731598547105
 20
16.9264443600826
 10
180.5865261427104
 20
16.8100263000826
 10
180.4868303707104
 20
16.7048170200826
 10
180.3747889027104
 20
16.61149011608256
 10
180.2511074107103
 20
16.53069780008258
 10
180.1164915667104
 20
16.4631101040826
 10
179.9716506067103
 20
16.40938636808255
 10
179.8172937667104
 20
16.37019306008267
 10
179.6541267187105
 20
16.34618952008253
 10
179.4828586987105
 20
16.33804221608261
 10
179.3181983347104
 20
16.34599350008256
 10
179.1599032747103
 20
16.36937690408251
 10
179.0085651427103
 20
16.40748319208256
 10
178.8647719987102
 20
16.45960669208256
 10
178.7291047747104
 20
16.52503816808257
 10
178.6021550947103
 20
16.60306838408263
 10
178.4845074547104
 20
16.69299523208258
 10
178.3767534787104
 20
16.79410591208267
 10
178.2794776627105
 20
16.90569475208258
 10
178.1932645027103
 20
17.02705608008256
 10
178.1187056227104
 20
17.15747709608257
 10
178.0563855187104
 20
17.29625569208258
 10
178.0068922507104
 20
17.44268263208255
 10
177.9708138787102
 20
17.59604511608262
 10
177.9487348987103
 20
17.75564460008269
 10
177.9412469347104
 20
17.9207682840825
 10
177.9476336227105
 20
18.0891423360826
 10
177.9665370787104
 20
18.25115464808255
 10
177.9975581347105
 20
18.40630626008254
 10
178.0403011867104
 20
18.55410177608257
 10
178.0943741947103
 20
18.69404580008256
 10
178.1593779907104
 20
18.8256465000826
 10
178.2349169707104
 20
18.94840135208261
 10
178.3205990947104
 20
19.06182208808258
 10
178.4160251947103
 20
19.16540618408265
 10
178.5208067947103
 20
19.25866180808253
 10
178.6345375987105
 20
19.3410900000826
 10
178.7568326947105
 20
19.4121989280826
 10
178.8872893507102
 20
19.47148963208258
 10
179.0255155267105
 20
19.51846671608257
 10
179.1711191827105
 20
19.55263478408255
 10
179.3236975867105
 20
19.57350200408257
 10
179.4828586987105
 20
19.5805658520826
 10
179.6605633027104
 20
19.57164872408259
 10
179.8303166227105
 20
19.54501138808257
 10
179.9917800787104
 20
19.50082135208259
 10
180.1446150907104
 20
19.43924612408256
 10
180.2884830787104
 20
19.36046034008256
 10
180.4230490267105
 20
19.26462794408263
 10
180.5479743547104
 20
19.15192357208258
 10
180.6629169187105
 20
19.02251116808264
  0
LWPOLYLINE
  5
233
330
1F0
100
AcDbEntity
  8
06-99
100
AcDbPolyline
 90
       12
 70
     1
 43
0.010692
 10
177.4389973627103
 20
12.25281434408265
 10
179.3222648587105
 20
12.25281434408265
 10
179.4676012147104
 20
13.00768023608259
 10
178.5648720907104
 20
13.00768023608259
 10
178.6210549867103
 20
13.29950768408252
 10
179.4187173907104
 20
13.29950768408252
 10
179.5558030867103
 20
14.01156280808254
 10
178.7581406827103
 20
14.01156280808254
 10
178.8098471947103
 20
14.28005674808253
 10
179.6892285547103
 20
14.28005674808253
 10
179.8345542187104
 20
15.0349083840826
 10
177.9746344867104
 20
15.0349083840826
  0
LWPOLYLINE
  5
234
330
1F0
100
AcDbEntity
  8
06-99
100
AcDbPolyline
 90
        4
 70
     1
 43
0.010692
 10
163.6086138067104
 20
12.88042761608255
 10
176.0658630067103
 20
12.88042761608255
 10
175.9422848707104
 20
12.25209798008257
 10
163.4850392347104
 20
12.25209798008257
  0
SOLID
  5
235
330
1F0
100
AcDbEntity
  8
06-99
100
AcDbTrace
 10
163.6086138067104
 20
12.88042761608255
 30
0.0
 11
176.0658630067103
 21
12.88042761608255
 31
0.0
 12
163.4850392347104
 22
12.25209798008257
 32
0.0
 13
175.9422848707104
 23
12.25209798008257
 33
0.0
  0
LWPOLYLINE
  5
236
330
1F0
100
AcDbEntity
  8
06-99
100
AcDbPolyline
 90
       10
 70
     1
 43
0.010692
 10
169.3458447787104
 20
16.02887234408263
 10
170.3221847587103
 20
19.10266909208258
 10
171.3396497347103
 20
16.02887234408263
 10
172.5678005707104
 20
19.80153385208257
 10
172.2235110427103
 20
19.80153385208257
 10
171.3396497347103
 20
16.89303186008254
 10
170.3221847587103
 20
19.94541253208251
 10
169.3458447787104
 20
16.86733898408261
 10
168.4260120187104
 20
19.80153385208257
 10
168.0765832027105
 20
19.80153385208257
  0
LWPOLYLINE
  5
237
330
1F0
100
AcDbEntity
  8
06-99
100
AcDbPolyline
 90
        3
 70
     1
 43
0.010692
 10
174.3244177627104
 20
17.65868598008262
 10
174.9770360587104
 20
19.25683347608253
 10
175.6039650427103
 20
17.65868598008262
  0
LWPOLYLINE
  5
238
330
1F0
100
AcDbEntity
  8
06-99
100
AcDbPolyline
 90
        7
 70
     1
 43
0.010692
 10
173.3831831827104
 20
16.12735992008254
 10
173.7231959107104
 20
16.12735992008254
 10
174.2113641187103
 20
17.37092862008256
 10
175.7118651427105
 20
17.37092862008256
 10
176.1794940187103
 20
16.12735992008254
 10
176.5443406987103
 20
16.12735992008254
 10
174.9975932107104
 20
19.94541253208251
  0
LWPOLYLINE
  5
239
330
1F0
100
AcDbEntity
  8
06-99
100
AcDbPolyline
 90
        8
 70
     1
 43
0.010692
 10
185.9298068107102
 20
12.25281434408265
 10
187.0043813227103
 20
12.25281434408265
 10
187.1574087907104
 20
12.60301298408257
 10
187.9122746827104
 20
12.60301298408257
 10
187.9343465347103
 20
12.25281434408265
 10
189.0082759627103
 20
12.25281434408265
 10
188.5711513627103
 20
15.0349083840826
 10
187.4583137467103
 20
15.0349083840826
  0
LWPOLYLINE
  5
23A
330
1F0
100
AcDbEntity
  8
06-99
100
AcDbPolyline
 90
       34
 70
     1
 43
0.010692
 10
183.0434586427104
 20
13.66137842408255
 10
183.0784820707102
 20
13.66137842408255
 10
183.0642260707104
 20
13.48699903208262
 10
183.0638019547103
 20
13.33510135208257
 10
183.0679005547104
 20
13.20222830408261
 10
183.0952328707104
 20
12.25281434408265
 10
183.9668304547102
 20
12.25281434408265
 10
185.3156904067102
 20
15.0349083840826
 10
184.3118078347104
 20
15.0349083840826
 10
183.8579146147103
 20
13.80923096408253
 10
183.8078119027104
 20
13.66872739208253
 10
183.7488419587103
 20
13.48671391208251
 10
183.6900288307102
 20
13.26059949608265
 10
183.6666953227103
 20
13.26059949608265
 10
183.6884214667103
 20
13.45803440408258
 10
183.6929798227104
 20
13.61569507208253
 10
183.6919391347103
 20
13.73531360408259
 10
183.6775548307103
 20
15.0349083840826
 10
182.9732870467103
 20
15.0349083840826
 10
182.4584850667104
 20
13.73531360408259
 10
182.4113832427102
 20
13.61569507208253
 10
182.3552288587104
 20
13.45803440408258
 10
182.3009241907103
 20
13.26059949608265
 10
182.2775906827103
 20
13.26059949608265
 10
182.3058460747104
 20
13.48671391208251
 10
182.3169657547104
 20
13.66872739208253
 10
182.3209609987103
 20
13.80923096408253
 10
182.3390340427103
 20
15.0349083840826
 10
181.3345063867103
 20
15.0349083840826
 10
181.6127371747104
 20
12.25281434408265
 10
182.4843311947103
 20
12.25281434408265
 10
182.8772408107104
 20
13.20222830408261
 10
182.9325148867103
 20
13.33510135208257
 10
182.9905795747104
 20
13.48699903208262
  0
LWPOLYLINE
  5
23B
330
1F0
100
AcDbEntity
  8
06-99
100
AcDbPolyline
 90
       10
 70
     1
 43
0.010692
 10
187.4520696187103
 20
13.2644842560826
 10
187.5983611267103
 20
13.57965946808258
 10
187.6731124627104
 20
13.74409530008267
 10
187.7541542587104
 20
13.9457107800826
 10
187.8288307507103
 20
14.19056470808266
 10
187.8482901907103
 20
14.19056470808266
 10
187.8286668067103
 20
13.9457107800826
 10
187.8320739907103
 20
13.74409530008267
 10
187.8435073027103
 20
13.57965946808258
 10
187.8684125347105
 20
13.2644842560826
  0
LWPOLYLINE
  5
23C
330
1F0
100
AcDbEntity
  8
06-99
100
AcDbPolyline
 90
       23
 70
     1
 43
0.010692
 10
190.5867074107104
 20
12.25281434408265
 10
191.5672422187102
 20
12.25281434408265
 10
191.7440380027103
 20
13.17110389208255
 10
192.0536284267105
 20
12.25281434408265
 10
193.1742391267103
 20
12.25281434408265
 10
192.6490694707104
 20
13.38511496408256
 10
192.8084301667104
 20
13.42380931208259
 10
192.9537023707103
 20
13.49881725608259
 10
193.0813505947103
 20
13.60690268408257
 10
193.1878322227103
 20
13.74481879208258
 10
193.2696010747103
 20
13.90932234008255
 10
193.3231145347102
 20
14.09717008808257
 10
193.3446018907103
 20
14.26809240008259
 10
193.3403037067103
 20
14.42330103608265
 10
193.3102306747104
 20
14.56226139608259
 10
193.2543934867102
 20
14.6844353160825
 10
193.1728099627103
 20
14.78928819608262
 10
193.0654943587103
 20
14.87627830808259
 10
192.9324538027104
 20
14.94487461608258
 10
192.7737096787102
 20
14.99453539208264
 10
192.5892655507103
 20
15.0247260360826
 10
192.3791463667103
 20
15.0349083840826
 10
191.1223445347103
 20
15.0349083840826
  0
LWPOLYLINE
  5
23D
330
1F0
100
AcDbEntity
  8
06-99
100
AcDbPolyline
 90
        9
 70
     1
 43
0.010692
 10
191.9650345147104
 20
14.31896493608258
 10
192.1206850867104
 20
14.31896493608258
 10
192.2773549627104
 20
14.28538492808252
 10
192.3582221227102
 20
14.19041145608264
 10
192.3632188507104
 20
14.04270147608258
 10
192.3008666707103
 20
13.89700159208263
 10
192.1832938747103
 20
13.8057810120826
 10
192.0158143867103
 20
13.77422179208253
 10
191.8601638147104
 20
13.77422179208253
  0
LWPOLYLINE
  5
23E
330
1F0
100
AcDbEntity
  8
06-99
100
AcDbPolyline
 90
       12
 70
     1
 43
0.010692
 10
187.5798033787105
 20
16.12735992008254
 10
189.3989010547104
 20
16.12735992008254
 10
189.3989010547104
 20
16.44082441208252
 10
187.9138214587104
 20
16.44082441208252
 10
187.9138214587104
 20
18.02353266008265
 10
189.3989010547104
 20
18.02353266008265
 10
189.3989010547104
 20
18.33699715208263
 10
187.9138214587104
 20
18.33699715208263
 10
187.9138214587104
 20
19.48806936008259
 10
189.3989010547104
 20
19.48806936008259
 10
189.3989010547104
 20
19.80153385208257
 10
187.5798033787105
 20
19.80153385208257
  0
LWPOLYLINE
  5
23F
330
1F0
100
AcDbEntity
  8
06-99
100
AcDbPolyline
 90
        8
 70
     1
 43
0.010692
 10
182.8530269947105
 20
16.12735992008254
 10
183.1870486387104
 20
16.12735992008254
 10
183.1870486387104
 20
19.09753336808256
 10
185.7666682747103
 20
16.01858664008256
 10
185.7666682747103
 20
19.80153385208257
 10
185.4326608867104
 20
19.80153385208257
 10
185.4326608867104
 20
16.88274615608259
 10
182.8530269947105
 20
19.95568398008254
  0
LWPOLYLINE
  5
240
330
1F0
100
AcDbEntity
  8
06-99
100
AcDbPolyline
 90
       19
 70
     1
 43
0.010692
 10
191.4484255867105
 20
19.50862651208251
 10
191.7824329747104
 20
19.50862651208251
 10
191.9866180987103
 20
19.50030813608259
 10
192.1604486347104
 20
19.47385969208255
 10
192.3048975547104
 20
19.4270572440825
 10
192.4209200107105
 20
19.35767329208255
 10
192.5094818467105
 20
19.26348033608252
 10
192.5715453427103
 20
19.14225087608264
 10
192.6080799067104
 20
18.99175028408251
 10
192.6200442547104
 20
18.80976175208258
 10
192.6074490787103
 20
18.63100933208255
 10
192.5693784307105
 20
18.48586186808256
 10
192.5054188867104
 20
18.37130421608265
 10
192.4151392027104
 20
18.28432836008261
 10
192.2981259547105
 20
18.2219227200826
 10
192.1539514627104
 20
18.18107215208255
 10
191.9821916107103
 20
18.15877220408265
 10
191.7824329747104
 20
18.15200773208261
 10
191.4484255867105
 20
18.15200773208261
  0
LWPOLYLINE
  5
241
330
1F0
100
AcDbEntity
  8
06-99
100
AcDbPolyline
 90
       29
 70
     1
 43
0.010692
 10
193.3446018907103
 20
16.12735992008254
 10
192.0239581267103
 20
17.87965398008259
 10
192.2123761147105
 20
17.89225272008264
 10
192.3829028227104
 20
17.92942167608254
 10
192.5344013347104
 20
17.99023064408266
 10
192.6657240427104
 20
18.0737565480826
 10
192.7757304667104
 20
18.17905849208256
 10
192.8632765627103
 20
18.3052169640826
 10
192.9272254147104
 20
18.45129463208263
 10
192.9664329787103
 20
18.61636129208261
 10
192.9797552107102
 20
18.79949030408261
 10
192.9699399547105
 20
18.9745539840826
 10
192.9404834947105
 20
19.13261738408261
 10
192.8913573187104
 20
19.27374822008261
 10
192.8225436067105
 20
19.39801420808248
 10
192.7340174107104
 20
19.50548662808262
 10
192.6257537827105
 20
19.5962367600826
 10
192.4977313387104
 20
19.67032875608254
 10
192.3499251307103
 20
19.72783389608258
 10
192.1823137747103
 20
19.76882702408261
 10
191.9948758867103
 20
19.79336872808261
 10
191.7875829547104
 20
19.80153385208257
 10
191.7875829547104
 20
19.80153385208257
 10
191.1144075067104
 20
19.80153385208257
 10
191.1144075067104
 20
16.12735992008254
 10
191.4484255867105
 20
16.12735992008254
 10
191.4484255867105
 20
17.87965398008259
 10
191.6488399987104
 20
17.87965398008259
 10
192.9386409067103
 20
16.12735992008254
  0
TEXT
  5
242
330
1F0
100
AcDbEntity
  8
06-99
100
AcDbText
 10
172.6083599897699
 20
9.633209504468425
 30
0.0
 40
1.4256
  1
GmbH & Co KG
 41
1.199203187251
 51
15.0
  7
ROMAND8
 72
     5
 11
193.04195998977
 21
9.633209504468425
 31
0.0
100
AcDbText
  0
TEXT
  5
244
330
1F0
100
AcDbEntity
  8
06-99
100
AcDbText
 10
172.7098167443538
 20
7.391016232044876
 30
0.0
 40
1.4256
  1
72774 Reutlingen
 50
0.5663244663116128
 41
1.087840993687879
 51
15.0
  7
ROMAND8
 72
     5
 11
192.9434167443538
 21
7.591016232044864
 31
0.0
100
AcDbText
  0
TEXT
  5
245
330
1F0
100
AcDbEntity
  8
08-99
100
AcDbText
 10
160.4141200905478
 20
48.45009214919253
 30
0.0
 40
2.25
  1
Zul. Abw.
 51
15.0
  7
ROMANS8
100
AcDbText
  0
TEXT
  5
246
330
1F0
100
AcDbEntity
  8
08-99
100
AcDbText
 10
210.2099282109939
 20
49.2861646781227
 30
0.0
 40
2.0
  1
Mat. Art.
 51
15.0
  7
ROMANS8
100
AcDbText
  0
TEXT
  5
247
330
1F0
100
AcDbEntity
  8
08-99
100
AcDbText
 10
242.4865328610831
 20
49.40431390209392
 30
0.0
 40
2.0
  1
Oberfläche:
 51
15.0
  7
ROMANS8
100
AcDbText
  0
TEXT
  5
248
330
1F0
100
AcDbEntity
  8
08-99
100
AcDbText
 10
270.2625397292909
 20
41.73764723542717
 30
0.0
 40
2.0
  1
Blech Dicke:
 51
15.0
  7
ROMANS8
100
AcDbText
  0
TEXT
  5
249
330
1F0
100
AcDbEntity
  8
08-99
100
AcDbText
 10
274.438029919268
 20
49.28616467812275
 30
0.0
 40
2.0
  1
Maßstab:
 51
15.0
  7
ROMANS8
100
AcDbText
  0
LINE
  5
24A
330
1F0
100
AcDbEntity
  8
01-99
100
AcDbLine
 10
202.0000018907103
 20
46.88888940774922
 30
0.0
 11
179.0000018907103
 21
46.88888940774922
 31
0.0
  0
LINE
  5
24B
330
1F0
100
AcDbEntity
  8
01-99
100
AcDbLine
 10
202.0000018907103
 20
44.33333385208249
 30
0.0
 11
179.0000018907103
 21
44.33333385208249
 31
0.0
  0
LINE
  5
24C
330
1F0
100
AcDbEntity
  8
01-99
100
AcDbLine
 10
202.0000018907103
 20
40.50000051874917
 30
0.0
 11
179.0000018907103
 21
40.50000051874917
 31
0.0
  0
ATTDEF
  5
24D
330
1F0
100
AcDbEntity
  8
06-99
100
AcDbText
 10
203.4954486298875
 20
26.18783921603142
 30
0.0
 40
4.5
  1

 41
0.9
  7
ROMANS8
100
AcDbAttributeDefinition
280
     0
  3
Benennung/Teil
  2
TEILE
 70
     0
280
     0
  0
ATTDEF
  5
24E
330
1F0
100
AcDbEntity
  8
06-99
100
AcDbText
 10
203.4954486298875
 20
18.95060400366537
 30
0.0
 40
4.5
  1

 41
0.9
  7
ROMANS8
100
AcDbAttributeDefinition
280
     0
  3
Benennung/Teil2
  2
TEILE2
 70
     0
280
     0
  0
ATTDEF
  5
24F
330
1F0
100
AcDbEntity
  8
06-99
100
AcDbText
 10
278.3473881024249
 20
45.33333385208254
 30
0.0
 40
3.375
  1

  7
ROMANS8
100
AcDbAttributeDefinition
280
     0
  3
Maßstab
  2
:
 70
     0
280
     0
  0
ATTDEF
  5
250
330
1F0
100
AcDbEntity
  8
06-99
100
AcDbText
 10
179.9970696900777
 20
27.4416859867805
 30
0.0
 40
2.5
  1

 41
0.9
  7
ROMANS8
100
AcDbAttributeDefinition
280
     0
  3
Name
  2
NAME
 70
     0
280
     0
  0
ATTDEF
  5
251
330
1F0
100
AcDbEntity
  8
06-99
100
AcDbText
 10
166.4931483426044
 20
27.46123569286044
 30
0.0
 40
2.5
  1

 50
359.9144597696142
 41
0.9542572414211148
  7
ROMANS8
 72
     5
 11
177.7397390111491
 21
27.44444498541589
 31
0.0
100
AcDbAttributeDefinition
280
     0
  3
Datum
  2
DATUM
 70
     0
280
     0
  0
ATTDEF
  5
252
330
1F0
100
AcDbEntity
  8
06-99
100
AcDbText
 10
265.5063458578686
 20
7.492900319037914
 30
0.0
 40
2.99376
  1

  7
ROMANS8
100
AcDbAttributeDefinition
280
     0
  3
Ident-Nummer
  2
ID.NR
 70
     0
280
     0
  0
ATTDEF
  5
253
330
1F0
100
AcDbEntity
  8
06-99
100
AcDbText
 10
203.7312681464209
 20
37.66666716319367
 30
0.0
 40
3.0
  1

 41
0.9
  7
ROMANS8
100
AcDbAttributeDefinition
280
     0
  3
Zuschnitts.Länge
  2
LÄNGE
 70
     0
280
     0
  0
ATTDEF
  5
254
330
1F0
100
AcDbEntity
  8
06-99
100
AcDbText
 10
237.1808068024801
 20
37.67810438919398
 30
0.0
 40
3.0
  1

 41
0.9
  7
ROMANS8
100
AcDbAttributeDefinition
280
     0
  3
Zuschnitts Breite
  2
BREITE
 70
     0
280
     0
  0
ATTDEF
  5
255
330
1F0
100
AcDbEntity
  8
06-99
100
AcDbText
 10
277.6090940174422
 20
37.66666718541598
 30
0.0
 40
3.09375
  1

  7
ROMANS8
100
AcDbAttributeDefinition
280
     0
  3
Blech.Dicke
  2
1.0
 70
     0
280
     0
  0
ATTDEF
  5
256
330
1F0
100
AcDbEntity
  8
06-99
100
AcDbText
 10
251.127787492113
 20
45.33333385208266
 30
0.0
 40
3.0
  1

  7
ROMANS8
 72
     1
 11
251.127787492113
 21
45.33333385208266
 31
0.0
100
AcDbAttributeDefinition
280
     0
  3
Oberfläche
  2
IV
 70
     0
280
     0
  0
ATTDEF
  5
257
330
1F0
100
AcDbEntity
  8
06-99
100
AcDbText
 10
210.2747424268261
 20
45.33333385208249
 30
0.0
 40
3.375
  1
1.4301
  7
ROMANS8
100
AcDbAttributeDefinition
280
     0
  3
Mat.Art
  2
1.4301
 70
     0
280
     0
  0
ATTDEF
  5
258
330
1F0
100
AcDbEntity
  8
06-99
100
AcDbText
 10
233.0006357775904
 20
7.504397123103842
 30
0.0
 40
3.168
  1

 41
0.9
  7
ROMANS8
100
AcDbAttributeDefinition
280
     0
  3
Auftrags Nr.
  2
AUFTRAGS.NR.
 70
     0
280
     0
  0
ATTDEF
  5
259
330
1F0
100
AcDbEntity
  8
06-99
100
AcDbText
 10
203.5000018907104
 20
7.500000518749232
 30
0.0
 40
3.168
  1

 41
0.9
  7
ROMANS8
100
AcDbAttributeDefinition
280
     0
  3
Sonder-NR,WPS
  2
SONDER-NR
 70
     0
280
     0
  0
ATTDEF
  5
25A
330
1F0
100
AcDbEntity
  8
06-99
100
AcDbText
 10
133.4997528857186
 20
6.601810588009072
 30
0.0
 40
1.5
  1

 41
0.9
  7
ROMANS8
100
AcDbAttributeDefinition
280
     0
  3
ERSETZT.Durch
  2
ERSETZT.DURCH
 70
     0
280
     0
  0
ATTDEF
  5
25B
330
1F0
100
AcDbEntity
  8
06-99
100
AcDbText
 10
108.4994696709088
 20
6.597456916621638
 30
0.0
 40
1.5
  1

 41
0.9
  7
ROMANS8
100
AcDbAttributeDefinition
280
     0
  3
ERSETZT.Für
  2
ERSETZT.FÜR
 70
     0
280
     0
  0
ATTDEF
  5
25C
330
1F0
100
AcDbEntity
  8
06-99
100
AcDbText
 10
186.9730745371479
 20
47.66851165875721
 30
0.0
 40
1.287
  1
DIN A4
  7
ROMANS8
 72
     1
 11
190.2518602514336
 21
47.66851165875721
 31
0.0
100
AcDbAttributeDefinition
280
     0
  3
Format
  2
FORMAT
 70
     0
280
     0
  0
ATTDEF
  5
25D
330
1F0
100
AcDbEntity
  8
06-99
100
AcDbText
 10
182.9908211122643
 20
37.31860869812611
 30
0.0
 40
2.34
  1
DIN 2768
  7
ROMANS8
 72
     1
 11
191.0136782551214
 21
37.31860869812611
 31
0.0
100
AcDbAttributeDefinition
280
     0
  3
Norm / Kanten
  2
NORM2
 70
     0
280
     0
  0
ATTDEF
  5
25E
330
1F0
100
AcDbEntity
  8
06-99
100
AcDbText
 10
179.8151068265501
 20
41.15194203145941
 30
0.0
 40
2.34
  1
DIN 6930-M
  7
ROMANS8
 72
     1
 11
190.5122496836929
 21
41.15194203145941
 31
0.0
100
AcDbAttributeDefinition
280
     0
  3
Norm / Fräsen
  2
NORM1
 70
     0
280
     0
  0
ENDBLK
  5
25F
330
1F0
100
AcDbEntity
  8
0
100
AcDbBlockEnd
  0
BLOCK
  5
1E4
330
1E3
100
AcDbEntity
  8
0
100
AcDbBlockBegin
  2
*D1
 70
     1
 10
0.0
 20
0.0
 30
0.0
  3
*D1
  1

  0
LINE
  5
1E5
330
1E3
100
AcDbEntity
  8
09-01
 62
     4
370
    -2
100
AcDbLine
 10
409.2788513398127
 20
809.6761642353124
 30
0.0
 11
348.4142744062638
 21
809.6761642353124
 31
0.0
  0
LINE
  5
1E6
330
1E3
100
AcDbEntity
  8
09-01
 62
     4
370
    -2
100
AcDbLine
 10
409.2788513398127
 20
409.6761642353124
 30
0.0
 11
348.4142744062638
 21
409.6761642353124
 31
0.0
  0
LINE
  5
1E7
330
1E3
100
AcDbEntity
  8
09-01
 62
     4
370
    -2
100
AcDbLine
 10
353.4142744062638
 20
797.1761642353124
 30
0.0
 11
353.4142744062638
 21
422.1761642353124
 31
0.0
  0
SOLID
  5
1E8
330
1E3
100
AcDbEntity
  8
09-01
 62
     4
100
AcDbTrace
 10
351.3309410729305
 20
797.1761642353124
 30
0.0
 11
355.4976077395971
 21
797.1761642353124
 31
0.0
 12
353.4142744062638
 22
809.6761642353124
 32
0.0
 13
353.4142744062638
 23
809.6761642353124
 33
0.0
  0
SOLID
  5
1E9
330
1E3
100
AcDbEntity
  8
09-01
 62
     4
100
AcDbTrace
 10
351.3309410729304
 20
422.1761642353124
 30
0.0
 11
355.4976077395971
 21
422.1761642353124
 31
0.0
 12
353.4142744062638
 22
409.6761642353124
 32
0.0
 13
353.4142744062638
 23
409.6761642353124
 33
0.0
  0
MTEXT
  5
1EA
330
1E3
100
AcDbEntity
  8
09-01
 62
     1
100
AcDbMText
 10
342.1642744062637
 20
609.6761642353125
 30
0.0
 40
12.5
 41
0.0
 46
0.0
 71
     5
 72
     1
  1
400
 11
0.0000000000000001
 21
1.0
 31
0.0
 73
     1
 44
1.0
  0
POINT
  5
1EB
330
1E3
100
AcDbEntity
  8
DEFPOINTS
 62
     0
100
AcDbPoint
 10
414.2788513398127
 20
809.6761642353124
 30
0.0
  0
POINT
  5
1EC
330
1E3
100
AcDbEntity
  8
DEFPOINTS
 62
     0
100
AcDbPoint
 10
414.2788513398127
 20
409.6761642353124
 30
0.0
  0
POINT
  5
1ED
330
1E3
100
AcDbEntity
  8
DEFPOINTS
 62
     0
100
AcDbPoint
 10
353.4142744062638
 20
409.6761642353124
 30
0.0
  0
ENDBLK
  5
1EE
330
1E3
100
AcDbEntity
  8
0
100
AcDbBlockEnd
  0
BLOCK
  5
1D5
330
1D4
100
AcDbEntity
  8
0
100
AcDbBlockBegin
  2
*D2
 70
     1
 10
0.0
 20
0.0
 30
0.0
  3
*D2
  1

  0
LINE
  5
1D6
330
1D4
100
AcDbEntity
  8
09-01
 62
     4
370
    -2
100
AcDbLine
 10
411.2788513398127
 20
811.6761642353123
 30
0.0
 11
411.2788513398127
 21
867.8794277236185
 31
0.0
  0
LINE
  5
1D7
330
1D4
100
AcDbEntity
  8
09-01
 62
     4
370
    -2
100
AcDbLine
 10
1211.278851339813
 20
811.6761642353123
 30
0.0
 11
1211.278851339813
 21
867.8794277236185
 31
0.0
  0
LINE
  5
1D8
330
1D4
100
AcDbEntity
  8
09-01
 62
     4
370
    -2
100
AcDbLine
 10
423.7788513398127
 20
862.8794277236186
 30
0.0
 11
1198.778851339812
 21
862.8794277236186
 31
0.0
  0
SOLID
  5
1D9
330
1D4
100
AcDbEntity
  8
09-01
 62
     4
100
AcDbTrace
 10
423.7788513398127
 20
864.962761056952
 30
0.0
 11
423.7788513398127
 21
860.7960943902853
 31
0.0
 12
411.2788513398127
 22
862.8794277236186
 32
0.0
 13
411.2788513398127
 23
862.8794277236186
 33
0.0
  0
SOLID
  5
1DA
330
1D4
100
AcDbEntity
  8
09-01
 62
     4
100
AcDbTrace
 10
1198.778851339812
 20
864.962761056952
 30
0.0
 11
1198.778851339812
 21
860.7960943902853
 31
0.0
 12
1211.278851339813
 22
862.8794277236186
 32
0.0
 13
1211.278851339813
 23
862.8794277236186
 33
0.0
  0
MTEXT
  5
1DB
330
1D4
100
AcDbEntity
  8
09-01
 62
     1
100
AcDbMText
 10
811.2788513398127
 20
874.1294277236185
 30
0.0
 40
12.5
 41
0.0
 46
0.0
 71
     5
 72
     1
  1
800
 73
     1
 44
1.0
  0
POINT
  5
1DC
330
1D4
100
AcDbEntity
  8
DEFPOINTS
 62
     0
100
AcDbPoint
 10
411.2788513398127
 20
806.6761642353124
 30
0.0
  0
POINT
  5
1DD
330
1D4
100
AcDbEntity
  8
DEFPOINTS
 62
     0
100
AcDbPoint
 10
1211.278851339813
 20
806.6761642353124
 30
0.0
  0
POINT
  5
1DE
330
1D4
100
AcDbEntity
  8
DEFPOINTS
 62
     0
100
AcDbPoint
 10
1211.278851339813
 20
862.8794277236186
 30
0.0
  0
ENDBLK
  5
1DF
330
1D4
100
AcDbEntity
  8
0
100
AcDbBlockEnd
  0
BLOCK
  5
1BC
330
1BB
100
AcDbEntity
  8
0
100
AcDbBlockBegin
  2
*D3
 70
     1
 10
0.0
 20
0.0
 30
0.0
  3
*D3
  1

  0
LINE
  5
1BD
330
1BB
100
AcDbEntity
  8
09-01
 62
     4
370
    -2
100
AcDbLine
 10
411.2788513398127
 20
811.6761642353123
 30
0.0
 11
411.2788513398127
 21
835.3057928973196
 31
0.0
  0
LINE
  5
1BE
330
1BB
100
AcDbEntity
  8
09-01
 62
     4
370
    -2
100
AcDbLine
 10
431.2788513398126
 20
799.1761642353123
 30
0.0
 11
431.2788513398126
 21
835.3057928973196
 31
0.0
  0
LINE
  5
1BF
330
1BB
100
AcDbEntity
  8
09-01
 62
     4
370
    -2
100
AcDbLine
 10
398.7788513398127
 20
830.3057928973196
 30
0.0
 11
386.2788513398127
 21
830.3057928973196
 31
0.0
  0
LINE
  5
1C0
330
1BB
100
AcDbEntity
  8
09-01
 62
     4
370
    -2
100
AcDbLine
 10
443.7788513398126
 20
830.3057928973196
 30
0.0
 11
456.2788513398126
 21
830.3057928973196
 31
0.0
  0
MTEXT
  5
1C1
330
1BB
100
AcDbEntity
  8
09-01
 62
     1
100
AcDbMText
 10
389.3294262960499
 20
843.1913370538371
 30
0.0
 40
12.5
 41
0.0
 46
0.0
 71
     5
 72
     1
  1
20
 73
     1
 44
1.0
  0
LINE
  5
1C2
330
1BB
100
AcDbEntity
  8
09-01
 62
     4
370
    -2
100
AcDbLine
 10
411.2788513398127
 20
830.3057928973196
 30
0.0
 11
431.2788513398126
 21
830.3057928973196
 31
0.0
  0
SOLID
  5
1C3
330
1BB
100
AcDbEntity
  8
09-01
 62
     4
100
AcDbTrace
 10
398.7788513398127
 20
832.3891262306529
 30
0.0
 11
398.7788513398127
 21
828.2224595639862
 31
0.0
 12
411.2788513398127
 22
830.3057928973196
 32
0.0
 13
411.2788513398127
 23
830.3057928973196
 33
0.0
  0
SOLID
  5
1C4
330
1BB
100
AcDbEntity
  8
09-01
 62
     4
100
AcDbTrace
 10
443.7788513398126
 20
832.3891262306529
 30
0.0
 11
443.7788513398126
 21
828.2224595639862
 31
0.0
 12
431.2788513398126
 22
830.3057928973196
 32
0.0
 13
431.2788513398126
 23
830.3057928973196
 33
0.0
  0
POINT
  5
1C5
330
1BB
100
AcDbEntity
  8
DEFPOINTS
 62
     0
100
AcDbPoint
 10
411.2788513398127
 20
806.6761642353124
 30
0.0
  0
POINT
  5
1C6
330
1BB
100
AcDbEntity
  8
DEFPOINTS
 62
     0
100
AcDbPoint
 10
431.2788513398126
 20
794.1761642353124
 30
0.0
  0
POINT
  5
1C7
330
1BB
100
AcDbEntity
  8
DEFPOINTS
 62
     0
100
AcDbPoint
 10
431.2788513398126
 20
830.3057928973196
 30
0.0
  0
ENDBLK
  5
1C8
330
1BB
100
AcDbEntity
  8
0
100
AcDbBlockEnd
  0
BLOCK
  5
1AD
330
1AC
100
AcDbEntity
  8
0
100
AcDbBlockBegin
  2
*D4
 70
     1
 10
0.0
 20
0.0
 30
0.0
  3
*D4
  1

  0
LINE
  5
1AE
330
1AC
100
AcDbEntity
  8
09-01
 62
     4
370
    -2
100
AcDbLine
 10
431.2788513398126
 20
799.1761642353123
 30
0.0
 11
431.2788513398126
 21
835.3057928973196
 31
0.0
  0
LINE
  5
1AF
330
1AC
100
AcDbEntity
  8
09-01
 62
     4
370
    -2
100
AcDbLine
 10
1191.278851339812
 20
799.1761642353123
 30
0.0
 11
1191.278851339812
 21
835.3057928973196
 31
0.0
  0
LINE
  5
1B0
330
1AC
100
AcDbEntity
  8
09-01
 62
     4
370
    -2
100
AcDbLine
 10
443.7788513398126
 20
830.3057928973196
 30
0.0
 11
1178.778851339812
 21
830.3057928973196
 31
0.0
  0
SOLID
  5
1B1
330
1AC
100
AcDbEntity
  8
09-01
 62
     4
100
AcDbTrace
 10
443.7788513398126
 20
832.3891262306529
 30
0.0
 11
443.7788513398126
 21
828.2224595639862
 31
0.0
 12
431.2788513398126
 22
830.3057928973196
 32
0.0
 13
431.2788513398126
 23
830.3057928973196
 33
0.0
  0
SOLID
  5
1B2
330
1AC
100
AcDbEntity
  8
09-01
 62
     4
100
AcDbTrace
 10
1178.778851339812
 20
832.3891262306529
 30
0.0
 11
1178.778851339812
 21
828.2224595639862
 31
0.0
 12
1191.278851339812
 22
830.3057928973196
 32
0.0
 13
1191.278851339812
 23
830.3057928973196
 33
0.0
  0
MTEXT
  5
1B3
330
1AC
100
AcDbEntity
  8
09-01
 62
     1
100
AcDbMText
 10
811.2788513398127
 20
841.5557928973196
 30
0.0
 40
12.5
 41
0.0
 46
0.0
 71
     5
 72
     1
  1
760
 73
     1
 44
1.0
  0
POINT
  5
1B4
330
1AC
100
AcDbEntity
  8
DEFPOINTS
 62
     0
100
AcDbPoint
 10
431.2788513398126
 20
794.1761642353124
 30
0.0
  0
POINT
  5
1B5
330
1AC
100
AcDbEntity
  8
DEFPOINTS
 62
     0
100
AcDbPoint
 10
1191.278851339812
 20
794.1761642353124
 30
0.0
  0
POINT
  5
1B6
330
1AC
100
AcDbEntity
  8
DEFPOINTS
 62
     0
100
AcDbPoint
 10
1191.278851339812
 20
830.3057928973196
 30
0.0
  0
ENDBLK
  5
1B7
330
1AC
100
AcDbEntity
  8
0
100
AcDbBlockEnd
  0
BLOCK
  5
19C
330
19B
100
AcDbEntity
  8
0
100
AcDbBlockBegin
  2
*D5
 70
     1
 10
0.0
 20
0.0
 30
0.0
  3
*D5
  1

  0
LINE
  5
19D
330
19B
100
AcDbEntity
  8
09-01
 62
     4
370
    -2
100
AcDbLine
 10
1191.278851339812
 20
799.1761642353123
 30
0.0
 11
1191.278851339812
 21
835.3057928973196
 31
0.0
  0
LINE
  5
19E
330
19B
100
AcDbEntity
  8
09-01
 62
     4
370
    -2
100
AcDbLine
 10
1211.278851339813
 20
811.6761642353123
 30
0.0
 11
1211.278851339813
 21
835.3057928973196
 31
0.0
  0
LINE
  5
19F
330
19B
100
AcDbEntity
  8
09-01
 62
     4
370
    -2
100
AcDbLine
 10
1178.778851339812
 20
830.3057928973196
 30
0.0
 11
1166.278851339813
 21
830.3057928973196
 31
0.0
  0
LINE
  5
1A0
330
19B
100
AcDbEntity
  8
09-01
 62
     4
370
    -2
100
AcDbLine
 10
1223.778851339813
 20
830.3057928973196
 30
0.0
 11
1236.278851339813
 21
830.3057928973196
 31
0.0
  0
MTEXT
  5
1A1
330
19B
100
AcDbEntity
  8
09-01
 62
     1
100
AcDbMText
 10
1235.406346113951
 20
843.6515350594266
 30
0.0
 40
12.5
 41
0.0
 46
0.0
 71
     5
 72
     1
  1
20
 73
     1
 44
1.0
  0
LINE
  5
1A2
330
19B
100
AcDbEntity
  8
09-01
 62
     4
370
    -2
100
AcDbLine
 10
1191.278851339812
 20
830.3057928973196
 30
0.0
 11
1211.278851339813
 21
830.3057928973196
 31
0.0
  0
SOLID
  5
1A3
330
19B
100
AcDbEntity
  8
09-01
 62
     4
100
AcDbTrace
 10
1178.778851339812
 20
832.3891262306529
 30
0.0
 11
1178.778851339812
 21
828.2224595639862
 31
0.0
 12
1191.278851339812
 22
830.3057928973196
 32
0.0
 13
1191.278851339812
 23
830.3057928973196
 33
0.0
  0
SOLID
  5
1A4
330
19B
100
AcDbEntity
  8
09-01
 62
     4
100
AcDbTrace
 10
1223.778851339813
 20
832.3891262306529
 30
0.0
 11
1223.778851339813
 21
828.2224595639862
 31
0.0
 12
1211.278851339813
 22
830.3057928973196
 32
0.0
 13
1211.278851339813
 23
830.3057928973196
 33
0.0
  0
POINT
  5
1A5
330
19B
100
AcDbEntity
  8
DEFPOINTS
 62
     0
100
AcDbPoint
 10
1191.278851339812
 20
794.1761642353124
 30
0.0
  0
POINT
  5
1A6
330
19B
100
AcDbEntity
  8
DEFPOINTS
 62
     0
100
AcDbPoint
 10
1211.278851339813
 20
806.6761642353124
 30
0.0
  0
POINT
  5
1A7
330
19B
100
AcDbEntity
  8
DEFPOINTS
 62
     0
100
AcDbPoint
 10
1211.278851339813
 20
830.3057928973196
 30
0.0
  0
ENDBLK
  5
1A8
330
19B
100
AcDbEntity
  8
0
100
AcDbBlockEnd
  0
BLOCK
  5
18B
330
18A
100
AcDbEntity
  8
0
100
AcDbBlockBegin
  2
*D6
 70
     1
 10
0.0
 20
0.0
 30
0.0
  3
*D6
  1

  0
LINE
  5
18C
330
18A
100
AcDbEntity
  8
09-01
 62
     4
370
    -2
100
AcDbLine
 10
1213.278851339812
 20
809.6761642353124
 30
0.0
 11
1295.184395814016
 21
809.6761642353122
 31
0.0
  0
LINE
  5
18D
330
18A
100
AcDbEntity
  8
09-01
 62
     4
370
    -2
100
AcDbLine
 10
1200.778851339812
 20
789.6761642353124
 30
0.0
 11
1295.184395814016
 21
789.6761642353123
 31
0.0
  0
LINE
  5
18E
330
18A
100
AcDbEntity
  8
09-01
 62
     4
370
    -2
100
AcDbLine
 10
1290.184395814016
 20
822.1761642353122
 30
0.0
 11
1290.184395814016
 21
834.6761642353122
 31
0.0
  0
LINE
  5
18F
330
18A
100
AcDbEntity
  8
09-01
 62
     4
370
    -2
100
AcDbLine
 10
1290.184395814016
 20
777.1761642353123
 30
0.0
 11
1290.184395814016
 21
764.6761642353123
 31
0.0
  0
MTEXT
  5
190
330
18A
100
AcDbEntity
  8
09-01
 62
     1
100
AcDbMText
 10
1275.411877996414
 20
834.0530605389661
 30
0.0
 40
12.5
 41
0.0
 46
0.0
 71
     5
 72
     1
  1
20
 11
0.0000000000000001
 21
1.0
 31
0.0
 73
     1
 44
1.0
  0
LINE
  5
191
330
18A
100
AcDbEntity
  8
09-01
 62
     4
370
    -2
100
AcDbLine
 10
1290.184395814016
 20
809.6761642353122
 30
0.0
 11
1290.184395814016
 21
789.6761642353123
 31
0.0
  0
SOLID
  5
192
330
18A
100
AcDbEntity
  8
09-01
 62
     4
100
AcDbTrace
 10
1288.101062480683
 20
822.1761642353122
 30
0.0
 11
1292.267729147349
 21
822.1761642353122
 31
0.0
 12
1290.184395814016
 22
809.6761642353122
 32
0.0
 13
1290.184395814016
 23
809.6761642353122
 33
0.0
  0
SOLID
  5
193
330
18A
100
AcDbEntity
  8
09-01
 62
     4
100
AcDbTrace
 10
1288.101062480683
 20
777.1761642353123
 30
0.0
 11
1292.267729147349
 21
777.1761642353123
 31
0.0
 12
1290.184395814016
 22
789.6761642353123
 32
0.0
 13
1290.184395814016
 23
789.6761642353123
 33
0.0
  0
POINT
  5
194
330
18A
100
AcDbEntity
  8
DEFPOINTS
 62
     0
100
AcDbPoint
 10
1208.278851339813
 20
809.6761642353124
 30
0.0
  0
POINT
  5
195
330
18A
100
AcDbEntity
  8
DEFPOINTS
 62
     0
100
AcDbPoint
 10
1195.778851339813
 20
789.6761642353124
 30
0.0
  0
POINT
  5
196
330
18A
100
AcDbEntity
  8
DEFPOINTS
 62
     0
100
AcDbPoint
 10
1290.184395814016
 20
789.6761642353123
 30
0.0
  0
ENDBLK
  5
197
330
18A
100
AcDbEntity
  8
0
100
AcDbBlockEnd
  0
BLOCK
  5
17C
330
17B
100
AcDbEntity
  8
0
100
AcDbBlockBegin
  2
*D7
 70
     1
 10
0.0
 20
0.0
 30
0.0
  3
*D7
  1

  0
LINE
  5
17D
330
17B
100
AcDbEntity
  8
09-01
 62
     4
370
    -2
100
AcDbLine
 10
1200.778851339812
 20
789.6761642353124
 30
0.0
 11
1295.184395814016
 21
789.6761642353123
 31
0.0
  0
LINE
  5
17E
330
17B
100
AcDbEntity
  8
09-01
 62
     4
370
    -2
100
AcDbLine
 10
1200.778851339812
 20
429.6761642353124
 30
0.0
 11
1295.184395814016
 21
429.6761642353124
 31
0.0
  0
LINE
  5
17F
330
17B
100
AcDbEntity
  8
09-01
 62
     4
370
    -2
100
AcDbLine
 10
1290.184395814016
 20
777.1761642353123
 30
0.0
 11
1290.184395814016
 21
442.1761642353124
 31
0.0
  0
SOLID
  5
180
330
17B
100
AcDbEntity
  8
09-01
 62
     4
100
AcDbTrace
 10
1288.101062480683
 20
777.1761642353123
 30
0.0
 11
1292.267729147349
 21
777.1761642353123
 31
0.0
 12
1290.184395814016
 22
789.6761642353123
 32
0.0
 13
1290.184395814016
 23
789.6761642353123
 33
0.0
  0
SOLID
  5
181
330
17B
100
AcDbEntity
  8
09-01
 62
     4
100
AcDbTrace
 10
1288.101062480683
 20
442.1761642353124
 30
0.0
 11
1292.267729147349
 21
442.1761642353124
 31
0.0
 12
1290.184395814016
 22
429.6761642353124
 32
0.0
 13
1290.184395814016
 23
429.6761642353124
 33
0.0
  0
MTEXT
  5
182
330
17B
100
AcDbEntity
  8
09-01
 62
     1
100
AcDbMText
 10
1278.934395814016
 20
609.6761642353125
 30
0.0
 40
12.5
 41
0.0
 46
0.0
 71
     5
 72
     1
  1
360
 11
0.0000000000000001
 21
1.0
 31
0.0
 73
     1
 44
1.0
  0
POINT
  5
183
330
17B
100
AcDbEntity
  8
DEFPOINTS
 62
     0
100
AcDbPoint
 10
1195.778851339813
 20
789.6761642353124
 30
0.0
  0
POINT
  5
184
330
17B
100
AcDbEntity
  8
DEFPOINTS
 62
     0
100
AcDbPoint
 10
1195.778851339813
 20
429.6761642353124
 30
0.0
  0
POINT
  5
185
330
17B
100
AcDbEntity
  8
DEFPOINTS
 62
     0
100
AcDbPoint
 10
1290.184395814016
 20
429.6761642353124
 30
0.0
  0
ENDBLK
  5
186
330
17B
100
AcDbEntity
  8
0
100
AcDbBlockEnd
  0
BLOCK
  5
16B
330
16A
100
AcDbEntity
  8
0
100
AcDbBlockBegin
  2
*D8
 70
     1
 10
0.0
 20
0.0
 30
0.0
  3
*D8
  1

  0
LINE
  5
16C
330
16A
100
AcDbEntity
  8
09-01
 62
     4
370
    -2
100
AcDbLine
 10
1200.778851339812
 20
429.6761642353124
 30
0.0
 11
1295.184395814016
 21
429.6761642353124
 31
0.0
  0
LINE
  5
16D
330
16A
100
AcDbEntity
  8
09-01
 62
     4
370
    -2
100
AcDbLine
 10
1213.278851339812
 20
409.6761642353124
 30
0.0
 11
1295.184395814016
 21
409.6761642353124
 31
0.0
  0
LINE
  5
16E
330
16A
100
AcDbEntity
  8
09-01
 62
     4
370
    -2
100
AcDbLine
 10
1290.184395814016
 20
442.1761642353124
 30
0.0
 11
1290.184395814016
 21
454.6761642353124
 31
0.0
  0
LINE
  5
16F
330
16A
100
AcDbEntity
  8
09-01
 62
     4
370
    -2
100
AcDbLine
 10
1290.184395814016
 20
397.1761642353124
 30
0.0
 11
1290.184395814016
 21
384.6761642353124
 31
0.0
  0
MTEXT
  5
170
330
16A
100
AcDbEntity
  8
09-01
 62
     1
100
AcDbMText
 10
1275.411877996414
 20
386.478578632464
 30
0.0
 40
12.5
 41
0.0
 46
0.0
 71
     5
 72
     1
  1
20
 11
0.0000000000000001
 21
1.0
 31
0.0
 73
     1
 44
1.0
  0
LINE
  5
171
330
16A
100
AcDbEntity
  8
09-01
 62
     4
370
    -2
100
AcDbLine
 10
1290.184395814016
 20
429.6761642353124
 30
0.0
 11
1290.184395814016
 21
409.6761642353124
 31
0.0
  0
SOLID
  5
172
330
16A
100
AcDbEntity
  8
09-01
 62
     4
100
AcDbTrace
 10
1288.101062480683
 20
442.1761642353124
 30
0.0
 11
1292.267729147349
 21
442.1761642353124
 31
0.0
 12
1290.184395814016
 22
429.6761642353124
 32
0.0
 13
1290.184395814016
 23
429.6761642353124
 33
0.0
  0
SOLID
  5
173
330
16A
100
AcDbEntity
  8
09-01
 62
     4
100
AcDbTrace
 10
1288.101062480683
 20
397.1761642353124
 30
0.0
 11
1292.267729147349
 21
397.1761642353124
 31
0.0
 12
1290.184395814016
 22
409.6761642353124
 32
0.0
 13
1290.184395814016
 23
409.6761642353124
 33
0.0
  0
POINT
  5
174
330
16A
100
AcDbEntity
  8
DEFPOINTS
 62
     0
100
AcDbPoint
 10
1195.778851339813
 20
429.6761642353124
 30
0.0
  0
POINT
  5
175
330
16A
100
AcDbEntity
  8
DEFPOINTS
 62
     0
100
AcDbPoint
 10
1208.278851339813
 20
409.6761642353124
 30
0.0
  0
POINT
  5
176
330
16A
100
AcDbEntity
  8
DEFPOINTS
 62
     0
100
AcDbPoint
 10
1290.184395814016
 20
409.6761642353124
 30
0.0
  0
ENDBLK
  5
177
330
16A
100
AcDbEntity
  8
0
100
AcDbBlockEnd
  0
BLOCK
  5
158
330
157
100
AcDbEntity
  8
0
100
AcDbBlockBegin
  2
*D9
 70
     1
 10
0.0
 20
0.0
 30
0.0
  3
*D9
  1

  0
LINE
  5
159
330
157
100
AcDbEntity
  8
09-01
 62
     4
370
    -2
100
AcDbLine
 10
1188.778851339812
 20
434.6761642353124
 30
0.0
 11
1188.778851339812
 21
451.7012987063119
 31
0.0
  0
LINE
  5
15A
330
157
100
AcDbEntity
  8
09-01
 62
     4
370
    -2
100
AcDbLine
 10
1193.778851339812
 20
434.6761642353124
 30
0.0
 11
1193.778851339812
 21
451.7012987063119
 31
0.0
  0
LINE
  5
15B
330
157
100
AcDbEntity
  8
09-01
 62
     4
370
    -2
100
AcDbLine
 10
1176.278851339813
 20
446.7012987063119
 30
0.0
 11
1163.778851339813
 21
446.7012987063119
 31
0.0
  0
LINE
  5
15C
330
157
100
AcDbEntity
  8
09-01
 62
     4
370
    -2
100
AcDbLine
 10
1206.278851339813
 20
446.7012987063119
 30
0.0
 11
1218.778851339813
 21
446.7012987063119
 31
0.0
  0
MTEXT
  5
15D
330
157
100
AcDbEntity
  8
09-01
 62
     1
100
AcDbMText
 10
1169.124524650203
 20
456.8961921506427
 30
0.0
 40
12.5
 41
0.0
 46
0.0
 71
     5
 72
     1
  1
5
 73
     1
 44
1.0
  0
LINE
  5
15E
330
157
100
AcDbEntity
  8
09-01
 62
     4
370
    -2
100
AcDbLine
 10
1188.778851339812
 20
446.7012987063119
 30
0.0
 11
1193.778851339812
 21
446.7012987063119
 31
0.0
  0
SOLID
  5
15F
330
157
100
AcDbEntity
  8
09-01
 62
     4
100
AcDbTrace
 10
1176.278851339813
 20
448.7846320396452
 30
0.0
 11
1176.278851339813
 21
444.6179653729786
 31
0.0
 12
1188.778851339812
 22
446.7012987063119
 32
0.0
 13
1188.778851339812
 23
446.7012987063119
 33
0.0
  0
SOLID
  5
160
330
157
100
AcDbEntity
  8
09-01
 62
     4
100
AcDbTrace
 10
1206.278851339813
 20
448.7846320396452
 30
0.0
 11
1206.278851339813
 21
444.6179653729786
 31
0.0
 12
1193.778851339812
 22
446.7012987063119
 32
0.0
 13
1193.778851339812
 23
446.7012987063119
 33
0.0
  0
POINT
  5
161
330
157
100
AcDbEntity
  8
DEFPOINTS
 62
     0
100
AcDbPoint
 10
1188.778851339812
 20
429.6761642353124
 30
0.0
  0
POINT
  5
163
330
157
100
AcDbEntity
  8
DEFPOINTS
 62
     0
100
AcDbPoint
 10
1193.778851339812
 20
429.6761642353124
 30
0.0
  0
POINT
  5
164
330
157
100
AcDbEntity
  8
DEFPOINTS
 62
     0
100
AcDbPoint
 10
1193.778851339812
 20
446.7012987063119
 30
0.0
  0
ENDBLK
  5
165
330
157
100
AcDbEntity
  8
0
100
AcDbBlockEnd
  0
ENDSEC
  0
SECTION
  2
ENTITIES
  0
LINE
  5
68
330
2
100
AcDbEntity
  8
09-01
100
AcDbLine
 10
363.264974641919
 20
79.22383012620435
 30
0.0
 11
238.1301901803444
 21
155.4252069459451
 31
0.0
  0
LINE
  5
69
330
2
100
AcDbEntity
  8
09-01
100
AcDbLine
 10
365.1484332034777
 20
127.6000900225247
 30
0.0
 11
323.0957304675716
 21
142.8970784665313
 31
0.0
  0
LINE
  5
6A
330
2
100
AcDbEntity
  8
09-01
100
AcDbLine
 10
364.4168945154631
 20
211.4319623646718
 30
0.0
 11
326.3768732153037
 21
177.558038735747
 31
0.0
  0
LINE
  5
6B
330
2
100
AcDbEntity
  8
09-01
100
AcDbLine
 10
364.9094058060871
 20
251.9065579760948
 30
0.0
 11
315.566042776323
 21
238.5061953586057
 31
0.0
  0
TEXT
  5
6C
330
2
100
AcDbEntity
  8
09-01
100
AcDbText
 10
368.4195629921157
 20
74.98010880313052
 30
0.0
 40
10.0
  1
Dübel S6
100
AcDbText
  0
TEXT
  5
6D
330
2
100
AcDbEntity
  8
09-01
100
AcDbText
 10
368.4195629921157
 20
124.2823361806515
 30
0.0
 40
10.0
  1
Rosette
100
AcDbText
  0
TEXT
  5
6E
330
2
100
AcDbEntity
  8
09-01
100
AcDbText
 10
368.4195629921157
 20
189.6512942408498
 30
0.0
 40
10.0
  1
schraube 4x40 A2
100
AcDbText
  0
TEXT
  5
6F
330
2
100
AcDbEntity
  8
09-01
100
AcDbText
 10
368.4195629921157
 20
206.3179609075165
 30
0.0
 40
10.0
  1
Spax-Senkkopf-
100
AcDbText
  0
TEXT
  5
70
330
2
100
AcDbEntity
  8
09-01
100
AcDbText
 10
368.4195629921157
 20
248.5909846808538
 30
0.0
 40
10.0
  1
Spiegelblech
100
AcDbText
  0
LINE
  5
71
330
2
100
AcDbEntity
  8
0
100
AcDbLine
 10
313.1301901803486
 20
185.4252069459429
 30
0.0
 11
313.1301901803436
 21
278.6383879732401
 31
0.0
  0
LINE
  5
72
330
2
100
AcDbEntity
  8
09-01
100
AcDbLine
 10
318.1301901803481
 20
201.7314639047592
 30
0.0
 11
318.1301901803481
 21
139.118949987122
 31
0.0
  0
LINE
  5
73
330
2
100
AcDbEntity
  8
09-01
100
AcDbLine
 10
330.5384729290731
 20
194.1752069459406
 30
0.0
 11
330.5384729290731
 21
146.6752069459406
 31
0.0
  0
LINE
  5
74
330
2
100
AcDbEntity
  8
09-01
100
AcDbLine
 10
319.0384729290731
 20
155.4252069459406
 30
0.0
 11
318.1301901803481
 21
154.2314639047592
 31
0.0
  0
LINE
  5
75
330
2
100
AcDbEntity
  8
09-01
100
AcDbLine
 10
318.1301901803481
 20
186.4266361850241
 30
0.0
 11
319.0509711351733
 21
185.2425067861694
 31
0.0
  0
LINE
  5
76
330
2
100
AcDbEntity
  8
09-01
100
AcDbLine
 10
318.1301901803481
 20
139.118949987122
 30
0.0
 11
319.0384729290731
 21
137.9252069459406
 31
0.0
  0
LINE
  5
77
330
2
100
AcDbEntity
  8
09-01
100
AcDbLine
 10
319.0384729290731
 20
202.9252069459406
 30
0.0
 11
318.1301901803481
 21
201.7314639047592
 31
0.0
  0
LINE
  5
78
330
2
100
AcDbEntity
  8
09-01
100
AcDbLine
 10
328.0612707547957
 20
146.6752069459406
 30
0.0
 11
318.1301901803481
 21
139.118949987122
 31
0.0
  0
LINE
  5
79
330
2
100
AcDbEntity
  8
09-01
100
AcDbLine
 10
330.5384729290731
 20
146.6752069459406
 30
0.0
 11
319.0384729290731
 21
137.9252069459406
 31
0.0
  0
LINE
  5
7A
330
2
100
AcDbEntity
  8
09-01
100
AcDbLine
 10
318.1301901803481
 20
154.2314639047592
 30
0.0
 11
328.0612707547957
 21
146.6752069459406
 31
0.0
  0
LINE
  5
7B
330
2
100
AcDbEntity
  8
09-01
100
AcDbLine
 10
319.0384729290731
 20
155.4252069459406
 30
0.0
 11
330.5384729290731
 21
146.6752069459406
 31
0.0
  0
LINE
  5
7C
330
2
100
AcDbEntity
  8
09-01
100
AcDbLine
 10
328.0782657325553
 20
194.1622759846018
 30
0.0
 11
318.1301901803481
 21
186.4266361850241
 31
0.0
  0
LINE
  5
7D
330
2
100
AcDbEntity
  8
09-01
100
AcDbLine
 10
330.5384729290731
 20
194.1752069459406
 30
0.0
 11
319.0509711351733
 21
185.2425067861694
 31
0.0
  0
LINE
  5
7E
330
2
100
AcDbEntity
  8
09-01
100
AcDbLine
 10
318.1301901803481
 20
201.7314639047592
 30
0.0
 11
328.0782657325553
 21
194.1622759846018
 31
0.0
  0
LINE
  5
7F
330
2
100
AcDbEntity
  8
09-01
100
AcDbLine
 10
319.0384729290731
 20
202.9252069459406
 30
0.0
 11
330.5384729290731
 21
194.1752069459406
 31
0.0
  0
LINE
  5
80
330
2
100
AcDbEntity
  8
01-01
  6
Continuous
 62
     7
370
    15
100
AcDbLine
 10
329.4428697017288
 20
190.4252069459406
 30
0.0
 11
317.6919317543298
 21
178.6742689985411
 31
0.0
  0
LINE
  5
83
330
2
100
AcDbEntity
  8
01-01
  6
Continuous
 62
     7
370
    15
100
AcDbLine
 10
317.6919317543298
 20
162.1761448933401
 30
0.0
 11
317.6919317543298
 21
178.6742689985411
 31
0.0
  0
LINE
  5
84
330
2
100
AcDbEntity
  8
01-01
  6
Continuous
 62
     7
370
    15
100
AcDbLine
 10
329.4428697017288
 20
150.4252069459406
 30
0.0
 11
317.6919317543298
 21
162.1761448933401
 31
0.0
  0
LINE
  5
85
330
2
100
AcDbEntity
  8
01-01
  6
Continuous
 62
     7
370
    15
100
AcDbLine
 10
329.4428697017288
 20
150.4252069459406
 30
0.0
 11
329.4428697017288
 21
190.4252069459406
 31
0.0
  0
LINE
  5
86
330
2
100
AcDbEntity
  8
01-01
  6
Continuous
 62
     7
370
    15
100
AcDbLine
 10
329.4428697017288
 20
178.6475816281316
 30
0.0
 11
329.4428697017288
 21
162.1761448933401
 31
0.0
  0
LINE
  5
87
330
2
100
AcDbEntity
  8
01-01
  6
Continuous
 62
     7
370
    15
100
AcDbLine
 10
317.6919317543298
 20
178.6475816281313
 30
0.0
 11
203.5407986269283
 21
178.6475816281316
 31
0.0
  0
LINE
  5
88
330
2
100
AcDbEntity
  8
01-01
  6
Continuous
 62
     7
370
    15
100
AcDbLine
 10
317.6919317543298
 20
162.1761448933401
 30
0.0
 11
206.4505420137143
 21
162.1761448933401
 31
0.0
  0
ARC
  5
89
330
2
100
AcDbEntity
  8
01-01
  6
Continuous
 62
     7
370
    15
100
AcDbCircle
 10
164.0137303869833
 20
178.7763590894611
 30
0.0
 40
11.42689355680779
100
AcDbArc
 50
222.197961653875
 51
247.1199675953036
  0
ARC
  5
8A
330
2
100
AcDbEntity
  8
01-01
  6
Continuous
 62
     7
370
    15
100
AcDbCircle
 10
184.9794973643875
 20
182.9658733530772
 30
0.0
 40
22.39623867537207
100
AcDbArc
 50
207.8325329905633
 51
225.6961995265631
  0
LWPOLYLINE
  5
8B
330
2
100
AcDbEntity
  8
01-01
  6
Continuous
 62
     7
370
    15
100
AcDbPolyline
 90
       10
 70
   128
 43
0.0
 10
179.0980355857182
 20
165.6856466254956
 10
179.024291781986
 20
165.6422615185946
 10
178.4908616491516
 20
166.3856099382136
 10
177.952627064446
 20
168.0889422318595
 10
177.4181816512187
 20
170.5335379943179
 10
176.8805090967312
 20
169.1781797350839
 10
176.3448399080262
 20
172.1681079800081
 10
175.8078472288043
 20
170.6342960612372
 10
175.2708636145866
 20
172.8016658856794
 10
174.834030159388
 20
173.9057107958368
  0
ARC
  5
8C
330
2
100
AcDbEntity
  8
01-01
  6
Continuous
 62
     7
370
    15
100
AcDbCircle
 10
271.3578834370642
 20
203.9637752401549
 30
0.0
 40
91.46252231136545
100
AcDbArc
 50
198.3365042769238
 51
205.584410723895
  0
ARC
  5
8D
330
2
100
AcDbEntity
  8
01-01
  6
Continuous
 62
     7
370
    15
100
AcDbCircle
 10
454.8521332328414
 20
254.8381623458718
 30
0.0
 40
272.1344291965679
100
AcDbArc
 50
196.7203703191304
 51
199.6891426210433
  0
LWPOLYLINE
  5
8E
330
2
100
AcDbEntity
  8
01-01
  6
Continuous
 62
     7
370
    15
100
AcDbPolyline
 90
       11
 70
   128
 43
0.0
 10
191.5382390776308
 20
176.7504539441941
 10
191.662203000928
 20
176.8427719401623
 10
192.1808390479959
 20
176.0158804479923
 10
192.707307258117
 20
174.0508958924036
 10
193.2259251751811
 20
171.1563677446455
 10
193.7517679000593
 20
171.9335963386428
 10
194.271364837502
 20
172.4621900157516
 10
194.7957390318079
 20
168.9524744683084
 10
195.3169314098722
 20
166.0455816557331
 10
195.8393022383957
 20
164.0933968851303
 10
195.9665567579777
 20
163.9056425319794
  0
LWPOLYLINE
  5
8F
330
2
100
AcDbEntity
  8
01-01
  6
Continuous
 62
     7
370
    15
100
AcDbPolyline
 90
       10
 70
   128
 43
0.0
 10
181.83699014286
 20
175.4741558369304
 10
182.2461662722817
 20
175.2941792568052
 10
182.7696883562539
 20
174.0069850152921
 10
183.2923764599031
 20
171.8026662364517
 10
183.8173489444393
 20
168.911038889826
 10
184.3383509574319
 20
169.9447526937527
 10
184.8645200224355
 20
170.954553018353
 10
185.3843254549629
 20
168.0990043857835
 10
185.9110746801907
 20
165.9546415403
 10
186.1796254098221
 20
165.3482471940404
  0
LWPOLYLINE
  5
90
330
2
100
AcDbEntity
  8
01-01
  6
Continuous
 62
     7
370
    15
100
AcDbPolyline
 90
       10
 70
   128
 43
0.0
 10
172.1399201747176
 20
174.1811781231607
 10
172.284062795879
 20
174.2582125231755
 10
172.8064245593982
 20
173.6049702386643
 10
173.334306910071
 20
172.0788768940727
 10
173.8569768837119
 20
169.8380080209907
 10
174.38389834401
 20
171.4149693565767
 10
174.9073479079557
 20
172.8003509075077
 10
175.4328733577081
 20
170.1107643595995
 10
175.9574288520839
 20
167.8986859377326
 10
176.4297971211267
 20
166.581468404527
  0
LWPOLYLINE
  5
91
330
2
100
AcDbEntity
  8
01-01
  6
Continuous
 62
     7
370
    15
100
AcDbPolyline
 90
       10
 70
   128
 43
0.0
 10
162.4393601802166
 20
172.8950354220595
 10
162.8030390569115
 20
172.8401740206826
 10
163.3325984332368
 20
171.9731064328587
 10
163.8585136781416
 20
170.4077797529843
 10
164.3883903295905
 20
172.5876726034792
 10
164.9133900091392
 20
170.1977025523073
 10
165.4432032055633
 20
172.0376577703499
 10
165.9678674799825
 20
169.8882729129107
 10
166.4970551911615
 20
168.2576056875749
 10
166.6146373519741
 20
168.0528272577911
  0
ARC
  5
92
330
2
100
AcDbEntity
  8
01-01
  6
Continuous
 62
     7
370
    15
100
AcDbCircle
 10
152.1385862329739
 20
165.7190444891819
 30
0.0
 40
5.986740367643335
100
AcDbArc
 50
39.3810127981105
 51
84.21401576350872
  0
SPLINE
  5
93
330
2
100
AcDbEntity
  8
01-01
  6
Continuous
 62
     7
370
    15
100
AcDbSpline
210
0.0
220
0.0
230
1.0
 70
    12
 71
     3
 72
    18
 73
    14
 74
     0
 42
0.0000000001
 43
0.0000000001
 40
0.0
 40
0.0
 40
0.0
 40
0.0
 40
0.0700100312379028
 40
0.1719637149824617
 40
0.273125609117181
 40
0.3735143191753417
 40
0.473063545203713
 40
0.5718761788447151
 40
0.6698322636272131
 40
0.7670405985676259
 40
0.8634365256391973
 40
0.9590214773207661
 40
1.0
 40
1.0
 40
1.0
 40
1.0
 10
158.6431180011364
 20
166.3238410041484
 30
0.0
 41
1.0
 10
158.5340197596606
 20
166.341138227215
 30
0.0
 41
1.0
 10
158.2660447485064
 20
166.3836249206978
 30
0.0
 41
1.0
 10
157.8359363941281
 20
167.3536022669603
 30
0.0
 41
1.0
 10
157.354777396617
 20
169.0270536087226
 30
0.0
 41
1.0
 10
156.8738114041134
 20
171.2215068798949
 30
0.0
 41
1.0
 10
156.3922374500607
 20
169.4617926525078
 30
0.0
 41
1.0
 10
155.911488636088
 20
172.0010055070432
 30
0.0
 41
1.0
 10
155.4298775826437
 20
170.0696095333185
 30
0.0
 41
1.0
 10
154.9489827883344
 20
172.0088938024108
 30
0.0
 41
1.0
 10
154.4675921942821
 20
173.3299935635276
 30
0.0
 41
1.0
 10
154.0771567215752
 20
173.9424349726121
 30
0.0
 41
1.0
 10
153.8459282527851
 20
173.8427168645765
 30
0.0
 41
1.0
 10
153.7765436600371
 20
173.8127945096338
 30
0.0
 41
1.0
  0
SPLINE
  5
94
330
2
100
AcDbEntity
  8
01-01
  6
Continuous
 62
     7
370
    15
100
AcDbSpline
210
0.0
220
0.0
230
1.0
 70
    12
 71
     3
 72
    17
 73
    13
 74
     0
 42
0.0000000001
 43
0.0000000001
 40
0.0
 40
0.0
 40
0.0
 40
0.0
 40
0.0124988196819833
 40
0.134633625800318
 40
0.2557558280830486
 40
0.3756981426396843
 40
0.4946222916948985
 40
0.6124013179846496
 40
0.7291117087389142
 40
0.8447266984173261
 40
0.95920958614157
 40
1.0
 40
1.0
 40
1.0
 40
1.0
 10
168.6461680984935
 20
165.0542328694863
 30
0.0
 41
1.0
 10
168.6244966226304
 20
165.0091671329418
 30
0.0
 41
1.0
 10
168.3910578303171
 20
164.5237322147048
 30
0.0
 41
1.0
 10
167.9416622586923
 20
165.1444684091783
 30
0.0
 41
1.0
 10
167.3012941500378
 20
167.0195034264569
 30
0.0
 41
1.0
 10
166.65888599864
 20
170.3074439199716
 30
0.0
 41
1.0
 10
166.0178903220339
 20
169.9697545765392
 30
0.0
 41
1.0
 10
165.3759368276878
 20
169.6103371210327
 30
0.0
 41
1.0
 10
164.7345531960054
 20
172.9102277298242
 30
0.0
 41
1.0
 10
164.0928078549059
 20
174.8931713011351
 30
0.0
 41
1.0
 10
163.5875351495356
 20
175.5766078427158
 30
0.0
 41
1.0
 10
163.2945277413359
 20
175.0395285890844
 30
0.0
 41
1.0
 10
163.2175544734145
 20
174.8984374626187
 30
0.0
 41
1.0
  0
SPLINE
  5
95
330
2
100
AcDbEntity
  8
01-01
  6
Continuous
 62
     7
370
    15
100
AcDbSpline
210
0.0
220
0.0
230
1.0
 70
    12
 71
     3
 72
    21
 73
    17
 74
     0
 42
0.0000000001
 43
0.0000000001
 40
0.0
 40
0.0
 40
0.0
 40
0.0
 40
0.027263556668864
 40
0.1094917932635594
 40
0.1912716752908238
 40
0.272595583646114
 40
0.3535296226995674
 40
0.4339919956792772
 40
0.5140285401426579
 40
0.5936515951523941
 40
0.6728037336849047
 40
0.7515596037557267
 40
0.8298687325667131
 40
0.9077221994766563
 40
0.9851848295672802
 40
0.9999999999999998
 40
0.9999999999999998
 40
0.9999999999999998
 40
0.9999999999999998
 10
178.3464380128812
 20
163.689822927893
 30
0.0
 41
1.0
 10
178.2994145788616
 20
163.6190217550328
 30
0.0
 41
1.0
 10
178.1105661399438
 20
163.3346807398337
 30
0.0
 41
1.0
 10
177.7786429429052
 20
163.7061374237535
 30
0.0
 41
1.0
 10
177.3510599593391
 20
164.7692916751092
 30
0.0
 41
1.0
 10
176.923043345243
 20
166.6538528655317
 30
0.0
 41
1.0
 10
176.4956259549508
 20
169.0886106441738
 30
0.0
 41
1.0
 10
176.0677123628711
 20
171.9273162463085
 30
0.0
 41
1.0
 10
175.6399317099221
 20
170.6910146297449
 30
0.0
 41
1.0
 10
175.2124216186525
 20
169.375853539357
 30
0.0
 41
1.0
 10
174.7843993371652
 20
172.0608844968163
 30
0.0
 41
1.0
 10
174.356842949805
 20
174.2599351956713
 30
0.0
 41
1.0
 10
173.9291996854281
 20
175.8609988764081
 30
0.0
 41
1.0
 10
173.5010140957179
 20
176.6144610759309
 30
0.0
 41
1.0
 10
173.1885207500608
 20
176.7840346327856
 30
0.0
 41
1.0
 10
173.0175491025666
 20
176.4575332577059
 30
0.0
 41
1.0
 10
172.9900996609622
 20
176.4051135696471
 30
0.0
 41
1.0
  0
SPLINE
  5
96
330
2
100
AcDbEntity
  8
01-01
  6
Continuous
 62
     7
370
    15
100
AcDbSpline
210
0.0
220
0.0
230
1.0
 70
    12
 71
     3
 72
    21
 73
    17
 74
     0
 42
0.0000000001
 43
0.0000000001
 40
0.0
 40
0.0
 40
0.0
 40
0.0
 40
0.0021363711481084
 40
0.085044281898695
 40
0.1675411198316349
 40
0.2496902683250686
 40
0.3314101500677785
 40
0.4127484542352283
 40
0.4937144601373677
 40
0.5742534325831185
 40
0.6544396791164396
 40
0.7342197141760398
 40
0.8135893362421356
 40
0.8926099203924032
 40
0.9712031866369915
 40
1.0
 40
1.0
 40
1.0
 40
1.0
 10
188.0542953352251
 20
162.2343278308043
 30
0.0
 41
1.0
 10
188.0506393151331
 20
162.2269311634571
 30
0.0
 41
1.0
 10
187.9051011188626
 20
161.932485948071
 30
0.0
 41
1.0
 10
187.6165298625478
 20
162.1978878842927
 30
0.0
 41
1.0
 10
187.1887370574172
 20
163.1669748928815
 30
0.0
 41
1.0
 10
186.7612565708527
 20
165.0761309693442
 30
0.0
 41
1.0
 10
186.3333521087652
 20
167.6669382872868
 30
0.0
 41
1.0
 10
185.9055784164043
 20
170.7782508792778
 30
0.0
 41
1.0
 10
185.4780555396741
 20
169.8901923731617
 30
0.0
 41
1.0
 10
185.0500325239677
 20
168.9887721289759
 30
0.0
 41
1.0
 10
184.6225009084532
 20
172.1115467053713
 30
0.0
 41
1.0
 10
184.1947723121866
 20
174.7662871773653
 30
0.0
 41
1.0
 10
183.7668432269692
 20
176.7350073262995
 30
0.0
 41
1.0
 10
183.3393010939307
 20
177.8459913463601
 30
0.0
 41
1.0
 10
183.0013588243009
 20
178.1899433705829
 30
0.0
 41
1.0
 10
182.8054725085617
 20
177.8432102089644
 30
0.0
 41
1.0
 10
182.7529452947324
 20
177.7502331837266
 30
0.0
 41
1.0
  0
SPLINE
  5
97
330
2
100
AcDbEntity
  8
01-01
  6
Continuous
 62
     7
370
    15
100
AcDbSpline
210
0.0
220
0.0
230
1.0
 70
    12
 71
     3
 72
    19
 73
    15
 74
     0
 42
0.0000000001
 43
0.0000000001
 40
0.0
 40
0.0
 40
0.0
 40
0.0
 40
0.0686533158684398
 40
0.1620414465840656
 40
0.2549864721688099
 40
0.3475443772001679
 40
0.4397215934601225
 40
0.5314599409185088
 40
0.6228424319449548
 40
0.7138064193426721
 40
0.8043512272059565
 40
0.8945423033658741
 40
0.9842924325229486
 40
1.0
 40
1.0
 40
1.0
 40
1.0
 10
197.7668845894159
 20
160.9439427080477
 30
0.0
 41
1.0
 10
197.6625272356882
 20
160.8598890346892
 30
0.0
 41
1.0
 10
197.4162140555377
 20
160.6614983429998
 30
0.0
 41
1.0
 10
197.0268974858363
 20
161.5655578174963
 30
0.0
 41
1.0
 10
196.599021385734
 20
163.4071300690564
 30
0.0
 41
1.0
 10
196.1712513573588
 20
166.13759514544
 30
0.0
 41
1.0
 10
195.7437158045895
 20
169.4561130624587
 30
0.0
 41
1.0
 10
195.3156978868533
 20
168.9056656497385
 30
0.0
 41
1.0
 10
194.8881664890082
 20
172.6813499093012
 30
0.0
 41
1.0
 10
194.4604408687037
 20
171.9800699842315
 30
0.0
 41
1.0
 10
194.0325122163081
 20
175.0916051103766
 30
0.0
 41
1.0
 10
193.6049457539293
 20
177.4235036928784
 30
0.0
 41
1.0
 10
193.2944012739262
 20
178.7320003069024
 30
0.0
 41
1.0
 10
193.1260960506683
 20
178.9121647343589
 30
0.0
 41
1.0
 10
193.1010275565195
 20
178.9389996168919
 30
0.0
 41
1.0
  0
LINE
  5
98
330
2
100
AcDbEntity
  8
01-01
  6
Continuous
 62
     7
370
    15
100
AcDbLine
 10
202.4439187716662
 20
175.2592427331936
 30
0.0
 11
202.4439187716662
 21
162.5093056479435
 31
0.0
  0
SPLINE
  5
99
330
2
100
AcDbEntity
  8
01-01
  6
Continuous
 62
     7
370
    15
100
AcDbSpline
210
0.0
220
0.0
230
1.0
 70
    12
 71
     3
 72
    14
 73
    10
 74
     0
 42
0.0000000001
 43
0.0000000001
 40
0.0
 40
0.0
 40
0.0
 40
0.0
 40
0.142251001201911
 40
0.2883432193172732
 40
0.4284993678748027
 40
0.5732879746337191
 40
0.7180771091722054
 40
0.8582332577297345
 40
1.0
 40
1.0
 40
1.0
 40
1.0
 10
208.4453590349285
 20
162.5093056479389
 30
0.0
 41
1.0
 10
208.2513232024435
 20
162.6899507455235
 30
0.0
 41
1.0
 10
207.8580119699832
 20
163.0561189169319
 30
0.0
 41
1.0
 10
207.1962987760135
 20
165.8647911286906
 30
0.0
 41
1.0
 10
206.6467700883432
 20
169.8956996490668
 30
0.0
 41
1.0
 10
206.0117498417862
 20
170.4329808228411
 30
0.0
 41
1.0
 10
205.3781253049369
 20
170.8974097664421
 30
0.0
 41
1.0
 10
204.830054591393
 20
175.0224671070899
 30
0.0
 41
1.0
 10
204.4057741378852
 20
176.5525527380012
 30
0.0
 41
1.0
 10
204.1924219779112
 20
177.3219661568672
 30
0.0
 41
1.0
  0
SPLINE
  5
9A
330
2
100
AcDbEntity
  8
01-01
  6
Continuous
 62
     7
370
    15
100
AcDbSpline
210
0.0
220
0.0
230
1.0
 70
    12
 71
     3
 72
    15
 73
    11
 74
     0
 42
0.0000000001
 43
0.0000000001
 40
0.0
 40
0.0
 40
0.0
 40
0.0
 40
0.1356978214990638
 40
0.2750598696452656
 40
0.4087593435910449
 40
0.5468779025021991
 40
0.684996897750589
 40
0.8186963716963681
 40
0.9580584881430832
 40
1.0
 40
1.0
 40
1.0
 40
1.0
 10
218.1788340572525
 20
162.5093056479389
 30
0.0
 41
1.0
 10
217.9847951332222
 20
162.6900205455766
 30
0.0
 41
1.0
 10
217.5914776830127
 20
163.0563301564305
 30
0.0
 41
1.0
 10
216.9298118713159
 20
165.8639335344995
 30
0.0
 41
1.0
 10
216.3801590290036
 20
169.8988122552217
 30
0.0
 41
1.0
 10
215.7455994965944
 20
170.4209171474602
 30
0.0
 41
1.0
 10
215.1102124652557
 20
170.941775371937
 30
0.0
 41
1.0
 10
214.5631135426533
 20
174.9017588415043
 30
0.0
 41
1.0
 10
214.0457832672218
 20
177.2823013981522
 30
0.0
 41
1.0
 10
213.7836599857128
 20
177.6083294103754
 30
0.0
 41
1.0
 10
213.7230222211947
 20
177.6837504478252
 30
0.0
 41
1.0
  0
SPLINE
  5
9B
330
2
100
AcDbEntity
  8
01-01
  6
Continuous
 62
     7
370
    15
100
AcDbSpline
210
0.0
220
0.0
230
1.0
 70
    12
 71
     3
 72
    15
 73
    11
 74
     0
 42
0.0000000001
 43
0.0000000001
 40
0.0
 40
0.0
 40
0.0
 40
0.0
 40
0.1348765407578541
 40
0.2733951312498828
 40
0.4062854815355675
 40
0.543568042010699
 40
0.6808511696271316
 40
0.8137414573837109
 40
0.9522600478757395
 40
0.9999999999999998
 40
0.9999999999999998
 40
0.9999999999999998
 40
0.9999999999999998
 10
227.9123090795811
 20
162.5093056479389
 30
0.0
 41
1.0
 10
227.7182695105553
 20
162.6900180108194
 30
0.0
 41
1.0
 10
227.3249507529495
 20
163.056322483715
 30
0.0
 41
1.0
 10
226.6632947112562
 20
165.8639650893636
 30
0.0
 41
1.0
 10
226.1136052586171
 20
169.8987000449759
 30
0.0
 41
1.0
 10
225.4790743035046
 20
170.4213435484624
 30
0.0
 41
1.0
 10
224.843715991346
 20
170.9402178301642
 30
0.0
 41
1.0
 10
224.2963713914964
 20
174.9074578923572
 30
0.0
 41
1.0
 10
223.7698093428294
 20
177.31221726104
 30
0.0
 41
1.0
 10
223.4991759535496
 20
177.6405508956967
 30
0.0
 41
1.0
 10
223.4298098731228
 20
177.7247061337792
 30
0.0
 41
1.0
  0
SPLINE
  5
9C
330
2
100
AcDbEntity
  8
01-01
  6
Continuous
 62
     7
370
    15
100
AcDbSpline
210
0.0
220
0.0
230
1.0
 70
    12
 71
     3
 72
    15
 73
    11
 74
     0
 42
0.0000000001
 43
0.0000000001
 40
0.0
 40
0.0
 40
0.0
 40
0.0
 40
0.1356978899038118
 40
0.275060076602432
 40
0.4087596179455999
 40
0.5468781793528997
 40
0.6849973113551844
 40
0.8186968526983523
 40
0.9580589710964247
 40
1.0
 40
1.0
 40
1.0
 40
1.0
 10
237.6457841019051
 20
162.5093056479389
 30
0.0
 41
1.0
 10
237.4517469516009
 20
162.6900206986491
 30
0.0
 41
1.0
 10
237.0584329990829
 20
163.0563307107357
 30
0.0
 41
1.0
 10
236.3967399100074
 20
165.8639327771178
 30
0.0
 41
1.0
 10
235.8470848755037
 20
169.8988106431378
 30
0.0
 41
1.0
 10
235.2125614192046
 20
170.4209203712233
 30
0.0
 41
1.0
 10
234.5771387218901
 20
170.9417735992091
 30
0.0
 41
1.0
 10
234.0300399724851
 20
174.9017587623192
 30
0.0
 41
1.0
 10
233.5127376341024
 20
177.2822957915039
 30
0.0
 41
1.0
 10
233.2506104059753
 20
177.6083288998578
 30
0.0
 41
1.0
 10
233.1899722658473
 20
177.6837504478252
 30
0.0
 41
1.0
  0
SPLINE
  5
9D
330
2
100
AcDbEntity
  8
01-01
  6
Continuous
 62
     7
370
    15
100
AcDbSpline
210
0.0
220
0.0
230
1.0
 70
    12
 71
     3
 72
    15
 73
    11
 74
     0
 42
0.0000000001
 43
0.0000000001
 40
0.0
 40
0.0
 40
0.0
 40
0.0
 40
0.1348785250683609
 40
0.2733992213410553
 40
0.4062914641862867
 40
0.5435760443694094
 40
0.6808611917021769
 40
0.8137534345474081
 40
0.9522740629319638
 40
1.0
 40
1.0
 40
1.0
 40
1.0
 10
247.3792591242313
 20
162.5093056479389
 30
0.0
 41
1.0
 10
247.1852220584101
 20
162.690018252886
 30
0.0
 41
1.0
 10
246.7919082771409
 20
163.0563233073988
 30
0.0
 41
1.0
 10
246.1302138950141
 20
165.8639628072049
 30
0.0
 41
1.0
 10
245.5805636601003
 20
169.8987017264224
 30
0.0
 41
1.0
 10
244.9460218580925
 20
170.421342557818
 30
0.0
 41
1.0
 10
244.3106673826646
 20
170.9402207804786
 30
0.0
 41
1.0
 10
243.7633184990655
 20
174.9074472615328
 30
0.0
 41
1.0
 10
243.2367915032882
 20
177.3121363558292
 30
0.0
 41
1.0
 10
242.9661631845302
 20
177.640477592802
 30
0.0
 41
1.0
 10
242.8968143077959
 20
177.7246154837465
 30
0.0
 41
1.0
  0
SPLINE
  5
9E
330
2
100
AcDbEntity
  8
01-01
  6
Continuous
 62
     7
370
    15
100
AcDbSpline
210
0.0
220
0.0
230
1.0
 70
    12
 71
     3
 72
    15
 73
    11
 74
     0
 42
0.0000000001
 43
0.0000000001
 40
0.0
 40
0.0
 40
0.0
 40
0.0
 40
0.1356979810815136
 40
0.2750601931193448
 40
0.4087598242974904
 40
0.5468784785089819
 40
0.684997703315842
 40
0.8186973344939875
 40
0.9580595465318186
 40
0.9999999999999998
 40
0.9999999999999998
 40
0.9999999999999998
 40
0.9999999999999998
 10
257.1127160165515
 20
162.5093056479389
 30
0.0
 41
1.0
 10
256.9186769170933
 20
162.6900205243081
 30
0.0
 41
1.0
 10
256.5253591112987
 20
163.0563300920474
 30
0.0
 41
1.0
 10
255.8636959845326
 20
165.8639337956655
 30
0.0
 41
1.0
 10
255.3140332659377
 20
169.8988106492678
 30
0.0
 41
1.0
 10
254.6795118485097
 20
170.4209199750611
 30
0.0
 41
1.0
 10
254.0440889067663
 20
170.9417751523804
 30
0.0
 41
1.0
 10
253.49698910609
 20
174.9017530479731
 30
0.0
 41
1.0
 10
252.9796912677825
 20
177.2823069630502
 30
0.0
 41
1.0
 10
252.7175605800967
 20
177.608316952317
 30
0.0
 41
1.0
 10
252.6569223104975
 20
177.6837323178168
 30
0.0
 41
1.0
  0
SPLINE
  5
9F
330
2
100
AcDbEntity
  8
01-01
  6
Continuous
 62
     7
370
    15
100
AcDbSpline
210
0.0
220
0.0
230
1.0
 70
    12
 71
     3
 72
    15
 73
    11
 74
     0
 42
0.0000000001
 43
0.0000000001
 40
0.0
 40
0.0
 40
0.0
 40
0.0
 40
0.1348805413526948
 40
0.2734032404669891
 40
0.4062974699038385
 40
0.5435841023391501
 40
0.6808713019325844
 40
0.8137655313694336
 40
0.9522882304837279
 40
1.0
 40
1.0
 40
1.0
 40
1.0
 10
266.8461910388755
 20
162.5093056479389
 30
0.0
 41
1.0
 10
266.6521520223883
 20
162.6900180829605
 30
0.0
 41
1.0
 10
266.2588343847683
 20
163.0563227020846
 30
0.0
 41
1.0
 10
265.5971699881475
 20
165.863963771483
 30
0.0
 41
1.0
 10
265.0475119830476
 20
169.8987019293125
 30
0.0
 41
1.0
 10
264.4129725490002
 20
170.4213413989626
 30
0.0
 41
1.0
 10
263.7776166053614
 20
170.9402251388727
 30
0.0
 41
1.0
 10
263.230271157458
 20
174.9074312706969
 30
0.0
 41
1.0
 10
262.7037588083199
 20
177.3120694019033
 30
0.0
 41
1.0
 10
262.4331616762624
 20
177.6403928763583
 30
0.0
 41
1.0
 10
262.3638368724751
 20
177.7245067037009
 30
0.0
 41
1.0
  0
SPLINE
  5
A0
330
2
100
AcDbEntity
  8
01-01
  6
Continuous
 62
     7
370
    15
100
AcDbSpline
210
0.0
220
0.0
230
1.0
 70
    12
 71
     3
 72
    15
 73
    11
 74
     0
 42
0.0000000001
 43
0.0000000001
 40
0.0
 40
0.0
 40
0.0
 40
0.0
 40
0.1356980494864604
 40
0.2750603317763662
 40
0.4087600303520965
 40
0.546878754188789
 40
0.6849980486211375
 40
0.8186977471968676
 40
0.9580600294867734
 40
1.0
 40
1.0
 40
1.0
 40
1.0
 10
276.5796660612018
 20
162.5093056479389
 30
0.0
 41
1.0
 10
276.3856269620823
 20
162.6900205239852
 30
0.0
 41
1.0
 10
275.992309156979
 20
163.0563300910742
 30
0.0
 41
1.0
 10
275.3306460250174
 20
165.8639337996036
 30
0.0
 41
1.0
 10
274.7809833256947
 20
169.8988106349751
 30
0.0
 41
1.0
 10
274.1464618346113
 20
170.4209200304766
 30
0.0
 41
1.0
 10
273.511039166769
 20
170.9417749485581
 30
0.0
 41
1.0
 10
272.9639383618401
 20
174.9017537946409
 30
0.0
 41
1.0
 10
272.4466443115621
 20
177.282301098401
 30
0.0
 41
1.0
 10
272.1845107332019
 20
177.6083164164018
 30
0.0
 41
1.0
 10
272.12387235515
 20
177.6837323178168
 30
0.0
 41
1.0
  0
SPLINE
  5
A1
330
2
100
AcDbEntity
  8
01-01
  6
Continuous
 62
     7
370
    15
100
AcDbSpline
210
0.0
220
0.0
230
1.0
 70
    12
 71
     3
 72
    15
 73
    11
 74
     0
 42
0.0000000001
 43
0.0000000001
 40
0.0
 40
0.0
 40
0.0
 40
0.0
 40
0.134882607431568
 40
0.2734074284147339
 40
0.4063036935044435
 40
0.5435924956003241
 40
0.6808817314121145
 40
0.8137779965018239
 40
0.9523028174849898
 40
1.0
 40
1.0
 40
1.0
 40
1.0
 10
286.3131410835281
 20
162.5093056479389
 30
0.0
 41
1.0
 10
286.1191022477619
 20
162.6900181132285
 30
0.0
 41
1.0
 10
285.7257849764728
 20
163.0563227937026
 30
0.0
 41
1.0
 10
285.0641178137989
 20
165.8639633998681
 30
0.0
 41
1.0
 10
284.5144699861062
 20
169.8987039358397
 30
0.0
 41
1.0
 10
283.8798912860621
 20
170.4213370186815
 30
0.0
 41
1.0
 10
283.2445755330464
 20
170.9402310706244
 30
0.0
 41
1.0
 10
282.6972153606966
 20
174.9074154839926
 30
0.0
 41
1.0
 10
282.1707443637474
 20
177.3119977432933
 30
0.0
 41
1.0
 10
281.9001490813589
 20
177.6403076572413
 30
0.0
 41
1.0
 10
281.8308413071481
 20
177.7243979236599
 30
0.0
 41
1.0
  0
SPLINE
  5
A2
330
2
100
AcDbEntity
  8
01-01
  6
Continuous
 62
     7
370
    15
100
AcDbSpline
210
0.0
220
0.0
230
1.0
 70
    12
 71
     3
 72
    15
 73
    11
 74
     0
 42
0.0000000001
 43
0.0000000001
 40
0.0
 40
0.0
 40
0.0
 40
0.0
 40
0.1356981178913974
 40
0.2750604704333677
 40
0.408760236406673
 40
0.5468790969975557
 40
0.6849983939266277
 40
0.8186981598999325
 40
0.9580605124419028
 40
1.0
 40
1.0
 40
1.0
 40
1.0
 10
296.0466161058521
 20
162.5093056479389
 30
0.0
 41
1.0
 10
295.8525771862692
 20
162.6900205472728
 30
0.0
 41
1.0
 10
295.4592597450774
 20
163.0563301615646
 30
0.0
 41
1.0
 10
294.797593865289
 20
165.8639335136766
 30
0.0
 41
1.0
 10
294.2479412757343
 20
169.898812330737
 30
0.0
 41
1.0
 10
293.6133807771894
 20
170.4209168547393
 30
0.0
 41
1.0
 10
292.9779973386025
 20
170.9417764485877
 30
0.0
 41
1.0
 10
292.4308853341263
 20
174.9017542395839
 30
0.0
 41
1.0
 10
291.9135974991123
 20
177.2822952526693
 30
0.0
 41
1.0
 10
291.6514609133055
 20
177.6083158840609
 30
0.0
 41
1.0
 10
291.5908223998026
 20
177.6837323178168
 30
0.0
 41
1.0
  0
SPLINE
  5
A3
330
2
100
AcDbEntity
  8
01-01
  6
Continuous
 62
     7
370
    15
100
AcDbSpline
210
0.0
220
0.0
230
1.0
 70
    12
 71
     3
 72
    15
 73
    11
 74
     0
 42
0.0000000001
 43
0.0000000001
 40
0.0
 40
0.0
 40
0.0
 40
0.0
 40
0.134884668460723
 40
0.2734116061266859
 40
0.4063099018939023
 40
0.5436008017860014
 40
0.6808921354006371
 40
0.8137904311678532
 40
0.9523174367250467
 40
1.0
 40
1.0
 40
1.0
 40
1.0
 10
305.7800911281806
 20
162.5093056479389
 30
0.0
 41
1.0
 10
305.586052286189
 20
162.6900181172803
 30
0.0
 41
1.0
 10
305.1927350022738
 20
163.0563228059671
 30
0.0
 41
1.0
 10
304.5310679349104
 20
165.8639633501187
 30
0.0
 41
1.0
 10
303.9814197534401
 20
169.8987041162744
 30
0.0
 41
1.0
 10
303.3468424056623
 20
170.421336319271
 30
0.0
 41
1.0
 10
302.7115216240027
 20
170.9402336430892
 30
0.0
 41
1.0
 10
302.1641797981574
 20
174.9074067191603
 30
0.0
 41
1.0
 10
301.6376785971097
 20
177.3119097074576
 30
0.0
 41
1.0
 10
301.3671404096676
 20
177.6402335903165
 30
0.0
 41
1.0
 10
301.2978638718273
 20
177.7243072736272
 30
0.0
 41
1.0
  0
SPLINE
  5
A4
330
2
100
AcDbEntity
  8
01-01
  6
Continuous
 62
     7
370
    15
100
AcDbSpline
210
0.0
220
0.0
230
1.0
 70
    12
 71
     3
 72
    15
 73
    11
 74
     0
 42
0.0000000001
 43
0.0000000001
 40
0.0
 40
0.0
 40
0.0
 40
0.0
 40
0.1356981174218528
 40
0.2750604694815995
 40
0.4087602349922748
 40
0.5468790951052366
 40
0.6849983915563862
 40
0.8186981570670612
 40
0.9580605774274705
 40
0.9999999999999998
 40
0.9999999999999998
 40
0.9999999999999998
 40
0.9999999999999998
 10
315.5135661505046
 20
162.5093056479389
 30
0.0
 41
1.0
 10
315.3195272250964
 20
162.6900205470318
 30
0.0
 41
1.0
 10
314.9262097721016
 20
163.0563301608325
 30
0.0
 41
1.0
 10
314.2645439814505
 20
165.8639335166552
 30
0.0
 41
1.0
 10
313.7148910610217
 20
169.8988123199413
 30
0.0
 41
1.0
 10
313.0803318271974
 20
170.4209168965852
 30
0.0
 41
1.0
 10
312.4449436855248
 20
170.941776294674
 30
0.0
 41
1.0
 10
311.8978488339412
 20
174.901755461199
 30
0.0
 41
1.0
 10
311.3805101399835
 20
177.2822942214114
 30
0.0
 41
1.0
 10
311.1184038539836
 20
177.6083157861856
 30
0.0
 41
1.0
 10
311.0577724444529
 20
177.6837323178168
 30
0.0
 41
1.0
  0
LWPOLYLINE
  5
A5
330
2
100
AcDbEntity
  8
01-01
  6
Continuous
 62
     7
370
    15
100
AcDbPolyline
 90
        4
 70
   128
 43
0.0
 10
202.4439187716662
 20
175.2592427331936
 10
201.8582651534866
 20
177.3557786200379
 10
201.2963890395686
 20
178.1512326799637
 10
201.2339946202583
 20
178.1531000706926
  0
SPLINE
  5
A6
330
2
100
AcDbEntity
  8
01-01
  6
Continuous
 62
     7
370
    15
100
AcDbSpline
210
0.0
220
0.0
230
1.0
 70
    12
 71
     3
 72
    15
 73
    11
 74
     0
 42
0.0000000001
 43
0.0000000001
 40
0.0
 40
0.0
 40
0.0
 40
0.0
 40
0.1356712548535949
 40
0.2750060189794344
 40
0.4086793175121933
 40
0.5467713392180738
 40
0.6848627904409659
 40
0.8185360889737246
 40
0.9578708530995639
 40
0.9999999999999998
 40
0.9999999999999998
 40
0.9999999999999998
 40
0.9999999999999998
 10
308.3774322001473
 20
178.3144208735419
 30
0.0
 41
1.0
 10
308.571471140062
 20
178.1337060635977
 30
0.0
 41
1.0
 10
308.9647886224607
 20
177.7673966304909
 30
0.0
 41
1.0
 10
309.6264541911155
 20
174.9597919102851
 30
0.0
 41
1.0
 10
310.1761086085681
 20
170.9249132309085
 30
0.0
 41
1.0
 10
310.8106648530857
 20
170.4294752769764
 30
0.0
 41
1.0
 10
311.4460506624637
 20
169.8819988405219
 30
0.0
 41
1.0
 10
311.9931700932029
 20
165.921776579028
 30
0.0
 41
1.0
 10
312.5107555352538
 20
163.5404738599326
 30
0.0
 41
1.0
 10
312.7731726803195
 20
163.2143632861269
 30
0.0
 41
1.0
 10
312.8340961465387
 20
163.1386525831457
 30
0.0
 41
1.0
  0
SPLINE
  5
A7
330
2
100
AcDbEntity
  8
01-01
  6
Continuous
 62
     7
370
    15
100
AcDbSpline
210
0.0
220
0.0
230
1.0
 70
    12
 71
     3
 72
    15
 73
    11
 74
     0
 42
0.0000000001
 43
0.0000000001
 40
0.0
 40
0.0
 40
0.0
 40
0.0
 40
0.1356105848953721
 40
0.2748830408017761
 40
0.4084965628295839
 40
0.5465268320500401
 40
0.6845565310426192
 40
0.8181700530704267
 40
0.9574425772334354
 40
1.0
 40
1.0
 40
1.0
 40
1.0
 10
298.643957177821
 20
178.3144208735419
 30
0.0
 41
1.0
 10
298.8379961176629
 20
178.1337062496849
 30
0.0
 41
1.0
 10
299.2313135999093
 20
177.7673971937864
 30
0.0
 41
1.0
 10
299.8929791696942
 20
174.9597896253934
 30
0.0
 41
1.0
 10
300.4426335829562
 20
170.9249215180333
 30
0.0
 41
1.0
 10
301.07718984349
 20
170.4294431541055
 30
0.0
 41
1.0
 10
301.7125755933189
 20
169.882116988795
 30
0.0
 41
1.0
 10
302.259695333275
 20
165.9213431019796
 30
0.0
 41
1.0
 10
302.7780149437281
 20
163.5382873289498
 30
0.0
 41
1.0
 10
303.0410221495454
 20
163.2120087300044
 30
0.0
 41
1.0
 10
303.1025791649763
 20
163.1356430019721
 30
0.0
 41
1.0
  0
SPLINE
  5
A8
330
2
100
AcDbEntity
  8
01-01
  6
Continuous
 62
     7
370
    15
100
AcDbSpline
210
0.0
220
0.0
230
1.0
 70
    12
 71
     3
 72
    15
 73
    11
 74
     0
 42
0.0000000001
 43
0.0000000001
 40
0.0
 40
0.0
 40
0.0
 40
0.0
 40
0.1356690185278402
 40
0.275001485940777
 40
0.4086725810809268
 40
0.546762326558545
 40
0.6848515015625785
 40
0.818522596702728
 40
0.9578551324016808
 40
1.0
 40
1.0
 40
1.0
 40
1.0
 10
288.9104821554947
 20
178.3144208735419
 30
0.0
 41
1.0
 10
289.1045211009368
 20
178.133706070378
 30
0.0
 41
1.0
 10
289.4978385945405
 20
177.7673966510227
 30
0.0
 41
1.0
 10
290.1595040785851
 20
174.9597918270163
 30
0.0
 41
1.0
 10
290.7091588101066
 20
170.9249135329063
 30
0.0
 41
1.0
 10
291.3437138541389
 20
170.4294741063566
 30
0.0
 41
1.0
 10
291.9791041277262
 20
169.8820031460789
 30
0.0
 41
1.0
 10
292.5262072813753
 20
165.9217601484059
 30
0.0
 41
1.0
 10
293.0438681010373
 20
163.5403922601179
 30
0.0
 41
1.0
 10
293.3062785159263
 20
163.2142779862286
 30
0.0
 41
1.0
 10
293.3672186219151
 20
163.1385438031001
 30
0.0
 41
1.0
  0
SPLINE
  5
A9
330
2
100
AcDbEntity
  8
01-01
  6
Continuous
 62
     7
370
    15
100
AcDbSpline
210
0.0
220
0.0
230
1.0
 70
    12
 71
     3
 72
    15
 73
    11
 74
     0
 42
0.0000000001
 43
0.0000000001
 40
0.0
 40
0.0
 40
0.0
 40
0.0
 40
0.1356128918455362
 40
0.274887716996312
 40
0.4085035120010913
 40
0.5465361293343624
 40
0.6845681764300559
 40
0.8181839714348349
 40
0.9574588648433763
 40
0.9999999999999998
 40
0.9999999999999998
 40
0.9999999999999998
 40
0.9999999999999998
 10
279.1770071331707
 20
178.3144208735419
 30
0.0
 41
1.0
 10
279.3710460701409
 20
178.1337062407218
 30
0.0
 41
1.0
 10
279.7643635465734
 20
177.7673971666562
 30
0.0
 41
1.0
 10
280.4260291602663
 20
174.9597897354423
 30
0.0
 41
1.0
 10
280.9756834105492
 20
170.9249211189106
 30
0.0
 41
1.0
 10
281.6102402940505
 20
170.4294447012151
 30
0.0
 41
1.0
 10
282.2456237272691
 20
169.8821112985186
 30
0.0
 41
1.0
 10
282.7927519610485
 20
165.9213639475072
 30
0.0
 41
1.0
 10
283.31101853264
 20
163.5383583137744
 30
0.0
 41
1.0
 10
283.574034510943
 20
163.2121060865737
 30
0.0
 41
1.0
 10
283.6355747303032
 20
163.1357699120215
 30
0.0
 41
1.0
  0
SPLINE
  5
AA
330
2
100
AcDbEntity
  8
01-01
  6
Continuous
 62
     7
370
    15
100
AcDbSpline
210
0.0
220
0.0
230
1.0
 70
    12
 71
     3
 72
    15
 73
    11
 74
     0
 42
0.0000000001
 43
0.0000000001
 40
0.0
 40
0.0
 40
0.0
 40
0.0
 40
0.135666783476141
 40
0.2749969554846336
 40
0.4086659113829308
 40
0.5467533148158207
 40
0.6848402820112776
 40
0.8185091750141108
 40
0.9578393470226036
 40
0.9999999999999998
 40
0.9999999999999998
 40
0.9999999999999998
 40
0.9999999999999998
 10
269.4435321108445
 20
178.3144208735419
 30
0.0
 41
1.0
 10
269.6375717846304
 20
178.1337061610228
 30
0.0
 41
1.0
 10
270.0308907545895
 20
177.7673969254036
 30
0.0
 41
1.0
 10
270.6925451928551
 20
174.9597902819303
 30
0.0
 41
1.0
 10
271.2422412702422
 20
170.9249168999966
 30
0.0
 41
1.0
 10
271.8767496361256
 20
170.4294696065588
 30
0.0
 41
1.0
 10
272.5121785018423
 20
169.8820089188237
 30
0.0
 41
1.0
 10
273.0592805371493
 20
165.921745751464
 30
0.0
 41
1.0
 10
273.5769420245169
 20
163.5403093717994
 30
0.0
 41
1.0
 10
273.8393769748786
 20
163.2141925593467
 30
0.0
 41
1.0
 10
273.9003410972914
 20
163.138435023059
 30
0.0
 41
1.0
  0
SPLINE
  5
AB
330
2
100
AcDbEntity
  8
01-01
  6
Continuous
 62
     7
370
    15
100
AcDbSpline
210
0.0
220
0.0
230
1.0
 70
    12
 71
     3
 72
    15
 73
    11
 74
     0
 42
0.0000000001
 43
0.0000000001
 40
0.0
 40
0.0
 40
0.0
 40
0.0
 40
0.1356151258524935
 40
0.2748923135936505
 40
0.4085103097063893
 40
0.5465451338200512
 40
0.6845795218623857
 40
0.8181975179751241
 40
0.957474637457391
 40
1.0
 40
1.0
 40
1.0
 40
1.0
 10
259.7100570885181
 20
178.3144208735419
 30
0.0
 41
1.0
 10
259.9040942523761
 20
178.1337060808235
 30
0.0
 41
1.0
 10
260.2974082323722
 20
177.7673965916782
 30
0.0
 41
1.0
 10
260.9591011139942
 20
174.9597905766839
 30
0.0
 41
1.0
 10
261.5087575915454
 20
170.924922426814
 30
0.0
 41
1.0
 10
262.1432782648044
 20
170.4294426564982
 30
0.0
 41
1.0
 10
262.7786978628678
 20
169.8821087348622
 30
0.0
 41
1.0
 10
263.3258240943719
 20
165.9213799128818
 30
0.0
 41
1.0
 10
263.8440418404361
 20
163.538440723585
 30
0.0
 41
1.0
 10
264.1070354187668
 20
163.2121915384212
 30
0.0
 41
1.0
 10
264.1685521656241
 20
163.1358786920626
 30
0.0
 41
1.0
  0
SPLINE
  5
AC
330
2
100
AcDbEntity
  8
01-01
  6
Continuous
 62
     7
370
    15
100
AcDbSpline
210
0.0
220
0.0
230
1.0
 70
    12
 71
     3
 72
    15
 73
    11
 74
     0
 42
0.0000000001
 43
0.0000000001
 40
0.0
 40
0.0
 40
0.0
 40
0.0
 40
0.1356646066123811
 40
0.2749926112594042
 40
0.4086593594559595
 40
0.5467445471846323
 40
0.6848292986828721
 40
0.8184960468794271
 40
0.9578239832426548
 40
1.0
 40
1.0
 40
1.0
 40
1.0
 10
249.9765820661919
 20
178.3144208735419
 30
0.0
 41
1.0
 10
250.1706192345746
 20
178.1337059303385
 30
0.0
 41
1.0
 10
250.5639332237383
 20
177.7673961361668
 30
0.0
 41
1.0
 10
251.2256260361296
 20
174.9597924243906
 30
0.0
 41
1.0
 10
251.7752827706586
 20
170.9249157253296
 30
0.0
 41
1.0
 10
252.4098024616519
 20
170.4294686330357
 30
0.0
 41
1.0
 10
253.0452257124302
 20
169.8820131927849
 30
0.0
 41
1.0
 10
253.5923385513111
 20
165.921729917275
 30
0.0
 41
1.0
 10
254.1099965770531
 20
163.540231832142
 30
0.0
 41
1.0
 10
254.3724869069133
 20
163.2141076233145
 30
0.0
 41
1.0
 10
254.4334817026761
 20
163.138326243018
 30
0.0
 41
1.0
  0
SPLINE
  5
AD
330
2
100
AcDbEntity
  8
01-01
  6
Continuous
 62
     7
370
    15
100
AcDbSpline
210
0.0
220
0.0
230
1.0
 70
    12
 71
     3
 72
    15
 73
    11
 74
     0
 42
0.0000000001
 43
0.0000000001
 40
0.0
 40
0.0
 40
0.0
 40
0.0
 40
0.13561736919032
 40
0.2748967925869071
 40
0.408516999001064
 40
0.5465541064790657
 40
0.6845907778785266
 40
0.8182109842926832
 40
0.9574904076892703
 40
1.0
 40
1.0
 40
1.0
 40
1.0
 10
240.243125173874
 20
178.3144208735419
 30
0.0
 41
1.0
 10
240.437164287568
 20
178.1337062511127
 30
0.0
 41
1.0
 10
240.8304821222141
 20
177.7673971980974
 30
0.0
 41
1.0
 10
241.4921450311085
 20
174.9597896079038
 30
0.0
 41
1.0
 10
242.0418092314476
 20
170.9249222401993
 30
0.0
 41
1.0
 10
242.6763277179289
 20
170.429443752262
 30
0.0
 41
1.0
 10
243.3117481104132
 20
169.8821046085575
 30
0.0
 41
1.0
 10
243.8588733766614
 20
165.9213950535448
 30
0.0
 41
1.0
 10
244.3770664976837
 20
163.5385233924606
 30
0.0
 41
1.0
 10
244.6400366012262
 20
163.2122770131608
 30
0.0
 41
1.0
 10
244.7015296009427
 20
163.1359874721082
 30
0.0
 41
1.0
  0
SPLINE
  5
AE
330
2
100
AcDbEntity
  8
01-01
  6
Continuous
 62
     7
370
    15
100
AcDbSpline
210
0.0
220
0.0
230
1.0
 70
    12
 71
     3
 72
    15
 73
    11
 74
     0
 42
0.0000000001
 43
0.0000000001
 40
0.0
 40
0.0
 40
0.0
 40
0.0
 40
0.1356623802383293
 40
0.2749880301090815
 40
0.408652584718177
 40
0.5467355063489592
 40
0.6848179917564672
 40
0.8184825463655624
 40
0.9578081962363146
 40
1.0
 40
1.0
 40
1.0
 40
1.0
 10
230.5096501515477
 20
178.3144208735419
 30
0.0
 41
1.0
 10
230.703689269214
 20
178.1337061136745
 30
0.0
 41
1.0
 10
231.0970071119136
 20
177.7673967820763
 30
0.0
 41
1.0
 10
231.7586699600083
 20
174.9597912954121
 30
0.0
 41
1.0
 10
232.3083343860226
 20
170.9249161197229
 30
0.0
 41
1.0
 10
232.9428520098936
 20
170.4294674766678
 30
0.0
 41
1.0
 10
233.5782756101453
 20
169.8820173498487
 30
0.0
 41
1.0
 10
234.1253891151491
 20
165.9217147130337
 30
0.0
 41
1.0
 10
234.6430718323218
 20
163.5401491986911
 30
0.0
 41
1.0
 10
234.9055856337118
 20
163.2140222156138
 30
0.0
 41
1.0
 10
234.9666041780524
 20
163.1382174629769
 30
0.0
 41
1.0
  0
SPLINE
  5
AF
330
2
100
AcDbEntity
  8
01-01
  6
Continuous
 62
     7
370
    15
100
AcDbSpline
210
0.0
220
0.0
230
1.0
 70
    12
 71
     3
 72
    15
 73
    11
 74
     0
 42
0.0000000001
 43
0.0000000001
 40
0.0
 40
0.0
 40
0.0
 40
0.0
 40
0.1356196033448042
 40
0.2749013212243929
 40
0.4085237288918635
 40
0.5465631103870101
 40
0.6846020557964315
 40
0.8182244634639021
 40
0.9575061813434906
 40
1.0
 40
1.0
 40
1.0
 40
1.0
 10
220.7761751292214
 20
178.3144208735419
 30
0.0
 41
1.0
 10
220.9702142431906
 20
178.1337062446008
 30
0.0
 41
1.0
 10
221.363532078396
 20
177.7673971783887
 30
0.0
 41
1.0
 10
222.0251949830795
 20
174.9597896878575
 30
0.0
 41
1.0
 10
222.5748591990436
 20
170.9249219502161
 30
0.0
 41
1.0
 10
223.2093776258007
 20
170.429444876302
 30
0.0
 41
1.0
 10
223.8447982403859
 20
169.8821004743084
 30
0.0
 41
1.0
 10
224.3919226923044
 20
165.9214101987598
 30
0.0
 41
1.0
 10
224.9100911531032
 20
163.5386060602994
 30
0.0
 41
1.0
 10
225.173037783381
 20
163.2123624846898
 30
0.0
 41
1.0
 10
225.2345070362635
 20
163.1360962521492
 30
0.0
 41
1.0
  0
SPLINE
  5
B0
330
2
100
AcDbEntity
  8
01-01
  6
Continuous
 62
     7
370
    15
100
AcDbSpline
210
0.0
220
0.0
230
1.0
 70
    12
 71
     3
 72
    15
 73
    11
 74
     0
 42
0.0000000001
 43
0.0000000001
 40
0.0
 40
0.0
 40
0.0
 40
0.0
 40
0.1356601446742853
 40
0.2749834986144139
 40
0.4086458505813935
 40
0.5467265638702914
 40
0.6848067067229186
 40
0.8184690586898978
 40
0.9577924126300263
 40
1.0
 40
1.0
 40
1.0
 40
1.0
 10
211.0427001068952
 20
178.3144208735419
 30
0.0
 41
1.0
 10
211.2367390450931
 20
178.1337060966033
 30
0.0
 41
1.0
 10
211.6300565240063
 20
177.7673967303988
 30
0.0
 41
1.0
 10
212.2917221189545
 20
174.9597915050415
 30
0.0
 41
1.0
 10
212.841376438816
 20
170.9249147006975
 30
0.0
 41
1.0
 10
213.4759330563674
 20
170.4294695797287
 30
0.0
 41
1.0
 10
214.1113174785614
 20
169.8820197950752
 30
0.0
 41
1.0
 10
214.6584419953974
 20
165.9216998150558
 30
0.0
 41
1.0
 10
215.1761469409958
 20
163.5400665450905
 30
0.0
 41
1.0
 10
215.4386843328934
 20
163.2139368010783
 30
0.0
 41
1.0
 10
215.4997266534287
 20
163.1381086829313
 30
0.0
 41
1.0
  0
SPLINE
  5
B1
330
2
100
AcDbEntity
  8
01-01
  6
Continuous
 62
     7
370
    15
100
AcDbSpline
210
0.0
220
0.0
230
1.0
 70
    12
 71
     3
 72
    14
 73
    10
 74
     0
 42
0.0000000001
 43
0.0000000001
 40
0.0
 40
0.0
 40
0.0
 40
0.0
 40
0.0306904384455279
 40
0.2093204895381527
 40
0.3938553156335667
 40
0.5783894690700036
 40
0.7570195201626283
 40
0.9432151359437675
 40
1.0
 40
1.0
 40
1.0
 40
1.0
 10
202.4439187716662
 20
175.2592427331936
 30
0.0
 41
1.0
 10
202.4786003657864
 20
175.0790406393733
 30
0.0
 41
1.0
 10
202.715142058475
 20
173.8499936656288
 30
0.0
 41
1.0
 10
203.1073478108847
 20
170.9111208668108
 30
0.0
 41
1.0
 10
203.7425943920261
 20
170.4332002785284
 30
0.0
 41
1.0
 10
204.3778061612438
 20
169.8811248726386
 30
0.0
 41
1.0
 10
204.9249808677355
 20
165.9217018680763
 30
0.0
 41
1.0
 10
205.4431248300893
 20
163.5386711595746
 30
0.0
 41
1.0
 10
205.7060480317041
 20
163.2124446135711
 30
0.0
 41
1.0
 10
205.7674935365862
 20
163.1362050321903
 30
0.0
 41
1.0
  0
SPLINE
  5
B2
330
2
100
AcDbEntity
  8
01-01
  6
Continuous
 62
     7
370
    15
100
AcDbSpline
210
0.0
220
0.0
230
1.0
 70
    12
 71
     3
 72
    15
 73
    11
 74
     0
 42
0.0000000001
 43
0.0000000001
 40
0.0
 40
0.0
 40
0.0
 40
0.0
 40
0.0565611503472805
 40
0.1937728093568433
 40
0.3254621022213056
 40
0.4614611598690715
 40
0.5974606327656394
 40
0.7291499256301016
 40
0.8663613725535713
 40
1.0
 40
1.0
 40
1.0
 40
1.0
 10
206.9676274841795
 20
160.7076905860029
 30
0.0
 41
1.0
 10
206.8848113131862
 20
160.8239274551013
 30
0.0
 41
1.0
 10
206.6010914451358
 20
161.2221432717459
 30
0.0
 41
1.0
 10
206.0599423183949
 20
164.1558725664052
 30
0.0
 41
1.0
 10
205.5125598268064
 20
168.9265106011933
 30
0.0
 41
1.0
 10
204.8771791369172
 20
170.4291248945063
 30
0.0
 41
1.0
 10
204.2424649487129
 20
171.8817737029011
 30
0.0
 41
1.0
 10
203.6931301240652
 20
176.7209851111127
 30
0.0
 41
1.0
 10
203.0311542507316
 20
180.0918596637419
 30
0.0
 41
1.0
 10
202.6379349285043
 20
180.5310806030073
 30
0.0
 41
1.0
 10
202.4439187716662
 20
180.7477941616278
 30
0.0
 41
1.0
  0
SPLINE
  5
B3
330
2
100
AcDbEntity
  8
01-01
  6
Continuous
 62
     7
370
    15
100
AcDbSpline
210
0.0
220
0.0
230
1.0
 70
    12
 71
     3
 72
    15
 73
    11
 74
     0
 42
0.0000000001
 43
0.0000000001
 40
0.0
 40
0.0
 40
0.0
 40
0.0
 40
0.0618510588256463
 40
0.2106559349170193
 40
0.3534718519368049
 40
0.5009616971931367
 40
0.6484519427461714
 40
0.7912678597659568
 40
0.9400724803944482
 40
1.0
 40
1.0
 40
1.0
 40
1.0
 10
216.7031965223209
 20
160.7038288944958
 30
0.0
 41
1.0
 10
216.6196976495958
 20
160.8208228908441
 30
0.0
 41
1.0
 10
216.3353123305405
 20
161.2192878508429
 30
0.0
 41
1.0
 10
215.7934371037545
 20
164.1551145266956
 30
0.0
 41
1.0
 10
215.2460058675906
 20
168.9276767280606
 30
0.0
 41
1.0
 10
214.6107537679672
 20
170.4250721275847
 30
0.0
 41
1.0
 10
213.9755234454851
 20
171.8965579110525
 30
0.0
 41
1.0
 10
213.4281439768797
 20
176.6668487234645
 30
0.0
 41
1.0
 10
212.8890289652504
 20
179.5935710251095
 30
0.0
 41
1.0
 10
212.6071518265435
 20
179.9911977375248
 30
0.0
 41
1.0
 10
212.5262241949026
 20
180.1053573613243
 30
0.0
 41
1.0
  0
SPLINE
  5
B4
330
2
100
AcDbEntity
  8
01-01
  6
Continuous
 62
     7
370
    15
100
AcDbSpline
210
0.0
220
0.0
230
1.0
 70
    12
 71
     3
 72
    15
 73
    11
 74
     0
 42
0.0000000001
 43
0.0000000001
 40
0.0
 40
0.0
 40
0.0
 40
0.0
 40
0.0610688350573868
 40
0.2091827489611487
 40
0.3513355129913166
 40
0.4981405022885859
 40
0.6449458900238159
 40
0.7870986540539838
 40
0.9352123643596559
 40
1.0
 40
1.0
 40
1.0
 40
1.0
 10
226.4346228538484
 20
160.7075999359657
 30
0.0
 41
1.0
 10
226.3517924215166
 20
160.8238575650765
 30
0.0
 41
1.0
 10
226.0680683662526
 20
161.2220818053518
 30
0.0
 41
1.0
 10
225.5268966836429
 20
164.1555942806534
 30
0.0
 41
1.0
 10
224.9794872906154
 20
168.9274635667269
 30
0.0
 41
1.0
 10
224.3442185332305
 20
170.4254504259669
 30
0.0
 41
1.0
 10
223.7090324453238
 20
171.8952818533924
 30
0.0
 41
1.0
 10
223.1614954019501
 20
176.6714952084092
 30
0.0
 41
1.0
 10
222.6149547147356
 20
179.6227234234291
 30
0.0
 41
1.0
 10
222.3263346923904
 20
180.0226670056171
 30
0.0
 41
1.0
 10
222.2385052389695
 20
180.1443731365251
 30
0.0
 41
1.0
  0
SPLINE
  5
B5
330
2
100
AcDbEntity
  8
01-01
  6
Continuous
 62
     7
370
    15
100
AcDbSpline
210
0.0
220
0.0
230
1.0
 70
    12
 71
     3
 72
    15
 73
    11
 74
     0
 42
0.0000000001
 43
0.0000000001
 40
0.0
 40
0.0
 40
0.0
 40
0.0
 40
0.0618393107077253
 40
0.2106457561251523
 40
0.3534631793102288
 40
0.5009545800240362
 40
0.6484463810387675
 40
0.7912638042238438
 40
0.9400700450912239
 40
1.0
 40
1.0
 40
1.0
 40
1.0
 10
236.1700921769507
 20
160.7039376745414
 30
0.0
 41
1.0
 10
236.0866112508843
 20
160.8209076343545
 30
0.0
 41
1.0
 10
235.8022467812197
 20
161.2193471600838
 30
0.0
 41
1.0
 10
235.2603860327777
 20
164.1551293713954
 30
0.0
 41
1.0
 10
234.7129560629396
 20
168.9276727008817
 30
0.0
 41
1.0
 10
234.0777043708245
 20
170.4250731276423
 30
0.0
 41
1.0
 10
233.4424711419997
 20
171.8965580013972
 30
0.0
 41
1.0
 10
232.8951026369846
 20
176.666847981958
 30
0.0
 41
1.0
 10
232.3559507251589
 20
179.5935908678601
 30
0.0
 41
1.0
 10
232.0740828094649
 20
179.9912002827367
 30
0.0
 41
1.0
 10
231.9931561095468
 20
180.1053573613243
 30
0.0
 41
1.0
  0
SPLINE
  5
B6
330
2
100
AcDbEntity
  8
01-01
  6
Continuous
 62
     7
370
    15
100
AcDbSpline
210
0.0
220
0.0
230
1.0
 70
    12
 71
     3
 72
    15
 73
    11
 74
     0
 42
0.0000000001
 43
0.0000000001
 40
0.0
 40
0.0
 40
0.0
 40
0.0
 40
0.0610826969893824
 40
0.209197030510415
 40
0.3513501972694913
 40
0.498155602475755
 40
0.6449614061211078
 40
0.7871146195402435
 40
0.9352286987838931
 40
1.0
 40
1.0
 40
1.0
 40
1.0
 10
245.9016272885214
 20
160.7074911559246
 30
0.0
 41
1.0
 10
245.8187792507438
 20
160.8237709082894
 30
0.0
 41
1.0
 10
245.5350399212666
 20
161.2220077266082
 30
0.0
 41
1.0
 10
244.9938464237944
 20
164.1555804918815
 30
0.0
 41
1.0
 10
244.4464379557958
 20
168.927467634974
 30
0.0
 41
1.0
 10
243.8111663153695
 20
170.4254481319438
 30
0.0
 41
1.0
 10
243.1759907081068
 20
171.8952874312643
 30
0.0
 41
1.0
 10
242.6284150470583
 20
176.6714783266051
 30
0.0
 41
1.0
 10
242.0819289957303
 20
179.6226307357964
 30
0.0
 41
1.0
 10
241.7933340644022
 20
180.0225646092284
 30
0.0
 41
1.0
 10
241.705527803651
 20
180.1442462264757
 30
0.0
 41
1.0
  0
SPLINE
  5
B7
330
2
100
AcDbEntity
  8
01-01
  6
Continuous
 62
     7
370
    15
100
AcDbSpline
210
0.0
220
0.0
230
1.0
 70
    12
 71
     3
 72
    15
 73
    11
 74
     0
 42
0.0000000001
 43
0.0000000001
 40
0.0
 40
0.0
 40
0.0
 40
0.0
 40
0.0618276158607961
 40
0.210635545239503
 40
0.3534544395393389
 40
0.5009472610620489
 40
0.6484405829659045
 40
0.7912594303871794
 40
0.9400671042977631
 40
1.0
 40
1.0
 40
1.0
 40
1.0
 10
255.6369878315804
 20
160.704028324574
 30
0.0
 41
1.0
 10
255.553524683939
 20
160.8209811228679
 30
0.0
 41
1.0
 10
255.2691807808692
 20
161.2194182305146
 30
0.0
 41
1.0
 10
254.727344013781
 20
164.1551412299648
 30
0.0
 41
1.0
 10
254.1798736836422
 20
168.9276671915584
 30
0.0
 41
1.0
 10
253.544668884419
 20
170.4250769081071
 30
0.0
 41
1.0
 10
252.9093958579001
 20
171.896555814167
 30
0.0
 41
1.0
 10
252.3620324920825
 20
176.6668496439277
 30
0.0
 41
1.0
 10
251.8228922193357
 20
179.5936039886217
 30
0.0
 41
1.0
 10
251.5410327145441
 20
179.9912148016645
 30
0.0
 41
1.0
 10
251.4601061541971
 20
180.1053754913281
 30
0.0
 41
1.0
  0
SPLINE
  5
B8
330
2
100
AcDbEntity
  8
01-01
  6
Continuous
 62
     7
370
    15
100
AcDbSpline
210
0.0
220
0.0
230
1.0
 70
    12
 71
     3
 72
    15
 73
    11
 74
     0
 42
0.0000000001
 43
0.0000000001
 40
0.0
 40
0.0
 40
0.0
 40
0.0
 40
0.0610965859249248
 40
0.2092114550172462
 40
0.351365087153318
 40
0.498170923161818
 40
0.6449772572208098
 40
0.7871308893568818
 40
0.9352454534921928
 40
1.0
 40
1.0
 40
1.0
 40
1.0
 10
265.3686317231946
 20
160.7073823758836
 30
0.0
 41
1.0
 10
265.2857665336587
 20
160.8236842849627
 30
0.0
 41
1.0
 10
265.0020134137385
 20
161.2219338966523
 30
0.0
 41
1.0
 10
264.4607738191139
 20
164.1555660551401
 30
0.0
 41
1.0
 10
263.9133633033971
 20
168.9274702852961
 30
0.0
 41
1.0
 10
263.2781308116337
 20
170.4254488673612
 30
0.0
 41
1.0
 10
262.6429077652979
 20
171.8952890709241
 30
0.0
 41
1.0
 10
262.0953752530904
 20
176.6714650253542
 30
0.0
 41
1.0
 10
261.5489012743315
 20
179.6225327821028
 30
0.0
 41
1.0
 10
261.2603326290237
 20
180.0224614582956
 30
0.0
 41
1.0
 10
261.1725503683301
 20
180.1441193164263
 30
0.0
 41
1.0
  0
SPLINE
  5
B9
330
2
100
AcDbEntity
  8
01-01
  6
Continuous
 62
     7
370
    15
100
AcDbSpline
210
0.0
220
0.0
230
1.0
 70
    12
 71
     3
 72
    15
 73
    11
 74
     0
 42
0.0000000001
 43
0.0000000001
 40
0.0
 40
0.0
 40
0.0
 40
0.0
 40
0.0618159172943959
 40
0.2106253731875447
 40
0.3534456368183238
 40
0.5009399208982483
 40
0.64843470536428
 40
0.7912549689950592
 40
0.9400641185010975
 40
1.0
 40
1.0
 40
1.0
 40
1.0
 10
275.1038834862125
 20
160.7041189746113
 30
0.0
 41
1.0
 10
275.0204389663049
 20
160.8210546825583
 30
0.0
 41
1.0
 10
274.7361184560686
 20
161.2194897168345
 30
0.0
 41
1.0
 10
274.1942609415919
 20
164.1551498699826
 30
0.0
 41
1.0
 10
273.6468327235748
 20
168.9276655218353
 30
0.0
 41
1.0
 10
273.0116163167163
 20
170.4250776828556
 30
0.0
 41
1.0
 10
272.3763471230741
 20
171.8965550495093
 30
0.0
 41
1.0
 10
271.8289802094723
 20
176.6668519125122
 30
0.0
 41
1.0
 10
271.2898448834216
 20
179.5936173998942
 30
0.0
 41
1.0
 10
271.0079710463396
 20
179.9912293560854
 30
0.0
 41
1.0
 10
270.9270380688435
 20
180.1053936213364
 30
0.0
 41
1.0
  0
SPLINE
  5
BA
330
2
100
AcDbEntity
  8
01-01
  6
Continuous
 62
     7
370
    15
100
AcDbSpline
210
0.0
220
0.0
230
1.0
 70
    12
 71
     3
 72
    15
 73
    11
 74
     0
 42
0.0000000001
 43
0.0000000001
 40
0.0
 40
0.0
 40
0.0
 40
0.0
 40
0.0611104930929975
 40
0.2092257237912834
 40
0.3513797516188645
 40
0.4981859962685081
 40
0.6449927389700301
 40
0.7871467667976112
 40
0.9352617432169743
 40
1.0
 40
1.0
 40
1.0
 40
1.0
 10
284.8356361578676
 20
160.707273595838
 30
0.0
 41
1.0
 10
284.7527458454847
 20
160.8235975134701
 30
0.0
 41
1.0
 10
284.4689519383173
 20
161.2218590006412
 30
0.0
 41
1.0
 10
283.9277348619903
 20
164.1555532551527
 30
0.0
 41
1.0
 10
283.3803103754822
 20
168.9274741937768
 30
0.0
 41
1.0
 10
282.7450814834169
 20
170.4254467761783
 30
0.0
 41
1.0
 10
282.1098583137491
 20
171.8952933946392
 30
0.0
 41
1.0
 10
281.5623227332499
 20
176.671450044544
 30
0.0
 41
1.0
 10
281.0158844778966
 20
179.622440268661
 30
0.0
 41
1.0
 10
280.7273201993048
 20
180.0223590803014
 30
0.0
 41
1.0
 10
280.6395548030032
 20
180.1439924063769
 30
0.0
 41
1.0
  0
SPLINE
  5
BB
330
2
100
AcDbEntity
  8
01-01
  6
Continuous
 62
     7
370
    15
100
AcDbSpline
210
0.0
220
0.0
230
1.0
 70
    12
 71
     3
 72
    15
 73
    11
 74
     0
 42
0.0000000001
 43
0.0000000001
 40
0.0
 40
0.0
 40
0.0
 40
0.0
 40
0.0618042950948513
 40
0.2106152437746828
 40
0.3534369889790828
 40
0.5009328031194828
 40
0.6484291176511811
 40
0.7912508628555811
 40
0.9400615560621062
 40
1.0
 40
1.0
 40
1.0
 40
1.0
 10
294.5707791408422
 20
160.704209624644
 30
0.0
 41
1.0
 10
294.4873450664813
 20
160.821128074588
 30
0.0
 41
1.0
 10
294.2030203624513
 20
161.2195600573412
 30
0.0
 41
1.0
 10
293.6612208308424
 20
164.1551614323751
 30
0.0
 41
1.0
 10
293.1137801100608
 20
168.927662470044
 30
0.0
 41
1.0
 10
292.4785669047738
 20
170.4250786961964
 30
0.0
 41
1.0
 10
291.8432976867116
 20
171.8965541121841
 30
0.0
 41
1.0
 10
291.295927708838
 20
176.6668546335157
 30
0.0
 41
1.0
 10
290.7567995370955
 20
179.5936257795509
 30
0.0
 41
1.0
 10
290.4749094849348
 20
179.99124326371
 30
0.0
 41
1.0
 10
290.3939699834877
 20
180.1054117513448
 30
0.0
 41
1.0
  0
SPLINE
  5
BC
330
2
100
AcDbEntity
  8
01-01
  6
Continuous
 62
     7
370
    15
100
AcDbSpline
210
0.0
220
0.0
230
1.0
 70
    12
 71
     3
 72
    15
 73
    11
 74
     0
 42
0.0000000001
 43
0.0000000001
 40
0.0
 40
0.0
 40
0.0
 40
0.0
 40
0.0611242718485594
 40
0.2092399346974901
 40
0.3513943772829222
 40
0.4982010502640275
 40
0.6450082212984643
 40
0.7871626638838966
 40
0.9352780724531623
 40
1.0
 40
1.0
 40
1.0
 40
1.0
 10
304.3026405925384
 20
160.7071829458053
 30
0.0
 41
1.0
 10
304.2197326489322
 20
160.8235220904797
 30
0.0
 41
1.0
 10
303.9359230888063
 20
161.2217729701732
 30
0.0
 41
1.0
 10
303.3946848603746
 20
164.1555438049889
 30
0.0
 41
1.0
 10
302.8472604078201
 20
168.9274770363252
 30
0.0
 41
1.0
 10
302.2120316285846
 20
170.4254449773614
 30
0.0
 41
1.0
 10
301.5768079750224
 20
171.8952976333574
 30
0.0
 41
1.0
 10
301.0292741860776
 20
176.671435121946
 30
0.0
 41
1.0
 10
300.4828557550077
 20
179.6223472374984
 30
0.0
 41
1.0
 10
300.1943188546734
 20
180.0222566315486
 30
0.0
 41
1.0
 10
300.1065773676824
 20
180.1438654963275
 30
0.0
 41
1.0
  0
SPLINE
  5
BD
330
2
100
AcDbEntity
  8
01-01
  6
Continuous
 62
     7
370
    15
100
AcDbSpline
210
0.0
220
0.0
230
1.0
 70
    12
 71
     3
 72
    15
 73
    11
 74
     0
 42
0.0000000001
 43
0.0000000001
 40
0.0
 40
0.0
 40
0.0
 40
0.0
 40
0.0617925714365613
 40
0.2106049364758411
 40
0.3534280410353829
 40
0.5009253090576679
 40
0.6484229773968016
 40
0.7912460819563432
 40
0.9400581915198847
 40
1.0
 40
1.0
 40
1.0
 40
1.0
 10
314.037674795472
 20
160.7043002746812
 30
0.0
 41
1.0
 10
313.954258738017
 20
160.8212015822735
 30
0.0
 41
1.0
 10
313.6699554136335
 20
161.2196312298491
 30
0.0
 41
1.0
 10
313.128167365996
 20
164.1551717707924
 30
0.0
 41
1.0
 10
312.5807384214609
 20
168.9276609763581
 30
0.0
 41
1.0
 10
311.9454858883814
 20
170.4250769096987
 30
0.0
 41
1.0
 10
311.3102549711921
 20
171.8965548374334
 30
0.0
 41
1.0
 10
310.7628782691718
 20
176.6668562736848
 30
0.0
 41
1.0
 10
310.2237373221437
 20
179.5936437029857
 30
0.0
 41
1.0
 10
309.9418588842646
 20
179.9912584001621
 30
0.0
 41
1.0
 10
309.860920028138
 20
180.1054298813531
 30
0.0
 41
1.0
  0
LINE
  5
BE
330
2
100
AcDbEntity
  8
01-01
  6
Continuous
 62
     7
370
    15
100
AcDbLine
 10
202.4439187716662
 20
180.7477941616278
 30
0.0
 11
201.2339946202583
 21
178.1531000706926
 31
0.0
  0
LINE
  5
BF
330
2
100
AcDbEntity
  8
01-01
  6
Continuous
 62
     7
370
    15
100
AcDbLine
 10
162.8027671068066
 20
173.8571042468973
 30
0.0
 11
162.8027671068066
 21
173.8531519053575
 31
0.0
  0
LINE
  5
C0
330
2
100
AcDbEntity
  8
01-01
  6
Continuous
 62
     7
370
    15
100
AcDbLine
 10
143.1747488168935
 20
170.4118685055772
 30
0.0
 11
157.2241911282976
 21
168.5386026670565
 31
0.0
  0
LINE
  5
C1
330
2
100
AcDbEntity
  8
01-01
  6
Continuous
 62
     7
370
    15
100
AcDbLine
 10
159.5679387264608
 20
168.2260957352972
 30
0.0
 11
166.9846798611497
 21
167.2371945000057
 31
0.0
  0
LINE
  5
C2
330
2
100
AcDbEntity
  8
01-01
  6
Continuous
 62
     7
370
    15
100
AcDbLine
 10
169.334664181742
 20
166.9238717179295
 30
0.0
 11
176.724926441113
 21
165.9385058340175
 31
0.0
  0
LINE
  5
C3
330
2
100
AcDbEntity
  8
01-01
  6
Continuous
 62
     7
370
    15
100
AcDbLine
 10
179.0897139124736
 20
165.6231887511629
 30
0.0
 11
186.4569329328669
 21
164.6409049684488
 31
0.0
  0
LINE
  5
C4
330
2
100
AcDbEntity
  8
01-01
  6
Continuous
 62
     7
370
    15
100
AcDbLine
 10
188.8440656379334
 20
164.3226145644374
 30
0.0
 11
196.1824126220786
 21
163.3441743432175
 31
0.0
  0
LINE
  5
C5
330
2
100
AcDbEntity
  8
01-01
  6
Continuous
 62
     7
370
    15
100
AcDbLine
 10
198.6107276381899
 20
163.0203905470697
 30
0.0
 11
202.4439187716662
 21
162.5093056479435
 31
0.0
  0
LINE
  5
C6
330
2
100
AcDbEntity
  8
01-01
  6
Continuous
 62
     7
370
    15
100
AcDbLine
 10
201.2339946202583
 20
178.1531000706926
 30
0.0
 11
193.9872585618077
 21
177.1868613442283
 31
0.0
  0
LINE
  5
C7
330
2
100
AcDbEntity
  8
01-01
  6
Continuous
 62
     7
370
    15
100
AcDbLine
 10
191.5238438520209
 20
176.8584181362601
 30
0.0
 11
184.2499218479788
 21
175.8885534083836
 31
0.0
  0
LINE
  5
C8
330
2
100
AcDbEntity
  8
01-01
  6
Continuous
 62
     7
370
    15
100
AcDbLine
 10
181.8248521031314
 20
175.5652047324046
 30
0.0
 11
174.5259197543437
 21
174.5920222132352
 31
0.0
  0
LINE
  5
C9
330
2
100
AcDbEntity
  8
01-01
  6
Continuous
 62
     7
370
    15
100
AcDbLine
 10
172.1277730699848
 20
174.2722632786516
 30
0.0
 11
164.8070031276911
 21
173.296161828346
 31
0.0
  0
LINE
  5
CA
330
2
100
AcDbEntity
  8
01-01
  6
Continuous
 62
     7
370
    15
100
AcDbLine
 10
162.4281649008544
 20
172.9789954847709
 30
0.0
 11
155.1095161693861
 21
172.0031659845725
 31
0.0
  0
LINE
  5
CB
330
2
100
AcDbEntity
  8
01-01
  6
Continuous
 62
     7
370
    15
100
AcDbLine
 10
152.7405225363868
 20
171.6873050015081
 30
0.0
 11
143.1747488168935
 21
170.4118685055772
 31
0.0
  0
LWPOLYLINE
  5
CC
330
2
100
AcDbEntity
  8
01-01
  6
Continuous
 62
     7
370
    15
100
AcDbPolyline
 90
        3
 70
   128
 43
0.0
 10
155.5863353551622
 20
171.1215762610917
 10
155.1233493647755
 20
171.9765511342055
 10
154.424319747422
 20
173.3218701783633
  0
LWPOLYLINE
  5
CD
330
2
100
AcDbEntity
  8
01-01
  6
Continuous
 62
     7
370
    15
100
AcDbPolyline
 90
        3
 70
   128
 43
0.0
 10
165.2061352331993
 20
172.5256909181579
 10
164.7439741581315
 20
173.4178504357558
 10
164.0933879196536
 20
174.7067670279401
  0
LWPOLYLINE
  5
CE
330
2
100
AcDbEntity
  8
01-01
  6
Continuous
 62
     7
370
    15
100
AcDbPolyline
 90
        3
 70
   128
 43
0.0
 10
175.0165993305218
 20
173.6175524635635
 10
174.3737364750513
 20
174.8942494309884
 10
173.7308736195787
 20
176.1912701363261
  0
LWPOLYLINE
  5
CF
330
2
100
AcDbEntity
  8
01-01
  6
Continuous
 62
     7
370
    15
100
AcDbPolyline
 90
        3
 70
   128
 43
0.0
 10
184.6820777613556
 20
175.0150134080403
 10
184.0612337994612
 20
176.2699724969914
 10
183.4403898375713
 20
177.5402877019295
  0
LWPOLYLINE
  5
D0
330
2
100
AcDbEntity
  8
01-01
  6
Continuous
 62
     7
370
    15
100
AcDbPolyline
 90
        3
 70
   128
 43
0.0
 10
194.3309128457026
 20
176.4833264201187
 10
193.7150908957683
 20
177.7440689813264
 10
193.0992598808298
 20
179.0142754062188
  0
LWPOLYLINE
  5
D1
330
2
100
AcDbEntity
  8
01-01
  6
Continuous
 62
     7
370
    15
100
AcDbPolyline
 90
        3
 70
   128
 43
0.0
 10
195.9215127554257
 20
163.883523923362
 10
196.0267755764398
 20
163.667885619341
 10
197.2447494509829
 20
161.1347247723805
  0
LWPOLYLINE
  5
D2
330
2
100
AcDbEntity
  8
01-01
  6
Continuous
 62
     7
370
    15
100
AcDbPolyline
 90
        3
 70
   128
 43
0.0
 10
186.1258971338902
 20
165.3217229937061
 10
186.2066209903396
 20
165.1588611402511
 10
187.4552255118187
 20
162.5751538335979
  0
LWPOLYLINE
  5
D3
330
2
100
AcDbEntity
  8
01-01
  6
Continuous
 62
     7
370
    15
100
AcDbPolyline
 90
        3
 70
   128
 43
0.0
 10
176.4138608449156
 20
166.573545591439
 10
176.4158007556734
 20
166.5697020299402
 10
177.7052975080819
 20
163.9366811040716
  0
LINE
  5
D4
330
2
100
AcDbEntity
  8
01-01
  6
Continuous
 62
     7
370
    15
100
AcDbLine
 10
166.5865267760223
 20
168.0388852823606
 30
0.0
 11
167.8824687459423
 21
165.429524015706
 31
0.0
  0
LINE
  5
D5
330
2
100
AcDbEntity
  8
01-01
  6
Continuous
 62
     7
370
    15
100
AcDbLine
 10
156.7340826473441
 20
169.5011247420715
 30
0.0
 11
158.1030432207144
 21
166.812607864579
 31
0.0
  0
LINE
  5
D6
330
2
100
AcDbEntity
  8
01-01
  6
Continuous
 62
     7
370
    15
100
AcDbLine
 10
202.4439187716662
 20
162.5093056479435
 30
0.0
 11
205.9843284210701
 21
162.5093056479435
 31
0.0
  0
LINE
  5
D7
330
2
100
AcDbEntity
  8
01-01
  6
Continuous
 62
     7
370
    15
100
AcDbLine
 10
208.4453590349285
 20
162.5093056479435
 30
0.0
 11
215.7177762483839
 21
162.5093056479435
 31
0.0
  0
LINE
  5
D8
330
2
100
AcDbEntity
  8
01-01
  6
Continuous
 62
     7
370
    15
100
AcDbLine
 10
218.1788340572548
 20
162.5093056479435
 30
0.0
 11
225.4512694007185
 21
162.5093056479435
 31
0.0
  0
LINE
  5
D9
330
2
100
AcDbEntity
  8
01-01
  6
Continuous
 62
     7
370
    15
100
AcDbLine
 10
227.9123090795811
 20
162.5093056479435
 30
0.0
 11
235.1847262930364
 21
162.5093056479435
 31
0.0
  0
LINE
  5
DA
330
2
100
AcDbEntity
  8
01-01
  6
Continuous
 62
     7
370
    15
100
AcDbLine
 10
237.6457841019073
 20
162.5093056479435
 30
0.0
 11
244.9182194453688
 21
162.5093056479435
 31
0.0
  0
LINE
  5
DB
330
2
100
AcDbEntity
  8
01-01
  6
Continuous
 62
     7
370
    15
100
AcDbLine
 10
247.3792591242313
 20
162.5093056479435
 30
0.0
 11
254.651676337689
 21
162.5093056479435
 31
0.0
  0
LINE
  5
DC
330
2
100
AcDbEntity
  8
01-01
  6
Continuous
 62
     7
370
    15
100
AcDbLine
 10
257.1127160165515
 20
162.5093056479435
 30
0.0
 11
264.3851694900213
 21
162.5093056479435
 31
0.0
  0
LINE
  5
DD
330
2
100
AcDbEntity
  8
01-01
  6
Continuous
 62
     7
370
    15
100
AcDbLine
 10
266.8461910388755
 20
162.5093056479435
 30
0.0
 11
274.1186263823392
 21
162.5093056479435
 31
0.0
  0
LINE
  5
DE
330
2
100
AcDbEntity
  8
01-01
  6
Continuous
 62
     7
370
    15
100
AcDbLine
 10
276.5796660612018
 20
162.5093056479435
 30
0.0
 11
283.8521195346716
 21
162.5093056479435
 31
0.0
  0
LINE
  5
DF
330
2
100
AcDbEntity
  8
01-01
  6
Continuous
 62
     7
370
    15
100
AcDbLine
 10
286.3131410835281
 20
162.5093056479435
 30
0.0
 11
293.5855582969834
 21
162.5093056479435
 31
0.0
  0
LINE
  5
E0
330
2
100
AcDbEntity
  8
01-01
  6
Continuous
 62
     7
370
    15
100
AcDbLine
 10
296.0466161058544
 20
162.5093056479435
 30
0.0
 11
303.3190695793241
 21
162.5093056479435
 31
0.0
  0
LINE
  5
E1
330
2
100
AcDbEntity
  8
01-01
  6
Continuous
 62
     7
370
    15
100
AcDbLine
 10
305.7800911281784
 20
162.5093056479435
 30
0.0
 11
313.052508341636
 21
162.5093056479435
 31
0.0
  0
LINE
  5
E2
330
2
100
AcDbEntity
  8
01-01
  6
Continuous
 62
     7
370
    15
100
AcDbLine
 10
308.3774322001473
 20
178.3144208735419
 30
0.0
 11
301.1041991363727
 21
178.3144208735419
 31
0.0
  0
LINE
  5
E3
330
2
100
AcDbEntity
  8
01-01
  6
Continuous
 62
     7
370
    15
100
AcDbLine
 10
298.643957177821
 20
178.3144208735419
 30
0.0
 11
291.3714493143307
 21
178.3144208735419
 31
0.0
  0
LINE
  5
E4
330
2
100
AcDbEntity
  8
01-01
  6
Continuous
 62
     7
370
    15
100
AcDbLine
 10
288.9104821554947
 20
178.3144208735419
 30
0.0
 11
281.6372490917224
 21
178.3144208735419
 31
0.0
  0
LINE
  5
E5
330
2
100
AcDbEntity
  8
01-01
  6
Continuous
 62
     7
370
    15
100
AcDbLine
 10
279.1770071331685
 20
178.3144208735419
 30
0.0
 11
271.9044992696781
 21
178.3144208735419
 31
0.0
  0
LINE
  5
E6
330
2
100
AcDbEntity
  8
01-01
  6
Continuous
 62
     7
370
    15
100
AcDbLine
 10
269.4435321108445
 20
178.3144208735419
 30
0.0
 11
262.1702990470699
 21
178.3144208735419
 31
0.0
  0
LINE
  5
E7
330
2
100
AcDbEntity
  8
01-01
  6
Continuous
 62
     7
370
    15
100
AcDbLine
 10
259.7100570885181
 20
178.3144208735419
 30
0.0
 11
252.4375673550339
 21
178.3144208735419
 31
0.0
  0
LINE
  5
E8
330
2
100
AcDbEntity
  8
01-01
  6
Continuous
 62
     7
370
    15
100
AcDbLine
 10
249.9765820661919
 20
178.3144208735419
 30
0.0
 11
242.7033490024173
 21
178.3144208735419
 31
0.0
  0
LINE
  5
E9
330
2
100
AcDbEntity
  8
01-01
  6
Continuous
 62
     7
370
    15
100
AcDbLine
 10
240.243125173874
 20
178.3144208735419
 30
0.0
 11
232.9706173103814
 21
178.3144208735419
 31
0.0
  0
LINE
  5
EA
330
2
100
AcDbEntity
  8
01-01
  6
Continuous
 62
     7
370
    15
100
AcDbLine
 10
230.5096501515477
 20
178.3144208735419
 30
0.0
 11
223.236398957767
 21
178.3144208735419
 31
0.0
  0
LINE
  5
EB
330
2
100
AcDbEntity
  8
01-01
  6
Continuous
 62
     7
370
    15
100
AcDbLine
 10
220.7761751292214
 20
178.3144208735419
 30
0.0
 11
213.5036672657311
 21
178.3144208735419
 31
0.0
  0
LINE
  5
EC
330
2
100
AcDbEntity
  8
01-01
  6
Continuous
 62
     7
370
    15
100
AcDbLine
 10
211.0427001068974
 20
178.3144208735419
 30
0.0
 11
203.706383683545
 21
178.3144208735419
 31
0.0
  0
LWPOLYLINE
  5
ED
330
2
100
AcDbEntity
  8
01-01
  6
Continuous
 62
     7
370
    15
100
AcDbPolyline
 90
        3
 70
   128
 43
0.0
 10
311.0514088119744
 20
177.8726651214291
 10
310.4480059168777
 20
179.124070728997
 10
309.8449293619087
 20
180.38205752913
  0
LWPOLYLINE
  5
EE
330
2
100
AcDbEntity
  8
01-01
  6
Continuous
 62
     7
370
    15
100
AcDbPolyline
 90
        3
 70
   128
 43
0.0
 10
301.2906843890319
 20
177.927399612752
 10
300.6904361151642
 20
179.1732030481379
 10
300.0904779214097
 20
180.4247899557802
  0
LWPOLYLINE
  5
EF
330
2
100
AcDbEntity
  8
01-01
  6
Continuous
 62
     7
370
    15
100
AcDbPolyline
 90
        3
 70
   128
 43
0.0
 10
291.5844587673218
 20
177.8726651214291
 10
290.9810558722274
 20
179.1240525989886
 10
290.3779974472645
 20
180.3820393991216
  0
LWPOLYLINE
  5
F0
330
2
100
AcDbEntity
  8
01-01
  6
Continuous
 62
     7
370
    15
100
AcDbPolyline
 90
        3
 70
   128
 43
0.0
 10
281.8236618243505
 20
177.9275446528098
 10
281.223413550485
 20
179.1733299581873
 10
280.6234734867366
 20
180.4249168658296
  0
LWPOLYLINE
  5
F1
330
2
100
AcDbEntity
  8
01-01
  6
Continuous
 62
     7
370
    15
100
AcDbPolyline
 90
        3
 70
   128
 43
0.0
 10
272.1175087226693
 20
177.8726651214291
 10
271.5141058275749
 20
179.1240525989886
 10
270.9110655326203
 20
180.3820212691133
  0
LWPOLYLINE
  5
F2
330
2
100
AcDbEntity
  8
01-01
  6
Continuous
 62
     7
370
    15
100
AcDbPolyline
 90
        3
 70
   128
 43
0.0
 10
262.3566573896797
 20
177.9276715628592
 10
261.7563909858036
 20
179.173474998245
 10
261.1564509220575
 20
180.4250619058828
  0
LWPOLYLINE
  5
F3
330
2
100
AcDbEntity
  8
01-01
  6
Continuous
 62
     7
370
    15
100
AcDbPolyline
 90
        3
 70
   128
 43
0.0
 10
252.6505768080251
 20
177.8726651214291
 10
252.0471739129307
 20
179.1240344689848
 10
251.4441154879678
 20
180.3820031391095
  0
LWPOLYLINE
  5
F4
330
2
100
AcDbEntity
  8
01-01
  6
Continuous
 62
     7
370
    15
100
AcDbPolyline
 90
        3
 70
   128
 43
0.0
 10
242.8896348249982
 20
177.9277984729086
 10
242.2893865511328
 20
179.1736019082944
 10
241.6894283573761
 20
180.4252069459406
  0
LWPOLYLINE
  5
F5
330
2
100
AcDbEntity
  8
01-01
  6
Continuous
 62
     7
370
    15
100
AcDbPolyline
 90
        3
 70
   128
 43
0.0
 10
233.1836267633748
 20
177.8726832514374
 10
232.5802238682781
 20
179.1240344689848
 10
231.9771835733236
 20
180.3819668790928
  0
LWPOLYLINE
  5
F6
330
2
100
AcDbEntity
  8
01-01
  6
Continuous
 62
     7
370
    15
100
AcDbPolyline
 90
        3
 70
   128
 43
0.0
 10
223.4226303903251
 20
177.927925382958
 10
222.8223639864514
 20
179.1737469483522
 10
222.2224057926969
 20
180.4253519859983
  0
LWPOLYLINE
  5
F7
330
2
100
AcDbEntity
  8
01-01
  6
Continuous
 62
     7
370
    15
100
AcDbPolyline
 90
        3
 70
   128
 43
0.0
 10
213.7166767187223
 20
177.8726832514374
 10
213.1132919536339
 20
179.1240163389764
 10
212.5102516586794
 20
180.381948749089
  0
LWPOLYLINE
  5
F8
330
2
100
AcDbEntity
  8
01-01
  6
Continuous
 62
     7
370
    15
100
AcDbPolyline
 90
        3
 70
   128
 43
0.0
 10
204.1992026005546
 20
177.3259728884275
 10
203.6156158031777
 20
178.4964642744697
 10
203.0320652658174
 20
179.6751322936987
  0
LWPOLYLINE
  5
F9
330
2
100
AcDbEntity
  8
01-01
  6
Continuous
 62
     7
370
    15
100
AcDbPolyline
 90
        3
 70
   128
 43
0.0
 10
205.6927797774774
 20
163.1136331733958
 10
206.3383168089895
 20
161.7755298720502
 10
206.9834821753552
 20
160.4299570077936
  0
LWPOLYLINE
  5
FA
330
2
100
AcDbEntity
  8
01-01
  6
Continuous
 62
     7
370
    15
100
AcDbPolyline
 90
        3
 70
   128
 43
0.0
 10
215.4249403742911
 20
163.1162982844378
 10
216.0723810565441
 20
161.7743151615767
 10
216.719422878643
 20
160.4248987358213
  0
LWPOLYLINE
  5
FB
330
2
100
AcDbEntity
  8
01-01
  6
Continuous
 62
     7
370
    15
100
AcDbPolyline
 90
        3
 70
   128
 43
0.0
 10
225.1598114071608
 20
163.1134700033343
 10
225.8053303086667
 20
161.7753848319924
 10
226.4504866100283
 20
160.429848227748
  0
LWPOLYLINE
  5
FC
330
2
100
AcDbEntity
  8
01-01
  6
Continuous
 62
     7
370
    15
100
AcDbPolyline
 90
        3
 70
   128
 43
0.0
 10
234.8917997689087
 20
163.1164614544994
 10
235.5392585811678
 20
161.7744420716261
 10
236.1863185332727
 20
160.4250075158623
  0
LWPOLYLINE
  5
FD
330
2
100
AcDbEntity
  8
01-01
  6
Continuous
 62
     7
370
    15
100
AcDbPolyline
 90
        3
 70
   128
 43
0.0
 10
244.6268339718399
 20
163.1133249632765
 10
245.2723528733459
 20
161.775257921943
 10
245.9174910447014
 20
160.4297213176986
  0
LWPOLYLINE
  5
FE
330
2
100
AcDbEntity
  8
01-01
  6
Continuous
 62
     7
370
    15
100
AcDbPolyline
 90
        3
 70
   128
 43
0.0
 10
254.35867729353
 20
163.1166064945572
 10
255.0061542357998
 20
161.7745689816755
 10
255.6532141879047
 20
160.4250981658996
  0
LWPOLYLINE
  5
FF
330
2
100
AcDbEntity
  8
01-01
  6
Continuous
 62
     7
370
    15
100
AcDbPolyline
 90
        3
 70
   128
 43
0.0
 10
264.0938565365191
 20
163.1131617932149
 10
264.739357308019
 20
161.7751128818853
 10
265.3844954793744
 20
160.4296125376575
  0
LWPOLYLINE
  5
100
330
2
100
AcDbEntity
  8
01-01
  6
Continuous
 62
     7
370
    15
100
AcDbPolyline
 90
        3
 70
   128
 43
0.0
 10
273.8255366881476
 20
163.1167696646187
 10
274.4730317604212
 20
161.7746958917249
 10
275.1201098425345
 20
160.4252069459406
  0
LWPOLYLINE
  5
101
330
2
100
AcDbEntity
  8
01-01
  6
Continuous
 62
     7
370
    15
100
AcDbPolyline
 90
        3
 70
   128
 43
0.0
 10
283.5608791012005
 20
163.1130167531572
 10
284.2063798726981
 20
161.774967841832
 10
284.8514999140475
 20
160.4294856276081
  0
LWPOLYLINE
  5
102
330
2
100
AcDbEntity
  8
01-01
  6
Continuous
 62
     7
370
    15
100
AcDbPolyline
 90
        3
 70
   128
 43
0.0
 10
293.2924142127713
 20
163.1169147046765
 10
293.9399092850449
 20
161.7748228017743
 10
294.5870054971642
 20
160.4253157259817
  0
LWPOLYLINE
  5
103
330
2
100
AcDbEntity
  8
01-01
  6
Continuous
 62
     7
370
    15
100
AcDbPolyline
 90
        3
 70
   128
 43
0.0
 10
303.0279016658797
 20
163.1128535830956
 10
303.6733843073712
 20
161.7748409317826
 10
304.3185043487206
 20
160.4293768475671
  0
LWPOLYLINE
  5
104
330
2
100
AcDbEntity
  8
01-01
  6
Continuous
 62
     7
370
    15
100
AcDbPolyline
 90
        3
 70
   128
 43
0.0
 10
312.759291737395
 20
163.1170778747381
 10
313.4068049396747
 20
161.7749497118237
 10
314.053901151794
 20
160.4254063760189
  0
LINE
  5
105
330
2
100
AcDbEntity
  8
02-01
100
AcDbLine
 10
250.2091684876805
 20
162.1399136131387
 30
0.0
 11
238.1301901803445
 21
162.139913613139
 31
0.0
  0
LINE
  5
108
330
2
100
AcDbEntity
  8
02-01
100
AcDbLine
 10
246.474001411083
 20
166.1893619692845
 30
0.0
 11
256.4027408132206
 21
155.4252069459406
 31
0.0
  0
LINE
  5
109
330
2
100
AcDbEntity
  8
02-01
100
AcDbLine
 10
238.1301901803445
 20
155.4252069459451
 30
0.0
 11
238.1301901803445
 21
166.1893619692845
 31
0.0
  0
LINE
  5
10A
330
2
100
AcDbEntity
  8
02-01
100
AcDbLine
 10
246.474001411083
 20
166.1893619692845
 30
0.0
 11
238.1301901803445
 21
166.1893619692845
 31
0.0
  0
LINE
  5
10B
330
2
100
AcDbEntity
  8
02-01
100
AcDbLine
 10
225.2091684876805
 20
162.1399136131387
 30
0.0
 11
218.1301901803445
 21
162.139913613139
 31
0.0
  0
LINE
  5
10C
330
2
100
AcDbEntity
  8
02-01
100
AcDbLine
 10
221.474001411083
 20
166.1893619692845
 30
0.0
 11
231.4027408132229
 21
155.4252069459383
 31
0.0
  0
LINE
  5
10D
330
2
100
AcDbEntity
  8
02-01
100
AcDbLine
 10
218.1301901803445
 20
155.4252069459451
 30
0.0
 11
218.1301901803445
 21
166.1893619692845
 31
0.0
  0
LINE
  5
10E
330
2
100
AcDbEntity
  8
02-01
100
AcDbLine
 10
221.474001411083
 20
166.1893619692845
 30
0.0
 11
218.1301901803445
 21
166.1893619692845
 31
0.0
  0
LINE
  5
10F
330
2
100
AcDbEntity
  8
02-01
100
AcDbLine
 10
205.2091684876805
 20
162.1399136131387
 30
0.0
 11
198.1301901803444
 21
162.139913613139
 31
0.0
  0
LINE
  5
110
330
2
100
AcDbEntity
  8
02-01
100
AcDbLine
 10
201.474001411083
 20
166.1893619692845
 30
0.0
 11
211.4027408132229
 21
155.4252069459383
 31
0.0
  0
LINE
  5
111
330
2
100
AcDbEntity
  8
02-01
100
AcDbLine
 10
198.1301901803444
 20
155.4252069459451
 30
0.0
 11
198.1301901803444
 21
166.1893619692845
 31
0.0
  0
LINE
  5
112
330
2
100
AcDbEntity
  8
02-01
100
AcDbLine
 10
201.474001411083
 20
166.1893619692845
 30
0.0
 11
198.1301901803444
 21
166.1893619692845
 31
0.0
  0
LINE
  5
113
330
2
100
AcDbEntity
  8
02-01
100
AcDbLine
 10
185.2091684876804
 20
162.1399136131387
 30
0.0
 11
178.1301901803445
 21
162.139913613139
 31
0.0
  0
LINE
  5
114
330
2
100
AcDbEntity
  8
02-01
100
AcDbLine
 10
181.474001411083
 20
166.1893619692845
 30
0.0
 11
191.4027408132228
 21
155.4252069459383
 31
0.0
  0
LINE
  5
115
330
2
100
AcDbEntity
  8
02-01
100
AcDbLine
 10
170.6301901803444
 20
156.3797160077846
 30
0.0
 11
178.1301901803445
 21
155.4252069459451
 31
0.0
  0
LINE
  5
116
330
2
100
AcDbEntity
  8
02-01
100
AcDbLine
 10
178.1301901803445
 20
155.4252069459451
 30
0.0
 11
178.1301901803445
 21
166.1893619692845
 31
0.0
  0
LINE
  5
117
330
2
100
AcDbEntity
  8
02-01
100
AcDbLine
 10
198.1301901803444
 20
155.4252069459383
 30
0.0
 11
191.4027408132224
 21
155.4252069459383
 31
0.0
  0
LINE
  5
118
330
2
100
AcDbEntity
  8
02-01
100
AcDbLine
 10
218.1301901803445
 20
155.425206945938
 30
0.0
 11
211.4027408132224
 21
155.4252069459383
 31
0.0
  0
LINE
  5
119
330
2
100
AcDbEntity
  8
02-01
100
AcDbLine
 10
238.1301901803445
 20
155.4252069459383
 30
0.0
 11
231.4027408132229
 21
155.4252069459383
 31
0.0
  0
LINE
  5
11A
330
2
100
AcDbEntity
  8
02-01
100
AcDbLine
 10
163.1301901803444
 20
159.1752069459406
 30
0.0
 11
170.6301901803444
 21
156.3797160077846
 31
0.0
  0
LINE
  5
11B
330
2
100
AcDbEntity
  8
02-01
100
AcDbLine
 10
181.474001411083
 20
166.1893619692845
 30
0.0
 11
178.1301901803445
 21
166.1893619692845
 31
0.0
  0
LINE
  5
11C
330
2
100
AcDbEntity
  8
02-01
100
AcDbLine
 10
273.1301901803445
 20
172.9252069459406
 30
0.0
 11
273.1301901803445
 21
167.9252069459406
 31
0.0
  0
LINE
  5
11D
330
2
100
AcDbEntity
  8
02-01
100
AcDbLine
 10
250.2091684876805
 20
178.7105002787425
 30
0.0
 11
238.1301901803445
 21
178.7105002787422
 31
0.0
  0
LINE
  5
11E
330
2
100
AcDbEntity
  8
02-01
100
AcDbLine
 10
246.474001411083
 20
174.6610519225967
 30
0.0
 11
256.4027408132229
 21
185.4252069459429
 31
0.0
  0
LINE
  5
11F
330
2
100
AcDbEntity
  8
02-01
100
AcDbLine
 10
238.1301901803445
 20
185.4252069459361
 30
0.0
 11
238.1301901803445
 21
174.6610519225967
 31
0.0
  0
LINE
  5
120
330
2
100
AcDbEntity
  8
02-01
100
AcDbLine
 10
246.474001411083
 20
174.6610519225967
 30
0.0
 11
238.1301901803445
 21
174.6610519225967
 31
0.0
  0
LINE
  5
121
330
2
100
AcDbEntity
  8
02-01
100
AcDbLine
 10
225.2091684876805
 20
178.7105002787425
 30
0.0
 11
218.1301901803445
 21
178.7105002787422
 31
0.0
  0
LINE
  5
122
330
2
100
AcDbEntity
  8
02-01
100
AcDbLine
 10
221.474001411083
 20
174.6610519225967
 30
0.0
 11
231.4027408132229
 21
185.4252069459429
 31
0.0
  0
LINE
  5
123
330
2
100
AcDbEntity
  8
02-01
100
AcDbLine
 10
218.1301901803445
 20
185.4252069459361
 30
0.0
 11
218.1301901803445
 21
174.6610519225967
 31
0.0
  0
LINE
  5
124
330
2
100
AcDbEntity
  8
02-01
100
AcDbLine
 10
221.474001411083
 20
174.6610519225967
 30
0.0
 11
218.1301901803445
 21
174.6610519225967
 31
0.0
  0
LINE
  5
125
330
2
100
AcDbEntity
  8
02-01
100
AcDbLine
 10
205.2091684876805
 20
178.7105002787425
 30
0.0
 11
198.1301901803444
 21
178.7105002787422
 31
0.0
  0
LINE
  5
126
330
2
100
AcDbEntity
  8
02-01
100
AcDbLine
 10
201.474001411083
 20
174.6610519225967
 30
0.0
 11
211.4027408132229
 21
185.4252069459429
 31
0.0
  0
LINE
  5
127
330
2
100
AcDbEntity
  8
02-01
100
AcDbLine
 10
198.1301901803444
 20
185.4252069459361
 30
0.0
 11
198.1301901803444
 21
174.6610519225967
 31
0.0
  0
LINE
  5
128
330
2
100
AcDbEntity
  8
02-01
100
AcDbLine
 10
201.474001411083
 20
174.6610519225967
 30
0.0
 11
198.1301901803444
 21
174.6610519225967
 31
0.0
  0
LINE
  5
129
330
2
100
AcDbEntity
  8
02-01
100
AcDbLine
 10
185.2091684876804
 20
178.7105002787425
 30
0.0
 11
178.1301901803445
 21
178.7105002787422
 31
0.0
  0
LINE
  5
12A
330
2
100
AcDbEntity
  8
02-01
100
AcDbLine
 10
181.474001411083
 20
174.6610519225967
 30
0.0
 11
191.4027408132228
 21
185.4252069459429
 31
0.0
  0
LINE
  5
12B
330
2
100
AcDbEntity
  8
02-01
100
AcDbLine
 10
170.6301901803444
 20
184.4706978840966
 30
0.0
 11
178.1301901803445
 21
185.4252069459361
 31
0.0
  0
LINE
  5
12C
330
2
100
AcDbEntity
  8
02-01
100
AcDbLine
 10
178.1301901803445
 20
185.4252069459361
 30
0.0
 11
178.1301901803445
 21
174.6610519225967
 31
0.0
  0
LINE
  5
12D
330
2
100
AcDbEntity
  8
01-01
100
AcDbLine
 10
318.1301901803445
 20
274.9109283397806
 30
0.0
 11
318.1301901803445
 21
70.42520694594063
 31
0.0
  0
LINE
  5
12E
330
2
100
AcDbEntity
  8
01-01
100
AcDbLine
 10
313.1301901803445
 20
274.9109283397806
 30
0.0
 11
318.1301901803445
 21
274.9109283397806
 31
0.0
  0
LINE
  5
12F
330
2
100
AcDbEntity
  8
01-01
100
AcDbLine
 10
313.1301901803445
 20
70.42520694594063
 30
0.0
 11
313.1301901803445
 21
274.9109283397806
 31
0.0
  0
LINE
  5
130
330
2
100
AcDbEntity
  8
0
100
AcDbLine
 10
273.1301901803458
 20
185.4252069459426
 30
0.0
 11
273.1301901803413
 21
278.6383879732398
 31
0.0
  0
LINE
  5
131
330
2
100
AcDbEntity
  8
0
100
AcDbLine
 10
273.1301901803436
 20
57.60748496160235
 30
0.0
 11
273.1301901803463
 21
155.4252069459432
 31
0.0
  0
LINE
  5
132
330
2
100
AcDbEntity
  8
02-01
100
AcDbLine
 10
113.1301901803444
 20
170.4252069459429
 30
0.0
 11
121.7904442181889
 21
185.4252069459429
 31
0.0
  0
LINE
  5
133
330
2
100
AcDbEntity
  8
02-01
100
AcDbLine
 10
121.7904442181898
 20
155.4252069459429
 30
0.0
 11
121.7904442181898
 21
185.4252069459429
 31
0.0
  0
LINE
  5
134
330
2
100
AcDbEntity
  8
02-01
100
AcDbLine
 10
113.1301901803444
 20
170.4252069459429
 30
0.0
 11
121.7904442181898
 21
155.4252069459429
 31
0.0
  0
LINE
  5
135
330
2
100
AcDbEntity
  8
02-01
100
AcDbLine
 10
198.1301901803444
 20
185.4252069459429
 30
0.0
 11
191.4027408132224
 21
185.4252069459429
 31
0.0
  0
LINE
  5
136
330
2
100
AcDbEntity
  8
02-01
100
AcDbLine
 10
218.1301901803445
 20
185.4252069459432
 30
0.0
 11
211.4027408132224
 21
185.4252069459429
 31
0.0
  0
LINE
  5
137
330
2
100
AcDbEntity
  8
02-01
100
AcDbLine
 10
238.1301901803445
 20
185.4252069459429
 30
0.0
 11
231.4027408132229
 21
185.4252069459429
 31
0.0
  0
LINE
  5
138
330
2
100
AcDbEntity
  8
02-01
100
AcDbLine
 10
308.1301901803454
 20
185.4252069459429
 30
0.0
 11
121.7904442181898
 21
185.4252069459429
 31
0.0
  0
LINE
  5
139
330
2
100
AcDbEntity
  8
02-01
100
AcDbLine
 10
308.1301901803454
 20
155.4252069459406
 30
0.0
 11
121.7904442181898
 21
155.4252069459406
 31
0.0
  0
LINE
  5
13A
330
2
100
AcDbEntity
  8
02-01
100
AcDbLine
 10
163.1301901803444
 20
181.6752069459406
 30
0.0
 11
170.6301901803444
 21
184.4706978840966
 31
0.0
  0
LINE
  5
13B
330
2
100
AcDbEntity
  8
02-01
100
AcDbLine
 10
170.6301901803444
 20
167.9252069459406
 30
0.0
 11
170.6301901803444
 21
155.4252069459406
 31
0.0
  0
LINE
  5
13C
330
2
100
AcDbEntity
  8
02-01
100
AcDbLine
 10
170.6301901803444
 20
184.4706978840921
 30
0.0
 11
170.6301901803444
 21
172.9252069459406
 31
0.0
  0
LINE
  5
13D
330
2
100
AcDbEntity
  8
02-01
100
AcDbLine
 10
163.1301901803444
 20
167.9252069459406
 30
0.0
 11
163.1301901803444
 21
159.1752069459406
 31
0.0
  0
LINE
  5
13E
330
2
100
AcDbEntity
  8
02-01
100
AcDbLine
 10
163.1301901803444
 20
181.6752069459406
 30
0.0
 11
163.1301901803444
 21
172.9252069459406
 31
0.0
  0
LINE
  5
13F
330
2
100
AcDbEntity
  8
02-01
100
AcDbLine
 10
308.1301901803445
 20
155.4252069459406
 30
0.0
 11
313.1301901803445
 21
151.6752069459406
 31
0.0
  0
LINE
  5
140
330
2
100
AcDbEntity
  8
02-01
100
AcDbLine
 10
313.1301901803445
 20
189.1752069459406
 30
0.0
 11
308.1301901803445
 21
185.4252069459406
 31
0.0
  0
LINE
  5
141
330
2
100
AcDbEntity
  8
02-01
100
AcDbLine
 10
308.1301901803499
 20
185.4252069459406
 30
0.0
 11
308.1301901803445
 21
155.4252069459406
 31
0.0
  0
LINE
  5
142
330
2
100
AcDbEntity
  8
02-01
100
AcDbLine
 10
308.1301901803454
 20
185.4252069459406
 30
0.0
 11
288.2889609975846
 21
185.4252069459406
 31
0.0
  0
LINE
  5
143
330
2
100
AcDbEntity
  8
01-01
100
AcDbLine
 10
318.1301901803445
 20
70.42520694594006
 30
0.0
 11
313.1301901803445
 21
70.42520694594035
 31
0.0
  0
LINE
  5
144
330
2
100
AcDbEntity
  8
02-01
100
AcDbLine
 10
181.474001411083
 20
174.6610519225967
 30
0.0
 11
178.1301901803445
 21
174.6610519225967
 31
0.0
  0
LINE
  5
145
330
2
100
AcDbEntity
  8
02-01
100
AcDbLine
 10
273.1301901803445
 20
172.9252069459406
 30
0.0
 11
163.1301901803444
 21
172.9252069459406
 31
0.0
  0
LINE
  5
146
330
2
100
AcDbEntity
  8
02-01
100
AcDbLine
 10
273.1301901803445
 20
167.9252069459406
 30
0.0
 11
163.1301901803444
 21
167.9252069459406
 31
0.0
  0
LINE
  5
147
330
2
100
AcDbEntity
  8
01-01
100
AcDbLine
 10
318.1301901803445
 20
182.9252069459406
 30
0.0
 11
313.1301901803445
 21
182.9252069459409
 31
0.0
  0
LINE
  5
148
330
2
100
AcDbEntity
  8
01-01
100
AcDbLine
 10
318.1301901803449
 20
157.9252069459406
 30
0.0
 11
313.1301901803445
 21
157.9252069459409
 31
0.0
  0
LINE
  5
149
330
2
100
AcDbEntity
  8
05-01
100
AcDbLine
 10
341.892469976443
 20
170.4252069459406
 30
0.0
 11
120.666080237751
 21
170.4252069459406
 31
0.0
  0
LINE
  5
14D
330
2
100
AcDbEntity
  8
0
  6
Continuous
 62
     7
100
AcDbLine
 10
313.1301901803436
 20
152.7500472626687
 30
0.0
 11
313.130190180339
 21
94.17520694606796
 31
0.0
  0
LINE
  5
14E
330
2
100
AcDbEntity
  8
0
100
AcDbLine
 10
313.1301901803436
 20
57.60748496160235
 30
0.0
 11
60.11277809837611
 21
57.60748496160235
 31
0.0
  0
LINE
  5
14F
330
2
100
AcDbEntity
  8
0
100
AcDbLine
 10
313.1301901803436
 20
278.6383879732401
 30
0.0
 11
60.11277809837611
 21
278.6383879732401
 31
0.0
  0
LINE
  5
150
330
2
100
AcDbEntity
  8
0
100
AcDbLine
 10
60.11277809837611
 20
57.60748496160235
 30
0.0
 11
60.11277809837611
 21
278.6383879732401
 31
0.0
  0
HATCH
  5
151
330
2
100
AcDbEntity
  8
09-01
100
AcDbHatch
 10
0.0
 20
0.0
 30
0.0
210
0.0
220
0.0
230
1.0
  2
AR-CONC
 70
     0
 71
     0
 91
        1
 92
        7
 72
     0
 73
     1
 93
        9
 10
273.1301901803413
 20
278.6383879732401
 10
60.11277809837611
 20
278.6383879732401
 10
60.11277809837611
 20
57.60748496160235
 10
273.1301901803436
 20
57.60748496160235
 10
273.1301901803463
 20
155.4252069459406
 10
121.7904442181911
 20
155.4252069459406
 10
113.1301901803444
 20
170.4252069459429
 10
121.7904442181889
 20
185.4252069459429
 10
273.1301901803458
 20
185.4252069459429
 97
        0
 75
     0
 76
     1
 52
0.0
 41
0.5
 77
     0
 78
    13
 53
50.0
 43
987.198233461399
 44
-1404.752600696021
 45
91.092334498002
 46
-7.969542769451543
 79
     2
 49
9.525000000000002
 49
-104.775
 53
355.0
 43
987.198233461399
 44
-1404.752600696021
 45
-17.62141298783349
 46
95.52832144108998
 79
     2
 49
7.62
 49
-83.81999999999999
 53
100.451
 43
994.7892334613989
 44
-1405.416725696021
 45
73.47125083297962
 46
87.55834391014593
 79
     2
 49
8.095
 49
-89.045
 53
46.18420000000001
 43
987.198233461399
 44
-1379.352600696021
 45
135.5395204460649
 46
-21.02116396636358
 79
     2
 49
14.28749999999998
 49
-157.1624999999998
 53
96.6356
 43
998.4931834613989
 44
-1381.104350696021
 45
118.7021172331185
 46
123.7127779450246
 79
     2
 49
12.1425
 49
-133.5675
 53
351.184
 43
987.198233461399
 44
-1379.352600696021
 45
118.7023029069669
 46
123.7125589302988
 79
     2
 49
11.43
 49
-125.73
 53
21.0
 43
999.8982334613993
 44
-1385.702600696021
 45
75.80743991769165
 46
-51.13275925838125
 79
     2
 49
9.525000000000002
 49
-104.775
 53
326.0
 43
999.8982334613993
 44
-1385.702600696021
 45
30.90101417382354
 46
92.09398306115962
 79
     2
 49
7.62
 49
-83.81999999999999
 53
71.45140000000001
 43
1006.215483461399
 44
-1389.963650696021
 45
106.7082453850622
 46
40.96142885802872
 79
     2
 49
8.095
 49
-89.045
 53
37.5
 43
987.198233461399
 44
-1404.752600696021
 45
1.544301625295908
 46
42.27751943657655
 79
     6
 49
0.0
 49
-82.804
 49
0.0
 49
-85.09
 49
0.0
 49
-84.1375
 53
7.499999999999999
 43
987.198233461399
 44
-1404.752600696021
 45
33.40983125515287
 46
50.09028740905975
 79
     6
 49
0.0
 49
-48.51399999999999
 49
0.0
 49
-80.899
 49
0.0
 49
-32.0675
 53
327.5
 43
958.877233461399
 44
-1404.752600696021
 45
67.7952975834357
 46
-2.864371996336721
 79
     6
 49
0.0
 49
-31.75000000000001
 49
0.0
 49
-99.06
 49
0.0
 49
-131.445
 53
317.5
 43
946.1772334613987
 44
-1404.752600696021
 45
74.06459069300902
 46
12.71324551666652
 79
     6
 49
0.0
 49
-41.275
 49
0.0
 49
-65.786
 49
0.0
 49
-93.345
 47
0.1282494919650531
 98
        1
 10
115.1846508904095
 20
236.358328498944
1001
ACAD
1010
0.0
1020
0.0
1030
0.0
  0
LINE
  5
152
330
2
100
AcDbEntity
  8
0
100
AcDbLine
 10
313.1301901803436
 20
57.60748496160235
 30
0.0
 11
313.1301901803458
 21
152.7500472626642
 31
0.0
  0
HATCH
  5
153
330
2
100
AcDbEntity
  8
09-01
100
AcDbHatch
 10
0.0
 20
0.0
 30
0.0
210
0.0
220
0.0
230
1.0
  2
SWAMP
 70
     0
 71
     0
 91
        2
 92
        7
 72
     0
 73
     1
 93
        5
 10
313.1301901803445
 20
278.6383879732401
 10
273.1301901803413
 20
278.6383879732401
 10
273.1301901803458
 20
185.4252069459429
 10
308.1301901803472
 20
185.4252069459429
 10
313.1301901803445
 20
189.1752069459409
 97
        0
 92
        7
 72
     0
 73
     1
 93
        5
 10
313.1301901803445
 20
151.6752069459403
 10
308.1301901803445
 20
155.4252069459406
 10
273.1301901803463
 20
155.4252069459406
 10
273.1301901803436
 20
57.60748496160235
 10
313.1301901803436
 20
57.60748496160235
 97
        0
 75
     0
 76
     1
 52
0.0
 41
0.5
 77
     0
 78
     6
 53
0.0
 43
987.198233461399
 44
-1404.752600696021
 45
6.349999999999999
 46
10.9985
 79
     2
 49
1.587499999999999
 49
-11.1125
 53
90.0
 43
987.9919834613993
 44
-1404.752600696021
 45
-6.349999999999998
 46
10.9985
 79
     2
 49
0.79375
 49
-21.2033
 53
90.0
 43
988.1904234613989
 44
-1404.752600696021
 45
-6.349999999999998
 46
10.9985
 79
     2
 49
0.635
 49
-21.36205
 53
90.0
 43
987.7935434613991
 44
-1404.752600696021
 45
-6.349999999999998
 46
10.9985
 79
     2
 49
0.635
 49
-21.36205
 53
60.0
 43
988.3888584613988
 44
-1404.752600696021
 45
-6.349980403523147
 46
10.99851131403118
 79
     2
 49
0.508
 49
-12.192
 53
120.0
 43
987.5951084613989
 44
-1404.752600696021
 45
-12.69998040352315
 46
0.0000113140311884
 79
     2
 49
0.5079999999999995
 49
-12.19199999999998
 47
0.1282494919650531
 98
        2
 10
291.128074799421
 20
242.1076237343172
 10
285.3533552520044
 20
126.0418252332178
1001
ACAD
1010
0.0
1020
0.0
1030
0.0
  0
DIMENSION
  5
154
102
{ACAD_XDICTIONARY
360
155
102
}
102
{ACAD_REACTORS
330
156
102
}
330
2
100
AcDbEntity
  8
09-01
100
AcDbDimension
280
     0
  2
*D9
 10
1193.778851339812
 20
446.7012987063119
 30
0.0
 11
1169.124524650203
 21
456.8961921506427
 31
0.0
 70
   128
 71
     5
 42
5.0
 73
     0
 74
     0
 75
     0
  3
Wagner$0
100
AcDbAlignedDimension
 13
1188.778851339812
 23
429.6761642353124
 33
0.0
 14
1193.778851339812
 24
429.6761642353124
 34
0.0
100
AcDbRotatedDimension
1001
ACAD
1000
DSTYLE
1002
{
1070
    40
1040
5.0
1002
}
  0
DIMENSION
  5
167
102
{ACAD_XDICTIONARY
360
168
102
}
102
{ACAD_REACTORS
330
169
102
}
330
2
100
AcDbEntity
  8
09-01
100
AcDbDimension
280
     0
  2
*D8
 10
1290.184395814016
 20
409.6761642353124
 30
0.0
 11
1275.411877996414
 21
386.478578632464
 31
0.0
 70
   128
 71
     5
 42
20.0
 73
     0
 74
     0
 75
     0
  3
Wagner$0
100
AcDbAlignedDimension
 13
1195.778851339813
 23
429.6761642353124
 33
0.0
 14
1208.278851339813
 24
409.6761642353124
 34
0.0
 50
90.0
100
AcDbRotatedDimension
1001
ACAD
1000
DSTYLE
1002
{
1070
    40
1040
5.0
1002
}
  0
DIMENSION
  5
178
102
{ACAD_XDICTIONARY
360
179
102
}
102
{ACAD_REACTORS
330
17A
102
}
330
2
100
AcDbEntity
  8
09-01
100
AcDbDimension
280
     0
  2
*D7
 10
1290.184395814016
 20
429.6761642353124
 30
0.0
 11
1278.934395814016
 21
609.6761642353125
 31
0.0
 71
     5
 42
360.0
 73
     0
 74
     0
 75
     0
  3
Wagner$0
100
AcDbAlignedDimension
 13
1195.778851339813
 23
789.6761642353124
 33
0.0
 14
1195.778851339813
 24
429.6761642353124
 34
0.0
 50
90.0
100
AcDbRotatedDimension
1001
ACAD
1000
DSTYLE
1002
{
1070
    40
1040
5.0
1002
}
  0
DIMENSION
  5
187
102
{ACAD_XDICTIONARY
360
188
102
}
102
{ACAD_REACTORS
330
189
102
}
330
2
100
AcDbEntity
  8
09-01
100
AcDbDimension
280
     0
  2
*D6
 10
1290.184395814016
 20
789.6761642353123
 30
0.0
 11
1275.411877996414
 21
834.0530605389661
 31
0.0
 70
   128
 71
     5
 42
20.0
 73
     0
 74
     0
 75
     0
  3
Wagner$0
100
AcDbAlignedDimension
 13
1208.278851339813
 23
809.6761642353124
 33
0.0
 14
1195.778851339813
 24
789.6761642353124
 34
0.0
 50
90.0
100
AcDbRotatedDimension
1001
ACAD
1000
DSTYLE
1002
{
1070
    40
1040
5.0
1002
}
  0
DIMENSION
  5
198
102
{ACAD_XDICTIONARY
360
199
102
}
102
{ACAD_REACTORS
330
19A
102
}
330
2
100
AcDbEntity
  8
09-01
100
AcDbDimension
280
     0
  2
*D5
 10
1211.278851339813
 20
830.3057928973196
 30
0.0
 11
1235.406346113951
 21
843.6515350594266
 31
0.0
 70
   128
 71
     5
 42
20.0
 73
     0
 74
     0
 75
     0
  3
Wagner$0
100
AcDbAlignedDimension
 13
1191.278851339812
 23
794.1761642353124
 33
0.0
 14
1211.278851339813
 24
806.6761642353124
 34
0.0
100
AcDbRotatedDimension
1001
ACAD
1000
DSTYLE
1002
{
1070
    40
1040
5.0
1002
}
  0
DIMENSION
  5
1A9
102
{ACAD_XDICTIONARY
360
1AA
102
}
102
{ACAD_REACTORS
330
1AB
102
}
330
2
100
AcDbEntity
  8
09-01
100
AcDbDimension
280
     0
  2
*D4
 10
1191.278851339812
 20
830.3057928973196
 30
0.0
 11
811.2788513398127
 21
841.5557928973196
 31
0.0
 71
     5
 42
760.0
 73
     0
 74
     0
 75
     0
  3
Wagner$0
100
AcDbAlignedDimension
 13
431.2788513398126
 23
794.1761642353124
 33
0.0
 14
1191.278851339812
 24
794.1761642353124
 34
0.0
100
AcDbRotatedDimension
1001
ACAD
1000
DSTYLE
1002
{
1070
    40
1040
5.0
1002
}
  0
DIMENSION
  5
1B8
102
{ACAD_XDICTIONARY
360
1B9
102
}
102
{ACAD_REACTORS
330
1BA
102
}
330
2
100
AcDbEntity
  8
09-01
100
AcDbDimension
280
     0
  2
*D3
 10
431.2788513398126
 20
830.3057928973196
 30
0.0
 11
389.3294262960499
 21
843.1913370538371
 31
0.0
 70
   128
 71
     5
 42
20.0
 73
     0
 74
     0
 75
     0
  3
Wagner$0
100
AcDbAlignedDimension
 13
411.2788513398127
 23
806.6761642353124
 33
0.0
 14
431.2788513398126
 24
794.1761642353124
 34
0.0
100
AcDbRotatedDimension
1001
ACAD
1000
DSTYLE
1002
{
1070
    40
1040
5.0
1002
}
  0
LINE
  5
1C9
330
2
100
AcDbEntity
  8
05-01
100
AcDbLine
 10
435.7788513398126
 20
429.6761642353124
 30
0.0
 11
426.7788513398127
 21
429.6761642353124
 31
0.0
  0
LINE
  5
1CA
330
2
100
AcDbEntity
  8
05-01
100
AcDbLine
 10
431.2788513398126
 20
434.1761642353124
 30
0.0
 11
431.2788513398126
 21
425.1761642353123
 31
0.0
  0
LINE
  5
1CB
102
{ACAD_REACTORS
330
17A
330
169
330
156
102
}
330
2
100
AcDbEntity
  8
05-01
100
AcDbLine
 10
1195.778851339813
 20
429.6761642353124
 30
0.0
 11
1186.778851339812
 21
429.6761642353124
 31
0.0
  0
LINE
  5
1CC
330
2
100
AcDbEntity
  8
05-01
100
AcDbLine
 10
1191.278851339812
 20
434.1761642353124
 30
0.0
 11
1191.278851339812
 21
425.1761642353123
 31
0.0
  0
LINE
  5
1CD
102
{ACAD_REACTORS
330
189
330
17A
102
}
330
2
100
AcDbEntity
  8
05-01
100
AcDbLine
 10
1195.778851339813
 20
789.6761642353124
 30
0.0
 11
1186.778851339812
 21
789.6761642353124
 31
0.0
  0
LINE
  5
1CE
102
{ACAD_REACTORS
330
1AB
330
19A
102
}
330
2
100
AcDbEntity
  8
05-01
100
AcDbLine
 10
1191.278851339812
 20
794.1761642353124
 30
0.0
 11
1191.278851339812
 21
785.1761642353124
 31
0.0
  0
LINE
  5
1CF
330
2
100
AcDbEntity
  8
05-01
100
AcDbLine
 10
435.7788513398126
 20
789.6761642353124
 30
0.0
 11
426.7788513398127
 21
789.6761642353124
 31
0.0
  0
LINE
  5
1D0
102
{ACAD_REACTORS
330
1BA
330
1AB
102
}
330
2
100
AcDbEntity
  8
05-01
100
AcDbLine
 10
431.2788513398126
 20
794.1761642353124
 30
0.0
 11
431.2788513398126
 21
785.1761642353124
 31
0.0
  0
DIMENSION
  5
1D1
102
{ACAD_XDICTIONARY
360
1D2
102
}
102
{ACAD_REACTORS
330
1D3
102
}
330
2
100
AcDbEntity
  8
09-01
100
AcDbDimension
280
     0
  2
*D2
 10
1211.278851339813
 20
862.8794277236186
 30
0.0
 11
811.2788513398127
 21
874.1294277236185
 31
0.0
 71
     5
 42
800.0
 73
     0
 74
     0
 75
     0
  3
Wagner$0
100
AcDbAlignedDimension
 13
411.2788513398127
 23
806.6761642353124
 33
0.0
 14
1211.278851339813
 24
806.6761642353124
 34
0.0
100
AcDbRotatedDimension
1001
ACAD
1000
DSTYLE
1002
{
1070
    40
1040
5.0
1002
}
  0
DIMENSION
  5
1E0
102
{ACAD_XDICTIONARY
360
1E1
102
}
102
{ACAD_REACTORS
330
1E2
102
}
330
2
100
AcDbEntity
  8
09-01
100
AcDbDimension
280
     0
  2
*D1
 10
353.4142744062638
 20
409.6761642353124
 30
0.0
 11
342.1642744062637
 21
609.6761642353125
 31
0.0
 71
     5
 42
400.0
 73
     0
 74
     0
 75
     0
  3
Wagner$0
100
AcDbAlignedDimension
 13
414.2788513398127
 23
809.6761642353124
 33
0.0
 14
414.2788513398127
 24
409.6761642353124
 34
0.0
 50
90.0
100
AcDbRotatedDimension
1001
ACAD
1000
DSTYLE
1002
{
1070
    40
1040
5.0
1002
}
  0
INSERT
  5
1EF
330
2
100
AcDbEntity
  8
0
100
AcDbBlockReference
 66
     1
  2
DIN A4 Quer
 10
-0.0000094535516837
 20
-0.0000025937458759
 30
0.0
 41
5.0
 42
5.0
 43
5.0
  0
ATTRIB
  5
260
330
1EF
100
AcDbEntity
  8
06-99
100
AcDbText
 10
1017.477233695886
 20
130.9391934864112
 30
0.0
 40
22.5
  1
Edelstahlspiegel WP 603
 41
0.9
  7
ROMANS8
100
AcDbAttribute
280
     0
  2
TEILE
 70
     0
280
     0
  0
ATTRIB
  5
261
330
1EF
100
AcDbEntity
  8
06-99
100
AcDbText
 10
1017.477233695886
 20
94.753017424581
 30
0.0
 40
22.5
  1

 41
0.9
  7
ROMANS8
100
AcDbAttribute
280
     0
  2
TEILE2
 70
     0
280
     0
  0
ATTRIB
  5
262
330
1EF
100
AcDbEntity
  8
06-99
100
AcDbText
 10
1391.736931058572
 20
226.6666666666669
 30
0.0
 40
16.875
  1
1:5
  7
ROMANS8
100
AcDbAttribute
280
     0
  2
:
 70
     0
280
     0
  0
ATTRIB
  5
263
330
1EF
100
AcDbEntity
  8
06-99
100
AcDbText
 10
899.985338996837
 20
137.2084273401566
 30
0.0
 40
12.5
  1
Pfrepper
 41
0.9
  7
ROMANS8
100
AcDbAttribute
280
     0
  2
NAME
 70
     0
280
     0
  0
ATTRIB
  5
264
330
1EF
100
AcDbEntity
  8
06-99
100
AcDbText
 10
832.4657322594703
 20
137.3061758705563
 30
0.0
 40
12.5
  1
17.02.2012
 50
359.9144597696142
 41
0.5691052222933156
  7
ROMANS8
 72
     5
 11
888.6986856021939
 21
137.2222223333335
 31
0.0
100
AcDbAttribute
280
     0
  2
DATUM
 70
     0
280
     0
  0
ATTRIB
  5
265
330
1EF
100
AcDbEntity
  8
06-99
100
AcDbText
 10
1327.531719835791
 20
37.4644990014437
 30
0.0
 40
14.9688
  1
727870
  7
ROMANS8
100
AcDbAttribute
280
     0
  2
ID.NR
 70
     0
280
     0
  0
ATTRIB
  5
266
330
1EF
100
AcDbEntity
  8
06-99
100
AcDbText
 10
1018.656331278553
 20
188.3333332222224
 30
0.0
 40
15.0
  1
800
 41
0.9
  7
ROMANS8
100
AcDbAttribute
280
     0
  2
LÄNGE
 70
     0
280
     0
  0
ATTRIB
  5
267
330
1EF
100
AcDbEntity
  8
06-99
100
AcDbText
 10
1185.904024558849
 20
188.390519352224
 30
0.0
 40
15.0
  1
400
 41
0.9
  7
ROMANS8
100
AcDbAttribute
280
     0
  2
BREITE
 70
     0
280
     0
  0
ATTRIB
  5
268
330
1EF
100
AcDbEntity
  8
06-99
100
AcDbText
 10
1388.045460633659
 20
188.333333333334
 30
0.0
 40
15.46875
  1
1,0
  7
ROMANS8
100
AcDbAttribute
280
     0
  2
1.0
 70
     0
280
     0
  0
ATTRIB
  5
269
330
1EF
100
AcDbEntity
  8
06-99
100
AcDbText
 10
1225.28178514987
 20
226.6666666666674
 30
0.0
 40
15.0
  1
Mirror
  7
ROMANS8
 72
     1
 11
1255.638928007013
 21
226.6666666666674
 31
0.0
100
AcDbAttribute
280
     0
  2
IV
 70
     0
280
     0
  0
ATTRIB
  5
26A
330
1EF
100
AcDbEntity
  8
06-99
100
AcDbText
 10
1051.373702680579
 20
226.6666666666666
 30
0.0
 40
16.875
  1
1.4301
  7
ROMANS8
100
AcDbAttribute
280
     0
  2
1.4301
 70
     0
280
     0
  0
ATTRIB
  5
26B
330
1EF
100
AcDbEntity
  8
06-99
100
AcDbText
 10
1165.0031694344
 20
37.52198302177334
 30
0.0
 40
15.84
  1

 41
0.9000000000000001
  7
ROMANS8
100
AcDbAttribute
280
     0
  2
AUFTRAGS.NR.
 70
     0
280
     0
  0
ATTRIB
  5
26C
330
1EF
100
AcDbEntity
  8
06-99
100
AcDbText
 10
1017.5
 20
37.50000000000028
 30
0.0
 40
15.84
  1

 41
0.9000000000000001
  7
ROMANS8
100
AcDbAttribute
280
     0
  2
SONDER-NR
 70
     0
280
     0
  0
ATTRIB
  5
26D
330
1EF
100
AcDbEntity
  8
06-99
100
AcDbText
 10
667.4987549750412
 20
33.00905034629949
 30
0.0
 40
7.5
  1

 41
0.9
  7
ROMANS8
100
AcDbAttribute
280
     0
  2
ERSETZT.DURCH
 70
     0
280
     0
  0
ATTRIB
  5
26E
330
1EF
100
AcDbEntity
  8
06-99
100
AcDbText
 10
542.4973389009928
 20
32.98728198936232
 30
0.0
 40
7.5
  1

 41
0.9
  7
ROMANS8
100
AcDbAttribute
280
     0
  2
ERSETZT.FÜR
 70
     0
280
     0
  0
ATTRIB
  5
26F
330
1EF
100
AcDbEntity
  8
06-99
100
AcDbText
 10
934.865363232188
 20
238.3425557000402
 30
0.0
 40
6.435
  1
DIN A4
  7
ROMANS8
 72
     1
 11
951.2592918036165
 21
238.3425557000402
 31
0.0
100
AcDbAttribute
280
     0
  2
FORMAT
 70
     0
280
     0
  0
ATTRIB
  5
270
330
1EF
100
AcDbEntity
  8
06-99
100
AcDbText
 10
914.9540961077702
 20
186.5930408968847
 30
0.0
 40
11.7
  1
DIN 2768
  7
ROMANS8
 72
     1
 11
955.0683818220559
 21
186.5930408968847
 31
0.0
100
AcDbAttribute
280
     0
  2
NORM2
 70
     0
280
     0
  0
ATTRIB
  5
271
330
1EF
100
AcDbEntity
  8
06-99
100
AcDbText
 10
899.0755246791989
 20
205.7597075635512
 30
0.0
 40
11.7
  1
DIN 6930-M
  7
ROMANS8
 72
     1
 11
952.5612389649131
 21
205.7597075635512
 31
0.0
100
AcDbAttribute
280
     0
  2
NORM1
 70
     0
280
     0
  0
SEQEND
  5
272
330
1EF
100
AcDbEntity
  8
0
  0
CIRCLE
  5
273
330
2
100
AcDbEntity
  8
01-01
100
AcDbCircle
 10
1191.278851339812
 20
789.6761642353124
 30
0.0
 40
2.5
  0
CIRCLE
  5
274
102
{ACAD_REACTORS
330
156
102
}
330
2
100
AcDbEntity
  8
01-01
100
AcDbCircle
 10
1191.278851339812
 20
429.6761642353124
 30
0.0
 40
2.5
  0
CIRCLE
  5
275
330
2
100
AcDbEntity
  8
01-01
100
AcDbCircle
 10
431.2788513398126
 20
789.6761642353124
 30
0.0
 40
2.5
  0
CIRCLE
  5
276
330
2
100
AcDbEntity
  8
01-01
100
AcDbCircle
 10
431.2788513398126
 20
429.6761642353124
 30
0.0
 40
2.5
  0
ARC
  5
277
330
2
100
AcDbEntity
  8
01-01
100
AcDbCircle
 10
414.2788513398127
 20
412.6761642353123
 30
0.0
 40
3.0
100
AcDbArc
 50
180.0
 51
270.0
  0
LINE
  5
278
102
{ACAD_REACTORS
330
1D3
330
1BA
102
}
330
2
100
AcDbEntity
  8
01-01
100
AcDbLine
 10
411.2788513398127
 20
806.6761642353124
 30
0.0
 11
411.2788513398127
 21
412.6761642353123
 31
0.0
  0
ARC
  5
279
330
2
100
AcDbEntity
  8
01-01
100
AcDbCircle
 10
414.2788513398127
 20
806.6761642353124
 30
0.0
 40
3.0
100
AcDbArc
 50
90.0
 51
180.0
  0
LINE
  5
27A
102
{ACAD_REACTORS
330
1E2
330
189
102
}
330
2
100
AcDbEntity
  8
01-01
100
AcDbLine
 10
1208.278851339813
 20
809.6761642353124
 30
0.0
 11
414.2788513398127
 21
809.6761642353124
 31
0.0
  0
ARC
  5
27B
330
2
100
AcDbEntity
  8
01-01
100
AcDbCircle
 10
1208.278851339813
 20
806.6761642353124
 30
0.0
 40
3.0
100
AcDbArc
 50
0.0
 51
90.0
  0
LINE
  5
27C
102
{ACAD_REACTORS
330
1D3
330
19A
102
}
330
2
100
AcDbEntity
  8
01-01
100
AcDbLine
 10
1211.278851339813
 20
412.6761642353123
 30
0.0
 11
1211.278851339813
 21
806.6761642353124
 31
0.0
  0
ARC
  5
27D
330
2
100
AcDbEntity
  8
01-01
100
AcDbCircle
 10
1208.278851339813
 20
412.6761642353123
 30
0.0
 40
3.0
100
AcDbArc
 50
270.0
 51
0.0
  0
LINE
  5
27E
102
{ACAD_REACTORS
330
1E2
330
169
102
}
330
2
100
AcDbEntity
  8
01-01
100
AcDbLine
 10
414.2788513398127
 20
409.6761642353124
 30
0.0
 11
1208.278851339813
 21
409.6761642353124
 31
0.0
  0
ENDSEC
  0
SECTION
  2
OBJECTS
  0
DICTIONARY
  5
B
330
0
100
AcDbDictionary
281
     1
  3
ACAD_COLOR
350
3C
  3
ACAD_GROUP
350
37
  3
ACAD_LAYOUT
350
17
  3
ACAD_MATERIAL
350
D
  3
ACAD_MLEADERSTYLE
350
3F
  3
ACAD_MLINESTYLE
350
38
  3
ACAD_PLOTSETTINGS
350
39
  3
ACAD_PLOTSTYLENAME
350
A
  3
ACAD_SCALELIST
350
3D
  3
ACAD_TABLESTYLE
350
3E
  3
ACAD_VISUALSTYLE
350
2F
  3
ACDB_RECOMPOSE_DATA
350
289
  3
AcDbVariableDictionary
350
281
  0
DICTIONARY
  5
20
330
1F
100
AcDbDictionary
280
     1
281
     1
  3
ACAD_LAYERFILTERS
360
21
  3
ACAD_LAYERSTATES
360
22
  3
ACLYDICTIONARY
360
23
  0
DICTIONARY
  5
7
330
6
100
AcDbDictionary
280
     1
281
     1
  3
ADSK_XREC_LAYER_RECONCILED
360
8
  0
DICTIONARY
  5
1F6
330
1F5
100
AcDbDictionary
280
     1
281
     1
  0
DICTIONARY
  5
231
330
230
100
AcDbDictionary
280
     1
281
     1
  0
DICTIONARY
  5
21C
330
21B
100
AcDbDictionary
280
     1
281
     1
  0
DICTIONARY
  5
107
330
106
100
AcDbDictionary
280
     1
281
     1
  0
DICTIONARY
  5
82
330
81
100
AcDbDictionary
280
     1
281
     1
  0
DICTIONARY
  5
41
330
40
100
AcDbDictionary
280
     1
281
     1
  0
DICTIONARY
  5
14B
330
14A
100
AcDbDictionary
280
     1
281
     1
  0
DICTIONARY
  5
3
330
2
100
AcDbDictionary
280
     1
281
     1
  3
ACAD_SORTENTS
360
280
  0
DICTIONARY
  5
1F1
330
1F0
100
AcDbDictionary
280
     1
281
     1
  3
ACAD_SORTENTS
360
27F
  0
DICTIONARY
  5
155
330
154
100
AcDbDictionary
280
     1
281
     1
  3
ACAD_DIMASSOC
360
156
  0
DICTIONARY
  5
168
330
167
100
AcDbDictionary
280
     1
281
     1
  3
ACAD_DIMASSOC
360
169
  0
DICTIONARY
  5
179
330
178
100
AcDbDictionary
280
     1
281
     1
  3
ACAD_DIMASSOC
360
17A
  0
DICTIONARY
  5
188
330
187
100
AcDbDictionary
280
     1
281
     1
  3
ACAD_DIMASSOC
360
189
  0
DICTIONARY
  5
199
330
198
100
AcDbDictionary
280
     1
281
     1
  3
ACAD_DIMASSOC
360
19A
  0
DICTIONARY
  5
1AA
330
1A9
100
AcDbDictionary
280
     1
281
     1
  3
ACAD_DIMASSOC
360
1AB
  0
DICTIONARY
  5
1B9
330
1B8
100
AcDbDictionary
280
     1
281
     1
  3
ACAD_DIMASSOC
360
1BA
  0
DICTIONARY
  5
1D2
330
1D1
100
AcDbDictionary
280
     1
281
     1
  3
ACAD_DIMASSOC
360
1D3
  0
DICTIONARY
  5
1E1
330
1E0
100
AcDbDictionary
280
     1
281
     1
  3
ACAD_DIMASSOC
360
1E2
  0
DICTIONARY
  5
3C
102
{ACAD_REACTORS
330
B
102
}
330
B
100
AcDbDictionary
281
     1
  0
DICTIONARY
  5
37
102
{ACAD_REACTORS
330
B
102
}
330
B
100
AcDbDictionary
281
     1
  0
DICTIONARY
  5
17
102
{ACAD_REACTORS
330
B
102
}
330
B
100
AcDbDictionary
281
     1
  3
Layout1
350
1E
  3
Model
350
16
  0
DICTIONARY
  5
D
102
{ACAD_REACTORS
330
B
102
}
330
B
100
AcDbDictionary
281
     1
  3
ByBlock
350
3B
  3
ByLayer
350
3A
  3
Global
350
C
  0
DICTIONARY
  5
3F
102
{ACAD_REACTORS
330
B
102
}
330
B
100
AcDbDictionary
281
     1
  0
DICTIONARY
  5
38
102
{ACAD_REACTORS
330
B
102
}
330
B
100
AcDbDictionary
281
     1
  3
Standard
350
42
  0
DICTIONARY
  5
39
102
{ACAD_REACTORS
330
B
102
}
330
B
100
AcDbDictionary
281
     1
  0
ACDBDICTIONARYWDFLT
  5
A
102
{ACAD_REACTORS
330
B
102
}
330
B
100
AcDbDictionary
281
     1
  3
Normal
350
9
100
AcDbDictionaryWithDefault
340
9
  0
DICTIONARY
  5
3D
102
{ACAD_REACTORS
330
B
102
}
330
B
100
AcDbDictionary
281
     1
  3
A0
350
47
  3
A1
350
48
  3
A2
350
49
  3
A3
350
4A
  3
A4
350
4B
  3
A5
350
4C
  3
A6
350
4D
  3
A7
350
4E
  3
A8
350
4F
  3
A9
350
50
  3
B0
350
51
  3
B1
350
52
  3
B2
350
53
  3
B3
350
54
  3
B4
350
55
  3
B5
350
56
  3
B6
350
57
  3
B7
350
58
  3
B8
350
59
  3
B9
350
5A
  3
C0
350
5B
  3
C1
350
5C
  3
C2
350
5D
  3
C3
350
5E
  3
C4
350
5F
  3
C5
350
60
  3
C6
350
61
  3
C7
350
62
  3
C8
350
63
  3
C9
350
64
  3
D0
350
65
  3
D1
350
66
  3
D2
350
67
  0
DICTIONARY
  5
3E
102
{ACAD_REACTORS
330
B
102
}
330
B
100
AcDbDictionary
281
     1
  3
Standard
350
43
  0
DICTIONARY
  5
2F
102
{ACAD_REACTORS
330
B
102
}
330
B
100
AcDbDictionary
281
     1
  3
2dWireframe
350
2E
  3
3dWireframe
350
46
  3
Realistic
350
45
  0
XRECORD
  5
289
102
{ACAD_REACTORS
330
B
102
}
330
B
100
AcDbXrecord
280
     1
 90
        1
330
43
  0
DICTIONARY
  5
281
102
{ACAD_REACTORS
330
B
102
}
330
B
100
AcDbDictionary
281
     1
  3
CANNOSCALE
350
284
  3
CMLEADERSTYLE
350
283
  3
CTABLESTYLE
350
282
  3
LAYEREVAL
350
285
  3
LAYERNOTIFY
350
286
  0
DICTIONARY
  5
21
102
{ACAD_REACTORS
330
20
102
}
330
20
100
AcDbDictionary
281
     1
  0
DICTIONARY
  5
22
102
{ACAD_REACTORS
330
20
102
}
330
20
100
AcDbDictionary
281
     1
  0
DICTIONARY
  5
23
102
{ACAD_REACTORS
330
20
102
}
330
20
100
AcDbDictionary
281
     1
1001
ACAD
1000
<All
  0
XRECORD
  5
8
102
{ACAD_REACTORS
330
7
102
}
330
7
100
AcDbXrecord
280
     1
290
     1
  0
SORTENTSTABLE
  5
280
102
{ACAD_REACTORS
330
3
102
}
330
3
100
AcDbSortentsTable
330
2
331
198
  5
83
331
B7
  5
121
331
B3
  5
125
331
12D
  5
AB
331
EE
  5
E8
331
129
  5
AF
331
AF
  5
129
331
AB
  5
12D
331
EA
  5
EC
331
76
  5
1D1
331
125
  5
B3
331
72
  5
274
331
121
  5
B7
331
1CF
  5
78
331
1CB
  5
7C
331
A7
  5
131
331
E6
  5
F0
331
A3
  5
135
331
E2
  5
F4
331
6E
  5
278
331
11D
  5
BB
331
DE
  5
F8
331
119
  5
BF
331
9F
  5
139
331
6A
  5
27C
331
DA
  5
FC
331
115
  5
C3
331
154
  5
87
331
9B
  5
13D
331
27D
  5
69
331
111
  5
C7
331
150
  5
8B
331
279
  5
6D
331
178
  5
85
331
97
  5
141
331
D6
  5
100
331
93
  5
145
331
D2
  5
104
331
10D
  5
CB
331
109
  5
CF
331
148
  5
90
331
275
  5
71
331
8F
  5
149
331
CE
  5
10A
331
CA
  5
10E
331
105
  5
D1
331
144
  5
94
331
8B
  5
150
331
101
  5
D5
331
140
  5
98
331
87
  5
154
331
C6
  5
112
331
13C
  5
9C
331
83
  5
198
331
C2
  5
116
331
FD
  5
D9
331
F9
  5
DD
331
138
  5
A0
331
7F
  5
1B8
331
BE
  5
11A
331
BA
  5
11E
331
F5
  5
E1
331
134
  5
A4
331
7B
  5
1CC
331
F1
  5
E5
331
130
  5
A8
331
B6
  5
122
331
12C
  5
AC
331
B2
  5
126
331
ED
  5
E9
331
128
  5
B0
331
167
  5
86
331
AE
  5
12A
331
AA
  5
12E
331
E9
  5
ED
331
75
  5
1E0
331
124
  5
B4
331
71
  5
275
331
120
  5
B8
331
1CE
  5
79
331
1CA
  5
7D
331
A6
  5
132
331
E5
  5
F1
331
A2
  5
136
331
E1
  5
F5
331
6D
  5
279
331
11C
  5
BC
331
DD
  5
F9
331
118
  5
C0
331
9E
  5
13A
331
69
  5
27D
331
9A
  5
13E
331
D9
  5
FD
331
114
  5
C4
331
153
  5
88
331
27C
  5
6A
331
110
  5
C8
331
278
  5
6E
331
187
  5
84
331
96
  5
142
331
D5
  5
101
331
14F
  5
8C
331
92
  5
146
331
D1
  5
105
331
10C
  5
CC
331
CD
  5
10B
331
108
  5
D0
331
147
  5
91
331
274
  5
72
331
8E
  5
14D
331
C9
  5
10F
331
104
  5
D2
331
143
  5
95
331
8A
  5
151
331
100
  5
D6
331
86
  5
167
331
C5
  5
113
331
13F
  5
99
331
13B
  5
9D
331
C1
  5
117
331
FC
  5
DA
331
F8
  5
DE
331
137
  5
A1
331
7E
  5
1C9
331
BD
  5
11B
331
B9
  5
11F
331
F4
  5
E2
331
133
  5
A5
331
7A
  5
1CD
331
F0
  5
E6
331
B5
  5
123
331
12F
  5
A9
331
12B
  5
AD
331
B1
  5
127
331
EC
  5
EA
331
127
  5
B1
331
AD
  5
12B
331
A9
  5
12F
331
E8
  5
EE
331
74
  5
1EF
331
123
  5
B5
331
70
  5
276
331
1D1
  5
76
331
1CD
  5
7A
331
1C9
  5
7E
331
A5
  5
133
331
E4
  5
F2
331
11F
  5
B9
331
11B
  5
BD
331
A1
  5
137
331
6C
  5
27A
331
E0
  5
F6
331
DC
  5
FA
331
117
  5
C1
331
9D
  5
13B
331
68
  5
27E
331
99
  5
13F
331
D8
  5
FE
331
113
  5
C5
331
152
  5
89
331
27B
  5
6B
331
14E
  5
8D
331
95
  5
143
331
D4
  5
102
331
10F
  5
C9
331
91
  5
147
331
D0
  5
108
331
277
  5
6F
331
10B
  5
CD
331
CC
  5
10C
331
146
  5
92
331
273
  5
73
331
8D
  5
14E
331
89
  5
152
331
C8
  5
110
331
103
  5
D3
331
142
  5
96
331
1A9
  5
80
331
1E0
  5
75
331
85
  5
178
331
C4
  5
114
331
FF
  5
D7
331
13E
  5
9A
331
13A
  5
9E
331
C0
  5
118
331
FB
  5
DB
331
BC
  5
11C
331
F7
  5
DF
331
136
  5
A2
331
7D
  5
1CA
331
B8
  5
120
331
F3
  5
E3
331
132
  5
A6
331
79
  5
1CE
331
B4
  5
124
331
12E
  5
AA
331
EF
  5
E7
331
12A
  5
AE
331
B0
  5
128
331
77
  5
1D0
331
126
  5
B2
331
AC
  5
12C
331
A8
  5
130
331
73
  5
273
331
122
  5
B6
331
1D0
  5
77
331
1CC
  5
7B
331
E7
  5
EF
331
A4
  5
134
331
E3
  5
F3
331
6F
  5
277
331
11E
  5
BA
331
11A
  5
BE
331
A0
  5
138
331
6B
  5
27B
331
DF
  5
F7
331
DB
  5
FB
331
116
  5
C2
331
9C
  5
13C
331
98
  5
140
331
27E
  5
68
331
112
  5
C6
331
151
  5
8A
331
27A
  5
6C
331
1B8
  5
7F
331
D7
  5
FF
331
14D
  5
8E
331
94
  5
144
331
D3
  5
103
331
10E
  5
CA
331
10A
  5
CE
331
149
  5
8F
331
276
  5
70
331
90
  5
148
331
CF
  5
109
331
CB
  5
10D
331
145
  5
93
331
8C
  5
14F
331
88
  5
153
331
102
  5
D4
331
141
  5
97
331
1EF
  5
74
331
C7
  5
111
331
13D
  5
9B
331
84
  5
187
331
C3
  5
115
331
FE
  5
D8
331
139
  5
9F
331
80
  5
1A9
331
BF
  5
119
331
FA
  5
DC
331
BB
  5
11D
331
F6
  5
E0
331
135
  5
A3
331
7C
  5
1CB
331
78
  5
1CF
331
F2
  5
E4
331
131
  5
A7
  0
SORTENTSTABLE
  5
27F
102
{ACAD_REACTORS
330
1F1
102
}
330
1F1
100
AcDbSortentsTable
330
1F0
  0
DIMASSOC
  5
156
102
{ACAD_REACTORS
330
155
102
}
330
155
100
AcDbDimAssoc
330
154
 90
        3
 70
     0
 71
     0
  1
AcDbOsnapPointRef
 72
     6
331
1CB
 73
     2
 91
        0
 40
0.7777777777777778
 10
0.0
 20
0.0
 30
0.0
332
274
 74
     2
 92
        0
 75
     0
  1
AcDbOsnapPointRef
 72
     6
331
1CB
 73
     2
 91
        0
 40
0.2222222222222222
 10
0.0
 20
0.0
 30
0.0
332
274
 74
     2
 92
        0
 75
     0
  0
DIMASSOC
  5
169
102
{ACAD_REACTORS
330
168
102
}
330
168
100
AcDbDimAssoc
330
167
 90
        3
 70
     0
 71
     0
  1
AcDbOsnapPointRef
 72
    13
331
1CB
 73
     2
 91
        0
 40
0.0
 10
0.0
 20
0.0
 30
2.000000000000000E+50
 75
     0
  1
AcDbOsnapPointRef
 72
     1
331
27E
 73
     2
 91
        0
 40
1.0
 10
0.0
 20
0.0
 30
2.000000000000000E+50
 75
     0
  0
DIMASSOC
  5
17A
102
{ACAD_REACTORS
330
179
102
}
330
179
100
AcDbDimAssoc
330
178
 90
        3
 70
     0
 71
     0
  1
AcDbOsnapPointRef
 72
    13
331
1CD
 73
     2
 91
        0
 40
0.0
 10
0.0
 20
0.0
 30
2.000000000000000E+50
 75
     0
  1
AcDbOsnapPointRef
 72
    13
331
1CB
 73
     2
 91
        0
 40
0.0
 10
0.0
 20
0.0
 30
2.000000000000000E+50
 75
     0
  0
DIMASSOC
  5
189
102
{ACAD_REACTORS
330
188
102
}
330
188
100
AcDbDimAssoc
330
187
 90
        3
 70
     0
 71
     0
  1
AcDbOsnapPointRef
 72
    13
331
27A
 73
     2
 91
        0
 40
0.0
 10
0.0
 20
0.0
 30
2.000000000000000E+50
 75
     0
  1
AcDbOsnapPointRef
 72
    13
331
1CD
 73
     2
 91
        0
 40
0.0
 10
0.0
 20
0.0
 30
2.000000000000000E+50
 75
     0
  0
DIMASSOC
  5
19A
102
{ACAD_REACTORS
330
199
102
}
330
199
100
AcDbDimAssoc
330
198
 90
        3
 70
     0
 71
     0
  1
AcDbOsnapPointRef
 72
    13
331
1CE
 73
     2
 91
        0
 40
0.0
 10
0.0
 20
0.0
 30
2.000000000000000E+50
 75
     0
  1
AcDbOsnapPointRef
 72
     1
331
27C
 73
     2
 91
        0
 40
1.0
 10
0.0
 20
0.0
 30
2.000000000000000E+50
 75
     0
  0
DIMASSOC
  5
1AB
102
{ACAD_REACTORS
330
1AA
102
}
330
1AA
100
AcDbDimAssoc
330
1A9
 90
        3
 70
     0
 71
     0
  1
AcDbOsnapPointRef
 72
    13
331
1D0
 73
     2
 91
        0
 40
0.0
 10
0.0
 20
0.0
 30
2.000000000000000E+50
 75
     0
  1
AcDbOsnapPointRef
 72
    13
331
1CE
 73
     2
 91
        0
 40
0.0
 10
0.0
 20
0.0
 30
2.000000000000000E+50
 75
     0
  0
DIMASSOC
  5
1BA
102
{ACAD_REACTORS
330
1B9
102
}
330
1B9
100
AcDbDimAssoc
330
1B8
 90
        3
 70
     0
 71
     0
  1
AcDbOsnapPointRef
 72
    13
331
278
 73
     2
 91
        0
 40
0.0
 10
0.0
 20
0.0
 30
2.000000000000000E+50
 75
     0
  1
AcDbOsnapPointRef
 72
    13
331
1D0
 73
     2
 91
        0
 40
0.0
 10
0.0
 20
0.0
 30
2.000000000000000E+50
 75
     0
  0
DIMASSOC
  5
1D3
102
{ACAD_REACTORS
330
1D2
102
}
330
1D2
100
AcDbDimAssoc
330
1D1
 90
        3
 70
     0
 71
     0
  1
AcDbOsnapPointRef
 72
    13
331
278
 73
     2
 91
        0
 40
0.0
 10
0.0
 20
0.0
 30
2.000000000000000E+50
 75
     0
  1
AcDbOsnapPointRef
 72
     1
331
27C
 73
     2
 91
        0
 40
1.0
 10
0.0
 20
0.0
 30
2.000000000000000E+50
 75
     0
  0
DIMASSOC
  5
1E2
102
{ACAD_REACTORS
330
1E1
102
}
330
1E1
100
AcDbDimAssoc
330
1E0
 90
        3
 70
     0
 71
     0
  1
AcDbOsnapPointRef
 72
     1
331
27A
 73
     2
 91
        0
 40
1.0
 10
0.0
 20
0.0
 30
2.000000000000000E+50
 75
     0
  1
AcDbOsnapPointRef
 72
    13
331
27E
 73
     2
 91
        0
 40
0.0
 10
0.0
 20
0.0
 30
2.000000000000000E+50
 75
     0
  0
LAYOUT
  5
1E
102
{ACAD_REACTORS
330
17
102
}
330
17
100
AcDbPlotSettings
  1

  2
C:\Documents and Settings\basas\Application Data\Autodesk\AutoCAD 2005\R16.1\enu\plotters\Default Windows System Printer.pc3
  4

  6

 40
0.0
 41
0.0
 42
0.0
 43
0.0
 44
0.0
 45
0.0
 46
0.0
 47
0.0
 48
0.0
 49
0.0
140
0.0
141
0.0
142
1.0
143
1.0
 70
   688
 72
     0
 73
     0
 74
     5
  7

 75
    16
147
1.0
 76
     0
 77
     2
 78
   300
148
0.0
149
0.0
100
AcDbLayout
  1
Layout1
 70
     1
 71
     1
 10
0.0
 20
0.0
 11
12.0
 21
9.0
 12
0.0
 22
0.0
 32
0.0
 14
0.0
 24
0.0
 34
0.0
 15
0.0
 25
0.0
 35
0.0
146
0.0
 13
0.0
 23
0.0
 33
0.0
 16
1.0
 26
0.0
 36
0.0
 17
0.0
 27
1.0
 37
0.0
 76
     0
330
1B
  0
LAYOUT
  5
16
102
{ACAD_XDICTIONARY
360
18
102
}
102
{ACAD_REACTORS
330
17
102
}
330
17
100
AcDbPlotSettings
  1

  2
none_device
  4
ISO_A4_(210.00_x_297.00_MM)
  6

 40
7.5
 41
20.0
 42
7.5
 43
20.0
 44
210.0
 45
297.0
 46
11.54999923706054
 47
-13.65000009536743
 48
0.0
 49
0.0
140
0.0
141
0.0
142
1.0
143
8.704084754739808
 70
 11952
 72
     1
 73
     0
 74
     0
  7

 75
     0
147
0.1148885871608098
 76
     0
 77
     2
 78
   300
148
0.0
149
0.0
100
AcDbLayout
  1
Model
 70
     1
 71
     0
 10
0.0
 20
0.0
 11
12.0
 21
9.0
 12
0.0
 22
0.0
 32
0.0
 14
0.0
 24
0.0
 34
0.0
 15
0.0
 25
0.0
 35
0.0
146
0.0
 13
0.0
 23
0.0
 33
0.0
 16
1.0
 26
0.0
 36
0.0
 17
0.0
 27
1.0
 37
0.0
 76
     0
330
2
331
2D
1001
ACAD_PSEXT
1000
None
1000
None
1000
Not applicable
1000
The layout will not be plotted unless a new plotter configuration name is selected.
1070
     0
  0
MATERIAL
  5
3B
102
{ACAD_REACTORS
330
D
102
}
330
D
100
AcDbMaterial
  1
ByBlock
 94
       63
  0
MATERIAL
  5
3A
102
{ACAD_REACTORS
330
D
102
}
330
D
100
AcDbMaterial
  1
ByLayer
 94
       63
  0
MATERIAL
  5
C
102
{ACAD_XDICTIONARY
360
E
102
}
102
{ACAD_REACTORS
330
D
102
}
330
D
100
AcDbMaterial
  1
Global
 43
0.0007999999797903
 43
0.0
 43
0.0
 43
0.0
 43
0.0
 43
0.0007999999797903
 43
0.0
 43
0.0
 43
0.0
 43
0.0
 43
1.0
 43
0.0
 43
0.0
 43
0.0
 43
0.0
 43
1.0
 49
0.0007999999797903
 49
0.0
 49
0.0
 49
0.0
 49
0.0
 49
0.0007999999797903
 49
0.0
 49
0.0
 49
0.0
 49
0.0
 49
1.0
 49
0.0
 49
0.0
 49
0.0
 49
0.0
 49
1.0
142
0.0007999999797903
142
0.0
142
0.0
142
0.0
142
0.0
142
0.0007999999797903
142
0.0
142
0.0
142
0.0
142
0.0
142
1.0
142
0.0
142
0.0
142
0.0
142
0.0
142
1.0
144
0.0007999999797903
144
0.0
144
0.0
144
0.0
144
0.0
144
0.0007999999797903
144
0.0
144
0.0
144
0.0
144
0.0
144
1.0
144
0.0
144
0.0
144
0.0
144
0.0
144
1.0
 94
       63
1001
ACAD
1070
    -1
1070
     3
1070
     0
1000

1071
        0
1070
     0
  0
MLINESTYLE
  5
42
102
{ACAD_REACTORS
330
38
102
}
330
38
100
AcDbMlineStyle
  2
STANDARD
 70
     0
  3

 62
   256
 51
90.0
 52
90.0
 71
     2
 49
0.5
 62
   256
  6
BYLAYER
 49
-0.5
 62
   256
  6
BYLAYER
  0
ACDBPLACEHOLDER
  5
9
102
{ACAD_REACTORS
330
A
102
}
330
A
  0
SCALE
  5
47
102
{ACAD_REACTORS
330
3D
102
}
330
3D
100
AcDbScale
 70
     0
300
1:1
140
1.0
141
1.0
290
     1
  0
SCALE
  5
48
102
{ACAD_REACTORS
330
3D
102
}
330
3D
100
AcDbScale
 70
     0
300
1:2
140
1.0
141
2.0
290
     0
  0
SCALE
  5
49
102
{ACAD_REACTORS
330
3D
102
}
330
3D
100
AcDbScale
 70
     0
300
1:4
140
1.0
141
4.0
290
     0
  0
SCALE
  5
4A
102
{ACAD_REACTORS
330
3D
102
}
330
3D
100
AcDbScale
 70
     0
300
1:5
140
1.0
141
5.0
290
     0
  0
SCALE
  5
4B
102
{ACAD_REACTORS
330
3D
102
}
330
3D
100
AcDbScale
 70
     0
300
1:8
140
1.0
141
8.0
290
     0
  0
SCALE
  5
4C
102
{ACAD_REACTORS
330
3D
102
}
330
3D
100
AcDbScale
 70
     0
300
1:10
140
1.0
141
10.0
290
     0
  0
SCALE
  5
4D
102
{ACAD_REACTORS
330
3D
102
}
330
3D
100
AcDbScale
 70
     0
300
1:16
140
1.0
141
16.0
290
     0
  0
SCALE
  5
4E
102
{ACAD_REACTORS
330
3D
102
}
330
3D
100
AcDbScale
 70
     0
300
1:20
140
1.0
141
20.0
290
     0
  0
SCALE
  5
4F
102
{ACAD_REACTORS
330
3D
102
}
330
3D
100
AcDbScale
 70
     0
300
1:30
140
1.0
141
30.0
290
     0
  0
SCALE
  5
50
102
{ACAD_REACTORS
330
3D
102
}
330
3D
100
AcDbScale
 70
     0
300
1:40
140
1.0
141
40.0
290
     0
  0
SCALE
  5
51
102
{ACAD_REACTORS
330
3D
102
}
330
3D
100
AcDbScale
 70
     0
300
1:50
140
1.0
141
50.0
290
     0
  0
SCALE
  5
52
102
{ACAD_REACTORS
330
3D
102
}
330
3D
100
AcDbScale
 70
     0
300
1:100
140
1.0
141
100.0
290
     0
  0
SCALE
  5
53
102
{ACAD_REACTORS
330
3D
102
}
330
3D
100
AcDbScale
 70
     0
300
2:1
140
2.0
141
1.0
290
     0
  0
SCALE
  5
54
102
{ACAD_REACTORS
330
3D
102
}
330
3D
100
AcDbScale
 70
     0
300
4:1
140
4.0
141
1.0
290
     0
  0
SCALE
  5
55
102
{ACAD_REACTORS
330
3D
102
}
330
3D
100
AcDbScale
 70
     0
300
8:1
140
8.0
141
1.0
290
     0
  0
SCALE
  5
56
102
{ACAD_REACTORS
330
3D
102
}
330
3D
100
AcDbScale
 70
     0
300
10:1
140
10.0
141
1.0
290
     0
  0
SCALE
  5
57
102
{ACAD_REACTORS
330
3D
102
}
330
3D
100
AcDbScale
 70
     0
300
100:1
140
100.0
141
1.0
290
     0
  0
SCALE
  5
58
102
{ACAD_REACTORS
330
3D
102
}
330
3D
100
AcDbScale
 70
     0
300
1/128" = 1'-0"
140
0.0078125
141
12.0
290
     0
  0
SCALE
  5
59
102
{ACAD_REACTORS
330
3D
102
}
330
3D
100
AcDbScale
 70
     0
300
1/64" = 1'-0"
140
0.015625
141
12.0
290
     0
  0
SCALE
  5
5A
102
{ACAD_REACTORS
330
3D
102
}
330
3D
100
AcDbScale
 70
     0
300
1/32" = 1'-0"
140
0.03125
141
12.0
290
     0
  0
SCALE
  5
5B
102
{ACAD_REACTORS
330
3D
102
}
330
3D
100
AcDbScale
 70
     0
300
1/16" = 1'-0"
140
0.0625
141
12.0
290
     0
  0
SCALE
  5
5C
102
{ACAD_REACTORS
330
3D
102
}
330
3D
100
AcDbScale
 70
     0
300
3/32" = 1'-0"
140
0.09375
141
12.0
290
     0
  0
SCALE
  5
5D
102
{ACAD_REACTORS
330
3D
102
}
330
3D
100
AcDbScale
 70
     0
300
1/8" = 1'-0"
140
0.125
141
12.0
290
     0
  0
SCALE
  5
5E
102
{ACAD_REACTORS
330
3D
102
}
330
3D
100
AcDbScale
 70
     0
300
3/16" = 1'-0"
140
0.1875
141
12.0
290
     0
  0
SCALE
  5
5F
102
{ACAD_REACTORS
330
3D
102
}
330
3D
100
AcDbScale
 70
     0
300
1/4" = 1'-0"
140
0.25
141
12.0
290
     0
  0
SCALE
  5
60
102
{ACAD_REACTORS
330
3D
102
}
330
3D
100
AcDbScale
 70
     0
300
3/8" = 1'-0"
140
0.375
141
12.0
290
     0
  0
SCALE
  5
61
102
{ACAD_REACTORS
330
3D
102
}
330
3D
100
AcDbScale
 70
     0
300
1/2" = 1'-0"
140
0.5
141
12.0
290
     0
  0
SCALE
  5
62
102
{ACAD_REACTORS
330
3D
102
}
330
3D
100
AcDbScale
 70
     0
300
3/4" = 1'-0"
140
0.75
141
12.0
290
     0
  0
SCALE
  5
63
102
{ACAD_REACTORS
330
3D
102
}
330
3D
100
AcDbScale
 70
     0
300
1" = 1'-0"
140
1.0
141
12.0
290
     0
  0
SCALE
  5
64
102
{ACAD_REACTORS
330
3D
102
}
330
3D
100
AcDbScale
 70
     0
300
1-1/2" = 1'-0"
140
1.5
141
12.0
290
     0
  0
SCALE
  5
65
102
{ACAD_REACTORS
330
3D
102
}
330
3D
100
AcDbScale
 70
     0
300
3" = 1'-0"
140
3.0
141
12.0
290
     0
  0
SCALE
  5
66
102
{ACAD_REACTORS
330
3D
102
}
330
3D
100
AcDbScale
 70
     0
300
6" = 1'-0"
140
6.0
141
12.0
290
     0
  0
SCALE
  5
67
102
{ACAD_REACTORS
330
3D
102
}
330
3D
100
AcDbScale
 70
     0
300
1'-0" = 1'-0"
140
12.0
141
12.0
290
     0
  0
TABLESTYLE
  5
43
102
{ACAD_XDICTIONARY
360
44
102
}
102
{ACAD_REACTORS
330
3E
102
}
330
3E
100
AcDbTableStyle
280
     0
  3
Standard
 70
     0
 71
     0
 40
1.5
 41
1.5
280
     0
281
     0
  7
Standard
140
4.5
170
     2
 62
     0
 63
     7
283
     0
 90
      512
 91
        0
  1

274
    -2
284
     1
 64
     0
275
    -2
285
     1
 65
     0
276
    -2
286
     1
 66
     0
277
    -2
287
     1
 67
     0
278
    -2
288
     1
 68
     0
279
    -2
289
     1
 69
     0
  7
Standard
140
6.0
170
     5
 62
     0
 63
     7
283
     0
 90
      512
 91
        0
  1

274
    -2
284
     1
 64
     0
275
    -2
285
     1
 65
     0
276
    -2
286
     1
 66
     0
277
    -2
287
     1
 67
     0
278
    -2
288
     1
 68
     0
279
    -2
289
     1
 69
     0
  7
Standard
140
4.5
170
     5
 62
     0
 63
     7
283
     0
 90
      512
 91
        0
  1

274
    -2
284
     1
 64
     0
275
    -2
285
     1
 65
     0
276
    -2
286
     1
 66
     0
277
    -2
287
     1
 67
     0
278
    -2
288
     1
 68
     0
279
    -2
289
     1
 69
     0
  0
VISUALSTYLE
  5
2E
102
{ACAD_REACTORS
330
2F
102
}
330
2F
100
AcDbVisualStyle
  2
2dWireframe
 70
     4
177
     2
291
     0
 71
     0
176
     1
 72
     2
176
     1
 73
     1
176
     1
 90
        0
176
     1
 40
0.6
176
     1
 41
30.0
176
     1
 63
     7
421
 16777215
176
     1
 74
     1
176
     1
 91
        4
176
     1
 64
     7
176
     1
 65
   257
176
     1
 75
     1
176
     1
175
     1
176
     1
 42
1.0
176
     1
 92
        0
176
     1
 66
   257
176
     1
 43
1.0
176
     1
 76
     1
176
     1
 77
     6
176
     1
 78
     2
176
     1
 67
     7
176
     1
 79
     5
176
     1
170
     0
176
     1
171
     0
176
     1
290
     0
176
     1
 93
        1
176
     1
 44
0.0
176
     1
173
     0
176
     1
  0
VISUALSTYLE
  5
46
102
{ACAD_REACTORS
330
2F
102
}
330
2F
100
AcDbVisualStyle
  2
3dWireframe
 70
     5
177
     2
291
     0
 71
     0
176
     1
 72
     2
176
     1
 73
     1
176
     1
 90
        0
176
     1
 40
0.6
176
     1
 41
30.0
176
     1
 63
     7
421
 16777215
176
     1
 74
     1
176
     1
 91
        4
176
     1
 64
     7
176
     1
 65
   257
176
     1
 75
     1
176
     1
175
     1
176
     1
 42
1.0
176
     1
 92
        0
176
     1
 66
   257
176
     1
 43
1.0
176
     1
 76
     1
176
     1
 77
     6
176
     1
 78
     2
176
     1
 67
     7
176
     1
 79
     5
176
     1
170
     0
176
     1
171
     0
176
     1
290
     0
176
     1
 93
        1
176
     1
 44
0.0
176
     1
173
     0
176
     1
  0
VISUALSTYLE
  5
45
102
{ACAD_REACTORS
330
2F
102
}
330
2F
100
AcDbVisualStyle
  2
Realistic
 70
     8
177
     2
291
     0
 71
     2
176
     1
 72
     2
176
     1
 73
     1
176
     1
 90
        0
176
     1
 40
0.6
176
     1
 41
30.0
176
     1
 63
     7
421
 16777215
176
     1
 74
     1
176
     1
 91
        0
176
     1
 64
     7
176
     1
 65
   257
176
     1
 75
     1
176
     1
175
     1
176
     1
 42
1.0
176
     1
 92
        8
176
     1
 66
     8
424
  7895160
176
     1
 43
1.0
176
     1
 76
     1
176
     1
 77
     6
176
     1
 78
     2
176
     1
 67
     7
176
     1
 79
     5
176
     1
170
     0
176
     1
171
     0
176
     1
290
     0
176
     1
 93
       13
176
     1
 44
0.0
176
     1
173
     0
176
     1
  0
DICTIONARYVAR
  5
284
102
{ACAD_REACTORS
330
281
102
}
330
281
100
DictionaryVariables
280
     0
  1
1:1
  0
DICTIONARYVAR
  5
283
102
{ACAD_REACTORS
330
281
102
}
330
281
100
DictionaryVariables
280
     0
  1
STANDARD
  0
DICTIONARYVAR
  5
282
102
{ACAD_REACTORS
330
281
102
}
330
281
100
DictionaryVariables
280
     0
  1
STANDARD
  0
DICTIONARYVAR
  5
285
102
{ACAD_REACTORS
330
281
102
}
330
281
100
DictionaryVariables
280
     0
  1
1
  0
DICTIONARYVAR
  5
286
102
{ACAD_REACTORS
330
281
102
}
330
281
100
DictionaryVariables
280
     0
  1
15
  0
DICTIONARY
  5
18
330
16
100
AcDbDictionary
280
     1
281
     1
  3
ADSK_XREC_LAYOUTTHUMBNAIL
360
19
  0
DICTIONARY
  5
E
330
C
100
AcDbDictionary
280
     1
281
     1
  3
BUMPTILE
360
F
  3
DIFFUSETILE
360
10
  3
OPACITYTILE
360
11
  3
REFLECTIONTILE
360
12
  0
DICTIONARY
  5
44
330
43
100
AcDbDictionary
280
     1
281
     1
  3
ACAD_ROUNDTRIP_2008_TABLESTYLE_CELLSTYLEMAP
360
287
  0
XRECORD
  5
19
102
{ACAD_REACTORS
330
18
102
}
330
18
100
AcDbXrecord
280
     1
310
280000000001000084000000010008000000000000840000000000000000000000010000000000000000000000000000FFFFFF000000000000000000000000000000000000000000000000000000000000000000330000006600000099000000CC000000FF00000000330000333300006633000099330000CC330000FF3300
310
0000660000336600006666000099660000CC660000FF66000000990000339900006699000099990000CC990000FF99000000CC000033CC000066CC000099CC0000CCCC0000FFCC000000FF000033FF000066FF000099FF0000CCFF0000FFFF000000003300330033006600330099003300CC003300FF003300003333003333
310
33006633330099333300CC333300FF33330000663300336633006666330099663300CC663300FF66330000993300339933006699330099993300CC993300FF99330000CC330033CC330066CC330099CC3300CCCC3300FFCC330000FF330033FF330066FF330099FF3300CCFF3300FFFF330000006600330066006600660099
310
006600CC006600FF00660000336600333366006633660099336600CC336600FF33660000666600336666006666660099666600CC666600FF66660000996600339966006699660099996600CC996600FF99660000CC660033CC660066CC660099CC6600CCCC6600FFCC660000FF660033FF660066FF660099FF6600CCFF6600
310
FFFF660000009900330099006600990099009900CC009900FF00990000339900333399006633990099339900CC339900FF33990000669900336699006666990099669900CC669900FF66990000999900339999006699990099999900CC999900FF99990000CC990033CC990066CC990099CC9900CCCC9900FFCC990000FF99
310
0033FF990066FF990099FF9900CCFF9900FFFF99000000CC003300CC006600CC009900CC00CC00CC00FF00CC000033CC003333CC006633CC009933CC00CC33CC00FF33CC000066CC003366CC006666CC009966CC00CC66CC00FF66CC000099CC003399CC006699CC009999CC00CC99CC00FF99CC0000CCCC0033CCCC0066CC
310
CC0099CCCC00CCCCCC00FFCCCC0000FFCC0033FFCC0066FFCC0099FFCC00CCFFCC00FFFFCC000000FF003300FF006600FF009900FF00CC00FF00FF00FF000033FF003333FF006633FF009933FF00CC33FF00FF33FF000066FF003366FF006666FF009966FF00CC66FF00FF66FF000099FF003399FF006699FF009999FF00CC
310
99FF00FF99FF0000CCFF0033CCFF0066CCFF0099CCFF00CCCCFF00FFCCFF0000FFFF0033FFFF0066FFFF0099FFFF00CCFFFF00FFFFFF00000000000D0D0D001A1A1A00282828003535350043434300505050005D5D5D006B6B6B00787878008686860093939300A1A1A100AEAEAE00BBBBBB00C9C9C900D6D6D600E4E4E400
310
F1F1F100FFFFFF0000000000000000000000000000000000000000000000000000000000000000000000000000000000E2E2E2E2E2E2E2E2E2E2E2E2E2E2E2E2E2E2E2E2E2E2E2E2E2E2E2E2E2E2E2E2E2E2E2E2E2E2E2E2E2E2E2E2E2E2E2E2E2E2E2E2E2E2E2E2E2E2E2E2E2E2E2E2E2E2E2E2E2E2E2E2E2E2E2E2E2E2E2
310
E2E2BEBEBEBEBEBEBEBEBEBEBEBEBEBEBEBEBEBEBEBEBEBEBEBEBEBEBEBEBEBEBEBEBEBEBEBEBEBEBEBEBEBEBEBEBEBEBEBEBEBEBEBEBEBEBEBEBEBEBEBEBEBEBEBEBEBEBEBEBEBEBEBEBEBEBEBEBEBEBEBEBEBEBEBEBEBEBEBEBEBEBEBEBEBEE2E2E2E2E2E2E2E2E2E2E2E2E2E2E2E2E2E2E2E2E2E2E2E2E2E2E2E2E2E2E2
310
E2E2E2E2E2E2E2E2E2E2E2E2E2E2E2E2E2E2E2E2E2E2E2E2E2E2E2E2E2E2E2E2E2E2E2E2E2E2E2E2E2E2E2E2E2E2E2E2E2E2E2E2E2E2E2E2E2E2E2E2E2E2E2E2E2E2E2E2E2E2E2E2E2E2E2E2E2E2E2E2E2E2E2E2E2E2E2E2E2E2E2E2E2E2E2E2E2E2E2E2E2E2E2E2E2E2E2E2E2E2E2E2E2E2E2E2E2E2E2E2E2E2E2E2E2E2E2
310
E2E2E2E2BEE2E2E2E2E2E2E2E2E2E2E2E2E2E2E2E2E2E2E2E2E2E2E2E2E2E2E2E2E2E2E2E2E2E2E2E2E2E2E2E2E2E2E2E2E2E2E2E2E2E2E2E2E2E2E2E2E2E2E2E2E2E2E2E2E2E2E2E2E2E2E2E2E2E2E2E2E2E2E2E2E2E2E2E2E2E2E2E2E2E2E2E2BEE2E2E2E2E2E2E2E2E2E2E2E2E2E2E2E2E2E2E2E2E2E2E2E2E2E2E2E2E2
310
E2E2E2E2E2E2E2E2E2E2E2E2E2E2E2E2E2E2E2E2E2E2E2E2E2E2E2E2E2E2E2E2E2E2E2E2E2E2E2E2E2E2E2E2E2E2E2E2E2E2E2E2E2E2E2E2E2E2E2E2E2E2E2E2E2E2E2E2E2E2E2E2E2E2E2E2E2E2E2E2E2E2E2E2E2E2E2E2E2E2E2E2E2E2E2E2E2E2E2E2E2E2E2E2E2E2E2E2E2E2E2E2E2E2E2E2E2E2E2E2E2E2E2E2E2E2E2
310
E2E2E2E2E2E2BEE2DCDCDCDCDCDCDCDCDCDCDCDCDCDCDCDCDCDCDCDCDCDCDCDCDCDCDCDCDCDCDCDCDCDCDCDCDCDCDCDCDCDCDCDCDCDCDCDCDCDCDCDCDCDCDCDCDCDCDCDCDCDCDCDCDCDCDCDCDCDCDCDCDCDCDCDCDCDCDCDCDCDCDCDCDCDCDCDCDCDCE2BEE2E2E2E2E2E2E2E2E2E2E2E2E2E2E2E2E2E2E2E2E2E2E2E2E2E2E2
310
E2E2E2E2E2E2E2E2E2E2E2E2E2E2E2E2E2E2E2E2E2E2E2E2E2E2E2E2E2E2E2E2E2E2E2E2E2E2E2E2E2E2E2E2E2E2E2E2E2E2E2E2E2E2E2E2E2E2E2E2E2E2E2E2E2E2E2E2E2E2E2E2E2E2E2E2E2E2E2E2E2E2E2E2E2E2E2E2E2E2E2E2E2E2E2E2E2E2E2E2E2E2E2E2E2E2E2E2E2E2E2E2E2E2E2E2E2E2E2E2E2E2E2E2E2E2E2
310
E2E2E2E2E2E2E2E2BEE2DCE2E2E2E2E2E2E2E2E2E2E2E2E2E2E2E2E2E2E2E2E2E2E2E2E2E2E2E2E2E2E2F5F5F5F5E2E2E2DCF5F5F5F5F5E2E2DCE2E2E2E2BEBEBEBEBEBEBEE2E2DCE2E2E2E2E2E2E2E2DCE2E2E2E2E2E2E2E2E2E2BEBEBEBEBEBEE2E2DCE2BEE2E2E2E2E2E2E2E2E2E2E2E2E2E2E2E2E2E2E2E2E2E2E2E2E2
310
E2E2E2E2E2E2E2E2E2E2E2E2E2E2E2E2E2E2E2E2E2E2E2E2E2E2E2E2E2E2E2E2E2E2E2E2E2E2E2E2E2E2E2E2E2E2E2E2E2E2E2E2E2E2E2E2E2E2E2E2E2E2E2E2E2E2E2E2E2E2E2E2E2E2E2E2E2E2E2E2E2E2E2E2E2E2E2E2E2E2E2E2E2E2E2E2E2E2E2E2E2E2E2E2E2E2E2E2E2E2E2E2E2E2E2E2E2E2E2E2E2E2E2E2E2E2E2
310
E2E2E2E2E2E2E2E2E2E2BEE2DCE2F5F5F5F5F5F5F5F5F5F5F5F5F5F5F5F5F5E2E2E2E2E2E2E2E2E2E2E2E2E2F5F5F5F5DCDCDCDCF5F5F5F5F5DCDCDCE2BEBEBEBEBEBEBEBEBEBEE2E2DCF5F5F5F5F5F5E2E2DCF5F5F5F5F5F5F5F5E2E2BEBEBEBEBEBEF5E2DCE2BEE2E2E2E2E2E2E2E2E2E2E2E2E2E2E2E2E2E2E2E2E2E2E2
310
E2E2E2E2E2E2E2E2E2E2E2E2E2E2E2E2E2E2E2E2E2E2E2E2E2E2E2E2E2E2E2E2E2E2E2E2E2E2E2E2E2E2E2E2E2E2E2E2E2E2E2E2E2E2E2E2E2E2E2E2E2E2E2E2E2E2E2E2E2E2E2E2E2E2E2E2E2E2E2E2E2E2E2E2E2E2E2E2E2E2E2E2E2E2E2E2E2E2E2E2E2E2E2E2E2E2E2E2E2E2E2E2E2E2E2E2E2E2E2E2E2E2E2E2E2E2E2
310
E2E2E2E2E2E2E2E2E2E2E2E2BEE2DCE2F5F5F5E2F5F5F5F5F5F5F5E2E2F5F5F5DCE2E2F5F5F5F5F5F5E2E2E2E2E2DCE2DCE2E2E2E2E2DCE2E2E2DCE2E2DCE2E2E2BEBEBEBEBEBEBEBEE2E2DCF5F5F5F5F5F5E2E2DCF5F5F5F5F5F5F5F5E2E2F5F5F5F5F5F5E2E2DCE2BEE2E2E2E2E2E2E2E2E2E2E2E2E2E2E2E2E2E2E2E2E2
310
E2E2E2E2E2E2E2E2E2E2E2E2E2E2E2E2E2E2E2E2E2E2E2E2E2E2E2E2E2E2E2E2E2E2E2E2E2E2E2E2E2E2E2E2E2E2E2E2E2E2E2E2E2E2E2E2E2E2E2E2E2E2E2E2E2E2E2E2E2E2E2E2E2E2E2E2E2E2E2E2E2E2E2E2E2E2E2E2E2E2E2E2E2E2E2E2E2E2E2E2E2E2E2E2E2E2E2E2E2E2E2E2E2E2E2E2E2E2E2E2E2E2E2E2E2E2E2
310
E2E2E2E2E2E2E2E2E2E2E2E2E2E2BEE2DCE2F5E2F5E2E2E2E2E2F5F5E2F5E2F5F5F5DCF5F5F5F5F5F5F5F5E2E2E2E2E2DCDCDCDCDCDCDCDCDCDCDCDCDCDCDCDCE2E2E2BEBEBEBEBEBEBEBEE2E2DCDCDCDCDCDCDCDCDCDCDCDCDCDCDCDCDCDCDCDCDCDCDCDCDCDCDCDCDCE2BEE2E2E2E2E2E2E2E2E2E2E2E2E2E2E2E2E2E2E2
310
E2E2E2E2E2E2E2E2E2E2E2E2E2E2E2E2E2E2E2E2E2E2E2E2E2E2E2E2E2E2E2E2E2E2E2E2E2E2E2E2E2E2E2E2E2E2E2E2E2E2E2E2E2E2E2E2E2E2E2E2E2E2E2E2E2E2E2E2E2E2E2E2E2E2E2E2E2E2E2E2E2E2E2E2E2E2E2E2E2E2E2E2E2E2E2E2E2E2E2E2E2E2E2E2E2E2E2E2E2E2E2E2E2E2E2E2E2E2E2E2E2E2E2E2E2E2E2
310
E2E2E2E2E2E2E2E2E2E2E2E2E2E2E2E2BEE2DCE2F5F5E2E2E2E2E2E2E2E2E2E2E2F5F5F5F5E2E2E2E2E2E2E2E2E2E2E2E2E2DCDCDCDCDCDCDCDCDCDCDCDCDCDCDCDCDCDCDCBEBEBEBEBEBEBEBEDCDCDCE2E2E2E2E2E2E2E2E2E2E2E2E2E2E2E2E2E2E2E2E2E2E2E2E2E2E2DCE2BEE2E2E2E2E2E2E2E2E2E2E2E2E2E2E2E2E2
310
E2E2E2E2E2E2E2E2E2E2E2E2E2E2E2E2E2E2E2E2E2E2E2E2E2E2E2E2E2E2E2E2E2E2E2E2E2E2E2E2E2E2E2E2E2E2E2E2E2E2E2E2E2E2E2E2E2E2E2E2E2E2E2E2E2E2E2E2E2E2E2E2E2E2E2E2E2E2E2E2E2E2E2E2E2E2E2E2E2E2E2E2E2E2E2E2E2E2E2E2E2E2E2E2E2E2E2E2E2E2E2E2E2E2E2E2E2E2E2E2E2E2E2E2E2E2E2
310
E2E2E2E2E2E2E2E2E2E2E2E2E2E2E2E2E2E2BEE2DCE2F5F5E2F5F5F5E2E2E2F5E2E2E2F5F5F5DCE2F5F5F5F5F5F5E2E2E2E2E2E2DCE2DCE2E2E2E2E2DCE2E2E2DCE2E2F5F5F5F5E2E2E2DCE2E2E2E2E2E2DCE2E2E2E2E2E2E2E2E2BEE2E2BEBEE2E2E2E2E2E2E2E2E2E2E2E2E2DCE2BEE2E2E2E2E2E2E2E2E2E2E2E2E2E2E2
310
E2E2E2E2E2E2E2E2E2E2E2E2E2E2E2E2E2E2E2E2E2E2E2E2E2E2E2E2E2E2E2E2E2E2E2E2E2E2E2E2E2E2E2E2E2E2E2E2E2E2E2E2E2E2E2E2E2E2E2E2E2E2E2E2E2E2E2E2E2E2E2E2E2E2E2E2E2E2E2E2E2E2E2E2E2E2E2E2E2E2E2E2E2E2E2E2E2E2E2E2E2E2E2E2E2E2E2E2E2E2E2E2E2E2E2E2E2E2E2E2E2E2E2E2E2E2E2
310
E2E2E2E2E2E2E2E2E2E2E2E2E2E2E2E2E2E2E2E2BEE2DCE2F5E2E2F5E2F5F5F5E2E2E2F5F5F5F5F5F5F5E2F5F5F5F5F5E2E2E2E2E2E2DCDCDCDCDCDCDCDCDCDCDCDCDCDCDCDCF5F5BEBEBEBEBEBEBEBEBEDCDCDCBEBEBEBEBEBEBEBEBEBEBEBEBEBEBEE2BEBEBEE2BEBEBEBEE2E2E2DCE2BEE2E2E2E2E2E2E2E2E2E2E2E2E2
310
E2E2E2E2E2E2E2E2E2E2E2E2E2E2E2E2E2E2E2E2E2E2E2E2E2E2E2E2E2E2E2E2E2E2E2E2E2E2E2E2E2E2E2E2E2E2E2E2E2E2E2E2E2E2E2E2E2E2E2E2E2E2E2E2E2E2E2E2E2E2E2E2E2E2E2E2E2E2E2E2E2E2E2E2E2E2E2E2E2E2E2E2E2E2E2E2E2E2E2E2E2E2E2E2E2E2E2E2E2E2E2E2E2E2E2E2E2E2E2E2E2E2E2E2E2E2E2
310
E2E2E2E2E2E2E2E2E2E2E2E2E2E2E2E2E2E2E2E2E2E2BEE2DCE2F5F5E2E2BEBEBEBEBEF5F5F5F5F5F5F5F5F5E2E2E2E2E2E2E2E2E2E2E2E2DCDCDCDCDCDCDCDCDCDCDCDCDCDCDCDCF5F5BEBEBEBEBEBEBEBEBEBEDCDCBEBEBEBEBEBEBEBEBEBEBEBEBEBEBEE2BEBEBEE2BEBEBEBEE2E2E2DCE2BEE2E2E2E2E2E2E2E2E2E2E2
310
E2E2E2E2E2E2E2E2E2E2E2E2E2E2E2E2E2E2E2E2E2E2E2E2E2E2E2E2E2E2E2E2E2E2E2E2E2E2E2E2E2E2E2E2E2E2E2E2E2E2E2E2E2E2E2E2E2E2E2E2E2E2E2E2E2E2E2E2E2E2E2E2E2E2E2E2E2E2E2E2E2E2E2E2E2E2E2E2E2E2E2E2E2E2E2E2E2E2E2E2E2E2E2E2E2E2E2E2E2E2E2E2E2E2E2E2E2E2E2E2E2E2E2E2E2E2E2
310
E2E2E2E2E2E2E2E2E2E2E2E2E2E2E2E2E2E2E2E2E2E2E2E2BEE2DCE2F5E2E2BEBEF5F5F5F5F5F5F5F5F5F5F5F5F5BEE2E2E2E2E2E2E2E2E2E2E2F5F5F5F5F5F5F5E2DCF5F5F5DCF5F5F5DCDCF5F5F5F5F5F5F5F5F5E2E2DCF5F5F5F5F5F5F5F5F5F5E2E2E2E2E2E2E2E2E2E2E2E2E2E2E2E2E2DCE2BEE2E2E2E2E2E2E2E2E2
310
E2E2E2E2E2E2E2E2E2E2E2E2E2E2E2E2E2E2E2E2E2E2E2E2E2E2E2E2E2E2E2E2E2E2E2E2E2E2E2E2E2E2E2E2E2E2E2E2E2E2E2E2E2E2E2E2E2E2E2E2E2E2E2E2E2E2E2E2E2E2E2E2E2E2E2E2E2E2E2E2E2E2E2E2E2E2E2E2E2E2E2E2E2E2E2E2E2E2E2E2E2E2E2E2E2E2E2E2E2E2E2E2E2E2E2E2E2E2E2E2E2E2E2E2E2E2E2
310
E2E2E2E2E2E2E2E2E2E2E2E2E2E2E2E2E2E2E2E2E2E2E2E2E2E2BEE2DCE2F5F5F5E2BEBEBEBEF5F5F5F5F5F5F5F5F5F5F5F5F5F5F5F5F5F5F5F5F5F5DCDCDCDCDCDCDCDCDCDCDCDCDCDCDCDCDCDCDCF5F5DCDCBEBEBEBEBEBEDCBEBEBEDCDCDCDCF5DCDCBEBEBEDCDCDCDCDCDCDCDCDCDCBEBEBEDCDCE2BEE2E2E2E2E2E2E2
310
E2E2E2E2E2E2E2E2E2E2E2E2E2E2E2E2E2E2E2E2E2E2E2E2E2E2E2E2E2E2E2E2E2E2E2E2E2E2E2E2E2E2E2E2E2E2E2E2E2E2E2E2E2E2E2E2E2E2E2E2E2E2E2E2E2E2E2E2E2E2E2E2E2E2E2E2E2E2E2E2E2E2E2E2E2E2E2E2E2E2E2E2E2E2E2E2E2E2E2E2E2E2E2E2E2E2E2E2E2E2E2E2E2E2E2E2E2E2E2E2E2E2E2E2E2E2E2
310
E2E2E2E2E2E2E2E2E2E2E2E2E2E2E2E2E2E2E2E2E2E2E2E2E2E2E2E2BEE2DCE2F5F5F5E2E2F5E2F5E2F5E2F5E2F5F5F5F5F5F5F5F5F5F5F5F5F5F5F5F5F5DCE2E2E2E2E2E2E2E2E2E2E2E2E2E2DCDCDCDCDCDCDCBEBEBEBEBEBEBEBEBEBEBEF5F5F5F5F5E2E2F5BEBEF5F5F5F5F5F5E2F5F5F5BEBEBEF5DCE2BEE2E2E2E2E2
310
E2E2E2E2E2E2E2E2E2E2E2E2E2E2E2E2E2E2E2E2E2E2E2E2E2E2E2E2E2E2E2E2E2E2E2E2E2E2E2E2E2E2E2E2E2E2E2E2E2E2E2E2E2E2E2E2E2E2E2E2E2E2E2E2E2E2E2E2E2E2E2E2E2E2E2E2E2E2E2E2E2E2E2E2E2E2E2E2E2E2E2E2E2E2E2E2E2E2E2E2E2E2E2E2E2E2E2E2E2E2E2E2E2E2E2E2E2E2E2E2E2E2E2E2E2E2E2
310
E2E2E2E2E2E2E2E2E2E2E2E2E2E2E2E2E2E2E2E2E2E2E2E2E2E2E2E2E2E2BEE2DCE2F5E2E2E2E2F5F5F5E2F5E2E2E2F5F5F5F5E2E2F5F5F5F5F5F5F5F5F5F5E2DCE2E2E2E2E2E2E2E2E2E2E2E2E2E2DCE2E2E2E2E2E2BEBEBEBEBEBEBEBEF5F5F5F5F5F5F5F5DCDCF5F5F5F5F5F5F5F5F5DCDCF5F5F5F5F5F5DCE2BEE2E2E2
310
E2E2E2E2E2E2E2E2E2E2E2E2E2E2E2E2E2E2E2E2E2E2E2E2E2E2E2E2E2E2E2E2E2E2E2E2E2E2E2E2E2E2E2E2E2E2E2E2E2E2E2E2E2E2E2E2E2E2E2E2E2E2E2E2E2E2E2E2E2E2E2E2E2E2E2E2E2E2E2E2E2E2E2E2E2E2E2E2E2E2E2E2E2E2E2E2E2E2E2E2E2E2E2E2E2E2E2E2E2E2E2E2E2E2E2E2E2E2E2E2E2E2E2E2E2E2E2
310
E2E2E2E2E2E2E2E2E2E2E2E2E2E2E2E2E2E2E2E2E2E2E2E2E2E2E2E2E2E2E2E2BEE2DCE2F5F5E2E2E2E2E2E2E2F5F5E2E2F5F5F5F5F5E2E2E2E2E2E2E2E2E2E2E2E2DCE2E2E2E2E2E2E2E2E2E2E2E2E2E2DCF5F5F5F5F5F5DCDCBEBEBEBEDCDCE2E2BEBEBEBEBEE2E2E2DCE2E2BEBEBEBEE2E2E2DCE2E2BEBEBEE2DCE2BEE2
310
E2E2E2E2E2E2E2E2E2E2E2E2E2E2E2E2E2E2E2E2E2E2E2E2E2E2E2E2E2E2E2E2E2E2E2E2E2E2E2E2E2E2E2E2E2E2E2E2E2E2E2E2E2E2E2E2E2E2E2E2E2E2E2E2E2E2E2E2E2E2E2E2E2E2E2E2E2E2E2E2E2E2E2E2E2E2E2E2E2E2E2E2E2E2E2E2E2E2E2E2E2E2E2E2E2E2E2E2E2E2E2E2E2E2E2E2E2E2E2E2E2E2E2E2E2E2E2
310
E2E2E2E2E2E2E2E2E2E2E2E2E2E2E2E2E2E2E2E2E2E2E2E2E2E2E2E2E2E2E2E2E2E2BEE2DCE2F5F5E2E2E2F5E2E2E2F5E2F5F5F5F5F5F5E2F5F5F5F5F5F5F5F5E2E2E2E2DCE2E2E2E2E2E2E2E2E2E2E2E2E2E2DCF5F5F5F5F5F5DCE2BEBEBEF5E2DCE2E2BEF5BEBEBEE2E2E2DCE2F5F5F5F5F5F5E2E2DCE2F5BEF5BEF5DCE2
310
BEE2E2E2E2E2E2E2E2E2E2E2E2E2E2E2E2E2E2E2E2E2E2E2E2E2E2E2E2E2E2E2E2E2E2E2E2E2E2E2E2E2E2E2E2E2E2E2E2E2E2E2E2E2E2E2E2E2E2E2E2E2E2E2E2E2E2E2E2E2E2E2E2E2E2E2E2E2E2E2E2E2E2E2E2E2E2E2E2E2E2E2E2E2E2E2E2E2E2E2E2E2E2E2E2E2E2E2E2E2E2E2E2E2E2E2E2E2E2E2E2E2E2E2E2E2E2
310
E2E2E2E2E2E2E2E2E2E2E2E2E2E2E2E2E2E2E2E2E2E2E2E2E2E2E2E2E2E2E2E2E2E2E2E2BEE2DCE2F5F5F5E2E2F5F5F5E2E2F5F5E2F5F5F5F5E2E2F5F5E2E2F5E2F5E2E2E2E2DCDCDCDCDCDCDCDCDCDCDCDCDCDCDCDCDCDCDCDCDCDCDCDCDCDCDCDCDCDCDCDCDCDCDCDCDCDCDCDCDCDCDCDCDCDCDCDCDCDCDCDCDCDCDCDCDC
310
DCE2BEE2E2E2E2E2E2E2E2E2E2E2E2E2E2E2E2E2E2E2E2E2E2E2E2E2E2E2E2E2E2E2E2E2E2E2E2E2E2E2E2E2E2E2E2E2E2E2E2E2E2E2E2E2E2E2E2E2E2E2E2E2E2E2E2E2E2E2E2E2E2E2E2E2E2E2E2E2E2E2E2E2E2E2E2E2E2E2E2E2E2E2E2E2E2E2E2E2E2E2E2E2E2E2E2E2E2E2E2E2E2E2E2E2E2E2E2E2E2E2E2E2E2E2E2
310
E2E2E2E2E2E2E2E2E2E2E2E2E2E2E2E2E2E2E2E2E2E2E2E2E2E2E2E2E2E2E2E2E2E2E2E2E2E2BEE2DCE2F5F5F5F5F5F5F5F5F5F5F5F5F5F5F5F5F5E2E2E2E2E2E2E2E2E2E2E2E2E2E2E2E2E2E2E2E2E2E2E2E2E2E2E2E2E2E2E2E2E2E2E2E2E2E2E2E2E2E2E2E2E2E2E2E2E2E2E2E2E2E2E2E2E2E2E2E2E2E2E2E2E2E2E2E2
310
E2E2DCE2BEE2E2E2E2E2E2E2E2E2E2E2E2E2E2E2E2E2E2E2E2E2E2E2E2E2E2E2E2E2E2E2E2E2E2E2E2E2E2E2E2E2E2E2E2E2E2E2E2E2E2E2E2E2E2E2E2E2E2E2E2E2E2E2E2E2E2E2E2E2E2E2E2E2E2E2E2E2E2E2E2E2E2E2E2E2E2E2E2E2E2E2E2E2E2E2E2E2E2E2E2E2E2E2E2E2E2E2E2E2E2E2E2E2E2E2E2E2E2E2E2E2E2
310
E2E2E2E2E2E2E2E2E2E2E2E2E2E2E2E2E2E2E2E2E2E2E2E2E2E2E2E2E2E2E2E2E2E2E2E2E2E2E2E2BEE2DCE2E2E2E2E2E2E2E2E2E2E2E2E2E2E2E2E2E2E2E2E2E2E2E2E2E2E2E2E2E2E2E2E2E2E2E2E2E2E2E2E2E2E2E2E2E2E2E2E2E2E2E2E2E2E2E2E2E2E2E2E2E2E2E2E2E2E2E2E2E2E2E2E2E2E2E2E2E2E2E2E2E2E2E2
310
E2E2E2E2DCE2BEE2E2E2E2E2E2E2E2E2E2E2E2E2E2E2E2E2E2E2E2E2E2E2E2E2E2E2E2E2E2E2E2E2E2E2E2E2E2E2E2E2E2E2E2E2E2E2E2E2E2E2E2E2E2E2E2E2E2E2E2E2E2E2E2E2E2E2E2E2E2E2E2E2E2E2E2E2E2E2E2E2E2E2E2E2E2E2E2E2E2E2E2E2E2E2E2E2E2E2E2E2E2E2E2E2E2E2E2E2E2E2E2E2E2E2E2E2E2E2E2
310
E2E2E2E2E2E2E2E2E2E2E2E2E2E2E2E2E2E2E2E2E2E2E2E2E2E2E2E2E2E2E2E2E2E2E2E2E2E2E2E2E2E2BEE2DCE2E2E2E2E2E2E2E2E2E2E2E2E2E2E2E2E2E2E2E2E2E2E2E2E2E2E2E2E2E2E2E2E2E2E2E2E2E2E2E2E2E2E2E2E2E2E2E2E2E2E2E2E2E2E2E2E2E2E2E2E2E2E2E2E2E2E2E2E2E2E2E2E2E2E2E2E2E2E2E2E2E2
310
E2E2E2E2E2E2DCE2BEE2E2E2E2E2E2E2E2E2E2E2E2E2E2E2E2E2E2E2E2E2E2E2E2E2E2E2E2E2E2E2E2E2E2E2E2E2E2E2E2E2E2E2E2E2E2E2E2E2E2E2E2E2E2E2E2E2E2E2E2E2E2E2E2E2E2E2E2E2E2E2E2E2E2E2E2E2E2E2E2E2E2E2E2E2E2E2E2E2E2E2E2E2E2E2E2E2E2E2E2E2E2E2E2E2E2E2E2E2E2E2E2E2E2E2E2E2E2
310
E2E2E2E2E2E2E2E2E2E2E2E2E2E2E2E2E2E2E2E2E2E2E2E2E2E2E2E2E2E2E2E2E2E2E2E2E2E2E2E2E2E2E2E2BEE2DCE2E2E2E2E2E2E2E2E2E2E2E2E2E2E2E2E2E2E2E2E2E2E2E2E2E2E2E2E2E2E2E2E2E2E2E2E2E2E2E2E2E2E2E2E2E2E2E2E2E2E2E2E2E2E2E2E2E2E2E2E2E2E2E2E2E2E2E2E2E2E2E2E2E2E2E2E2E2E2E2
310
E2E2E2E2E2E2E2E2DCE2BEE2E2E2E2E2E2E2E2E2E2E2E2E2E2E2E2E2E2E2E2E2E2E2E2E2E2E2E2E2E2E2E2E2E2E2E2E2E2E2E2E2E2E2E2E2E2E2E2E2E2E2E2E2E2E2E2E2E2E2E2E2E2E2E2E2E2E2E2E2E2E2E2E2E2E2E2E2E2E2E2E2E2E2E2E2E2E2E2E2E2E2E2E2E2E2E2E2E2E2E2E2E2E2E2E2E2E2E2E2E2E2E2E2E2E2E2
310
E2E2E2E2E2E2E2E2E2E2E2E2E2E2E2E2E2E2E2E2E2E2E2E2E2E2E2E2E2E2E2E2E2E2E2E2E2E2E2E2E2E2E2E2E2E2BEE2DCE2E2E2E2E2E2E2E2E2E2E2E2E2E2E2E2E2E2E2E2E2E2E2E2E2E2E2E2E2E2E2E2E2E2E2E2E2E2E2E2E2E2E2E2E2E2E2E2E2E2E2E2E2E2E2E2E2E2E2E2E2E2E2E2E2E2E2E2E2E2E2E2E2E2E2E2E2E2
310
E2E2E2E2E2E2E2E2E2E2DCE2BEE2E2E2E2E2E2E2E2E2E2E2E2E2E2E2E2E2E2E2E2E2E2E2E2E2E2E2E2E2E2E2E2E2E2E2E2E2E2E2E2E2E2E2E2E2E2E2E2E2E2E2E2E2E2E2E2E2E2E2E2E2E2E2E2E2E2E2E2E2E2E2E2E2E2E2E2E2E2E2E2E2E2E2E2E2E2E2E2E2E2E2E2E2E2E2E2E2E2E2E2E2E2E2E2E2E2E2E2E2E2E2E2E2E2
310
E2E2E2E2E2E2E2E2E2E2E2E2E2E2E2E2E2E2E2E2E2E2E2E2E2E2E2E2E2E2E2E2E2E2E2E2E2E2E2E2E2E2E2E2E2E2E2E2BEE2DCE2E2E2E2E2E2E2E2E2E2E2E2E2E2E2E2E2E2E2E2E2E2E2E2E2E2E2E2E2E2E2E2E2E2E2E2E2E2E2E2E2E2E2E2E2E2E2E2E2E2E2E2E2E2E2E2E2E2E2E2E2E2E2E2E2E2E2E2E2E2E2E2E2E2E2E2
310
E2E2E2E2E2E2E2E2E2E2E2E2DCE2BEE2E2E2E2E2E2E2E2E2E2E2E2E2E2E2E2E2E2E2E2E2E2E2E2E2E2E2E2E2E2E2E2E2E2E2E2E2E2E2E2E2E2E2E2E2E2E2E2E2E2E2E2E2E2E2E2E2E2E2E2E2E2E2E2E2E2E2E2E2E2E2E2E2E2E2E2E2E2E2E2E2E2E2E2E2E2E2E2E2E2E2E2E2E2E2E2E2E2E2E2E2E2E2E2E2E2E2E2E2E2E2E2
310
E2E2E2E2E2E2E2E2E2E2E2E2E2E2E2E2E2E2E2E2E2E2E2E2E2E2E2E2E2E2E2E2E2E2E2E2E2E2E2E2E2E2E2E2E2E2E2E2E2E2BEE2DCE2E2E2E2E2E2E2E2E2E2E2E2E2E2E2E2E2E2E2E2E2E2E2E2E2E2E2E2E2E2E2E2E2E2E2E2E2E2E2E2E2E2E2E2E2E2E2E2E2E2E2E2E2E2E2E2E2E2E2E2E2E2E2E2E2E2E2E2E2E2E2E2E2E2
310
E2E2BEBE2DE2E2E2E2E2E2E2E2E2DCE2BEE2E2E2E2E2E2E2E2E2E2E2E2E2E2E2E2E2E2E2E2E2E2E2E2E2E2E2E2E2E2E2E2E2E2E2E2E2E2E2E2E2E2E2E2E2E2E2E2E2E2E2E2E2E2E2E2E2E2E2E2E2E2E2E2E2E2E2E2E2E2E2E2E2E2E2E2E2E2E2E2E2E2E2E2E2E2E2E2E2E2E2E2E2E2E2E2E2E2E2E2E2E2E2E2E2E2E2E2E2E2
310
E2E2E2E2E2E2E2E2E2E2E2E2E2E2E2E2E2E2E2E2E2E2E2E2E2E2E2E2E2E2E2E2E2E2E2E2E2E2E2E2E2E2E2E2E2E2E2E2E2E2E2E2BEE2DCE2E2E2E2E2E2E2E2E2E2E2E2E2E2E2E2E2E2E2E2E2E2E2E2E2E2E2E2E2E2E2E2E2E2E2E2E2E2E2E2E2E2E2E2E2E2E2E2E2E2E2E2E2E2E2E2E2E2E2E2E2E2E2E2E2E2E2E2E2E2E2E2
310
E2E2E2E2BEBE2DE2E2E2E2E2E2E2E2E2DCE2BEE2E2E2E2E2E2E2E2E2E2E2E2E2E2E2E2E2E2E2E2E2E2E2E2E2E2E2E2E2E2E2E2E2E2E2E2E2E2E2E2E2E2E2E2E2E2E2E2E2E2E2E2E2E2E2E2E2E2E2E2E2E2E2E2E2E2E2E2E2E2E2E2E2E2E2E2E2E2E2E2E2E2E2E2E2E2E2E2E2E2E2E2E2E2E2E2E2E2E2E2E2E2E2E2E2E2E2E2
310
E2E2E2E2E2E2E2E2E2E2E2E2E2E2E2E2E2E2E2E2E2E2E2E2E2E2E2E2E2E2E2E2E2E2E2E2E2E2E2E2E2E2E2E2E2E2E2E2E2E2E2E2E2E2BEE2DCE2E2E2E2E2E2E2E2E2E2E2E2E2E2E2E2E2E2E2F52D2D2DF5DCDCDCDCDCDCDCDCDCDCDCDCDCDCDCDCDCDCDCDCDCDCDCDCDCDCDCDCDCDCDCDCDCDCDCDCDCDCDCDCDCDCDCDCDCDC
310
DCDCDCF52D2D2D2DF5E2E2E2E2E2E2E2E2E2DCE2BEE2E2E2E2E2E2E2E2E2E2E2E2E2E2E2E2E2E2E2E2E2E2E2E2E2E2E2E2E2E2E2E2E2E2E2E2E2E2E2E2E2E2E2E2E2E2E2E2E2E2E2E2E2E2E2E2E2E2E2E2E2E2E2E2E2E2E2E2E2E2E2E2E2E2E2E2E2E2E2E2E2E2E2E2E2E2E2E2E2E2E2E2E2E2E2E2E2E2E2E2E2E2E2E2E2E2
310
E2E2E2E2E2E2E2E2E2E2E2E2E2E2E2E2E2E2E2E2E2E2E2E2E2E2E2E2E2E2E2E2E2E2E2E2E2E2E2E2E2E2E2E2E2E2E2E2E2E2E2E2E2E2E2E2BEE2DCE2E2E2E2E2E2E2E2E2E2E2E2E2E2E2E2E2E2E22DE2E2E2DCBEE2E2E2E2E2E2E2E2E2E2E2E2E2E2E2E2E2E2E2E2E2E2E2E2E2E2E2E2E2E2E2E2E2E2E2E2E2E2E2E2E2E2E2
310
E2E2E2F5F52D2D2D2D2D2DE2E2E2E2E2E2E2E2E2DCE2BEE2E2E2E2E2E2E2E2E2E2E2E2E2E2E2E2E2E2E2E2E2E2E2E2E2E2E2E2E2E2E2E2E2E2E2E2E2E2E2E2E2E2E2E2E2E2E2E2E2E2E2E2E2E2E2E2E2E2E2E2E2E2E2E2E2E2E2E2E2E2E2E2E2E2E2E2E2E2E2E2E2E2E2E2E2E2E2E2E2E2E2E2E2E2E2E2E2E2E2E2E2E2E2E2
310
E2E2E2E2E2E2E2E2E2E2E2E2E2E2E2E2E2E2E2E2E2E2E2E2E2E2E2E2E2E2E2E2E2E2E2E2E2E2E2E2E2E2E2E2E2E2E2E2E2E2E2E2E2E2E2E2E2E2BEE2DCE2E2E2E2E2E2E2E2E2E2E2E2E2E2E2E2E2E2E22DE2E2E2DCE2E2E2E2E2E2E2E2E2E2E2E2E2E2E2E2E2E2E2E2E2E2E2E2E2E2E2E2E2E2E2E2E2E2E2E2E2E2E2E2E2E2
310
E2E2E2E2BE2DF52DE2E2E2E22DE2E2E2E2E2E2E2E2E2DCE2BEE2E2E2E2E2E2E2E2E2E2E2E2E2E2E2E2E2E2E2E2E2E2E2E2E2E2E2E2E2E2E2E2E2E2E2E2E2E2E2E2E2E2E2E2E2E2E2E2E2E2E2E2E2E2E2E2E2E2E2E2E2E2E2E2E2E2E2E2E2E2E2E2E2E2E2E2E2E2E2E2E2E2E2E2E2E2E2E2E2E2E2E2E2E2E2E2E2E2E2E2E2E2
310
E2E2E2E2E2E2E2E2E2E2E2E2E2E2E2E2E2E2E2E2E2E2E2E2E2E2E2E2E2E2E2E2E2E2E2E2E2E2E2E2E2E2E2E2E2E2E2E2E2E2E2E2E2E2E2E2E2E2E2E2BEE2DCE2E2E2E2E2E2E2E2E2E2E2E2E2E2E2E2E2E2E22DE2E2E2DCE2E2E2E2E2E2E2E2E2E2E2E2E2E2E2E2E2E2E2E2E2E2E2E2E2E2E2E2E2E2E2E2E2E2E2E2E2E2E2E2
310
E2E2E2E2E2E2BEE2E2DCE2E2E2E22DE2E2E2E2E2E2E2E2E2DCE2BEE2E2E2E2E2E2E2E2E2E2E2E2E2E2E2E2E2E2E2E2E2E2E2E2E2E2E2E2E2E2E2E2E2E2E2E2E2E2E2E2E2E2E2E2E2E2E2E2E2E2E2E2E2E2E2E2E2E2E2E2E2E2E2E2E2E2E2E2E2E2E2E2E2E2E2E2E2E2E2E2E2E2E2E2E2E2E2E2E2E2E2E2E2E2E2E2E2E2E2E2
310
E2E2E2E2E2E2E2E2E2E2E2E2E2E2E2E2E2E2E2E2E2E2E2E2E2E2E2E2E2E2E2E2E2E2E2E2E2E2E2E2E2E2E2E2E2E2E2E2E2E2E2E2E2E2E2E2E2E2E2E2E2E2BEE2DCE2E2E2E2E2E2E2E2E2E2E2E2E2E2E2E2E2E2E22DE2E2E2DCE2E2E2E2E2E2E2E2E2E2E2E2E2E2E2E2E2E2E2E2E2E2E2E2E2E2E2E2E2E2E2E2E2E2E2E2E2E2
310
E2E2E2E2E2E2E2E2E2E2E2DCE2E2E2E22DE2E2E2E2E2E2E2E2E2DCE2BEE2E2E2E2E2E2E2E2E2E2E2E2E2E2E2E2E2E2E2E2E2E2E2E2E2E2E2E2E2E2E2E2E2E2E2E2E2E2E2E2E2E2E2E2E2E2E2E2E2E2E2E2E2E2E2E2E2E2E2E2E2E2E2E2E2E2E2E2E2E2E2E2E2E2E2E2E2E2E2E2E2E2E2E2E2E2E2E2E2E2E2E2E2E2E2E2E2E2
310
E2E2E2E2E2E2E2E2E2E2E2E2E2E2E2E2E2E2E2E2E2E2E2E2E2E2E2E2E2E2E2E2E2E2E2E2E2E2E2E2E2E2E2E2E2E2E2E2E2E2E2E2E2E2E2E2E2E2E2E2E2E2E2E2BEE2DCE2E2E2E2E2E2E2E2E2E2E2E2E2E2E2E2E2E2E22DE2E2E2DCE2E2E2E2E2E2E2E2E2E2E2E2E2E2E2E2E2E2E2E2E2E2E2E2E2E2E2E2E2E2E2E2E2E2E2E2
310
E2E2E2E2E2E2E2E2E2E2E2E2E2DCE2E2E2E22DE2E2E2E2E2E2E2E2E2DCE2BEE2E2E2E2E2E2E2E2E2E2E2E2E2E2E2E2E2E2E2E2E2E2E2E2E2E2E2E2E2E2E2E2E2E2E2E2E2E2E2E2E2E2E2E2E2E2E2E2E2E2E2E2E2E2E2E2E2E2E2E2E2E2E2E2E2E2E2E2E2E2E2E2E2E2E2E2E2E2E2E2E2E2E2E2E2E2E2E2E2E2E2E2E2E2E2E2
310
E2E2E2E2E2E2E2E2E2E2E2E2E2E2E2E2E2E2E2E2E2E2E2E2E2E2E2E2E2E2E2E2E2E2E2E2E2E2E2E2E2E2E2E2E2E2E2E2E2E2E2E2E2E2E2E2E2E2E2E2E2E2E2E2E2E2BEE2DCE2E2E2E2E2E2E2E2E2E2E2E2E2E2E2E2E2E2E22DE2E2E2DCE2E2E2E2E2E2E2E2E2E2E2E2E2E2E2E2E2E2E2E2E2E2E2E2E2E2E2E2E2E2E2E2E2E2
310
E2E2E2E2E2E2E2E2E2E2E2E2E2E2E2DCE2E2E2E22DE2E2E2E2E2E2E2E2E2DCE2BEE2E2E2E2E2E2E2E2E2E2E2E2E2E2E2E2E2E2E2E2E2E2E2E2E2E2E2E2E2E2E2E2E2E2E2E2E2E2E2E2E2E2E2E2E2E2E2E2E2E2E2E2E2E2E2E2E2E2E2E2E2E2E2E2E2E2E2E2E2E2E2E2E2E2E2E2E2E2E2E2E2E2E2E2E2E2E2E2E2E2E2E2E2E2
310
E2E2E2E2E2E2E2E2E2E2E2E2E2E2E2E2E2E2E2E2E2E2E2E2E2E2E2E2E2E2E2E2E2E2E2E2E2E2E2E2E2E2E2E2E2E2E2E2E2E2E2E2E2E2E2E2E2E2E2E2E2E2E2E2E2E2E2E2BEE2DCE2E2E2E2E2E2E2E2E2E2E2E2E2E2E2E2E2E2E22DE2E2E2DCE2E2E2E2E2E2E2E2E2E2E2E2E2E2E2E2E2E2E2E2E2E2E2E2E2E2E2E2E2E2E2E2
310
E2E2E2E2E2E2E2E2E2E2E2E2E2E2E2E2E2DCE2E2E2E22DE2E2E2E2E2E2E2E2E2DCE2BEE2E2E2E2E2E2E2E2E2E2E2E2E2E2E2E2E2E2E2E2E2E2E2E2E2E2E2E2E2E2E2E2E2E2E2E2E2E2E2E2E2E2E2E2E2E2E2E2E2E2E2E2E2E2E2E2E2E2E2E2E2E2E2E2E2E2E2E2E2E2E2E2E2E2E2E2E2E2E2E2E2E2E2E2E2E2E2E2E2E2E2E2
310
E2E2E2E2E2E2E2E2E2E2E2E2E2E2E2E2E2E2E2E2E2E2E2E2E2E2E2E2E2E2E2E2E2E2E2E2E2E2E2E2E2E2E2E2E2E2E2E2E2E2E2E2E2E2E2E2E2E2E2E2E2E2E2E2E2E2E2E2E2E2BEE2DCE2E2E2E2E2E2E2E2E2E2E2E2E2E2E2E2E2E2E22DE2E2E2DCE2E2E2E2E2E2E2E2E2E2E2E2E2E2E2E2E2E2E2E2E2E2E2E2E2E2E2E2E2E2
310
E2E2E2E2E2E2E2E2E2E2E2E2E2E2E2E2E2E2E2DCE2E2E2E22DE2E2E2E2E2E2E2E2E2DCE2BEE2E2E2E2E2E2E2E2E2E2E2E2E2E2E2E2E2E2E2E2E2E2E2E2E2E2E2E2E2E2E2E2E2E2E2E2E2E2E2E2E2E2E2E2E2E2E2E2E2E2E2E2E2E2E2E2E2E2E2E2E2E2E2E2E2E2E2E2E2E2E2E2E2E2E2E2E2E2E2E2E2E2E2E2E2E2E2E2E2E2
310
E2E2E2E2E2E2E2E2E2E2E2E2E2E2E2E2E2E2E2E2E2E2E2E2E2E2E2E2E2E2E2E2E2E2E2E2E2E2E2E2E2E2E2E2E2E2E2E2E2E2E2E2E2E2E2E2E2E2E2E2E2E2E2E2E2E2E2E2E2E2E2E2BEE2DCE2E2E2E2E2E2E2E2E2E2E2E2E2E2E2E2E2E2E22DE2E2E2DCE2E2E2E2E2E2E2E2E2E2E2E2E2E2E2E2E2E2E2E2E2E2E2E2E2E2E2E2
310
E2E2E2E2E2E2E2E2E2E2E2E2E2E2E2E2E2E2E2E2E2DCE2E2E2E22DE2E2E2E2E2E2E2E2E2DCE2BEE2E2E2E2E2E2E2E2E2E2E2E2E2E2E2E2E2E2E2E2E2E2E2E2E2E2E2E2E2E2E2E2E2E2E2E2E2E2E2E2E2E2E2E2E2E2E2E2E2E2E2E2E2E2E2E2E2E2E2E2E2E2E2E2E2E2E2E2E2E2E2E2E2E2E2E2E2E2E2E2E2E2E2E2E2E2E2E2
310
E2E2E2E2E2E2E2E2E2E2E2E2E2E2E2E2E2E2E2E2E2E2E2E2E2E2E2E2E2E2E2E2E2E2E2E2E2E2E2E2E2E2E2E2E2E2E2E2E2E2E2E2E2E2E2E2E2E2E2E2E2E2E2E2E2E2E2E2E2E2E2E2E2E2BEE2DCE2E2E2E2E2E2E2E2E2E2E2E2E2E2E2E2E2E2E22DE2E2E2DCE2E2E2E2E2E2E2E2E2E2E2E2E2E2E2E2E2E2E2E2E2E2E2E2E2E2
310
E2E2E2E2E2E2E2E2E2E2E2E2E2E2E2E2E2E2E2E2E2E2E2DCE2E2E2E22DE2E2E2E2E2E2E2E2E2DCE2BEE2E2E2E2E2E2E2E2E2E2E2E2E2E2E2E2E2E2E2E2E2E2E2E2E2E2E2E2E2E2E2E2E2E2E2E2E2E2E2E2E2E2E2E2E2E2E2E2E2E2E2E2E2E2E2E2E2E2E2E2E2E2E2E2E2E2E2E2E2E2E2E2E2E2E2E2E2E2E2E2E2E2E2E2E2E2
310
E2E2E2E2E2E2E2E2E2E2E2E2E2E2E2E2E2E2E2E2E2E2E2E2E2E2E2E2E2E2E2E2E2E2E2E2E2E2E2E2E2E2E2E2E2E2E2E2E2E2E2E2E2E2E2E2E2E2E2E2E2E2E2E2E2E2E2E2E2E2E2E2E2E2E2E2BEE2DCE2E2E2E2E2E2E2E2E2E2E2E2E2E2E2E2E2E2E2BEE2E2E2DCE2E2E2E2E2E2E2E2E2E2E2E2E2E2E2E2E2E2E2E2E2E2E2E2
310
E2E2E2E2E2E2E2E2E2E2E2E2E2E2E2E2E2E2E2E2E2E2E2E2E2DCE2E2E2BE2DE2E2E2E2E2E2E2E2E2DCE2BEE2E2E2E2E2E2E2E2E2E2E2E2E2E2E2E2E2E2E2E2E2E2E2E2E2E2E2E2E2E2E2E2E2E2E2E2E2E2E2E2E2E2E2E2E2E2E2E2E2E2E2E2E2E2E2E2E2E2E2E2E2E2E2E2E2E2E2E2E2E2E2E2E2E2E2E2E2E2E2E2E2E2E2E2
310
E2E2E2E2E2E2E2E2E2E2E2E2E2E2E2E2E2E2E2E2E2E2E2E2E2E2E2E2E2E2E2E2E2E2E2E2E2E2E2E2E2E2E2E2E2E2E2E2E2E2E2E2E2E2E2E2E2E2E2E2E2E2E2E2E2E2E2E2E2E2E2E2E2E2E2E2E2E2BEE2DCE2E2E2E2E2E2E2E2E2E2E2E2E2E2E2E2E2E2BEBEE2E2E2DCE2E2E2E2E2E2E2E2E2E2E2E2E2E2E2E2E2E2E2E2E2E2
310
E2E2E2E2E2E2E2E2E2E2E2E2E2E2E2E2E2E2E2E2E2E2E2E2E2E2E2DCE2E2E2BE2DE2E2E2E2E2E2E2E2E2DCE2BEE2E2E2E2E2E2E2E2E2E2E2E2E2E2E2E2E2E2E2E2E2E2E2E2E2E2E2E2E2E2E2E2E2E2E2E2E2E2E2E2E2E2E2E2E2E2E2E2E2E2E2E2E2E2E2E2E2E2E2E2E2E2E2E2E2E2E2E2E2E2E2E2E2E2E2E2E2E2E2E2E2E2
310
E2E2E2E2E2E2E2E2E2E2E2E2E2E2E2E2E2E2E2E2E2E2E2E2E2E2E2E2E2E2E2E2E2E2E2E2E2E2E2E2E2E2E2E2E2E2E2E2E2E2E2E2E2E2E2E2E2E2E2E2E2E2E2E2E2E2E2E2E2E2E2E2E2E2E2E2E2E2E2E2BEE2DCE2E2E2E2E2E2E2E2E2E2E2E2E2E2E2E2E2E2BEBEE2E2E2DCE2E2E2E2E2E2E2E2E2E2E2E2E2E2E2E2E2E2E2E2
310
E2E2E2E2E2E2E2E2E2E2E2E2E2E2E2E2E2E2E2E2E2E2E2E2E2E2E2E2E2DCE2E2E2BE2DE2E2E2E2E2E2E2E2E2DCE2BEE2E2E2E2E2E2E2E2E2E2E2E2E2E2E2E2E2E2E2E2E2E2E2E2E2E2E2E2E2E2E2E2E2E2E2E2E2E2E2E2E2E2E2E2E2E2E2E2E2E2E2E2E2E2E2E2E2E2E2E2E2E2E2E2E2E2E2E2E2E2E2E2E2E2E2E2E2E2E2E2
310
E2E2E2E2E2E2E2E2E2E2E2E2E2E2E2E2E2E2E2E2E2E2E2E2E2E2E2E2E2E2E2E2E2E2E2E2E2E2E2E2E2E2E2E2E2E2E2E2E2E2E2E2E2E2E2E2E2E2E2E2E2E2E2E2E2E2E2E2E2E2E2E2E2E2E2E2E2E2E2E2E2E2BEE2DCE2E2E2E2E2E2E2E2E2E2E2E2E2E2E2E2E2E2E22DE2E2E2DCE2E2E2E2E2E2E2E2E2E2E2E2E2E2E2E2E2E2
310
E2E2E2E2E2E2E2E2E2E2E2E2E2E2E2E2E2E2E2E2E2E2E2E2E2E2E2E2E2E2E2DCE2E2E2E22DE2E2E2E2E2E2E2E2E2DCE2BEE2E2E2E2E2E2E2E2E2E2E2E2E2E2E2E2E2E2E2E2E2E2E2E2E2E2E2E2E2E2E2E2E2E2E2E2E2E2E2E2E2E2E2E2E2E2E2E2E2E2E2E2E2E2E2E2E2E2E2E2E2E2E2E2E2E2E2E2E2E2E2E2E2E2E2E2E2E2
310
E2E2E2E2E2E2E2E2E2E2E2E2E2E2E2E2E2E2E2E2E2E2E2E2E2E2E2E2E2E2E2E2E2E2E2E2E2E2E2E2E2E2E2E2E2E2E2E2E2E2E2E2E2E2E2E2E2E2E2E2E2E2E2E2E2E2E2E2E2E2E2E2E2E2E2E2E2E2E2E2E2E2E2E2BEE2DCE2E2E2E2E2E2E2E2E2E2E2E2E2E2E2E2E2E2E22DE2E2E2DCE2E2E2E2E2E2E2E2E2E2E2E2E2E2E2E2
310
E2E2E2E2E2E2E2E2E2E2E2E2E2E2E2E2E2E2E2E2E2E2E2E2E2E2E2E2E2E2E2E2E2DCE2E2E2E22DE2E2E2E2E2E2E2E2E2DCE2BEE2E2E2E2E2E2E2E2E2E2E2E2E2E2E2E2E2E2E2E2E2E2E2E2E2E2E2E2E2E2E2E2E2E2E2E2E2E2E2E2E2E2E2E2E2E2E2E2E2E2E2E2E2E2E2E2E2E2E2E2E2E2E2E2E2E2E2E2E2E2E2E2E2E2E2E2
310
E2E2E2E2E2E2E2E2E2E2E2E2E2E2E2E2E2E2E2E2E2E2E2E2E2E2E2E2E2E2E2E2E2E2E2E2E2E2E2E2E2E2E2E2E2E2E2E2E2E2E2E2E2E2E2E2E2E2E2E2E2E2E2E2E2E2E2E2E2E2E2E2E2E2E2E2E2E2E2E2E2E2E2E2E2E2BEE2DCE2E2E2E2E2E2E2E2E2E2E2E2E2E2E2E2E2E2E22DE2E2E2DCE2E2E2E2E2E2E2E2E2E2E2E2E2E2
310
E2E2E2E2E2E2E2E2E2E2E2E2E2E2E2E2E2E2E2E2E2E2E2E2E2E2E2E2E2E2E2E2E2E2E2DCE2E2E2E22DE2E2E2E2E2E2E2E2E2DCE2BEE2E2E2E2E2E2E2E2E2E2E2E2E2E2E2E2E2E2E2E2E2E2E2E2E2E2E2E2E2E2E2E2E2E2E2E2E2E2E2E2E2E2E2E2E2E2E2E2E2E2E2E2E2E2E2E2E2E2E2E2E2E2E2E2E2E2E2E2E2E2E2E2E2E2
310
E2E2E2E2E2E2E2E2E2E2E2E2E2E2E2E2E2E2E2E2E2E2E2E2E2E2E2E2E2E2E2E2E2E2E2E2E2E2E2E2E2E2E2E2E2E2E2E2E2E2E2E2E2E2E2E2E2E2E2E2E2E2E2E2E2E2E2E2E2E2E2E2E2E2E2E2E2E2E2E2E2E2E2E2E2E2E2E2BEE2DCE2E2E2E2E2E2E2E2E2E2E2E2E2E2E2E2E2E2E22DE2E2E2DCE2E2E2E2E2E2E2E2E2E2E2E2
310
E2E2E2E2E2E2E2E2E2E2E2E2E2E2E2E2E2E2E2E2E2E2E2E2E2E2E2E2E2E2E2E2E2E2E2E2E2DCE2E2E2E22DE2E2E2E2E2E2E2E2E2DCE2BEE2E2E2E2E2E2E2E2E2E2E2E2E2E2E2E2E2E2E2E2E2E2E2E2E2E2E2E2E2E2E2E2E2E2E2E2E2E2E2E2E2E2E2E2E2E2E2E2E2E2E2E2E2E2E2E2E2E2E2E2E2E2E2E2E2E2E2E2E2E2E2E2
310
E2E2E2E2E2E2E2E2E2E2E2E2E2E2E2E2E2E2E2E2E2E2E2E2E2E2E2E2E2E2E2E2E2E2E2E2E2E2E2E2E2E2E2E2E2E2E2E2E2E2E2E2E2E2E2E2E2E2E2E2E2E2E2E2E2E2E2E2E2E2E2E2E2E2E2E2E2E2E2E2E2E2E2E2E2E2E2E2E2E2BEE2DCE2E2E2E2E2E2E2E2E2E2E2E2E2E2E2E2E2E2E22DE2E2E2DCE2E2E2E2E2E2E2E2E2E2
310
E2E2E2E2E2E2E2E2E2E2E2E2E2E2E2E2E2E2E2E2E2E2E2E2E2E2E2E2E2E2E2E2E2E2E2E2E2E2E2DCE2E2E2E22DE2E2E2E2E2E2E2E2E2DCE2BEE2E2E2E2E2E2E2E2E2E2E2E2E2E2E2E2E2E2E2E2E2E2E2E2E2E2E2E2E2E2E2E2E2E2E2E2E2E2E2E2E2E2E2E2E2E2E2E2E2E2E2E2E2E2E2E2E2E2E2E2E2E2E2E2E2E2E2E2E2E2
310
E2E2E2E2E2E2E2E2E2E2E2E2E2E2E2E2E2E2E2E2E2E2E2E2E2E2E2E2E2E2E2E2E2E2E2E2E2E2E2E2E2E2E2E2E2E2E2E2E2E2E2E2E2E2E2E2E2E2E2E2E2E2E2E2E2E2E2E2E2E2E2E2E2E2E2E2E2E2E2E2E2E2E2E2E2E2E2E2E2E2E2E2BEE2DCE2E2E2E2E2E2E2E2E2E2E2E2E2E2E2E2E2E2E22DE2E2E2DCE2E2E2E2E2E2E2E2
310
E2E2E2E2E2E2E2E2E2E2E2E2E2E2E2E2E2E2E2E2E2E2E2E2E2E2E2E2E2E2E2E2E2E2E2E2E2E2E2E2E2DCE2E2E2E22DE2E2E2E2E2E2E2E2E2DCE2BEE2E2E2E2E2E2E2E2E2E2E2E2E2E2E2E2E2E2E2E2E2E2E2E2E2E2E2E2E2E2E2E2E2E2E2E2E2E2E2E2E2E2E2E2E2E2E2E2E2E2E2E2E2E2E2E2E2E2E2E2E2E2E2E2E2E2E2E2
310
E2E2E2E2E2E2E2E2E2E2E2E2E2E2E2E2E2E2E2E2E2E2E2E2E2E2E2E2E2E2E2E2E2E2E2E2E2E2E2E2E2E2E2E2E2E2E2E2E2E2E2E2E2E2E2E2E2E2E2E2E2E2E2E2E2E2E2E2E2E2E2E2E2E2E2E2E2E2E2E2E2E2E2E2E2E2E2E2E2E2E2E2E2E2BEE2DCE2E2E2E2E2E2E2E2E2E2E2E2E2E2E2E2E2E2E22DE2E2E2DCE2E2E2E2E2E2
310
E2E2E2E2E2E2E2E2E2E2E2E2E2E2E2E2E2E2E2E2E2E2E2E2E2E2E2E2E2E2E2E2E2E2E2E2E2E2E2E2E2E2E2DCE2E2E2E22DE2E2E2E2E2E2E2E2E2DCE2BEE2E2E2E2E2E2E2E2E2E2E2E2E2E2E2E2E2E2E2E2E2E2E2E2E2E2E2E2E2E2E2E2E2E2E2E2E2E2E2E2E2E2E2E2E2E2E2E2E2E2E2E2E2E2E2E2E2E2E2E2E2E2E2E2E2E2
310
E2E2E2E2E2E2E2E2E2E2E2E2E2E2E2E2E2E2E2E2E2E2E2E2E2E2E2E2E2E2E2E2E2E2E2E2E2E2E2E2E2E2E2E2E2E2E2E2E2E2E2E2E2E2E2E2E2E2E2E2E2E2E2E2E2E2E2E2E2E2E2E2E2E2E2E2E2E2E2E2E2E2E2E2E2E2E2E2E2E2E2E2E2E2E2E2BEE2DCE2E2E2E2E2E2E2E2E2E2E2E2E2E2E2E2E2E2E22DE2E2E2DCE2E2E2E2
310
E2E2E2E2E2E2E2E2E2E2E2E2E2E2E2E2E2E2E2E2E2E2E2E2E2E2E2E2E2E2E2E2E2E2E2E2E2E2E2E2E2E2E2E2E2DCE2E2E2E22DE2E2E2E2E2E2E2E2E2DCE2BEE2E2E2E2E2E2E2E2E2E2E2E2E2E2E2E2E2E2E2E2E2E2E2E2E2E2E2E2E2E2E2E2E2E2E2E2E2E2E2E2E2E2E2E2E2E2E2E2E2E2E2E2E2E2E2E2E2E2E2E2E2E2E2E2
310
E2E2E2E2E2E2E2E2E2E2E2E2E2E2E2E2E2E2E2E2E2E2E2E2E2E2E2E2E2E2E2E2E2E2E2E2E2E2E2E2E2E2E2E2E2E2E2E2E2E2E2E2E2E2E2E2E2E2E2E2E2E2E2E2E2E2E2E2E2E2E2E2E2E2E2E2E2E2E2E2E2E2E2E2E2E2E2E2E2E2E2E2E2E2E2E2E2E2BEE2DCE2E2E2E2E2E2E2E2E2E2E2E2E2E2E2E2E2E2E22DE2E2E2DCE2E2
310
E2E2E2E2E2E2E2E2E2E2E2E2E2E2E2E2E2E2E2E2E2E2E2E2E2E2E2E2E2E2E2E2E2E2E2E2E2E2E2E2E2E2E2E2E2E2E2DCE2E2E2E22DE2E2E2E2E2E2E2E2E2DCE2BEE2E2E2E2E2E2E2E2E2E2E2E2E2E2E2E2E2E2E2E2E2E2E2E2E2E2E2E2E2E2E2E2E2E2E2E2E2E2E2E2E2E2E2E2E2E2E2E2E2E2E2E2E2E2E2E2E2E2E2E2E2E2
310
E2E2E2E2E2E2E2E2E2E2E2E2E2E2E2E2E2E2E2E2E2E2E2E2E2E2E2E2E2E2E2E2E2E2E2E2E2E2E2E2E2E2E2E2E2E2E2E2E2E2E2E2E2E2E2E2E2E2E2E2E2E2E2E2E2E2E2E2E2E2E2E2E2E2E2E2E2E2E2E2E2E2E2E2E2E2E2E2E2E2E2E2E2E2E2E2E2E2E2E2BEE2DCE2E2E2E2E2E2E2E2E2E2E2E2E2E2E2E2E2E2E22DE2E2E2DC
310
BEE2E2E2E2E2E2E2E2E2E2E2E2E2E2E2E2E2E2E2E2E2E2E2E2E2E2E2E2E2E2E2E2E2E2E2E2E2E2E2E2E2E2E2E2E2E2BEF52D2D2D2D2D2DE2E2E2E2E2E2E2E2E2DCE2BEE2E2E2E2E2E2E2E2E2E2E2E2E2E2E2E2E2E2E2E2E2E2E2E2E2E2E2E2E2E2E2E2E2E2E2E2E2E2E2E2E2E2E2E2E2E2E2E2E2E2E2E2E2E2E2E2E2E2E2E2
310
E2E2E2E2E2E2E2E2E2E2E2E2E2E2E2E2E2E2E2E2E2E2E2E2E2E2E2E2E2E2E2E2E2E2E2E2E2E2E2E2E2E2E2E2E2E2E2E2E2E2E2E2E2E2E2E2E2E2E2E2E2E2E2E2E2E2E2E2E2E2E2E2E2E2E2E2E2E2E2E2E2E2E2E2E2E2E2E2E2E2E2E2E2E2E2E2E2E2E2E2E2E2BEE2DCE2E2E2E2E2E2E2E2E2E2E2E2E2E2E2E2E2E2E22DE2E2
310
E2F5F5E2E2E2E2E2E2E2E2E2E2E2E2E2E2E2E2E2E2E2E2E2E2E2E2E2E2E2E2E2E2E2E2E2E2E2E2E2E2E2E2E2E2E2E2E2E2F5DCF5E2E2E2E22DE2E2E2E2E2E2E2E2E2DCE2BEE2E2E2E2E2E2E2E2E2E2E2E2E2E2E2E2E2E2E2E2E2E2E2E2E2E2E2E2E2E2E2E2E2E2E2E2E2E2E2E2E2E2E2E2E2E2E2E2E2E2E2E2E2E2E2E2E2E2
310
E2E2E2E2E2E2E2E2E2E2E2E2E2E2E2E2E2E2E2E2E2E2E2E2E2E2E2E2E2E2E2E2E2E2E2E2E2E2E2E2E2E2E2E2E2E2E2E2E2E2E2E2E2E2E2E2E2E2E2E2E2E2E2E2E2E2E2E2E2E2E2E2E2E2E2E2E2E2E2E2E2E2E2E2E2E2E2E2E2E2E2E2E2E2E2E2E2E2E2E2E2E2E2E2BEE2DCE2E2E2E2E2E2E2E2E2E2E2E2E2E2E2E2E2E2E22D
310
2D2D2D2D2DDCDCDCDCDCDCDCDCDCDCDCDCDCDCDCDCDCDCDCDCDCDCDCDCDCDCDCDCDCDCDCDCDCDCDCDCDCDCDCDCDCDCDCDCDCDC2DDCF52D2D2D2D2DE2E2E2E2E2E2E2E2E2DCE2BEE2E2E2E2E2E2E2E2E2E2E2E2E2E2E2E2E2E2E2E2E2E2E2E2E2E2E2E2E2E2E2E2E2E2E2E2E2E2E2E2E2E2E2E2E2E2E2E2E2E2E2E2E2E2E2E2
310
E2E2E2E2E2E2E2E2E2E2E2E2E2E2E2E2E2E2E2E2E2E2E2E2E2E2E2E2E2E2E2E2E2E2E2E2E2E2E2E2E2E2E2E2E2E2E2E2E2E2E2E2E2E2E2E2E2E2E2E2E2E2E2E2E2E2E2E2E2E2E2E2E2E2E2E2E2E2E2E2E2E2E2E2E2E2E2E2E2E2E2E2E2E2E2E2E2E2E2E2E2E2E2E2E2E2BEE2DCE2E2E2E2E2E2E2E2E2E2E2E2E2E2E2E2E2E2
310
E2E2E2BE2D2D2D2D2D2D2D2D2D2D2D2D2D2D2D2D2D2D2D2D2D2D2D2D2DBEBEBE2D2D2D2D2D2D2D2D2D2D2D2D2D2D2D2D2D2D2D2D2D2D2DF52DBEBEBE2DE2E2E2E2E2E2E2E2E2DCE2BEE2E2E2E2E2E2E2E2E2E2E2E2E2E2E2E2E2E2E2E2E2E2E2E2E2E2E2E2E2E2E2E2E2E2E2E2E2E2E2E2E2E2E2E2E2E2E2E2E2E2E2E2E2E2
310
E2E2E2E2E2E2E2E2E2E2E2E2E2E2E2E2E2E2E2E2E2E2E2E2E2E2E2E2E2E2E2E2E2E2E2E2E2E2E2E2E2E2E2E2E2E2E2E2E2E2E2E2E2E2E2E2E2E2E2E2E2E2E2E2E2E2E2E2E2E2E2E2E2E2E2E2E2E2E2E2E2E2E2E2E2E2E2E2E2E2E2E2E2E2E2E2E2E2E2E2E2E2E2E2E2E2E2E2BEE2DCE2E2E2E2E2E2E2E2E2E2E2E2E2E2E2E2
310
E2E2E2E2E2BEBE2DE2E2E2E2E2E2E2E2E2E2E2E2E2E2E2E2E2E2E2E2E2E2E2BEBEBEE2E2E2E2E2E2E2E2E2E2E2E2E2E2E2E2E2E2E2E2E2E2E22DBEBEBEBEE2E2E2E2E2E2E2E2E2E2DCE2BEE2E2E2E2E2E2E2E2E2E2E2E2E2E2E2E2E2E2E2E2E2E2E2E2E2E2E2E2E2E2E2E2E2E2E2E2E2E2E2E2E2E2E2E2E2E2E2E2E2E2E2E2
310
E2E2E2E2E2E2E2E2E2E2E2E2E2E2E2E2E2E2E2E2E2E2E2E2E2E2E2E2E2E2E2E2E2E2E2E2E2E2E2E2E2E2E2E2E2E2E2E2E2E2E2E2E2E2E2E2E2E2E2E2E2E2E2E2E2E2E2E2E2E2E2E2E2E2E2E2E2E2E2E2E2E2E2E2E2E2E2E2E2E2E2E2E2E2E2E2E2E2E2E2E2E2E2E2E2E2E2E2E2E2BEE2DCE2E2E2E2E2E2E2E2E2E2E2E2E2E2
310
E2E2E2E2E2E2E2E2E22D2D2D2D2D2D2D2D2D2D2D2D2D2D2D2D2D2D2D2D2D2D2D2DBEBEBE2D2D2D2D2D2D2D2D2D2D2D2D2D2D2D2D2D2D2D2D2D2D2DF5E2E2E2E2E2E2E2E2E2E2E2E2E2E2DCE2BEE2E2E2E2E2E2E2E2E2E2E2E2E2E2E2E2E2E2E2E2E2E2E2E2E2E2E2E2E2E2E2E2E2E2E2E2E2E2E2E2E2E2E2E2E2E2E2E2E2E2
310
E2E2E2E2E2E2E2E2E2E2E2E2E2E2E2E2E2E2E2E2E2E2E2E2E2E2E2E2E2E2E2E2E2E2E2E2E2E2E2E2E2E2E2E2E2E2E2E2E2E2E2E2E2E2E2E2E2E2E2E2E2E2E2E2E2E2E2E2E2E2E2E2E2E2E2E2E2E2E2E2E2E2E2E2E2E2E2E2E2E2E2E2E2E2E2E2E2E2E2E2E2E2E2E2E2E2E2E2E2E2E2E2BEE2DCE2E2E2E2E2E2E2E2E2E2E2E2
310
E2E2E2E2E2E2E2E2E2E2E2E2E2E2E2E2E2E2E2E2E2E2E2E2E2E2E2E2E2E2E2E2E2E2E2BEBEBEE2E2E2E2E2E2E2E2E2E2E2E2E2E2E2E2E2E2E2E2E2E2E2E2E2E2E2E2E2E2E2E2E2E2E2E2E2E2DCE2BEE2E2E2E2E2E2E2E2E2E2E2E2E2E2E2E2E2E2E2E2E2E2E2E2E2E2E2E2E2E2E2E2E2E2E2E2E2E2E2E2E2E2E2E2E2E2E2E2
310
E2E2E2E2E2E2E2E2E2E2E2E2E2E2E2E2E2E2E2E2E2E2E2E2E2E2E2E2E2E2E2E2E2E2E2E2E2E2E2E2E2E2E2E2E2E2E2E2E2E2E2E2E2E2E2E2E2E2E2E2E2E2E2E2E2E2E2E2E2E2E2E2E2E2E2E2E2E2E2E2E2E2E2E2E2E2E2E2E2E2E2E2E2E2E2E2E2E2E2E2E2E2E2E2E2E2E2E2E2E2E2E2E2E2BEE2DCE2E2E2E2E2E2E2E2E2E2
310
E2E2E2E2E2E2E2E2E2E2E2E2E2E2E2E2E2E2E2E2E2E2E2E2E2E2E2E2E2E2E2E2E2E2E2E2E2E2E2E2E2E2E2E2E2E2E2E2E2E2E2E2E2E2E2E2E2E2E2E2E2E2E2E2E2E2E2E2E2E2E2E2E2E2E2E2E2E2DCE2BEE2E2E2E2E2E2E2E2E2E2E2E2E2E2E2E2E2E2E2E2E2E2E2E2E2E2E2E2E2E2E2E2E2E2E2E2E2E2E2E2E2E2E2E2E2E2
310
E2E2E2E2E2E2E2E2E2E2E2E2E2E2E2E2E2E2E2E2E2E2E2E2E2E2E2E2E2E2E2E2E2E2E2E2E2E2E2E2E2E2E2E2E2E2E2E2E2E2E2E2E2E2E2E2E2E2E2E2E2E2E2E2E2E2E2E2E2E2E2E2E2E2E2E2E2E2E2E2E2E2E2E2E2E2E2E2E2E2E2E2E2E2E2E2E2E2E2E2E2E2E2E2E2E2E2E2E2E2E2E2E2E2E2E2BEE2DCE2E2E2E2E2E2E2E2
310
E2E2E2E2E2E2E2E2E2E2E2E2E2E2E2E2E2E2E2E2E2E2E2E2E2E2E2E2E2E2E2E2E2E2E2E2E2E2E2E2E2E2E2E2E2E2E2E2E2E2E2E2E2E2E2E2E2E2E2E2E2E2E2E2E2E2E2E2E2E2E2E2E2E2E2E2E2E2E2E2DCE2BEE2E2E2E2E2E2E2E2E2E2E2E2E2E2E2E2E2E2E2E2E2E2E2E2E2E2E2E2E2E2E2E2E2E2E2E2E2E2E2E2E2E2E2E2
310
E2E2E2E2E2E2E2E2E2E2E2E2E2E2E2E2E2E2E2E2E2E2E2E2E2E2E2E2E2E2E2E2E2E2E2E2E2E2E2E2E2E2E2E2E2E2E2E2E2E2E2E2E2E2E2E2E2E2E2E2E2E2E2E2E2E2E2E2E2E2E2E2E2E2E2E2E2E2E2E2E2E2E2E2E2E2E2E2E2E2E2E2E2E2E2E2E2E2E2E2E2E2E2E2E2E2E2E2E2E2E2E2E2E2E2E2E2E2BEE2DCE2E2E2E2E2E2
310
E2E2E2E2E2E2E2E2E2E2E2E2E2E2E2E2E2E2E2E2E2E2E2E2E2E2E2E2E2E2E2E2E2E2E2E2E2E2E2E2E2E2E2E2E2E2E2E2E2E2E2E2E2E2E2E2E2E2E2E2E2E2E2E2E2E2E2E2E2E2E2E2E2E2E2E2E2E2E2E2E2E2DCE2BEE2E2E2E2E2E2E2E2E2E2E2E2E2E2E2E2E2E2E2E2E2E2E2E2E2E2E2E2E2E2E2E2E2E2E2E2E2E2E2E2E2E2
310
E2E2E2E2E2E2E2E2E2E2E2E2E2E2E2E2E2E2E2E2E2E2E2E2E2E2E2E2E2E2E2E2E2E2E2E2E2E2E2E2E2E2E2E2E2E2E2E2E2E2E2E2E2E2E2E2E2E2E2E2E2E2E2E2E2E2E2E2E2E2E2E2E2E2E2E2E2E2E2E2E2E2E2E2E2E2E2E2E2E2E2E2E2E2E2E2E2E2E2E2E2E2E2E2E2E2E2E2E2E2E2E2E2E2E2E2E2E2E2E2BEE2DCE2E2E2E2
310
E2E2E2E2E2E2E2E2E2E2E2E2E2E2E2E2E2E2E2E2E2E2E2E2E2E2E2E2E2E2E2E2E2E2E2E2E2E2E2E2E2E2E2E2E2E2E2E2E2E2E2E2E2E2E2E2E2E2E2E2E2E2E2E2E2E2E2E2E2E2E2E2E2E2E2E2E2E2E2E2E2E2E2E2DCE2BEE2E2E2E2E2E2E2E2E2E2E2E2E2E2E2E2E2E2E2E2E2E2E2E2E2E2E2E2E2E2E2E2E2E2E2E2E2E2E2E2
310
E2E2E2E2E2E2E2E2E2E2E2E2E2E2E2E2E2E2E2E2E2E2E2E2E2E2E2E2E2E2E2E2E2E2E2E2E2E2E2E2E2E2E2E2E2E2E2E2E2E2E2E2E2E2E2E2E2E2E2E2E2E2E2E2E2E2E2E2E2E2E2E2E2E2E2E2E2E2E2E2E2E2E2E2E2E2E2E2E2E2E2E2E2E2E2E2E2E2E2E2E2E2E2E2E2E2E2E2E2E2E2E2E2E2E2E2E2E2E2E2E2E2BEE2DCE2E2
310
E2E2E2E2E2E2E2E2E2E2E2E2E2E2E2E2E2E2E2E2E2E2E2E2E2E2E2E2E2E2E2E2E2E2E2E2E2E2E2E2E2E2E2E2E2E2E2E2E2E2E2E2E2E2E2E2E2E2E2E2E2E2E2E2E2E2E2E2E2E2E2E2E2E2E2E2E2E2E2E2E2E2E2E2E2E2DCE2BEE2E2E2E2E2E2E2E2E2E2E2E2E2E2E2E2E2E2E2E2E2E2E2E2E2E2E2E2E2E2E2E2E2E2E2E2E2E2
310
E2E2E2E2E2E2E2E2E2E2E2E2E2E2E2E2E2E2E2E2E2E2E2E2E2E2E2E2E2E2E2E2E2E2E2E2E2E2E2E2E2E2E2E2E2E2E2E2E2E2E2E2E2E2E2E2E2E2E2E2E2E2E2E2E2E2E2E2E2E2E2E2E2E2E2E2E2E2E2E2E2E2E2E2E2E2E2E2E2E2E2E2E2E2E2E2E2E2E2E2E2E2E2E2E2E2E2E2E2E2E2E2E2E2E2E2E2E2E2E2E2E2E2E2BEE2DC
310
E2E2E2E2E2E2E2E2E2E2E2E2E2E2E2E2E2E2E2E2E2E2E2E2E2E2E2E2E2E2E2E2E2E2E2E2E2E2E2E2E2E2E2E2E2E2E2E2E2E2E2E2E2E2E2E2E2E2E2E2E2E2E2E2E2E2E2E2E2E2E2E2E2E2E2E2E2E2E2E2E2E2E2E2E2E2E2E2DCE2BEE2E2E2E2E2E2E2E2E2E2E2E2E2E2E2E2E2E2E2E2E2E2E2E2E2E2E2E2E2E2E2E2E2E2E2E2
310
E2E2E2E2E2E2E2E2E2E2E2E2E2E2E2E2E2E2E2E2E2E2E2E2E2E2E2E2E2E2E2E2E2E2E2E2E2E2E2E2E2E2E2E2E2E2E2E2E2E2E2E2E2E2E2E2E2E2E2E2E2E2E2E2E2E2E2E2E2E2E2E2E2E2E2E2E2E2E2E2E2E2E2E2E2E2E2E2E2E2E2E2E2E2E2E2E2E2E2E2E2E2E2E2E2E2E2E2E2E2E2E2E2E2E2E2E2E2E2E2E2E2E2E2E2E2BE
310
E2DCE2E2E2E2E2E2E2E2E2E2E2E2E2E2E2E2E2E2E2E2E2E2E2E2E2E2E2E2E2E2E2E2E2E2E2E2E2E2E2E2E2E2E2E2E2E2E2E2E2E2E2E2E2E2E2E2E2E2E2E2E2E2E2E2E2E2E2E2E2E2E2E2E2E2E2E2E2E2E2E2E2E2E2E2E2E2E2E2DCE2BEE2E2E2E2E2E2E2E2E2E2E2E2E2E2E2E2E2E2E2E2E2E2E2E2E2E2E2E2E2E2E2E2E2E2
310
E2E2E2E2E2E2E2E2E2E2E2E2E2E2E2E2E2E2E2E2E2E2E2E2E2E2E2E2E2E2E2E2E2E2E2E2E2E2E2E2E2E2E2E2E2E2E2E2E2E2E2E2E2E2E2E2E2E2E2E2E2E2E2E2E2E2E2E2E2E2E2E2E2E2E2E2E2E2E2E2E2E2E2E2E2E2E2E2E2E2E2E2E2E2E2E2E2E2E2E2E2E2E2E2E2E2E2E2E2E2E2E2E2E2E2E2E2E2E2E2E2E2E2E2E2E2E2
310
E2BEE2DCE2E2E2E2E2E2E2E2E2E2E2E2E2E2E2E2E2E2E2E2E2E2E2E2E2E2E2E2E2E2E2E2E2E2E2E2E2E2E2E2E2E2E2E2E2E2E2E2E2E2E2E2E2E2E2E2E2E2E2E2E2E2E2E2E2E2E2E2E2E2E2E2E2E2E2E2E2E2E2E2E2E2E2E2E2E2E2E2DCE2BEE2E2E2E2E2E2E2E2E2E2E2E2E2E2E2E2E2E2E2E2E2E2E2E2E2E2E2E2E2E2E2E2
310
E2E2E2E2E2E2E2E2E2E2E2E2E2E2E2E2E2E2E2E2E2E2E2E2E2E2E2E2E2E2E2E2E2E2E2E2E2E2E2E2E2E2E2E2E2E2E2E2E2E2E2E2E2E2E2E2E2E2E2E2E2E2E2E2E2E2E2E2E2E2E2E2E2E2E2E2E2E2E2E2E2E2E2E2E2E2E2E2E2E2E2E2E2E2E2E2E2E2E2E2E2E2E2E2E2E2E2E2E2E2E2E2E2E2E2E2E2E2E2E2E2E2E2E2E2E2E2
310
E2E2E2BEE2DCDCDCDCDCDCDCDCDCDCDCDCDCDCDCDCDCDCDCDCDCDCDCDCDCDCDCDCDCDCDCDCDCDCDCDCDCDCDCDCDCDCDCDCDCDCDCDCDCDCDCDCDCDCDCDCDCDCDCDCDCDCDCDCDCDCDCDCDCDCDCDCDCDCDCDCDCDCDCDCDCDCDCDCDCDCDCDCDCDCE2BEE2E2E2E2E2E2E2E2E2E2E2E2E2E2E2E2E2E2E2E2E2E2E2E2E2E2E2E2E2E2
310
E2E2E2E2E2E2E2E2E2E2E2E2E2E2E2E2E2E2E2E2E2E2E2E2E2E2E2E2E2E2E2E2E2E2E2E2E2E2E2E2E2E2E2E2E2E2E2E2E2E2E2E2E2E2E2E2E2E2E2E2E2E2E2E2E2E2E2E2E2E2E2E2E2E2E2E2E2E2E2E2E2E2E2E2E2E2E2E2E2E2E2E2E2E2E2E2E2E2E2E2E2E2E2E2E2E2E2E2E2E2E2E2E2E2E2E2E2E2E2E2E2E2E2E2E2E2E2
310
E2E2E2E2E2F5F5F5F5F5F5F5F5F5F5F5F5F5F5F5F5F5F5F5F5F5F5F5F5F5F5F5F5F5F5F5F5F5F5F5F5F5F5F5F5F5F5F5F5F5F5F5F5F5F5F5F5F5F5F5F5F5F5F5F5F5F5F5F5F5F5F5F5F5F5F5F5F5F5F5F5F5F5F5F5F5F5F5F5F5F5F5F5F5F5F5F5F5F5E2E2E2E2E2E2E2E2E2E2E2E2E2E2E2E2E2E2E2E2E2E2E2E2E2E2E2E2
310
E2E2E2E2E2E2E2E2E2E2E2E2E2E2E2E2E2E2E2E2E2E2E2E2E2E2E2E2E2E2E2E2E2E2E2E2E2E2E2E2E2E2E2E2E2E2E2E2E2E2E2E2E2E2E2E2E2E2E2E2E2E2E2E2E2E2E2E2E2E2E2E2E2E2E2E2E2E2E2E2E2E2E2E2E2E2E2E2E2E2E2E2E2E2E2E2E2E2E2E2E2E2E2E2E2E2E2E2E2E2E2E2E2E2E2E2E2E2E2E2E2E2E2E2E2E2E2
310
E2E2E2E2E2E2E2F5E2E2E2E2E2E2E2E2E2E2E2E2E2E2E2E2E2E2E2E2E2E2E2E2E2E2E2E2E2E2E2E2E2E2E2E2E2E2E2E2E2E2E2E2E2E2E2E2E2E2E2E2E2E2E2E2E2E2E2E2E2E2E2E2E2E2E2E2E2E2E2E2E2E2E2E2E2E2E2E2E2E2E2E2E2E2BEBEE2BEBEBEF5E2E2E2E2E2E2E2E2E2E2E2E2E2E2E2E2E2E2E2E2E2E2E2E2E2E2
310
E2E2E2E2E2E2E2E2E2E2E2E2E2E2E2E2E2E2E2E2E2E2E2E2E2E2E2E2E2E2E2E2E2E2E2E2E2E2E2E2E2E2E2E2E2E2E2E2E2E2E2E2E2E2E2E2E2E2E2E2E2E2E2E2E2E2E2E2E2E2E2E2E2E2E2E2E2E2E2E2E2E2E2E2E2E2E2E2E2E2E2E2E2E2E2E2E2E2E2E2E2E2E2E2E2E2E2E2E2E2E2E2E2E2E2E2E2E2E2E2E2E2E2E2E2E2E2
310
E2E2E2E2E2E2E2E2E2F5E2F5F5F5F5F5F5F5F5F5F5F5F5F5F5F5F5F5F5F5F5F5F5F5F5F5F5F5F5F5F5F5F5F5F5F5F5F5F5F5F5F5F5F5F5F5F5F5F5F5F5F5F5F5F5F5F5F5F5F5F5F5F5F5F5F5F5F5F5F5F5F5F5F5F5F5F5F5F5F5F5F5F5F5F5F5BEBEF5BEBEBEF5E2E2E2E2E2E2E2E2E2E2E2E2E2E2E2E2E2E2E2E2E2E2E2E2
310
E2E2E2E2E2E2E2E2E2E2E2E2E2E2E2E2E2E2E2E2E2E2E2E2E2E2E2E2E2E2E2E2E2E2E2E2E2E2E2E2E2E2E2E2E2E2E2E2E2E2E2E2E2E2E2E2E2E2E2E2E2E2E2E2E2E2E2E2E2E2E2E2E2E2E2E2E2E2E2E2E2E2E2E2E2E2E2E2E2E2E2E2E2E2E2E2E2E2E2E2E2E2E2E2E2E2E2E2E2E2E2E2E2E2E2E2E2E2E2E2E2E2E2E2E2E2E2
310
E2E2E2E2E2E2E2E2E2E2E2F5E2F5E2E2E2E2E2E2E2E2E2E2E2E2E2E2E2E2E2E2E2E2E2E2E2E2E2E2E2E2E2E2E2E2E2E2E2E2E2E2E2E2E2E2E2E2E2E2E2E2E2E2E2E2E2E2E2E2E2E2E2E2E2E2E2E2E2E2E2E2E2E2E2E2E2E2E2E2E2E2E2E2E2E2E2E2E2E2E2E2F5E2F5E2E2E2E2E2E2E2E2E2E2E2E2E2E2E2E2E2E2E2E2E2E2
310
E2E2E2E2E2E2E2E2E2E2E2E2E2E2E2E2E2E2E2E2E2E2E2E2E2E2E2E2E2E2E2E2E2E2E2E2E2E2E2E2E2E2E2E2E2E2E2E2E2E2E2E2E2E2E2E2E2E2E2E2E2E2E2E2E2E2E2E2E2E2E2E2E2E2E2E2E2E2E2E2E2E2E2E2E2E2E2E2E2E2E2E2E2E2E2E2E2E2E2E2E2E2E2E2E2E2E2E2E2E2E2E2E2E2E2E2E2E2E2E2E2E2E2E2E2E2E2
310
E2E2E2E2E2E2E2E2E2E2E2E2E2F5E2F5E2E2E2E2E2E2E2E2E2E2E2E2E2E2E2E2E2E2E2E2E2E2E2E2E2E2E2E2E2E2E2E2E2E2E2E2E2E2E2E2E2E2E2E2E2E2E2E2E2E2E2E2E2E2E2E2E2E2E2E2E2E2E2E2E2E2E2E2E2E2E2E2E2E2E2E2E2E2E2E2E2E2E2E2E2E2E2E2F5E2F5E2E2E2E2E2E2E2E2E2E2E2E2E2E2E2E2E2E2E2E2
310
E2E2E2E2E2E2E2E2E2E2E2E2E2E2E2E2E2E2E2E2E2E2E2E2E2E2E2E2E2E2E2E2E2E2E2E2E2E2E2E2E2E2E2E2E2E2E2E2E2E2E2E2E2E2E2E2E2E2E2E2E2E2E2E2E2E2E2E2E2E2E2E2E2E2E2E2E2E2E2E2E2E2E2E2E2E2E2E2E2E2E2E2E2E2E2E2E2E2E2E2E2E2E2E2E2E2E2E2E2E2E2E2E2E2E2E2E2E2E2E2E2E2E2E2E2E2E2
310
E2E2E2E2E2E2E2E2E2E2E2E2E2E2E2F5E2F5E2E2E2E2E2E2E2E2E2E2E2E2E2E2E2E2E2E2E2E2E2E2E2E2E2E2E2E2E2E2E2E2E2E2E2E2E2E2E2E2E2E2E2E2E2E2E2E2E2E2E2E2E2E2E2E2E2E2E2E2E2E2E2E2E2E2E2E2E2E2E2E2E2E2E2E2E2E2E2E2E2E2E2E2E2E2E2E2F5E2F5E2E2E2E2E2E2E2E2E2E2E2E2E2E2E2E2E2E2
310
E2E2E2E2E2E2E2E2E2E2E2E2E2E2E2E2E2E2E2E2E2E2E2E2E2E2E2E2E2E2E2E2E2E2E2E2E2E2E2E2E2E2E2E2E2E2E2E2E2E2E2E2E2E2E2E2E2E2E2E2E2E2E2E2E2E2E2E2E2E2E2E2E2E2E2E2E2E2E2E2E2E2E2E2E2E2E2E2E2E2E2E2E2E2E2E2E2E2E2E2E2E2E2E2E2E2E2E2E2E2E2E2E2E2E2E2E2E2E2E2E2E2E2E2E2E2E2
310
E2E2E2E2E2E2E2E2E2E2E2E2E2E2E2E2E2F5E2F5E2E2E2E2E2E2E2E2E2E2E2E2E2E2E2E2E2E2E2E2E2E2E2E2E2E2E2E2E2E2E2E2E2E2E2E2E2E2E2E2E2E2E2E2E2E2E2E2E2E2E2E2E2E2E2E2E2E2E2E2E2E2E2E2E2E2E2E2E2E2E2E2E2E2E2E2E2E2E2E2E2E2E2E2E2E2E2E2F5E2F5E2E2E2E2E2E2E2E2E2E2E2E2E2E2E2E2
310
E2E2E2E2E2E2E2E2E2E2E2E2E2E2E2E2E2E2E2E2E2E2E2E2E2E2E2E2E2E2E2E2E2E2E2E2E2E2E2E2E2E2E2E2E2E2E2E2E2E2E2E2E2E2E2E2E2E2E2E2E2E2E2E2E2E2E2E2E2E2E2E2E2E2E2E2E2E2E2E2E2E2E2E2E2E2E2E2E2E2E2E2E2E2E2E2E2E2E2E2E2E2E2E2E2E2E2E2E2E2E2E2E2E2E2E2E2E2E2E2E2E2E2E2E2E2E2
310
E2E2E2E2E2E2E2E2E2E2E2E2E2E2E2E2E2E2E2F5E2F5E2E2E2E2E2E2E2E2E2E2E2E2E2E2E2E2E2E2E2E2E2E2E2E2E2E2E2E2E2E2E2E2E2E2E2E2E2E2E2E2E2E2E2E2E2E2E2E2E2E2E2E2E2E2E2E2E2E2E2E2E2E2E2E2E2E2E2E2E2E2E2E2E2E2E2E2E2E2E2E2E2E2E2E2E2E2E2E2F5E2F5E2E2E2E2E2E2E2E2E2E2E2E2E2E2
310
E2E2E2E2E2E2E2E2E2E2E2E2E2E2E2E2E2E2E2E2E2E2E2E2E2E2E2E2E2E2E2E2E2E2E2E2E2E2E2E2E2E2E2E2E2E2E2E2E2E2E2E2E2E2E2E2E2E2E2E2E2E2E2E2E2E2E2E2E2E2E2E2E2E2E2E2E2E2E2E2E2E2E2E2E2E2E2E2E2E2E2E2E2E2E2E2E2E2E2E2E2E2E2E2E2E2E2E2E2E2E2E2E2E2E2E2E2E2E2E2E2E2E2E2E2E2E2
310
E2E2E2E2E2E2E2E2E2E2E2E2E2E2E2E2E2E2E2E2E2F5E2F5E2E2E2E2E2E2E2E2E2E2E2E2E2E2E2E2E2E2E2E2E2E2E2E2E2E2E2E2E2E2E2E2E2E2E2E2E2E2E2E2E2E2E2E2E2E2E2E2E2E2E2E2E2E2E2E2E2E2E2E2E2E2E2E2E2E2E2E2E2E2E2E2E2E2E2E2E2E2E2E2E2E2E2E2E2E2E2E2F5E2F5E2E2E2E2E2E2E2E2E2E2E2E2
310
E2E2E2E2E2E2E2E2E2E2E2E2E2E2E2E2E2E2E2E2E2E2E2E2E2E2E2E2E2E2E2E2E2E2E2E2E2E2E2E2E2E2E2E2E2E2E2E2E2E2E2E2E2E2E2E2E2E2E2E2E2E2E2E2E2E2E2E2E2E2E2E2E2E2E2E2E2E2E2E2E2E2E2E2E2E2E2E2E2E2E2E2E2E2E2E2E2E2E2E2E2E2E2E2E2E2E2E2E2E2E2E2E2E2E2E2E2E2E2E2E2E2E2E2E2E2E2
310
E2E2E2E2E2E2E2E2E2E2E2E2E2E2E2E2E2E2E2E2E2E2E2F5E2F5E2E2E2E2E2E2E2E2E2E2E2E2E2E2E2E2E2E2E2E2E2E2E2E2E2E2E2E2E2E2E2E2E2E2E2E2E2E2E2E2E2E2E2E2E2E2E2E2E2E2E2E2E2E2E2E2E2E2E2E2E2E2E2E2E2E2E2E2E2E2E2E2E2E2E2E2E2E2E2E2E2E2E2E2E2E2E2E2F5E2F5E2E2E2E2E2E2E2E2E2E2
310
E2E2E2E2E2E2E2E2E2E2E2E2E2E2E2E2E2E2E2E2E2E2E2E2E2E2E2E2E2E2E2E2E2E2E2E2E2E2E2E2E2E2E2E2E2E2E2E2E2E2E2E2E2E2E2E2E2E2E2E2E2E2E2E2E2E2E2E2E2E2E2E2E2E2E2E2E2E2E2E2E2E2E2E2E2E2E2E2E2E2E2E2E2E2E2E2E2E2E2E2E2E2E2E2E2E2E2E2E2E2E2E2E2E2E2E2E2E2E2E2E2E2E2E2E2E2E2
310
E2E2E2E2E2E2E2E2E2E2E2E2E2E2E2E2E2E2E2E2E2E2E2E2E2F5E2F5E2E2E2E2E2E2E2E2E2E2E2E2E2E2E2E2E2E2E2E2E2E2E2E2E2E2E2E2E2E2E2E2E2E2E2E2E2E2E2E2E2E2E2E2E2E2E2E2E2E2E2E2E2E2E2E2E2E2E2E2E2E2E2E2E2E2E2E2E2E2E2E2E2E2E2E2E2E2E2E2E2E2E2E2E2E2E2E2F5E2F5E2E2E2E2E2E2E2E2
310
E2E2E2E2E2E2E2E2E2E2E2E2E2E2E2E2E2E2E2E2E2E2E2E2E2E2E2E2E2E2E2E2E2E2E2E2E2E2E2E2E2E2E2E2E2E2E2E2E2E2E2E2E2E2E2E2E2E2E2E2E2E2E2E2E2E2E2E2E2E2E2E2E2E2E2E2E2E2E2E2E2E2E2E2E2E2E2E2E2E2E2E2E2E2E2E2E2E2E2E2E2E2E2E2E2E2E2E2E2E2E2E2E2E2E2E2E2E2E2E2E2E2E2E2E2E2E2
310
E2E2E2E2E2E2E2E2E2E2E2E2E2E2E2E2E2E2E2E2E2E2E2E2E2E2E2F5E2F5E2E2E2E2E2E2E2E2E2E2E2E2E2E2E2E2E2E2E2E2E2E2E2E2E2E2E2E2E2E2E2E2E2E2E2E2E2E2E2E2E2E2E2E2E2E2E2E2E2E2E2E2E2E2E2E2E2E2E2E2E2E2E2E2E2E2E2E2E2E2E2E2E2E2E2E2E2E2E2E2E2E2E2E2E2E2E2E2F5E2F5E2E2E2E2E2E2
310
E2E2E2E2E2E2E2E2E2E2E2E2E2E2E2E2E2E2E2E2E2E2E2E2E2E2E2E2E2E2E2E2E2E2E2E2E2E2E2E2E2E2E2E2E2E2E2E2E2E2E2E2E2E2E2E2E2E2E2E2E2E2E2E2E2E2E2E2E2E2E2E2E2E2E2E2E2E2E2E2E2E2E2E2E2E2E2E2E2E2E2E2E2E2E2E2E2E2E2E2E2E2E2E2E2E2E2E2E2E2E2E2E2E2E2E2E2E2E2E2E2E2E2E2E2E2E2
310
E2E2E2E2E2E2E2E2E2E2E2E2E2E2E2E2E2E2E2E2E2E2E2E2E2E2E2E2E2F5E2F5E2E2E2E2E2E2E2E2E2E2E2E2E2E2E2E2E2E2E2E2E2E2E2E2E2E2E2E2E2E2E2E2E2E2E2E2E2E2E2E2E2E2E2E2E2E2E2E2E2E2E2E2E2E2E2E2E2E2E2E2E2E2E2E2E2E2E2E2E2E2E2E2E2E2E2E2E2E2E2E2E2E2E2E2E2E2E2E2F5E2F5E2E2E2E2
310
E2E2E2E2E2E2E2E2E2E2E2E2E2E2E2E2E2E2E2E2E2E2E2E2E2E2E2E2E2E2E2E2E2E2E2E2E2E2E2E2E2E2E2E2E2E2E2E2E2E2E2E2E2E2E2E2E2E2E2E2E2E2E2E2E2E2E2E2E2E2E2E2E2E2E2E2E2E2E2E2E2E2E2E2E2E2E2E2E2E2E2E2E2E2E2E2E2E2E2E2E2E2E2E2E2E2E2E2E2E2E2E2E2E2E2E2E2E2E2E2E2E2E2E2E2E2E2
310
E2E2E2E2E2E2E2E2E2E2E2E2E2E2E2E2E2E2E2E2E2E2E2E2E2E2E2E2E2E2E2F5E2F5E2E2E2E2E2E2E2E2E2E2E2E2E2E2E2E2E2E2E2E2E2E2E2E2E2E2E2E2E2E2E2E2E2E2E2E2E2E2E2E2E2E2E2E2E2E2E2E2E2E2E2E2E2E2E2E2E2E2E2E2E2E2E2E2E2E2E2E2E2E2E2E2E2E2E2E2E2E2E2E2E2E2E2E2E2E2E2E2F5E2F5E2E2
310
E2E2E2E2E2E2E2E2E2E2E2E2E2E2E2E2E2E2E2E2E2E2E2E2E2E2E2E2E2E2E2E2E2E2E2E2E2E2E2E2E2E2E2E2E2E2E2E2E2E2E2E2E2E2E2E2E2E2E2E2E2E2E2E2E2E2E2E2E2E2E2E2E2E2E2E2E2E2E2E2E2E2E2E2E2E2E2E2E2E2E2E2E2E2E2E2E2E2E2E2E2E2E2E2E2E2E2E2E2E2E2E2E2E2E2E2E2E2E2E2E2E2E2E2E2E2E2
310
E2E2E2E2E2E2E2E2E2E2E2E2E2E2E2E2E2E2E2E2E2E2E2E2E2E2E2E2E2E2E2E2E2F5E2F5E2E2E2E2E2E2E2E2E2E2E2E2E2E2E2E2E2E2E2E2E2E2E2E2E2E2E2E2E2E2E2E2E2E2E2E2E2E2E2E2E2E2E2E2E2E2E2E2E2E2E2E2E2E2E2E2E2E2E2E2E2E2E2E2E2E2E2E2E2E2E2E2E2E2E2E2E2E2E2E2E2E2E2E2E2E2E2E2F5E2F5
310
E2E2E2E2E2E2E2E2E2E2E2E2E2E2E2E2E2E2E2E2E2E2E2E2E2E2E2E2E2E2E2E2E2E2E2E2E2E2E2E2E2E2E2E2E2E2E2E2E2E2E2E2E2E2E2E2E2E2E2E2E2E2E2E2E2E2E2E2E2E2E2E2E2E2E2E2E2E2E2E2E2E2E2E2E2E2E2E2E2E2E2E2E2E2E2E2E2E2E2E2E2E2E2E2E2E2E2E2E2E2E2E2E2E2E2E2E2E2E2E2E2E2E2E2E2E2E2
310
E2E2E2E2E2E2E2E2E2E2E2E2E2E2E2E2E2E2E2E2E2E2E2E2E2E2E2E2E2E2E2E2E2E2E2F5E2F5E2E2E2E2E2E2E2E2E2E2E2E2E2E2E2E2E2E2E2E2E2E2E2E2E2E2E2E2E2E2E2E2E2E2E2E2E2E2E2E2E2E2E2E2E2E2E2E2E2E2E2E2E2E2E2E2E2E2E2E2E2E2E2E2E2E2E2E2E2E2E2E2E2E2E2E2E2E2E2E2E2E2E2E2E2E2E2E2F5
310
E2F5E2E2E2E2E2E2E2E2E2E2E2E2E2E2E2E2E2E2E2E2E2E2E2E2E2E2E2E2E2E2E2E2E2E2E2E2E2E2E2E2E2E2E2E2E2E2E2E2E2E2E2E2E2E2E2E2E2E2E2E2E2E2E2E2E2E2E2E2E2E2E2E2E2E2E2E2E2E2E2E2E2E2E2E2E2E2E2E2E2E2E2E2E2E2E2E2E2E2E2E2E2E2E2E2E2E2E2E2E2E2E2E2E2E2E2E2E2E2E2E2E2E2E2E2E2
310
E2E2E2E2E2E2E2E2E2E2E2E2E2E2E2E2E2E2E2E2E2E2E2E2E2E2E2E2E2E2E2E2E2E2E2E2E2F5E2F5E2E2E2E2E2E2E2E2E2E2E2E2E2E2E2E2E2E2E2E2E2E2E2E2E2E2E2E2E2E2E2E2E2E2E2E2E2E2E2E2E2E2E2E2E2E2E2E2E2E2E2E2E2E2E2E2E2E2E2E2E2E2E2E2E2E2E2E2E2E2E2E2E2E2E2E2E2E2E2E2E2E2E2E2E2E2E2
310
E2F5E2F5E2E2E2E2E2E2E2E2E2E2E2E2E2E2E2E2E2E2E2E2E2E2E2E2E2E2E2E2E2E2E2E2E2E2E2E2E2E2E2E2E2E2E2E2E2E2E2E2E2E2E2E2E2E2E2E2E2E2E2E2E2E2E2E2E2E2E2E2E2E2E2E2E2E2E2E2E2E2E2E2E2E2E2E2E2E2E2E2E2E2E2E2E2E2E2E2E2E2E2E2E2E2E2E2E2E2E2E2E2E2E2E2E2E2E2E2E2E2E2E2E2E2E2
310
E2E2E2E2E2E2E2E2E2E2E2E2E2E2E2E2E2E2E2E2E2E2E2E2E2E2E2E2E2E2E2E2E2E2E2E2E2E2E2F5E2F5E2E2E2E2E2E2E2E2E2E2E2E2E2E2E2E2E2E2E2E2E2E2E2E2E2E2E2E2E2E2E2E2E2E2E2E2E2E2E2E2E2E2E2E2E2E2E2E2E2E2E2E2E2E2E2E2E2E2E2E2E2E2E2E2E2E2E2E2E2E2E2E2E2E2E2E2E2E2E2E2E2E2E2E2E2
310
E2E2E2F5E2F5E2E2E2E2E2E2E2E2E2E2E2E2E2E2E2E2E2E2E2E2E2E2E2E2E2E2E2E2E2E2E2E2E2E2E2E2E2E2E2E2E2E2E2E2E2E2E2E2E2E2E2E2E2E2E2E2E2E2E2E2E2E2E2E2E2E2E2E2E2E2E2E2E2E2E2E2E2E2E2E2E2E2E2E2E2E2E2E2E2E2E2E2E2E2E2E2E2E2E2E2E2E2E2E2E2E2E2E2E2E2E2E2E2E2E2E2E2E2E2E2E2
310
E2E2E2E2E2E2E2E2E2E2E2E2E2E2E2E2E2E2E2E2E2E2E2E2E2E2E2E2E2E2E2E2E2E2E2E2E2E2E2E2E2F5E2F5E2E2E2E2E2E2E2E2E2E2E2E2E2E2E2E2E2E2E2E2E2E2E2E2E2E2E2E2E2E2E2E2E2E2E2E2E2E2E2E2E2E2E2E2E2E2E2E2E2E2E2E2E2E2E2E2E2E2E2E2E2E2E2E2E2E2E2E2E2E2E2E2E2E2E2E2E2E2E2E2E2E2E2
310
E2E2E2E2E2F5E2F5E2E2E2E2E2E2E2E2E2E2E2E2E2E2E2E2E2E2E2E2E2E2E2E2E2E2E2E2E2E2E2E2E2E2E2E2E2E2E2E2E2E2E2E2E2E2E2E2E2E2E2E2E2E2E2E2E2E2E2E2E2E2E2E2E2E2E2E2E2E2E2E2E2E2E2E2E2E2E2E2E2E2E2E2E2E2E2E2E2E2E2E2E2E2E2E2E2E2E2E2E2E2E2E2E2E2E2E2E2E2E2E2E2E2E2E2E2E2E2
310
E2E2E2E2E2E2E2E2E2E2E2E2E2E2E2E2E2E2E2E2E2E2E2E2E2E2E2E2E2E2E2E2E2E2E2E2E2E2E2E2E2E2E2F5E2F5E2E2E2E2E2E2E2E2E2E2E2E2E2E2E2E2E2E2E2E2E2E2E2E2E2E2E2E2E2E2E2E2E2E2E2E2E2E2E2E2E2E2E2E2E2E2E2E2E2E2E2E2E2E2E2E2E2E2E2E2E2E2E2E2E2E2E2E2E2E2E2E2E2E2E2E2E2E2E2E2E2
310
E2E2E2E2E2E2E2F5E2F5E2E2E2E2E2E2E2E2E2E2E2E2E2E2E2E2E2E2E2E2E2E2E2E2E2E2E2E2E2E2E2E2E2E2E2E2E2E2E2E2E2E2E2E2E2E2E2E2E2E2E2E2E2E2E2E2E2E2E2E2E2E2E2E2E2E2E2E2E2E2E2E2E2E2E2E2E2E2E2E2E2E2E2E2E2E2E2E2E2E2E2E2E2E2E2E2E2E2E2E2E2E2E2E2E2E2E2E2E2E2E2E2E2E2E2E2E2
310
E2E2E2E2E2E2E2E2E2E2E2E2E2E2E2E2E2E2E2E2E2E2E2E2E2E2E2E2E2E2E2E2E2E2E2E2E2E2E2E2E2E2E2E2E2F5E2F5E2E2E2E2E2E2E2E2E2E2E2E2E2E2E2E2E2E2E2E2E2E2E2E2E2E2E2E2E2E2E2E2E2E2E2E2E2E2E2E2E2E2E2E2E2E2E2E2E2E2E2E2E2E2E2E2E2E2E2E2E2E2E2E2E2E2E2E2E2E2E2E2E2E2E2E2E2E2E2
310
E2E2E2E2E2E2E2E2E2F5E2F5E2E2E2E2E2E2E2E2E2E2E2E2E2E2E2E2E2E2E2E2E2E2E2E2E2E2E2E2E2E2E2E2E2E2E2E2E2E2E2E2E2E2E2E2E2E2E2E2E2E2E2E2E2E2E2E2E2E2E2E2E2E2E2E2E2E2E2E2E2E2E2E2E2E2E2E2E2E2E2E2E2E2E2E2E2E2E2E2E2E2E2E2E2E2E2E2E2E2E2E2E2E2E2E2E2E2E2E2E2E2E2E2E2E2E2
310
E2E2E2E2E2E2E2E2E2E2E2E2E2E2E2E2E2E2E2E2E2E2E2E2E2E2E2E2E2E2E2E2E2E2E2E2E2E2E2E2E2E2E2E2E2E2E2F5E2F5E2E2E2E2E2E2E2E2E2E2E2E2E2E2E2E2E2E2E2E2E2E2E2E2E2E2E2E2E2E2E2E2E2E2E2E2E2E2E2E2E2E2E2E2E2E2E2E2E2E2E2E2E2E2E2E2E2E2E2E2E2E2E2E2E2E2E2E2E2E2E2E2E2E2E2E2E2
310
E2E2E2E2E2E2E2E2E2E2E2F5E2F5E2E2E2E2E2E2E2E2E2E2E2E2E2E2E2E2E2E2E2E2E2E2E2E2E2E2E2E2E2E2E2E2E2E2E2E2E2E2E2E2E2E2E2E2E2E2E2E2E2E2E2E2E2E2E2E2E2E2E2E2E2E2E2E2E2E2E2E2E2E2E2E2E2E2E2E2E2E2E2E2E2E2E2E2E2E2E2E2E2E2E2E2E2E2E2E2E2E2E2E2E2E2E2E2E2E2E2E2E2E2E2E2E2
310
E2E2E2E2E2E2E2E2E2E2E2E2E2E2E2E2E2E2E2E2E2E2E2E2E2E2E2E2E2E2E2E2E2E2E2E2E2E2E2E2E2E2E2E2E2E2E2E2E2F5E2F5E2E2E2E2E2E2E2E2E2E2E2E2E2E2E2E2E2E2E2E2E2E2E2E2E2E2E2E2E2E2E2E2E2E2E2E2E2E2E2E2E2E2E2E2E2E2E2E2E2E2E2E2E2E2E2E2E2E2E2E2E2E2E2E2E2E2E2E2E2E2E2E2E2E2E2
310
E2E2E2E2E2E2E2E2E2E2E2E2E2F5E2F5E2E2E2E2E2E2E2E2E2E2E2E2E2E2E2E2E2E2E2E2E2E2E2E2E2E2E2E2E2E2E2E2E2E2E2E2E2E2E2E2E2E2E2E2E2E2E2E2E2E2E2E2E2E2E2E2E2E2E2E2E2E2E2E2E2E2E2E2E2E2E2E2E2E2E2E2E2E2E2E2E2E2E2E2E2E2E2E2E2E2E2E2E2E2E2E2E2E2E2E2E2E2E2E2E2E2E2E2E2E2E2
310
E2E2E2E2E2E2E2E2E2E2E2E2E2E2E2E2E2E2E2E2E2E2E2E2E2E2E2E2E2E2E2E2E2E2E2E2E2E2E2E2E2E2E2E2E2E2E2E2E2E2E2F5E2F5E2E2E2E2E2E2E2E2E2E2E2E2E2E2E2E2E2E2E2E2E2E2E2E2E2E2E2E2E2E2E2E2E2E2E2E2E2E2E2E2E2E2E2E2E2E2E2E2E2E2E2E2E2E2E2E2E2E2E2E2E2E2E2E2E2E2E2E2E2E2E2E2E2
310
E2E2E2E2E2E2E2E2E2E2E2E2E2E2E2F5E2F5E2E2E2E2E2E2E2E2E2E2E2E2E2E2E2E2E2E2E2E2E2E2E2E2E2E2E2E2E2E2E2E2E2E2E2E2E2E2E2E2E2E2E2E2E2E2E2E2E2E2E2E2E2E2E2E2E2E2E2E2E2E2E2E2E2E2E2E2E2E2E2E2E2E2E2E2E2E2E2E2E2E2E2E2E2E2E2E2E2E2E2E2E2E2E2E2E2E2E2E2E2E2E2E2E2E2E2E2E2
310
E2E2E2E2E2E2E2E2E2E2E2E2E2E2E2E2E2E2E2E2E2E2E2E2E2E2E2E2E2E2E2E2E2E2E2E2E2E2E2E2E2E2E2E2E2E2E2E2E2E2E2E2E2F5E2F5E2E2E2E2E2E2E2E2E2E2E2E2E2E2E2E2E2E2E2E2E2E2E2E2E2E2E2E2E2E2E2E2E2E2E2E2E2E2E2E2E2E2E2E2E2E2E2E2E2E2E2E2E2E2E2E2E2E2E2E2E2E2E2E2E2E2E2E2E2E2E2
310
E2E2E2E2E2BEBE2DE2E2E2E2E2E2E2E2E2F5E2F5E2E2E2E2E2E2E2E2E2E2E2E2E2E2E2E2E2E2E2E2E2E2E2E2E2E2E2E2E2E2E2E2E2E2E2E2E2E2E2E2E2E2E2E2E2E2E2E2E2E2E2E2E2E2E2E2E2E2E2E2E2E2E2E2E2E2E2E2E2E2E2E2E2E2E2E2E2E2E2E2E2E2E2E2E2E2E2E2E2E2E2E2E2E2E2E2E2E2E2E2E2E2E2E2E2E2E2
310
E2E2E2E2E2E2E2E2E2E2E2E2E2E2E2E2E2E2E2E2E2E2E2E2E2E2E2E2E2E2E2E2E2E2E2E2E2E2E2E2E2E2E2E2E2E2E2E2E2E2E2E2E2E2E2F5E2F5E2E2E2E2E2E2E2E2E2E2E2E2E2E2E2E2E2E2E2E2E2E2E2E2E2E2E2E2E2E2E2E2E2E2E2E2E2E2E2E2E2E2E2E2E2E2E2E2E2E2E2E2E2E2E2E2E2E2E2E2E2E2E2E2E2E2E2E2E2
310
E2E2E2E2E2E2E2BEBE2DE2E2E2E2E2E2E2E2E2F5E2F5E2E2E2E2E2E2E2E2E2E2E2E2E2E2E2E2E2E2E2E2E2E2E2E2E2E2E2E2E2E2E2E2E2E2E2E2E2E2E2E2E2E2E2E2E2E2E2E2E2E2E2E2E2E2E2E2E2E2E2E2E2E2E2E2E2E2E2E2E2E2E2E2E2E2E2E2E2E2E2E2E2E2E2E2E2E2E2E2E2E2E2E2E2E2E2E2E2E2E2E2E2E2E2E2E2
310
E2E2E2E2E2E2E2E2E2E2E2E2E2E2E2E2E2E2E2E2E2E2E2E2E2E2E2E2E2E2E2E2E2E2E2E2E2E2E2E2E2E2E2E2E2E2E2E2E2E2E2E2E2E2E2E2E2F5E2F5E2E2E2E2E2E2E2E2E2E2E2E2E2E2E2E2E2E2E2F52D2D2DF5DCDCDCDCDCDCDCDCDCDCDCDCDCDCDCDCDCDCDCDCDCDCDCDCDCDCDCDCDCDCDCDCDCDCDCDCDCDCDCDCDCDCDC
310
DCDCDCDCDCDCF52D2D2D2DF5E2E2E2E2E2E2E2E2E2F5E2F5E2E2E2E2E2E2E2E2E2E2E2E2E2E2E2E2E2E2E2E2E2E2E2E2E2E2E2E2E2E2E2E2E2E2E2E2E2E2E2E2E2E2E2E2E2E2E2E2E2E2E2E2E2E2E2E2E2E2E2E2E2E2E2E2E2E2E2E2E2E2E2E2E2E2E2E2E2E2E2E2E2E2E2E2E2E2E2E2E2E2E2E2E2E2E2E2E2E2E2E2E2E2E2
310
E2E2E2E2E2E2E2E2E2E2E2E2E2E2E2E2E2E2E2E2E2E2E2E2E2E2E2E2E2E2E2E2E2E2E2E2E2E2E2E2E2E2E2E2E2E2E2E2E2E2E2E2E2E2E2E2E2E2E2F5E2F5E2E2E2E2E2E2E2E2E2E2E2E2E2E2E2E2E2E2E22DE2E2E2DCBEE2E2E2E2E2E2E2E2E2E2E2E2E2E2E2E2E2E2E2E2E2E2E2E2E2E2E2E2E2E2E2E2E2E2E2E2E2E2E2E2
310
E2E2E2E2E2E2F5F52D2D2D2D2D2DE2E2E2E2E2E2E2E2E2F5E2F5E2E2E2E2E2E2E2E2E2E2E2E2E2E2E2E2E2E2E2E2E2E2E2E2E2E2E2E2E2E2E2E2E2E2E2E2E2E2E2E2E2E2E2E2E2E2E2E2E2E2E2E2E2E2E2E2E2E2E2E2E2E2E2E2E2E2E2E2E2E2E2E2E2E2E2E2E2E2E2E2E2E2E2E2E2E2E2E2E2E2E2E2E2E2E2E2E2E2E2E2E2
310
E2E2E2E2E2E2E2E2E2E2E2E2E2E2E2E2E2E2E2E2E2E2E2E2E2E2E2E2E2E2E2E2E2E2E2E2E2E2E2E2E2E2E2E2E2E2E2E2E2E2E2E2E2E2E2E2E2E2E2E2E2F5E2F5E2E2E2E2E2E2E2E2E2E2E2E2E2E2E2E2E2E2E22DE2E2E2DCE2E2E2E2E2E2E2E2E2E2E2E2E2E2E2E2E2E2E2E2E2E2E2E2E2E2E2E2E2E2E2E2E2E2E2E2E2E2E2
310
E2E2E2E2E2E2E2BE2DF52DE2E2E2E22DE2E2E2E2E2E2E2E2E2F5E2F5E2E2E2E2E2E2E2E2E2E2E2E2E2E2E2E2E2E2E2E2E2E2E2E2E2E2E2E2E2E2E2E2E2E2E2E2E2E2E2E2E2E2E2E2E2E2E2E2E2E2E2E2E2E2E2E2E2E2E2E2E2E2E2E2E2E2E2E2E2E2E2E2E2E2E2E2E2E2E2E2E2E2E2E2E2E2E2E2E2E2E2E2E2E2E2E2E2E2E2
310
E2E2E2E2E2E2E2E2E2E2E2E2E2E2E2E2E2E2E2E2E2E2E2E2E2E2E2E2E2E2E2E2E2E2E2E2E2E2E2E2E2E2E2E2E2E2E2E2E2E2E2E2E2E2E2E2E2E2E2E2E2E2E2F5E2F5E2E2E2E2E2E2E2E2E2E2E2E2E2E2E2E2E2E2E22DE2E2E2DCE2E2E2E2E2E2E2E2E2E2E2E2E2E2E2E2E2E2E2E2E2E2E2E2E2E2E2E2E2E2E2E2E2E2E2E2E2
310
E2E2E2E2E2E2E2E2E2BEE2E2DCE2E2E2E22DE2E2E2E2E2E2E2E2E2F5E2F5E2E2E2E2E2E2E2E2E2E2E2E2E2E2E2E2E2E2E2E2E2E2E2E2E2E2E2E2E2E2E2E2E2E2E2E2E2E2E2E2E2E2E2E2E2E2E2E2E2E2E2E2E2E2E2E2E2E2E2E2E2E2E2E2E2E2E2E2E2E2E2E2E2E2E2E2E2E2E2E2E2E2E2E2E2E2E2E2E2E2E2E2E2E2E2E2E2
310
E2E2E2E2E2E2E2E2E2E2E2E2E2E2E2E2E2E2E2E2E2E2E2E2E2E2E2E2E2E2E2E2E2E2E2E2E2E2E2E2E2E2E2E2E2E2E2E2E2E2E2E2E2E2E2E2E2E2E2E2E2E2E2E2E2F5E2F5E2E2E2E2E2E2E2E2E2E2E2E2E2E2E2E2E2E2E22DE2E2E2DCE2E2E2E2E2E2E2E2E2E2E2E2E2E2E2E2E2E2E2E2E2E2E2E2E2E2E2E2E2E2E2E2E2E2E2
310
E2E2E2E2E2E2E2E2E2E2E2E2E2E2DCE2E2E2E22DE2E2E2E2E2E2E2E2E2F5E2F5E2E2E2E2E2E2E2E2E2E2E2E2E2E2E2E2E2E2E2E2E2E2E2E2E2E2E2E2E2E2E2E2E2E2E2E2E2E2E2E2E2E2E2E2E2E2E2E2E2E2E2E2E2E2E2E2E2E2E2E2E2E2E2E2E2E2E2E2E2E2E2E2E2E2E2E2E2E2E2E2E2E2E2E2E2E2E2E2E2E2E2E2E2E2E2
310
E2E2E2E2E2E2E2E2E2E2E2E2E2E2E2E2E2E2E2E2E2E2E2E2E2E2E2E2E2E2E2E2E2E2E2E2E2E2E2E2E2E2E2E2E2E2E2E2E2E2E2E2E2E2E2E2E2E2E2E2E2E2E2E2E2E2E2F5E2F5E2E2E2E2E2E2E2E2E2E2E2E2E2E2E2E2E2E2E22DE2E2E2DCE2E2E2E2E2E2E2E2E2E2E2E2E2E2E2E2E2E2E2E2E2E2E2E2E2E2E2E2E2E2E2E2E2
310
E2E2E2E2E2E2E2E2E2E2E2E2E2E2E2E2DCE2E2E2E22DE2E2E2E2E2E2E2E2E2F5E2F5E2E2E2E2E2E2E2E2E2E2E2E2E2E2E2E2E2E2E2E2E2E2E2E2E2E2E2E2E2E2E2E2E2E2E2E2E2E2E2E2E2E2E2E2E2E2E2E2E2E2E2E2E2E2E2E2E2E2E2E2E2E2E2E2E2E2E2E2E2E2E2E2E2E2E2E2E2E2E2E2E2E2E2E2E2E2E2E2E2E2E2E2E2
310
E2E2E2E2E2E2E2E2E2E2E2E2E2E2E2E2E2E2E2E2E2E2E2E2E2E2E2E2E2E2E2E2E2E2E2E2E2E2E2E2E2E2E2E2E2E2E2E2E2E2E2E2E2E2E2E2E2E2E2E2E2E2E2E2E2E2E2E2E2F5E2F5E2E2E2E2E2E2E2E2E2E2E2E2E2E2E2E2E2E2E22DE2E2E2DCE2E2E2E2E2E2E2E2E2E2E2E2E2E2E2E2E2E2E2E2E2E2E2E2E2E2E2E2E2E2E2
310
E2E2E2E2E2E2E2E2E2E2E2E2E2E2E2E2E2E2DCE2E2E2E22DE2E2E2E2E2E2E2E2E2F5E2F5E2E2E2E2E2E2E2E2E2E2E2E2E2E2E2E2E2E2E2E2E2E2E2E2E2E2E2E2E2E2E2E2E2E2E2E2E2E2E2E2E2E2E2E2E2E2E2E2E2E2E2E2E2E2E2E2E2E2E2E2E2E2E2E2E2E2E2E2E2E2E2E2E2E2E2E2E2E2E2E2E2E2E2E2E2E2E2E2E2E2E2
310
E2E2E2E2E2E2E2E2E2E2E2E2E2E2E2E2E2E2E2E2E2E2E2E2E2E2E2E2E2E2E2E2E2E2E2E2E2E2E2E2E2E2E2E2E2E2E2E2E2E2E2E2E2E2E2E2E2E2E2E2E2E2E2E2E2E2E2E2E2E2E2F5E2F5E2E2E2E2E2E2E2E2E2E2E2E2E2E2E2E2E2E2E22DE2E2E2DCE2E2E2E2E2E2E2E2E2E2E2E2E2E2E2E2E2E2E2E2E2E2E2E2E2E2E2E2E2
310
E2E2E2E2E2E2E2E2E2E2E2E2E2E2E2E2E2E2E2E2DCE2E2E2E22DE2E2E2E2E2E2E2E2E2F5E2F5E2E2E2E2E2E2E2E2E2E2E2E2E2E2E2E2E2E2E2E2E2E2E2E2E2E2E2E2E2E2E2E2E2E2E2E2E2E2E2E2E2E2E2E2E2E2E2E2E2E2E2E2E2E2E2E2E2E2E2E2E2E2E2E2E2E2E2E2E2E2E2E2E2E2E2E2E2E2E2E2E2E2E2E2E2E2E2E2E2
310
E2E2E2E2E2E2E2E2E2E2E2E2E2E2E2E2E2E2E2E2E2E2E2E2E2E2E2E2E2E2E2E2E2E2E2E2E2E2E2E2E2E2E2E2E2E2E2E2E2E2E2E2E2E2E2E2E2E2E2E2E2E2E2E2E2E2E2E2E2E2E2E2E2F5E2F5E2E2E2E2E2E2E2E2E2E2E2E2E2E2E2E2E2E2E22DE2E2E2DCE2E2E2E2E2E2E2E2E2E2E2E2E2E2E2E2E2E2E2E2E2E2E2E2E2E2E2
310
E2E2E2E2E2E2E2E2E2E2E2E2E2E2E2E2E2E2E2E2E2E2DCE2E2E2E22DE2E2E2E2E2E2E2E2E2F5E2F5E2E2E2E2E2E2E2E2E2E2E2E2E2E2E2E2E2E2E2E2E2E2E2E2E2E2E2E2E2E2E2E2E2E2E2E2E2E2E2E2E2E2E2E2E2E2E2E2E2E2E2E2E2E2E2E2E2E2E2E2E2E2E2E2E2E2E2E2E2E2E2E2E2E2E2E2E2E2E2E2E2E2E2E2E2E2E2
310
E2E2E2E2E2E2E2E2E2E2E2E2E2E2E2E2E2E2E2E2E2E2E2E2E2E2E2E2E2E2E2E2E2E2E2E2E2E2E2E2E2E2E2E2E2E2E2E2E2E2E2E2E2E2E2E2E2E2E2E2E2E2E2E2E2E2E2E2E2E2E2E2E2E2E2F5E2F5E2E2E2E2E2E2E2E2E2E2E2E2E2E2E2E2E2E2E22DE2E2E2DCE2E2E2E2E2E2E2E2E2E2E2E2E2E2E2E2E2E2E2E2E2E2E2E2E2
310
E2E2E2E2E2E2E2E2E2E2E2E2E2E2E2E2E2E2E2E2E2E2E2E2DCE2E2E2E22DE2E2E2E2E2E2E2E2E2F5E2F5E2E2E2E2E2E2E2E2E2E2E2E2E2E2E2E2E2E2E2E2E2E2E2E2E2E2E2E2E2E2E2E2E2E2E2E2E2E2E2E2E2E2E2E2E2E2E2E2E2E2E2E2E2E2E2E2E2E2E2E2E2E2E2E2E2E2E2E2E2E2E2E2E2E2E2E2E2E2E2E2E2E2E2E2E2
310
E2E2E2E2E2E2E2E2E2E2E2E2E2E2E2E2E2E2E2E2E2E2E2E2E2E2E2E2E2E2E2E2E2E2E2E2E2E2E2E2E2E2E2E2E2E2E2E2E2E2E2E2E2E2E2E2E2E2E2E2E2E2E2E2E2E2E2E2E2E2E2E2E2E2E2E2E2F5E2F5E2E2E2E2E2E2E2E2E2E2E2E2E2E2E2E2E2E2E22DE2E2E2DCE2E2E2E2E2E2E2E2E2E2E2E2E2E2E2E2E2E2E2E2E2E2E2
310
E2E2E2E2E2E2E2E2E2E2E2E2E2E2E2E2E2E2E2E2E2E2E2E2E2E2DCE2E2E2E22DE2E2E2E2E2E2E2E2E2F5E2F5E2E2E2E2E2E2E2E2E2E2E2E2E2E2E2E2E2E2E2E2E2E2E2E2E2E2E2E2E2E2E2E2E2E2E2E2E2E2E2E2E2E2E2E2E2E2E2E2E2E2E2E2E2E2E2E2E2E2E2E2E2E2E2E2E2E2E2E2E2E2E2E2E2E2E2E2E2E2E2E2E2E2E2
310
E2E2E2E2E2E2E2E2E2E2E2E2E2E2E2E2E2E2E2E2E2E2E2E2E2E2E2E2E2E2E2E2E2E2E2E2E2E2E2E2E2E2E2E2E2E2E2E2E2E2E2E2E2E2E2E2E2E2E2E2E2E2E2E2E2E2E2E2E2E2E2E2E2E2E2E2E2E2E2F5E2F5E2E2E2E2E2E2E2E2E2E2E2E2E2E2E2E2E2E2E2BEE2E2E2DCE2E2E2E2E2E2E2E2E2E2E2E2E2E2E2E2E2E2E2E2E2
310
E2E2E2E2E2E2E2E2E2E2E2E2E2E2E2E2E2E2E2E2E2E2E2E2E2E2E2E2DCE2E2E2BE2DE2E2E2E2E2E2E2E2E2F5E2F5E2E2E2E2E2E2E2E2E2E2E2E2E2E2E2E2E2E2E2E2E2E2E2E2E2E2E2E2E2E2E2E2E2E2E2E2E2E2E2E2E2E2E2E2E2E2E2E2E2E2E2E2E2E2E2E2E2E2E2E2E2E2E2E2E2E2E2E2E2E2E2E2E2E2E2E2E2E2E2E2E2
310
E2E2E2E2E2E2E2E2E2E2E2E2E2E2E2E2E2E2E2E2E2E2E2E2E2E2E2E2E2E2E2E2E2E2E2E2E2E2E2E2E2E2E2E2E2E2E2E2E2E2E2E2E2E2E2E2E2E2E2E2E2E2E2E2E2E2E2E2E2E2E2E2E2E2E2E2E2E2E2E2E2F5E2F5E2E2E2E2E2E2E2E2E2E2E2E2E2E2E2E2E2E2BEBEE2E2E2DCE2E2E2E2E2E2E2E2E2E2E2E2E2E2E2E2E2E2E2
310
E2E2E2E2E2E2E2E2E2E2E2E2E2E2E2E2E2E2E2E2E2E2E2E2E2E2E2E2E2E2DCE2E2E2BE2DE2E2E2E2E2E2E2E2E2F5E2F5E2E2E2E2E2E2E2E2E2E2E2E2E2E2E2E2E2E2E2E2E2E2E2E2E2E2E2E2E2E2E2E2E2E2E2E2E2E2E2E2E2E2E2E2E2E2E2E2E2E2E2E2E2E2E2E2E2E2E2E2E2E2E2E2E2E2E2E2E2E2E2E2E2E2E2E2E2E2E2
310
E2E2E2E2E2E2E2E2E2E2E2E2E2E2E2E2E2E2E2E2E2E2E2E2E2E2E2E2E2E2E2E2E2E2E2E2E2E2E2E2E2E2E2E2E2E2E2E2E2E2E2E2E2E2E2E2E2E2E2E2E2E2E2E2E2E2E2E2E2E2E2E2E2E2E2E2E2E2E2E2E2E2E2F5E2F5E2E2E2E2E2E2E2E2E2E2E2E2E2E2E2E2E2E2BEBEE2E2E2DCE2E2E2E2E2E2E2E2E2E2E2E2E2E2E2E2E2
310
E2E2E2E2E2E2E2E2E2E2E2E2E2E2E2E2E2E2E2E2E2E2E2E2E2E2E2E2E2E2E2E2DCE2E2E2BE2DE2E2E2E2E2E2E2E2E2F5E2F5E2E2E2E2E2E2E2E2E2E2E2E2E2E2E2E2E2E2E2E2E2E2E2E2E2E2E2E2E2E2E2E2E2E2E2E2E2E2E2E2E2E2E2E2E2E2E2E2E2E2E2E2E2E2E2E2E2E2E2E2E2E2E2E2E2E2E2E2E2E2E2E2E2E2E2E2E2
310
E2E2E2E2E2E2E2E2E2E2E2E2E2E2E2E2E2E2E2E2E2E2E2E2E2E2E2E2E2E2E2E2E2E2E2E2E2E2E2E2E2E2E2E2E2E2E2E2E2E2E2E2E2E2E2E2E2E2E2E2E2E2E2E2E2E2E2E2E2E2E2E2E2E2E2E2E2E2E2E2E2E2E2E2E2F5E2F5E2E2E2E2E2E2E2E2E2E2E2E2E2E2E2E2E2E2E22DE2E2E2DCE2E2E2E2E2E2E2E2E2E2E2E2E2E2E2
310
E2E2E2E2E2E2E2E2E2E2E2E2E2E2E2E2E2E2E2E2E2E2E2E2E2E2E2E2E2E2E2E2E2E2DCE2E2E2E22DE2E2E2E2E2E2E2E2E2F5E2F5E2E2E2E2E2E2E2E2E2E2E2E2E2E2E2E2E2E2E2E2E2E2E2E2E2E2E2E2E2E2E2E2E2E2E2E2E2E2E2E2E2E2E2E2E2E2E2E2E2E2E2E2E2E2E2E2E2E2E2E2E2E2E2E2E2E2E2E2E2E2E2E2E2E2E2
310
E2E2E2E2E2E2E2E2E2E2E2E2E2E2E2E2E2E2E2E2E2E2E2E2E2E2E2E2E2E2E2E2E2E2E2E2E2E2E2E2E2E2E2E2E2E2E2E2E2E2E2E2E2E2E2E2E2E2E2E2E2E2E2E2E2E2E2E2E2E2E2E2E2E2E2E2E2E2E2E2E2E2E2E2E2E2E2F5E2F5E2E2E2E2E2E2E2E2E2E2E2E2E2E2E2E2E2E2E22DE2E2E2DCE2E2E2E2E2E2E2E2E2E2E2E2E2
310
E2E2E2E2E2E2E2E2E2E2E2E2E2E2E2E2E2E2E2E2E2E2E2E2E2E2E2E2E2E2E2E2E2E2E2E2DCE2E2E2E22DE2E2E2E2E2E2E2E2E2F5E2F5E2E2E2E2E2E2E2E2E2E2E2E2E2E2E2E2E2E2E2E2E2E2E2E2E2E2E2E2E2E2E2E2E2E2E2E2E2E2E2E2E2E2E2E2E2E2E2E2E2E2E2E2E2E2E2E2E2E2E2E2E2E2E2E2E2E2E2E2E2E2E2E2E2
310
E2E2E2E2E2E2E2E2E2E2E2E2E2E2E2E2E2E2E2E2E2E2E2E2E2E2E2E2E2E2E2E2E2E2E2E2E2E2E2E2E2E2E2E2E2E2E2E2E2E2E2E2E2E2E2E2E2E2E2E2E2E2E2E2E2E2E2E2E2E2E2E2E2E2E2E2E2E2E2E2E2E2E2E2E2E2E2E2E2F5E2F5E2E2E2E2E2E2E2E2E2E2E2E2E2E2E2E2E2E2E22DE2E2E2DCE2E2E2E2E2E2E2E2E2E2E2
310
E2E2E2E2E2E2E2E2E2E2E2E2E2E2E2E2E2E2E2E2E2E2E2E2E2E2E2E2E2E2E2E2E2E2E2E2E2E2DCE2E2E2E22DE2E2E2E2E2E2E2E2E2F5E2F5E2E2E2E2E2E2E2E2E2E2E2E2E2E2E2E2E2E2E2E2E2E2E2E2E2E2E2E2E2E2E2E2E2E2E2E2E2E2E2E2E2E2E2E2E2E2E2E2E2E2E2E2E2E2E2E2E2E2E2E2E2E2E2E2E2E2E2E2E2E2E2
310
E2E2E2E2E2E2E2E2E2E2E2E2E2E2E2E2E2E2E2E2E2E2E2E2E2E2E2E2E2E2E2E2E2E2E2E2E2E2E2E2E2E2E2E2E2E2E2E2E2E2E2E2E2E2E2E2E2E2E2E2E2E2E2E2E2E2E2E2E2E2E2E2E2E2E2E2E2E2E2E2E2E2E2E2E2E2E2E2E2E2E2F5E2F5E2E2E2E2E2E2E2E2E2E2E2E2E2E2E2E2E2E2E22DE2E2E2DCE2E2E2E2E2E2E2E2E2
310
E2E2E2E2E2E2E2E2E2E2E2E2E2E2E2E2E2E2E2E2E2E2E2E2E2E2E2E2E2E2E2E2E2E2E2E2E2E2E2E2DCE2E2E2E22DE2E2E2E2E2E2E2E2E2F5E2F5E2E2E2E2E2E2E2E2E2E2E2E2E2E2E2E2E2E2E2E2E2E2E2E2E2E2E2E2E2E2E2E2E2E2E2E2E2E2E2E2E2E2E2E2E2E2E2E2E2E2E2E2E2E2E2E2E2E2E2E2E2E2E2E2E2E2E2E2E2
310
E2E2E2E2E2E2E2E2E2E2E2E2E2E2E2E2E2E2E2E2E2E2E2E2E2E2E2E2E2E2E2E2E2E2E2E2E2E2E2E2E2E2E2E2E2E2E2E2E2E2E2E2E2E2E2E2E2E2E2E2E2E2E2E2E2E2E2E2E2E2E2E2E2E2E2E2E2E2E2E2E2E2E2E2E2E2E2E2E2E2E2E2E2F5E2F5E2E2E2E2E2E2E2E2E2E2E2E2E2E2E2E2E2E2E22DE2E2E2DCE2E2E2E2E2E2E2
310
E2E2E2E2E2E2E2E2E2E2E2E2E2E2E2E2E2E2E2E2E2E2E2E2E2E2E2E2E2E2E2E2E2E2E2E2E2E2E2E2E2E2DCE2E2E2E22DE2E2E2E2E2E2E2E2E2F5E2F5E2E2E2E2E2E2E2E2E2E2E2E2E2E2E2E2E2E2E2E2E2E2E2E2E2E2E2E2E2E2E2E2E2E2E2E2E2E2E2E2E2E2E2E2E2E2E2E2E2E2E2E2E2E2E2E2E2E2E2E2E2E2E2E2E2E2E2
310
E2E2E2E2E2E2E2E2E2E2E2E2E2E2E2E2E2E2E2E2E2E2E2E2E2E2E2E2E2E2E2E2E2E2E2E2E2E2E2E2E2E2E2E2E2E2E2E2E2E2E2E2E2E2E2E2E2E2E2E2E2E2E2E2E2E2E2E2E2E2E2E2E2E2E2E2E2E2E2E2E2E2E2E2E2E2E2E2E2E2E2E2E2E2E2F5E2F5E2E2E2E2E2E2E2E2E2E2E2E2E2E2E2E2E2E2E22DE2E2E2DCE2E2E2E2E2
310
E2E2E2E2E2E2E2E2E2E2E2E2E2E2E2E2E2E2E2E2E2E2E2E2E2E2E2E2E2E2E2E2E2E2E2E2E2E2E2E2E2E2E2E2DCE2E2E2E22DE2E2E2E2E2E2E2E2E2F5E2F5E2E2E2E2E2E2E2E2E2E2E2E2E2E2E2E2E2E2E2E2E2E2E2E2E2E2E2E2E2E2E2E2E2E2E2E2E2E2E2E2E2E2E2E2E2E2E2E2E2E2E2E2E2E2E2E2E2E2E2E2E2E2E2E2E2
310
E2E2E2E2E2E2E2E2E2E2E2E2E2E2E2E2E2E2E2E2E2E2E2E2E2E2E2E2E2E2E2E2E2E2E2E2E2E2E2E2E2E2E2E2E2E2E2E2E2E2E2E2E2E2E2E2E2E2E2E2E2E2E2E2E2E2E2E2E2E2E2E2E2E2E2E2E2E2E2E2E2E2E2E2E2E2E2E2E2E2E2E2E2E2E2E2E2F5E2F5E2E2E2E2E2E2E2E2E2E2E2E2E2E2E2E2E2E2E22DE2E2E2DCE2E2E2
310
E2E2E2E2E2E2E2E2E2E2E2E2E2E2E2E2E2E2E2E2E2E2E2E2E2E2E2E2E2E2E2E2E2E2E2E2E2E2E2E2E2E2E2E2E2E2DCE2E2E2E22DE2E2E2E2E2E2E2E2E2F5E2F5E2E2E2E2E2E2E2E2E2E2E2E2E2E2E2E2E2E2E2E2E2E2E2E2E2E2E2E2E2E2E2E2E2E2E2E2E2E2E2E2E2E2E2E2E2E2E2E2E2E2E2E2E2E2E2E2E2E2E2E2E2E2E2
310
E2E2E2E2E2E2E2E2E2E2E2E2E2E2E2E2E2E2E2E2E2E2E2E2E2E2E2E2E2E2E2E2E2E2E2E2E2E2E2E2E2E2E2E2E2E2E2E2E2E2E2E2E2E2E2E2E2E2E2E2E2E2E2E2E2E2E2E2E2E2E2E2E2E2E2E2E2E2E2E2E2E2E2E2E2E2E2E2E2E2E2E2E2E2E2E2E2E2E2F5E2F5E2E2E2E2E2E2E2E2E2E2E2E2E2E2E2E2E2E2E22DE2E2E2DCE2
310
E2E2E2E2E2E2E2E2E2E2E2E2E2E2E2E2E2E2E2E2E2E2E2E2E2E2E2E2E2E2E2E2E2E2E2E2E2E2E2E2E2E2E2E2E2E2E2E2DCE2E2E2E22DE2E2E2E2E2E2E2E2E2F5E2F5E2E2E2E2E2E2E2E2E2E2E2E2E2E2E2E2E2E2E2E2E2E2E2E2E2E2E2E2E2E2E2E2E2E2E2E2E2E2E2E2E2E2E2E2E2E2E2E2E2E2E2E2E2E2E2E2E2E2E2E2E2
310
E2E2E2E2E2E2E2E2E2E2E2E2E2E2E2E2E2E2E2E2E2E2E2E2E2E2E2E2E2E2E2E2E2E2E2E2E2E2E2E2E2E2E2E2E2E2E2E2E2E2E2E2E2E2E2E2E2E2E2E2E2E2E2E2E2E2E2E2E2E2E2E2E2E2E2E2E2E2E2E2E2E2E2E2E2E2E2E2E2E2E2E2E2E2E2E2E2E2E2E2E2F5E2F5E2E2E2E2E2E2E2E2E2E2E2E2E2E2E2E2E2E2E22DE2E2E2
310
DCE2E2E2E2E2E2E2E2E2E2E2E2E2E2E2E2E2E2E2E2E2E2E2E2E2E2E2E2E2E2E2E2E2E2E2E2E2E2E2E2E2E2E2E2E2E2E2E2E2DCE2E2E2E22DE2E2E2E2E2E2E2E2E2F5E2F5E2E2E2E2E2E2E2E2E2E2E2E2E2E2E2E2E2E2E2E2E2E2E2E2E2E2E2E2E2E2E2E2E2E2E2E2E2E2E2E2E2E2E2E2E2E2E2E2E2E2E2E2E2E2E2E2E2E2E2
310
E2E2E2E2E2E2E2E2E2E2E2E2E2E2E2E2E2E2E2E2E2E2E2E2E2E2E2E2E2E2E2E2E2E2E2E2E2E2E2E2E2E2E2E2E2E2E2E2E2E2E2E2E2E2E2E2E2E2E2E2E2E2E2E2E2E2E2E2E2E2E2E2E2E2E2E2E2E2E2E2E2E2E2E2E2E2E2E2E2E2E2E2E2E2E2E2E2E2E2E2E2E2E2F5E2F5E2E2E2E2E2E2E2E2E2E2E2E2E2E2E2E2E2E2E22DE2
310
E2E2DCBEE2E2E2E2E2E2E2E2E2E2E2E2E2E2E2E2E2E2E2E2E2E2E2E2E2E2E2E2E2E2E2E2E2E2E2E2E2E2E2E2E2E2E2E2E2E2BEF52D2D2D2D2D2DE2E2E2E2E2E2E2E2E2F5E2F5E2E2E2E2E2E2E2E2E2E2E2E2E2E2E2E2E2E2E2E2E2E2E2E2E2E2E2E2E2E2E2E2E2E2E2E2E2E2E2E2E2E2E2E2E2E2E2E2E2E2E2E2E2E2E2E2E2
310
E2E2E2E2E2E2E2E2E2E2E2E2E2E2E2E2E2E2E2E2E2E2E2E2E2E2E2E2E2E2E2E2E2E2E2E2E2E2E2E2E2E2E2E2E2E2E2E2E2E2E2E2E2E2E2E2E2E2E2E2E2E2E2E2E2E2E2E2E2E2E2E2E2E2E2E2E2E2E2E2E2E2E2E2E2E2E2E2E2E2E2E2E2E2E2E2E2E2E2E2E2E2E2E2E2F5E2F5E2E2E2E2E2E2E2E2E2E2E2E2E2E2E2E2E2E2E2
310
2DE2E2E2F5F5E2E2E2E2E2E2E2E2E2E2E2E2E2E2E2E2E2E2E2E2E2E2E2E2E2E2E2E2E2E2E2E2E2E2E2E2E2E2E2E2E2E2E2E2E2E2F5DCF5E2E2E2E22DE2E2E2E2E2E2E2E2E2F5E2F5E2E2E2E2E2E2E2E2E2E2E2E2E2E2E2E2E2E2E2E2E2E2E2E2E2E2E2E2E2E2E2E2E2E2E2E2E2E2E2E2E2E2E2E2E2E2E2E2E2E2E2E2E2E2E2
310
E2E2E2E2E2E2E2E2E2E2E2E2E2E2E2E2E2E2E2E2E2E2E2E2E2E2E2E2E2E2E2E2E2E2E2E2E2E2E2E2E2E2E2E2E2E2E2E2E2E2E2E2E2E2E2E2E2E2E2E2E2E2E2E2E2E2E2E2E2E2E2E2E2E2E2E2E2E2E2E2E2E2E2E2E2E2E2E2E2E2E2E2E2E2E2E2E2E2E2E2E2E2E2E2E2E2E2F5E2F5E2E2E2E2E2E2E2E2E2E2E2E2E2E2E2E2E2
310
E2E22D2D2D2D2D2DDCDCDCDCDCDCDCDCDCDCDCDCDCDCDCDCDCDCDCDCDCDCDCDCDCDCDCDCDCDCDCDCDCDCDCDCDCDCDCDCDCDCDCDCDCDC2DDCF52D2D2D2D2DE2E2E2E2E2E2E2E2E2F5E2F5E2E2E2E2E2E2E2E2E2E2E2E2E2E2E2E2E2E2E2E2E2E2E2E2E2E2E2E2E2E2E2E2E2E2E2E2E2E2E2E2E2E2E2E2E2E2E2E2E2E2E2E2E2
310
E2E2E2E2E2E2E2E2E2E2E2E2E2E2E2E2E2E2E2E2E2E2E2E2E2E2E2E2E2E2E2E2E2E2E2E2E2E2E2E2E2E2E2E2E2E2E2E2E2E2E2E2E2E2E2E2E2E2E2E2E2E2E2E2E2E2E2E2E2E2E2E2E2E2E2E2E2E2E2E2E2E2E2E2E2E2E2E2E2E2E2E2E2E2E2E2E2E2E2E2E2E2E2E2E2E2E2E2E2F5E2F5E2E2E2E2E2E2E2E2E2E2E2E2E2E2E2
310
E2E2E2E2E2E2BE2D2D2D2D2D2D2D2D2D2D2D2D2D2D2D2D2D2D2D2D2D2D2D2D2DBEBEBE2D2D2D2D2D2D2D2D2D2D2D2D2D2D2D2D2D2D2D2D2D2D2DF52DBEBEBE2DE2E2E2E2E2E2E2E2E2F5E2F5E2E2E2E2E2E2E2E2E2E2E2E2E2E2E2E2E2E2E2E2E2E2E2E2E2E2E2E2E2E2E2E2E2E2E2E2E2E2E2E2E2E2E2E2E2E2E2E2E2E2E2
310
E2E2E2E2E2E2E2E2E2E2E2E2E2E2E2E2E2E2E2E2E2E2E2E2E2E2E2E2E2E2E2E2E2E2E2E2E2E2E2E2E2E2E2E2E2E2E2E2E2E2E2E2E2E2E2E2E2E2E2E2E2E2E2E2E2E2E2E2E2E2E2E2E2E2E2E2E2E2E2E2E2E2E2E2E2E2E2E2E2E2E2E2E2E2E2E2E2E2E2E2E2E2E2E2E2E2E2E2E2E2E2F5E2F5E2E2E2E2E2E2E2E2E2E2E2E2E2
310
E2E2E2E2E2E2E2E2BEBE2DE2E2E2E2E2E2E2E2E2E2E2E2E2E2E2E2E2E2E2E2E2E2E2BEBEBEE2E2E2E2E2E2E2E2E2E2E2E2E2E2E2E2E2E2E2E2E2E2E22DBEBEBEBEE2E2E2E2E2E2E2E2E2E2F5E2F5E2E2E2E2E2E2E2E2E2E2E2E2E2E2E2E2E2E2E2E2E2E2E2E2E2E2E2E2E2E2E2E2E2E2E2E2E2E2E2E2E2E2E2E2E2E2E2E2E2
310
E2E2E2E2E2E2E2E2E2E2E2E2E2E2E2E2E2E2E2E2E2E2E2E2E2E2E2E2E2E2E2E2E2E2E2E2E2E2E2E2E2E2E2E2E2E2E2E2E2E2E2E2E2E2E2E2E2E2E2E2E2E2E2E2E2E2E2E2E2E2E2E2E2E2E2E2E2E2E2E2E2E2E2E2E2E2E2E2E2E2E2E2E2E2E2E2E2E2E2E2E2E2E2E2E2E2E2E2E2E2E2E2E2F5E2F5E2E2E2E2E2E2E2E2E2E2E2
310
E2E2E2E2E2E2E2E2E2E2E2E22D2D2D2D2D2D2D2D2D2D2D2D2D2D2D2D2D2D2D2D2D2D2D2DBEBEBE2D2D2D2D2D2D2D2D2D2D2D2D2D2D2D2D2D2D2D2D2D2D2DF5E2E2E2E2E2E2E2E2E2E2E2E2E2E2F5E2F5E2E2E2E2E2E2E2E2E2E2E2E2E2E2E2E2E2E2E2E2E2E2E2E2E2E2E2E2E2E2E2E2E2E2E2E2E2E2E2E2E2E2E2E2E2E2E2
310
E2E2E2E2E2E2E2E2E2E2E2E2E2E2E2E2E2E2E2E2E2E2E2E2E2E2E2E2E2E2E2E2E2E2E2E2E2E2E2E2E2E2E2E2E2E2E2E2E2E2E2E2E2E2E2E2E2E2E2E2E2E2E2E2E2E2E2E2E2E2E2E2E2E2E2E2E2E2E2E2E2E2E2E2E2E2E2E2E2E2E2E2E2E2E2E2E2E2E2E2E2E2E2E2E2E2E2E2E2E2E2E2E2E2E2F5E2F5E2E2E2E2E2E2E2E2E2
310
E2E2E2E2E2E2E2E2E2E2E2E2E2E2E2E2E2E2E2E2E2E2E2E2E2E2E2E2E2E2E2E2E2E2E2E2E2E2BEBEBEE2E2E2E2E2E2E2E2E2E2E2E2E2E2E2E2E2E2E2E2E2E2E2E2E2E2E2E2E2E2E2E2E2E2E2E2E2E2F5E2F5E2E2E2E2E2E2E2E2E2E2E2E2E2E2E2E2E2E2E2E2E2E2E2E2E2E2E2E2E2E2E2E2E2E2E2E2E2E2E2E2E2E2E2E2E2
310
E2E2E2E2E2E2E2E2E2E2E2E2E2E2E2E2E2E2E2E2E2E2E2E2E2E2E2E2E2E2E2E2E2E2E2E2E2E2E2E2E2E2E2E2E2E2E2E2E2E2E2E2E2E2E2E2E2E2E2E2E2E2E2E2E2E2E2E2E2E2E2E2E2E2E2E2E2E2E2E2E2E2E2E2E2E2E2E2E2E2E2E2E2E2E2E2E2E2E2E2E2E2E2E2E2E2E2E2E2E2E2E2E2E2E2E2E2F5E2F5E2E2E2E2E2E2E2
310
E2E2E2E2E2E2E2E2E2E2E2E2E2E2E2E2E2E2E2E2E2E2E2E2E2E2E2E2E2E2E2E2E2E2E2E2E2E2E2E2E2E2E2E2E2E2E2E2E2E2E2E2E2E2E2E2E2E2E2E2E2E2E2E2E2E2E2E2E2E2E2E2E2E2E2E2E2E2E2E2E2F5E2F5E2E2E2E2E2E2E2E2E2E2E2E2E2E2E2E2E2E2E2E2E2E2E2E2E2E2E2E2E2E2E2E2E2E2E2E2E2E2E2E2E2E2E2
310
E2E2E2E2E2E2E2E2E2E2E2E2E2E2E2E2E2E2E2E2E2E2E2E2E2E2E2E2E2E2E2E2E2E2E2E2E2E2E2E2E2E2E2E2E2E2E2E2E2E2E2E2E2E2E2E2E2E2E2E2E2E2E2E2E2E2E2E2E2E2E2E2E2E2E2E2E2E2E2E2E2E2E2E2E2E2E2E2E2E2E2E2E2E2E2E2E2E2E2E2E2E2E2E2E2E2E2E2E2E2E2E2E2E2E2E2E2E2E2F5E2F5E2E2E2E2E2
310
E2E2E2E2E2E2E2E2E2E2E2E2E2E2E2E2E2E2E2E2E2E2E2E2E2E2E2E2E2E2E2E2E2E2E2E2E2E2E2E2E2E2E2E2E2E2E2E2E2E2E2E2E2E2E2E2E2E2E2E2E2E2E2E2E2E2E2E2E2E2E2E2E2E2E2E2E2E2E2E2E2E2E2F5E2F5E2E2E2E2E2E2E2E2E2E2E2E2E2E2E2E2E2E2E2E2E2E2E2E2E2E2E2E2E2E2E2E2E2E2E2E2E2E2E2E2E2
310
E2E2E2E2E2E2E2E2E2E2E2E2E2E2E2E2E2E2E2E2E2E2E2E2E2E2E2E2E2E2E2E2E2E2E2E2E2E2E2E2E2E2E2E2E2E2E2E2E2E2E2E2E2E2E2E2E2E2E2E2E2E2E2E2E2E2E2E2E2E2E2E2E2E2E2E2E2E2E2E2E2E2E2E2E2E2E2E2E2E2E2E2E2E2E2E2E2E2E2E2E2E2E2E2E2E2E2E2E2E2E2E2E2E2E2E2E2E2E2E2E2F5E2F5E2E2E2
310
E2E2E2E2E2E2E2E2E2E2E2E2E2E2E2E2E2E2E2E2E2E2E2E2E2E2E2E2E2E2E2E2E2E2E2E2E2E2E2E2E2E2E2E2E2E2E2E2E2E2E2E2E2E2E2E2E2E2E2E2E2E2E2E2E2E2E2E2E2E2E2E2E2E2E2E2E2E2E2E2E2E2E2E2E2F5E2F5E2E2E2E2E2E2E2E2E2E2E2E2E2E2E2E2E2E2E2E2E2E2E2E2E2E2E2E2E2E2E2E2E2E2E2E2E2E2E2
310
E2E2E2E2E2E2E2E2E2E2E2E2E2E2E2E2E2E2E2E2E2E2E2E2E2E2E2E2E2E2E2E2E2E2E2E2E2E2E2E2E2E2E2E2E2E2E2E2E2E2E2E2E2E2E2E2E2E2E2E2E2E2E2E2E2E2E2E2E2E2E2E2E2E2E2E2E2E2E2E2E2E2E2E2E2E2E2E2E2E2E2E2E2E2E2E2E2E2E2E2E2E2E2E2E2E2E2E2E2E2E2E2E2E2E2E2E2E2E2E2E2E2E2F5E2F5E2
310
E2E2E2E2E2E2E2E2E2E2E2E2E2E2E2E2E2E2E2E2E2E2E2E2E2E2E2E2E2E2E2E2E2E2E2E2E2E2E2E2E2E2E2E2E2E2E2E2E2E2E2E2E2E2E2E2E2E2E2E2E2E2E2E2E2E2E2E2E2E2E2E2E2E2E2E2E2E2E2E2E2E2E2E2E2E2E2F5E2F5E2E2E2E2E2E2E2E2E2E2E2E2E2E2E2E2E2E2E2E2E2E2E2E2E2E2E2E2E2E2E2E2E2E2E2E2E2
310
E2E2E2E2E2E2E2E2E2E2E2E2E2E2E2E2E2E2E2E2E2E2E2E2E2E2E2E2E2E2E2E2E2E2E2E2E2E2E2E2E2E2E2E2E2E2E2E2E2E2E2E2E2E2E2E2E2E2E2E2E2E2E2E2E2E2E2E2E2E2E2E2E2E2E2E2E2E2E2E2E2E2E2E2E2E2E2E2E2E2E2E2E2E2E2E2E2E2E2E2E2E2E2E2E2E2E2E2E2E2E2E2E2E2E2E2E2E2E2E2E2E2E2E2E2F5E2
310
F5E2E2E2E2E2E2E2E2E2E2E2E2E2E2E2E2E2E2E2E2E2E2E2E2E2E2E2E2E2E2E2E2E2E2E2E2E2E2E2E2E2E2E2E2E2E2E2E2E2E2E2E2E2E2E2E2E2E2E2E2E2E2E2E2E2E2E2E2E2E2E2E2E2E2E2E2E2E2E2E2E2E2E2E2E2E2E2E2F5E2F5E2E2E2E2E2E2E2E2E2E2E2E2E2E2E2E2E2E2E2E2E2E2E2E2E2E2E2E2E2E2E2E2E2E2E2
310
E2E2E2E2E2E2E2E2E2E2E2E2E2E2E2E2E2E2E2E2E2E2E2E2E2E2E2E2E2E2E2E2E2E2E2E2E2E2E2E2E2E2E2E2E2E2E2E2E2E2E2E2E2E2E2E2E2E2E2E2E2E2E2E2E2E2E2E2E2E2E2E2E2E2E2E2E2E2E2E2E2E2E2E2E2E2E2E2E2E2E2E2E2E2E2E2E2E2E2E2E2E2E2E2E2E2E2E2E2E2E2E2E2E2E2E2E2E2E2E2E2E2E2E2E2E2E2
310
F5E2F5E2E2E2E2E2E2E2E2E2E2E2E2E2E2E2E2E2E2E2E2E2E2E2E2E2E2E2E2E2E2E2E2E2E2E2E2E2E2E2E2E2E2E2E2E2E2E2E2E2E2E2E2E2E2E2E2E2E2E2E2E2E2E2E2E2E2E2E2E2E2E2E2E2E2E2E2E2E2E2E2E2E2E2E2E2E2E2E2F5E2F5E2E2E2E2E2E2E2E2E2E2E2E2E2E2E2E2E2E2E2E2E2E2E2E2E2E2E2E2E2E2E2E2E2
310
E2E2E2E2E2E2E2E2E2E2E2E2E2E2E2E2E2E2E2E2E2E2E2E2E2E2E2E2E2E2E2E2E2E2E2E2E2E2E2E2E2E2E2E2E2E2E2E2E2E2E2E2E2E2E2E2E2E2E2E2E2E2E2E2E2E2E2E2E2E2E2E2E2E2E2E2E2E2E2E2E2E2E2E2E2E2E2E2E2E2E2E2E2E2E2E2E2E2E2E2E2E2E2E2E2E2E2E2E2E2E2E2E2E2E2E2E2E2E2E2E2E2E2E2E2E2E2
310
E2E2F5E2F5E2E2E2E2E2E2E2E2E2E2E2E2E2E2E2E2E2E2E2E2E2E2E2E2E2E2E2E2E2E2E2E2E2E2E2E2E2E2E2E2E2E2E2E2E2E2E2E2E2E2E2E2E2E2E2E2E2E2E2E2E2E2E2E2E2E2E2E2E2E2E2E2E2E2E2E2E2E2E2E2E2E2E2E2E2E2E2E2F5E2F5E2E2E2E2E2E2E2E2E2E2E2E2E2E2E2E2E2E2E2E2E2E2E2E2E2E2E2E2E2E2E2
310
E2E2E2E2E2E2E2E2E2E2E2E2E2E2E2E2E2E2E2E2E2E2E2E2E2E2E2E2E2E2E2E2E2E2E2E2E2E2E2E2E2E2E2E2E2E2E2E2E2E2E2E2E2E2E2E2E2E2E2E2E2E2E2E2E2E2E2E2E2E2E2E2E2E2E2E2E2E2E2E2E2E2E2E2E2E2E2E2E2E2E2E2E2E2E2E2E2E2E2E2E2E2E2E2E2E2E2E2E2E2E2E2E2E2E2E2E2E2E2E2E2E2E2E2E2E2E2
310
E2E2E2E2F5E2F5E2E2E2E2E2E2E2E2E2E2E2E2E2E2E2E2E2E2E2E2E2E2E2E2E2E2E2E2E2E2E2E2E2E2E2E2E2E2E2E2E2E2E2E2E2E2E2E2E2E2E2E2E2E2E2E2E2E2E2E2E2E2E2E2E2E2E2E2E2E2E2E2E2E2E2E2E2E2E2E2E2E2E2E2E2E2E2E2F5E2F5E2E2E2E2E2E2E2E2E2E2E2E2E2E2E2E2E2E2E2E2E2E2E2E2E2E2E2E2E2
310
E2E2E2E2E2E2E2E2E2E2E2E2E2E2E2E2E2E2E2E2E2E2E2E2E2E2E2E2E2E2E2E2E2E2E2E2E2E2E2E2E2E2E2E2E2E2E2E2E2E2E2E2E2E2E2E2E2E2E2E2E2E2E2E2E2E2E2E2E2E2E2E2E2E2E2E2E2E2E2E2E2E2E2E2E2E2E2E2E2E2E2E2E2E2E2E2E2E2E2E2E2E2E2E2E2E2E2E2E2E2E2E2E2E2E2E2E2E2E2E2E2E2E2E2E2E2E2
310
E2E2E2E2E2E2F5E2F5F5F5F5F5F5F5F5F5F5F5F5F5F5F5F5F5F5F5F5F5F5F5F5F5F5F5F5F5F5F5F5F5F5F5F5F5F5F5F5F5F5F5F5F5F5F5F5F5F5F5F5F5F5F5F5F5F5F5F5F5F5F5F5F5F5F5F5F5F5F5F5F5F5F5F5F5F5F5F5F5F5F5F5F5F5F5F5F5F5E2F5E2E2E2E2E2E2E2E2E2E2E2E2E2E2E2E2E2E2E2E2E2E2E2E2E2E2E2
310
E2E2E2E2E2E2E2E2E2E2E2E2E2E2E2E2E2E2E2E2E2E2E2E2E2E2E2E2E2E2E2E2E2E2E2E2E2E2E2E2E2E2E2E2E2E2E2E2E2E2E2E2E2E2E2E2E2E2E2E2E2E2E2E2E2E2E2E2E2E2E2E2E2E2E2E2E2E2E2E2E2E2E2E2E2E2E2E2E2E2E2E2E2E2E2E2E2E2E2E2E2E2E2E2E2E2E2E2E2E2E2E2E2E2E2E2E2E2E2E2E2E2E2E2E2E2E2
310
E2E2E2E2E2E2E2E2F5E2E2E2E2E2E2E2E2E2E2E2E2E2E2E2E2E2E2E2E2E2E2E2E2E2E2E2E2E2E2E2E2E2E2E2E2E2E2E2E2E2E2E2E2E2E2E2E2E2E2E2E2E2E2E2E2E2E2E2E2E2E2E2E2E2E2E2E2E2E2E2E2E2E2E2E2E2E2E2E2E2E2E2E2E2E2E2E2E2E2E2E2F5E2E2E2E2E2E2E2E2E2E2E2E2E2E2E2E2E2E2E2E2E2E2E2E2E2
310
E2E2E2E2E2E2E2E2E2E2E2E2E2E2E2E2E2E2E2E2E2E2E2E2E2E2E2E2E2E2E2E2E2E2E2E2E2E2E2E2E2E2E2E2E2E2E2E2E2E2E2E2E2E2E2E2E2E2E2E2E2E2E2E2E2E2E2E2E2E2E2E2E2E2E2E2E2E2E2E2E2E2E2E2E2E2E2E2E2E2E2E2E2E2E2E2E2E2E2E2E2E2E2E2E2E2E2E2E2E2E2E2E2E2E2E2E2E2E2E2E2E2E2E2E2E2E2
310
E2E2E2E2E2E2E2E2E2E2F5F5F5F5F5F5F5F5F5F5F5F5F5F5F5F5F5F5F5F5F5F5F5F5F5F5F5F5F5F5F5F5F5F5F5F5F5F5F5F5F5F5F5F5F5F5F5F5F5F5F5F5F5F5F5F5F5F5F5F5F5F5F5F5F5F5F5F5F5F5F5F5F5F5F5F5F5F5F5F5F5F5F5F5F5F5F5F5F5F5F5F5F5F5E2E2E2E2E2E2E2E2E2E2E2E2E2E2E2E2E2E2E2E2E2E2E2
310
E2E2E2E2E2E2E2E2E2E2E2E2E2E2E2E2E2E2E2E2E2E2E2E2E2E2E2E2E2E2E2E2E2E2E2E2E2E2E2E2E2E2E2E2E2E2E2E2E2E2E2E2E2E2E2E2E2E2
  0
XRECORD
  5
F
102
{ACAD_REACTORS
330
E
102
}
330
E
100
AcDbXrecord
280
     1
270
     1
271
     1
  0
XRECORD
  5
10
102
{ACAD_REACTORS
330
E
102
}
330
E
100
AcDbXrecord
280
     1
270
     1
271
     1
  0
XRECORD
  5
11
102
{ACAD_REACTORS
330
E
102
}
330
E
100
AcDbXrecord
280
     1
270
     1
271
     1
  0
XRECORD
  5
12
102
{ACAD_REACTORS
330
E
102
}
330
E
100
AcDbXrecord
280
     1
270
     1
271
     1
  0
CELLSTYLEMAP
  5
287
102
{ACAD_REACTORS
330
44
102
}
330
44
100
AcDbCellStyleMap
 90
        3
300
CELLSTYLE
  1
TABLEFORMAT_BEGIN
 90
        5
170
     1
 91
        0
 92
    32768
 62
   257
 93
        1
300
CONTENTFORMAT
  1
CONTENTFORMAT_BEGIN
 90
        0
 91
        0
 92
      512
 93
        0
300

 40
0.0
140
1.0
 94
        5
 62
     0
340
25
144
6.0
309
CONTENTFORMAT_END
171
     1
301
MARGIN
  1
CELLMARGIN_BEGIN
 40
1.5
 40
1.5
 40
1.5
 40
1.5
 40
4.5
 40
4.5
309
CELLMARGIN_END
 94
        6
 95
        1
302
GRIDFORMAT
  1
GRIDFORMAT_BEGIN
 90
        0
 91
        1
 62
     0
 92
       -2
340
28
 93
        0
 40
1.125
309
GRIDFORMAT_END
 95
        2
302
GRIDFORMAT
  1
GRIDFORMAT_BEGIN
 90
        0
 91
        1
 62
     0
 92
       -2
340
28
 93
        0
 40
1.125
309
GRIDFORMAT_END
 95
        4
302
GRIDFORMAT
  1
GRIDFORMAT_BEGIN
 90
        0
 91
        1
 62
     0
 92
       -2
340
28
 93
        0
 40
1.125
309
GRIDFORMAT_END
 95
        8
302
GRIDFORMAT
  1
GRIDFORMAT_BEGIN
 90
        0
 91
        1
 62
     0
 92
       -2
340
28
 93
        0
 40
1.125
309
GRIDFORMAT_END
 95
       16
302
GRIDFORMAT
  1
GRIDFORMAT_BEGIN
 90
        0
 91
        1
 62
     0
 92
       -2
340
28
 93
        0
 40
1.125
309
GRIDFORMAT_END
 95
       32
302
GRIDFORMAT
  1
GRIDFORMAT_BEGIN
 90
        0
 91
        1
 62
     0
 92
       -2
340
28
 93
        0
 40
1.125
309
GRIDFORMAT_END
309
TABLEFORMAT_END
  1
CELLSTYLE_BEGIN
 90
        1
 91
        1
300
_TITLE
309
CELLSTYLE_END
300
CELLSTYLE
  1
TABLEFORMAT_BEGIN
 90
        5
170
     1
 91
        0
 92
        0
 62
   257
 93
        1
300
CONTENTFORMAT
  1
CONTENTFORMAT_BEGIN
 90
        0
 91
        0
 92
      512
 93
        0
300

 40
0.0
140
1.0
 94
        5
 62
     0
340
25
144
4.5
309
CONTENTFORMAT_END
171
     1
301
MARGIN
  1
CELLMARGIN_BEGIN
 40
1.5
 40
1.5
 40
1.5
 40
1.5
 40
4.5
 40
4.5
309
CELLMARGIN_END
 94
        6
 95
        1
302
GRIDFORMAT
  1
GRIDFORMAT_BEGIN
 90
        0
 91
        1
 62
     0
 92
       -2
340
28
 93
        0
 40
1.125
309
GRIDFORMAT_END
 95
        2
302
GRIDFORMAT
  1
GRIDFORMAT_BEGIN
 90
        0
 91
        1
 62
     0
 92
       -2
340
28
 93
        0
 40
1.125
309
GRIDFORMAT_END
 95
        4
302
GRIDFORMAT
  1
GRIDFORMAT_BEGIN
 90
        0
 91
        1
 62
     0
 92
       -2
340
28
 93
        0
 40
1.125
309
GRIDFORMAT_END
 95
        8
302
GRIDFORMAT
  1
GRIDFORMAT_BEGIN
 90
        0
 91
        1
 62
     0
 92
       -2
340
28
 93
        0
 40
1.125
309
GRIDFORMAT_END
 95
       16
302
GRIDFORMAT
  1
GRIDFORMAT_BEGIN
 90
        0
 91
        1
 62
     0
 92
       -2
340
28
 93
        0
 40
1.125
309
GRIDFORMAT_END
 95
       32
302
GRIDFORMAT
  1
GRIDFORMAT_BEGIN
 90
        0
 91
        1
 62
     0
 92
       -2
340
28
 93
        0
 40
1.125
309
GRIDFORMAT_END
309
TABLEFORMAT_END
  1
CELLSTYLE_BEGIN
 90
        2
 91
        1
300
_HEADER
309
CELLSTYLE_END
300
CELLSTYLE
  1
TABLEFORMAT_BEGIN
 90
        5
170
     1
 91
        0
 92
        0
 62
   257
 93
        1
300
CONTENTFORMAT
  1
CONTENTFORMAT_BEGIN
 90
        0
 91
        0
 92
      512
 93
        0
300

 40
0.0
140
1.0
 94
        2
 62
     0
340
25
144
4.5
309
CONTENTFORMAT_END
171
     1
301
MARGIN
  1
CELLMARGIN_BEGIN
 40
1.5
 40
1.5
 40
1.5
 40
1.5
 40
4.5
 40
4.5
309
CELLMARGIN_END
 94
        6
 95
        1
302
GRIDFORMAT
  1
GRIDFORMAT_BEGIN
 90
        0
 91
        1
 62
     0
 92
       -2
340
28
 93
        0
 40
1.125
309
GRIDFORMAT_END
 95
        2
302
GRIDFORMAT
  1
GRIDFORMAT_BEGIN
 90
        0
 91
        1
 62
     0
 92
       -2
340
28
 93
        0
 40
1.125
309
GRIDFORMAT_END
 95
        4
302
GRIDFORMAT
  1
GRIDFORMAT_BEGIN
 90
        0
 91
        1
 62
     0
 92
       -2
340
28
 93
        0
 40
1.125
309
GRIDFORMAT_END
 95
        8
302
GRIDFORMAT
  1
GRIDFORMAT_BEGIN
 90
        0
 91
        1
 62
     0
 92
       -2
340
28
 93
        0
 40
1.125
309
GRIDFORMAT_END
 95
       16
302
GRIDFORMAT
  1
GRIDFORMAT_BEGIN
 90
        0
 91
        1
 62
     0
 92
       -2
340
28
 93
        0
 40
1.125
309
GRIDFORMAT_END
 95
       32
302
GRIDFORMAT
  1
GRIDFORMAT_BEGIN
 90
        0
 91
        1
 62
     0
 92
       -2
340
28
 93
        0
 40
1.125
309
GRIDFORMAT_END
309
TABLEFORMAT_END
  1
CELLSTYLE_BEGIN
 90
        3
 91
        2
300
_DATA
309
CELLSTYLE_END
  0
ENDSEC
  0
EOF
